<?xml version="1.0" encoding="UTF-8"?>
<svg xmlns="http://www.w3.org/2000/svg" xmlns:xlink="http://www.w3.org/1999/xlink" version="1.2" >
<font id="Red Hair Sensual Sans">
<font-face  font-family="Red Hair Sensual Sans" units-per-em="1000" ascent="750" descent="-250" font-style="normal" font-weight="100" font-stretch="normal" cap-height="688" x-height="760" underline-position="-75" underline-thickness="50" />
<missing-glyph  horiz-adv-x="119" d="" />
<glyph glyph-name="NULL" d="" />
<glyph glyph-name="CR" unicode="&#xd;" horiz-adv-x="119" d="" />
<glyph glyph-name="space" unicode="&#x20;" horiz-adv-x="119" d="" />
<glyph glyph-name="exclam" unicode="&#x21;" horiz-adv-x="176" d="M48 -88 L141 -88 L141 -2 L48 -2 L48 -88 L48 -88 Z M48 587 L48 26 L141 26 L141 587 L48 587 L48 587 Z " />
<glyph glyph-name="quotedbl" unicode="&#x22;" horiz-adv-x="280" d="M77 588 L13 437 L85 437 L174 588 L77 588 L77 588 Z M178 588 L114 437 L186 437 L275 588 L178 588 L178 588 Z " />
<glyph glyph-name="numbersign" unicode="&#x23;" horiz-adv-x="451" d="M330 588 C317 516 302 439 289 371 L215 371 L256 588 L162 588 L121 371 L42 371 L42 279 L103 279 C95 240 87 205 82 169 L22 169 L22 76 L65 76 L35 -88 L129 -88 C141 -23 150 24 160 76 L233 76 L204 -88 L297 -88 C309 -26 318 25 329 76 L403 76 L403 169 L346 169 L367 279 L421 279 L421 371 L384 371 L425 588 L330 588 L330 588 Z M251 169 L177 169 L198 278 C250 278 261 279 271 279 C264 241 259 205 251 169 L251 169 Z " />
<glyph glyph-name="dollar" unicode="&#x24;" horiz-adv-x="373" d="M243 589 L243 613 L152 613 L152 589 C110 579 80 555 63 519 C57 506 50 484 50 455 L50 319 C50 294 61 270 80 251 C95 237 110 230 110 230 C111 229 129 221 152 215 L152 20 C142 35 142 53 142 53 L142 159 L50 159 L50 53 C50 24 57 1 63 -12 C80 -48 110 -72 152 -82 L152 -106 L244 -106 L244 -82 C285 -72 316 -48 332 -12 C338 1 345 24 345 53 L345 169 C345 211 326 238 311 254 C295 270 280 277 276 279 C274 280 263 286 244 291 L244 488 C254 473 254 455 254 454 L254 342 L345 342 L345 454 C345 484 338 506 332 519 C316 556 285 580 243 589 L243 589 Z M152 311 C144 316 142 322 142 323 L142 454 C142 454 142 472 152 487 L152 311 L152 311 Z M254 174 L254 174 L254 53 L254 53 C254 53 254 34 244 19 L244 193 C254 184 254 175 254 174 L254 174 Z " />
<glyph glyph-name="percent" unicode="&#x25;" horiz-adv-x="494" d="M332 600 L78 -96 L173 -96 L427 600 L332 600 L332 600 Z M437 206 C420 223 397 232 373 232 C321 232 280 192 280 142 L280 -6 C280 -57 321 -96 373 -96 C397 -96 420 -87 437 -70 C455 -53 465 -30 465 -6 L465 142 C465 166 455 189 437 206 L437 206 Z M379 -7 C379 -10 376 -13 372 -13 C370 -13 363 -13 363 -7 L363 139 C363 144 367 146 372 146 C376 146 379 142 379 139 L379 -7 L379 -7 Z M189 281 C207 298 217 321 217 345 L217 492 C217 517 207 540 189 557 C172 573 148 582 125 582 C102 582 78 573 60 557 C42 540 32 517 32 492 L32 345 C32 321 42 298 60 281 C78 265 101 255 125 255 C149 255 172 265 189 281 L189 281 Z M118 341 L118 487 C118 491 121 494 126 494 C129 494 134 490 134 487 L134 341 C134 337 131 334 126 334 C122 334 118 337 118 341 L118 341 Z " />
<glyph glyph-name="ampersand" unicode="&#x26;" horiz-adv-x="417" d="M347 319 L254 319 L254 306 L199 307 C156 307 146 331 144 352 L144 448 C144 462 150 475 161 484 C171 493 185 499 199 499 L199 499 C229 499 253 477 254 449 L254 447 L254 386 L347 386 L347 450 L347 457 L347 458 C345 494 328 528 299 553 C272 577 236 590 199 590 L199 590 C162 590 127 577 100 554 C71 529 54 495 51 459 L51 459 L51 323 L51 322 C53 302 58 275 79 259 C80 257 82 256 83 255 C82 254 81 254 79 252 C59 237 53 210 51 191 L51 190 L51 40 L51 40 C54 3 71 -30 100 -55 C127 -79 162 -92 199 -92 L199 -92 C236 -92 272 -78 299 -54 C328 -29 345 5 347 41 L347 68 L347 213 L377 213 L377 306 L347 306 L347 319 L347 319 Z M254 50 C254 37 248 24 238 14 C227 5 213 0 199 0 L199 0 C185 0 171 5 161 14 C150 24 144 37 144 50 L144 168 C145 176 147 187 155 196 C164 207 178 213 198 213 L254 213 L254 50 L254 50 Z " />
<glyph glyph-name="quotesingle" unicode="&#x27;" horiz-adv-x="183" d="M74 588 L10 437 L82 437 L171 588 L74 588 L74 588 Z " />
<glyph glyph-name="parenleft" unicode="&#x28;" horiz-adv-x="167" d="M69 636 C53 622 40 604 31 582 C21 558 15 528 15 498 L15 9 C15 -21 21 -50 31 -75 C40 -97 53 -115 69 -128 C90 -145 115 -155 144 -158 L153 -159 L153 -58 L147 -56 C131 -51 120 -39 113 -20 C108 -5 108 9 108 10 L108 498 C108 498 108 552 147 564 L153 565 L153 666 L144 665 C115 662 90 652 69 636 L69 636 Z " />
<glyph glyph-name="parenright" unicode="&#x29;" horiz-adv-x="181" d="M107 636 C87 652 62 662 32 665 L24 666 L24 565 L29 564 C45 559 56 547 63 527 C68 512 68 498 68 498 L68 10 C68 9 68 -45 29 -56 L24 -58 L24 -159 L32 -158 C62 -155 87 -145 107 -128 C123 -115 136 -97 145 -75 C155 -50 161 -21 161 9 L161 498 C161 528 155 557 145 582 C136 604 123 622 107 636 L107 636 Z " />
<glyph glyph-name="asterisk" unicode="&#x2a;" horiz-adv-x="227" d="M169 407 L213 433 L175 487 C162 477 152 471 144 464 L144 503 L77 503 L77 466 L48 487 L9 432 L54 407 L10 382 L48 325 C60 336 69 341 77 348 L77 310 L145 310 L145 348 L175 325 L214 381 L169 407 Z " />
<glyph glyph-name="plus" unicode="&#x2b;" horiz-adv-x="388" d="M243 460 L150 460 L150 347 L36 347 L36 254 L150 254 L150 140 L243 140 L243 254 L357 254 L357 347 L243 347 L243 460 L243 460 Z " />
<glyph glyph-name="comma" unicode="&#x2c;" horiz-adv-x="179" d="M8 -126 L80 -126 L168 25 L72 25 L8 -126 L8 -126 Z " />
<glyph glyph-name="hyphen" unicode="&#x2d;" horiz-adv-x="307" d="M279 344 L28 344 L28 251 L279 251 L279 344 L279 344 Z " />
<glyph glyph-name="period" unicode="&#x2e;" horiz-adv-x="119" d="M106 28 L13 28 L13 -84 L106 -84 L106 28 L106 28 Z " />
<glyph glyph-name="slash" unicode="&#x2f;" horiz-adv-x="356" d="M254 623 L16 -103 L110 -103 L348 623 L254 623 L254 623 Z " />
<glyph glyph-name="zero" unicode="0" horiz-adv-x="389" d="M286 570 C263 584 235 590 201 590 C167 590 139 584 116 570 C97 560 82 544 71 526 C59 504 53 478 53 451 L53 48 C53 21 59 -5 71 -27 C82 -46 97 -61 116 -72 C139 -85 167 -91 201 -91 C235 -91 263 -85 286 -72 C305 -61 320 -46 330 -27 C343 -5 349 21 349 49 L349 450 C349 478 343 504 330 526 C320 545 305 560 286 570 L286 570 Z M145 450 C145 450 145 464 152 478 C162 496 178 505 201 505 C224 505 241 496 250 478 L145 242 L145 450 L145 450 Z M241 8 C232 -1 218 -6 201 -6 C176 -6 159 4 151 25 L256 264 L256 49 L256 48 C256 48 257 24 241 8 L241 8 Z " />
<glyph glyph-name="one" unicode="1" horiz-adv-x="179" d="M34 499 L56 499 L56 -92 L149 -92 L149 590 L34 590 L34 499 L34 499 Z " />
<glyph glyph-name="two" unicode="2" horiz-adv-x="375" d="M277 570 C254 583 225 589 192 589 C144 589 107 576 81 551 C47 516 43 469 43 450 L43 347 L136 347 L136 449 C136 449 136 463 143 477 C152 495 169 504 192 504 C210 505 224 500 233 490 C248 474 247 450 247 450 L247 450 L247 299 C247 232 198 222 169 215 L168 215 C124 206 91 186 69 157 C47 128 43 97 43 82 L43 -92 L340 -92 L340 0 L136 0 L136 66 C136 85 143 100 156 111 C170 123 191 131 222 136 C256 142 286 160 308 188 C328 214 340 246 340 278 L340 449 C340 477 333 503 321 525 C310 544 296 559 277 570 L277 570 Z " />
<glyph glyph-name="three" unicode="3" horiz-adv-x="352" d="M286 553 C258 577 223 590 186 590 L186 590 C149 590 114 577 86 553 C58 528 41 494 38 457 L38 347 L131 347 L131 446 L132 449 C132 476 157 499 186 499 L186 499 C201 499 215 493 225 484 C235 475 241 462 241 448 L241 351 C240 331 229 306 186 306 L157 306 L157 213 L187 213 C207 213 222 207 231 196 C239 186 241 175 241 167 L241 50 C241 36 235 24 225 14 C215 5 201 0 186 0 L186 0 C172 0 158 5 148 14 C137 24 131 36 131 50 L131 167 L38 167 L38 41 L38 41 C41 4 58 -30 86 -55 C114 -79 149 -92 186 -92 L186 -92 C223 -92 258 -79 286 -55 C314 -30 332 3 334 40 L334 40 L334 190 L334 190 C333 210 327 237 306 252 C305 253 303 254 302 255 C303 256 305 257 307 258 C327 274 333 302 334 322 L334 322 L334 458 L334 459 C332 495 314 529 286 553 L286 553 Z " />
<glyph glyph-name="four" unicode="4" horiz-adv-x="391" d="M340 590 L239 590 L28 242 L28 159 L247 159 L247 -92 L340 -92 L340 159 L370 159 L370 252 L340 252 L340 590 L340 590 Z M247 252 L140 252 L247 439 L247 252 L247 252 Z " />
<glyph glyph-name="five" unicode="5" horiz-adv-x="380" d="M52 245 L138 245 L146 244 L145 253 C145 253 145 261 152 269 C161 279 178 285 201 286 C221 286 234 283 243 274 C249 268 256 258 256 220 L256 48 L256 48 C256 48 256 24 240 8 C231 -2 218 -7 200 -7 C177 -7 161 2 152 20 C145 33 145 48 145 48 L145 111 L52 111 L52 48 L52 48 C52 29 56 -19 90 -53 C116 -79 153 -92 201 -92 C234 -92 263 -86 286 -72 C304 -62 319 -47 330 -28 C342 -6 349 20 349 48 L349 249 C349 289 334 322 306 345 C280 366 244 377 201 378 C201 378 200 378 200 378 C177 378 157 373 145 369 L145 498 L349 498 L349 590 L52 590 L52 245 L52 245 Z " />
<glyph glyph-name="six" unicode="6" horiz-adv-x="383" d="M344 398 L344 451 C344 478 338 505 326 526 C315 545 300 560 281 571 C258 584 230 590 196 590 C162 590 134 584 111 571 C92 560 77 545 66 526 C54 504 48 478 48 450 L48 48 C48 20 54 -6 66 -28 C77 -47 92 -62 111 -72 C134 -86 162 -92 196 -92 C230 -92 258 -86 281 -72 C300 -62 315 -47 326 -28 C338 -6 344 20 344 48 L344 183 C344 213 329 241 300 262 C273 282 236 294 196 296 C173 297 156 303 147 312 C140 320 140 327 140 328 L140 328 L140 450 L140 450 C140 451 140 475 156 491 C165 500 179 505 196 505 C219 505 235 496 244 479 C251 465 252 450 252 450 L252 398 L344 398 L344 398 Z M140 48 L141 213 C153 210 171 206 195 205 C243 202 251 182 252 179 L252 48 C252 48 251 34 244 20 C235 2 219 -7 196 -7 C179 -7 165 -2 156 8 C140 23 140 47 140 48 L140 48 Z " />
<glyph glyph-name="seven" unicode="7" horiz-adv-x="359" d="M27 497 L233 497 C218 476 185 426 152 351 C127 291 106 228 91 164 C72 83 63 0 63 -84 L63 -92 L159 -92 L159 -84 C159 -1 168 80 187 157 C201 220 222 279 247 335 C282 412 320 465 335 483 L337 485 L337 590 L27 590 L27 497 L27 497 Z " />
<glyph glyph-name="eight" unicode="8" horiz-adv-x="381" d="M297 553 C270 577 235 590 198 590 L198 590 C161 590 125 577 98 552 C69 527 52 493 50 457 L50 456 L50 325 L50 324 C51 304 57 275 77 259 C79 258 81 257 82 255 C81 255 79 253 78 252 C57 236 51 209 50 189 L50 189 L50 42 L50 42 C52 5 69 -29 98 -54 C125 -78 161 -92 198 -92 L198 -92 C235 -92 270 -78 297 -54 C326 -30 343 4 346 40 L346 40 L346 190 L346 191 C344 210 338 237 318 253 C316 254 315 255 313 255 C315 257 316 257 318 259 C338 275 344 302 346 323 L346 323 L346 458 L346 458 C343 495 326 528 297 553 L297 553 Z M253 51 C253 37 247 24 236 15 C226 5 212 0 198 0 L198 0 C184 0 170 5 159 15 C149 24 143 37 143 51 L143 168 C145 189 155 213 197 213 L199 213 C219 213 233 207 242 196 C250 187 252 176 253 168 L253 51 L253 51 Z M253 352 C251 331 240 307 198 307 L198 307 C155 307 145 331 143 352 L143 448 C143 461 149 474 159 483 C170 493 184 498 198 498 L198 498 C212 498 226 493 236 483 C247 474 253 461 253 448 L253 352 L253 352 Z " />
<glyph glyph-name="nine" unicode="9" horiz-adv-x="372" d="M275 571 C253 584 224 590 190 590 C157 590 128 584 105 571 C86 560 71 545 61 526 C49 505 42 478 42 451 L42 315 C42 285 58 257 86 236 C114 216 151 204 190 202 C210 202 225 196 235 185 C247 172 246 154 246 154 L246 154 L246 48 L246 48 C246 47 246 24 230 8 C221 -2 207 -7 190 -7 C167 -7 151 2 142 20 C135 33 135 48 135 48 L135 100 L42 100 L42 48 C42 20 49 -6 61 -28 C71 -47 86 -62 105 -72 C128 -86 157 -92 190 -92 C224 -92 253 -86 275 -72 C294 -62 309 -47 320 -28 C332 -6 338 20 338 48 L338 450 C338 478 332 504 320 526 C309 545 294 560 275 571 L275 571 Z M246 450 L246 285 C233 288 215 292 191 294 C143 297 136 317 135 319 L135 450 C135 450 135 464 142 478 C151 496 167 505 190 505 C207 505 221 500 230 491 C246 475 246 451 246 450 L246 450 Z " />
<glyph glyph-name="colon" unicode="&#x3a;" horiz-adv-x="157" d="M129 395 L129 507 L36 507 L36 395 L129 395 L129 395 Z M129 204 L36 204 L36 92 L129 92 L129 204 L129 204 Z " />
<glyph glyph-name="semicolon" unicode="&#x3b;" horiz-adv-x="218" d="M34 53 L105 53 L194 204 L97 204 L34 53 L34 53 Z M96 396 L188 396 L188 507 L96 507 L96 396 L96 396 Z " />
<glyph glyph-name="less" unicode="&#x3c;" horiz-adv-x="410" d="M49 262 L370 142 L370 239 L365 240 C328 253 285 268 244 282 C227 288 208 294 191 300 L370 362 L370 459 L49 338 L49 262 L49 262 Z " />
<glyph glyph-name="equal" unicode="&#x3d;" horiz-adv-x="318" d="M29 193 L293 193 L293 287 L29 287 L29 193 L29 193 Z M29 315 L293 315 L293 409 L29 409 L29 315 L29 315 Z " />
<glyph glyph-name="greater" unicode="&#x3e;" horiz-adv-x="389" d="M42 362 L221 300 L42 239 L42 142 L362 262 L362 338 L42 459 L42 362 L42 362 Z " />
<glyph glyph-name="question" unicode="&#x3f;" horiz-adv-x="369" d="M99 -6 C99 -50 99 -84 99 -84 L99 -92 L193 -92 L193 1 L99 1 L99 -6 L99 -6 Z M322 526 C311 545 296 560 277 571 C254 584 226 590 192 590 C145 590 108 578 82 552 C48 517 44 470 44 451 L44 398 L137 399 L137 451 C137 451 137 465 144 478 C153 496 169 505 192 505 C209 505 223 501 232 491 C248 475 247 451 247 451 L247 351 L247 285 C202 276 166 261 142 242 C115 221 101 195 99 165 L99 165 C99 155 99 112 99 36 L99 29 L193 29 L193 146 C193 171 216 180 253 192 C273 198 294 205 311 218 C331 232 340 252 340 279 L340 451 C340 478 334 504 322 526 L322 526 Z " />
<glyph glyph-name="at" unicode="&#x40;" horiz-adv-x="417" d="M211 553 C144 553 96 539 67 509 C48 491 38 466 38 441 L38 121 L38 121 C38 95 48 70 67 52 C96 23 144 8 211 8 C371 8 383 94 383 121 L383 440 C383 467 371 553 211 553 L211 553 Z M322 122 C318 114 293 67 211 67 C173 67 141 77 120 95 C106 107 101 119 99 122 L99 439 C101 442 108 454 122 466 C144 484 174 494 211 494 C250 494 282 484 302 466 C316 454 321 442 322 439 L322 122 L322 122 Z M211 467 C167 467 147 447 138 430 C131 419 128 404 128 389 L128 381 L177 381 L184 381 L184 388 C184 391 185 414 211 414 C219 414 225 412 230 408 C237 400 237 389 237 389 L237 324 L237 323 L237 323 C237 318 232 310 210 309 C163 308 128 280 128 245 L128 173 C128 157 131 143 138 131 C155 100 187 94 211 94 C254 94 274 114 283 131 C290 143 294 157 294 173 L294 388 C294 404 290 418 283 431 C266 461 235 467 211 467 L211 467 Z M230 153 C225 149 219 147 211 147 C185 147 184 170 184 173 L184 242 C185 244 189 252 211 253 C222 254 230 256 237 257 L237 173 L237 173 C237 172 237 161 230 153 L230 153 Z " />
<glyph glyph-name="A" unicode="A" horiz-adv-x="398" d="M145 103 L200 390 L259 103 L145 103 L145 103 Z M289 -88 L384 -88 L243 588 L159 588 L22 -88 L117 -88 L136 14 L268 14 L289 -88 L289 -88 Z " />
<glyph glyph-name="B" unicode="B" horiz-adv-x="348" d="M110 225 L172 225 C173 225 173 225 173 225 C235 225 245 191 247 173 L247 57 C247 24 205 -1 173 -1 L110 -1 L110 225 L110 225 Z M235 451 L235 355 C234 337 225 303 173 303 L110 303 L110 508 L173 508 C205 508 235 484 235 451 L235 451 Z M328 53 L328 180 C328 203 323 234 296 252 C293 254 290 256 286 257 C288 258 290 259 291 261 C309 276 317 301 317 335 L317 447 C317 485 301 521 272 548 C244 573 207 588 169 588 L21 588 L21 -88 L169 -88 C207 -88 247 -74 277 -48 C310 -21 328 15 328 53 L328 53 Z " />
<glyph glyph-name="C" unicode="C" horiz-adv-x="352" d="M264 -72 C283 -62 297 -46 308 -27 C320 -6 327 20 327 48 L327 56 L234 56 L234 48 C234 48 234 24 219 8 C209 -2 196 -7 178 -7 C156 -7 139 2 130 20 C123 34 123 48 123 48 L123 450 C123 450 123 464 130 477 C139 495 155 505 178 505 C196 505 209 500 219 490 C234 474 234 450 234 450 L234 442 L327 442 L327 450 C327 477 320 504 308 525 C297 544 283 559 264 570 C241 583 212 590 179 590 C145 590 116 583 93 570 C74 559 60 544 49 525 C37 504 30 477 30 450 L30 48 L30 48 C30 21 37 -6 49 -27 C60 -46 74 -61 93 -72 C116 -85 145 -92 179 -92 C212 -92 241 -85 264 -72 L264 -72 Z " />
<glyph glyph-name="D" unicode="D" horiz-adv-x="384" d="M299 -48 C329 -22 344 14 344 53 L344 447 C344 485 329 521 299 548 C272 573 234 588 196 588 L48 588 L48 -88 L196 -88 C234 -88 272 -74 299 -48 L299 -48 Z M141 497 L196 497 C210 497 224 492 235 483 C245 473 251 461 251 447 L251 53 C251 39 245 27 235 17 C224 8 210 3 196 3 L141 3 L141 497 L141 497 Z " />
<glyph glyph-name="E" unicode="E" horiz-adv-x="337" d="M308 -88 L308 5 L131 5 L131 148 L225 148 L225 241 L131 241 L131 495 L308 495 L308 588 L39 588 L39 -88 L308 -88 L308 -88 Z M308 -88 L308 5 L131 5 L131 148 L225 148 L225 241 L131 241 L131 495 L308 495 L308 588 L39 588 L39 -88 L308 -88 Z " />
<glyph glyph-name="F" unicode="F" horiz-adv-x="387" d="M66 -88 L159 -88 L159 148 L253 148 L253 241 L159 241 L159 495 L335 495 L335 588 L66 588 L66 -88 L66 -88 Z " />
<glyph glyph-name="G" unicode="G" horiz-adv-x="389" d="M111 -72 C134 -85 163 -92 196 -92 C229 -92 258 -85 281 -73 C299 -62 314 -47 325 -28 C337 -7 344 20 344 48 L344 243 L215 243 L215 150 L252 150 L252 48 C252 45 251 31 244 18 C235 2 219 -7 196 -7 C173 -7 157 2 148 20 C141 34 141 48 141 48 L141 450 C141 450 141 464 148 477 C157 495 173 505 196 505 C213 505 227 500 236 490 C252 474 252 450 252 450 L251 442 L344 442 L344 450 C344 477 338 504 326 525 C315 544 300 559 281 570 C258 583 230 590 196 590 C163 590 134 583 111 570 C92 559 77 544 66 525 C54 504 48 477 48 450 L48 48 L48 48 C48 21 54 -6 66 -27 C77 -46 92 -61 111 -72 L111 -72 Z " />
<glyph glyph-name="H" unicode="H" horiz-adv-x="409" d="M152 190 L267 190 L267 -88 L359 -88 L359 588 L267 588 L267 283 L152 283 L152 588 L59 588 L59 -88 L152 -88 L152 190 L152 190 Z " />
<glyph glyph-name="I" unicode="I" horiz-adv-x="174" d="M137 588 L45 588 L45 -88 L137 -88 L137 588 L137 588 Z " />
<glyph glyph-name="J" unicode="J" horiz-adv-x="279" d="M177 -70 C195 -60 211 -46 222 -27 C238 0 242 31 242 52 L242 588 L149 588 L149 52 L149 52 C149 51 151 30 138 15 C129 5 116 0 98 0 C93 0 83 0 72 0 C62 0 51 0 44 0 L36 0 L36 -88 L94 -88 C126 -88 154 -82 177 -70 L177 -70 Z " />
<glyph glyph-name="K" unicode="K" horiz-adv-x="428" d="M136 120 L290 -88 L406 -88 L209 177 L386 588 L286 588 L136 245 L136 588 L43 588 L43 -88 L136 -88 L136 120 L136 120 Z " />
<glyph glyph-name="L" unicode="L" horiz-adv-x="286" d="M262 5 L129 5 L129 588 L37 588 L37 -88 L262 -88 L262 5 L262 5 Z " />
<glyph glyph-name="M" unicode="M" horiz-adv-x="514" d="M132 227 L215 -88 L297 -88 L379 243 L379 -88 L472 -88 L472 587 L381 587 L256 88 L132 587 L40 587 L40 -88 L132 -88 L132 227 L132 227 Z " />
<glyph glyph-name="N" unicode="N" horiz-adv-x="387" d="M127 309 L263 -88 L354 -88 L354 588 L261 588 L261 191 L125 588 L34 588 L34 -88 L127 -88 L127 309 L127 309 Z " />
<glyph glyph-name="O" unicode="O" horiz-adv-x="384" d="M279 -72 C298 -62 313 -46 323 -27 C335 -6 342 20 342 48 L342 450 C342 477 335 504 323 525 C313 544 298 559 279 570 C256 583 227 590 194 590 C160 590 131 583 109 570 C90 559 75 544 64 525 C52 504 45 477 45 450 L45 48 C45 21 52 -6 64 -27 C75 -46 90 -61 109 -72 C131 -85 160 -92 194 -92 C227 -92 256 -85 279 -72 L279 -72 Z M146 20 C138 34 138 48 138 48 L138 450 C138 450 138 464 145 477 C154 495 171 505 194 505 C211 505 224 500 234 490 C249 474 249 450 249 450 L249 48 L249 48 C249 48 249 24 234 8 C224 -2 211 -7 194 -7 C171 -7 154 2 146 20 L146 20 Z " />
<glyph glyph-name="P" unicode="P" horiz-adv-x="377" d="M138 193 L193 193 C194 193 194 193 194 193 C238 193 279 209 307 237 C330 259 342 288 342 320 L342 447 C342 486 327 522 300 548 C273 573 235 588 193 588 L45 588 L45 -88 L138 -88 L138 193 L138 193 Z M138 497 L193 497 C207 497 222 492 232 483 C242 473 248 461 248 447 L248 331 C248 323 245 312 238 303 C229 292 214 286 194 286 C194 286 194 286 194 286 C193 286 193 286 193 286 L138 286 L138 497 L138 497 Z " />
<glyph glyph-name="Q" unicode="Q" horiz-adv-x="387" d="M198 -128 L295 -128 L274 -77 C304 -64 326 -41 338 -8 C343 4 348 24 348 49 L348 450 C348 478 342 504 330 526 C319 545 304 560 285 571 C262 584 234 590 200 590 C166 590 138 584 115 571 C96 560 81 545 70 526 C58 505 52 478 52 451 L52 48 C52 22 58 -3 69 -24 C79 -42 92 -57 110 -68 C130 -81 154 -88 183 -91 L198 -128 L198 -128 Z M144 49 L144 450 C147 482 168 505 200 505 C234 505 255 482 255 451 L255 49 L255 49 C254 14 231 -6 200 -6 C168 -6 144 19 144 49 L144 49 Z " />
<glyph glyph-name="R" unicode="R" horiz-adv-x="410" d="M143 214 L198 214 L198 214 C198 214 199 214 199 214 C199 214 199 214 199 214 C219 214 234 208 243 197 C251 188 253 177 254 169 L254 -88 L347 -88 L347 180 C347 202 343 233 321 251 C319 253 317 255 314 256 C317 257 319 259 321 261 C338 276 347 301 347 335 L347 447 C347 485 331 521 302 548 C274 573 237 588 199 588 L51 588 L51 -88 L143 -88 L143 214 L143 214 Z M143 497 L199 497 C213 497 227 492 237 483 C248 473 254 461 254 447 L254 351 C253 343 251 332 243 323 C234 312 219 307 199 307 C199 307 199 307 199 307 L143 307 L143 497 L143 497 Z " />
<glyph glyph-name="S" unicode="S" horiz-adv-x="415" d="M134 -72 C157 -85 186 -92 219 -92 C253 -92 281 -85 304 -72 C323 -62 338 -46 349 -27 C361 -6 367 20 367 48 L367 164 C367 206 349 234 333 250 C317 265 302 273 298 274 C294 277 271 290 220 293 C172 296 164 316 164 319 L164 450 C164 450 164 464 171 477 C180 495 196 505 219 505 C236 505 250 500 259 490 C275 474 275 450 275 450 L275 336 L367 336 L367 450 C367 477 361 504 349 525 C338 544 323 559 304 570 C281 583 253 590 219 590 C186 590 157 583 134 570 C115 559 100 544 90 525 C78 504 71 477 71 450 L71 314 C71 289 82 265 102 246 C116 232 131 225 132 224 C134 224 177 204 219 202 C243 200 260 194 268 185 C275 177 275 170 275 170 L275 169 L275 48 L275 48 C275 48 275 24 259 8 C250 -2 236 -7 219 -7 C196 -7 180 2 171 20 C164 34 164 48 164 48 L164 154 L71 154 L71 48 C71 21 78 -6 90 -27 C100 -46 115 -61 134 -72 L134 -72 Z " />
<glyph glyph-name="T" unicode="T" horiz-adv-x="379" d="M145 -88 L238 -88 L238 495 L342 495 L342 588 L41 588 L41 495 L145 495 L145 -88 L145 -88 Z " />
<glyph glyph-name="U" unicode="U" horiz-adv-x="386" d="M341 588 L249 588 L248 48 C248 47 248 24 233 7 C223 -2 210 -7 193 -7 C170 -7 154 2 145 19 C137 33 137 48 137 48 L138 588 L44 588 L44 47 C44 20 51 -6 63 -28 C74 -47 89 -62 108 -72 C130 -86 159 -92 193 -92 C226 -92 255 -86 278 -73 C297 -62 312 -47 322 -28 C334 -6 341 20 341 48 L341 588 L341 588 Z " />
<glyph glyph-name="V" unicode="V" horiz-adv-x="388" d="M247 -88 L371 588 L276 588 L199 182 L123 588 L27 588 L151 -88 L247 -88 L247 -88 Z " />
<glyph glyph-name="W" unicode="W" horiz-adv-x="628" d="M391 -88 L487 -88 L611 588 L516 588 L439 182 L363 588 L270 588 L194 182 L117 588 L21 588 L145 -88 L242 -88 L316 319 L391 -88 L391 -88 Z " />
<glyph glyph-name="X" unicode="X" horiz-adv-x="418" d="M396 588 L301 588 L210 365 L118 588 L24 588 L163 250 L24 -88 L118 -88 L210 136 L302 -88 L396 -88 L257 250 L396 588 L396 588 Z " />
<glyph glyph-name="Y" unicode="Y" horiz-adv-x="436" d="M319 588 L219 320 L120 588 L19 588 L173 192 L173 -88 L266 -88 L266 192 L420 588 L319 588 L319 588 Z " />
<glyph glyph-name="Z" unicode="Z" horiz-adv-x="470" d="M411 5 L168 5 L411 501 L411 588 L52 588 L52 495 L296 495 L52 -1 L52 -88 L411 -88 L411 5 L411 5 Z " />
<glyph glyph-name="bracketleft" unicode="&#x5b;" horiz-adv-x="214" d="M45 632 C31 613 24 584 24 546 L24 -55 C24 -84 31 -108 46 -126 C64 -148 93 -159 131 -159 C134 -159 138 -159 143 -160 C150 -160 157 -160 165 -160 C171 -160 178 -160 183 -159 L191 -159 L191 -72 L150 -72 C137 -72 127 -72 122 -69 C118 -67 115 -63 115 -47 L114 551 C114 568 119 572 123 574 C130 578 142 578 156 578 L191 578 L191 666 L131 666 C90 666 62 655 45 632 L45 632 Z " />
<glyph glyph-name="backslash" unicode="&#x5c;" horiz-adv-x="343" d="M100 616 L6 616 L244 -110 L338 -110 L100 616 L100 616 Z " />
<glyph glyph-name="bracketright" unicode="&#x5d;" horiz-adv-x="211" d="M84 666 L24 666 L24 578 L59 578 C73 578 84 578 91 574 C96 572 100 568 100 551 L100 -47 C100 -63 96 -67 93 -69 C87 -72 77 -72 64 -72 L24 -72 L24 -159 L31 -159 C37 -160 43 -160 50 -160 C57 -160 65 -160 72 -160 C77 -159 81 -159 84 -159 C121 -159 151 -148 169 -126 C184 -108 191 -84 191 -55 L191 546 C191 584 184 613 169 632 C152 655 124 666 84 666 L84 666 Z " />
<glyph glyph-name="asciicircum" unicode="&#x5e;" horiz-adv-x="247" d="M79 588 L16 393 L95 393 C110 449 119 479 124 497 L152 392 L231 392 L170 588 L79 588 L79 588 Z " />
<glyph glyph-name="underscore" unicode="&#x5f;" horiz-adv-x="418" d="M14 -88 L403 -88 L403 -5 L14 -5 L14 -88 L14 -88 Z " />
<glyph glyph-name="grave" unicode="&#x60;" horiz-adv-x="208" d="M9 588 L107 437 L195 437 L131 588 L9 588 L9 588 Z " />
<glyph glyph-name="a" unicode="a" horiz-adv-x="398" d="M145 103 L200 390 L259 103 L145 103 Z M289 -88 L384 -88 L243 588 L159 588 L22 -88 L117 -88 L136 14 L268 14 L289 -88 Z " />
<glyph glyph-name="b" unicode="b" horiz-adv-x="348" d="M116 225 L178 225 C179 225 179 225 179 225 C241 225 251 191 253 173 L253 57 C253 24 211 -1 179 -1 L116 -1 L116 225 Z M241 451 L241 355 C240 337 231 303 179 303 L116 303 L116 508 L179 508 C211 508 241 484 241 451 L241 451 Z M334 53 L334 180 C334 203 329 234 302 252 C299 254 296 256 292 257 C294 258 296 259 297 261 C315 276 323 301 323 335 L323 447 C323 485 307 521 278 548 C250 573 213 588 175 588 L27 588 L27 -88 L175 -88 C213 -88 253 -74 283 -48 C316 -21 334 15 334 53 L334 53 Z " />
<glyph glyph-name="c" unicode="c" horiz-adv-x="352" d="M264 -72 C283 -62 297 -46 308 -27 C320 -6 327 20 327 48 L327 56 L234 56 L234 48 C234 48 234 24 219 8 C209 -2 196 -7 178 -7 C156 -7 139 2 130 20 C123 34 123 48 123 48 L123 450 C123 450 123 464 130 477 C139 495 155 505 178 505 C196 505 209 500 219 490 C234 474 234 450 234 450 L234 442 L327 442 L327 450 C327 477 320 504 308 525 C297 544 283 559 264 570 C241 583 212 590 179 590 C145 590 116 583 93 570 C74 559 60 544 49 525 C37 504 30 477 30 450 L30 48 L30 48 C30 21 37 -6 49 -27 C60 -46 74 -61 93 -72 C116 -85 145 -92 179 -92 C212 -92 241 -85 264 -72 L264 -72 Z " />
<glyph glyph-name="d" unicode="d" horiz-adv-x="384" d="M299 -48 C329 -22 344 14 344 53 L344 447 C344 485 329 521 299 548 C272 573 234 588 196 588 L48 588 L48 -88 L196 -88 C234 -88 272 -74 299 -48 L299 -48 Z M141 497 L196 497 C210 497 224 492 235 483 C245 473 251 461 251 447 L251 53 C251 39 245 27 235 17 C224 8 210 3 196 3 L141 3 L141 497 Z " />
<glyph glyph-name="e" unicode="e" horiz-adv-x="335" d="M308 -88 L308 5 L131 5 L131 148 L225 148 L225 241 L131 241 L131 495 L308 495 L308 588 L39 588 L39 -88 L308 -88 Z " />
<glyph glyph-name="f" unicode="f" horiz-adv-x="387" d="M66 -88 L159 -88 L159 148 L253 148 L253 241 L159 241 L159 495 L335 495 L335 588 L66 588 L66 -88 Z " />
<glyph glyph-name="g" unicode="g" horiz-adv-x="389" d="M111 -72 C134 -85 163 -92 196 -92 C229 -92 258 -85 281 -73 C299 -62 314 -47 325 -28 C337 -7 344 20 344 48 L344 243 L215 243 L215 150 L252 150 L252 48 C252 45 251 31 244 18 C235 2 219 -7 196 -7 C173 -7 157 2 148 20 C141 34 141 48 141 48 L141 450 C141 450 141 464 148 477 C157 495 173 505 196 505 C213 505 227 500 236 490 C252 474 252 450 252 450 L251 442 L344 442 L344 450 C344 477 338 504 326 525 C315 544 300 559 281 570 C258 583 230 590 196 590 C163 590 134 583 111 570 C92 559 77 544 66 525 C54 504 48 477 48 450 L48 48 L48 48 C48 21 54 -6 66 -27 C77 -46 92 -61 111 -72 L111 -72 Z " />
<glyph glyph-name="h" unicode="h" horiz-adv-x="409" d="M152 190 L267 190 L267 -88 L359 -88 L359 588 L267 588 L267 283 L152 283 L152 588 L59 588 L59 -88 L152 -88 L152 190 Z " />
<glyph glyph-name="i" unicode="i" horiz-adv-x="174" d="M137 588 L45 588 L45 -88 L137 -88 L137 588 Z " />
<glyph glyph-name="j" unicode="j" horiz-adv-x="279" d="M177 -70 C195 -60 211 -46 222 -27 C238 0 242 31 242 52 L242 588 L149 588 L149 52 L149 52 C149 51 151 30 138 15 C129 5 116 0 98 0 C93 0 83 0 72 0 C62 0 51 0 44 0 L36 0 L36 -88 L94 -88 C126 -88 154 -82 177 -70 L177 -70 Z " />
<glyph glyph-name="k" unicode="k" horiz-adv-x="428" d="M136 120 L290 -88 L406 -88 L209 177 L386 588 L286 588 L136 245 L136 588 L43 588 L43 -88 L136 -88 L136 120 Z " />
<glyph glyph-name="l" unicode="l" horiz-adv-x="286" d="M262 5 L129 5 L129 588 L37 588 L37 -88 L262 -88 L262 5 Z " />
<glyph glyph-name="m" unicode="m" horiz-adv-x="514" d="M132 227 L215 -88 L297 -88 L379 243 L379 -88 L472 -88 L472 587 L381 587 L256 88 L132 587 L40 587 L40 -88 L132 -88 L132 227 Z " />
<glyph glyph-name="n" unicode="n" horiz-adv-x="387" d="M127 309 L263 -88 L354 -88 L354 588 L261 588 L261 191 L125 588 L34 588 L34 -88 L127 -88 L127 309 Z " />
<glyph glyph-name="o" unicode="o" horiz-adv-x="384" d="M279 -72 C298 -62 313 -46 323 -27 C335 -6 342 20 342 48 L342 450 C342 477 335 504 323 525 C313 544 298 559 279 570 C256 583 227 590 194 590 C160 590 131 583 109 570 C90 559 75 544 64 525 C52 504 45 477 45 450 L45 48 C45 21 52 -6 64 -27 C75 -46 90 -61 109 -72 C131 -85 160 -92 194 -92 C227 -92 256 -85 279 -72 L279 -72 Z M146 20 C138 34 138 48 138 48 L138 450 C138 450 138 464 145 477 C154 495 171 505 194 505 C211 505 224 500 234 490 C249 474 249 450 249 450 L249 48 L249 48 C249 48 249 24 234 8 C224 -2 211 -7 194 -7 C171 -7 154 2 146 20 L146 20 Z " />
<glyph glyph-name="p" unicode="p" horiz-adv-x="377" d="M138 193 L193 193 C194 193 194 193 194 193 C238 193 279 209 307 237 C330 259 342 288 342 320 L342 447 C342 486 327 522 300 548 C273 573 235 588 193 588 L45 588 L45 -88 L138 -88 L138 193 Z M138 497 L193 497 C207 497 222 492 232 483 C242 473 248 461 248 447 L248 331 C248 323 245 312 238 303 C229 292 214 286 194 286 C194 286 194 286 194 286 C193 286 193 286 193 286 L138 286 L138 497 Z " />
<glyph glyph-name="q" unicode="q" horiz-adv-x="387" d="M198 -128 L295 -128 L274 -77 C304 -64 326 -41 338 -8 C343 4 348 24 348 49 L348 450 C348 478 342 504 330 526 C319 545 304 560 285 571 C262 584 234 590 200 590 C166 590 138 584 115 571 C96 560 81 545 70 526 C58 505 52 478 52 451 L52 48 C52 22 58 -3 69 -24 C79 -42 92 -57 110 -68 C130 -81 154 -88 183 -91 L198 -128 Z M144 49 L144 450 C147 482 168 505 200 505 C234 505 255 482 255 451 L255 49 L255 49 C254 14 231 -6 200 -6 C168 -6 144 19 144 49 L144 49 Z " />
<glyph glyph-name="r" unicode="r" horiz-adv-x="410" d="M143 214 L198 214 L198 214 C198 214 199 214 199 214 C199 214 199 214 199 214 C219 214 234 208 243 197 C251 188 253 177 254 169 L254 -88 L347 -88 L347 180 C347 202 343 233 321 251 C319 253 317 255 314 256 C317 257 319 259 321 261 C338 276 347 301 347 335 L347 447 C347 485 331 521 302 548 C274 573 237 588 199 588 L51 588 L51 -88 L143 -88 L143 214 Z M143 497 L199 497 C213 497 227 492 237 483 C248 473 254 461 254 447 L254 351 C253 343 251 332 243 323 C234 312 219 307 199 307 C199 307 199 307 199 307 L143 307 L143 497 Z " />
<glyph glyph-name="s" unicode="s" horiz-adv-x="415" d="M134 -72 C157 -85 186 -92 219 -92 C253 -92 281 -85 304 -72 C323 -62 338 -46 349 -27 C361 -6 367 20 367 48 L367 164 C367 206 349 234 333 250 C317 265 302 273 298 274 C294 277 271 290 220 293 C172 296 164 316 164 319 L164 450 C164 450 164 464 171 477 C180 495 196 505 219 505 C236 505 250 500 259 490 C275 474 275 450 275 450 L275 336 L367 336 L367 450 C367 477 361 504 349 525 C338 544 323 559 304 570 C281 583 253 590 219 590 C186 590 157 583 134 570 C115 559 100 544 90 525 C78 504 71 477 71 450 L71 314 C71 289 82 265 102 246 C116 232 131 225 132 224 C134 224 177 204 219 202 C243 200 260 194 268 185 C275 177 275 170 275 170 L275 169 L275 48 L275 48 C275 48 275 24 259 8 C250 -2 236 -7 219 -7 C196 -7 180 2 171 20 C164 34 164 48 164 48 L164 154 L71 154 L71 48 C71 21 78 -6 90 -27 C100 -46 115 -61 134 -72 L134 -72 Z " />
<glyph glyph-name="t" unicode="t" horiz-adv-x="379" d="M145 -88 L238 -88 L238 495 L342 495 L342 588 L41 588 L41 495 L145 495 L145 -88 Z " />
<glyph glyph-name="u" unicode="u" horiz-adv-x="386" d="M341 588 L249 588 L248 48 C248 47 248 24 233 7 C223 -2 210 -7 193 -7 C170 -7 154 2 145 19 C137 33 137 48 137 48 L138 588 L44 588 L44 47 C44 20 51 -6 63 -28 C74 -47 89 -62 108 -72 C130 -86 159 -92 193 -92 C226 -92 255 -86 278 -73 C297 -62 312 -47 322 -28 C334 -6 341 20 341 48 L341 588 Z " />
<glyph glyph-name="v" unicode="v" horiz-adv-x="388" d="M247 -88 L371 588 L276 588 L199 182 L123 588 L27 588 L151 -88 L247 -88 Z " />
<glyph glyph-name="w" unicode="w" horiz-adv-x="628" d="M391 -88 L487 -88 L611 588 L516 588 L439 182 L363 588 L270 588 L194 182 L117 588 L21 588 L145 -88 L242 -88 L316 319 L391 -88 Z " />
<glyph glyph-name="x" unicode="x" horiz-adv-x="418" d="M396 588 L301 588 L210 365 L118 588 L24 588 L163 250 L24 -88 L118 -88 L210 136 L302 -88 L396 -88 L257 250 L396 588 Z " />
<glyph glyph-name="y" unicode="y" horiz-adv-x="436" d="M319 588 L219 320 L120 588 L19 588 L173 192 L173 -88 L266 -88 L266 192 L420 588 L319 588 Z " />
<glyph glyph-name="z" unicode="z" horiz-adv-x="470" d="M411 5 L168 5 L411 501 L411 588 L52 588 L52 495 L296 495 L52 -1 L52 -88 L411 -88 L411 5 Z " />
<glyph glyph-name="braceleft" unicode="&#x7b;" horiz-adv-x="277" d="M109 632 C94 613 87 584 87 546 L87 336 C87 331 85 327 82 324 C70 313 43 312 33 313 L25 314 L25 216 L33 215 C69 215 87 206 87 191 L87 -55 C87 -84 95 -108 109 -126 C128 -148 157 -159 194 -159 C197 -159 202 -159 207 -160 C213 -160 221 -160 228 -160 C235 -160 241 -160 247 -159 L254 -159 L254 -72 L214 -72 C201 -72 191 -72 185 -69 C182 -67 178 -63 178 -47 L178 198 L178 199 C177 228 164 246 153 257 C150 259 148 261 145 263 C155 267 163 275 169 286 C175 296 178 309 178 326 L178 551 C178 568 183 572 187 574 C194 578 206 578 219 578 L254 578 L254 666 L194 666 C154 666 126 655 109 632 L109 632 Z " />
<glyph glyph-name="bar" unicode="&#x7c;" horiz-adv-x="143" d="M117 618 L24 618 L24 -113 L117 -113 L117 618 L117 618 Z " />
<glyph glyph-name="braceright" unicode="&#x7d;" horiz-adv-x="283" d="M202 324 C198 327 196 331 196 336 L196 546 C196 584 189 613 175 632 C157 655 129 666 89 666 L29 666 L29 578 L64 578 C78 578 90 578 96 574 C101 572 105 568 105 551 L105 326 L105 326 C106 309 109 296 114 286 C120 275 128 267 138 263 C136 261 133 259 130 257 C119 246 106 228 105 199 L105 198 L105 -47 C105 -63 102 -67 98 -69 C93 -72 82 -72 70 -72 L29 -72 L29 -159 L37 -159 C42 -160 49 -160 55 -160 C62 -160 70 -160 77 -160 C82 -159 86 -159 89 -159 C127 -159 156 -148 174 -126 C189 -108 196 -84 196 -55 L196 191 C196 206 215 215 251 215 L258 215 L258 314 L250 313 C241 312 213 313 202 324 L202 324 Z " />
<glyph glyph-name="asciitilde" unicode="&#x7e;" horiz-adv-x="382" d="M300 359 C292 350 268 327 251 326 C234 326 220 333 204 339 C186 347 167 356 143 355 C96 355 40 295 38 293 L33 288 L90 223 L95 229 C96 230 123 261 151 262 C166 263 178 257 192 250 C208 242 227 232 255 234 C274 234 297 246 325 268 C345 284 359 299 360 300 L365 305 L306 364 L300 359 L300 359 Z " />
<glyph glyph-name="cent" unicode="&#xa2;" horiz-adv-x="244" d="M164 399 L240 399 L240 407 C240 426 236 444 229 460 C215 489 189 508 155 515 L155 546 L88 546 L88 515 C54 508 29 489 15 460 C7 444 4 425 4 407 L4 90 C4 71 7 53 15 37 C29 8 54 -11 88 -18 L88 -43 L155 -43 L155 -19 C189 -12 215 7 229 37 C236 53 240 71 240 90 L240 98 L171 98 L164 98 L164 90 C164 89 164 74 155 62 L155 435 C164 423 164 408 164 407 L164 399 L164 399 Z M88 64 C80 76 80 90 80 90 L80 407 C80 407 80 421 88 432 L88 64 L88 64 Z " />
<glyph glyph-name="sterling" unicode="&#xa3;" horiz-adv-x="361" d="M137 207 L262 207 L262 290 L137 290 L137 449 C137 449 137 463 144 477 C153 495 169 504 192 504 C210 504 223 499 232 490 C248 474 248 450 248 449 L248 396 L341 396 L341 449 C341 477 334 503 322 525 C311 544 296 559 277 569 C255 582 226 589 192 589 C145 589 108 576 82 550 C48 516 44 469 44 450 L44 290 L22 290 L22 207 L44 207 L45 -9 L22 -9 L22 -92 L341 -92 L341 -9 L138 -9 L137 207 L137 207 Z " />
<glyph glyph-name="Agrave" unicode="&#xc0;" horiz-adv-x="398" d="M159 588 L22 -88 L118 -88 L137 14 L268 14 L290 -88 L385 -88 L243 588 L159 588 L159 588 Z M156 106 L201 347 L251 106 L156 106 L156 106 Z M241 597 L174 706 L75 706 L168 597 L241 597 L241 597 Z " />
<glyph glyph-name="Aacute" unicode="&#xc1;" horiz-adv-x="398" d="M133 14 L264 14 L286 -88 L380 -88 L239 588 L155 588 L18 -88 L114 -88 L133 14 L133 14 Z M197 347 L247 106 L152 106 L197 347 L197 347 Z M318 706 L219 706 L153 597 L225 597 L318 706 L318 706 Z " />
<glyph glyph-name="Acircumflex" unicode="&#xc2;" horiz-adv-x="398" d="M133 13 L264 13 L285 -89 L381 -89 L239 587 L155 587 L18 -89 L113 -89 L133 13 L133 13 Z M197 346 L247 105 L152 105 L197 346 L197 346 Z M197 653 L227 592 L307 592 L242 709 L154 709 L87 593 L167 593 L197 653 Z " />
<glyph glyph-name="Atilde" unicode="&#xc3;" horiz-adv-x="398" d="M135 14 L267 14 L288 -88 L383 -88 L241 588 L157 588 L21 -88 L116 -88 L135 14 L135 14 Z M200 347 L249 106 L154 106 L200 347 L200 347 Z M135 602 C140 608 156 622 170 623 L170 623 C180 623 187 620 196 615 C207 610 219 603 239 604 C268 605 306 644 310 649 L315 654 L272 697 L267 691 C260 683 245 671 236 670 C226 670 216 674 206 679 C194 684 181 690 165 690 C165 690 165 690 164 690 C133 689 95 649 93 647 L89 642 L129 595 L135 602 L135 602 Z " />
<glyph glyph-name="Adieresis" unicode="&#xc4;" horiz-adv-x="398" d="M198 690 L115 690 L115 604 L198 604 L198 690 L198 690 Z M287 690 L204 690 L204 604 L287 604 L287 690 L287 690 Z M135 14 L267 14 L288 -88 L383 -88 L241 588 L157 588 L21 -88 L116 -88 L135 14 L135 14 Z M200 347 L249 106 L154 106 L200 347 L200 347 Z " />
<glyph glyph-name="Aring" unicode="&#xc5;" horiz-adv-x="398" d="M266 14 L287 -88 L382 -88 L244 573 C266 587 279 612 279 638 C279 681 244 716 201 716 C158 716 123 681 123 638 C123 613 134 590 154 576 L20 -88 L115 -88 L134 14 L266 14 L266 14 Z M201 678 C223 678 242 660 242 638 C242 615 223 597 201 597 C179 597 160 615 160 638 C160 660 179 678 201 678 L201 678 Z M199 347 L248 106 L153 106 L199 347 L199 347 Z " />
<glyph glyph-name="AE" unicode="&#xc6;" horiz-adv-x="474" d="M128 14 L185 14 L185 -88 L454 -88 L454 5 L278 5 L278 148 L372 148 L372 241 L278 241 L278 495 L454 495 L454 588 L151 588 L14 -88 L109 -88 L128 14 L128 14 Z M185 306 L185 106 L147 106 L185 306 L185 306 Z " />
<glyph glyph-name="Ccedilla" unicode="&#xc7;" horiz-adv-x="329" d="M253 570 C230 583 201 590 168 590 C134 590 106 583 83 570 C64 559 49 544 38 525 C26 504 20 478 20 450 L20 49 L20 48 C20 23 25 -2 36 -23 C45 -41 58 -56 75 -67 C94 -80 117 -88 144 -90 C146 -94 148 -97 150 -99 C157 -109 167 -115 176 -120 C187 -127 194 -132 194 -138 C194 -152 187 -162 150 -166 L144 -166 L143 -210 L151 -210 C206 -208 227 -180 234 -164 C244 -144 243 -121 232 -109 C225 -99 217 -92 210 -88 C230 -83 248 -76 263 -65 C279 -54 291 -39 300 -21 C308 -7 316 17 316 49 L316 56 L231 56 L223 56 L223 48 C223 48 223 24 208 8 C198 -2 185 -6 168 -6 C145 -6 129 3 119 20 C112 34 112 48 112 49 L112 450 C112 450 112 464 119 478 C128 496 145 505 168 505 C185 505 198 500 208 490 C223 475 223 450 223 450 L223 443 L316 443 L316 450 C316 478 310 504 297 525 C287 544 272 560 253 570 L253 570 Z " />
<glyph glyph-name="Egrave" unicode="&#xc8;" horiz-adv-x="327" d="M300 -88 L300 4 L124 4 L124 148 L218 148 L218 240 L124 240 L124 495 L300 495 L300 587 L31 587 L31 -88 L300 -88 L300 -88 Z M204 603 L137 711 L38 711 L131 603 L204 603 L204 603 Z " />
<glyph glyph-name="Eacute" unicode="&#xc9;" horiz-adv-x="359" d="M308 -88 L308 4 L131 4 L131 148 L225 148 L225 240 L131 240 L131 495 L308 495 L308 587 L38 587 L38 -88 L308 -88 L308 -88 Z M292 712 L193 712 L127 603 L200 603 L292 712 L292 712 Z " />
<glyph glyph-name="Ecircumflex" unicode="&#xca;" horiz-adv-x="359" d="M139 148 L233 148 L233 241 L139 241 L139 496 L315 496 L315 588 L46 588 L46 -88 L315 -88 L315 5 L139 5 L139 148 L139 148 Z M148 600 C173 648 176 655 179 660 L209 599 L289 599 L224 715 L135 715 L68 600 L148 600 L148 600 Z " />
<glyph glyph-name="Edieresis" unicode="&#xcb;" horiz-adv-x="359" d="M182 700 L99 700 L99 614 L182 614 L182 700 L182 700 Z M275 700 L192 700 L192 614 L275 614 L275 700 L275 700 Z M144 4 L144 148 L239 148 L239 241 L144 241 L144 495 L321 495 L321 587 L52 587 L52 -88 L321 -88 L321 4 L144 4 L144 4 Z " />
<glyph glyph-name="Igrave" unicode="&#xcc;" horiz-adv-x="188" d="M80 -88 L172 -88 L172 588 L80 588 L80 -88 L80 -88 Z M173 610 L106 719 L7 719 L100 610 L173 610 L173 610 Z " />
<glyph glyph-name="Iacute" unicode="&#xcd;" horiz-adv-x="179" d="M37 -88 L129 -88 L129 587 L37 587 L37 -88 L37 -88 Z M202 718 L103 718 L37 610 L109 610 L202 718 L202 718 Z " />
<glyph glyph-name="Icircumflex" unicode="&#xce;" horiz-adv-x="214" d="M63 -88 L155 -88 L155 587 L63 587 L63 -88 L63 -88 Z M109 667 L139 606 L219 606 L154 722 L66 722 L-2 607 L79 607 L109 667 L109 667 Z " />
<glyph glyph-name="Idieresis" unicode="&#xcf;" horiz-adv-x="212" d="M60 -88 L153 -88 L153 587 L60 587 L60 -88 L60 -88 Z M102 698 L19 698 L19 612 L102 612 L102 698 L102 698 Z M112 698 L112 612 L195 612 L195 698 L112 698 L112 698 Z " />
<glyph glyph-name="Eth" unicode="&#xd0;" horiz-adv-x="398" d="M372 447 C372 485 356 521 327 548 C299 573 261 588 224 588 L75 588 L75 285 L17 285 L17 204 L75 204 L75 -88 L224 -88 C261 -88 299 -74 327 -48 C356 -22 372 14 372 53 L372 447 L372 447 Z M278 53 C278 39 272 27 262 17 C251 8 238 3 224 3 L168 3 L168 204 L231 204 L231 285 L168 285 L168 497 L224 497 C238 497 251 491 262 482 C272 473 278 460 278 447 L278 53 L278 53 Z " />
<glyph glyph-name="Ntilde" unicode="&#xd1;" horiz-adv-x="389" d="M265 191 L129 587 L38 587 L38 -88 L131 -88 L131 309 L267 -88 L357 -88 L357 587 L265 587 L265 191 L265 191 Z M252 681 C244 674 237 671 232 671 C222 670 212 674 202 679 C190 684 177 690 161 690 C161 690 160 690 160 690 C129 690 91 649 89 647 L85 642 L120 602 L125 596 L131 602 C136 608 152 622 166 623 C176 623 183 620 192 615 C203 610 215 603 235 604 C264 605 302 644 306 649 L311 654 L268 697 L263 691 C263 691 258 686 252 681 L252 681 Z " />
<glyph glyph-name="Ograve" unicode="&#xd2;" horiz-adv-x="393" d="M113 -73 C136 -85 165 -92 199 -92 C232 -92 261 -85 284 -73 C303 -62 317 -47 328 -27 C340 -6 347 20 347 48 L347 450 C347 478 340 504 328 526 C317 545 303 560 284 571 C261 584 232 590 199 590 C165 590 136 584 113 571 C95 560 80 545 69 526 C57 504 51 478 51 451 L51 48 C51 20 57 -6 69 -27 C80 -47 95 -62 113 -73 L113 -73 Z M143 450 C143 450 143 465 151 478 C159 496 176 505 199 505 C216 505 229 500 239 491 C254 475 254 451 254 451 L254 48 L254 48 C254 48 254 23 239 7 C229 -2 216 -7 199 -7 C176 -7 159 2 151 20 C143 33 143 48 143 48 L143 450 L143 450 Z M266 596 L199 705 L100 705 L193 596 L266 596 L266 596 Z " />
<glyph glyph-name="Oacute" unicode="&#xd3;" horiz-adv-x="385" d="M283 -73 C302 -62 317 -47 327 -27 C340 -6 346 20 346 48 L346 450 C346 478 340 504 327 526 C317 545 302 560 283 571 C260 584 232 590 198 590 C164 590 136 584 113 571 C94 560 79 545 68 526 C56 504 50 478 50 451 L50 48 C50 20 56 -6 68 -27 C79 -47 94 -62 113 -73 C136 -85 164 -92 198 -92 C232 -92 260 -85 283 -73 L283 -73 Z M150 20 C142 33 142 48 142 48 L142 450 C142 450 142 465 150 478 C159 496 175 505 198 505 C215 505 229 500 238 491 C254 475 253 451 253 451 L253 48 L253 48 C253 48 254 23 238 7 C229 -2 215 -7 198 -7 C175 -7 159 2 150 20 L150 20 Z M320 705 L221 705 L155 596 L227 596 L320 705 L320 705 Z " />
<glyph glyph-name="Ocircumflex" unicode="&#xd4;" horiz-adv-x="399" d="M114 -72 C137 -85 166 -92 199 -92 C233 -92 261 -85 284 -72 C303 -62 318 -47 329 -27 C341 -6 347 20 347 48 L347 449 C347 477 341 503 329 525 C318 544 303 559 284 570 C261 583 233 589 199 589 C166 589 137 583 114 570 C95 559 80 544 69 525 C58 504 51 477 51 450 L51 48 C51 21 58 -6 69 -27 C80 -46 95 -62 114 -72 L114 -72 Z M144 449 C144 450 144 463 151 477 C160 495 176 504 199 504 C216 504 230 500 239 490 C255 474 255 450 255 450 L255 48 L255 48 C255 48 255 24 239 8 C230 -2 216 -7 199 -7 C176 -7 160 2 151 20 C144 34 144 48 144 48 L144 449 L144 449 Z M199 653 L229 592 L309 592 L244 709 L156 709 L89 593 L169 593 L199 653 Z " />
<glyph glyph-name="Otilde" unicode="&#xd5;" horiz-adv-x="384" d="M107 -73 C130 -85 158 -92 192 -92 C226 -92 254 -85 277 -73 C296 -62 311 -47 322 -27 C334 -6 340 20 340 48 L340 450 C340 478 334 504 322 526 C311 545 296 560 277 571 C254 584 226 590 192 590 C158 590 130 584 107 571 C88 560 73 545 62 526 C50 504 44 478 44 451 L44 48 C44 20 50 -6 62 -27 C73 -47 88 -62 107 -73 L107 -73 Z M136 450 C136 450 137 465 144 478 C153 496 169 505 192 505 C209 505 223 500 232 491 C248 475 247 451 247 451 L247 48 L247 48 C247 48 248 23 232 7 C223 -2 209 -7 192 -7 C169 -7 153 2 144 20 C137 33 136 48 136 48 L136 450 L136 450 Z M120 594 L125 601 C130 606 146 621 160 622 C170 622 177 618 186 614 C197 608 210 602 229 603 C259 603 296 643 300 647 L305 653 L262 695 L257 690 C257 690 252 685 246 679 C238 673 231 669 226 669 C216 669 207 673 196 678 C184 683 171 688 155 688 C123 688 85 648 84 646 L79 641 L114 601 L120 594 L120 594 Z " />
<glyph glyph-name="Odieresis" unicode="&#xd6;" horiz-adv-x="399" d="M350 48 L350 449 C350 477 343 503 331 525 C320 544 305 559 286 570 C264 583 235 589 201 589 C168 589 139 583 116 570 C98 559 82 544 72 525 C60 504 53 477 53 450 L53 48 C53 21 60 -6 72 -27 C82 -46 98 -62 116 -72 C139 -85 168 -92 201 -92 C235 -92 264 -85 286 -72 C305 -62 320 -47 331 -27 C343 -6 350 20 350 48 L350 48 Z M242 8 C232 -2 219 -7 201 -7 C179 -7 162 2 153 20 C146 34 146 48 146 48 L146 449 C146 450 146 463 153 477 C162 495 178 504 201 504 C219 504 232 500 242 490 C257 474 257 450 257 450 L257 48 L257 48 C257 48 257 24 242 8 L242 8 Z M195 694 L112 694 L112 607 L195 607 L195 694 L195 694 Z M289 694 L206 694 L206 607 L289 607 L289 694 L289 694 Z " />
<glyph glyph-name="Oslash" unicode="&#xd8;" horiz-adv-x="371" d="M97 -114 L109 -79 C129 -88 154 -92 181 -92 C215 -92 243 -85 266 -73 C285 -62 300 -47 311 -27 C323 -6 330 20 330 48 L330 449 C330 479 322 507 308 529 L335 612 L275 612 L262 572 C240 583 213 589 181 589 C148 589 119 583 96 570 C77 559 62 544 52 525 C40 503 33 477 33 450 L33 48 C33 27 37 -10 61 -42 L37 -114 L97 -114 L97 -114 Z M237 48 C237 48 237 23 221 7 C212 -2 199 -7 181 -7 C162 -7 148 -1 138 11 L237 312 L237 48 L237 48 L237 48 Z M126 449 C126 449 126 463 133 477 C142 495 158 504 181 504 C205 504 222 495 230 477 L126 157 L126 449 L126 449 Z " />
<glyph glyph-name="Ugrave" unicode="&#xd9;" horiz-adv-x="376" d="M251 588 L251 48 L251 48 C251 48 251 24 235 8 C226 -2 212 -7 195 -7 C172 -7 156 2 147 20 C140 34 139 48 139 48 L140 588 L47 588 L47 48 C47 21 53 -6 65 -27 C76 -47 91 -62 110 -72 C133 -85 161 -92 195 -92 C229 -92 257 -85 280 -72 C299 -62 314 -47 325 -27 C337 -6 343 20 343 48 L343 588 L251 588 L251 588 Z M87 701 L179 592 L252 592 L186 701 L87 701 L87 701 Z " />
<glyph glyph-name="Uacute" unicode="&#xda;" horiz-adv-x="386" d="M248 588 L247 48 L247 48 C247 48 248 24 232 8 C222 -2 209 -7 192 -7 C169 -7 152 2 144 20 C136 34 136 48 136 48 L137 588 L44 588 L44 48 C44 21 50 -6 62 -27 C73 -47 88 -62 107 -72 C130 -85 158 -92 192 -92 C225 -92 254 -85 277 -72 C296 -62 311 -47 321 -27 C333 -6 340 20 340 48 L340 588 L248 588 L248 588 Z M222 592 L315 701 L216 701 L150 592 L222 592 L222 592 Z " />
<glyph glyph-name="Ucircumflex" unicode="&#xdb;" horiz-adv-x="386" d="M254 588 L254 48 L254 47 C254 47 254 23 238 7 C229 -2 216 -7 198 -7 C175 -7 159 2 150 19 C143 33 143 47 143 48 L143 588 L50 588 L50 47 C50 20 57 -7 69 -28 C79 -47 94 -62 113 -73 C136 -86 165 -92 198 -92 C232 -92 260 -86 283 -73 C302 -62 317 -47 328 -28 C340 -6 347 20 347 48 L347 588 L254 588 L254 588 Z M87 593 L167 593 L197 654 L227 593 L307 593 L242 709 L154 709 L87 593 L87 593 Z " />
<glyph glyph-name="Udieresis" unicode="&#xdc;" horiz-adv-x="386" d="M249 588 L248 49 L248 49 C248 49 248 25 233 9 C224 -1 210 -6 193 -6 C170 -6 154 3 145 21 C138 35 137 49 137 49 L138 588 L45 588 L45 49 C45 22 51 -5 63 -26 C74 -45 89 -60 108 -71 C131 -84 159 -91 193 -91 C226 -91 255 -84 278 -71 C297 -60 312 -45 323 -26 C335 -5 341 21 341 49 L341 588 L249 588 L249 588 Z M193 688 L110 688 L110 602 L193 602 L193 688 L193 688 Z M285 688 L202 688 L202 602 L285 602 L285 688 L285 688 Z " />
<glyph glyph-name="Yacute" unicode="&#xdd;" horiz-adv-x="436" d="M319 588 L220 320 L120 588 L19 588 L173 193 L173 -88 L266 -88 L266 192 L420 588 L319 588 L319 588 Z M233 589 L326 697 L227 697 L161 589 L233 589 L233 589 Z " />
<glyph glyph-name="agrave" unicode="&#xe0;" horiz-adv-x="398" d="M159 588 L22 -88 L118 -88 L137 14 L268 14 L290 -88 L385 -88 L243 588 L159 588 Z M156 106 L201 347 L251 106 L156 106 Z M241 597 L174 706 L75 706 L168 597 L241 597 Z " />
<glyph glyph-name="aacute" unicode="&#xe1;" horiz-adv-x="398" d="M133 14 L264 14 L286 -88 L380 -88 L239 588 L155 588 L18 -88 L114 -88 L133 14 Z M197 347 L247 106 L152 106 L197 347 Z M318 706 L219 706 L153 597 L225 597 L318 706 Z " />
<glyph glyph-name="acircumflex" unicode="&#xe2;" horiz-adv-x="398" d="M135 14 L266 14 L287 -88 L383 -88 L241 588 L157 588 L20 -88 L115 -88 L135 14 Z M199 347 L249 106 L154 106 L199 347 Z M199 654 L229 593 L309 593 L244 710 L156 710 L89 594 L169 594 L199 654 Z " />
<glyph glyph-name="atilde" unicode="&#xe3;" horiz-adv-x="398" d="M135 14 L267 14 L288 -88 L383 -88 L241 588 L157 588 L21 -88 L116 -88 L135 14 Z M200 347 L249 106 L154 106 L200 347 Z M135 602 C140 608 156 622 170 623 L170 623 C180 623 187 620 196 615 C207 610 219 603 239 604 C268 605 306 644 310 649 L315 654 L272 697 L267 691 C260 683 245 671 236 670 C226 670 216 674 206 679 C194 684 181 690 165 690 C165 690 165 690 164 690 C133 689 95 649 93 647 L89 642 L129 595 L135 602 Z " />
<glyph glyph-name="adieresis" unicode="&#xe4;" horiz-adv-x="398" d="M198 690 L115 690 L115 604 L198 604 L198 690 Z M287 690 L204 690 L204 604 L287 604 L287 690 Z M135 14 L267 14 L288 -88 L383 -88 L241 588 L157 588 L21 -88 L116 -88 L135 14 Z M200 347 L249 106 L154 106 L200 347 Z " />
<glyph glyph-name="aring" unicode="&#xe5;" horiz-adv-x="398" d="M266 14 L287 -88 L382 -88 L244 573 C266 587 279 612 279 638 C279 681 244 716 201 716 C158 716 123 681 123 638 C123 613 134 590 154 576 L20 -88 L115 -88 L134 14 L266 14 Z M201 678 C223 678 242 660 242 638 C242 615 223 597 201 597 C179 597 160 615 160 638 C160 660 179 678 201 678 L201 678 Z M199 347 L248 106 L153 106 L199 347 Z " />
<glyph glyph-name="ae" unicode="&#xe6;" horiz-adv-x="474" d="M128 14 L185 14 L185 -88 L454 -88 L454 5 L278 5 L278 148 L372 148 L372 241 L278 241 L278 495 L454 495 L454 588 L151 588 L14 -88 L109 -88 L128 14 Z M185 306 L185 106 L147 106 L185 306 Z " />
<glyph glyph-name="ccedilla" unicode="&#xe7;" horiz-adv-x="329" d="M253 570 C230 583 201 590 168 590 C134 590 106 583 83 570 C64 559 49 544 38 525 C26 504 20 478 20 450 L20 49 L20 48 C20 23 25 -2 36 -23 C45 -41 58 -56 75 -67 C94 -80 117 -88 144 -90 C146 -94 148 -97 150 -99 C157 -109 167 -115 176 -120 C187 -127 194 -132 194 -138 C194 -152 187 -162 150 -166 L144 -166 L143 -210 L151 -210 C206 -208 227 -180 234 -164 C244 -144 243 -121 232 -109 C225 -99 217 -92 210 -88 C230 -83 248 -76 263 -65 C279 -54 291 -39 300 -21 C308 -7 316 17 316 49 L316 56 L231 56 L223 56 L223 48 C223 48 223 24 208 8 C198 -2 185 -6 168 -6 C145 -6 129 3 119 20 C112 34 112 48 112 49 L112 450 C112 450 112 464 119 478 C128 496 145 505 168 505 C185 505 198 500 208 490 C223 475 223 450 223 450 L223 443 L316 443 L316 450 C316 478 310 504 297 525 C287 544 272 560 253 570 L253 570 Z " />
<glyph glyph-name="egrave" unicode="&#xe8;" horiz-adv-x="327" d="M300 -88 L300 4 L124 4 L124 148 L218 148 L218 240 L124 240 L124 495 L300 495 L300 587 L31 587 L31 -88 L300 -88 Z M204 603 L137 711 L38 711 L131 603 L204 603 Z " />
<glyph glyph-name="eacute" unicode="&#xe9;" horiz-adv-x="359" d="M308 -88 L308 4 L131 4 L131 148 L225 148 L225 240 L131 240 L131 495 L308 495 L308 587 L38 587 L38 -88 L308 -88 Z M292 712 L193 712 L127 603 L200 603 L292 712 Z " />
<glyph glyph-name="ecircumflex" unicode="&#xea;" horiz-adv-x="359" d="M139 148 L233 148 L233 241 L139 241 L139 496 L315 496 L315 588 L46 588 L46 -88 L315 -88 L315 5 L139 5 L139 148 Z M148 600 C173 648 176 655 179 660 L209 599 L289 599 L224 715 L135 715 L68 600 L148 600 Z " />
<glyph glyph-name="edieresis" unicode="&#xeb;" horiz-adv-x="359" d="M182 700 L99 700 L99 614 L182 614 L182 700 Z M275 700 L192 700 L192 614 L275 614 L275 700 Z M144 4 L144 148 L239 148 L239 241 L144 241 L144 495 L321 495 L321 587 L52 587 L52 -88 L321 -88 L321 4 L144 4 Z " />
<glyph glyph-name="igrave" unicode="&#xec;" horiz-adv-x="188" d="M63 -88 L155 -88 L155 588 L63 588 L63 -88 Z M156 610 L89 719 L-10 719 L83 610 L156 610 Z " />
<glyph glyph-name="iacute" unicode="&#xed;" horiz-adv-x="176" d="M37 -88 L129 -88 L129 587 L37 587 L37 -88 Z M202 718 L103 718 L37 610 L109 610 L202 718 Z " />
<glyph glyph-name="icircumflex" unicode="&#xee;" horiz-adv-x="214" d="M63 -88 L155 -88 L155 587 L63 587 L63 -88 Z M109 667 L139 606 L219 606 L154 722 L66 722 L-2 607 L79 607 L109 667 Z " />
<glyph glyph-name="idieresis" unicode="&#xef;" horiz-adv-x="212" d="M60 -88 L153 -88 L153 587 L60 587 L60 -88 Z M102 698 L19 698 L19 612 L102 612 L102 698 Z M112 698 L112 612 L195 612 L195 698 L112 698 Z " />
<glyph glyph-name="ntilde" unicode="&#xf1;" horiz-adv-x="389" d="M262 587 L262 191 L126 587 L35 587 L35 -88 L128 -88 L128 309 L264 -88 L354 -88 L354 587 L262 587 L262 587 Z M122 596 L128 602 C133 608 149 622 163 623 C173 623 180 620 189 615 C200 610 212 603 232 604 C261 605 299 644 303 649 L308 654 L265 697 L260 691 C260 691 255 686 249 681 C241 674 234 671 229 671 C219 670 209 674 199 679 C187 684 174 690 158 690 C158 690 157 690 157 690 C126 690 88 649 86 647 L82 642 L117 602 L122 596 L122 596 Z " />
<glyph glyph-name="ograve" unicode="&#xf2;" horiz-adv-x="393" d="M113 -73 C136 -85 165 -92 199 -92 C232 -92 261 -85 284 -73 C303 -62 317 -47 328 -27 C340 -6 347 20 347 48 L347 450 C347 478 340 504 328 526 C317 545 303 560 284 571 C261 584 232 590 199 590 C165 590 136 584 113 571 C95 560 80 545 69 526 C57 504 51 478 51 451 L51 48 C51 20 57 -6 69 -27 C80 -47 95 -62 113 -73 L113 -73 Z M143 450 C143 450 143 465 151 478 C159 496 176 505 199 505 C216 505 229 500 239 491 C254 475 254 451 254 451 L254 48 L254 48 C254 48 254 23 239 7 C229 -2 216 -7 199 -7 C176 -7 159 2 151 20 C143 33 143 48 143 48 L143 450 Z M266 596 L199 705 L100 705 L193 596 L266 596 Z " />
<glyph glyph-name="oacute" unicode="&#xf3;" horiz-adv-x="385" d="M283 -73 C302 -62 317 -47 327 -27 C340 -6 346 20 346 48 L346 450 C346 478 340 504 327 526 C317 545 302 560 283 571 C260 584 232 590 198 590 C164 590 136 584 113 571 C94 560 79 545 68 526 C56 504 50 478 50 451 L50 48 C50 20 56 -6 68 -27 C79 -47 94 -62 113 -73 C136 -85 164 -92 198 -92 C232 -92 260 -85 283 -73 L283 -73 Z M150 20 C142 33 142 48 142 48 L142 450 C142 450 142 465 150 478 C159 496 175 505 198 505 C215 505 229 500 238 491 C254 475 253 451 253 451 L253 48 L253 48 C253 48 254 23 238 7 C229 -2 215 -7 198 -7 C175 -7 159 2 150 20 L150 20 Z M320 705 L221 705 L155 596 L227 596 L320 705 Z " />
<glyph glyph-name="ocircumflex" unicode="&#xf4;" horiz-adv-x="399" d="M114 -72 C137 -85 166 -92 199 -92 C233 -92 261 -85 284 -72 C303 -62 318 -47 329 -27 C341 -6 347 20 347 48 L347 449 C347 477 341 503 329 525 C318 544 303 559 284 570 C261 583 233 589 199 589 C166 589 137 583 114 570 C95 559 80 544 69 525 C58 504 51 477 51 450 L51 48 C51 21 58 -6 69 -27 C80 -46 95 -62 114 -72 L114 -72 Z M144 449 C144 450 144 463 151 477 C160 495 176 504 199 504 C216 504 230 500 239 490 C255 474 255 450 255 450 L255 48 L255 48 C255 48 255 24 239 8 C230 -2 216 -7 199 -7 C176 -7 160 2 151 20 C144 34 144 48 144 48 L144 449 Z M199 653 L229 592 L309 592 L244 709 L156 709 L89 593 L169 593 L199 653 Z " />
<glyph glyph-name="otilde" unicode="&#xf5;" horiz-adv-x="384" d="M107 -73 C130 -85 158 -92 192 -92 C226 -92 254 -85 277 -73 C296 -62 311 -47 322 -27 C334 -6 340 20 340 48 L340 450 C340 478 334 504 322 526 C311 545 296 560 277 571 C254 584 226 590 192 590 C158 590 130 584 107 571 C88 560 73 545 62 526 C50 504 44 478 44 451 L44 48 C44 20 50 -6 62 -27 C73 -47 88 -62 107 -73 L107 -73 Z M136 450 C136 450 137 465 144 478 C153 496 169 505 192 505 C209 505 223 500 232 491 C248 475 247 451 247 451 L247 48 L247 48 C247 48 248 23 232 7 C223 -2 209 -7 192 -7 C169 -7 153 2 144 20 C137 33 136 48 136 48 L136 450 Z M120 594 L125 601 C130 606 146 621 160 622 C170 622 177 618 186 614 C197 608 210 602 229 603 C259 603 296 643 300 647 L305 653 L262 695 L257 690 C257 690 252 685 246 679 C238 673 231 669 226 669 C216 669 207 673 196 678 C184 683 171 688 155 688 C123 688 85 648 84 646 L79 641 L114 601 L120 594 Z " />
<glyph glyph-name="odieresis" unicode="&#xf6;" horiz-adv-x="399" d="M350 48 L350 449 C350 477 343 503 331 525 C320 544 305 559 286 570 C264 583 235 589 201 589 C168 589 139 583 116 570 C98 559 82 544 72 525 C60 504 53 477 53 450 L53 48 C53 21 60 -6 72 -27 C82 -46 98 -62 116 -72 C139 -85 168 -92 201 -92 C235 -92 264 -85 286 -72 C305 -62 320 -47 331 -27 C343 -6 350 20 350 48 L350 48 Z M242 8 C232 -2 219 -7 201 -7 C179 -7 162 2 153 20 C146 34 146 48 146 48 L146 449 C146 450 146 463 153 477 C162 495 178 504 201 504 C219 504 232 500 242 490 C257 474 257 450 257 450 L257 48 L257 48 C257 48 257 24 242 8 L242 8 Z M195 694 L112 694 L112 607 L195 607 L195 694 Z M289 694 L206 694 L206 607 L289 607 L289 694 Z " />
<glyph glyph-name="oslash" unicode="&#xf8;" horiz-adv-x="371" d="M97 -114 L109 -79 C129 -88 154 -92 181 -92 C215 -92 243 -85 266 -73 C285 -62 300 -47 311 -27 C323 -6 330 20 330 48 L330 449 C330 479 322 507 308 529 L335 612 L275 612 L262 572 C240 583 213 589 181 589 C148 589 119 583 96 570 C77 559 62 544 52 525 C40 503 33 477 33 450 L33 48 C33 27 37 -10 61 -42 L37 -114 L97 -114 Z M237 48 C237 48 237 23 221 7 C212 -2 199 -7 181 -7 C162 -7 148 -1 138 11 L237 312 L237 48 Z M126 449 C126 449 126 463 133 477 C142 495 158 504 181 504 C205 504 222 495 230 477 L126 157 L126 449 Z " />
<glyph glyph-name="ugrave" unicode="&#xf9;" horiz-adv-x="376" d="M251 588 L251 48 L251 48 C251 48 251 24 235 8 C226 -2 212 -7 195 -7 C172 -7 156 2 147 20 C140 34 139 48 139 48 L140 588 L47 588 L47 48 C47 21 53 -6 65 -27 C76 -47 91 -62 110 -72 C133 -85 161 -92 195 -92 C229 -92 257 -85 280 -72 C299 -62 314 -47 325 -27 C337 -6 343 20 343 48 L343 588 L251 588 Z M87 701 L179 592 L252 592 L186 701 L87 701 Z " />
<glyph glyph-name="uacute" unicode="&#xfa;" horiz-adv-x="386" d="M248 588 L247 48 L247 48 C247 48 248 24 232 8 C222 -2 209 -7 192 -7 C169 -7 152 2 144 20 C136 34 136 48 136 48 L137 588 L44 588 L44 48 C44 21 50 -6 62 -27 C73 -47 88 -62 107 -72 C130 -85 158 -92 192 -92 C225 -92 254 -85 277 -72 C296 -62 311 -47 321 -27 C333 -6 340 20 340 48 L340 588 L248 588 Z M222 592 L315 701 L216 701 L150 592 L222 592 Z " />
<glyph glyph-name="ucircumflex" unicode="&#xfb;" horiz-adv-x="386" d="M254 588 L254 48 L254 47 C254 47 254 23 238 7 C229 -2 216 -7 198 -7 C175 -7 159 2 150 19 C143 33 143 47 143 48 L143 588 L50 588 L50 47 C50 20 57 -7 69 -28 C79 -47 94 -62 113 -73 C136 -86 165 -92 198 -92 C232 -92 260 -86 283 -73 C302 -62 317 -47 328 -28 C340 -6 347 20 347 48 L347 588 L254 588 Z M87 593 L167 593 L197 654 L227 593 L307 593 L242 709 L154 709 L87 593 Z " />
<glyph glyph-name="udieresis" unicode="&#xfc;" horiz-adv-x="386" d="M249 588 L248 48 L248 48 C248 48 248 24 233 8 C224 -2 210 -7 193 -7 C170 -7 154 2 145 20 C138 34 137 48 137 48 L138 588 L45 588 L45 48 C45 21 51 -6 63 -27 C74 -46 89 -61 108 -72 C131 -85 159 -92 193 -92 C226 -92 255 -85 278 -72 C297 -61 312 -46 323 -27 C335 -6 341 20 341 48 L341 588 L249 588 Z M193 688 L110 688 L110 602 L193 602 L193 688 Z M285 688 L202 688 L202 602 L285 602 L285 688 Z " />
<glyph glyph-name="yacute" unicode="&#xfd;" horiz-adv-x="436" d="M319 588 L220 320 L120 588 L19 588 L173 193 L173 -88 L266 -88 L266 192 L420 588 L319 588 Z M233 589 L326 697 L227 697 L161 589 L233 589 Z " />
<glyph glyph-name="ydieresis" unicode="&#xff;" horiz-adv-x="436" d="M215 697 L132 697 L132 610 L215 610 L215 697 L215 697 Z M309 697 L226 697 L226 610 L309 610 L309 697 L309 697 Z M320 588 L221 320 L122 588 L21 588 L174 192 L174 -88 L267 -88 L268 192 L421 588 L320 588 L320 588 Z " />
<glyph glyph-name="Lslash" unicode="&#x141;" horiz-adv-x="340" d="M198 230 L341 341 L266 356 L198 304 L198 587 L105 587 L105 232 L4 153 L79 138 L105 158 L105 -88 L330 -88 L330 5 L198 5 L198 230 L198 230 Z " />
<glyph glyph-name="lslash" unicode="&#x142;" horiz-adv-x="340" d="M198 230 L341 341 L266 356 L198 304 L198 587 L105 587 L105 232 L4 153 L79 138 L105 158 L105 -88 L330 -88 L330 5 L198 5 L198 230 Z " />
<glyph glyph-name="OE" unicode="&#x152;" horiz-adv-x="488" d="M218 -88 L465 -88 L465 4 L288 4 L288 148 L382 148 L382 240 L288 240 L288 495 L465 495 L465 587 L219 587 C207 589 195 590 182 590 C135 590 98 577 72 552 C38 517 34 470 34 451 L34 49 C34 30 38 -18 72 -52 C98 -78 135 -91 182 -91 C195 -91 207 -90 218 -88 L218 -88 Z M134 21 C127 34 127 49 127 49 L127 450 C127 450 127 464 134 478 C143 496 159 505 182 505 C187 505 191 505 196 504 L196 -5 C191 -6 187 -6 182 -6 C159 -6 143 3 134 21 L134 21 Z " />
<glyph glyph-name="oe" unicode="&#x153;" horiz-adv-x="488" d="M218 -88 L465 -88 L465 4 L288 4 L288 148 L382 148 L382 240 L288 240 L288 495 L465 495 L465 587 L219 587 C207 589 195 590 182 590 C135 590 98 577 72 552 C38 517 34 470 34 451 L34 49 C34 30 38 -18 72 -52 C98 -78 135 -91 182 -91 C195 -91 207 -90 218 -88 L218 -88 Z M134 21 C127 34 127 49 127 49 L127 450 C127 450 127 464 134 478 C143 496 159 505 182 505 C187 505 191 505 196 504 L196 -5 C191 -6 187 -6 182 -6 C159 -6 143 3 134 21 L134 21 Z " />
<glyph glyph-name="Scaron" unicode="&#x160;" horiz-adv-x="331" d="M248 570 C233 579 215 584 194 587 L208 587 L273 703 L193 703 L163 643 C161 648 157 655 153 664 C144 681 135 699 135 699 L133 703 L53 703 L120 587 L133 587 C112 584 94 579 78 570 C59 559 44 544 34 524 C22 503 15 477 15 450 L15 314 C15 289 26 265 46 246 C60 231 75 224 76 224 C78 223 121 204 163 201 C187 200 204 194 212 184 C219 177 219 170 219 169 L219 169 L219 48 L219 48 C219 47 219 23 204 7 C194 -2 181 -7 163 -7 C141 -7 124 2 115 20 C108 33 108 48 108 48 L108 154 L15 154 L15 48 L15 47 C15 20 22 -6 34 -28 C44 -47 59 -62 78 -73 C101 -86 130 -92 163 -92 C197 -92 226 -86 248 -73 C267 -62 282 -47 293 -28 C305 -6 312 20 312 48 L312 164 C312 206 293 234 277 250 C261 265 246 272 242 274 C238 277 215 289 164 292 C116 295 109 316 108 318 L108 449 C108 449 108 464 115 477 C124 495 141 504 163 504 C181 504 194 499 204 490 C219 474 219 450 219 450 L219 336 L312 336 L312 449 C312 477 305 503 293 525 C282 544 267 559 248 570 L248 570 Z " />
<glyph glyph-name="scaron" unicode="&#x161;" horiz-adv-x="331" d="M248 570 C233 579 215 584 194 587 L208 587 L273 703 L193 703 L163 643 C161 648 157 655 153 664 C144 681 135 699 135 699 L133 703 L53 703 L120 587 L133 587 C112 584 94 579 78 570 C59 559 44 544 34 524 C22 503 15 477 15 450 L15 314 C15 289 26 265 46 246 C60 231 75 224 76 224 C78 223 121 204 163 201 C187 200 204 194 212 184 C219 177 219 170 219 169 L219 169 L219 48 L219 48 C219 47 219 23 204 7 C194 -2 181 -7 163 -7 C141 -7 124 2 115 20 C108 33 108 48 108 48 L108 154 L15 154 L15 48 L15 47 C15 20 22 -6 34 -28 C44 -47 59 -62 78 -73 C101 -86 130 -92 163 -92 C197 -92 226 -86 248 -73 C267 -62 282 -47 293 -28 C305 -6 312 20 312 48 L312 164 C312 206 293 234 277 250 C261 265 246 272 242 274 C238 277 215 289 164 292 C116 295 109 316 108 318 L108 449 C108 449 108 464 115 477 C124 495 141 504 163 504 C181 504 194 499 204 490 C219 474 219 450 219 450 L219 336 L312 336 L312 449 C312 477 305 503 293 525 C282 544 267 559 248 570 L248 570 Z " />
<glyph glyph-name="Ydieresis" unicode="&#x178;" horiz-adv-x="436" d="M131 610 L214 610 L214 697 L131 697 L131 610 L131 610 Z M308 610 L308 697 L225 697 L225 610 L308 610 L308 610 Z M220 320 L121 588 L20 588 L173 192 L173 -88 L266 -88 L266 192 L420 588 L319 588 L220 320 L220 320 Z " />
<glyph glyph-name="Zcaron" unicode="&#x17d;" horiz-adv-x="441" d="M404 501 L404 588 L271 588 L335 702 L254 702 L225 642 C222 647 219 654 214 663 C205 680 197 698 197 698 L195 702 L114 702 L180 588 L45 588 L45 496 L289 496 L46 1 L45 -1 L45 -88 L404 -88 L404 5 L161 5 L404 501 L404 501 Z " />
<glyph glyph-name="zcaron" unicode="&#x17e;" horiz-adv-x="441" d="M404 501 L404 588 L271 588 L335 702 L254 702 L225 642 C222 647 219 654 214 663 C205 680 197 698 197 698 L195 702 L114 702 L180 588 L45 588 L45 496 L289 496 L46 1 L45 -1 L45 -88 L404 -88 L404 5 L161 5 L404 501 Z " />
<glyph glyph-name="quoteleft" unicode="&#x2018;" horiz-adv-x="175" d="M74 588 L10 437 L82 437 L171 588 L74 588 L74 588 Z " />
<glyph glyph-name="quoteright" unicode="&#x2019;" horiz-adv-x="175" d="M74 588 L10 437 L82 437 L171 588 L74 588 L74 588 Z " />
<glyph glyph-name="quotedblleft" unicode="&#x201c;" horiz-adv-x="279" d="M77 588 L13 437 L85 437 L174 588 L77 588 L77 588 Z M178 588 L114 437 L186 437 L275 588 L178 588 L178 588 Z " />
<glyph glyph-name="quotedblright" unicode="&#x201d;" horiz-adv-x="279" d="M77 588 L13 437 L85 437 L174 588 L77 588 L77 588 Z M178 588 L114 437 L186 437 L275 588 L178 588 L178 588 Z " />
<glyph glyph-name="Euro" unicode="&#x20ac;" horiz-adv-x="346" d="M271 573 C249 585 220 591 187 591 C153 591 124 584 101 571 C83 560 68 545 57 526 C45 505 38 478 38 451 L39 355 L18 355 L18 272 L38 272 L38 231 L18 231 L18 148 L38 148 L38 49 C38 22 45 -5 57 -26 C68 -45 83 -60 101 -71 C124 -84 153 -90 187 -90 C220 -90 249 -85 271 -73 C290 -63 305 -49 316 -32 C325 -18 335 5 335 38 L335 46 L242 46 L242 38 C242 38 242 22 230 9 C221 0 206 -5 187 -5 C164 -5 147 3 138 21 C131 35 131 49 131 50 L131 148 L296 148 L296 231 L131 231 L131 272 L296 272 L296 355 L131 355 L131 451 C131 451 131 465 138 479 C147 497 164 506 187 506 C206 506 221 501 230 491 C242 479 242 463 242 462 L242 455 L335 455 L335 462 C335 495 325 518 316 532 C305 550 290 563 271 573 L271 573 Z " />
</font>
</svg>
