<?xml version="1.0" encoding="UTF-8"?>
<svg xmlns="http://www.w3.org/2000/svg" xmlns:xlink="http://www.w3.org/1999/xlink" version="1.2" >
<font id="Red Hair Sensual Slanted">
<font-face  font-family="Red Hair Sensual Slanted" units-per-em="1000" ascent="750" descent="-250" font-style="normal" font-weight="400" font-stretch="normal" slope="-10" cap-height="700" x-height="500" underline-position="-75" underline-thickness="50" />
<missing-glyph  horiz-adv-x="99" d="" />
<glyph glyph-name="NULL" d="" />
<glyph glyph-name="CR" unicode="&#xd;" horiz-adv-x="99" d="" />
<glyph glyph-name="space" unicode="&#x20;" horiz-adv-x="99" d="" />
<glyph glyph-name="exclam" unicode="&#x21;" horiz-adv-x="81" d="M23 -52 C28 -54 30 -50 31 -46 C33 -42 35 -32 36 -27 C52 72 75 171 94 270 C115 370 134 470 156 570 C159 582 180 673 185 699 C185 701 181 704 176 701 C171 696 143 562 141 551 C119 450 99 349 78 248 C68 198 58 147 48 96 C42 58 33 18 26 -20 C24 -31 21 -51 23 -52 L23 -52 Z M18 -168 C22 -164 24 -154 21 -151 C19 -147 13 -148 11 -150 C5 -153 2 -164 5 -169 C8 -173 14 -172 18 -168 L18 -168 Z " />
<glyph glyph-name="quotedbl" unicode="&#x22;" horiz-adv-x="119" d="M190 697 C188 694 185 682 182 670 C180 661 175 645 181 644 C187 644 188 646 190 652 C193 660 194 668 195 673 C198 683 198 685 200 692 C200 698 197 699 190 697 L190 697 Z M169 693 C163 693 161 688 159 679 C159 675 156 660 155 656 C156 653 153 642 159 642 C166 642 165 647 167 653 C168 658 172 678 173 685 C174 688 174 693 169 693 L169 693 Z " />
<glyph glyph-name="numbersign" unicode="&#x23;" horiz-adv-x="237" d="M146 284 C135 283 125 281 116 280 C109 279 92 278 89 270 C88 268 87 264 89 263 C90 263 94 265 95 265 C100 266 107 268 112 269 C122 271 133 273 143 274 C140 260 135 245 131 230 C130 226 126 217 129 215 C132 213 135 216 136 218 C137 220 138 223 138 225 C141 234 150 263 154 276 C159 277 167 278 171 278 C178 279 185 280 192 281 C188 261 183 241 180 222 C178 218 176 209 184 210 C188 211 187 217 187 221 C188 225 190 230 191 234 C193 242 199 267 202 282 C213 283 231 284 234 284 C237 284 241 283 244 282 C247 281 251 285 250 288 C250 295 215 292 205 291 C208 301 209 308 212 318 C221 318 233 321 243 319 C247 318 248 319 249 320 C250 321 252 323 253 324 C254 327 250 328 244 329 C234 330 223 328 213 328 C217 341 216 339 220 355 C223 367 224 373 225 377 C226 380 220 380 217 378 C215 377 214 372 214 370 C210 357 208 341 203 327 C190 324 180 325 167 323 C172 338 175 346 178 358 C179 363 182 373 182 375 C180 379 174 378 171 373 C165 355 163 341 157 322 C148 321 117 319 113 319 C109 317 108 309 111 307 C113 305 121 307 124 307 C134 308 144 309 154 311 C152 302 148 293 146 284 L146 284 Z M195 290 C182 289 169 287 156 286 C159 295 161 306 165 312 C171 314 193 315 201 317 C199 308 197 299 195 290 L195 290 Z " />
<glyph glyph-name="dollar" unicode="&#x24;" horiz-adv-x="195" d="M21 -16 C26 -18 34 -9 38 -5 C43 0 48 7 53 13 C85 54 114 93 143 136 C174 180 210 235 198 285 C192 307 173 333 153 358 C164 401 190 502 209 559 C211 561 224 564 229 565 C241 567 254 566 261 557 C270 538 252 506 241 484 C236 472 224 449 229 448 C232 447 235 449 237 451 C238 452 242 460 243 463 C248 471 251 479 255 487 C264 509 289 559 259 573 C245 579 229 575 213 571 C216 580 218 589 221 595 C223 597 225 600 226 602 C226 604 221 606 218 605 C214 603 207 586 205 581 C203 576 201 572 199 565 C194 561 184 557 173 548 C142 524 114 487 105 450 C99 424 105 397 121 377 C127 369 134 358 139 351 C132 327 102 200 90 150 C88 140 83 123 85 121 C89 121 92 122 94 125 C95 128 96 136 97 139 C106 171 137 308 148 343 C157 334 165 322 171 311 C177 299 182 287 183 273 C185 247 173 219 161 195 C147 169 131 145 115 121 C93 86 66 49 39 16 C35 11 31 5 27 0 C25 -2 23 -4 21 -7 C19 -10 19 -15 21 -16 L21 -16 Z M195 551 C176 490 160 429 143 367 C133 381 122 395 116 411 C110 428 113 447 120 465 C134 499 162 531 195 551 L195 551 Z " />
<glyph glyph-name="percent" unicode="&#x25;" horiz-adv-x="192" d="M187 439 C190 440 197 440 201 441 C204 441 238 447 240 441 C243 434 230 418 226 411 C212 386 195 361 178 338 C161 313 144 288 128 263 C105 228 83 193 58 151 C55 144 53 136 55 133 C54 131 50 130 49 128 C48 126 49 122 54 123 C63 128 81 147 94 159 C110 175 125 190 142 206 C141 201 143 195 148 194 C163 190 185 207 193 217 C202 227 204 245 197 251 C194 254 187 256 182 253 C178 251 172 243 178 240 C181 239 186 244 188 242 C192 239 191 235 189 230 C186 223 179 215 174 210 C167 204 156 199 151 203 C147 207 153 217 158 223 C160 226 165 231 167 234 C169 239 163 239 160 239 C155 239 147 226 144 223 C125 201 104 180 84 160 C78 154 71 147 65 142 C63 143 74 164 84 177 C109 212 130 249 155 285 C183 328 214 369 239 413 C244 422 252 433 252 443 C251 452 239 453 232 453 C220 453 209 450 197 449 C191 448 186 449 180 450 C177 450 175 451 173 447 C172 441 174 437 174 432 C174 428 171 420 167 417 C162 412 145 403 141 412 C139 417 138 422 143 430 C146 434 148 436 154 436 C159 438 163 442 159 444 C155 446 152 446 146 443 C135 438 131 425 131 417 C131 409 137 399 148 399 C164 400 188 420 187 439 L187 439 Z " />
<glyph glyph-name="ampersand" unicode="&#x26;" horiz-adv-x="213" d="M93 -78 C96 -77 100 -76 102 -73 C103 -69 101 -65 101 -61 C105 1 132 75 150 137 C155 154 159 171 163 188 C165 202 168 220 153 224 C136 230 95 210 83 218 C71 226 107 271 114 280 C119 287 125 295 124 303 C123 309 117 313 112 316 C102 324 89 331 93 347 C98 375 143 401 167 415 C182 424 198 432 213 440 C219 444 227 445 228 452 C229 456 228 460 228 464 C232 485 240 504 248 526 C267 571 289 617 303 663 C304 667 302 668 298 669 C295 670 293 669 290 665 C283 657 270 641 275 638 C279 635 284 645 288 649 C276 615 261 582 247 549 C236 523 219 479 219 462 C219 458 221 452 210 447 C199 441 151 416 135 405 C110 387 79 365 81 337 C82 323 94 314 104 306 C107 304 112 302 113 298 C114 293 99 277 95 272 C84 256 60 229 69 212 C78 196 113 211 130 214 C151 218 150 209 150 194 C145 164 135 134 128 105 C115 52 92 -7 90 -60 C90 -66 89 -79 93 -78 L93 -78 Z " />
<glyph glyph-name="quotesingle" unicode="&#x27;" horiz-adv-x="93" d="M179 694 C176 684 174 676 171 665 C169 655 165 643 167 640 C172 639 176 638 177 644 C179 651 182 658 183 665 C185 672 186 680 189 687 C189 689 189 690 190 692 C190 694 191 696 188 697 C187 698 180 698 179 694 L179 694 Z " />
<glyph glyph-name="parenleft" unicode="&#x28;" horiz-adv-x="236" d="M88 -194 C91 -194 104 -189 102 -184 C102 -183 96 -183 95 -183 C93 -181 92 -179 90 -176 C86 -164 84 -149 83 -135 C81 -121 80 -105 80 -90 C79 -60 78 -29 80 2 C81 33 83 64 86 95 C90 126 95 157 101 187 C114 249 132 310 153 370 C175 433 200 496 229 557 C243 587 258 616 274 645 C282 659 290 673 300 687 C302 691 304 692 307 695 C309 696 313 699 312 701 C312 704 301 705 298 704 C295 702 292 696 291 693 C288 690 286 686 285 683 C281 676 276 668 272 661 C264 647 256 632 247 617 C231 588 217 558 203 528 C175 468 151 407 129 345 C109 284 91 222 81 160 C70 97 67 35 66 -26 C65 -57 66 -89 69 -119 C70 -133 70 -148 74 -162 C76 -174 79 -187 88 -194 L88 -194 Z " />
<glyph glyph-name="parenright" unicode="&#x29;" horiz-adv-x="198" d="M10 -187 C16 -183 21 -180 24 -173 C28 -165 32 -158 36 -150 C43 -133 49 -116 56 -99 C68 -65 81 -30 93 4 C136 128 178 252 205 377 C219 440 229 504 229 566 C230 597 227 628 221 656 C218 671 213 685 208 699 C205 706 201 713 198 720 C197 722 196 725 194 727 C192 728 188 727 185 727 C184 724 183 720 185 716 C185 713 188 710 189 707 C192 700 194 693 196 686 C201 671 205 655 207 640 C214 608 214 575 213 542 C210 479 198 416 184 353 C169 292 151 231 132 170 C115 109 94 49 73 -12 C63 -42 53 -72 41 -103 C36 -117 30 -131 25 -145 C22 -152 19 -159 16 -166 C12 -174 9 -178 10 -187 L10 -187 Z " />
<glyph glyph-name="asterisk" unicode="&#x2a;" horiz-adv-x="192" d="M211 645 C191 623 169 605 147 584 C142 579 128 565 134 562 C136 560 145 571 151 576 C170 595 190 612 211 631 C207 613 201 595 199 576 C204 571 207 580 209 586 C212 604 218 621 222 639 C238 632 253 624 268 618 C272 617 277 615 281 618 C287 623 284 624 280 625 C264 631 246 639 231 647 C239 648 250 649 259 649 C265 649 279 650 284 649 C287 649 287 649 290 652 C295 658 271 657 268 657 C256 656 250 656 239 655 C252 670 259 673 275 689 C278 692 280 697 277 698 C268 700 261 689 253 682 C243 674 237 668 229 660 C231 670 233 675 235 684 C236 687 239 695 238 697 C237 699 233 699 231 699 C227 698 221 669 218 662 C218 662 194 685 191 686 C187 688 173 693 171 685 C170 680 175 680 178 679 C182 678 186 675 188 673 C195 667 201 661 207 655 C195 653 183 652 171 650 C164 649 150 650 150 641 C149 634 174 640 182 641 C193 643 201 644 211 645 L211 645 Z " />
<glyph glyph-name="plus" unicode="&#x2b;" horiz-adv-x="186" d="M153 307 C169 309 190 307 206 308 C211 309 215 309 216 313 C217 318 207 317 203 317 C197 317 162 318 156 318 C157 331 163 362 165 372 C166 378 168 386 168 392 C167 395 168 397 164 397 C161 397 158 395 157 391 C154 372 149 339 145 317 C133 316 114 317 103 317 C98 316 94 310 98 308 C100 306 130 307 144 307 C141 290 138 273 135 256 C134 251 132 243 135 243 C140 243 142 246 143 253 C147 277 151 290 153 307 L153 307 Z " />
<glyph glyph-name="comma" unicode="&#x2c;" horiz-adv-x="59" d="M72 241 C67 231 67 227 63 217 C62 211 58 204 58 199 C56 194 53 185 57 185 C64 184 66 190 69 196 C72 203 75 210 77 217 C79 224 82 231 84 238 C85 241 85 242 82 243 C80 244 76 245 72 241 L72 241 Z " />
<glyph glyph-name="hyphen" unicode="&#x2d;" horiz-adv-x="117" d="M72 294 C78 292 131 296 147 296 C153 297 156 296 157 302 C158 309 153 308 146 308 C135 308 101 306 75 306 C68 305 69 295 72 294 L72 294 Z " />
<glyph glyph-name="period" unicode="&#x2e;" horiz-adv-x="47" d="M52 204 C52 200 52 194 57 194 C64 193 69 201 70 206 C70 208 67 211 63 211 C61 211 56 211 52 204 L52 204 Z " />
<glyph glyph-name="slash" unicode="&#x2f;" horiz-adv-x="377" d="M-7 -167 C0 -172 15 -150 21 -139 C132 57 349 442 467 643 C476 658 487 680 489 687 C490 694 485 695 480 693 C475 691 468 677 466 673 C451 643 78 -12 11 -127 C4 -140 -14 -165 -7 -167 L-7 -167 Z " />
<glyph glyph-name="zero" unicode="0" horiz-adv-x="184" d="M161 396 C168 393 174 388 180 383 C192 374 200 361 204 345 C209 329 209 310 205 293 C196 260 169 222 135 209 C127 206 117 203 110 205 C103 208 98 214 95 221 C88 235 88 252 90 269 C91 287 95 305 101 323 C106 340 114 359 126 375 C127 377 131 382 133 383 C136 384 138 381 142 382 C149 385 153 392 144 395 C138 397 131 397 123 391 C116 385 106 368 102 360 C92 341 81 305 77 261 C73 230 77 185 118 192 C134 194 150 204 164 214 C178 224 189 238 199 252 C219 283 227 319 220 351 C218 359 212 375 195 388 C189 393 181 398 173 402 C172 403 166 405 164 404 C161 403 161 399 161 396 L161 396 Z " />
<glyph glyph-name="one" unicode="1" horiz-adv-x="121" d="M101 378 C103 377 109 383 111 384 C114 386 117 389 119 388 C123 387 120 381 120 378 C119 374 107 328 103 309 C95 276 88 242 85 208 C85 204 85 199 85 194 C85 192 85 188 88 188 C89 187 95 192 97 194 C99 197 98 199 97 202 C98 210 99 219 101 227 C102 235 104 243 106 251 C113 284 121 317 128 351 C130 359 131 367 133 375 C133 381 135 391 132 396 C130 398 126 399 123 399 C119 399 116 398 113 396 C110 393 106 391 104 388 C100 385 98 381 101 378 L101 378 Z " />
<glyph glyph-name="two" unicode="2" horiz-adv-x="176" d="M98 340 C100 339 104 341 106 343 C109 346 112 353 114 356 C119 361 124 367 132 369 C139 372 146 370 149 364 C152 357 150 347 146 339 C135 307 116 276 93 249 C88 242 80 234 76 227 C71 221 71 215 77 213 C81 212 86 213 90 214 C95 214 99 215 104 215 C134 219 164 216 179 212 C182 211 190 206 192 208 C199 214 191 219 186 220 C171 224 156 226 139 226 C130 226 118 226 109 225 C101 225 94 224 86 224 C93 234 101 242 109 251 C116 261 122 270 128 280 C140 300 151 320 158 341 C162 352 164 363 160 372 C158 380 148 382 139 382 C120 381 96 360 98 340 L98 340 Z " />
<glyph glyph-name="three" unicode="3" horiz-adv-x="137" d="M56 220 C53 218 53 214 56 212 C68 202 118 211 133 218 C157 230 176 256 167 279 C158 302 134 304 140 322 C142 328 146 334 149 340 C157 352 167 367 168 380 C168 393 151 393 141 389 C116 379 90 354 92 328 C93 325 97 327 99 329 C101 332 101 337 102 340 C105 346 108 351 112 356 C120 365 132 375 144 380 C151 383 156 381 156 377 C156 367 134 340 130 327 C126 317 124 306 132 299 C139 292 148 288 153 279 C165 259 148 236 126 227 C115 222 90 216 70 218 C65 219 60 222 56 220 L56 220 Z " />
<glyph glyph-name="four" unicode="4" horiz-adv-x="135" d="M166 377 C162 364 135 258 129 226 C127 213 124 200 124 187 C123 180 135 180 136 186 C138 201 145 244 148 259 C155 289 164 319 173 350 C177 364 182 379 185 393 C185 396 186 399 182 400 C181 401 176 402 174 402 C169 401 163 390 161 386 C151 374 141 362 131 350 C121 340 111 326 99 319 C92 315 86 314 84 321 C81 335 94 362 109 380 C112 385 117 389 122 394 C126 400 116 399 113 397 C106 392 89 371 84 359 C79 346 73 331 74 317 C77 302 97 308 100 311 C108 315 125 330 135 341 C146 353 156 365 166 377 L166 377 Z " />
<glyph glyph-name="five" unicode="5" horiz-adv-x="125" d="M83 317 C87 326 91 335 95 343 C97 348 100 352 102 357 C105 362 106 362 112 362 C121 363 130 364 139 365 C146 366 157 366 161 374 C164 379 151 379 147 379 C140 380 132 380 123 380 C116 380 104 378 97 373 C92 368 89 360 86 355 C82 346 77 337 74 328 C71 321 67 309 71 305 C76 302 83 305 87 307 C95 311 103 315 111 316 C126 319 136 311 139 298 C141 283 131 267 122 254 C113 239 103 224 94 210 C88 201 83 193 77 185 C75 182 73 179 69 175 C68 172 65 167 69 165 C73 162 83 176 89 185 C96 194 103 203 110 213 C122 231 135 248 144 268 C152 286 157 310 141 321 C125 333 103 324 83 317 L83 317 Z " />
<glyph glyph-name="six" unicode="6" horiz-adv-x="155" d="M103 225 C96 222 91 230 90 236 C87 243 88 251 88 259 C95 317 128 369 148 394 C149 396 155 400 154 402 C155 405 150 405 148 405 C142 404 138 397 134 393 C124 380 115 366 108 352 C93 324 79 293 74 263 C73 250 69 217 88 211 C101 207 121 213 150 246 C161 259 171 277 176 293 C180 304 180 312 174 314 C161 317 140 292 125 271 C115 255 109 239 103 225 L103 225 Z M118 232 C125 248 131 258 139 271 C144 278 165 305 169 304 C171 303 162 281 150 262 C145 256 130 240 118 232 L118 232 Z " />
<glyph glyph-name="seven" unicode="7" horiz-adv-x="172" d="M148 315 C156 330 164 346 170 362 C174 373 182 387 170 396 C163 402 143 400 130 398 C123 397 115 395 108 394 C105 394 98 393 96 392 C94 391 94 389 94 388 C94 383 94 382 99 383 C103 383 106 384 109 384 C116 385 123 386 129 387 C138 389 160 393 164 386 C166 381 160 370 158 366 C155 359 133 317 132 314 C129 313 96 310 90 308 C85 307 84 303 84 302 C84 298 87 299 91 299 C92 300 111 302 127 303 C115 279 101 255 90 230 C85 221 79 208 79 198 C81 194 86 196 90 201 C92 203 94 207 96 213 C97 218 100 224 103 228 C106 233 108 239 111 244 C116 255 130 279 142 301 C143 305 143 305 147 305 C158 306 176 308 187 309 C189 309 192 310 191 315 C192 318 183 317 180 317 C170 316 159 316 148 315 L148 315 Z " />
<glyph glyph-name="eight" unicode="8" horiz-adv-x="130" d="M127 305 C143 324 157 348 164 371 C168 382 169 394 165 404 C161 413 152 416 141 416 C123 415 104 393 97 376 C87 356 88 334 98 318 C99 315 100 313 102 312 C102 310 105 308 105 306 C106 303 101 297 99 295 C93 285 86 275 80 265 C58 230 50 212 50 197 C50 176 71 171 80 171 C97 169 119 181 132 197 C147 214 156 231 150 254 C148 268 137 289 127 305 L127 305 Z M113 297 C124 282 136 265 138 245 C138 228 126 207 112 195 C100 185 79 179 69 190 C56 202 71 226 80 240 C89 259 100 278 113 297 L113 297 Z M121 313 C112 327 101 342 105 362 C107 371 112 380 118 388 C123 394 130 402 139 404 C161 407 156 378 151 365 C144 347 134 329 121 313 L121 313 Z " />
<glyph glyph-name="nine" unicode="9" horiz-adv-x="153" d="M144 371 C149 371 152 379 151 383 C150 388 143 391 132 387 C116 381 99 362 91 347 C82 331 83 318 86 312 C92 298 109 303 120 310 C138 322 150 333 171 352 C173 354 175 357 178 356 C183 354 183 342 183 337 C182 306 166 272 151 253 C132 231 109 211 81 201 C79 200 76 197 77 193 C77 188 85 190 87 191 C97 194 103 198 111 202 C151 224 183 266 193 311 C196 323 198 362 183 366 C175 368 172 365 166 360 C154 349 142 337 129 327 C120 319 98 306 95 317 C92 330 106 349 114 358 C119 364 132 377 139 377 C142 377 141 371 144 371 L144 371 Z " />
<glyph glyph-name="colon" unicode="&#x3a;" horiz-adv-x="72" d="M95 315 C100 312 106 314 110 318 C113 321 113 329 110 331 C108 333 103 336 97 331 C93 328 91 318 95 315 L95 315 Z M89 271 C93 270 95 272 98 275 C99 276 102 282 99 284 C96 286 91 285 88 282 C87 279 86 273 89 271 L89 271 Z " />
<glyph glyph-name="semicolon" unicode="&#x3b;" horiz-adv-x="70" d="M80 280 C77 274 76 268 74 261 C70 252 69 244 72 242 C77 241 81 245 83 250 C86 257 89 271 92 280 C93 284 82 284 80 280 L80 280 Z M88 317 C93 314 99 317 103 320 C106 323 106 331 103 334 C102 336 96 338 90 334 C86 330 84 321 88 317 L88 317 Z " />
<glyph glyph-name="less" unicode="&#x3c;" horiz-adv-x="140" d="M151 219 C154 217 160 222 160 225 C162 229 159 231 156 234 C150 240 143 246 136 252 C125 263 118 268 108 281 C100 292 99 298 98 303 C102 309 110 314 115 318 C129 329 158 347 169 355 C170 356 174 366 166 365 C159 364 143 352 135 347 C120 338 99 323 91 315 C80 305 81 296 87 283 C94 271 106 258 116 249 C128 239 140 229 151 219 L151 219 Z " />
<glyph glyph-name="equal" unicode="&#x3d;" horiz-adv-x="133" d="M160 320 C160 324 144 322 137 322 C121 321 106 320 89 319 C87 319 76 320 75 315 C74 308 77 309 85 310 C104 310 123 312 142 312 C146 312 160 311 160 320 L160 320 Z M140 291 C141 296 122 295 117 295 C100 294 86 293 81 293 C80 293 71 294 70 287 C70 284 72 283 75 283 C78 283 88 284 90 284 C96 284 117 286 123 286 C131 286 139 285 140 291 L140 291 Z " />
<glyph glyph-name="greater" unicode="&#x3e;" horiz-adv-x="186" d="M85 216 C88 214 115 237 130 249 C144 260 160 272 174 285 C179 290 186 297 187 305 C188 311 185 317 181 321 C173 332 163 342 152 351 C147 355 142 359 135 362 C133 364 122 369 119 365 C118 364 117 359 117 357 C118 355 123 352 124 351 C130 347 135 343 140 339 C150 332 160 323 168 313 C169 311 173 306 173 303 C173 301 156 286 151 282 C138 271 125 260 113 250 C106 244 100 239 93 234 C86 228 80 218 85 216 L85 216 Z " />
<glyph glyph-name="question" unicode="&#x3f;" horiz-adv-x="309" d="M118 -55 C124 -57 129 -50 130 -42 C132 -33 133 -24 136 -15 C159 60 190 132 220 204 C267 313 323 418 370 530 C391 582 435 683 364 709 C335 719 303 712 272 700 C243 688 211 670 185 644 C167 626 151 605 146 578 C145 571 147 566 153 571 C159 576 160 587 164 594 C177 616 195 633 216 650 C242 670 270 686 300 693 C328 700 362 699 378 674 C404 634 351 521 325 467 C279 372 233 278 185 160 C163 106 140 51 125 -4 C122 -14 111 -54 118 -55 L118 -55 Z M88 -181 C92 -184 98 -181 100 -176 C105 -169 106 -162 100 -161 C96 -160 91 -161 88 -166 C85 -172 85 -179 88 -181 L88 -181 Z " />
<glyph glyph-name="at" unicode="&#x40;" horiz-adv-x="229" d="M193 318 C193 308 190 297 195 288 C208 268 240 299 249 313 C263 335 267 362 259 382 C249 402 221 409 197 408 C145 405 97 354 78 307 C68 282 63 253 68 229 C72 204 91 187 118 186 C143 185 169 195 191 214 C203 224 213 233 223 243 C229 249 235 254 240 259 C241 260 245 264 245 265 C245 268 240 270 235 266 C230 262 185 221 174 214 C121 176 73 199 79 264 C84 312 119 373 170 391 C193 400 223 400 240 386 C257 372 254 343 243 322 C238 311 230 301 220 295 C205 287 203 297 203 309 C203 316 204 323 206 329 C207 335 203 336 198 336 C193 336 184 323 181 319 C164 299 156 290 141 278 C138 276 127 268 126 275 C126 278 128 286 130 291 C135 303 143 315 152 324 C159 331 174 339 178 327 C181 324 186 330 186 334 C187 338 182 342 178 343 C169 345 161 343 152 337 C135 326 121 304 117 286 C115 278 115 267 121 264 C129 261 138 265 144 270 C162 283 178 301 193 318 L193 318 Z " />
<glyph glyph-name="A" unicode="A" horiz-adv-x="399" d="M325 218 C310 222 271 219 249 217 C219 215 193 212 165 209 C198 311 235 412 279 511 C300 563 324 616 360 672 C366 679 374 692 382 696 C392 699 397 687 398 681 C414 626 387 476 370 375 C353 281 333 187 316 92 C311 63 289 -67 275 -153 C273 -163 269 -184 273 -185 C280 -186 282 -181 282 -177 C283 -174 284 -170 286 -158 C308 -51 326 56 346 164 C366 268 388 373 405 481 C416 545 426 611 419 674 C418 694 409 713 387 713 C331 713 234 459 212 400 C186 335 165 272 144 206 C136 205 126 204 117 202 C108 200 96 201 98 192 C100 188 103 189 106 189 C118 190 130 194 141 194 C134 181 71 -92 69 -138 C69 -145 68 -155 72 -156 C76 -157 80 -154 82 -147 C83 -141 81 -135 82 -128 C85 -110 138 104 151 161 C155 176 157 184 161 197 C170 199 242 207 252 208 C276 210 298 212 315 211 C318 211 323 210 326 212 C327 213 329 217 325 218 L325 218 Z " />
<glyph glyph-name="B" unicode="B" horiz-adv-x="374" d="M484 623 C487 645 486 668 470 680 C455 694 429 698 407 694 C359 687 310 655 272 620 C251 602 231 579 213 557 C224 600 237 641 243 680 C244 684 242 687 241 687 C236 688 233 685 232 681 C225 659 219 634 212 611 C207 592 202 575 197 557 C194 548 192 540 190 531 C188 521 184 516 179 507 C159 476 145 443 131 407 C102 335 89 260 82 187 C79 150 79 113 77 77 C75 41 72 4 70 -32 C70 -41 66 -103 78 -101 C79 -101 83 -99 85 -97 C88 -95 86 -91 86 -87 C85 -52 95 -10 101 25 C112 98 126 170 142 243 C158 317 174 390 190 465 C193 474 194 482 197 491 C199 500 199 510 205 519 C214 535 227 551 237 564 C260 593 287 619 317 642 C346 663 381 683 416 683 C432 683 450 678 459 666 C468 656 471 640 470 625 C468 608 462 590 454 573 C446 556 437 539 427 523 C405 491 381 459 357 429 C333 399 310 368 288 336 C268 306 249 275 239 239 C234 222 232 205 235 189 C237 172 243 158 251 144 C265 115 280 87 284 53 C289 19 280 -14 259 -48 C241 -79 212 -108 181 -127 C149 -148 114 -165 79 -173 C63 -176 43 -180 26 -176 C13 -174 3 -162 0 -149 C-5 -123 9 -75 26 -52 C29 -48 41 -44 39 -39 C35 -34 25 -41 20 -46 C-9 -77 -33 -155 0 -181 C25 -202 66 -197 99 -187 C166 -167 233 -122 272 -60 C293 -27 303 8 302 44 C301 77 289 108 275 137 C258 164 241 192 251 228 C260 263 285 295 307 326 C353 389 404 452 443 520 C461 553 479 589 484 623 L484 623 Z M94 78 C97 127 102 176 107 226 C112 276 124 328 139 377 C148 403 158 432 172 457 L94 78 Z " />
<glyph glyph-name="C" unicode="C" horiz-adv-x="378" d="M448 609 C453 682 406 750 319 688 C272 656 240 604 211 555 C182 505 156 453 134 400 C89 292 56 179 45 68 C40 15 41 -39 55 -88 C67 -130 92 -180 142 -185 C194 -190 240 -145 267 -102 C286 -71 305 -23 312 -3 C317 12 321 19 312 20 C306 21 303 7 300 -1 C289 -27 277 -54 263 -79 C250 -102 235 -127 213 -144 C192 -161 163 -173 140 -165 C118 -156 101 -139 91 -119 C67 -76 62 -21 65 30 C66 84 74 139 88 193 C115 303 152 413 207 516 C234 565 263 616 303 657 C320 674 343 694 368 699 C451 711 435 577 412 514 C403 487 392 461 382 434 C380 429 372 412 377 410 C385 407 391 424 393 427 C396 433 399 440 401 446 C425 498 444 556 448 609 L448 609 Z " />
<glyph glyph-name="D" unicode="D" horiz-adv-x="475" d="M352 5 C448 138 499 306 511 456 C516 518 516 587 488 641 C475 667 454 682 424 687 C392 691 363 679 333 662 C338 682 344 704 347 724 C349 734 347 736 342 736 C338 736 336 731 336 727 C333 709 328 693 323 673 C322 667 320 660 318 654 C295 637 257 600 251 593 C209 547 175 493 152 437 C126 378 107 317 95 257 C83 196 74 134 78 75 C78 38 103 -56 144 -53 C155 -52 165 -46 168 -36 C171 -28 170 -19 172 -11 C173 -4 174 4 175 10 C191 101 210 193 234 284 C250 345 267 406 282 468 C297 526 309 568 323 628 C324 634 325 639 331 643 C353 661 383 673 409 673 C435 672 455 655 467 635 C494 592 495 529 492 469 C488 410 476 349 461 290 C429 173 376 60 292 -37 C253 -83 204 -123 147 -144 C119 -155 90 -158 63 -153 C50 -150 55 -147 51 -143 C50 -142 48 -140 43 -142 C40 -143 38 -148 39 -152 C38 -159 51 -168 60 -170 C114 -181 171 -163 225 -125 C275 -91 317 -45 352 5 L352 5 Z M156 -38 C150 -40 138 -37 133 -29 C106 -1 100 44 97 85 C94 129 101 176 108 221 C126 313 154 408 203 494 C231 544 267 591 310 629 C300 593 289 557 279 521 C255 429 228 338 207 245 C190 174 178 102 166 30 C162 8 160 -15 156 -38 L156 -38 Z " />
<glyph glyph-name="E" unicode="E" horiz-adv-x="398" d="M112 240 C127 292 143 343 158 393 C184 482 209 565 247 670 C260 674 302 682 305 683 C347 690 389 697 435 699 C446 699 471 699 477 695 C480 693 479 689 481 688 C484 686 487 691 489 695 C491 700 485 703 484 704 C480 706 465 709 454 709 C433 709 410 707 388 704 C343 700 297 692 251 683 C254 690 254 693 247 692 C240 691 238 685 236 680 C236 680 153 656 141 650 C137 648 133 647 132 642 C131 639 132 635 135 636 C150 642 220 665 233 668 C219 628 205 589 193 550 C170 479 147 408 127 336 C116 300 108 275 97 237 C83 231 79 231 68 227 C61 225 56 223 51 218 C48 215 52 211 54 211 C57 211 66 215 74 217 C83 220 84 220 94 223 C89 208 86 194 83 180 C67 119 55 59 52 1 C49 -52 57 -110 98 -137 C142 -167 208 -151 265 -142 C286 -139 311 -134 333 -129 C344 -126 345 -126 352 -124 C354 -122 354 -121 355 -119 C354 -117 347 -119 345 -119 C323 -122 305 -126 284 -130 C255 -135 226 -140 198 -142 C171 -144 142 -145 120 -133 C74 -110 64 -54 66 -1 C68 55 81 115 95 172 C99 191 105 210 110 228 C122 231 136 234 138 235 C168 244 198 251 228 259 C258 266 289 274 319 280 C320 280 336 283 336 287 C336 291 330 290 328 290 C313 288 299 284 285 281 C228 268 170 256 112 240 L112 240 Z " />
<glyph glyph-name="F" unicode="F" horiz-adv-x="430" d="M555 697 C524 697 494 698 463 696 C408 694 353 687 298 679 C271 675 243 670 215 664 C201 663 159 654 152 652 C148 651 148 646 148 645 C149 642 148 640 163 644 C170 645 213 653 227 655 C256 660 285 664 313 668 C298 623 286 581 272 538 C248 459 229 387 209 307 C201 278 192 240 184 211 C176 209 120 196 100 191 C90 188 56 182 37 176 C25 173 33 165 36 165 C38 165 64 171 71 173 C83 176 90 178 103 181 C129 188 155 193 182 199 C177 176 132 -23 124 -68 C120 -88 108 -149 108 -158 C106 -167 104 -180 106 -183 C110 -186 118 -180 118 -175 C118 -167 129 -110 132 -91 C148 -16 165 61 185 137 C190 157 199 203 199 203 C243 211 342 228 369 226 C375 226 387 225 388 226 C390 226 393 227 394 228 C401 235 384 236 381 236 C363 236 339 235 320 233 C281 229 243 222 203 215 C217 276 234 336 249 396 C264 450 278 503 293 555 C302 581 322 647 323 655 C325 658 327 670 327 670 C344 673 364 675 371 675 C424 682 476 684 529 685 C553 686 578 686 603 684 C617 683 630 682 642 680 C649 679 656 678 662 675 C664 673 665 669 668 669 C672 668 676 671 676 677 C677 682 671 685 667 686 C657 690 644 691 633 693 C607 696 580 695 555 697 L555 697 Z " />
<glyph glyph-name="G" unicode="G" horiz-adv-x="414" d="M344 15 C322 -13 297 -42 272 -67 C257 -82 196 -139 151 -129 C76 -112 70 -10 69 37 C68 129 101 229 137 328 C179 435 251 583 334 671 C350 690 372 707 397 710 C452 718 455 647 451 610 C447 571 434 535 418 497 C415 488 405 471 411 470 C415 469 417 470 423 478 C426 485 429 490 432 497 C457 545 472 600 469 650 C465 695 439 745 375 718 C301 686 222 549 178 464 C128 369 81 239 62 156 C51 105 33 5 62 -68 C76 -107 93 -139 148 -147 C213 -156 277 -86 295 -66 C305 -54 335 -22 352 3 C354 -20 348 -44 343 -67 C337 -95 326 -128 330 -129 C331 -131 335 -131 338 -128 C340 -125 344 -118 344 -114 C349 -98 361 -61 366 -31 C368 -15 371 3 365 17 C361 30 345 34 332 35 C302 38 267 24 237 11 C229 8 206 -3 205 -5 C202 -9 203 -18 213 -13 C217 -11 241 -1 249 3 C266 9 282 15 300 18 C313 21 335 26 344 15 L344 15 Z " />
<glyph glyph-name="H" unicode="H" horiz-adv-x="447" d="M557 692 C553 696 547 697 542 693 C538 689 531 680 529 675 C518 654 512 632 502 612 C493 592 472 572 459 556 C415 508 367 464 319 422 C304 409 263 372 234 347 C236 363 271 517 280 552 C290 593 303 643 314 688 C315 692 318 697 314 699 C310 700 305 700 303 695 C292 665 275 600 267 566 C259 532 251 498 243 463 C233 417 223 374 212 327 C208 324 203 320 198 315 C152 276 113 242 78 205 C54 180 30 152 23 121 C19 105 22 92 28 79 C35 67 47 56 58 48 C82 31 106 14 122 -11 C125 -16 128 -22 129 -29 C132 -35 131 -42 130 -50 C128 -60 120 -87 134 -87 C151 -87 154 -68 152 -54 C153 -45 150 -38 149 -31 C148 -24 152 -15 153 -8 C167 60 184 129 199 197 C208 240 217 274 228 318 C253 348 385 458 450 529 C462 542 475 556 486 570 C476 531 472 525 463 491 C454 463 447 437 440 410 C426 354 410 300 399 244 C374 136 362 27 351 -81 C348 -108 346 -135 347 -162 C348 -167 349 -180 354 -180 C356 -180 364 -179 363 -171 C360 -161 360 -150 360 -145 C362 -90 370 -34 377 20 C385 75 393 129 405 185 C416 238 430 292 444 347 C456 401 471 455 487 509 C495 536 504 562 512 588 C517 600 522 613 529 624 C537 636 545 647 550 660 C553 665 563 689 557 692 L557 692 Z M168 146 C157 97 148 47 137 -2 C123 17 107 34 89 49 C71 66 51 76 43 102 C38 124 54 149 69 169 C86 192 108 213 129 233 C155 257 179 280 206 303 C195 259 179 197 168 146 L168 146 Z " />
<glyph glyph-name="I" unicode="I" horiz-adv-x="100" d="M12 -197 C12 -186 13 -169 15 -156 C53 32 136 409 180 654 C182 669 186 682 188 696 C189 700 186 702 180 702 C177 701 176 697 176 694 C174 686 174 682 171 674 C161 620 33 8 5 -145 C1 -166 -3 -188 -2 -200 C-2 -201 0 -206 5 -205 C9 -204 12 -201 12 -197 L12 -197 Z " />
<glyph glyph-name="J" unicode="J" horiz-adv-x="501" d="M473 140 C516 242 535 354 517 465 C512 506 500 546 480 580 C443 649 373 701 285 682 C247 674 201 650 181 612 C176 601 175 590 174 578 C175 572 178 572 181 574 C185 576 186 579 185 583 C185 603 199 622 215 636 C247 666 292 678 329 674 C370 670 404 649 430 621 C483 563 505 476 507 391 C509 302 488 206 445 119 C406 37 348 -43 275 -101 C225 -142 156 -181 95 -175 C25 -169 16 -89 46 -26 C65 14 95 49 131 77 C198 130 284 145 348 145 C354 145 375 128 378 145 C379 149 375 152 371 153 C355 161 332 161 312 159 C252 155 186 138 128 95 C94 69 61 36 38 -2 C16 -40 4 -87 12 -126 C20 -166 52 -192 91 -195 C206 -202 336 -87 406 17 C432 56 456 97 473 140 L473 140 Z " />
<glyph glyph-name="K" unicode="K" horiz-adv-x="455" d="M105 -182 C109 -183 112 -182 115 -180 C117 -178 118 -173 119 -170 C120 -162 121 -156 123 -144 C138 -145 151 -146 166 -147 C217 -152 266 -154 324 -153 C329 -153 336 -154 337 -151 C338 -144 335 -144 331 -144 C273 -141 225 -140 174 -135 C165 -134 138 -132 127 -129 C135 -83 144 -40 156 6 C171 69 185 134 200 197 C208 235 216 275 226 315 C286 389 350 457 420 528 C478 586 546 659 610 709 C611 710 617 715 612 720 C610 723 597 713 595 711 C518 647 440 565 370 494 C333 457 298 420 264 380 C256 374 241 357 233 348 C245 406 256 465 269 523 C278 570 289 618 298 665 C302 687 304 697 307 718 C308 725 305 725 302 725 C298 725 298 724 297 716 C294 699 289 679 287 665 C277 617 267 570 258 523 C242 457 230 393 213 325 C196 304 173 274 156 253 C125 214 95 172 70 128 C36 71 -4 -7 12 -68 C21 -106 52 -126 88 -136 C93 -138 103 -140 110 -142 C106 -159 103 -181 105 -182 L105 -182 Z M206 292 C199 266 192 231 185 200 C172 145 159 90 149 35 C136 -19 126 -73 113 -127 C83 -121 51 -108 36 -81 C4 -29 40 49 75 108 C111 172 158 237 206 292 L206 292 Z " />
<glyph glyph-name="L" unicode="L" horiz-adv-x="252" d="M224 716 C220 701 215 685 210 667 C166 516 118 367 78 215 C58 140 40 64 33 -12 C30 -48 27 -86 35 -120 C38 -135 43 -151 52 -161 C62 -171 77 -174 92 -172 C126 -168 159 -149 190 -132 C215 -119 241 -105 266 -90 C268 -88 272 -86 273 -82 C273 -80 271 -76 266 -79 C245 -87 193 -117 169 -127 C152 -135 96 -165 74 -152 C61 -146 55 -129 51 -114 C43 -75 55 14 61 50 C73 126 93 202 113 278 C132 354 154 430 177 506 C197 572 216 640 235 709 C235 712 237 716 235 718 C233 720 226 723 224 716 L224 716 Z " />
<glyph glyph-name="M" unicode="M" horiz-adv-x="593" d="M159 687 C156 680 158 675 156 669 C154 662 152 656 151 651 C124 541 107 432 84 322 C64 212 40 102 24 -8 C20 -35 17 -62 15 -89 C14 -102 13 -116 13 -128 C13 -135 10 -161 19 -159 C28 -158 35 -149 39 -143 C46 -130 49 -117 53 -104 C61 -78 68 -52 76 -26 C104 82 133 190 168 295 C185 348 202 401 221 454 C230 481 240 506 248 533 C258 558 265 586 278 610 C281 591 277 569 275 550 C272 529 270 506 267 485 C263 443 259 401 256 359 C254 321 252 285 251 248 C252 214 254 175 267 144 C273 131 280 118 296 116 C312 114 329 125 341 136 C369 158 391 192 411 223 C453 290 487 362 521 433 C538 470 556 506 573 542 C581 560 591 579 600 598 C608 613 615 631 626 645 C630 634 630 620 630 607 C629 594 629 580 627 567 C616 450 582 332 555 215 C541 155 528 95 517 36 C512 6 506 -24 501 -52 C499 -68 496 -82 494 -98 C493 -105 492 -113 491 -121 C491 -126 490 -134 492 -139 C492 -143 493 -142 497 -140 C499 -139 500 -138 501 -137 C505 -133 505 -130 504 -125 C505 -111 509 -96 510 -81 C515 -52 522 -22 528 9 C539 66 553 123 567 181 C595 300 625 418 641 537 C644 566 648 596 648 624 C648 634 650 654 641 659 C637 661 630 664 625 662 C620 661 616 653 614 650 C605 637 599 624 591 610 C585 597 577 582 571 569 C557 541 543 514 531 486 C505 431 479 374 450 320 C435 292 420 264 404 237 C390 212 373 187 354 165 C345 155 335 145 323 139 C317 136 311 133 306 133 C300 133 297 137 293 141 C279 159 275 189 273 214 C269 269 273 327 277 384 C282 443 287 502 293 560 C294 575 295 589 296 604 C296 611 297 619 296 626 C295 631 291 632 286 633 C280 634 277 635 273 629 C269 623 267 616 265 609 C258 595 253 579 248 565 C205 449 162 332 128 215 C111 156 96 97 80 39 C72 10 64 -20 57 -50 C52 -64 49 -78 44 -93 C42 -100 40 -107 36 -115 C34 -120 33 -127 29 -132 C28 -103 33 -75 38 -45 C42 -14 46 17 52 47 C71 156 93 264 112 373 C122 428 131 482 141 537 C146 564 152 592 158 619 C160 632 163 647 166 660 C167 667 170 675 170 681 C170 687 165 687 159 687 L159 687 Z " />
<glyph glyph-name="N" unicode="N" horiz-adv-x="505" d="M199 689 C190 654 182 619 173 585 C135 444 104 301 82 160 C70 87 59 15 57 -56 C56 -74 56 -92 57 -109 C58 -118 58 -127 60 -136 C60 -141 61 -152 66 -154 C72 -155 82 -146 85 -143 C92 -136 96 -128 100 -119 C108 -102 115 -85 120 -67 C146 3 169 74 194 145 C220 216 248 286 278 356 C307 425 340 494 381 559 C399 588 421 619 448 641 C461 651 476 657 490 649 C502 641 507 627 511 613 C520 581 519 545 515 511 C511 475 506 439 500 403 C487 331 470 259 457 186 C445 115 435 44 426 -27 C421 -63 416 -98 414 -134 C413 -143 413 -152 413 -162 C414 -163 414 -170 416 -170 C417 -171 421 -168 423 -166 C429 -163 426 -156 426 -150 C426 -142 427 -134 427 -126 C435 -56 447 15 459 86 C465 120 473 156 479 192 C487 228 494 264 500 300 C513 371 525 442 532 514 C534 548 534 582 528 615 C524 629 519 644 510 654 C500 665 482 668 468 664 C452 658 437 645 426 633 C414 619 401 605 392 590 C368 560 349 527 331 494 C295 427 263 357 235 287 C208 216 181 144 155 72 C143 37 131 2 119 -34 C113 -51 105 -69 98 -87 C95 -96 91 -104 88 -113 C85 -120 82 -129 75 -135 C70 -123 71 -107 70 -93 C71 -78 72 -62 73 -47 C76 -16 79 15 83 45 C90 100 98 154 107 208 C117 264 127 320 140 376 C151 431 164 485 177 540 C183 567 189 595 196 622 C199 635 203 649 206 664 C206 667 208 671 209 675 C209 678 211 682 210 685 C210 690 203 690 199 689 L199 689 Z " />
<glyph glyph-name="O" unicode="O" horiz-adv-x="471" d="M239 707 C230 692 221 677 213 662 C196 629 185 594 172 560 C161 526 149 493 139 460 C117 390 98 320 83 250 C66 181 56 111 55 41 C54 8 56 -25 64 -56 C71 -84 81 -114 102 -132 C149 -175 220 -132 268 -90 C321 -42 364 21 397 83 C431 147 458 214 478 282 C497 349 511 418 512 485 C513 547 506 618 468 664 C448 686 419 697 387 693 C371 692 352 686 337 681 C326 677 301 672 306 657 C313 660 318 663 325 665 C333 667 340 669 348 672 C378 680 410 682 435 666 C456 651 470 625 477 599 C496 542 495 475 488 411 C479 345 464 278 439 213 C426 180 415 148 398 117 C383 88 367 59 348 31 C329 2 308 -26 285 -51 C262 -75 239 -97 210 -114 C197 -122 182 -129 166 -132 C151 -135 138 -132 126 -125 C103 -109 89 -80 83 -52 C69 7 73 75 81 140 C90 205 103 271 120 336 C137 402 157 468 178 532 C190 564 200 595 213 628 C219 644 225 660 233 676 C237 683 240 691 245 698 C246 699 248 703 248 705 C247 707 241 707 239 707 L239 707 Z " />
<glyph glyph-name="P" unicode="P" horiz-adv-x="436" d="M496 525 C503 564 505 605 498 642 C492 675 475 705 441 713 C374 731 314 660 275 603 C232 539 203 468 178 398 C152 326 130 254 110 181 C88 101 78 50 58 -37 C71 116 100 270 131 424 C142 486 154 548 168 611 C175 643 182 675 189 706 C189 708 197 726 195 728 C194 730 192 730 190 730 C184 729 176 693 171 680 C155 617 143 553 130 489 C117 427 104 363 91 300 C68 176 51 51 43 -73 C40 -104 39 -121 36 -151 C34 -160 34 -173 44 -167 C51 -164 49 -154 50 -149 C54 -134 57 -119 59 -104 C71 -41 84 22 99 84 C131 206 164 330 214 449 C237 507 264 565 301 617 C333 659 384 715 433 697 C483 679 488 609 482 559 C477 499 454 437 416 384 C398 360 377 338 352 320 C312 291 257 268 211 263 C207 262 198 263 196 253 C196 245 199 243 208 244 C281 252 364 293 417 357 C459 409 487 471 496 525 L496 525 Z " />
<glyph glyph-name="Q" unicode="Q" horiz-adv-x="520" d="M161 288 C132 285 103 261 82 237 C60 214 44 183 33 154 C-9 46 5 -86 91 -143 C110 -156 133 -164 158 -164 C183 -165 212 -157 237 -144 C263 -131 287 -114 310 -95 C332 -74 354 -51 372 -26 C378 -38 383 -50 388 -62 C398 -86 410 -111 421 -133 C424 -138 435 -160 442 -156 C447 -153 450 -149 447 -143 C443 -138 442 -135 440 -130 C429 -106 419 -83 409 -58 C404 -46 393 -19 389 -5 C426 49 457 108 480 168 C500 224 515 281 523 337 C536 447 536 562 490 653 C468 696 433 734 378 730 C325 727 282 669 257 623 C228 571 207 515 191 459 C175 402 167 345 161 288 L161 288 Z M274 245 C258 262 238 276 215 284 C205 286 189 289 178 289 C178 305 179 314 182 330 C191 412 214 500 250 580 C262 606 275 633 294 658 C310 679 330 702 355 711 C412 732 450 685 470 643 C493 597 501 544 506 490 C510 434 507 377 499 320 C491 265 475 208 455 154 C444 129 433 103 419 78 C412 64 396 36 380 16 C376 28 373 40 369 52 C353 99 308 208 274 245 L274 245 Z M160 272 C156 220 153 150 158 119 C161 107 164 90 173 96 C175 98 180 102 177 106 C175 111 173 121 172 135 C170 174 173 227 175 272 C210 270 231 255 251 229 C276 197 295 160 310 121 C318 104 357 16 363 -10 C341 -39 317 -65 288 -89 C271 -102 253 -116 232 -125 C211 -136 188 -143 166 -144 C121 -146 84 -116 62 -82 C40 -46 29 -3 29 43 C29 89 38 137 59 180 C80 222 115 264 160 272 L160 272 Z " />
<glyph glyph-name="R" unicode="R" horiz-adv-x="541" d="M276 728 C268 692 262 666 260 650 C260 642 252 606 252 597 C235 577 212 554 193 531 C151 479 117 421 91 360 C78 328 71 296 64 264 C60 248 57 231 59 217 C59 213 59 208 62 206 C63 204 65 206 68 208 C69 209 74 211 75 213 C76 217 74 217 72 219 C69 225 71 235 71 241 C72 250 74 258 75 266 C79 282 84 297 89 312 C99 345 112 376 128 406 C144 436 163 467 183 495 C203 522 224 550 249 574 C245 550 242 525 239 501 C223 401 205 302 186 202 C182 178 178 153 174 129 C172 116 170 103 168 92 C166 85 165 78 164 71 C163 67 162 65 157 61 C144 46 129 30 117 13 C103 -6 67 -52 84 -81 C91 -93 112 -101 136 -104 C134 -124 130 -153 128 -174 C128 -176 128 -179 131 -180 C132 -180 136 -178 137 -176 C141 -171 142 -167 142 -163 C144 -144 147 -122 150 -105 C153 -105 167 -107 177 -108 C227 -112 248 -115 290 -122 C334 -131 378 -138 421 -150 C426 -152 432 -153 436 -155 C439 -156 441 -157 443 -158 C446 -159 445 -160 449 -158 C453 -157 458 -153 454 -149 C452 -147 446 -145 442 -143 C422 -134 399 -131 377 -125 C334 -115 289 -105 244 -98 C222 -95 199 -92 178 -89 C172 -89 153 -86 153 -86 C153 -85 159 -55 160 -43 C164 -19 168 5 173 30 C174 36 174 43 176 49 C179 54 186 58 189 63 C198 72 208 81 217 90 C291 161 367 229 439 303 C510 377 585 455 625 550 C646 596 646 645 625 682 C602 719 559 735 515 735 C452 735 384 701 323 657 C304 642 285 628 267 611 C269 634 275 658 278 681 C280 696 282 711 285 726 C285 729 285 731 282 732 C280 732 277 732 276 728 L276 728 Z M310 211 C301 202 252 157 249 155 C248 153 228 134 221 127 C218 124 190 95 184 89 C187 103 189 116 191 129 C211 237 229 345 244 453 C249 480 253 507 256 533 C258 546 260 560 262 574 C263 580 262 587 268 592 C272 597 277 601 281 606 C323 643 369 677 419 698 C468 720 523 729 569 706 C612 687 633 636 619 586 C611 559 598 534 583 509 C558 463 501 399 492 390 C477 372 462 358 446 342 C438 334 419 315 400 296 C396 292 317 219 310 211 L310 211 Z M158 31 C151 -8 145 -46 139 -84 C127 -81 114 -79 106 -71 C97 -62 99 -50 104 -37 C110 -23 119 -12 128 -1 C134 5 138 11 143 15 C148 21 152 26 158 31 L158 31 Z " />
<glyph glyph-name="S" unicode="S" horiz-adv-x="406" d="M379 122 C351 172 297 203 258 239 C204 287 148 345 141 426 C134 508 172 602 241 663 C275 692 315 715 355 714 C375 714 394 706 407 692 C419 678 427 660 430 640 C438 599 431 552 426 508 C420 463 413 419 407 373 C407 363 403 344 405 343 C408 339 414 345 416 349 C419 354 423 380 422 384 C432 439 432 443 436 466 C442 511 452 556 452 601 C454 642 446 686 415 710 C383 734 337 730 296 711 C212 671 149 585 128 498 C119 454 117 410 129 370 C138 332 158 300 181 271 C226 215 302 167 333 133 C357 106 384 70 367 27 C353 -14 317 -52 283 -78 C218 -128 108 -185 41 -151 C25 -143 13 -129 10 -111 C5 -91 11 -69 19 -49 C22 -43 34 -24 23 -25 C16 -26 15 -31 14 -37 C11 -45 7 -54 5 -62 C-1 -82 -5 -105 -1 -124 C4 -142 17 -155 34 -163 C102 -199 219 -143 283 -95 C321 -68 357 -34 380 7 C402 49 398 89 379 122 L379 122 Z " />
<glyph glyph-name="T" unicode="T" horiz-adv-x="382" d="M358 671 C348 632 337 593 326 554 C310 485 295 416 279 346 C270 311 262 277 254 242 C250 224 246 207 242 188 C238 171 234 153 230 136 C229 148 228 162 227 175 C226 188 225 201 223 214 C219 273 210 330 191 384 C173 436 151 484 125 531 C115 551 97 576 102 603 C110 652 218 663 255 669 C285 673 316 676 347 679 C377 681 407 684 436 686 C466 688 495 688 524 690 C553 691 585 692 615 692 C643 692 705 691 742 690 C755 690 770 690 782 686 C785 685 789 682 791 683 C793 683 796 686 798 687 C803 693 794 694 791 695 C777 699 762 700 748 701 C688 706 628 704 567 703 C506 702 445 701 383 697 C323 694 262 687 199 674 C172 669 146 660 121 647 C94 631 81 602 85 574 C87 548 100 523 112 501 C124 478 138 456 150 433 C175 384 194 332 202 275 C210 216 211 157 214 97 C214 82 216 68 212 51 C209 36 206 21 203 5 C197 -30 179 -97 188 -134 C193 -149 207 -132 213 -123 C231 -96 233 -63 237 -34 C239 -4 236 24 236 53 C235 61 234 68 235 75 C234 82 236 89 238 95 C251 169 271 244 288 323 C302 382 314 441 328 501 C335 532 342 561 350 592 C354 607 364 654 365 662 C366 669 366 672 358 671 L358 671 Z M219 7 C220 -16 221 -41 217 -64 C216 -75 214 -86 211 -97 C210 -107 205 -121 198 -129 C196 -119 197 -108 198 -97 C199 -86 201 -74 203 -63 C204 -57 217 3 219 7 L219 7 Z " />
<glyph glyph-name="U" unicode="U" horiz-adv-x="455" d="M383 -167 C386 -172 394 -165 395 -161 C396 -156 392 -132 394 -117 C395 -74 399 -29 404 14 C409 59 412 102 420 147 C433 236 452 325 471 414 C490 501 511 589 532 676 C534 681 537 693 537 703 C539 710 536 712 531 712 C524 714 520 709 519 707 C510 687 503 666 492 646 C474 604 460 561 444 519 C428 477 412 433 396 391 C380 348 362 308 344 267 C326 224 307 184 290 143 C271 100 252 59 230 18 C209 -21 189 -63 156 -95 C146 -103 137 -111 124 -115 C114 -118 107 -110 100 -103 C88 -88 83 -67 79 -48 C70 -6 71 39 74 83 C77 126 82 168 90 212 C103 301 124 391 150 480 C167 544 194 633 205 678 C206 685 202 696 194 693 C188 692 185 685 186 681 C186 679 186 674 190 674 C179 637 167 599 153 558 C131 492 106 406 88 323 C77 268 67 213 59 158 C52 103 48 48 52 -5 C53 -29 57 -54 63 -79 C68 -99 78 -125 101 -133 C113 -137 126 -133 138 -127 C151 -120 163 -113 171 -103 C192 -82 208 -58 223 -34 C254 15 276 67 300 118 C324 171 346 223 366 276 C409 381 452 484 493 590 C486 561 477 522 472 508 C465 481 459 453 453 426 C442 375 430 325 421 274 C411 223 403 173 398 122 C393 74 389 25 384 -24 C383 -50 372 -151 383 -167 L383 -167 Z " />
<glyph glyph-name="V" unicode="V" horiz-adv-x="390" d="M499 724 C487 698 479 670 470 643 C451 593 326 236 280 117 C257 62 234 5 202 -51 C195 -65 153 -146 129 -134 C113 -127 107 -104 103 -80 C94 -25 99 34 105 90 C112 156 120 201 128 262 C144 375 162 507 174 613 C175 627 178 670 176 693 C175 696 169 696 166 696 C160 696 160 692 160 687 C158 667 156 642 154 626 C141 507 127 392 107 274 C97 217 87 157 81 100 C77 41 72 -18 80 -75 C85 -98 93 -127 111 -142 C133 -158 153 -148 186 -111 C210 -84 224 -56 238 -28 C253 2 266 30 279 59 C303 110 430 454 471 577 C481 605 490 634 501 664 C505 679 509 693 514 708 C515 710 519 722 517 724 C515 729 505 728 499 724 L499 724 Z " />
<glyph glyph-name="W" unicode="W" horiz-adv-x="569" d="M243 736 C240 735 235 717 231 707 C199 614 170 537 139 447 C96 316 58 186 35 53 C26 3 20 -100 47 -102 C89 -106 152 64 160 84 C176 127 190 169 207 211 C215 233 222 255 229 276 C238 297 246 323 256 338 C274 317 269 280 271 249 C270 140 253 -74 332 -140 C344 -150 360 -158 380 -154 C431 -145 469 -92 493 -43 C526 23 543 93 556 161 C569 230 576 305 583 374 C593 476 599 580 600 677 C600 682 602 693 595 696 C594 697 589 697 587 696 C583 693 584 688 583 686 C584 666 584 652 582 635 C573 495 561 352 543 211 C532 141 516 70 490 0 C473 -45 442 -109 394 -133 C378 -139 359 -137 347 -127 C270 -68 292 149 290 249 C291 278 294 322 278 346 C272 351 266 354 258 354 C240 352 230 318 218 293 C192 229 170 163 145 98 C125 47 106 -7 79 -55 C76 -60 59 -90 51 -87 C44 -85 45 -8 50 25 C65 129 91 232 123 335 C144 405 166 473 189 542 C208 595 227 647 241 700 C244 709 246 717 249 726 C251 733 253 738 243 736 L243 736 Z " />
<glyph glyph-name="X" unicode="X" horiz-adv-x="503" d="M613 704 C609 704 607 703 605 699 C603 697 602 695 601 693 C591 677 578 656 568 638 C518 549 472 464 425 375 C423 389 423 404 421 418 C416 475 401 550 391 586 C384 610 372 636 352 652 C343 660 328 663 314 663 C299 663 285 655 273 644 C250 624 230 595 215 568 C197 539 180 508 165 478 C108 357 59 228 29 104 C14 40 2 -25 5 -87 C5 -116 9 -144 20 -169 C30 -191 49 -214 79 -206 C109 -198 134 -176 154 -154 C177 -128 196 -101 214 -72 C254 -10 343 157 406 294 C409 257 411 211 411 194 C413 135 414 76 417 17 C419 -12 422 -42 424 -71 C426 -87 427 -101 428 -116 C431 -130 434 -141 436 -146 C441 -156 450 -148 453 -144 C456 -141 452 -130 451 -129 C445 -115 446 -98 445 -82 C443 -49 443 -16 439 17 C437 78 435 137 431 197 C431 226 430 254 430 284 C429 299 429 314 426 328 C428 337 430 341 432 350 C436 356 441 364 444 371 C488 460 533 548 580 636 C588 652 598 672 611 691 C613 694 614 694 616 696 C622 701 618 703 613 704 L613 704 Z M23 -104 C17 -31 33 45 51 125 C66 188 91 251 115 313 C137 374 162 436 193 496 C206 525 222 555 241 582 C251 596 259 610 271 622 C281 632 293 644 307 645 C335 648 350 620 357 599 C367 574 373 547 379 521 C391 464 399 406 404 347 C404 343 405 338 405 335 C397 302 258 31 228 -13 C213 -39 197 -67 178 -93 C160 -120 141 -148 116 -169 C105 -179 93 -187 79 -190 C64 -193 55 -186 48 -176 C31 -157 27 -129 23 -104 L23 -104 Z " />
<glyph glyph-name="Y" unicode="Y" horiz-adv-x="374" d="M209 692 C203 690 198 674 195 665 C179 621 161 577 147 533 C134 488 121 444 110 399 C98 356 91 312 85 268 C79 225 76 180 81 138 C83 119 87 98 94 81 C100 65 108 45 127 41 C144 38 166 54 178 67 C193 82 204 102 217 121 C241 161 260 203 279 246 C296 288 314 331 331 374 C348 418 365 463 381 507 C388 529 395 550 402 572 C406 583 415 617 417 622 C418 626 419 631 421 634 C422 610 418 584 415 560 C402 454 378 348 347 243 C332 191 313 139 287 90 C276 67 261 35 246 13 C189 -73 99 -139 79 -152 C74 -155 73 -167 82 -161 C115 -142 158 -108 179 -90 C260 -16 312 81 346 180 C383 281 406 385 423 488 C431 539 438 590 437 640 C437 646 440 662 427 663 C417 664 413 656 411 651 C401 628 394 602 386 577 C329 400 252 214 202 127 C190 105 173 79 152 65 C147 62 141 59 137 60 C131 60 128 64 124 68 C118 76 113 85 109 95 C95 138 95 191 102 239 C107 292 115 345 129 398 C141 450 156 503 172 555 C181 582 190 608 198 634 C204 648 206 661 211 673 C213 678 219 683 217 687 C216 690 212 693 209 692 L209 692 Z " />
<glyph glyph-name="Z" unicode="Z" horiz-adv-x="413" d="M362 -99 C351 -94 339 -98 327 -100 C275 -110 222 -124 170 -136 C142 -142 117 -148 90 -155 C64 -160 38 -167 13 -169 C-17 -171 2 -131 11 -114 C24 -91 41 -67 57 -46 C93 1 130 46 167 92 C240 183 314 274 380 368 C413 414 444 461 469 511 C490 557 511 615 486 654 C462 692 406 699 362 696 C336 694 311 690 285 683 C271 680 260 677 247 674 C245 672 242 672 240 668 C239 665 239 659 240 656 C252 661 264 664 276 667 C325 680 381 688 427 674 C447 668 467 656 477 636 C487 614 482 587 473 562 C453 510 421 462 391 416 C375 393 358 370 342 347 C325 324 308 302 290 280 C273 258 254 235 236 214 C229 204 148 105 139 93 C120 71 102 47 84 24 C66 2 48 -20 33 -44 C17 -67 1 -91 -11 -116 C-17 -129 -38 -171 -17 -186 C-9 -193 4 -191 16 -190 C28 -189 41 -185 53 -183 C107 -170 160 -154 213 -140 C240 -134 266 -127 292 -121 C306 -118 319 -114 333 -111 C341 -109 357 -110 362 -99 L362 -99 Z " />
<glyph glyph-name="bracketleft" unicode="&#x5b;" horiz-adv-x="190" d="M263 695 C263 700 239 698 226 694 C212 689 205 682 200 670 C184 633 169 569 157 520 C144 464 67 59 41 -76 C36 -107 28 -147 27 -175 C27 -181 31 -187 36 -190 C46 -197 63 -200 76 -202 C88 -204 93 -200 95 -196 C97 -192 92 -191 84 -190 C68 -188 43 -183 41 -175 C40 -167 40 -161 41 -155 C45 -126 52 -88 60 -56 C70 2 141 405 175 542 C185 583 197 632 211 668 C213 674 221 680 228 682 C236 685 245 687 251 686 C259 685 263 689 263 695 L263 695 Z " />
<glyph glyph-name="backslash" unicode="&#x5c;" horiz-adv-x="229" d="M149 -184 C152 -187 155 -183 157 -180 C159 -175 158 -162 158 -157 C157 -86 164 463 163 595 C163 606 163 621 163 643 C163 655 162 663 160 664 C157 665 153 665 151 657 C149 643 150 632 150 616 C150 601 150 587 149 572 C148 535 145 -5 146 -145 C147 -158 146 -171 149 -184 L149 -184 Z " />
<glyph glyph-name="bracketright" unicode="&#x5d;" horiz-adv-x="174" d="M142 695 C140 689 143 685 152 686 C162 687 173 687 182 683 C188 680 195 674 195 668 C199 632 193 583 190 542 C178 405 107 2 97 -56 C94 -88 87 -126 80 -155 C79 -161 77 -167 74 -175 C67 -183 34 -188 14 -190 C5 -191 -2 -192 -1 -196 C-1 -200 5 -204 20 -202 C36 -200 59 -197 73 -190 C82 -187 89 -181 91 -175 C101 -147 107 -107 112 -76 C133 59 197 464 203 520 C208 569 215 633 210 670 C209 682 202 689 188 694 C174 698 144 700 142 695 L142 695 Z " />
<glyph glyph-name="asciicircum" unicode="&#x5e;" horiz-adv-x="142" d="M139 613 C140 612 143 612 146 616 C148 619 149 622 151 625 C156 632 161 639 167 645 C179 658 191 670 204 680 C209 684 216 688 216 679 C217 673 216 666 215 660 C213 645 212 630 212 615 C212 612 212 607 213 604 C213 603 213 598 217 599 C227 602 224 607 222 612 C222 626 224 641 225 656 C226 663 228 671 228 678 C228 683 229 690 226 693 C221 697 213 696 208 693 C202 690 196 685 192 681 C180 671 168 659 157 647 C147 636 134 615 139 613 L139 613 Z " />
<glyph glyph-name="underscore" unicode="&#x5f;" horiz-adv-x="182" d="M57 203 C82 203 144 203 188 203 C192 203 197 202 200 204 C204 207 203 212 199 212 C192 213 180 213 171 213 C145 213 100 213 59 213 C55 213 54 212 52 209 C52 207 50 203 57 203 L57 203 Z " />
<glyph glyph-name="grave" unicode="&#x60;" horiz-adv-x="63" d="M155 645 C159 642 165 645 165 650 C165 659 163 666 162 675 C160 680 160 686 158 689 C156 691 150 691 149 686 C149 681 149 679 150 671 C151 661 153 655 155 645 L155 645 Z " />
<glyph glyph-name="a" unicode="a" horiz-adv-x="236" d="M149 343 C144 325 141 315 137 299 C134 284 132 268 132 253 C133 230 144 202 173 207 C198 212 221 233 241 249 C253 258 286 287 291 292 C295 295 293 298 288 300 C288 300 265 281 260 277 C240 260 218 240 195 227 C186 222 171 214 161 220 C143 232 145 265 148 286 C149 300 156 326 163 347 C165 354 160 355 156 356 C151 357 147 352 142 347 C126 331 114 312 98 295 C80 275 65 256 42 243 C38 250 45 269 51 280 C54 286 59 297 74 306 C79 308 83 311 80 314 C77 316 71 316 67 314 C57 309 49 295 44 287 C38 275 34 265 32 253 C31 245 32 235 43 235 C55 235 84 266 98 283 C117 303 131 322 149 343 L149 343 Z " />
<glyph glyph-name="b" unicode="b" horiz-adv-x="234" d="M286 300 C286 300 214 267 165 250 C173 270 181 289 182 309 C183 326 180 344 163 351 C127 365 91 321 65 294 C69 309 71 324 71 328 C82 376 138 602 154 662 C157 673 157 676 157 678 C157 682 150 684 147 681 C143 678 137 650 135 644 C130 619 88 473 67 371 C61 345 56 323 52 298 C51 291 50 284 50 278 C49 272 59 270 80 293 C94 307 114 333 135 341 C160 349 169 332 168 303 C167 285 159 267 150 250 C146 244 144 243 137 241 C112 233 87 227 61 220 C40 215 10 208 -5 190 C-13 181 -14 168 -10 159 C-6 151 3 145 12 144 C41 140 76 156 103 176 C114 185 125 195 135 207 C140 213 145 219 149 225 C152 228 153 232 156 235 C158 238 160 238 164 239 C196 250 263 277 284 287 C288 289 295 295 286 300 L286 300 Z M75 173 C63 166 49 160 36 157 C25 155 10 153 4 162 C-13 184 38 203 54 207 C82 215 106 221 137 230 C119 208 99 187 75 173 L75 173 Z " />
<glyph glyph-name="c" unicode="c" horiz-adv-x="187" d="M119 324 C123 324 128 326 126 335 C124 339 119 345 115 347 C103 353 85 342 72 328 C40 292 32 253 28 235 C24 211 26 181 62 188 C84 193 118 218 145 235 C183 260 203 268 238 288 C246 292 246 296 239 300 C202 280 159 258 124 235 C111 227 97 218 84 211 C74 206 52 192 45 202 C38 212 42 242 46 254 C49 262 56 290 86 325 C106 348 117 329 119 324 L119 324 Z " />
<glyph glyph-name="d" unicode="d" horiz-adv-x="257" d="M309 300 C309 300 280 258 267 241 C253 224 239 206 223 190 C208 175 192 159 172 152 C152 145 148 172 147 186 C146 207 149 228 152 250 C158 291 166 333 176 374 C181 395 186 416 193 437 C200 458 208 479 216 500 C230 541 244 582 258 624 C263 645 268 665 273 686 C274 689 277 696 276 699 C275 701 268 702 266 701 C261 699 257 685 255 680 C240 639 228 598 215 557 C203 517 190 477 180 437 C174 416 164 395 156 375 C147 355 139 336 129 317 C120 297 109 278 97 258 C88 241 76 224 62 209 C56 202 49 194 39 189 C31 185 25 186 23 194 C18 205 27 235 35 252 C43 272 56 291 71 307 C77 313 83 321 93 324 C97 326 101 326 106 324 C107 323 111 318 113 318 C116 318 124 324 124 327 C125 330 123 334 121 336 C115 340 105 341 97 339 C79 335 62 315 51 300 C39 283 28 265 20 246 C13 227 6 202 10 187 C13 180 20 174 29 175 C38 175 45 179 53 184 C69 196 82 213 93 229 C118 266 138 306 156 345 C158 345 151 319 150 316 C147 306 146 297 144 287 C140 266 137 244 135 223 C132 203 132 182 135 162 C139 145 152 133 173 139 C189 143 206 158 221 172 C254 202 288 249 313 285 C317 291 317 297 309 300 L309 300 Z " />
<glyph glyph-name="e" unicode="e" horiz-adv-x="164" d="M218 286 C225 292 222 298 216 300 C216 300 163 258 154 251 C136 237 93 205 65 209 C57 210 50 218 47 225 C40 244 47 266 55 286 C58 268 77 268 90 275 C105 283 117 298 120 314 C123 330 114 340 98 339 C83 338 67 323 58 311 C39 285 25 247 35 219 C40 205 51 196 67 196 C105 196 143 230 158 240 C166 246 208 278 218 286 L218 286 Z M66 303 C74 312 84 326 96 327 C110 329 109 313 104 303 C98 289 74 268 65 288 C65 290 64 293 65 295 C65 298 68 301 66 303 L66 303 Z " />
<glyph glyph-name="f" unicode="f" horiz-adv-x="234" d="M286 300 C286 300 220 242 191 218 C131 169 78 120 21 69 C28 115 38 169 50 220 C71 310 97 401 132 490 C149 535 168 580 190 623 C202 644 213 665 225 685 C232 696 239 706 246 716 C251 725 262 737 259 739 C252 742 250 744 244 737 C239 731 234 722 229 715 C145 586 92 448 55 307 C35 236 20 166 7 95 C-5 24 -15 -62 -10 -119 C-9 -148 -2 -183 20 -202 C44 -221 78 -197 96 -174 C133 -128 154 -45 111 0 C90 22 60 30 32 41 C27 43 21 45 23 51 C27 58 34 64 39 70 C52 83 66 96 81 108 C140 160 228 233 288 287 C295 293 291 299 286 300 L286 300 Z M70 7 C84 -1 100 -11 108 -26 C132 -66 115 -138 74 -178 C67 -184 60 -190 50 -193 C42 -196 37 -192 32 -187 C20 -176 14 -159 12 -143 C5 -106 7 -70 8 -30 C10 -11 11 10 15 30 C36 22 62 12 70 7 L70 7 Z " />
<glyph glyph-name="g" unicode="g" horiz-adv-x="257" d="M309 300 C309 300 257 244 225 210 C192 175 160 145 131 122 C139 145 144 162 150 182 C156 203 162 225 168 246 C173 267 178 287 183 308 C184 316 185 319 176 320 C172 321 170 321 166 317 C163 313 160 309 156 304 C134 274 111 243 85 216 C71 203 56 190 38 185 C15 177 23 208 26 220 C31 237 40 255 51 271 C60 286 72 301 84 314 C90 319 97 326 104 328 C113 330 116 323 123 323 C130 323 138 332 136 338 C135 344 125 345 120 346 C87 350 59 309 43 285 C32 270 23 253 17 236 C11 220 5 197 10 185 C22 151 73 192 91 210 C117 238 143 270 169 301 C167 294 162 272 161 268 C155 243 150 219 143 195 C135 170 127 146 118 122 C116 116 115 110 111 106 C107 101 102 98 97 94 C87 86 76 78 66 70 C45 54 24 38 4 22 C-35 -10 -78 -42 -105 -84 C-119 -105 -129 -129 -132 -152 C-134 -169 -134 -193 -112 -196 C-92 -198 -68 -178 -58 -170 C-39 -155 -22 -137 -6 -118 C27 -79 54 -37 78 7 C91 29 102 52 112 75 C115 85 119 98 128 106 C138 114 148 122 158 131 C198 166 240 210 270 243 C279 253 304 278 312 288 C315 290 320 297 309 300 L309 300 Z M86 49 C80 37 74 25 68 13 C55 -10 41 -32 26 -54 C-2 -93 -34 -131 -70 -162 C-78 -169 -88 -176 -97 -180 C-101 -181 -107 -185 -111 -182 C-114 -180 -116 -174 -118 -171 C-122 -152 -113 -127 -103 -109 C-82 -68 -47 -36 -13 -7 C7 9 26 25 46 41 C64 55 84 72 104 86 C98 73 92 60 86 49 L86 49 Z " />
<glyph glyph-name="h" unicode="h" horiz-adv-x="296" d="M191 741 C189 740 183 723 174 701 C148 630 132 583 110 512 C87 442 65 371 51 300 C48 282 45 265 44 248 C42 232 40 200 50 192 C67 179 101 228 110 242 C135 275 166 316 180 326 C199 340 203 318 203 305 C204 290 202 273 205 259 C210 244 219 235 235 236 C252 238 268 247 283 255 C300 264 329 280 345 288 C354 293 355 297 348 300 C348 300 323 287 314 282 C298 273 282 264 265 257 C252 251 233 242 223 253 C214 265 217 284 216 299 C216 311 218 332 206 339 C193 347 179 337 168 326 C140 300 119 267 96 237 C87 225 76 208 63 200 C50 192 54 232 55 241 C57 276 66 313 74 349 C92 420 113 492 136 563 C153 616 164 644 182 697 C186 706 194 730 197 736 C199 741 196 741 191 741 L191 741 Z " />
<glyph glyph-name="i" unicode="i" horiz-adv-x="161" d="M69 348 C66 341 64 336 60 324 C53 303 47 286 39 259 C33 238 23 190 36 175 C52 159 81 176 98 188 C120 203 141 221 163 240 C180 255 200 275 216 291 C217 293 222 297 213 300 C179 262 137 227 94 197 C83 190 71 183 59 181 C48 179 45 191 44 201 C42 219 52 256 60 282 C65 296 70 310 75 324 C77 331 79 338 80 344 C81 348 81 350 78 351 C77 352 71 352 69 348 L69 348 Z M94 445 C98 442 103 445 104 447 C107 451 107 455 104 457 C101 460 95 457 94 454 C91 451 91 447 94 445 L94 445 Z " />
<glyph glyph-name="j" unicode="j" horiz-adv-x="126" d="M181 286 C187 294 185 299 178 300 C178 300 155 270 148 260 C134 240 119 220 104 199 C76 162 43 123 9 87 C14 105 16 112 19 124 C35 178 48 232 61 286 C65 305 67 315 69 326 C71 335 77 359 66 359 C59 359 59 348 60 346 C59 326 53 306 50 285 C33 207 17 154 -2 86 C-4 80 -6 73 -10 68 C-31 44 -62 16 -88 -6 C-131 -43 -179 -74 -220 -113 C-241 -132 -259 -153 -260 -180 C-260 -189 -253 -212 -218 -206 C-170 -197 -125 -160 -94 -121 C-59 -77 -35 -27 -15 23 C-10 36 -1 61 -1 61 C11 74 23 86 27 91 C46 112 65 134 83 156 C101 179 119 201 136 224 C152 248 169 270 181 286 L181 286 Z M-16 46 C-36 -2 -58 -53 -90 -97 C-114 -132 -145 -164 -185 -182 C-200 -189 -228 -201 -241 -190 C-255 -178 -243 -155 -231 -141 C-217 -124 -200 -110 -182 -96 C-164 -81 -144 -65 -124 -50 C-96 -26 -68 -3 -40 23 C-38 26 -26 37 -16 46 L-16 46 Z M89 459 C88 463 84 464 79 460 C74 458 73 451 75 449 C77 445 82 446 86 448 C90 451 92 455 89 459 L89 459 Z " />
<glyph glyph-name="k" unicode="k" horiz-adv-x="258" d="M310 300 C310 300 288 281 279 273 C258 256 239 239 217 221 C202 207 183 191 164 184 C143 175 129 187 118 200 C105 214 93 236 95 242 C96 249 113 257 122 262 C131 268 143 276 151 283 C167 295 189 321 178 331 C171 338 156 332 148 327 C139 322 131 315 124 308 C92 276 70 237 50 199 C54 243 64 288 75 333 C88 380 100 426 113 473 C137 556 163 637 192 719 C196 730 198 733 202 743 C203 747 199 752 194 748 C190 745 184 731 182 724 C165 676 148 626 132 577 C106 496 82 414 62 333 C52 291 43 249 38 207 C36 198 35 185 37 178 C39 172 46 174 49 177 C55 184 61 198 67 207 C72 215 76 225 83 233 C88 211 107 190 124 176 C141 161 171 171 193 188 C218 207 244 231 264 248 C277 259 299 278 310 288 C314 292 317 298 310 300 L310 300 Z M133 302 C136 306 164 331 168 323 C173 319 153 297 138 287 C130 281 112 269 102 263 C111 276 122 290 133 302 L133 302 Z " />
<glyph glyph-name="l" unicode="l" horiz-adv-x="174" d="M201 739 C158 632 113 528 80 418 C64 368 51 316 48 266 C47 243 47 218 56 198 C68 176 91 180 114 193 C136 205 155 224 175 242 C185 251 214 277 224 286 C228 289 234 296 226 300 C226 300 168 246 158 238 C140 222 121 205 98 196 C46 176 63 282 67 308 C75 358 89 408 105 457 C121 508 139 558 158 608 C168 633 191 687 206 722 C206 725 211 737 211 739 C209 742 205 743 201 739 L201 739 Z " />
<glyph glyph-name="m" unicode="m" horiz-adv-x="318" d="M71 344 C59 318 49 293 41 267 C36 253 30 238 28 224 C27 217 32 216 36 217 C39 218 44 223 48 227 C67 252 84 277 105 300 C118 312 124 322 123 305 C122 292 120 279 121 266 C123 256 130 245 143 247 C150 248 160 257 167 265 C186 284 202 306 220 326 C225 332 242 351 245 349 C250 346 246 321 245 314 C241 288 238 281 235 257 C232 233 231 213 237 204 C246 193 260 199 266 203 C280 211 305 232 324 249 C336 259 362 282 372 291 C373 293 376 299 370 300 C370 300 324 260 308 247 C297 238 278 223 269 216 C263 212 250 202 247 217 C244 228 251 270 255 294 C258 308 259 321 260 334 C261 343 260 355 253 359 C243 364 233 354 224 345 C206 324 190 304 171 283 C164 275 149 256 142 255 C133 254 134 267 134 279 C133 289 136 309 136 315 C136 325 131 329 120 324 C112 320 97 305 91 298 C74 278 59 258 41 236 C45 249 61 293 64 300 C68 311 82 342 81 343 C81 346 74 348 71 344 L71 344 Z " />
<glyph glyph-name="n" unicode="n" horiz-adv-x="223" d="M38 212 C39 228 47 255 54 274 C58 286 62 297 65 308 C67 313 73 331 70 334 C70 336 66 336 64 333 C62 329 51 297 47 286 C39 265 33 244 29 223 C28 218 25 203 32 200 C37 198 46 206 48 209 C59 219 75 238 89 253 C103 269 120 286 133 300 C139 306 159 322 164 321 C168 320 166 302 164 290 C162 280 160 265 159 255 C159 242 159 221 174 216 C189 210 210 227 221 237 C240 253 262 273 274 287 C279 293 282 297 275 300 C275 300 266 290 261 286 C246 272 231 258 216 245 C203 235 183 218 175 237 C170 252 174 271 176 288 C179 301 184 327 172 331 C155 335 138 316 126 305 C96 276 67 241 38 212 L38 212 Z " />
<glyph glyph-name="o" unicode="o" horiz-adv-x="185" d="M42 175 C58 173 75 187 85 197 C100 212 112 229 120 247 C125 257 128 267 129 277 C130 283 130 282 135 281 C156 277 179 277 209 284 C213 285 226 288 235 291 C241 293 241 297 237 300 C226 297 201 291 186 289 C168 286 151 287 135 294 C124 300 129 319 113 322 C95 325 106 299 112 294 C118 288 120 284 119 275 C118 266 116 258 113 250 C105 234 94 220 83 207 C74 196 53 179 42 187 C31 196 35 221 39 235 C43 253 50 271 59 288 C67 304 77 320 88 335 C89 337 104 353 103 355 C103 357 97 358 95 357 C92 357 90 354 87 351 C63 324 45 291 34 262 C24 236 12 179 42 175 L42 175 Z " />
<glyph glyph-name="p" unicode="p" horiz-adv-x="234" d="M98 224 C90 220 89 209 91 207 C93 205 100 207 103 207 C114 208 124 211 134 213 C155 219 175 228 194 238 C231 257 269 279 282 287 C291 292 292 297 286 300 C286 300 173 233 121 222 C126 226 141 237 150 245 C159 253 168 262 175 272 C192 293 207 317 216 341 C229 380 202 381 194 379 C170 373 148 344 140 334 C108 294 86 249 68 205 C29 115 3 22 -21 -70 C-20 -61 -17 -50 -16 -40 C-14 -30 -12 -20 -9 -10 C-6 10 -1 30 2 50 C11 89 20 128 30 168 C39 204 47 239 56 275 C65 310 76 345 87 380 C89 388 93 402 93 404 C92 405 88 407 86 406 C84 405 82 397 79 391 C73 374 68 357 63 340 C53 304 45 269 36 233 C17 163 0 94 -14 24 C-22 -12 -29 -49 -34 -85 C-38 -103 -41 -121 -43 -139 C-45 -156 -51 -193 -43 -192 C-38 -191 -37 -191 -35 -188 C-31 -183 -29 -167 -28 -161 C-26 -146 -23 -131 -20 -115 C-14 -86 -7 -57 1 -29 C15 25 31 79 51 132 C70 185 92 238 121 288 C135 311 151 334 172 353 C179 360 195 373 205 369 C214 364 206 346 202 337 C192 312 175 289 158 268 C140 246 122 235 98 224 L98 224 Z " />
<glyph glyph-name="q" unicode="q" horiz-adv-x="234" d="M132 304 C132 304 123 275 121 272 C102 214 85 169 66 110 C53 102 16 77 2 67 C-1 64 -14 56 -16 49 C-20 39 -14 32 -6 26 C3 20 13 13 21 6 C22 4 26 1 26 -1 C24 -8 20 -21 18 -29 C15 -43 9 -67 5 -93 C2 -117 -2 -149 4 -169 C6 -178 12 -189 23 -189 C31 -189 44 -183 52 -175 C70 -157 80 -130 82 -107 C84 -81 81 -57 73 -35 C67 -20 57 -5 48 5 C45 9 49 14 50 18 C60 46 68 75 79 103 C83 107 93 114 98 118 C109 126 120 135 131 144 C183 187 233 232 287 284 C288 285 298 294 286 300 C258 273 184 205 149 174 C128 155 107 138 85 122 C97 159 111 198 124 235 C138 273 151 310 163 348 C166 357 169 366 172 374 C173 379 175 383 177 387 C177 389 180 395 172 395 C166 396 163 391 163 390 C160 382 157 374 154 366 C147 350 137 334 129 319 C120 304 111 290 100 275 C91 262 80 248 68 236 C65 233 55 225 51 225 C46 226 48 244 49 251 C51 267 58 284 66 299 C74 314 85 329 98 341 C102 345 110 352 115 351 C118 351 120 347 123 347 C127 347 130 351 132 353 C137 359 125 362 122 363 C114 364 106 361 100 357 C87 350 76 336 68 324 C57 310 49 294 44 278 C38 262 34 244 37 229 C42 206 62 218 66 221 C80 231 92 245 101 258 C113 273 122 289 132 304 L132 304 Z M41 -15 C55 -35 65 -58 68 -83 C70 -106 67 -128 55 -151 C49 -160 41 -170 31 -175 C21 -179 19 -163 18 -157 C14 -134 18 -109 22 -86 C26 -63 34 -38 41 -15 L41 -15 Z M56 86 C48 64 41 42 34 20 C27 25 20 30 13 35 C9 37 5 40 1 42 C-3 45 -4 47 1 51 C23 67 28 68 56 86 L56 86 Z " />
<glyph glyph-name="r" unicode="r" horiz-adv-x="256" d="M116 435 C130 434 137 426 137 416 C138 404 131 390 124 378 C114 360 80 316 68 305 C74 298 80 292 87 284 C94 275 104 267 110 257 C122 237 125 213 120 186 C115 159 108 137 101 110 C89 66 92 52 97 52 C121 49 156 87 173 107 C192 128 207 151 223 174 C240 198 256 223 273 247 C280 258 308 300 308 300 C318 298 317 293 313 287 C309 280 292 255 284 243 C275 228 238 174 221 150 C203 126 186 103 165 81 C148 63 110 32 89 39 C71 45 76 71 79 90 C85 117 94 147 102 174 C109 200 112 221 100 243 C95 253 88 262 80 270 C72 278 52 300 52 301 C38 317 34 340 38 362 C46 397 77 435 116 435 L116 435 Z M63 312 C71 319 76 327 84 335 C96 351 108 368 119 386 C139 423 113 436 82 412 C68 400 58 386 53 370 C45 347 53 329 63 312 L63 312 Z " />
<glyph glyph-name="s" unicode="s" horiz-adv-x="216" d="M100 325 C103 322 107 328 109 332 C111 336 115 354 94 355 C85 355 78 352 71 346 C55 331 51 309 52 291 C52 272 58 253 63 235 C68 207 72 177 66 147 C66 143 65 136 62 133 C45 120 16 98 -1 85 C-17 72 -33 58 -47 42 C-60 27 -74 4 -65 -10 C-59 -20 -36 -18 -22 -11 C-5 -2 10 10 23 26 C37 42 48 60 57 78 C62 88 67 98 70 108 C73 116 73 128 80 133 C133 174 184 217 236 261 C245 268 253 275 261 283 C265 285 279 295 268 300 C224 263 177 223 131 187 C115 173 98 159 79 146 C82 166 82 186 81 205 C80 222 77 239 72 255 C69 271 64 287 64 304 C64 317 70 337 84 343 C89 345 94 344 98 341 C104 335 97 326 100 325 L100 325 Z M58 116 C51 93 39 69 24 48 C12 31 -4 13 -23 3 C-31 -1 -49 -6 -53 -1 C-58 6 -51 17 -45 25 C-33 44 -15 59 2 73 C20 88 39 103 58 116 L58 116 Z " />
<glyph glyph-name="t" unicode="t" horiz-adv-x="197" d="M249 300 C249 300 230 280 225 276 C216 267 207 258 197 249 C163 218 129 189 104 191 C70 193 65 236 65 264 C64 314 75 365 86 414 C98 465 118 522 133 572 C133 572 149 572 154 572 C198 573 231 575 244 572 C247 571 256 567 261 572 C269 581 253 585 246 586 C234 587 221 587 209 587 C185 586 161 587 137 586 C148 620 154 637 165 664 C174 687 184 712 191 727 C194 736 199 744 198 746 C197 748 196 749 195 749 C190 749 189 746 187 742 C168 703 134 609 127 586 C127 586 100 586 81 585 C75 585 63 584 57 584 C50 584 43 585 38 582 C35 580 34 574 36 572 C39 569 48 570 51 570 C76 571 95 572 121 572 C117 559 114 549 110 538 C94 488 79 437 67 386 C56 337 47 284 53 236 C56 216 64 193 82 184 C103 173 129 183 148 196 C170 210 191 229 209 247 C219 256 245 282 251 287 C254 290 259 296 249 300 L249 300 Z " />
<glyph glyph-name="u" unicode="u" horiz-adv-x="270" d="M175 307 C173 297 168 283 168 280 C161 257 154 235 151 213 C149 196 146 169 162 160 C178 151 202 169 216 180 C233 193 253 213 270 230 C278 238 312 274 323 288 C326 292 331 298 322 300 C322 300 275 248 267 240 C250 223 187 159 170 169 C156 176 165 220 170 240 C172 251 175 261 177 272 C180 282 183 294 185 305 C186 310 186 315 182 317 C174 322 157 303 148 293 C133 276 118 259 102 243 C94 235 66 205 52 214 C43 221 50 256 56 274 C60 287 65 304 72 322 C74 325 77 333 77 335 C76 336 76 337 73 337 C69 337 68 335 66 332 C58 314 53 302 48 284 C41 263 24 209 51 202 C75 195 112 238 126 253 C135 262 142 271 150 280 C157 289 166 299 175 307 L175 307 Z " />
<glyph glyph-name="v" unicode="v" horiz-adv-x="285" d="M166 271 C175 257 193 243 218 240 C270 234 312 267 333 284 C335 285 347 296 337 300 C337 300 280 247 227 251 C201 253 185 274 181 280 C179 283 178 285 179 289 C181 293 185 297 188 301 C206 329 228 365 236 397 C239 410 240 430 229 437 C199 454 171 412 165 386 C156 353 151 316 160 287 C161 282 163 281 160 276 C152 266 142 255 135 246 C123 233 78 185 56 190 C44 193 45 222 48 241 C51 256 59 285 65 310 C67 314 70 324 70 325 C71 329 66 330 62 328 C54 305 50 293 42 261 C36 241 26 191 49 181 C58 177 71 180 79 185 C112 203 141 238 166 271 L166 271 Z M175 296 C170 318 167 340 172 364 C175 383 182 404 196 420 C202 426 209 431 218 429 C244 422 216 367 209 352 C198 333 188 313 175 296 L175 296 Z " />
<glyph glyph-name="w" unicode="w" horiz-adv-x="437" d="M484 286 C494 291 494 295 489 300 C489 300 451 279 406 282 C381 283 370 294 358 304 C349 312 338 320 327 317 C320 315 316 308 314 302 C310 293 301 273 296 264 C276 225 210 162 180 190 C169 200 170 218 173 235 C176 253 180 271 183 290 C183 293 183 298 181 301 C178 304 172 303 170 302 C166 301 159 295 150 286 C136 271 77 205 60 214 C45 221 60 290 67 309 C69 314 71 318 72 323 C74 327 74 331 71 332 C66 334 64 332 63 329 C61 326 59 320 57 315 C51 297 31 238 44 210 C45 204 53 200 62 201 C83 203 111 232 125 245 C139 259 153 275 168 289 C163 272 161 258 160 251 C156 228 149 183 183 173 C222 162 270 199 296 239 C309 260 322 280 330 303 C349 287 368 271 404 270 C426 269 463 277 484 286 L484 286 Z " />
<glyph glyph-name="x" unicode="x" horiz-adv-x="301" d="M158 240 C162 219 168 188 192 185 C222 181 279 227 306 249 C318 258 344 280 353 289 C359 294 359 298 353 300 C353 300 305 260 294 251 C280 240 212 187 191 198 C182 204 178 216 174 226 C173 233 169 245 170 253 C171 256 173 259 175 261 C202 291 239 332 262 362 C264 363 266 367 266 369 C265 371 263 372 260 371 C258 370 251 363 249 361 C220 327 196 304 168 272 C168 292 169 312 168 332 C168 341 167 349 162 356 C158 363 149 365 140 363 C130 361 120 356 112 351 C97 341 80 328 65 314 C58 308 47 298 53 294 C57 292 61 296 70 306 C87 323 107 340 129 351 C135 353 142 357 148 354 C153 352 155 346 156 341 C157 331 157 325 157 312 C156 292 156 280 156 259 C156 259 152 253 150 250 C134 232 64 145 46 113 C40 103 28 77 34 74 C36 71 42 76 43 79 C45 82 45 86 46 90 C48 94 54 105 58 111 C77 141 100 170 123 198 C135 212 141 221 158 240 L158 240 Z " />
<glyph glyph-name="y" unicode="y" horiz-adv-x="327" d="M-55 -202 C-27 -202 6 -184 33 -162 C60 -140 83 -113 102 -84 C119 -57 135 -28 148 1 C151 9 160 33 160 33 C243 106 340 215 385 289 C390 296 386 299 379 300 C379 300 288 167 170 58 C192 128 207 198 214 269 C215 285 216 321 213 340 C213 347 211 349 203 350 C194 351 190 344 185 338 C168 317 154 299 136 281 C125 270 77 221 61 233 C53 239 56 263 58 275 C61 291 65 306 71 322 C74 329 77 336 80 343 C82 347 74 350 70 345 C65 340 55 309 53 302 C48 285 34 233 57 223 C75 215 112 242 132 262 C157 286 178 313 200 338 C203 332 201 281 200 268 C193 200 176 134 157 63 C154 53 152 41 142 33 C116 11 89 -12 62 -33 C25 -61 -15 -86 -49 -117 C-65 -131 -78 -148 -82 -168 C-86 -184 -77 -202 -55 -202 L-55 -202 Z M140 17 C123 -24 102 -65 76 -102 C52 -135 21 -163 -15 -180 C-30 -187 -55 -196 -66 -184 C-78 -171 -67 -152 -55 -139 C-41 -124 -26 -111 -10 -99 C7 -86 23 -74 41 -61 C67 -41 91 -24 116 -3 C119 -1 132 10 140 17 L140 17 Z " />
<glyph glyph-name="z" unicode="z" horiz-adv-x="236" d="M95 256 C87 248 78 236 69 225 C57 209 35 183 29 164 C25 149 30 138 41 136 C57 134 72 141 87 147 C145 175 197 215 247 255 C254 260 287 286 291 290 C294 293 296 298 288 300 C288 300 274 287 256 273 C234 256 204 233 176 215 C150 197 124 179 97 165 C83 158 67 150 54 148 C31 144 44 169 51 179 C65 201 92 234 113 257 C113 257 120 258 143 260 C151 261 153 262 152 265 C153 268 151 271 143 270 C136 269 130 269 123 269 C138 287 157 310 168 325 C174 334 179 344 177 351 C175 360 163 361 155 360 C134 357 112 344 94 333 C85 328 68 315 60 308 C53 302 48 298 53 294 C56 291 71 306 81 312 C102 328 115 336 136 345 C142 347 161 354 165 347 C169 340 123 289 116 281 C112 277 105 268 105 268 C105 268 100 268 90 267 C84 266 76 266 73 263 C71 261 70 255 73 255 C80 254 86 255 95 256 L95 256 Z " />
<glyph glyph-name="braceleft" unicode="&#x7b;" horiz-adv-x="251" d="M135 -162 C129 -158 121 -150 116 -132 C100 -77 94 -15 100 57 C101 89 107 122 109 155 C110 170 110 185 104 199 C98 212 88 222 90 238 C94 253 104 267 112 281 C121 296 129 311 139 326 C172 387 195 447 217 513 C228 545 236 576 250 606 C263 633 281 663 310 677 C316 680 324 682 332 682 C335 681 345 682 344 688 C343 692 328 692 324 692 C317 691 310 688 303 685 C277 671 258 644 245 617 C231 587 220 554 211 523 C200 491 190 459 178 427 C166 396 152 366 135 337 C127 322 118 308 108 293 C101 279 89 264 84 249 C79 236 78 222 84 210 C85 204 91 199 93 192 C96 186 97 181 97 174 C100 144 93 111 89 78 C82 13 83 -46 97 -113 C101 -128 105 -143 110 -156 C112 -161 117 -170 124 -170 C127 -171 135 -167 135 -162 L135 -162 Z " />
<glyph glyph-name="bar" unicode="&#x7c;" horiz-adv-x="108" d="M173 704 C170 695 168 676 166 664 C155 590 35 -32 23 -155 C21 -170 18 -183 18 -198 C17 -202 17 -207 23 -207 C28 -207 28 -203 29 -197 C32 -180 33 -168 35 -154 C92 214 139 445 177 671 C178 678 178 686 180 694 C181 700 181 707 173 704 L173 704 Z " />
<glyph glyph-name="braceright" unicode="&#x7d;" horiz-adv-x="195" d="M219 703 C232 699 245 698 245 680 C246 667 242 647 238 628 C232 592 220 555 211 519 C202 487 194 455 186 423 C180 393 175 360 184 333 C189 320 197 310 204 298 C207 293 214 285 211 278 C207 272 200 266 196 262 C184 250 173 239 165 225 C158 211 153 196 149 181 C133 116 127 51 109 -14 C99 -46 85 -76 68 -106 C55 -129 41 -151 26 -173 C22 -179 15 -186 19 -190 C21 -193 32 -180 38 -172 C51 -155 71 -121 85 -97 C107 -62 120 -26 129 11 C141 62 146 113 159 166 C162 181 165 197 172 212 C179 227 188 240 199 252 C209 262 226 276 223 290 C221 297 216 302 212 307 C208 313 204 319 201 325 C195 338 193 352 192 367 C191 399 199 433 208 466 C218 500 228 534 237 568 C245 602 254 637 257 671 C257 684 257 698 246 706 C239 711 227 716 220 713 C218 712 215 706 219 703 L219 703 Z " />
<glyph glyph-name="asciitilde" unicode="&#x7e;" horiz-adv-x="163" d="M61 295 C59 292 58 288 60 288 C63 288 67 292 71 297 C77 305 81 309 88 315 C94 320 102 325 107 319 C110 315 112 304 115 297 C120 285 127 275 142 276 C157 278 171 288 183 298 C190 303 197 309 204 314 C206 316 217 323 216 326 C215 328 210 328 208 327 C202 325 189 314 180 307 C168 299 155 288 141 288 C135 288 133 294 129 304 C126 310 124 317 121 323 C119 328 115 332 110 333 C106 334 98 333 91 328 C80 320 64 303 61 295 L61 295 Z " />
</font>
</svg>
