<?xml version="1.0" encoding="UTF-8"?>
<svg xmlns="http://www.w3.org/2000/svg" xmlns:xlink="http://www.w3.org/1999/xlink" version="1.2" >
<font id="MODURA Bold italic">
<font-face  font-family="MODURA" units-per-em="1000" ascent="750" descent="-250" font-style="italic" font-weight="400" font-stretch="normal" slope="-10" cap-height="700" x-height="500" underline-position="-75" underline-thickness="50" />
<missing-glyph  horiz-adv-x="144" d="" />
<glyph glyph-name="NULL" d="" />
<glyph glyph-name="&amp;#x0;" horiz-adv-x="144" d="" />
<glyph glyph-name="&amp;#xd;" unicode="&#xd;" horiz-adv-x="144" d="" />
<glyph glyph-name="space" unicode="&#x20;" horiz-adv-x="144" d="" />
<glyph glyph-name="exclam" unicode="&#x21;" horiz-adv-x="219" d="M160 630 L91 150 L180 149 L281 630 L160 630 Z M59 55 C53 22 76 -6 109 -6 C142 -6 175 22 181 55 C187 88 164 116 131 116 C98 116 65 88 59 55 L59 55 Z " />
<glyph glyph-name="quotedbl" unicode="&#x22;" horiz-adv-x="376" d="M140 441 L134 406 C209 409 257 471 267 532 L285 630 L178 630 L157 512 L199 512 C191 474 171 448 140 441 L140 441 Z M283 441 L277 406 C352 409 400 471 410 532 L428 630 L321 630 L300 512 L342 512 C335 474 314 448 283 441 L283 441 Z " />
<glyph glyph-name="numbersign" unicode="&#x23;" horiz-adv-x="446" d="M405 365 L472 365 L484 433 L432 433 L458 500 L389 500 L362 433 L286 433 L313 500 L242 500 L216 433 L150 433 L138 365 L189 365 L155 282 L89 282 L77 214 L129 214 L102 146 L172 146 L199 214 L275 214 L248 146 L318 146 L345 214 L411 214 L423 282 L371 282 L405 365 Z M335 365 L302 282 L226 282 L259 365 L335 365 Z " />
<glyph glyph-name="dollar" unicode="&#x24;" horiz-adv-x="412" d="M338 526 L321 428 L428 428 L446 532 C458 601 419 626 362 634 L367 659 L266 659 L261 634 C203 625 156 599 144 529 L128 442 C112 346 157 321 207 287 C211 284 213 282 217 280 C257 252 281 234 277 183 C277 177 275 170 274 164 L264 105 C260 81 245 63 214 63 C181 63 172 81 176 105 L192 198 L85 198 L68 100 C56 32 94 7 149 -1 L145 -27 L246 -27 L250 -2 C309 5 358 31 370 102 L388 199 C402 283 364 313 312 349 C309 351 307 353 304 355 C259 386 229 407 240 470 L250 526 C255 551 270 569 301 569 C334 569 343 551 338 526 L338 526 Z " />
<glyph glyph-name="percent" unicode="&#x25;" horiz-adv-x="694" d="M114 314 C104 260 148 249 201 249 C252 249 303 260 313 314 L358 570 C368 625 320 635 269 635 C216 635 169 625 159 570 L114 314 Z M239 324 C236 310 226 303 211 303 C195 303 189 310 192 324 L233 561 C236 574 245 582 260 582 C275 582 283 574 280 561 L239 324 Z M501 630 L230 0 L295 0 L571 630 L501 630 Z M444 61 C435 7 480 -4 532 -4 C583 -4 635 7 644 61 L689 317 C699 372 651 383 600 383 C548 383 499 372 489 317 L444 61 Z M569 71 C567 57 556 50 541 50 C526 50 520 57 522 71 L564 308 C566 321 577 329 591 329 C606 329 613 321 611 308 L569 71 Z " />
<glyph glyph-name="ampersand" unicode="&#x26;" horiz-adv-x="471" d="M346 0 L451 0 L403 106 C429 149 446 199 454 248 L465 307 L381 307 L370 248 C367 231 364 216 360 202 L288 364 C253 447 251 475 258 512 C264 545 273 568 306 568 C338 568 340 548 335 518 L326 468 L426 468 L436 527 C452 618 395 636 317 636 C214 636 170 590 156 512 C143 439 169 370 187 336 L189 331 C127 305 86 272 74 202 L60 120 C39 3 124 -5 212 -5 C260 -5 300 8 332 30 L346 0 Z M303 90 C280 68 256 64 230 64 C183 64 157 75 165 123 L180 206 C186 240 193 253 219 269 L303 90 Z " />
<glyph glyph-name="quotesingle" unicode="&#x27;" horiz-adv-x="213" d="M127 441 L121 406 C195 408 244 471 254 531 L272 630 L165 630 L144 512 L186 512 C178 473 158 448 127 441 L127 441 Z " />
<glyph glyph-name="parenleft" unicode="&#x28;" horiz-adv-x="248" d="M77 98 C61 8 126 -8 211 -8 L224 64 C188 64 172 84 177 110 L263 599 C268 626 290 645 326 645 L339 718 C254 718 183 702 167 612 L77 98 L77 98 Z " />
<glyph glyph-name="parenright" unicode="&#x29;" horiz-adv-x="209" d="M185 712 L58 -8 L147 -8 L274 712 L185 712 L185 712 Z " />
<glyph glyph-name="asterisk" unicode="&#x2a;" horiz-adv-x="247" d="M46 64 L33 -8 C117 -8 188 8 204 98 L294 612 C310 702 245 718 161 718 L148 645 C184 645 200 626 195 599 L109 110 C104 84 82 64 46 64 L46 64 Z " />
<glyph glyph-name="plus" unicode="&#x2b;" horiz-adv-x="454" d="M440 262 L453 337 L323 337 L347 473 L272 473 L248 337 L119 337 L106 262 L236 262 L212 125 L287 125 L311 262 L440 262 L440 262 Z " />
<glyph glyph-name="comma" unicode="&#x2c;" horiz-adv-x="202" d="M32 -71 L26 -106 C100 -104 148 -41 159 19 L176 118 L69 118 L49 0 L91 0 C82 -40 63 -64 32 -71 L32 -71 Z " />
<glyph glyph-name="hyphen" unicode="&#x2d;" horiz-adv-x="454" d="M119 338 L106 263 L440 263 L453 338 L119 338 L119 338 Z " />
<glyph glyph-name="period" unicode="&#x2e;" horiz-adv-x="204" d="M54 61 C48 28 71 0 105 0 C139 0 171 28 177 61 C183 94 160 122 126 122 C92 122 60 94 54 61 L54 61 Z " />
<glyph glyph-name="slash" unicode="&#x2f;" horiz-adv-x="279" d="M273 630 L24 0 L112 0 L364 630 L273 630 L273 630 Z " />
<glyph glyph-name="zero" unicode="0" horiz-adv-x="423" d="M77 102 C61 11 127 -7 208 -7 C289 -7 364 11 380 102 L455 526 C471 615 402 634 321 634 C240 634 168 615 152 526 L77 102 Z M273 103 C268 79 251 60 220 60 C191 60 180 79 185 103 L259 524 C263 547 280 566 309 566 C340 566 351 547 347 524 L273 103 Z " />
<glyph glyph-name="one" unicode="1" horiz-adv-x="253" d="M193 0 L304 630 L147 630 L133 553 L187 553 L90 0 L193 0 L193 0 Z " />
<glyph glyph-name="two" unicode="2" horiz-adv-x="412" d="M390 347 C410 374 430 423 438 470 L449 528 C464 615 405 636 318 636 C231 636 162 615 147 528 L129 427 L236 427 L253 525 C257 548 275 568 306 568 C338 568 345 548 341 525 L327 447 C321 412 299 377 277 348 L77 72 L65 0 L350 0 L363 77 L195 77 L390 347 L390 347 Z " />
<glyph glyph-name="three" unicode="3" horiz-adv-x="406" d="M452 578 L462 630 L158 630 L144 553 L321 553 L194 389 L181 316 L254 316 C284 316 294 297 290 274 L260 105 C256 81 239 62 209 62 C178 62 168 81 172 105 L189 204 L82 204 L65 104 C49 13 116 -5 197 -5 C278 -5 351 13 367 104 L396 267 C409 345 368 378 296 378 L295 378 L452 578 L452 578 Z " />
<glyph glyph-name="four" unicode="4" horiz-adv-x="408" d="M396 123 L410 200 L363 200 L439 630 L310 630 L70 185 L59 123 L247 123 L226 0 L328 0 L349 123 L396 123 Z M261 200 L166 200 L309 476 L261 200 Z " />
<glyph glyph-name="five" unicode="5" horiz-adv-x="422" d="M412 288 C428 378 382 402 321 402 C287 402 258 393 233 377 L264 553 L455 553 L469 630 L171 630 L110 287 L217 287 C221 311 247 332 277 332 C306 332 310 313 306 290 L273 105 C269 81 250 62 220 62 C191 62 181 81 185 105 L204 210 L97 210 L78 104 C62 13 128 -5 209 -5 C290 -5 364 13 380 104 L412 288 L412 288 Z " />
<glyph glyph-name="six" unicode="6" horiz-adv-x="421" d="M330 428 L437 428 L454 526 C470 615 402 634 321 634 C240 634 169 615 153 526 L77 102 C61 11 127 -7 208 -7 C288 -7 363 11 379 102 L410 274 C426 364 380 389 319 389 C285 389 256 377 230 357 L260 524 C264 547 280 566 310 566 C340 566 351 547 347 524 L330 428 Z M215 276 C223 300 247 319 274 319 C305 319 307 300 303 276 L273 103 C268 79 251 60 220 60 C191 60 180 79 185 103 L215 276 Z " />
<glyph glyph-name="seven" unicode="7" horiz-adv-x="367" d="M438 630 L152 630 L138 553 L317 553 L56 0 L161 0 L428 577 L438 630 L438 630 Z " />
<glyph glyph-name="eight" unicode="8" horiz-adv-x="389" d="M341 312 C379 326 408 353 417 407 L438 526 C454 616 386 634 305 634 C224 634 152 616 136 526 L115 407 C106 353 124 326 158 312 C119 299 91 272 82 218 L61 102 C45 11 111 -7 192 -7 C273 -7 347 11 363 102 L384 218 C393 272 374 299 341 312 L341 312 Z M331 525 L307 391 C303 367 286 348 256 348 C225 348 216 367 220 391 L244 525 C248 548 264 567 294 567 C324 567 335 548 331 525 L331 525 Z M280 234 L257 103 C252 79 235 60 205 60 C174 60 165 79 170 103 L193 234 C197 257 213 276 243 276 C273 276 284 257 280 234 L280 234 Z " />
<glyph glyph-name="nine" unicode="9" horiz-adv-x="414" d="M446 526 C462 616 396 634 315 634 C234 634 160 616 144 526 L114 353 C98 263 144 239 205 239 C238 239 269 251 294 271 L265 103 C261 80 243 61 214 61 C183 61 172 80 176 103 L192 196 L85 196 L68 102 C52 11 121 -6 202 -6 C283 -6 355 11 371 102 L446 526 Z M309 357 C305 329 279 309 249 309 C220 309 216 327 220 351 L251 525 C255 548 273 567 303 567 C332 567 343 548 339 525 L309 357 Z " />
<glyph glyph-name="colon" unicode="&#x3a;" horiz-adv-x="216" d="M120 407 C114 373 136 345 170 345 C204 345 236 373 242 407 C248 441 226 468 192 468 C158 468 126 441 120 407 L120 407 Z M59 61 C53 28 76 0 110 0 C144 0 175 28 181 61 C187 94 165 122 131 122 C97 122 65 94 59 61 L59 61 Z " />
<glyph glyph-name="semicolon" unicode="&#x3b;" horiz-adv-x="206" d="M113 401 C107 367 129 339 163 339 C196 339 229 367 235 401 C241 435 218 462 185 462 C151 462 119 435 113 401 L113 401 Z M34 -71 L28 -106 C103 -104 150 -41 161 19 L178 118 L71 118 L51 0 L94 0 C86 -39 65 -64 34 -71 L34 -71 Z " />
<glyph glyph-name="less" unicode="&#x3c;" horiz-adv-x="323" d="M338 400 L358 513 L110 298 L282 82 L302 195 L224 299 L338 400 L338 400 Z " />
<glyph glyph-name="equal" unicode="&#x3d;" horiz-adv-x="464" d="M138 408 L125 332 L462 332 L475 408 L138 408 Z M113 265 L100 189 L437 189 L450 265 L113 265 Z " />
<glyph glyph-name="greater" unicode="&#x3e;" horiz-adv-x="324" d="M317 299 L145 514 L125 401 L202 300 L89 196 L69 83 L317 299 L317 299 Z " />
<glyph glyph-name="question" unicode="&#x3f;" horiz-adv-x="390" d="M168 170 L164 146 L272 146 L277 166 C288 232 413 389 430 486 L437 526 C453 613 393 634 306 634 C219 634 151 613 135 526 L117 425 L224 425 L242 523 C246 546 263 566 294 566 C326 566 334 546 330 523 L319 463 C306 391 182 247 168 170 L168 170 Z M143 53 C137 19 160 -8 193 -8 C227 -8 259 19 265 53 C271 86 249 114 215 114 C182 114 149 86 143 53 L143 53 Z " />
<glyph glyph-name="at" unicode="&#x40;" horiz-adv-x="543" d="M463 456 C450 472 429 480 400 480 C341 480 293 463 277 374 L254 239 C238 149 280 133 342 133 C365 133 396 142 420 170 L415 141 L507 141 L575 523 C591 613 534 630 450 630 L327 630 C236 630 168 618 152 523 L79 109 C62 14 124 -1 215 -1 L483 0 L496 76 L235 76 C197 76 171 84 177 115 L247 514 C253 545 281 554 319 554 L434 554 C469 554 477 535 472 508 L463 456 Z M424 236 C419 213 409 198 381 198 C351 198 350 217 354 241 L378 375 C382 399 390 417 420 417 C452 417 452 395 448 372 L424 236 Z " />
<glyph glyph-name="A" unicode="A" horiz-adv-x="421" d="M453 526 C469 616 404 634 320 634 C237 634 168 616 152 526 L60 0 L167 0 L216 283 L303 283 L254 0 L361 0 L453 526 Z M317 359 L230 359 L259 524 C263 548 276 567 309 567 C342 567 350 548 346 524 L317 359 Z " />
<glyph glyph-name="B" unicode="B" horiz-adv-x="412" d="M216 0 C298 0 365 19 380 109 L400 224 C410 283 384 312 346 323 C386 335 422 362 432 418 L450 521 C466 611 405 630 325 630 L171 630 L60 0 L216 0 Z M309 561 C339 561 347 541 343 517 L322 402 C318 379 304 360 274 360 L230 360 L265 561 L309 561 Z M297 246 L273 112 C269 88 256 69 226 69 L179 69 L217 289 L264 289 C293 289 301 270 297 246 L297 246 Z " />
<glyph glyph-name="C" unicode="C" horiz-adv-x="417" d="M77 101 C61 11 125 -8 209 -8 C292 -8 364 10 380 100 L398 202 L291 202 L273 100 C269 76 254 57 221 57 C188 57 180 76 184 100 L259 526 C263 549 278 568 311 568 C344 568 352 549 348 526 L330 425 L437 425 L455 525 C471 615 405 634 322 634 C238 634 168 615 152 525 L77 101 L77 101 Z " />
<glyph glyph-name="D" unicode="D" horiz-adv-x="422" d="M453 521 C469 611 408 630 328 630 L171 630 L60 0 L217 0 C297 0 365 19 381 109 L453 521 Z M346 517 L274 112 C270 88 256 69 226 69 L179 69 L265 561 L312 561 C342 561 350 541 346 517 L346 517 Z " />
<glyph glyph-name="E" unicode="E" horiz-adv-x="349" d="M264 552 L386 552 L400 630 L171 630 L60 0 L289 0 L302 77 L180 77 L217 286 L339 286 L353 363 L231 363 L264 552 L264 552 Z " />
<glyph glyph-name="F" unicode="F" horiz-adv-x="330" d="M264 552 L387 552 L401 630 L171 630 L60 0 L167 0 L217 286 L340 286 L354 363 L231 363 L264 552 L264 552 Z " />
<glyph glyph-name="G" unicode="G" horiz-adv-x="423" d="M330 425 L437 425 L455 525 C471 615 408 634 322 634 C238 634 168 615 152 525 L77 101 C61 11 125 -8 209 -8 C292 -8 364 11 380 101 L425 354 L274 354 L261 278 L305 278 L274 103 C270 80 254 61 222 61 C188 61 182 80 186 103 L260 523 C264 547 277 566 311 566 C343 566 352 547 348 523 L330 425 L330 425 Z " />
<glyph glyph-name="H" unicode="H" horiz-adv-x="421" d="M472 630 L365 630 L318 363 L231 363 L278 630 L171 630 L60 0 L167 0 L217 286 L304 286 L254 0 L361 0 L472 630 L472 630 Z " />
<glyph glyph-name="I" unicode="I" horiz-adv-x="288" d="M295 552 L340 552 L354 630 L155 630 L141 552 L187 552 L103 78 L57 78 L44 0 L243 0 L256 78 L211 78 L295 552 L295 552 Z " />
<glyph glyph-name="J" unicode="J" horiz-adv-x="387" d="M345 103 L438 630 L217 630 L203 552 L317 552 L238 105 C234 81 219 62 187 62 C153 62 146 81 150 105 L169 213 L62 213 L43 103 C27 13 90 -6 174 -6 C258 -6 329 13 345 103 L345 103 Z " />
<glyph glyph-name="K" unicode="K" horiz-adv-x="402" d="M383 0 L324 362 L490 630 L391 630 L232 371 L278 630 L171 630 L60 0 L167 0 L216 281 L229 281 L274 0 L383 0 L383 0 Z " />
<glyph glyph-name="L" unicode="L" horiz-adv-x="312" d="M303 77 L180 77 L278 630 L171 630 L60 0 L290 0 L303 77 L303 77 Z " />
<glyph glyph-name="M" unicode="M" horiz-adv-x="552" d="M603 630 L472 630 L309 186 L299 630 L171 630 L60 0 L146 0 L223 437 L231 0 L309 0 L471 437 L394 0 L492 0 L603 630 L603 630 Z " />
<glyph glyph-name="N" unicode="N" horiz-adv-x="421" d="M472 630 L388 630 L314 211 L271 630 L171 630 L60 0 L144 0 L214 398 L259 0 L361 0 L472 630 L472 630 Z " />
<glyph glyph-name="O" unicode="O" horiz-adv-x="423" d="M77 101 C61 11 128 -8 208 -8 C288 -8 364 11 380 101 L455 525 C471 615 401 634 321 634 C241 634 168 615 152 525 L77 101 Z M274 103 C270 80 251 61 220 61 C191 61 181 80 185 103 L259 523 C263 548 280 567 309 567 C340 567 352 548 348 523 L274 103 Z " />
<glyph glyph-name="P" unicode="P" horiz-adv-x="407" d="M453 521 C469 611 408 630 328 630 L171 630 L60 0 L168 0 L207 222 L259 222 C351 222 406 254 422 343 L453 521 Z M346 517 L313 332 C309 309 295 290 265 290 L219 290 L266 561 L312 561 C342 561 350 541 346 517 L346 517 Z " />
<glyph glyph-name="Q" unicode="Q" horiz-adv-x="423" d="M335 61 C355 61 378 86 380 101 L455 525 C471 615 402 634 322 634 C241 634 168 615 152 525 L77 101 C61 11 128 -8 209 -8 C209 -8 209 -8 377 -8 L389 61 L335 61 L335 61 Z M185 103 L259 523 C263 548 280 567 310 567 C340 567 352 548 348 523 L274 103 C270 80 251 61 221 61 C191 61 181 80 185 103 L185 103 Z " />
<glyph glyph-name="R" unicode="R" horiz-adv-x="407" d="M399 218 C409 274 386 303 352 316 C388 327 420 353 429 406 L449 521 C465 611 405 630 324 630 L171 630 L60 0 L167 0 L216 279 L263 279 C292 279 299 260 295 237 L254 0 L361 0 L399 218 Z M318 390 C314 367 302 348 271 348 L228 348 L265 561 L308 561 C339 561 345 541 341 517 L318 390 Z " />
<glyph glyph-name="S" unicode="S" horiz-adv-x="404" d="M67 97 C51 9 119 -8 200 -8 C282 -8 354 9 370 100 L387 196 C402 280 363 310 312 346 C261 380 228 400 240 468 L250 523 C254 548 268 566 300 566 C333 566 342 548 338 523 L320 425 L427 425 L446 529 C461 616 393 634 312 634 C231 634 158 616 142 526 L127 439 C110 343 157 318 207 284 C257 249 286 232 274 161 L263 102 C259 78 244 60 212 60 C179 60 171 78 175 102 L192 195 L84 195 L67 97 L67 97 Z " />
<glyph glyph-name="T" unicode="T" horiz-adv-x="347" d="M423 552 L437 630 L132 630 L118 552 L217 552 L120 0 L227 0 L324 552 L423 552 L423 552 Z " />
<glyph glyph-name="U" unicode="U" horiz-adv-x="422" d="M78 103 C62 13 125 -5 208 -5 C292 -5 364 13 380 103 L473 630 L365 630 L272 105 C268 82 254 63 221 63 C188 63 181 82 185 105 L278 630 L171 630 L78 103 L78 103 Z " />
<glyph glyph-name="V" unicode="V" horiz-adv-x="366" d="M462 630 L376 630 L220 154 L234 630 L126 630 L120 0 L246 0 L462 630 L462 630 Z " />
<glyph glyph-name="W" unicode="W" horiz-adv-x="579" d="M668 630 L580 630 L444 193 L457 630 L367 630 L225 200 L245 630 L132 630 L115 0 L229 0 L362 424 L349 0 L466 0 L668 630 L668 630 Z " />
<glyph glyph-name="X" unicode="X" horiz-adv-x="396" d="M254 0 L365 0 L302 333 L472 630 L381 630 L279 452 L246 630 L134 630 L195 306 L21 0 L111 0 L217 187 L254 0 L254 0 Z " />
<glyph glyph-name="Y" unicode="Y" horiz-adv-x="385" d="M469 630 L380 630 L259 345 L239 630 L131 630 L170 214 L133 0 L240 0 L277 213 L469 630 L469 630 Z " />
<glyph glyph-name="Z" unicode="Z" horiz-adv-x="352" d="M434 594 L441 630 L171 630 L157 552 L299 552 L44 45 L37 0 L326 0 L339 77 L172 77 L434 594 L434 594 Z " />
<glyph glyph-name="bracketleft" unicode="&#x5b;" horiz-adv-x="254" d="M263 621 L315 621 L328 695 L182 695 L58 -8 L204 -8 L217 66 L165 66 L263 621 L263 621 Z " />
<glyph glyph-name="backslash" unicode="&#x5c;" horiz-adv-x="279" d="M137 630 L168 0 L255 0 L228 630 L137 630 L137 630 Z " />
<glyph glyph-name="bracketright" unicode="&#x5d;" horiz-adv-x="254" d="M316 695 L171 695 L158 621 L209 621 L111 66 L60 66 L47 -8 L192 -8 L316 695 L316 695 Z " />
<glyph glyph-name="asciicircum" unicode="&#x5e;" horiz-adv-x="266" d="M256 502 L322 502 L293 630 L198 630 L124 502 L189 502 L234 565 L256 502 L256 502 Z " />
<glyph glyph-name="underscore" unicode="&#x5f;" horiz-adv-x="455" d="M71 75 L58 0 L395 0 L408 75 L71 75 L71 75 Z " />
<glyph glyph-name="grave" unicode="&#x60;" horiz-adv-x="206" d="M151 630 L181 502 L254 502 L250 630 L151 630 L151 630 Z " />
<glyph glyph-name="a" unicode="a" horiz-adv-x="403" d="M408 369 C424 460 365 478 285 478 C203 478 141 460 125 369 L60 0 L164 0 L197 189 L273 189 L240 0 L343 0 L408 369 Z M286 263 L210 263 L229 371 C233 394 243 413 273 413 C303 413 309 394 305 371 L286 263 Z " />
<glyph glyph-name="b" unicode="b" horiz-adv-x="397" d="M371 158 C381 210 363 234 326 245 C364 257 389 280 398 331 L403 361 C419 450 362 471 281 471 L143 471 L60 0 L196 0 C277 0 347 20 363 110 L371 158 Z M233 405 L269 405 C300 405 305 386 300 362 L293 321 C289 297 278 279 247 279 L211 279 L233 405 Z M271 172 L260 109 C255 85 244 66 214 66 L173 66 L199 214 L239 214 C269 214 275 195 271 172 L271 172 Z " />
<glyph glyph-name="c" unicode="c" horiz-adv-x="404" d="M78 103 C62 13 118 -6 200 -6 C280 -6 346 13 362 103 L378 193 L273 193 L256 101 C252 78 241 59 212 59 C182 59 179 78 183 101 L231 371 C235 395 244 414 274 414 C303 414 308 395 304 371 L288 280 L393 280 L409 369 C425 460 366 478 286 478 C204 478 141 460 125 369 L78 103 L78 103 Z " />
<glyph glyph-name="d" unicode="d" horiz-adv-x="403" d="M406 361 C422 450 359 471 279 471 L143 471 L60 0 L196 0 C276 0 346 20 362 110 L406 361 Z M301 362 L257 109 C252 85 237 66 207 66 L175 66 L235 405 L267 405 C297 405 306 386 301 362 L301 362 Z " />
<glyph glyph-name="e" unicode="e" horiz-adv-x="329" d="M233 396 L349 396 L363 471 L143 471 L60 0 L280 0 L293 75 L177 75 L200 207 L316 207 L329 281 L213 281 L233 396 L233 396 Z " />
<glyph glyph-name="f" unicode="f" horiz-adv-x="329" d="M233 396 L348 396 L362 471 L143 471 L60 0 L164 0 L200 207 L315 207 L328 281 L213 281 L233 396 L233 396 Z " />
<glyph glyph-name="g" unicode="g" horiz-adv-x="395" d="M295 319 L399 319 L408 369 C424 460 365 478 285 478 C203 478 141 460 125 369 L78 103 C62 13 117 -6 199 -6 C279 -6 345 13 361 103 L392 278 L249 278 L235 204 L274 204 L256 101 C252 78 241 59 211 59 C181 59 178 78 182 101 L230 371 C234 395 243 414 273 414 C303 414 308 395 304 371 L295 319 L295 319 Z " />
<glyph glyph-name="h" unicode="h" horiz-adv-x="404" d="M427 471 L322 471 L288 281 L212 281 L246 471 L143 471 L60 0 L163 0 L199 207 L275 207 L239 0 L344 0 L427 471 L427 471 Z " />
<glyph glyph-name="i" unicode="i" horiz-adv-x="283" d="M262 396 L312 396 L326 471 L124 471 L110 396 L159 396 L103 75 L54 75 L41 0 L243 0 L256 75 L206 75 L262 396 L262 396 Z " />
<glyph glyph-name="j" unicode="j" horiz-adv-x="374" d="M332 103 L397 471 L194 471 L180 396 L279 396 L227 101 C223 78 214 59 183 59 C153 59 149 78 153 101 L170 195 L65 195 L49 103 C33 13 90 -6 171 -6 C251 -6 316 13 332 103 L332 103 Z " />
<glyph glyph-name="k" unicode="k" horiz-adv-x="386" d="M211 221 L251 0 L361 0 L301 274 L435 471 L336 471 L214 283 L213 283 L247 471 L143 471 L60 0 L164 0 L202 221 L211 221 L211 221 Z " />
<glyph glyph-name="l" unicode="l" horiz-adv-x="314" d="M292 75 L177 75 L247 471 L143 471 L60 0 L279 0 L292 75 L292 75 Z " />
<glyph glyph-name="m" unicode="m" horiz-adv-x="512" d="M535 471 L402 471 L288 184 L273 471 L143 471 L60 0 L140 0 L202 354 L220 0 L277 0 L419 358 L356 0 L452 0 L535 471 L535 471 Z " />
<glyph glyph-name="n" unicode="n" horiz-adv-x="406" d="M429 471 L348 471 L293 163 L240 471 L143 471 L60 0 L140 0 L191 288 L245 0 L345 0 L429 471 L429 471 Z " />
<glyph glyph-name="o" unicode="o" horiz-adv-x="404" d="M78 103 C62 13 118 -6 200 -6 C280 -6 346 13 362 103 L409 369 C424 459 366 478 286 478 C204 478 140 459 125 369 L78 103 Z M256 101 C252 78 241 59 212 59 C182 59 179 78 183 101 L231 370 C235 395 244 413 274 413 C303 413 308 395 304 370 L256 101 Z " />
<glyph glyph-name="p" unicode="p" horiz-adv-x="382" d="M405 361 C421 450 359 471 279 471 L143 471 L60 0 L164 0 L190 151 L224 151 C316 151 374 184 390 274 L405 361 Z M301 362 L283 259 C279 234 263 216 234 216 L202 216 L235 405 L267 405 C296 405 306 386 301 362 L301 362 Z " />
<glyph glyph-name="q" unicode="q" horiz-adv-x="404" d="M327 59 C340 64 359 86 362 103 L409 369 C425 460 366 478 286 478 C204 478 141 460 125 369 L78 103 C62 13 118 -6 200 -6 L367 -6 L379 59 L348 59 L327 59 Z M183 101 L231 371 C235 395 244 414 274 414 C303 414 309 395 305 371 L257 101 C253 78 241 59 212 59 C182 59 179 78 183 101 L183 101 Z " />
<glyph glyph-name="r" unicode="r" horiz-adv-x="396" d="M368 142 C377 195 363 222 329 236 C362 249 386 276 394 323 L401 361 C417 450 361 471 280 471 L143 471 L60 0 L165 0 L200 199 L237 199 C268 199 269 180 265 156 L238 0 L343 0 L368 142 Z M288 307 C283 283 274 264 244 264 L211 264 L236 405 L269 405 C299 405 302 386 297 362 L288 307 Z " />
<glyph glyph-name="s" unicode="s" horiz-adv-x="402" d="M78 103 C61 11 121 -6 201 -6 C280 -6 345 11 361 101 L372 164 C391 270 207 252 220 324 L228 371 C232 396 243 414 274 414 C303 414 311 396 307 371 L295 306 L397 306 L409 371 C425 460 362 478 285 478 C206 478 141 460 125 371 L113 303 C94 193 279 215 267 146 L259 102 C255 77 245 59 213 59 C181 59 176 77 180 102 L192 165 L89 165 L78 103 L78 103 Z " />
<glyph glyph-name="t" unicode="t" horiz-adv-x="354" d="M388 396 L402 471 L118 471 L104 396 L194 396 L125 0 L229 0 L298 396 L388 396 L388 396 Z " />
<glyph glyph-name="u" unicode="u" horiz-adv-x="403" d="M78 103 C62 13 118 -5 200 -5 C280 -5 345 13 361 103 L426 471 L322 471 L256 102 C252 79 241 60 211 60 C181 60 178 79 182 102 L248 471 L143 471 L78 103 L78 103 Z " />
<glyph glyph-name="v" unicode="v" horiz-adv-x="373" d="M432 471 L348 471 L217 119 L210 471 L105 471 L126 0 L251 0 L432 471 L432 471 Z " />
<glyph glyph-name="w" unicode="w" horiz-adv-x="544" d="M601 471 L516 471 L401 153 L404 471 L328 471 L215 166 L223 471 L115 471 L113 0 L220 0 L325 289 L320 0 L424 0 L601 471 L601 471 Z " />
<glyph glyph-name="x" unicode="x" horiz-adv-x="369" d="M236 0 L345 0 L276 255 L419 471 L337 471 L251 345 L219 471 L106 471 L173 228 L20 0 L108 0 L198 137 L236 0 L236 0 Z " />
<glyph glyph-name="y" unicode="y" horiz-adv-x="403" d="M426 471 L322 471 L288 279 C283 255 272 236 242 236 C212 236 209 255 214 279 L248 471 L143 471 L109 280 C93 190 149 172 207 172 C233 172 254 178 272 190 L256 101 C252 78 242 59 213 59 C182 59 178 78 182 101 L190 146 L86 146 L79 103 C63 13 121 -6 201 -6 C282 -6 345 13 361 103 L426 471 L426 471 Z " />
<glyph glyph-name="z" unicode="z" horiz-adv-x="347" d="M375 424 L384 471 L134 471 L120 396 L251 396 L40 52 L31 0 L301 0 L314 75 L163 75 L375 424 L375 424 Z " />
<glyph glyph-name="braceleft" unicode="&#x7b;" horiz-adv-x="327" d="M218 349 C262 361 296 391 308 454 L329 578 C334 605 356 625 393 625 L405 697 C321 697 250 680 235 591 L208 438 C203 411 186 389 153 389 L122 389 L109 314 L140 314 C173 314 182 292 177 265 L148 98 C132 8 197 -8 281 -8 L294 64 C257 64 242 84 247 111 L271 244 C282 308 258 338 218 349 L218 349 Z " />
<glyph glyph-name="bar" unicode="&#x7c;" horiz-adv-x="209" d="M185 712 L58 -8 L147 -8 L274 712 L185 712 L185 712 Z " />
<glyph glyph-name="braceright" unicode="&#x7d;" horiz-adv-x="327" d="M341 389 L311 389 C277 389 269 411 274 438 L301 591 C316 680 251 697 167 697 L155 625 C191 625 206 605 201 578 L180 454 C168 391 192 361 232 349 C188 338 154 308 143 244 L119 111 C114 84 92 64 56 64 L43 -8 C127 -8 198 8 214 98 L243 265 C248 292 264 314 298 314 L328 314 L341 389 L341 389 Z " />
<glyph glyph-name="asciitilde" unicode="&#x7e;" horiz-adv-x="334" d="M178 350 C133 350 110 315 98 248 L157 248 C162 273 168 282 180 282 C201 282 224 248 260 248 C305 248 328 283 340 350 L281 350 C277 325 270 315 259 315 C240 315 215 350 178 350 L178 350 Z " />
<glyph glyph-name="exclamdown" unicode="&#xa1;" horiz-adv-x="221" d="M148 570 C142 536 165 508 198 508 C232 508 264 536 270 570 C276 603 254 631 220 631 C187 631 154 603 148 570 L148 570 Z M149 475 L48 -6 L170 -6 L238 474 L149 475 Z " />
<glyph glyph-name="cent" unicode="&#xa2;" horiz-adv-x="390" d="M155 72 L137 -30 L237 -30 L255 72 C309 79 348 105 361 177 L368 217 L268 217 L260 175 C256 152 248 133 219 133 C188 133 186 152 190 175 L235 427 C239 452 247 471 277 471 C308 471 309 452 305 427 L298 386 L398 386 L405 426 C417 497 388 524 336 532 L355 636 L255 636 L236 532 C183 523 147 496 135 426 L91 177 C78 107 105 81 155 72 L155 72 Z " />
<glyph glyph-name="sterling" unicode="&#xa3;" horiz-adv-x="487" d="M394 430 L501 430 L518 527 C534 618 467 636 386 636 C305 636 233 618 217 527 L187 357 L122 357 L109 282 L174 282 L156 178 C151 151 134 78 77 78 L77 78 L73 78 L60 0 L426 0 L439 78 L211 78 C238 104 256 139 263 178 L281 282 L356 282 L369 357 L294 357 L324 526 C328 549 345 568 375 568 C405 568 415 549 411 526 L394 430 L394 430 Z " />
<glyph glyph-name="yen" unicode="&#xa5;" horiz-adv-x="388" d="M312 283 L476 630 L387 630 L268 348 L246 630 L138 630 L174 283 L123 283 L110 207 L176 207 L167 156 L101 156 L88 80 L154 80 L140 0 L247 0 L261 80 L329 80 L342 156 L274 156 L283 207 L351 207 L364 283 L312 283 L312 283 Z " />
<glyph glyph-name="brokenbar" unicode="&#xa6;" horiz-adv-x="210" d="M185 712 L131 404 L221 404 L275 712 L185 712 Z M112 300 L58 -8 L148 -8 L202 300 L112 300 Z " />
<glyph glyph-name="section" unicode="&#xa7;" horiz-adv-x="421" d="M341 498 L448 498 L466 598 C481 685 413 703 332 703 C254 703 180 685 164 595 L110 288 C98 221 145 207 213 207 L247 207 C286 207 289 185 282 145 L264 41 C259 16 241 -2 210 -2 C177 -2 165 16 170 41 L185 127 L82 127 L66 36 C50 -52 119 -70 198 -70 C279 -70 351 -52 367 38 L422 346 C431 402 386 421 316 421 L283 421 C248 422 239 436 248 485 L267 593 C271 617 288 635 320 635 C352 635 362 617 358 593 L341 498 Z M225 357 C232 354 240 353 249 353 L275 353 C309 353 316 336 311 309 L305 273 C297 274 288 275 281 275 L257 275 C227 276 213 288 219 319 L225 357 Z " />
<glyph glyph-name="dieresis" unicode="&#xa8;" horiz-adv-x="355" d="M166 574 C160 544 182 519 213 519 C243 519 273 544 279 574 C284 605 263 630 233 630 C202 630 171 605 166 574 L166 574 Z M294 574 C288 544 309 519 341 519 C371 519 400 544 406 574 C411 605 391 630 361 630 C329 630 299 605 294 574 L294 574 Z " />
<glyph glyph-name="copyright" unicode="&#xa9;" horiz-adv-x="614" d="M89 166 C71 67 214 42 313 42 C412 42 565 67 583 166 L657 585 C674 681 597 700 429 700 C261 700 180 681 163 585 L89 166 Z M506 170 C499 128 456 106 324 106 C192 106 159 128 166 170 L238 574 C245 616 286 638 418 638 C550 638 585 616 578 574 L506 170 Z M243 225 C232 162 276 150 334 150 C392 150 442 162 453 225 L466 295 L391 295 L378 225 C375 208 365 195 342 195 C320 195 314 208 317 225 L369 520 C372 537 382 550 404 550 C427 550 433 537 430 520 L418 450 L493 450 L505 520 C516 582 470 595 412 595 C354 595 306 582 295 520 L243 225 Z " />
<glyph glyph-name="guillemotleft" unicode="&#xab;" horiz-adv-x="518" d="M359 514 L111 299 L283 83 L303 196 L226 300 L339 401 L359 514 Z M563 514 L315 299 L487 83 L507 196 L430 300 L543 401 L563 514 Z " />
<glyph glyph-name="registered" unicode="&#xae;" horiz-adv-x="615" d="M464 231 C473 280 463 305 439 318 C464 330 483 356 491 399 L497 434 C512 518 470 537 409 537 L306 537 L229 98 L307 98 L340 284 L368 284 C392 284 393 267 389 244 L363 98 L441 98 L464 231 Z M409 384 C405 362 398 344 375 344 L350 344 L373 475 L398 475 C421 475 422 458 418 436 L409 384 Z M648 528 C665 624 588 643 419 643 C252 643 170 624 153 528 L79 109 C61 10 204 -15 303 -15 C402 -15 556 10 574 109 L648 528 Z M568 517 L496 113 C489 71 447 49 314 49 C183 49 150 71 157 113 L229 517 C236 559 277 581 408 581 C541 581 575 559 568 517 L568 517 Z " />
<glyph glyph-name="degree" unicode="&#xb0;" horiz-adv-x="273" d="M144 541 C135 492 167 452 217 452 C267 452 312 492 321 541 C330 592 299 630 249 630 C199 630 153 592 144 541 L144 541 Z M271 541 C267 521 246 503 226 503 C205 503 191 521 195 541 C199 562 219 579 240 579 C260 579 275 562 271 541 L271 541 Z " />
<glyph glyph-name="plusminus" unicode="&#xb1;" horiz-adv-x="454" d="M72 76 L59 0 L393 0 L406 76 L72 76 Z M453 336 L324 336 L348 472 L272 472 L248 336 L119 336 L105 260 L235 260 L211 124 L286 124 L310 260 L439 260 L453 336 Z " />
<glyph glyph-name="acute" unicode="&#xb4;" horiz-adv-x="225" d="M191 630 L141 502 L212 502 L290 630 L191 630 L191 630 Z " />
<glyph glyph-name="mu" unicode="&#xb5;" horiz-adv-x="394" d="M414 454 L314 454 L252 104 C247 77 235 59 206 59 C177 59 173 76 178 103 L240 454 L140 454 L37 -126 L137 -126 L158 -8 L159 -8 C191 -8 221 8 245 33 L240 0 L334 0 L414 454 L414 454 Z " />
<glyph glyph-name="paragraph" unicode="&#xb6;" horiz-adv-x="541" d="M614 553 L628 630 L304 630 C223 630 169 620 152 523 L109 283 C92 185 143 176 224 176 L241 176 L186 -131 L289 -131 L410 553 L465 553 L344 -131 L447 -131 L568 553 L614 553 L614 553 Z " />
<glyph glyph-name="periodcentered" unicode="&#xb7;" horiz-adv-x="242" d="M112 300 C106 266 128 238 162 238 C195 238 228 266 234 300 C240 334 217 361 184 361 C150 361 118 334 112 300 L112 300 Z " />
<glyph glyph-name="cedilla" unicode="&#xb8;" horiz-adv-x="245" d="M186 -88 C193 -50 166 -42 141 -42 C133 -42 127 -43 119 -46 L148 0 L105 20 L51 -75 L91 -94 C98 -82 103 -76 112 -76 C126 -76 127 -85 124 -97 L117 -137 C115 -148 112 -157 98 -157 C84 -157 82 -148 84 -137 L86 -130 L25 -130 L21 -152 C14 -190 51 -203 90 -203 C128 -203 168 -190 175 -152 L186 -88 L186 -88 Z " />
<glyph glyph-name="guillemotright" unicode="&#xbb;" horiz-adv-x="520" d="M308 300 L136 515 L116 402 L194 301 L80 197 L60 84 L308 300 Z M512 300 L340 515 L320 402 L398 302 L284 197 L264 84 L512 300 Z " />
<glyph glyph-name="questiondown" unicode="&#xbf;" horiz-adv-x="390" d="M62 100 C47 14 106 -8 193 -8 C281 -8 350 14 365 100 L383 200 L275 200 L258 104 C253 79 237 60 205 60 C174 60 165 79 170 104 L180 162 C193 235 317 378 331 457 L335 480 L226 480 L223 460 C211 394 86 238 69 141 L62 100 Z M235 574 C229 539 251 512 285 512 C319 512 352 539 358 574 C364 607 340 635 306 635 C272 635 241 607 235 574 L235 574 Z " />
<glyph glyph-name="Agrave" unicode="&#xc0;" horiz-adv-x="421" d="M453 526 C469 616 404 634 320 634 C237 634 168 616 152 526 L60 0 L167 0 L216 283 L303 283 L254 0 L361 0 L453 526 Z M317 359 L230 359 L259 524 C263 548 276 567 309 567 C342 567 350 548 346 524 L317 359 Z M287 800 L317 672 L390 672 L386 800 L287 800 Z " />
<glyph glyph-name="Aacute" unicode="&#xc1;" horiz-adv-x="421" d="M453 526 C469 616 404 634 320 634 C237 634 168 616 152 526 L60 0 L167 0 L216 283 L303 283 L254 0 L361 0 L453 526 Z M317 359 L230 359 L259 524 C263 548 276 567 309 567 C342 567 350 548 346 524 L317 359 Z M315 797 L265 669 L336 669 L414 797 L315 797 Z " />
<glyph glyph-name="Acircumflex" unicode="&#xc2;" horiz-adv-x="421" d="M453 526 C469 616 404 634 320 634 C237 634 168 616 152 526 L60 0 L167 0 L216 283 L303 283 L254 0 L361 0 L453 526 Z M317 359 L230 359 L259 524 C263 548 276 567 309 567 C342 567 350 548 346 524 L317 359 Z M361 667 L427 667 L398 795 L303 795 L229 667 L294 667 L339 730 L361 667 Z " />
<glyph glyph-name="Atilde" unicode="&#xc3;" horiz-adv-x="421" d="M453 526 C469 616 404 634 320 634 C237 634 168 616 152 526 L60 0 L167 0 L216 283 L303 283 L254 0 L361 0 L453 526 Z M317 359 L230 359 L259 524 C263 548 276 567 309 567 C342 567 350 548 346 524 L317 359 Z M299 793 C254 793 231 758 219 691 L278 691 C283 716 289 725 301 725 C321 725 345 691 381 691 C426 691 450 726 461 793 L402 793 C398 768 391 758 380 758 C361 758 336 793 299 793 L299 793 Z " />
<glyph glyph-name="Adieresis" unicode="&#xc4;" horiz-adv-x="421" d="M453 526 C469 616 404 634 320 634 C237 634 168 616 152 526 L60 0 L167 0 L216 283 L303 283 L254 0 L361 0 L453 526 Z M317 359 L230 359 L259 524 C263 548 276 567 309 567 C342 567 350 548 346 524 L317 359 Z M218 735 C213 705 234 680 265 680 C295 680 326 705 331 735 C337 766 315 791 285 791 C254 791 224 766 218 735 L218 735 Z M346 735 C341 705 361 680 393 680 C423 680 453 705 458 735 C464 766 443 791 413 791 C381 791 352 766 346 735 L346 735 Z " />
<glyph glyph-name="Aring" unicode="&#xc5;" horiz-adv-x="421" d="M453 526 C469 616 404 634 320 634 C237 634 168 616 152 526 L60 0 L167 0 L216 283 L303 283 L254 0 L361 0 L453 526 Z M317 359 L230 359 L259 524 C263 548 276 567 309 567 C342 567 350 548 346 524 L317 359 Z M271 735 C264 696 289 665 328 665 C367 665 402 696 409 735 C416 774 391 803 352 803 C313 803 278 774 271 735 L271 735 Z M373 735 C370 716 352 702 334 702 C316 702 305 716 308 735 C311 753 328 767 346 767 C364 767 376 753 373 735 L373 735 Z " />
<glyph glyph-name="AE" unicode="&#xc6;" horiz-adv-x="540" d="M424 359 L458 553 L577 553 L591 630 L386 630 C366 634 344 635 320 635 C236 635 168 616 152 527 L60 0 L167 0 L217 284 L304 284 L254 0 L480 0 L493 77 L374 77 L411 284 L530 284 L543 359 L424 359 Z M317 359 L230 359 L259 525 C263 548 276 567 309 567 C341 567 350 548 346 525 L317 359 Z " />
<glyph glyph-name="Ccedilla" unicode="&#xc7;" horiz-adv-x="417" d="M77 101 C61 11 125 -8 209 -8 C292 -8 364 10 380 100 L398 202 L291 202 L273 100 C269 76 254 57 221 57 C188 57 180 76 184 100 L259 526 C263 549 278 568 311 568 C344 568 352 549 348 526 L330 425 L437 425 L455 525 C471 615 405 634 322 634 C238 634 168 615 152 525 L77 101 Z M269 -88 C276 -50 249 -42 224 -42 C216 -42 210 -43 202 -46 L231 0 L188 20 L134 -75 L174 -94 C181 -82 186 -76 195 -76 C209 -76 210 -85 207 -97 L200 -137 C198 -148 195 -157 181 -157 C167 -157 165 -148 167 -137 L169 -130 L108 -130 L104 -152 C97 -190 134 -203 173 -203 C211 -203 251 -190 258 -152 L269 -88 Z " />
<glyph glyph-name="Egrave" unicode="&#xc8;" horiz-adv-x="349" d="M264 552 L386 552 L400 630 L171 630 L60 0 L289 0 L302 77 L180 77 L217 286 L339 286 L353 363 L231 363 L264 552 Z M249 789 L279 661 L352 661 L348 789 L249 789 Z " />
<glyph glyph-name="Eacute" unicode="&#xc9;" horiz-adv-x="349" d="M264 552 L386 552 L400 630 L171 630 L60 0 L289 0 L302 77 L180 77 L217 286 L339 286 L353 363 L231 363 L264 552 Z M277 791 L227 663 L298 663 L376 791 L277 791 Z " />
<glyph glyph-name="Ecircumflex" unicode="&#xca;" horiz-adv-x="349" d="M264 552 L386 552 L400 630 L171 630 L60 0 L289 0 L302 77 L180 77 L217 286 L339 286 L353 363 L231 363 L264 552 Z M324 668 L390 668 L361 796 L266 796 L192 668 L257 668 L302 731 L324 668 Z " />
<glyph glyph-name="Edieresis" unicode="&#xcb;" horiz-adv-x="349" d="M264 552 L386 552 L400 630 L171 630 L60 0 L289 0 L302 77 L180 77 L217 286 L339 286 L353 363 L231 363 L264 552 Z M185 740 C180 710 201 685 232 685 C262 685 293 710 298 740 C303 771 282 796 252 796 C221 796 190 771 185 740 L185 740 Z M313 740 C308 710 328 685 360 685 C390 685 420 710 425 740 C430 771 410 796 380 796 C348 796 318 771 313 740 L313 740 Z " />
<glyph glyph-name="Igrave" unicode="&#xcc;" horiz-adv-x="288" d="M295 552 L340 552 L354 630 L155 630 L141 552 L187 552 L103 78 L57 78 L44 0 L243 0 L256 78 L211 78 L295 552 Z M219 789 L249 661 L322 661 L318 789 L219 789 Z " />
<glyph glyph-name="Iacute" unicode="&#xcd;" horiz-adv-x="288" d="M295 552 L340 552 L354 630 L155 630 L141 552 L187 552 L103 78 L57 78 L44 0 L243 0 L256 78 L211 78 L295 552 Z M247 793 L198 665 L269 665 L346 793 L247 793 Z " />
<glyph glyph-name="Icircumflex" unicode="&#xce;" horiz-adv-x="288" d="M295 552 L340 552 L354 630 L155 630 L141 552 L187 552 L103 78 L57 78 L44 0 L243 0 L256 78 L211 78 L295 552 Z M294 666 L360 666 L331 794 L236 794 L162 666 L227 666 L272 729 L294 666 Z " />
<glyph glyph-name="Idieresis" unicode="&#xcf;" horiz-adv-x="288" d="M295 552 L340 552 L354 630 L155 630 L141 552 L187 552 L103 78 L57 78 L44 0 L243 0 L256 78 L211 78 L295 552 Z M152 730 C147 700 169 675 200 675 C230 675 260 700 265 730 C271 761 249 786 219 786 C188 786 158 761 152 730 L152 730 Z M280 730 C275 700 296 675 328 675 C358 675 387 700 392 730 C398 761 377 786 347 786 C315 786 286 761 280 730 L280 730 Z " />
<glyph glyph-name="Eth" unicode="&#xd0;" horiz-adv-x="432" d="M463 521 C479 611 418 630 338 630 L182 630 L135 363 L94 363 L80 286 L121 286 L71 0 L227 0 C307 0 375 19 391 109 L463 521 Z M356 518 L284 113 C280 88 266 69 237 69 L190 69 L228 286 L269 286 L283 363 L242 363 L276 561 L323 561 C352 561 360 542 356 518 L356 518 Z " />
<glyph glyph-name="Ntilde" unicode="&#xd1;" horiz-adv-x="421" d="M472 630 L388 630 L314 211 L271 630 L171 630 L60 0 L144 0 L214 398 L259 0 L361 0 L472 630 Z M299 786 C254 786 231 751 219 684 L278 684 C283 709 289 718 301 718 C321 718 345 684 381 684 C426 684 449 719 461 786 L402 786 C398 761 391 751 380 751 C361 751 336 786 299 786 L299 786 Z " />
<glyph glyph-name="Ograve" unicode="&#xd2;" horiz-adv-x="423" d="M77 101 C61 11 128 -8 208 -8 C288 -8 364 11 380 101 L455 525 C471 615 401 634 321 634 C241 634 168 615 152 525 L77 101 Z M274 103 C270 80 251 61 220 61 C191 61 181 80 185 103 L259 523 C263 548 280 567 309 567 C340 567 352 548 348 523 L274 103 Z M287 792 L318 664 L391 664 L386 792 L287 792 Z " />
<glyph glyph-name="Oacute" unicode="&#xd3;" horiz-adv-x="423" d="M77 101 C61 11 128 -8 208 -8 C288 -8 364 11 380 101 L455 525 C471 615 401 634 321 634 C241 634 168 615 152 525 L77 101 Z M274 103 C270 80 251 61 220 61 C191 61 181 80 185 103 L259 523 C263 548 280 567 309 567 C340 567 352 548 348 523 L274 103 Z M312 790 L262 662 L333 662 L411 790 L312 790 Z " />
<glyph glyph-name="Ocircumflex" unicode="&#xd4;" horiz-adv-x="423" d="M77 101 C61 11 128 -8 208 -8 C288 -8 364 11 380 101 L455 525 C471 615 401 634 321 634 C241 634 168 615 152 525 L77 101 Z M274 103 C270 80 251 61 220 61 C191 61 181 80 185 103 L259 523 C263 548 280 567 309 567 C340 567 352 548 348 523 L274 103 Z M362 666 L428 666 L399 794 L304 794 L230 666 L295 666 L340 729 L362 666 Z " />
<glyph glyph-name="Otilde" unicode="&#xd5;" horiz-adv-x="423" d="M77 101 C61 11 128 -8 208 -8 C288 -8 364 11 380 101 L455 525 C471 615 401 634 321 634 C241 634 168 615 152 525 L77 101 Z M274 103 C270 80 251 61 220 61 C191 61 181 80 185 103 L259 523 C263 548 280 567 309 567 C340 567 352 548 348 523 L274 103 Z M298 787 C253 787 230 752 218 685 L277 685 C282 710 288 719 300 719 C320 719 344 685 380 685 C425 685 448 720 460 787 L401 787 C397 762 390 752 379 752 C360 752 335 787 298 787 L298 787 Z " />
<glyph glyph-name="Odieresis" unicode="&#xd6;" horiz-adv-x="423" d="M77 101 C61 11 128 -8 208 -8 C288 -8 364 11 380 101 L455 525 C471 615 401 634 321 634 C241 634 168 615 152 525 L77 101 Z M274 103 C270 80 251 61 220 61 C191 61 181 80 185 103 L259 523 C263 548 280 567 309 567 C340 567 352 548 348 523 L274 103 Z M219 740 C214 710 235 685 266 685 C296 685 327 710 332 740 C337 771 316 796 286 796 C255 796 224 771 219 740 L219 740 Z M347 740 C342 710 362 685 394 685 C424 685 454 710 459 740 C464 771 444 796 414 796 C382 796 352 771 347 740 L347 740 Z " />
<glyph glyph-name="multiply" unicode="&#xd7;" horiz-adv-x="366" d="M73 207 L117 154 L226 246 L302 154 L365 207 L288 300 L397 391 L353 445 L245 353 L168 445 L105 391 L182 300 L73 207 L73 207 Z " />
<glyph glyph-name="Oslash" unicode="&#xd8;" horiz-adv-x="422" d="M490 697 L416 697 L384 629 C365 632 344 634 321 634 C240 634 168 615 152 525 L77 101 C70 60 79 34 102 18 L55 -81 L129 -81 L164 -5 C178 -7 193 -8 208 -8 C288 -8 363 11 379 101 L454 525 C460 557 455 579 443 595 L490 697 L490 697 Z M259 523 C263 547 280 566 309 566 C330 566 342 557 346 545 L212 256 L259 523 L259 523 Z M273 103 C268 79 251 60 220 60 C210 60 202 62 197 66 L308 306 L273 103 L273 103 Z " />
<glyph glyph-name="Ugrave" unicode="&#xd9;" horiz-adv-x="422" d="M78 103 C62 13 125 -5 208 -5 C292 -5 364 13 380 103 L473 630 L365 630 L272 105 C268 82 254 63 221 63 C188 63 181 82 185 105 L278 630 L171 630 L78 103 Z M288 791 L318 663 L391 663 L387 791 L288 791 Z " />
<glyph glyph-name="Uacute" unicode="&#xda;" horiz-adv-x="422" d="M78 103 C62 13 125 -5 208 -5 C292 -5 364 13 380 103 L473 630 L365 630 L272 105 C268 82 254 63 221 63 C188 63 181 82 185 105 L278 630 L171 630 L78 103 Z M315 790 L265 662 L336 662 L414 790 L315 790 Z " />
<glyph glyph-name="Ucircumflex" unicode="&#xdb;" horiz-adv-x="422" d="M78 103 C62 13 125 -5 208 -5 C292 -5 364 13 380 103 L473 630 L365 630 L272 105 C268 82 254 63 221 63 C188 63 181 82 185 105 L278 630 L171 630 L78 103 Z M362 665 L428 665 L398 793 L303 793 L230 665 L295 665 L340 728 L362 665 Z " />
<glyph glyph-name="Udieresis" unicode="&#xdc;" horiz-adv-x="422" d="M78 103 C62 13 125 -5 208 -5 C292 -5 364 13 380 103 L473 630 L365 630 L272 105 C268 82 254 63 221 63 C188 63 181 82 185 105 L278 630 L171 630 L78 103 Z M219 728 C214 698 235 673 266 673 C296 673 327 698 332 728 C337 759 316 784 286 784 C255 784 224 759 219 728 L219 728 Z M347 728 C342 698 362 673 394 673 C424 673 454 698 459 728 C464 759 444 784 414 784 C382 784 352 759 347 728 L347 728 Z " />
<glyph glyph-name="Yacute" unicode="&#xdd;" horiz-adv-x="385" d="M469 630 L380 630 L259 345 L239 630 L131 630 L170 214 L133 0 L240 0 L277 213 L469 630 Z M296 791 L246 663 L317 663 L395 791 L296 791 Z " />
<glyph glyph-name="Thorn" unicode="&#xde;" horiz-adv-x="403" d="M279 471 L248 471 L274 621 L169 621 L143 471 L86 149 L60 0 L165 0 L191 149 L222 149 C302 149 372 170 388 260 L391 274 L404 346 L406 361 C422 451 359 471 279 471 L279 471 Z M203 216 L236 405 L267 405 C268 405 269 405 270 405 C297 403 305 385 301 361 L283 259 C279 235 264 217 237 216 C236 216 235 216 234 216 L203 216 L203 216 Z " />
<glyph glyph-name="germandbls" unicode="&#xdf;" horiz-adv-x="371" d="M325 326 C368 337 396 365 407 428 L425 530 C440 618 394 639 307 639 C220 639 168 618 153 530 L38 -122 L138 -122 L253 530 C257 555 267 574 296 574 C326 574 329 555 325 530 L303 408 C299 383 287 362 257 362 L248 362 L237 295 L246 295 C276 295 279 272 275 249 L252 114 C247 87 235 68 205 68 L196 68 L185 0 L194 0 C276 0 334 17 350 104 L371 224 C382 287 364 314 325 326 L325 326 Z " />
<glyph glyph-name="agrave" unicode="&#xe0;" horiz-adv-x="403" d="M408 369 C424 460 365 478 285 478 C203 478 141 460 125 369 L60 0 L164 0 L197 189 L273 189 L240 0 L343 0 L408 369 Z M286 263 L210 263 L229 371 C233 394 243 413 273 413 C303 413 309 394 305 371 L286 263 Z M249 630 L279 502 L352 502 L348 630 L249 630 Z " />
<glyph glyph-name="aacute" unicode="&#xe1;" horiz-adv-x="403" d="M408 369 C424 460 365 478 285 478 C203 478 141 460 125 369 L60 0 L164 0 L197 189 L273 189 L240 0 L343 0 L408 369 Z M286 263 L210 263 L229 371 C233 394 243 413 273 413 C303 413 309 394 305 371 L286 263 Z M276 630 L226 502 L297 502 L375 630 L276 630 Z " />
<glyph glyph-name="acircumflex" unicode="&#xe2;" horiz-adv-x="403" d="M408 369 C424 460 365 478 285 478 C203 478 141 460 125 369 L60 0 L164 0 L197 189 L273 189 L240 0 L343 0 L408 369 Z M286 263 L210 263 L229 371 C233 394 243 413 273 413 C303 413 309 394 305 371 L286 263 Z M322 502 L388 502 L359 630 L264 630 L190 502 L255 502 L300 565 L322 502 Z " />
<glyph glyph-name="atilde" unicode="&#xe3;" horiz-adv-x="403" d="M408 369 C424 460 365 478 285 478 C203 478 141 460 125 369 L60 0 L164 0 L197 189 L273 189 L240 0 L343 0 L408 369 Z M286 263 L210 263 L229 371 C233 394 243 413 273 413 C303 413 309 394 305 371 L286 263 Z M262 630 C217 630 193 595 182 528 L241 528 C245 553 252 562 264 562 C284 562 308 528 344 528 C389 528 412 563 424 630 L365 630 C360 605 353 595 342 595 C323 595 299 630 262 630 L262 630 Z " />
<glyph glyph-name="adieresis" unicode="&#xe4;" horiz-adv-x="403" d="M408 369 C424 460 365 478 285 478 C203 478 141 460 125 369 L60 0 L164 0 L197 189 L273 189 L240 0 L343 0 L408 369 Z M286 263 L210 263 L229 371 C233 394 243 413 273 413 C303 413 309 394 305 371 L286 263 Z M182 574 C176 544 198 519 229 519 C259 519 289 544 295 574 C300 605 279 630 249 630 C218 630 187 605 182 574 L182 574 Z M310 574 C304 544 325 519 357 519 C387 519 416 544 422 574 C427 605 407 630 377 630 C345 630 315 605 310 574 L310 574 Z " />
<glyph glyph-name="aring" unicode="&#xe5;" horiz-adv-x="403" d="M408 369 C424 460 365 478 285 478 C203 478 141 460 125 369 L60 0 L164 0 L197 189 L273 189 L240 0 L343 0 L408 369 Z M286 263 L210 263 L229 371 C233 394 243 413 273 413 C303 413 309 394 305 371 L286 263 Z M231 566 C224 527 249 496 288 496 C327 496 362 527 369 566 C376 605 351 634 312 634 C273 634 238 605 231 566 L231 566 Z M333 566 C330 547 312 533 294 533 C276 533 265 547 268 566 C271 584 288 598 306 598 C324 598 336 584 333 566 L333 566 Z " />
<glyph glyph-name="ae" unicode="&#xe6;" horiz-adv-x="510" d="M414 396 L529 396 L543 472 L350 472 C330 476 309 478 285 478 C203 478 141 460 125 370 L60 0 L163 0 L198 204 L275 204 L240 0 L458 0 L471 76 L358 76 L380 204 L493 204 L507 280 L394 280 L414 396 Z M289 280 L212 280 L228 371 C232 394 243 413 273 413 C302 413 309 394 305 371 L289 280 Z " />
<glyph glyph-name="ccedilla" unicode="&#xe7;" horiz-adv-x="404" d="M78 103 C62 13 118 -6 200 -6 C280 -6 346 13 362 103 L378 193 L273 193 L256 101 C252 78 241 59 212 59 C182 59 179 78 183 101 L231 371 C235 395 244 414 274 414 C303 414 308 395 304 371 L288 280 L393 280 L409 369 C425 460 366 478 286 478 C204 478 141 460 125 369 L78 103 Z M263 -88 C270 -50 243 -42 218 -42 C210 -42 204 -43 196 -46 L225 0 L182 20 L128 -75 L168 -94 C175 -82 180 -76 189 -76 C203 -76 204 -85 201 -97 L194 -137 C192 -148 189 -157 175 -157 C161 -157 159 -148 161 -137 L163 -130 L102 -130 L98 -152 C91 -190 128 -203 167 -203 C205 -203 245 -190 252 -152 L263 -88 Z " />
<glyph glyph-name="egrave" unicode="&#xe8;" horiz-adv-x="329" d="M233 396 L349 396 L363 471 L143 471 L60 0 L280 0 L293 75 L177 75 L200 207 L316 207 L329 281 L213 281 L233 396 Z M212 630 L242 502 L315 502 L311 630 L212 630 Z " />
<glyph glyph-name="eacute" unicode="&#xe9;" horiz-adv-x="329" d="M233 396 L349 396 L363 471 L143 471 L60 0 L280 0 L293 75 L177 75 L200 207 L316 207 L329 281 L213 281 L233 396 Z M239 630 L189 502 L260 502 L338 630 L239 630 Z " />
<glyph glyph-name="ecircumflex" unicode="&#xea;" horiz-adv-x="329" d="M233 396 L349 396 L363 471 L143 471 L60 0 L280 0 L293 75 L177 75 L200 207 L316 207 L329 281 L213 281 L233 396 Z M285 502 L351 502 L322 630 L227 630 L153 502 L218 502 L263 565 L285 502 Z " />
<glyph glyph-name="edieresis" unicode="&#xeb;" horiz-adv-x="329" d="M233 396 L349 396 L363 471 L143 471 L60 0 L280 0 L293 75 L177 75 L200 207 L316 207 L329 281 L213 281 L233 396 Z M146 574 C140 544 162 519 193 519 C223 519 253 544 259 574 C264 605 243 630 213 630 C182 630 151 605 146 574 L146 574 Z M274 574 C268 544 289 519 321 519 C351 519 380 544 386 574 C391 605 371 630 341 630 C309 630 279 605 274 574 L274 574 Z " />
<glyph glyph-name="igrave" unicode="&#xec;" horiz-adv-x="283" d="M262 396 L312 396 L326 471 L124 471 L110 396 L159 396 L103 75 L54 75 L41 0 L243 0 L256 75 L206 75 L262 396 Z M189 630 L219 502 L292 502 L288 630 L189 630 Z " />
<glyph glyph-name="iacute" unicode="&#xed;" horiz-adv-x="283" d="M262 396 L312 396 L326 471 L124 471 L110 396 L159 396 L103 75 L54 75 L41 0 L243 0 L256 75 L206 75 L262 396 Z M216 630 L166 502 L237 502 L315 630 L216 630 Z " />
<glyph glyph-name="icircumflex" unicode="&#xee;" horiz-adv-x="283" d="M262 396 L312 396 L326 471 L124 471 L110 396 L159 396 L103 75 L54 75 L41 0 L243 0 L256 75 L206 75 L262 396 Z M262 502 L328 502 L299 630 L204 630 L130 502 L195 502 L240 565 L262 502 Z " />
<glyph glyph-name="idieresis" unicode="&#xef;" horiz-adv-x="283" d="M262 396 L312 396 L326 471 L124 471 L110 396 L159 396 L103 75 L54 75 L41 0 L243 0 L256 75 L206 75 L262 396 Z M123 574 C117 544 139 519 170 519 C200 519 230 544 236 574 C241 605 220 630 190 630 C159 630 128 605 123 574 L123 574 Z M251 574 C245 544 266 519 298 519 C328 519 357 544 363 574 C368 605 348 630 318 630 C286 630 256 605 251 574 L251 574 Z " />
<glyph glyph-name="ntilde" unicode="&#xf1;" horiz-adv-x="406" d="M429 471 L348 471 L293 163 L240 471 L143 471 L60 0 L140 0 L191 288 L245 0 L345 0 L429 471 Z M264 630 C219 630 195 595 184 528 L243 528 C247 553 254 562 266 562 C286 562 310 528 346 528 C391 528 414 563 426 630 L367 630 C362 605 355 595 344 595 C325 595 301 630 264 630 L264 630 Z " />
<glyph glyph-name="ograve" unicode="&#xf2;" horiz-adv-x="404" d="M78 103 C62 13 118 -6 200 -6 C280 -6 346 13 362 103 L409 369 C424 459 366 478 286 478 C204 478 140 459 125 369 L78 103 Z M256 101 C252 78 241 59 212 59 C182 59 179 78 183 101 L231 370 C235 395 244 413 274 413 C303 413 308 395 304 370 L256 101 Z M250 630 L280 502 L353 502 L349 630 L250 630 Z " />
<glyph glyph-name="oacute" unicode="&#xf3;" horiz-adv-x="404" d="M78 103 C62 13 118 -6 200 -6 C280 -6 346 13 362 103 L409 369 C424 459 366 478 286 478 C204 478 140 459 125 369 L78 103 Z M256 101 C252 78 241 59 212 59 C182 59 179 78 183 101 L231 370 C235 395 244 413 274 413 C303 413 308 395 304 370 L256 101 Z M277 630 L227 502 L298 502 L376 630 L277 630 Z " />
<glyph glyph-name="ocircumflex" unicode="&#xf4;" horiz-adv-x="404" d="M78 103 C62 13 118 -6 200 -6 C280 -6 346 13 362 103 L409 369 C424 459 366 478 286 478 C204 478 140 459 125 369 L78 103 Z M256 101 C252 78 241 59 212 59 C182 59 179 78 183 101 L231 370 C235 395 244 413 274 413 C303 413 308 395 304 370 L256 101 Z M323 502 L389 502 L360 630 L265 630 L191 502 L256 502 L301 565 L323 502 Z " />
<glyph glyph-name="otilde" unicode="&#xf5;" horiz-adv-x="404" d="M78 103 C62 13 118 -6 200 -6 C280 -6 346 13 362 103 L409 369 C424 459 366 478 286 478 C204 478 140 459 125 369 L78 103 Z M256 101 C252 78 241 59 212 59 C182 59 179 78 183 101 L231 370 C235 395 244 413 274 413 C303 413 308 395 304 370 L256 101 Z M263 630 C218 630 194 595 183 528 L242 528 C246 553 253 562 265 562 C285 562 309 528 345 528 C390 528 413 563 425 630 L366 630 C361 605 354 595 343 595 C324 595 300 630 263 630 L263 630 Z " />
<glyph glyph-name="odieresis" unicode="&#xf6;" horiz-adv-x="404" d="M78 103 C62 13 118 -6 200 -6 C280 -6 346 13 362 103 L409 369 C424 459 366 478 286 478 C204 478 140 459 125 369 L78 103 Z M256 101 C252 78 241 59 212 59 C182 59 179 78 183 101 L231 370 C235 395 244 413 274 413 C303 413 308 395 304 370 L256 101 Z M183 574 C177 544 199 519 230 519 C260 519 290 544 296 574 C301 605 280 630 250 630 C219 630 188 605 183 574 L183 574 Z M311 574 C305 544 326 519 358 519 C388 519 417 544 423 574 C428 605 408 630 378 630 C346 630 316 605 311 574 L311 574 Z " />
<glyph glyph-name="divide" unicode="&#xf7;" horiz-adv-x="456" d="M118 333 L105 258 L441 258 L454 333 L118 333 Z M250 471 C244 438 266 410 300 410 C333 410 366 438 372 471 C378 505 354 533 321 533 C287 533 256 505 250 471 L250 471 Z M185 106 C179 73 201 45 235 45 C268 45 301 73 307 106 C313 139 290 167 257 167 C223 167 191 139 185 106 L185 106 Z " />
<glyph glyph-name="oslash" unicode="&#xf8;" horiz-adv-x="403" d="M386 454 L418 541 L348 541 L323 476 C312 477 298 478 285 478 C203 478 140 459 125 369 L78 103 C69 55 81 27 106 12 L71 -80 L141 -80 L168 -6 C178 -6 188 -6 199 -6 C279 -6 345 12 361 103 L408 369 C415 411 406 438 386 454 L386 454 Z M230 370 C234 394 243 413 273 413 C281 413 288 412 293 409 L203 218 L230 370 L230 370 Z M211 58 C207 58 203 59 199 60 L278 226 L256 101 C252 77 240 58 211 58 L211 58 Z " />
<glyph glyph-name="ugrave" unicode="&#xf9;" horiz-adv-x="403" d="M78 103 C62 13 118 -5 200 -5 C280 -5 345 13 361 103 L426 471 L322 471 L256 102 C252 79 241 60 211 60 C181 60 178 79 182 102 L248 471 L143 471 L78 103 Z M249 630 L279 502 L352 502 L348 630 L249 630 Z " />
<glyph glyph-name="uacute" unicode="&#xfa;" horiz-adv-x="403" d="M78 103 C62 13 118 -5 200 -5 C280 -5 345 13 361 103 L426 471 L322 471 L256 102 C252 79 241 60 211 60 C181 60 178 79 182 102 L248 471 L143 471 L78 103 Z M276 630 L226 502 L297 502 L375 630 L276 630 Z " />
<glyph glyph-name="ucircumflex" unicode="&#xfb;" horiz-adv-x="403" d="M78 103 C62 13 118 -5 200 -5 C280 -5 345 13 361 103 L426 471 L322 471 L256 102 C252 79 241 60 211 60 C181 60 178 79 182 102 L248 471 L143 471 L78 103 Z M322 502 L388 502 L359 630 L264 630 L190 502 L255 502 L300 565 L322 502 Z " />
<glyph glyph-name="udieresis" unicode="&#xfc;" horiz-adv-x="403" d="M78 103 C62 13 118 -5 200 -5 C280 -5 345 13 361 103 L426 471 L322 471 L256 102 C252 79 241 60 211 60 C181 60 178 79 182 102 L248 471 L143 471 L78 103 Z M182 574 C176 544 198 519 229 519 C259 519 289 544 295 574 C300 605 279 630 249 630 C218 630 187 605 182 574 L182 574 Z M310 574 C304 544 325 519 357 519 C387 519 416 544 422 574 C427 605 407 630 377 630 C345 630 315 605 310 574 L310 574 Z " />
<glyph glyph-name="yacute" unicode="&#xfd;" horiz-adv-x="403" d="M426 471 L322 471 L288 279 C283 255 272 236 242 236 C212 236 209 255 214 279 L248 471 L143 471 L109 280 C93 190 149 172 207 172 C233 172 254 178 272 190 L256 101 C252 78 242 59 213 59 C182 59 178 78 182 101 L190 146 L86 146 L79 103 C63 13 121 -6 201 -6 C282 -6 345 13 361 103 L426 471 Z M276 630 L226 502 L297 502 L375 630 L276 630 Z " />
<glyph glyph-name="thorn" unicode="&#xfe;" horiz-adv-x="422" d="M301 480 L251 480 L290 700 L183 700 L144 480 L72 70 L33 -150 L140 -150 L179 70 L229 70 C309 70 377 89 393 179 L396 193 L424 356 L427 371 C443 461 381 480 301 480 L301 480 Z M238 140 L191 140 L239 410 L286 410 C287 410 288 410 289 410 C317 409 323 391 319 367 L287 183 C283 159 269 141 241 140 C240 140 239 140 238 140 L238 140 Z " />
<glyph glyph-name="ydieresis" unicode="&#xff;" horiz-adv-x="403" d="M426 471 L322 471 L288 279 C283 255 272 236 242 236 C212 236 209 255 214 279 L248 471 L143 471 L109 280 C93 190 149 172 207 172 C233 172 254 178 272 190 L256 101 C252 78 242 59 213 59 C182 59 178 78 182 101 L190 146 L86 146 L79 103 C63 13 121 -6 201 -6 C282 -6 345 13 361 103 L426 471 Z M182 574 C176 544 198 519 229 519 C259 519 289 544 295 574 C300 605 279 630 249 630 C218 630 187 605 182 574 L182 574 Z M310 574 C304 544 325 519 357 519 C387 519 416 544 422 574 C427 605 407 630 377 630 C345 630 315 605 310 574 L310 574 Z " />
<glyph glyph-name="Amacron" unicode="&#x100;" horiz-adv-x="421" d="M222 733 L209 663 L447 663 L460 733 L222 733 Z M453 526 C469 616 404 634 320 634 C237 634 168 616 152 526 L60 0 L167 0 L216 283 L303 283 L254 0 L361 0 L453 526 Z M317 359 L230 359 L259 524 C263 548 276 567 309 567 C342 567 350 548 346 524 L317 359 Z " />
<glyph glyph-name="amacron" unicode="&#x101;" horiz-adv-x="403" d="M185 590 L172 520 L410 520 L423 590 L185 590 Z M408 369 C424 460 365 478 285 478 C203 478 141 460 125 369 L60 0 L164 0 L197 189 L273 189 L240 0 L343 0 L408 369 Z M286 263 L210 263 L229 371 C233 394 243 413 273 413 C303 413 309 394 305 371 L286 263 Z " />
<glyph glyph-name="Abreve" unicode="&#x102;" horiz-adv-x="421" d="M453 526 C469 616 404 634 320 634 C237 634 168 616 152 526 L60 0 L167 0 L216 283 L303 283 L254 0 L361 0 L453 526 Z M317 359 L230 359 L259 524 C263 548 276 567 309 567 C342 567 350 548 346 524 L317 359 Z M251 750 C243 705 258 665 324 663 C382 663 419 699 429 750 L367 750 C364 734 354 718 334 718 C325 718 308 725 313 750 L251 750 Z " />
<glyph glyph-name="abreve" unicode="&#x103;" horiz-adv-x="403" d="M408 369 C424 460 365 478 285 478 C203 478 141 460 125 369 L60 0 L164 0 L197 189 L273 189 L240 0 L343 0 L408 369 Z M286 263 L210 263 L229 371 C233 394 243 413 273 413 C303 413 309 394 305 371 L286 263 Z M223 630 C215 585 230 545 296 543 C354 543 391 579 401 630 L339 630 C336 614 326 598 306 598 C297 598 280 605 285 630 L223 630 Z " />
<glyph glyph-name="Aogonek" unicode="&#x104;" horiz-adv-x="421" d="M453 526 C469 616 404 634 320 634 C237 634 168 616 152 526 L60 0 L167 0 L216 283 L303 283 L254 0 L361 0 L453 526 Z M317 359 L230 359 L259 524 C263 548 276 567 309 567 C342 567 350 548 346 524 L317 359 Z M270 15 C178 -35 160 -154 258 -154 C292 -154 316 -148 337 -136 L331 -91 C321 -95 302 -102 290 -102 C233 -102 276 -31 299 0 L270 15 Z " />
<glyph glyph-name="aogonek" unicode="&#x105;" horiz-adv-x="403" d="M408 369 C424 460 365 478 285 478 C203 478 141 460 125 369 L60 0 L164 0 L197 189 L273 189 L240 0 L343 0 L408 369 Z M286 263 L210 263 L229 371 C233 394 243 413 273 413 C303 413 309 394 305 371 L286 263 Z M252 15 C160 -35 142 -154 240 -154 C274 -154 298 -148 319 -136 L313 -91 C303 -95 284 -102 272 -102 C215 -102 258 -31 281 0 L252 15 Z " />
<glyph glyph-name="Cacute" unicode="&#x106;" horiz-adv-x="417" d="M77 101 C61 11 125 -8 209 -8 C292 -8 364 10 380 100 L398 202 L291 202 L273 100 C269 76 254 57 221 57 C188 57 180 76 184 100 L259 526 C263 549 278 568 311 568 C344 568 352 549 348 526 L330 425 L437 425 L455 525 C471 615 405 634 322 634 C238 634 168 615 152 525 L77 101 Z M309 788 L260 660 L331 660 L408 788 L309 788 Z " />
<glyph glyph-name="cacute" unicode="&#x107;" horiz-adv-x="404" d="M78 103 C62 13 118 -6 200 -6 C280 -6 346 13 362 103 L378 193 L273 193 L256 101 C252 78 241 59 212 59 C182 59 179 78 183 101 L231 371 C235 395 244 414 274 414 C303 414 308 395 304 371 L288 280 L393 280 L409 369 C425 460 366 478 286 478 C204 478 141 460 125 369 L78 103 Z M277 630 L227 502 L298 502 L376 630 L277 630 Z " />
<glyph glyph-name="Ccaron" unicode="&#x10c;" horiz-adv-x="417" d="M77 101 C61 11 125 -8 209 -8 C292 -8 364 10 380 100 L398 202 L291 202 L273 100 C269 76 254 57 221 57 C188 57 180 76 184 100 L259 526 C263 549 278 568 311 568 C344 568 352 549 348 526 L330 425 L437 425 L455 525 C471 615 405 634 322 634 C238 634 168 615 152 525 L77 101 Z M446 782 L380 782 L336 719 L313 782 L248 782 L277 654 L373 654 L446 782 Z " />
<glyph glyph-name="ccaron" unicode="&#x10d;" horiz-adv-x="404" d="M78 103 C62 13 118 -6 200 -6 C280 -6 346 13 362 103 L378 193 L273 193 L256 101 C252 78 241 59 212 59 C182 59 179 78 183 101 L231 371 C235 395 244 414 274 414 C303 414 308 395 304 371 L288 280 L393 280 L409 369 C425 460 366 478 286 478 C204 478 141 460 125 369 L78 103 Z M410 621 L344 621 L300 558 L277 621 L212 621 L240 493 L336 493 L410 621 Z " />
<glyph glyph-name="Dcaron" unicode="&#x10e;" horiz-adv-x="422" d="M453 521 C469 611 408 630 328 630 L171 630 L60 0 L217 0 C297 0 365 19 381 109 L453 521 Z M346 517 L274 112 C270 88 256 69 226 69 L179 69 L265 561 L312 561 C342 561 350 541 346 517 L346 517 Z M443 782 L377 782 L333 719 L310 782 L245 782 L274 654 L370 654 L443 782 Z " />
<glyph glyph-name="dcaron" unicode="&#x10f;" horiz-adv-x="561" d="M406 361 C422 450 359 471 279 471 L143 471 L60 0 L196 0 C276 0 346 20 362 110 L406 361 Z M301 362 L257 109 C252 85 237 66 207 66 L175 66 L235 405 L267 405 C297 405 306 386 301 362 L301 362 Z M446 288 L440 253 C514 255 563 318 573 378 L591 477 L484 477 L463 359 L505 359 C497 320 478 295 446 288 L446 288 Z " />
<glyph glyph-name="Emacron" unicode="&#x112;" horiz-adv-x="349" d="M186 732 L173 662 L411 662 L424 732 L186 732 Z M264 552 L386 552 L400 630 L171 630 L60 0 L289 0 L302 77 L180 77 L217 286 L339 286 L353 363 L231 363 L264 552 Z " />
<glyph glyph-name="emacron" unicode="&#x113;" horiz-adv-x="329" d="M158 581 L146 511 L384 511 L396 581 L158 581 Z M233 396 L349 396 L363 471 L143 471 L60 0 L280 0 L293 75 L177 75 L200 207 L316 207 L329 281 L213 281 L233 396 Z " />
<glyph glyph-name="Edotaccent" unicode="&#x116;" horiz-adv-x="349" d="M264 552 L386 552 L400 630 L171 630 L60 0 L289 0 L302 77 L180 77 L217 286 L339 286 L353 363 L231 363 L264 552 Z M235 719 C229 686 253 658 287 658 C320 658 352 686 358 719 C364 753 341 780 308 780 C274 780 241 753 235 719 L235 719 Z " />
<glyph glyph-name="edotaccent" unicode="&#x117;" horiz-adv-x="329" d="M233 396 L349 396 L363 471 L143 471 L60 0 L280 0 L293 75 L177 75 L200 207 L316 207 L329 281 L213 281 L233 396 Z M204 573 C198 540 221 512 255 512 C288 512 321 540 327 573 C333 607 309 634 276 634 C242 634 210 607 204 573 L204 573 Z " />
<glyph glyph-name="Eogonek" unicode="&#x118;" horiz-adv-x="349" d="M264 552 L386 552 L400 630 L171 630 L60 0 L289 0 L302 77 L180 77 L217 286 L339 286 L353 363 L231 363 L264 552 Z M198 15 C106 -35 88 -154 186 -154 C220 -154 244 -148 265 -136 L259 -91 C249 -95 230 -102 218 -102 C161 -102 204 -31 227 0 L198 15 Z " />
<glyph glyph-name="eogonek" unicode="&#x119;" horiz-adv-x="329" d="M233 396 L349 396 L363 471 L143 471 L60 0 L280 0 L293 75 L177 75 L200 207 L316 207 L329 281 L213 281 L233 396 Z M189 15 C97 -35 79 -154 177 -154 C211 -154 235 -148 256 -136 L250 -91 C240 -95 221 -102 209 -102 C152 -102 195 -31 218 0 L189 15 Z " />
<glyph glyph-name="Ecaron" unicode="&#x11a;" horiz-adv-x="349" d="M264 552 L386 552 L400 630 L171 630 L60 0 L289 0 L302 77 L180 77 L217 286 L339 286 L353 363 L231 363 L264 552 Z M412 787 L346 787 L302 724 L279 787 L214 787 L243 659 L339 659 L412 787 Z " />
<glyph glyph-name="ecaron" unicode="&#x11b;" horiz-adv-x="329" d="M233 396 L349 396 L363 471 L143 471 L60 0 L280 0 L293 75 L177 75 L200 207 L316 207 L329 281 L213 281 L233 396 Z M369 606 L303 606 L259 543 L236 606 L171 606 L200 478 L296 478 L369 606 Z " />
<glyph glyph-name="Gbreve" unicode="&#x11e;" horiz-adv-x="423" d="M330 425 L437 425 L455 525 C471 615 408 634 322 634 C238 634 168 615 152 525 L77 101 C61 11 125 -8 209 -8 C292 -8 364 11 380 101 L425 354 L274 354 L261 278 L305 278 L274 103 C270 80 254 61 222 61 C188 61 182 80 186 103 L260 523 C264 547 277 566 311 566 C343 566 352 547 348 523 L330 425 Z M253 750 C245 705 260 665 326 663 C384 663 421 699 431 750 L369 750 C366 734 356 718 336 718 C327 718 310 725 315 750 L253 750 Z " />
<glyph glyph-name="gbreve" unicode="&#x11f;" horiz-adv-x="395" d="M295 319 L399 319 L408 369 C424 460 365 478 285 478 C203 478 141 460 125 369 L78 103 C62 13 117 -6 199 -6 C279 -6 345 13 361 103 L392 278 L249 278 L235 204 L274 204 L256 101 C252 78 241 59 211 59 C181 59 178 78 182 101 L230 371 C234 395 243 414 273 414 C303 414 308 395 304 371 L295 319 Z M219 630 C211 585 226 545 292 543 C350 543 387 579 397 630 L335 630 C332 614 322 598 302 598 C293 598 276 605 281 630 L219 630 Z " />
<glyph glyph-name="Itilde" unicode="&#x128;" horiz-adv-x="288" d="M295 552 L340 552 L354 630 L155 630 L141 552 L187 552 L103 78 L57 78 L44 0 L243 0 L256 78 L211 78 L295 552 Z M230 768 C185 768 162 733 150 666 L209 666 C213 691 220 700 232 700 C252 700 276 666 312 666 C357 666 380 701 392 768 L333 768 C329 743 322 733 311 733 C292 733 267 768 230 768 L230 768 Z " />
<glyph glyph-name="Imacron" unicode="&#x12a;" horiz-adv-x="288" d="M156 746 L144 676 L382 676 L394 746 L156 746 Z M295 552 L340 552 L354 630 L155 630 L141 552 L187 552 L103 78 L57 78 L44 0 L243 0 L256 78 L211 78 L295 552 Z " />
<glyph glyph-name="Iogonek" unicode="&#x12e;" horiz-adv-x="288" d="M295 552 L340 552 L354 630 L155 630 L141 552 L187 552 L103 78 L57 78 L44 0 L243 0 L256 78 L211 78 L295 552 Z M152 15 C60 -35 42 -154 140 -154 C174 -154 198 -148 219 -136 L213 -91 C203 -95 184 -102 172 -102 C115 -102 158 -31 181 0 L152 15 Z " />
<glyph glyph-name="iogonek" unicode="&#x12f;" horiz-adv-x="283" d="M262 396 L312 396 L326 471 L124 471 L110 396 L159 396 L103 75 L54 75 L41 0 L243 0 L256 75 L206 75 L262 396 Z M138 15 C46 -35 28 -154 126 -154 C160 -154 184 -148 205 -136 L199 -91 C189 -95 170 -102 158 -102 C101 -102 144 -31 167 0 L138 15 Z " />
<glyph glyph-name="Idotaccent" unicode="&#x130;" horiz-adv-x="288" d="M295 552 L340 552 L354 630 L155 630 L141 552 L187 552 L103 78 L57 78 L44 0 L243 0 L256 78 L211 78 L295 552 Z M210 720 C205 687 228 659 262 659 C295 659 328 687 333 720 C339 754 316 781 283 781 C249 781 216 754 210 720 L210 720 Z " />
<glyph glyph-name="Lacute" unicode="&#x139;" horiz-adv-x="312" d="M303 77 L180 77 L278 630 L171 630 L60 0 L290 0 L303 77 Z M256 786 L207 658 L278 658 L355 786 L256 786 Z " />
<glyph glyph-name="lacute" unicode="&#x13a;" horiz-adv-x="314" d="M292 75 L177 75 L247 471 L143 471 L60 0 L279 0 L292 75 Z M232 630 L182 502 L253 502 L331 630 L232 630 Z " />
<glyph glyph-name="Lcaron" unicode="&#x13d;" horiz-adv-x="312" d="M303 77 L180 77 L278 630 L171 630 L60 0 L290 0 L303 77 Z M294 443 L287 408 C362 410 410 473 420 533 L438 632 L331 632 L310 514 L352 514 C344 475 325 450 294 443 L294 443 Z " />
<glyph glyph-name="lcaron" unicode="&#x13e;" horiz-adv-x="393" d="M292 75 L177 75 L247 471 L143 471 L60 0 L279 0 L292 75 Z M291 282 L285 247 C359 249 408 312 418 372 L436 471 L329 471 L308 353 L350 353 C342 314 322 289 291 282 L291 282 Z " />
<glyph glyph-name="Lslash" unicode="&#x141;" horiz-adv-x="312" d="M303 78 L180 78 L223 319 L278 345 L292 422 L236 396 L278 630 L171 630 L120 342 L69 318 L56 240 L106 264 L60 0 L290 0 L303 78 L303 78 Z " />
<glyph glyph-name="lslash" unicode="&#x142;" horiz-adv-x="312" d="M292 76 L177 76 L207 246 L259 270 L272 345 L220 321 L247 471 L143 471 L106 266 L62 245 L48 170 L93 192 L60 0 L279 0 L292 76 L292 76 Z " />
<glyph glyph-name="Nacute" unicode="&#x143;" horiz-adv-x="421" d="M472 630 L388 630 L314 211 L271 630 L171 630 L60 0 L144 0 L214 398 L259 0 L361 0 L472 630 Z M310 788 L261 660 L332 660 L409 788 L310 788 Z " />
<glyph glyph-name="nacute" unicode="&#x144;" horiz-adv-x="406" d="M429 471 L348 471 L293 163 L240 471 L143 471 L60 0 L140 0 L191 288 L245 0 L345 0 L429 471 Z M278 630 L228 502 L299 502 L377 630 L278 630 Z " />
<glyph glyph-name="Ncaron" unicode="&#x147;" horiz-adv-x="421" d="M472 630 L388 630 L314 211 L271 630 L171 630 L60 0 L144 0 L214 398 L259 0 L361 0 L472 630 Z M446 779 L380 779 L336 716 L313 779 L248 779 L276 651 L372 651 L446 779 Z " />
<glyph glyph-name="ncaron" unicode="&#x148;" horiz-adv-x="406" d="M429 471 L348 471 L293 163 L240 471 L143 471 L60 0 L140 0 L191 288 L245 0 L345 0 L429 471 Z M408 606 L342 606 L298 543 L275 606 L210 606 L239 478 L335 478 L408 606 Z " />
<glyph glyph-name="Omacron" unicode="&#x14c;" horiz-adv-x="423" d="M215 732 L202 662 L440 662 L453 732 L215 732 Z M77 101 C61 11 128 -8 208 -8 C288 -8 364 11 380 101 L455 525 C471 615 401 634 321 634 C241 634 168 615 152 525 L77 101 Z M274 103 C270 80 251 61 220 61 C191 61 181 80 185 103 L259 523 C263 548 280 567 309 567 C340 567 352 548 348 523 L274 103 Z " />
<glyph glyph-name="omacron" unicode="&#x14d;" horiz-adv-x="404" d="M181 573 L168 503 L406 503 L419 573 L181 573 Z M78 103 C62 13 118 -6 200 -6 C280 -6 346 13 362 103 L409 369 C424 459 366 478 286 478 C204 478 140 459 125 369 L78 103 Z M256 101 C252 78 241 59 212 59 C182 59 179 78 183 101 L231 370 C235 395 244 413 274 413 C303 413 308 395 304 370 L256 101 Z " />
<glyph glyph-name="Ohungarumlaut" unicode="&#x150;" horiz-adv-x="423" d="M77 101 C61 11 128 -8 208 -8 C288 -8 364 11 380 101 L455 525 C471 615 401 634 321 634 C241 634 168 615 152 525 L77 101 Z M274 103 C270 80 251 61 220 61 C191 61 181 80 185 103 L259 523 C263 548 280 567 309 567 C340 567 352 548 348 523 L274 103 Z M254 793 L205 665 L278 665 L354 793 L254 793 Z M372 793 L322 665 L395 665 L471 793 L372 793 Z " />
<glyph glyph-name="ohungarumlaut" unicode="&#x151;" horiz-adv-x="404" d="M78 103 C62 13 118 -6 200 -6 C280 -6 346 13 362 103 L409 369 C424 459 366 478 286 478 C204 478 140 459 125 369 L78 103 Z M256 101 C252 78 241 59 212 59 C182 59 179 78 183 101 L231 370 C235 395 244 413 274 413 C303 413 308 395 304 370 L256 101 Z M218 630 L168 502 L241 502 L318 630 L218 630 Z M336 630 L285 502 L358 502 L435 630 L336 630 Z " />
<glyph glyph-name="OE" unicode="&#x152;" horiz-adv-x="541" d="M459 553 L578 553 L592 630 L389 630 C368 634 345 635 321 635 C240 635 168 616 152 527 L78 103 C62 13 127 -6 208 -6 C233 -6 259 -5 281 0 L481 0 L494 77 L375 77 L412 286 L531 286 L545 363 L426 363 L459 553 Z M273 104 C269 81 251 62 220 62 C190 62 181 81 185 104 L259 525 C263 549 280 568 310 568 C341 568 351 549 347 525 L273 104 Z " />
<glyph glyph-name="oe" unicode="&#x153;" horiz-adv-x="508" d="M412 396 L527 396 L541 472 L352 472 C333 477 310 479 285 479 C203 479 141 460 125 370 L78 104 C62 13 118 -5 200 -5 C222 -5 242 -3 261 0 L458 0 L471 76 L356 76 L379 207 L494 207 L507 282 L392 282 L412 396 Z M256 102 C252 78 241 59 211 59 C181 59 178 78 182 102 L230 371 C234 395 243 414 273 414 C303 414 308 395 304 371 L256 102 Z " />
<glyph glyph-name="Racute" unicode="&#x154;" horiz-adv-x="407" d="M399 218 C409 274 386 303 352 316 C388 327 420 353 429 406 L449 521 C465 611 405 630 324 630 L171 630 L60 0 L167 0 L216 279 L263 279 C292 279 299 260 295 237 L254 0 L361 0 L399 218 Z M318 390 C314 367 302 348 271 348 L228 348 L265 561 L308 561 C339 561 345 541 341 517 L318 390 Z M303 783 L253 655 L324 655 L402 783 L303 783 Z " />
<glyph glyph-name="racute" unicode="&#x155;" horiz-adv-x="396" d="M368 142 C377 195 363 222 329 236 C362 249 386 276 394 323 L401 361 C417 450 361 471 280 471 L143 471 L60 0 L165 0 L200 199 L237 199 C268 199 269 180 265 156 L238 0 L343 0 L368 142 Z M288 307 C283 283 274 264 244 264 L211 264 L236 405 L269 405 C299 405 302 386 297 362 L288 307 Z M273 630 L223 502 L294 502 L372 630 L273 630 Z " />
<glyph glyph-name="Rcaron" unicode="&#x158;" horiz-adv-x="407" d="M399 218 C409 274 386 303 352 316 C388 327 420 353 429 406 L449 521 C465 611 405 630 324 630 L171 630 L60 0 L167 0 L216 279 L263 279 C292 279 299 260 295 237 L254 0 L361 0 L399 218 Z M318 390 C314 367 302 348 271 348 L228 348 L265 561 L308 561 C339 561 345 541 341 517 L318 390 Z M437 776 L371 776 L327 713 L304 776 L239 776 L268 648 L364 648 L437 776 Z " />
<glyph glyph-name="rcaron" unicode="&#x159;" horiz-adv-x="396" d="M368 142 C377 195 363 222 329 236 C362 249 386 276 394 323 L401 361 C417 450 361 471 280 471 L143 471 L60 0 L165 0 L200 199 L237 199 C268 199 269 180 265 156 L238 0 L343 0 L368 142 Z M288 307 C283 283 274 264 244 264 L211 264 L236 405 L269 405 C299 405 302 386 297 362 L288 307 Z M403 606 L337 606 L293 543 L270 606 L205 606 L234 478 L330 478 L403 606 Z " />
<glyph glyph-name="Sacute" unicode="&#x15a;" horiz-adv-x="404" d="M67 97 C51 9 119 -8 200 -8 C282 -8 354 9 370 100 L387 196 C402 280 363 310 312 346 C261 380 228 400 240 468 L250 523 C254 548 268 566 300 566 C333 566 342 548 338 523 L320 425 L427 425 L446 529 C461 616 393 634 312 634 C231 634 158 616 142 526 L127 439 C110 343 157 318 207 284 C257 249 286 232 274 161 L263 102 C259 78 244 60 212 60 C179 60 171 78 175 102 L192 195 L84 195 L67 97 Z M304 790 L254 662 L325 662 L403 790 L304 790 Z " />
<glyph glyph-name="sacute" unicode="&#x15b;" horiz-adv-x="402" d="M78 103 C61 11 121 -6 201 -6 C280 -6 345 11 361 101 L372 164 C391 270 207 252 220 324 L228 371 C232 396 243 414 274 414 C303 414 311 396 307 371 L295 306 L397 306 L409 371 C425 460 362 478 285 478 C206 478 141 460 125 371 L113 303 C94 193 279 215 267 146 L259 102 C255 77 245 59 213 59 C181 59 176 77 180 102 L192 165 L89 165 L78 103 Z M276 630 L226 502 L297 502 L375 630 L276 630 Z " />
<glyph glyph-name="Scaron" unicode="&#x160;" horiz-adv-x="404" d="M67 97 C51 9 119 -8 200 -8 C282 -8 354 9 370 100 L387 196 C402 280 363 310 312 346 C261 380 228 400 240 468 L250 523 C254 548 268 566 300 566 C333 566 342 548 338 523 L320 425 L427 425 L446 529 C461 616 393 634 312 634 C231 634 158 616 142 526 L127 439 C110 343 157 318 207 284 C257 249 286 232 274 161 L263 102 C259 78 244 60 212 60 C179 60 171 78 175 102 L192 195 L84 195 L67 97 Z M443 806 L377 806 L333 743 L310 806 L245 806 L273 678 L369 678 L443 806 Z " />
<glyph glyph-name="scaron" unicode="&#x161;" horiz-adv-x="402" d="M78 103 C61 11 121 -6 201 -6 C280 -6 345 11 361 101 L372 164 C391 270 207 252 220 324 L228 371 C232 396 243 414 274 414 C303 414 311 396 307 371 L295 306 L397 306 L409 371 C425 460 362 478 285 478 C206 478 141 460 125 371 L113 303 C94 193 279 215 267 146 L259 102 C255 77 245 59 213 59 C181 59 176 77 180 102 L192 165 L89 165 L78 103 Z M407 609 L341 609 L297 546 L274 609 L209 609 L237 481 L333 481 L407 609 Z " />
<glyph glyph-name="Tcaron" unicode="&#x164;" horiz-adv-x="347" d="M423 552 L437 630 L132 630 L118 552 L217 552 L120 0 L227 0 L324 552 L423 552 Z M410 783 L344 783 L299 720 L277 783 L212 783 L240 655 L336 655 L410 783 Z " />
<glyph glyph-name="tcaron" unicode="&#x165;" horiz-adv-x="504" d="M388 396 L402 471 L118 471 L104 396 L194 396 L125 0 L229 0 L298 396 L388 396 Z M394 282 L388 247 C462 249 511 312 521 372 L539 471 L432 471 L411 353 L453 353 C445 314 425 289 394 282 L394 282 Z " />
<glyph glyph-name="Utilde" unicode="&#x168;" horiz-adv-x="422" d="M78 103 C62 13 125 -5 208 -5 C292 -5 364 13 380 103 L473 630 L365 630 L272 105 C268 82 254 63 221 63 C188 63 181 82 185 105 L278 630 L171 630 L78 103 Z M296 771 C251 771 228 736 216 669 L275 669 C280 694 286 703 298 703 C318 703 342 669 378 669 C423 669 447 704 458 771 L399 771 C395 746 388 736 377 736 C358 736 333 771 296 771 L296 771 Z " />
<glyph glyph-name="utilde" unicode="&#x169;" horiz-adv-x="403" d="M78 103 C62 13 118 -5 200 -5 C280 -5 345 13 361 103 L426 471 L322 471 L256 102 C252 79 241 60 211 60 C181 60 178 79 182 102 L248 471 L143 471 L78 103 Z M262 630 C217 630 193 595 182 528 L241 528 C245 553 252 562 264 562 C284 562 308 528 344 528 C389 528 412 563 424 630 L365 630 C360 605 353 595 342 595 C323 595 299 630 262 630 L262 630 Z " />
<glyph glyph-name="Umacron" unicode="&#x16a;" horiz-adv-x="422" d="M220 733 L207 663 L445 663 L458 733 L220 733 Z M78 103 C62 13 125 -5 208 -5 C292 -5 364 13 380 103 L473 630 L365 630 L272 105 C268 82 254 63 221 63 C188 63 181 82 185 105 L278 630 L171 630 L78 103 Z " />
<glyph glyph-name="umacron" unicode="&#x16b;" horiz-adv-x="403" d="M182 573 L169 503 L407 503 L420 573 L182 573 Z M78 103 C62 13 118 -5 200 -5 C280 -5 345 13 361 103 L426 471 L322 471 L256 102 C252 79 241 60 211 60 C181 60 178 79 182 102 L248 471 L143 471 L78 103 Z " />
<glyph glyph-name="Uring" unicode="&#x16e;" horiz-adv-x="422" d="M78 103 C62 13 125 -5 208 -5 C292 -5 364 13 380 103 L473 630 L365 630 L272 105 C268 82 254 63 221 63 C188 63 181 82 185 105 L278 630 L171 630 L78 103 Z M270 730 C263 691 288 660 327 660 C366 660 401 691 408 730 C415 769 390 798 351 798 C312 798 277 769 270 730 L270 730 Z M372 730 C369 711 351 697 333 697 C315 697 304 711 307 730 C310 748 327 762 345 762 C363 762 375 748 372 730 L372 730 Z " />
<glyph glyph-name="uring" unicode="&#x16f;" horiz-adv-x="403" d="M78 103 C62 13 118 -5 200 -5 C280 -5 345 13 361 103 L426 471 L322 471 L256 102 C252 79 241 60 211 60 C181 60 178 79 182 102 L248 471 L143 471 L78 103 Z M231 566 C224 527 249 496 288 496 C327 496 362 527 369 566 C376 605 351 634 312 634 C273 634 238 605 231 566 L231 566 Z M333 566 C330 547 312 533 294 533 C276 533 265 547 268 566 C271 584 288 598 306 598 C324 598 336 584 333 566 L333 566 Z " />
<glyph glyph-name="Uhungarumlaut" unicode="&#x170;" horiz-adv-x="422" d="M78 103 C62 13 125 -5 208 -5 C292 -5 364 13 380 103 L473 630 L365 630 L272 105 C268 82 254 63 221 63 C188 63 181 82 185 105 L278 630 L171 630 L78 103 Z M256 789 L206 661 L279 661 L356 789 L256 789 Z M374 789 L323 661 L396 661 L473 789 L374 789 Z " />
<glyph glyph-name="uhungarumlaut" unicode="&#x171;" horiz-adv-x="403" d="M78 103 C62 13 118 -5 200 -5 C280 -5 345 13 361 103 L426 471 L322 471 L256 102 C252 79 241 60 211 60 C181 60 178 79 182 102 L248 471 L143 471 L78 103 Z M217 630 L167 502 L240 502 L317 630 L217 630 Z M335 630 L284 502 L357 502 L434 630 L335 630 Z " />
<glyph glyph-name="Uogonek" unicode="&#x172;" horiz-adv-x="422" d="M78 103 C62 13 125 -5 208 -5 C292 -5 364 13 380 103 L473 630 L365 630 L272 105 C268 82 254 63 221 63 C188 63 181 82 185 105 L278 630 L171 630 L78 103 Z M271 15 C179 -35 161 -154 259 -154 C293 -154 317 -148 338 -136 L332 -91 C322 -95 303 -102 291 -102 C234 -102 277 -31 300 0 L271 15 Z " />
<glyph glyph-name="uogonek" unicode="&#x173;" horiz-adv-x="403" d="M78 103 C62 13 118 -5 200 -5 C280 -5 345 13 361 103 L426 471 L322 471 L256 102 C252 79 241 60 211 60 C181 60 178 79 182 102 L248 471 L143 471 L78 103 Z M252 15 C160 -35 142 -154 240 -154 C274 -154 298 -148 319 -136 L313 -91 C303 -95 284 -102 272 -102 C215 -102 258 -31 281 0 L252 15 Z " />
<glyph glyph-name="Ydieresis" unicode="&#x178;" horiz-adv-x="385" d="M469 630 L380 630 L259 345 L239 630 L131 630 L170 214 L133 0 L240 0 L277 213 L469 630 Z M208 774 C203 744 224 719 255 719 C285 719 316 744 321 774 C326 805 305 830 275 830 C244 830 213 805 208 774 L208 774 Z M336 774 C331 744 351 719 383 719 C413 719 443 744 448 774 C453 805 433 830 403 830 C371 830 341 805 336 774 L336 774 Z " />
<glyph glyph-name="Zacute" unicode="&#x179;" horiz-adv-x="352" d="M434 594 L441 630 L171 630 L157 552 L299 552 L44 45 L37 0 L326 0 L339 77 L172 77 L434 594 Z M278 787 L229 659 L300 659 L377 787 L278 787 Z " />
<glyph glyph-name="zacute" unicode="&#x17a;" horiz-adv-x="347" d="M375 424 L384 471 L134 471 L120 396 L251 396 L40 52 L31 0 L301 0 L314 75 L163 75 L375 424 Z M248 630 L198 502 L269 502 L347 630 L248 630 Z " />
<glyph glyph-name="Zdotaccent" unicode="&#x17b;" horiz-adv-x="352" d="M434 594 L441 630 L171 630 L157 552 L299 552 L44 45 L37 0 L326 0 L339 77 L172 77 L434 594 Z M243 726 C237 693 260 665 294 665 C327 665 360 693 366 726 C372 760 348 787 315 787 C281 787 249 760 243 726 L243 726 Z " />
<glyph glyph-name="zdotaccent" unicode="&#x17c;" horiz-adv-x="347" d="M375 424 L384 471 L134 471 L120 396 L251 396 L40 52 L31 0 L301 0 L314 75 L163 75 L375 424 Z M213 573 C207 540 230 512 264 512 C297 512 330 540 336 573 C342 607 318 634 285 634 C251 634 219 607 213 573 L213 573 Z " />
<glyph glyph-name="Zcaron" unicode="&#x17d;" horiz-adv-x="373" d="M434 594 L441 630 L171 630 L157 552 L299 552 L44 45 L37 0 L326 0 L339 77 L172 77 L434 594 Z M424 768 L358 768 L314 705 L291 768 L226 768 L254 640 L350 640 L424 768 Z " />
<glyph glyph-name="zcaron" unicode="&#x17e;" horiz-adv-x="347" d="M375 424 L384 471 L134 471 L120 396 L251 396 L40 52 L31 0 L301 0 L314 75 L163 75 L375 424 Z M378 606 L312 606 L268 543 L245 606 L180 606 L209 478 L305 478 L378 606 Z " />
<glyph glyph-name="circumflex" unicode="&#x2c6;" horiz-adv-x="262" d="M253 502 L319 502 L290 630 L195 630 L121 502 L186 502 L231 565 L253 502 L253 502 Z " />
<glyph glyph-name="caron" unicode="&#x2c7;" horiz-adv-x="275" d="M343 606 L277 606 L233 543 L210 606 L145 606 L174 478 L270 478 L343 606 L343 606 Z " />
<glyph glyph-name="breve" unicode="&#x2d8;" horiz-adv-x="239" d="M142 630 C134 585 149 545 215 543 C273 543 310 579 320 630 L258 630 C255 614 245 598 225 598 C216 598 199 605 204 630 L142 630 L142 630 Z " />
<glyph glyph-name="dotaccent" unicode="&#x2d9;" horiz-adv-x="221" d="M152 573 C146 540 169 512 203 512 C236 512 269 540 275 573 C281 607 257 634 224 634 C190 634 158 607 152 573 L152 573 Z " />
<glyph glyph-name="ring" unicode="&#x2da;" horiz-adv-x="200" d="M131 566 C124 527 149 496 188 496 C227 496 262 527 269 566 C276 605 251 634 212 634 C173 634 138 605 131 566 L131 566 Z M233 566 C230 547 212 533 194 533 C176 533 165 547 168 566 C171 584 188 598 206 598 C224 598 236 584 233 566 L233 566 Z " />
<glyph glyph-name="ogonek" unicode="&#x2db;" horiz-adv-x="230" d="M103 15 C11 -35 -7 -154 91 -154 C125 -154 149 -148 170 -136 L164 -91 C154 -95 135 -102 123 -102 C66 -102 109 -31 132 0 L103 15 L103 15 Z " />
<glyph glyph-name="tilde" unicode="&#x2dc;" horiz-adv-x="305" d="M213 630 C168 630 144 595 133 528 L192 528 C196 553 203 562 215 562 C235 562 259 528 295 528 C340 528 363 563 375 630 L316 630 C311 605 304 595 293 595 C274 595 250 630 213 630 L213 630 Z " />
<glyph glyph-name="hungarumlaut" unicode="&#x2dd;" horiz-adv-x="304" d="M170 630 L120 502 L193 502 L270 630 L170 630 Z M288 630 L237 502 L310 502 L387 630 L288 630 Z " />
<glyph glyph-name="endash" unicode="&#x2013;" horiz-adv-x="359" d="M119 338 L106 262 L345 262 L358 338 L119 338 L119 338 Z " />
<glyph glyph-name="emdash" unicode="&#x2014;" horiz-adv-x="509" d="M120 341 L106 265 L495 265 L509 341 L120 341 L120 341 Z " />
<glyph glyph-name="quoteleft" unicode="&#x2018;" horiz-adv-x="205" d="M135 504 L118 406 L225 406 L246 524 L203 524 C210 563 231 588 262 595 L269 630 C193 627 146 565 135 504 L135 504 Z " />
<glyph glyph-name="quoteright" unicode="&#x2019;" horiz-adv-x="262" d="M156 441 L150 406 C224 408 273 471 283 531 L301 630 L194 630 L173 512 L215 512 C207 473 187 448 156 441 L156 441 Z " />
<glyph glyph-name="quotesinglbase" unicode="&#x201a;" horiz-adv-x="246" d="M57 -71 L51 -106 C125 -104 173 -41 184 19 L201 118 L94 118 L74 0 L116 0 C107 -40 88 -64 57 -71 L57 -71 Z " />
<glyph glyph-name="quotedblleft" unicode="&#x201c;" horiz-adv-x="366" d="M142 504 L125 406 L232 406 L253 524 L210 524 C217 563 238 588 268 595 L275 630 C200 627 153 565 142 504 L142 504 Z M285 504 L268 406 L375 406 L396 524 L353 524 C361 563 381 588 411 595 L418 630 C343 627 296 565 285 504 L285 504 Z " />
<glyph glyph-name="quotedblright" unicode="&#x201d;" horiz-adv-x="383" d="M141 441 L135 406 C210 409 258 471 268 532 L286 630 L179 630 L158 512 L200 512 C192 474 172 448 141 441 L141 441 Z M284 441 L278 406 C353 409 401 471 411 532 L429 630 L322 630 L301 512 L343 512 C336 474 315 448 284 441 L284 441 Z " />
<glyph glyph-name="quotedblbase" unicode="&#x201e;" horiz-adv-x="372" d="M42 -71 L36 -106 C110 -104 157 -41 168 19 L185 118 L78 118 L58 0 L101 0 C92 -40 73 -64 42 -71 L42 -71 Z M185 -71 L179 -106 C253 -104 301 -41 312 19 L329 118 L222 118 L202 0 L244 0 C235 -40 216 -64 185 -71 L185 -71 Z " />
<glyph glyph-name="dagger" unicode="&#x2020;" horiz-adv-x="249" d="M320 454 L332 522 L266 522 L299 712 L200 712 L167 522 L100 522 L88 454 L155 454 L62 -72 L161 -72 L254 454 L320 454 L320 454 Z " />
<glyph glyph-name="bullet" unicode="&#x2022;" horiz-adv-x="306" d="M113 301 C104 250 138 209 189 209 C240 209 290 250 299 301 C308 353 273 394 222 394 C171 394 122 353 113 301 L113 301 Z " />
<glyph glyph-name="ellipsis" unicode="&#x2026;" horiz-adv-x="612" d="M54 61 C48 28 71 0 105 0 C139 0 171 28 177 61 C183 94 160 122 126 122 C92 122 60 94 54 61 L54 61 Z M258 61 C252 28 275 0 309 0 C343 0 375 28 381 61 C387 94 364 122 330 122 C296 122 264 94 258 61 L258 61 Z M462 61 C456 28 479 0 513 0 C547 0 579 28 585 61 C591 94 568 122 534 122 C500 122 468 94 462 61 L462 61 Z " />
<glyph glyph-name="perthousand" unicode="&#x2030;" horiz-adv-x="962" d="M114 314 C104 260 149 249 201 249 C253 249 304 260 314 314 L359 570 C369 625 321 635 269 635 C217 635 169 625 159 570 L114 314 Z M240 324 C237 310 227 303 211 303 C196 303 190 310 193 324 L234 561 C237 574 246 581 260 581 C276 581 284 574 281 561 L240 324 Z M501 630 L230 0 L295 0 L572 630 L501 630 Z M445 61 C436 7 480 -4 533 -4 C584 -4 635 7 644 61 L689 317 C699 372 652 383 601 383 C548 383 500 372 490 317 L445 61 Z M570 71 C568 57 557 51 542 51 C526 51 521 57 523 71 L565 308 C567 321 577 329 592 329 C607 329 614 321 612 308 L570 71 Z M712 61 C703 7 748 -4 800 -4 C851 -4 903 7 912 61 L957 317 C967 372 919 383 868 383 C816 383 767 372 757 317 L712 61 Z M837 71 C835 57 824 51 809 51 C794 51 788 57 790 71 L832 308 C834 321 844 329 859 329 C874 329 881 321 879 308 L837 71 Z " />
<glyph glyph-name="guilsinglleft" unicode="&#x2039;" horiz-adv-x="313" d="M338 400 L358 513 L110 298 L282 82 L302 195 L224 299 L338 400 L338 400 Z " />
<glyph glyph-name="guilsinglright" unicode="&#x203a;" horiz-adv-x="324" d="M317 299 L145 514 L125 401 L202 300 L89 196 L69 83 L317 299 L317 299 Z " />
<glyph glyph-name="Euro" unicode="&#x20ac;" horiz-adv-x="407" d="M333 444 L440 444 L454 526 C470 615 404 634 321 634 C238 634 168 615 152 526 L131 408 L86 408 L74 339 L119 339 L110 289 L65 289 L53 221 L98 221 L77 102 C62 12 125 -7 208 -7 C292 -7 363 11 379 101 L394 184 L287 184 L272 100 C268 76 253 57 220 57 C188 57 180 76 184 101 L205 221 L322 221 L334 289 L217 289 L226 339 L343 339 L355 408 L238 408 L259 526 C263 550 278 569 310 569 C343 569 351 550 347 526 L333 444 L333 444 Z " />
<glyph glyph-name="trademark" unicode="&#x2122;" horiz-adv-x="508" d="M293 581 L302 630 L137 630 L128 581 L178 581 L135 339 L204 339 L247 581 L293 581 Z M579 629 L501 629 L424 444 L413 629 L333 629 L282 339 L335 339 L364 502 L370 339 L428 339 L494 496 L466 339 L528 339 L579 629 Z " />
<glyph glyph-name="notequal" unicode="&#x2260;" horiz-adv-x="464" d="M334 332 L463 332 L476 408 L366 408 L405 500 L338 500 L299 408 L139 408 L126 332 L269 332 L241 265 L114 265 L101 189 L211 189 L174 97 L237 97 L275 189 L438 189 L451 265 L307 265 L334 332 L334 332 Z " />
</font>
</svg>
