<?xml version="1.0" encoding="UTF-8"?>
<svg xmlns="http://www.w3.org/2000/svg" xmlns:xlink="http://www.w3.org/1999/xlink" version="1.2" >
<font id="Pradita">
<font-face  font-family="Pradita" units-per-em="1000" ascent="750" descent="-250" font-style="normal" font-weight="400" font-stretch="normal" cap-height="900" x-height="500" underline-position="-75" underline-thickness="50" />
<missing-glyph  horiz-adv-x="140" d="" />
<glyph glyph-name="NULL" d="" />
<glyph glyph-name="CR" unicode="&#xd;" horiz-adv-x="140" d="" />
<glyph glyph-name="space" unicode="&#x20;" horiz-adv-x="140" d="" />
<glyph glyph-name="exclam" unicode="&#x21;" horiz-adv-x="448" d="M101 -52 C107 -39 114 -27 120 -14 C173 90 227 193 278 297 C328 399 378 500 427 601 C439 626 452 650 463 676 C465 682 468 689 471 695 C473 701 476 707 473 713 C466 727 457 701 454 696 C429 646 403 597 378 548 C326 447 276 344 226 242 C200 190 175 139 150 87 C138 61 125 36 113 10 C107 -4 100 -17 94 -30 C92 -34 86 -42 88 -47 C90 -52 98 -51 101 -52 L101 -52 Z M32 -187 C43 -167 50 -146 61 -126 C63 -123 65 -120 61 -118 C59 -116 58 -116 56 -117 C49 -120 30 -171 25 -184 C26 -187 30 -187 32 -187 L32 -187 Z " />
<glyph glyph-name="quotedbl" unicode="&#x22;" horiz-adv-x="199" d="M144 604 C155 628 169 653 181 678 C184 683 179 694 174 686 C162 668 143 632 138 613 C137 607 138 605 144 604 L144 604 Z M158 687 C154 693 150 694 145 687 C132 666 123 644 112 619 C111 617 114 614 117 614 C121 614 151 674 158 687 L158 687 Z " />
<glyph glyph-name="numbersign" unicode="&#x23;" horiz-adv-x="351" d="M257 300 C267 315 275 331 285 346 C288 351 296 360 290 364 C282 369 275 361 270 356 C255 338 242 320 228 300 C225 296 219 297 209 297 C203 297 203 297 206 301 C214 316 225 330 233 344 C237 351 241 356 237 362 C233 366 229 368 223 364 C217 360 212 353 208 348 C197 334 184 316 173 299 C170 295 170 294 165 294 C154 294 145 294 135 294 C131 294 116 295 120 288 C123 283 132 283 137 283 C145 283 154 283 162 283 C159 278 153 266 150 264 C146 261 116 266 113 258 C112 256 114 253 116 252 C124 250 132 253 145 253 C137 236 101 187 139 185 C141 192 143 201 147 208 C154 222 163 242 175 254 C179 258 194 256 201 256 C192 234 181 215 172 191 C170 187 169 183 172 180 C174 178 181 173 185 174 C188 175 190 185 192 188 C199 210 215 232 230 257 C238 257 257 256 266 256 C270 256 272 256 274 258 C275 260 274 263 273 264 C270 269 251 269 237 269 C240 274 243 279 246 284 C247 286 250 291 250 291 C252 291 258 291 261 291 C273 291 286 291 298 291 C301 291 302 290 303 292 C306 298 298 300 292 300 C286 300 280 300 274 300 C270 300 261 300 257 300 L257 300 Z M183 266 C185 270 190 283 195 286 C199 288 214 288 219 287 C216 282 213 276 209 271 C206 267 204 267 199 267 C194 267 189 267 183 266 L183 266 Z " />
<glyph glyph-name="dollar" unicode="&#x24;" horiz-adv-x="552" d="M282 270 C253 201 229 140 204 71 C202 65 200 57 197 51 C194 46 188 43 184 40 C177 35 62 -37 57 -23 C56 -19 66 -12 68 -9 C72 -5 68 2 62 1 C58 0 51 -6 48 -9 C38 -19 41 -28 51 -33 C89 -50 145 -16 179 2 C165 -42 148 -88 139 -135 C136 -150 134 -159 139 -160 C147 -162 149 -151 151 -141 C160 -95 179 -49 195 -2 C197 4 202 17 207 21 C254 63 393 136 411 219 C416 244 401 263 381 272 C360 281 337 285 311 288 C318 305 336 348 344 364 C369 417 396 469 423 521 C430 533 435 547 443 558 C456 578 528 599 552 585 C572 572 553 531 547 514 C524 465 489 419 447 375 C442 370 437 365 432 360 C429 357 419 349 420 346 C420 344 423 343 424 342 C427 342 429 345 431 347 C474 381 520 438 550 495 C563 519 580 549 571 573 C562 598 541 607 515 605 C484 603 460 587 460 588 C466 599 479 625 487 637 C488 639 489 642 491 643 C492 644 494 644 495 645 C496 646 496 650 496 652 C495 658 491 661 485 656 C480 652 477 645 474 640 C462 622 454 600 440 583 C437 579 432 577 427 575 C353 537 286 483 228 422 C210 402 192 379 184 354 C166 295 231 279 282 270 L282 270 Z M291 292 C274 294 258 296 241 300 C228 303 210 307 202 318 C180 350 268 431 294 454 C313 472 334 488 355 504 C374 519 396 534 419 547 C398 507 377 466 353 421 C330 378 312 334 291 292 L291 292 Z M220 67 C243 133 270 197 301 268 C316 267 389 254 391 244 C393 236 387 227 383 220 C347 164 276 108 220 67 L220 67 Z " />
<glyph glyph-name="percent" unicode="&#x25;" horiz-adv-x="417" d="M33 45 C35 49 42 63 48 69 C101 134 161 196 221 257 C282 319 346 379 408 440 C423 455 437 470 452 485 C455 487 458 491 461 493 C463 495 465 497 463 500 C458 508 448 494 445 491 C413 462 381 433 350 404 C255 317 162 227 76 126 C63 110 49 94 36 78 C31 72 21 60 21 53 C21 48 28 41 33 45 L33 45 Z M174 130 C177 134 180 139 175 144 C172 147 168 146 165 144 C154 138 145 129 137 121 C125 108 104 85 115 66 C119 59 130 50 140 50 C170 50 199 74 218 99 C228 113 241 133 226 150 C221 155 211 160 203 159 C198 158 193 155 198 151 C202 147 206 150 210 150 C234 151 209 113 203 106 C190 91 176 76 156 67 C150 64 133 57 126 64 C120 70 129 85 132 91 C141 106 151 114 163 126 C167 130 169 131 174 130 L174 130 Z M353 478 C356 479 359 480 361 477 C363 474 360 466 358 463 C354 455 347 447 339 441 C320 425 273 403 267 415 C264 422 282 440 287 445 C295 452 303 458 311 464 C317 467 330 472 328 479 C324 495 291 470 285 466 C272 456 255 439 255 422 C255 414 260 405 268 402 C276 399 287 400 295 402 C314 408 333 416 347 429 C361 441 374 454 372 473 C371 480 367 490 356 490 C354 489 347 488 346 485 C346 482 350 479 353 478 L353 478 Z " />
<glyph glyph-name="ampersand" unicode="&#x26;" horiz-adv-x="619" d="M276 175 C323 207 370 239 420 268 C425 271 441 277 443 284 C446 290 441 299 436 303 C429 308 393 291 380 287 C357 279 335 271 313 264 C270 251 225 238 180 236 C148 235 97 239 96 278 C95 318 122 360 147 393 C175 428 206 461 239 491 C301 546 374 597 457 638 C496 657 542 675 586 671 C643 664 617 581 598 544 C596 541 593 537 593 533 C593 529 595 528 598 529 C604 531 612 550 615 557 C670 696 587 703 468 660 C426 645 389 621 351 597 C267 543 103 417 83 308 C77 271 87 237 135 223 C202 203 295 235 365 258 C332 237 304 218 274 196 C243 174 213 151 184 126 C145 93 6 -37 23 -105 C30 -133 68 -139 94 -134 C184 -118 280 -56 362 -2 C386 14 419 37 445 57 C410 5 366 -71 345 -134 C337 -159 329 -187 329 -213 C329 -224 331 -232 344 -230 C347 -229 350 -228 349 -224 C348 -223 346 -223 345 -222 C343 -220 344 -210 345 -205 C356 -152 376 -102 401 -53 C414 -28 426 -3 441 21 C456 45 469 70 486 93 C488 96 492 99 491 102 C491 103 488 106 486 106 C481 107 477 102 474 99 C464 89 454 80 443 72 C420 54 396 37 372 20 C300 -28 225 -77 139 -109 C120 -116 39 -144 39 -100 C39 -61 70 -22 94 8 C141 69 202 117 276 175 L276 175 Z " />
<glyph glyph-name="quotesingle" unicode="&#x27;" horiz-adv-x="178" d="M131 598 C139 612 144 627 151 641 C153 646 169 674 157 675 C152 675 149 661 147 657 C141 642 135 628 128 612 C126 606 122 598 131 598 L131 598 Z " />
<glyph glyph-name="parenleft" unicode="&#x28;" horiz-adv-x="380" d="M96 -180 C93 -173 86 -179 82 -174 C64 -155 62 -86 63 -58 C66 34 89 129 128 233 C175 359 240 478 324 583 C345 609 367 634 390 659 C401 671 411 683 423 694 C425 696 430 699 430 703 C430 705 428 707 425 708 C420 709 413 700 410 697 C361 649 317 597 277 542 C197 432 133 307 92 176 C72 112 57 46 51 -21 C48 -55 49 -89 54 -122 C57 -142 65 -190 96 -180 L96 -180 Z " />
<glyph glyph-name="parenright" unicode="&#x29;" horiz-adv-x="378" d="M-28 -221 C-20 -235 -3 -209 2 -202 C85 -94 155 22 215 144 C274 265 327 393 337 529 C341 580 340 631 334 684 C333 689 333 705 329 707 C322 711 326 694 326 691 C334 625 333 559 323 493 C302 359 246 234 185 114 C155 54 122 -4 85 -61 C53 -110 20 -158 -15 -207 C-19 -212 -24 -216 -28 -221 L-28 -221 Z " />
<glyph glyph-name="asterisk" unicode="&#x2a;" horiz-adv-x="251" d="M88 575 C102 584 115 595 129 606 C121 589 116 575 109 553 C107 548 107 547 110 545 C112 544 116 541 117 543 C122 550 144 602 151 616 C154 611 180 577 186 580 C192 585 169 610 157 627 C171 629 206 634 223 637 C226 637 230 639 230 642 C229 645 227 646 225 646 C209 646 191 642 174 640 C189 649 199 656 219 669 C222 671 224 671 224 674 C224 675 223 676 221 678 C215 684 181 658 169 649 C172 658 182 676 182 681 C182 686 178 693 172 692 C166 691 161 674 158 669 C154 660 149 650 144 639 C136 655 128 676 120 674 C112 671 135 639 137 635 C121 631 105 631 88 628 C86 628 81 628 80 625 C78 621 85 618 87 618 C96 618 118 621 133 624 C119 611 96 596 84 583 C80 578 83 573 88 575 L88 575 Z " />
<glyph glyph-name="plus" unicode="&#x2b;" horiz-adv-x="320" d="M134 308 C161 308 190 309 219 310 C224 310 242 310 244 315 C247 321 237 319 229 319 C199 319 168 318 138 316 C149 340 163 367 175 389 C178 395 185 401 180 408 C176 412 168 417 165 412 C144 377 132 348 115 315 C95 315 75 314 55 314 C54 314 44 315 44 312 C44 310 45 308 47 307 C54 304 95 307 112 307 C109 299 95 266 94 260 C91 248 84 225 105 226 C104 240 109 252 115 266 C121 280 127 294 134 308 L134 308 Z " />
<glyph glyph-name="comma" unicode="&#x2c;" horiz-adv-x="160" d="M35 118 C48 139 61 158 76 186 C78 190 82 198 71 199 C68 199 65 191 63 188 C53 170 42 150 31 130 C29 126 26 119 35 118 L35 118 Z " />
<glyph glyph-name="hyphen" unicode="&#x2d;" horiz-adv-x="227" d="M142 306 C147 315 141 314 122 314 C109 314 64 314 39 314 C35 314 30 314 28 311 C26 308 29 306 33 306 C41 306 101 306 116 306 C121 306 137 306 142 306 L142 306 Z " />
<glyph glyph-name="period" unicode="&#x2e;" horiz-adv-x="129" d="M39 180 C36 175 38 172 41 170 C45 168 49 169 51 173 C54 180 44 185 39 180 L39 180 Z " />
<glyph glyph-name="slash" unicode="&#x2f;" horiz-adv-x="473" d="M-99 -181 C-92 -186 -90 -186 -84 -178 C-78 -170 -67 -157 -58 -145 C30 -28 122 86 216 206 C263 265 312 323 361 381 C410 440 461 499 513 557 C538 586 564 614 590 643 C607 662 635 690 644 708 C646 712 643 724 637 716 C614 688 589 663 563 633 C536 604 509 576 483 546 C379 428 277 309 180 187 C91 76 4 -32 -88 -158 C-93 -165 -102 -177 -99 -181 L-99 -181 Z " />
<glyph glyph-name="zero" unicode="0" horiz-adv-x="399" d="M322 505 C322 526 296 536 279 533 C219 522 167 457 132 404 C90 340 63 267 47 192 C37 146 31 60 70 26 C97 1 145 9 177 30 C262 82 324 191 356 284 C379 350 395 427 370 495 C367 503 360 515 352 519 C350 519 346 520 346 517 C346 516 349 514 349 513 C353 509 355 504 357 498 C372 456 371 413 363 365 C349 280 314 201 263 131 C239 99 170 22 119 24 C71 26 70 78 68 111 C68 178 86 248 115 312 C134 358 161 402 193 442 C215 468 263 521 302 518 C308 518 307 514 310 511 C313 507 318 505 322 505 L322 505 Z " />
<glyph glyph-name="one" unicode="1" horiz-adv-x="222" d="M20 7 C43 86 78 156 106 236 C123 276 141 316 159 355 C181 404 216 479 225 524 C226 531 224 545 216 547 C202 550 170 525 160 517 C158 515 150 509 148 506 C147 503 151 500 154 500 C159 500 165 505 169 508 C181 515 192 524 206 529 C203 519 198 509 193 499 C180 470 165 441 150 411 C105 319 55 204 20 98 C14 81 -20 -1 20 7 L20 7 Z " />
<glyph glyph-name="two" unicode="2" horiz-adv-x="347" d="M122 84 C190 174 259 260 307 371 C324 411 353 480 329 519 C301 565 236 508 211 481 C193 463 178 442 164 421 C158 411 134 373 139 362 C140 360 141 359 143 357 C150 374 156 392 167 409 C193 450 245 511 288 523 C300 526 317 524 321 510 C331 475 301 412 280 369 C247 308 208 248 166 193 C143 162 113 123 87 93 C73 92 40 98 18 81 C7 72 1 56 6 43 C10 30 28 19 42 19 C61 19 82 40 95 55 C99 59 108 71 112 74 C128 70 153 66 171 60 C192 53 228 41 247 43 C253 44 251 51 247 52 C235 56 218 56 194 64 C170 71 146 79 122 84 L122 84 Z M74 78 C65 68 56 58 46 49 C40 44 23 29 21 43 C19 55 26 67 37 72 C47 77 63 80 74 78 L74 78 Z " />
<glyph glyph-name="three" unicode="3" horiz-adv-x="335" d="M323 541 C308 568 273 556 252 542 C212 517 173 475 149 430 C145 422 141 413 139 405 C138 400 135 388 138 386 C142 383 143 386 144 390 C147 402 150 411 155 422 C178 465 216 506 260 532 C270 538 304 553 313 536 C324 506 271 453 243 425 C220 401 195 377 171 353 C160 342 148 330 137 319 C126 308 114 295 126 281 C137 270 155 267 170 262 C214 244 187 164 170 131 C150 93 113 29 71 20 C54 16 42 23 37 37 C26 66 34 102 51 129 C60 143 71 156 84 166 C86 167 93 170 93 171 C93 172 91 174 90 175 C84 179 75 171 71 167 C39 142 3 82 25 31 C47 -20 109 11 142 47 C182 90 221 166 210 225 C203 261 177 278 143 285 C151 294 160 301 251 392 C266 409 282 426 296 445 C316 469 340 507 323 541 L323 541 Z " />
<glyph glyph-name="four" unicode="4" horiz-adv-x="257" d="M194 351 C189 336 180 322 173 308 C134 230 100 143 72 64 C70 59 64 44 66 37 C67 32 78 29 82 31 C86 34 89 46 91 51 C101 70 109 90 119 114 C145 173 173 231 202 294 C215 326 232 357 243 389 C245 397 246 407 239 412 C232 417 228 409 224 403 C220 396 216 388 211 381 C207 376 201 371 196 366 C170 339 143 312 117 286 C109 278 36 208 24 222 C19 227 42 264 58 289 C103 359 152 421 201 499 C205 505 210 512 212 519 C213 524 209 533 202 531 C195 529 187 516 183 511 C128 437 64 363 18 277 C12 261 -8 229 15 213 C31 202 55 220 77 237 C113 266 147 303 194 351 L194 351 Z " />
<glyph glyph-name="five" unicode="5" horiz-adv-x="322" d="M139 273 C181 342 214 416 253 488 C253 489 257 489 258 489 C278 496 301 500 324 500 C333 500 347 499 355 495 C357 493 356 485 362 488 C366 507 331 509 318 509 C297 510 276 505 256 500 C252 499 253 500 250 502 C248 503 247 503 245 503 C242 503 239 500 237 497 C234 494 232 492 228 491 C225 490 220 489 220 485 C219 482 224 482 224 479 C223 476 219 472 218 470 C186 418 155 367 127 308 C118 289 114 273 114 270 C114 268 112 266 112 264 C113 259 124 254 129 253 C136 253 143 261 148 264 C159 272 203 297 217 290 C227 285 198 216 192 206 C158 142 116 76 58 27 C49 19 27 5 15 14 C1 25 7 49 12 66 C18 86 34 114 56 129 C68 137 75 133 77 137 C79 143 72 145 66 144 C28 138 -17 68 -9 27 C-5 5 19 -6 42 -6 C94 -6 164 88 190 128 C214 164 243 223 245 258 C246 278 237 305 211 307 C198 307 183 301 172 295 C160 289 150 281 139 273 L139 273 Z " />
<glyph glyph-name="six" unicode="6" horiz-adv-x="326" d="M301 455 C309 470 315 491 306 505 C295 521 276 520 259 511 C226 492 199 458 177 428 C122 354 77 256 44 158 C35 132 14 57 40 30 C51 18 70 17 88 21 C155 35 213 127 240 200 C247 220 260 260 245 276 C211 315 137 213 118 183 C101 154 83 124 73 91 C72 87 71 80 74 77 C76 75 80 75 84 75 C83 88 88 97 93 109 C119 164 153 228 207 266 C213 271 229 281 236 274 C252 256 223 193 213 173 C187 122 151 51 87 35 C72 32 68 35 64 46 C46 93 109 237 130 286 C165 359 199 438 266 495 C274 502 296 514 301 498 C304 489 301 481 299 473 C298 469 295 463 296 460 C297 456 298 456 301 455 L301 455 Z " />
<glyph glyph-name="seven" unicode="7" horiz-adv-x="308" d="M108 506 C104 498 122 501 129 501 C155 502 181 504 214 508 C264 514 324 526 370 529 C376 529 375 527 371 522 C360 511 350 500 322 472 C296 445 271 419 247 392 C223 366 201 337 178 309 C134 255 90 199 52 135 C34 108 21 79 2 48 C-6 32 -12 14 -18 -2 C-20 -9 -22 -15 -14 -17 C-9 -18 0 -21 4 -15 C28 17 67 87 97 130 C143 195 184 264 246 337 C276 372 303 409 354 470 C364 482 373 494 381 507 C387 517 393 533 380 537 C365 541 311 530 289 526 C234 517 180 510 126 508 C121 508 110 509 108 506 L108 506 Z " />
<glyph glyph-name="eight" unicode="8" horiz-adv-x="320" d="M144 265 C105 233 11 135 14 78 C14 55 29 38 50 30 C70 23 92 20 114 29 C150 44 179 70 190 115 C195 138 193 160 190 183 C188 200 180 243 175 257 C180 262 205 291 212 300 C240 336 268 372 292 411 C304 429 315 449 323 470 C331 489 341 514 327 534 C313 553 290 550 271 542 C216 516 166 459 145 398 C131 356 139 309 144 265 L144 265 Z M175 404 C194 445 258 542 313 535 C356 528 282 413 271 397 C241 353 208 309 172 269 C164 315 158 361 175 404 L175 404 Z M31 61 C13 118 105 216 146 253 C148 245 150 224 150 220 C155 162 147 61 73 42 C55 37 38 42 31 61 L31 61 Z " />
<glyph glyph-name="nine" unicode="9" horiz-adv-x="327" d="M42 31 C99 -19 185 90 209 142 C251 230 277 324 309 436 C311 444 313 452 315 460 C317 467 321 476 321 484 C321 490 313 498 308 494 C302 491 299 477 294 470 C284 453 273 437 263 421 C238 382 197 319 152 299 C107 279 122 343 128 368 C141 416 167 471 204 508 C215 518 231 533 248 533 C256 533 261 524 264 517 C267 513 271 503 278 506 C269 523 263 541 241 543 C173 550 94 390 96 333 C98 287 130 269 165 285 C211 307 245 365 273 411 C258 370 244 323 229 281 C203 207 177 121 115 59 C105 49 79 28 61 34 C22 47 41 116 53 145 C60 162 70 178 86 189 C81 207 55 177 40 149 C23 117 9 60 42 31 L42 31 Z " />
<glyph glyph-name="colon" unicode="&#x3a;" horiz-adv-x="133" d="M110 317 C110 325 95 326 93 317 C92 313 95 309 101 309 C109 309 110 315 110 317 L110 317 Z M87 245 C94 253 80 261 74 253 C67 244 82 238 87 245 L87 245 Z " />
<glyph glyph-name="semicolon" unicode="&#x3b;" horiz-adv-x="161" d="M83 191 C92 206 110 241 113 252 C114 257 108 264 104 261 C99 258 80 208 76 202 C75 199 74 196 76 194 C77 193 81 192 83 191 L83 191 Z M139 317 C140 323 136 325 131 327 C127 328 119 328 116 321 C115 316 120 311 127 310 C135 310 139 314 139 317 L139 317 Z " />
<glyph glyph-name="less" unicode="&#x3c;" horiz-adv-x="214" d="M135 219 C142 230 132 234 124 238 C95 254 64 267 35 285 C80 300 130 313 180 326 C186 328 195 331 197 337 C199 345 188 342 183 340 C140 329 121 326 70 311 C62 309 30 299 22 294 C17 290 15 285 18 279 C23 269 125 223 135 219 L135 219 Z " />
<glyph glyph-name="equal" unicode="&#x3d;" horiz-adv-x="209" d="M182 302 C186 312 170 312 162 311 C146 310 91 308 61 307 C57 307 50 307 48 304 C46 300 48 297 51 296 C56 295 63 296 67 296 C79 297 155 298 182 302 L182 302 Z M162 281 C139 279 117 278 95 276 C84 275 52 276 48 273 C46 271 46 268 48 266 C52 263 59 265 65 265 C92 266 120 268 147 270 C152 270 165 269 162 281 L162 281 Z " />
<glyph glyph-name="greater" unicode="&#x3e;" horiz-adv-x="251" d="M15 209 C43 221 154 245 203 267 C212 271 216 284 208 290 C190 303 151 316 124 327 C121 329 111 334 108 331 C105 328 109 324 112 322 C138 307 194 286 194 282 C194 276 71 246 16 224 C7 220 11 215 15 209 L15 209 Z " />
<glyph glyph-name="question" unicode="&#x3f;" horiz-adv-x="557" d="M103 -90 C103 -83 114 -42 124 -21 C220 180 354 312 511 477 C550 516 725 682 593 725 C503 755 365 685 290 621 C250 585 214 543 186 496 C179 485 120 379 152 368 C154 367 157 366 158 368 C158 370 156 371 154 372 C135 398 195 496 209 515 C241 560 279 599 322 632 C387 679 502 739 592 711 C671 682 585 594 550 558 C510 518 470 479 431 439 C297 302 161 153 95 -37 C90 -54 69 -101 102 -99 C106 -98 104 -93 103 -90 L103 -90 Z M73 -207 C76 -191 80 -177 84 -162 C86 -155 90 -147 90 -141 C90 -137 84 -133 81 -136 C78 -139 71 -166 69 -175 C67 -181 62 -202 65 -205 C67 -207 71 -207 73 -207 L73 -207 Z " />
<glyph glyph-name="at" unicode="&#x40;" horiz-adv-x="484" d="M276 301 C284 315 284 336 276 348 C257 376 226 362 205 343 C175 316 142 269 146 225 C148 210 155 200 168 193 C208 168 244 218 270 248 C262 233 242 193 261 177 C270 170 284 164 297 167 C366 192 432 340 429 415 C425 469 387 508 330 508 C276 508 221 480 180 446 C104 381 34 273 27 158 C25 105 41 46 93 21 C143 -2 201 16 245 50 C261 62 280 79 288 98 C290 102 283 109 281 105 C272 88 241 64 229 54 C188 25 122 5 81 43 C41 80 41 143 49 192 C59 248 83 302 115 349 C159 411 221 478 306 494 C361 507 414 480 418 420 C423 350 376 245 318 199 C314 195 291 179 286 185 C279 193 307 248 312 259 C318 271 325 285 329 298 C331 308 324 325 313 320 C305 316 299 300 292 291 C288 286 197 190 176 207 C156 224 219 322 251 345 C273 358 271 323 269 310 C268 305 270 299 276 301 L276 301 Z " />
<glyph glyph-name="A" unicode="A" horiz-adv-x="887" d="M503 -265 C531 -203 562 -143 588 -77 C613 -18 706 205 706 205 C775 206 838 251 865 269 C872 274 878 279 885 284 C889 288 897 294 887 300 C887 300 868 285 862 281 C837 263 778 222 712 219 C726 255 777 412 779 495 C779 536 774 578 758 616 C709 736 572 771 448 757 C366 747 283 716 214 670 C117 605 31 508 5 378 C-4 338 -5 295 10 257 C22 224 51 189 89 186 C99 186 109 188 117 191 C122 193 133 198 127 201 C123 203 118 199 114 197 C102 191 88 189 74 194 C39 206 19 246 13 280 C5 321 10 364 22 403 C45 480 91 553 151 606 C253 689 380 753 522 745 C560 742 598 737 633 722 C664 708 706 683 722 656 C731 641 731 619 730 602 C724 543 703 492 670 435 C649 400 626 367 602 333 C585 311 522 227 502 207 C485 205 456 202 434 200 C353 192 276 175 200 145 C134 117 67 69 36 -5 C22 -39 10 -82 27 -117 C43 -151 83 -157 117 -152 C190 -140 251 -84 309 -30 C367 24 420 85 471 147 C483 162 495 177 508 192 C510 195 513 199 517 199 C552 201 625 205 668 204 C652 167 511 -172 497 -205 C489 -224 478 -248 481 -257 C484 -265 498 -276 503 -265 L503 -265 Z M496 197 C437 124 377 53 310 -13 C258 -63 193 -130 112 -142 C73 -149 37 -135 32 -89 C28 -49 41 -12 62 21 C83 55 113 84 146 106 C212 146 294 171 376 183 C416 190 456 195 496 197 L496 197 Z M521 209 C543 237 567 265 589 295 C627 347 665 400 695 458 C725 515 742 574 734 641 C755 603 762 557 759 514 C753 436 730 362 700 284 C693 265 685 247 678 229 C677 226 673 218 672 215 C656 213 605 212 576 211 C558 211 540 209 521 209 L521 209 Z " />
<glyph glyph-name="B" unicode="B" horiz-adv-x="1187" d="M561 750 C484 853 334 809 240 747 C180 708 128 657 86 598 C44 539 11 470 -1 396 C-7 362 -7 325 3 290 C13 258 32 224 62 205 C95 184 134 186 165 200 C170 202 174 204 179 206 C183 208 186 209 185 212 C183 219 176 216 165 211 C148 203 133 199 114 198 C38 195 3 293 6 353 C10 428 37 499 75 561 C114 624 164 677 224 720 C253 741 285 760 318 773 C354 788 390 796 428 798 C502 802 564 758 579 674 C594 597 581 521 563 448 C527 302 460 169 399 34 C384 1 369 -32 354 -65 C332 -115 306 -165 297 -221 C296 -231 293 -243 303 -253 C307 -258 318 -257 317 -249 C320 -237 324 -223 329 -212 C394 -60 464 91 554 242 C630 370 717 495 823 600 C874 651 932 701 1000 732 C1088 769 1134 732 1093 635 C1079 602 1058 572 1038 543 C1016 514 993 486 969 460 C918 404 865 351 810 300 C782 273 712 217 695 184 C686 166 712 161 726 156 C762 144 797 131 824 102 C838 88 844 78 848 68 C798 36 745 14 694 -23 C665 -44 638 -69 616 -99 C592 -132 555 -201 598 -239 C611 -250 629 -254 646 -254 C714 -252 783 -196 826 -149 C873 -96 904 -23 871 48 C870 51 864 61 864 61 C974 134 1074 198 1172 277 C1176 280 1180 283 1184 286 C1191 292 1193 296 1187 300 C1187 300 1179 295 1177 293 C1105 242 976 150 857 73 C828 125 785 145 723 166 C717 168 702 169 708 178 C723 199 745 217 764 235 C815 284 868 331 919 381 C993 455 1076 553 1111 646 C1122 676 1131 721 1098 744 C1046 780 952 725 911 695 C852 652 800 600 752 545 C705 490 660 431 620 370 C578 310 542 246 503 179 C522 227 541 275 560 326 C576 371 589 419 598 467 C614 559 619 667 561 750 L561 750 Z M853 55 C870 27 871 -11 864 -40 C853 -99 812 -148 763 -188 C733 -212 650 -267 608 -234 C547 -181 657 -66 700 -35 C724 -17 750 -2 776 12 C802 27 828 41 853 55 L853 55 Z " />
<glyph glyph-name="C" unicode="C" horiz-adv-x="1066" d="M295 -195 C356 -278 457 -282 555 -232 C709 -153 856 8 989 179 C1012 208 1064 278 1070 285 C1072 288 1077 294 1066 300 C1001 219 940 142 876 68 C778 -48 587 -248 423 -248 C387 -248 353 -234 327 -209 C274 -158 271 -79 279 -10 C296 141 362 256 445 382 C508 473 577 558 664 645 C709 642 750 643 801 643 C862 643 1002 658 1016 740 C1019 757 1017 774 1006 789 C985 819 938 828 904 823 C831 814 770 764 715 718 C694 699 671 679 650 660 C602 660 553 664 505 664 C428 664 349 656 275 630 C203 604 137 559 88 498 C43 441 2 368 0 291 C-1 256 12 216 47 201 C63 194 82 195 98 205 C100 206 109 211 110 213 C110 226 91 211 84 209 C69 202 50 206 37 216 C23 227 16 241 13 257 C6 293 14 333 27 367 C55 439 98 503 159 551 C187 573 219 593 252 606 C327 637 405 651 493 651 C540 651 587 647 636 646 C585 595 535 540 476 464 C378 338 290 197 264 48 C251 -27 248 -128 295 -195 L295 -195 Z M965 694 C920 665 854 657 791 656 C754 656 717 656 677 659 C697 675 714 693 733 709 C789 756 851 807 929 810 C964 812 1012 787 1004 745 C1000 723 983 706 965 694 L965 694 Z " />
<glyph glyph-name="D" unicode="D" horiz-adv-x="1235" d="M112 385 C110 390 107 392 102 391 C94 390 88 387 81 387 C37 391 20 432 18 478 C17 509 24 539 34 567 C55 622 89 671 132 709 C216 785 348 831 465 800 C522 783 569 750 583 684 C596 621 583 558 569 499 C555 439 534 380 514 323 C486 247 453 174 420 96 C382 90 346 85 307 73 C255 56 204 28 177 -22 C164 -46 157 -75 161 -104 C174 -195 281 -236 365 -242 C489 -252 603 -203 697 -135 C744 -101 787 -64 827 -24 C862 13 924 84 953 125 C1001 136 1050 153 1098 174 C1150 199 1195 234 1232 279 C1236 283 1247 295 1235 300 C1235 300 1230 295 1229 294 C1219 282 1209 272 1198 262 C1152 223 1106 191 1048 168 C1035 163 983 145 965 142 C971 152 978 162 984 172 C1065 296 1133 448 1139 602 C1140 649 1136 714 1103 747 C1065 785 1008 769 969 752 C924 732 884 703 847 671 C771 604 707 524 649 441 C591 357 541 267 495 175 C515 234 538 292 557 355 C572 405 586 454 596 506 C613 595 622 716 535 780 C493 811 435 821 386 821 C336 822 285 809 240 791 C150 756 76 689 34 601 C13 557 0 505 11 454 C17 431 27 408 46 393 C67 379 91 376 112 385 L112 385 Z M473 100 C480 115 486 129 493 143 C553 266 620 386 703 493 C743 545 786 595 835 641 C882 685 935 727 997 749 C1026 760 1064 769 1092 745 C1117 724 1122 684 1125 655 C1136 524 1081 381 1017 263 C993 219 967 175 935 135 C826 109 709 103 578 103 C543 103 508 102 473 100 L473 100 Z M416 83 C387 1 304 -177 311 -195 C313 -201 325 -209 328 -205 C343 -182 416 -23 432 12 C440 31 457 68 466 86 C482 89 570 92 597 92 C667 94 738 93 816 100 C854 103 890 110 922 117 C898 78 864 45 832 9 C800 -25 765 -57 730 -87 C666 -141 596 -186 515 -212 C423 -242 229 -246 180 -130 C166 -97 175 -46 198 -14 C221 19 257 41 295 56 C330 69 375 78 416 83 L416 83 Z " />
<glyph glyph-name="E" unicode="E" horiz-adv-x="980" d="M760 62 C698 0 632 -56 545 -122 C493 -162 436 -201 373 -217 C273 -243 185 -185 173 -79 C169 -48 175 -14 185 16 C215 123 317 204 415 256 C469 284 525 307 583 326 C598 331 613 336 629 340 C641 343 669 345 673 348 C676 350 667 362 664 364 C659 368 650 364 644 363 C627 360 610 358 593 356 C559 351 525 351 491 352 C436 354 351 380 340 446 C322 553 456 659 537 707 C546 712 555 718 567 723 C628 699 692 676 765 663 C800 657 845 654 877 673 C926 702 914 749 854 777 C778 812 679 795 599 765 C586 761 562 752 545 744 C538 746 525 750 518 752 C469 766 418 777 350 780 C234 783 114 758 34 661 C-56 548 -109 336 45 269 C86 252 156 248 188 288 C191 291 196 296 197 300 C197 304 193 308 188 308 C184 307 179 299 176 296 C159 278 139 271 114 270 C74 268 17 283 -12 330 C-73 439 -16 581 65 673 C161 769 308 778 441 757 C471 751 502 745 531 735 C490 712 453 685 418 653 C387 625 359 591 340 553 C299 476 316 386 411 351 C451 336 488 332 532 331 C491 315 451 300 412 280 C375 261 340 240 307 215 C223 150 149 55 152 -60 C154 -128 191 -206 266 -230 C331 -251 408 -233 470 -197 C558 -146 650 -68 728 7 C812 85 899 176 977 271 C982 277 998 295 980 300 C914 217 842 143 760 62 L760 62 Z M584 730 C660 762 756 794 843 764 C861 757 888 744 892 723 C896 703 875 686 858 679 C818 661 762 674 718 685 C672 697 628 712 584 730 L584 730 Z " />
<glyph glyph-name="F" unicode="F" horiz-adv-x="915" d="M653 721 C655 633 612 514 573 414 C543 336 511 260 475 183 C426 170 381 150 342 131 C303 111 267 87 232 60 C166 9 103 -55 67 -133 C52 -167 35 -222 68 -251 C83 -265 105 -272 125 -271 C145 -270 166 -263 184 -255 C264 -220 362 -86 422 25 C449 72 475 123 498 174 C561 188 697 223 774 251 C785 255 846 281 846 287 C847 289 846 291 843 292 C841 293 836 290 834 289 C750 252 662 227 567 206 C549 201 534 199 505 191 C550 293 589 397 626 508 C647 574 668 639 667 719 C695 713 718 705 745 698 C852 668 970 637 1091 643 C1141 647 1206 658 1253 683 C1255 684 1258 687 1255 691 C1253 693 1249 691 1247 690 C1201 676 1155 662 1102 658 C996 651 884 674 761 707 C648 739 532 770 414 752 C359 743 304 723 256 694 C167 640 84 553 32 448 C9 398 -9 340 2 284 C11 235 48 185 101 184 C114 184 127 187 139 192 C145 194 152 196 158 199 C164 202 159 206 154 206 C148 206 141 202 135 201 C50 167 6 255 9 328 C12 386 38 441 67 489 C120 579 210 668 316 712 C394 743 481 751 570 738 C598 734 627 730 653 721 L653 721 Z M468 168 C406 41 299 -167 162 -238 C136 -251 83 -270 70 -230 C57 -192 74 -148 91 -116 C129 -44 189 14 253 62 C315 108 387 146 468 168 L468 168 Z " />
<glyph glyph-name="G" unicode="G" horiz-adv-x="1214" d="M1101 783 C1176 755 1190 692 1135 648 C1105 624 1057 615 1014 618 C922 624 834 659 754 687 C676 639 608 588 547 529 C463 443 383 340 369 221 C364 180 369 135 398 98 C426 62 471 54 511 58 C597 66 671 115 735 165 C802 218 862 280 918 344 C960 392 990 430 1017 470 C1021 475 1028 490 1035 478 C1043 464 1026 430 1022 416 C995 334 962 255 928 176 C920 157 912 139 904 121 C942 133 976 148 1009 164 C1064 190 1111 219 1155 251 C1170 262 1184 275 1198 287 C1202 290 1214 300 1214 300 C1223 295 1217 291 1213 288 C1200 275 1179 257 1165 246 C1105 200 1039 165 970 134 C942 122 922 113 895 103 C875 61 851 19 827 -21 C780 -100 725 -167 656 -212 C609 -238 545 -260 498 -226 C464 -202 460 -159 468 -127 C478 -93 499 -65 523 -41 C576 13 653 39 725 62 C778 79 821 91 869 109 C880 130 892 157 902 178 C933 247 965 318 993 389 C1000 407 1007 424 1013 441 C979 395 950 364 919 327 C884 288 849 250 812 214 C777 179 739 148 698 119 C615 58 497 11 408 69 C361 100 346 156 346 206 C346 260 363 311 385 356 C428 446 495 521 569 586 C617 628 669 664 722 698 C627 737 518 759 420 745 C322 732 233 688 162 628 C93 569 33 491 12 399 C1 354 5 302 28 255 C69 172 172 180 243 236 C246 238 251 242 255 241 C257 241 262 237 261 235 C261 233 255 230 254 229 C220 208 188 187 148 182 C102 177 54 199 26 240 C-4 283 -8 335 -1 381 C13 474 69 556 135 617 C204 681 289 729 385 750 C434 760 483 761 534 756 C612 747 677 728 736 706 C808 744 882 778 962 790 C1010 798 1060 798 1101 783 L1101 783 Z M859 91 C824 81 790 71 756 61 C720 50 685 39 650 26 C567 -7 444 -103 486 -198 C502 -232 544 -231 569 -227 C635 -217 693 -157 731 -110 C781 -49 822 21 859 91 L859 91 Z M768 695 C863 654 1022 599 1114 645 C1170 674 1177 733 1119 762 C1017 812 852 746 768 695 L768 695 Z " />
<glyph glyph-name="H" unicode="H" horiz-adv-x="1172" d="M1081 835 C1047 853 1002 827 974 803 C928 765 892 712 857 661 C812 592 771 520 733 447 C705 393 678 338 651 281 C642 278 620 273 612 272 C641 351 659 441 663 530 C666 606 654 694 599 751 C543 810 454 816 377 810 C217 798 66 700 -9 553 C-44 485 -64 394 -20 325 C9 280 59 241 121 244 C139 245 175 254 175 260 C174 270 157 261 147 258 C86 240 24 272 -11 327 C-39 371 -38 425 -26 474 C0 575 74 663 159 720 C243 777 354 810 460 800 C509 795 560 779 594 742 C629 705 642 653 646 604 C654 492 626 373 581 266 C543 257 494 243 452 228 C357 196 261 143 186 64 C151 27 120 -18 105 -67 C91 -114 95 -174 140 -203 C259 -286 430 -78 485 14 C532 92 573 173 608 258 C618 261 635 264 646 267 C606 163 562 57 559 -61 C557 -133 578 -236 670 -241 C723 -243 777 -207 819 -172 C910 -98 983 -7 1050 88 C1094 151 1138 216 1177 290 C1181 297 1177 300 1172 300 C1159 274 1142 250 1126 223 C1064 124 996 26 918 -60 C867 -118 724 -260 640 -223 C593 -202 578 -136 578 -89 C579 -32 592 25 607 80 C626 147 655 208 677 274 C781 300 869 332 953 401 C1033 465 1114 569 1126 689 C1132 747 1125 812 1081 835 L1081 835 Z M684 288 C724 386 776 480 832 577 C876 655 923 739 997 798 C1014 812 1039 829 1062 829 C1083 829 1098 811 1106 792 C1124 749 1119 695 1107 647 C1081 553 1021 472 946 411 C909 380 867 354 824 334 C780 315 734 299 684 288 L684 288 Z M574 250 C538 160 489 71 424 -18 C375 -84 310 -163 227 -194 C187 -209 141 -208 121 -161 C105 -119 114 -73 134 -33 C191 85 316 164 441 212 C482 229 529 243 574 250 L574 250 Z " />
<glyph glyph-name="I" unicode="I" horiz-adv-x="803" d="M245 -264 C345 -208 456 -40 525 91 C536 113 555 147 566 173 C651 197 733 231 803 288 C806 290 812 297 803 300 C738 254 656 207 571 187 C613 282 649 373 674 468 C697 555 735 700 660 766 C617 804 535 788 483 761 C409 723 344 672 300 600 C280 566 267 529 261 489 C255 450 260 402 288 371 C303 356 322 347 342 348 C353 349 366 351 375 355 C381 359 372 365 363 362 C325 349 291 365 276 407 C248 485 288 576 340 639 C394 704 562 827 652 759 C711 715 684 587 667 524 C633 407 590 291 532 177 C439 149 340 139 239 105 C116 63 -23 -54 23 -202 C50 -288 148 -316 245 -264 L245 -264 Z M525 162 C474 64 419 -36 342 -127 C291 -188 230 -268 145 -273 C49 -279 15 -178 37 -101 C66 10 177 80 288 109 C365 129 445 143 525 162 L525 162 Z " />
<glyph glyph-name="J" unicode="J" horiz-adv-x="863" d="M395 -143 C485 -72 546 2 612 104 C618 114 651 165 658 181 C695 191 733 206 769 224 C801 241 836 260 864 288 C866 291 872 295 863 300 C863 300 853 292 850 289 C800 250 737 215 665 198 C696 264 724 331 745 411 C761 470 771 541 765 603 C754 734 665 814 525 807 C461 805 401 786 343 761 C286 736 231 702 183 663 C136 624 93 580 59 528 C26 480 -6 419 -8 357 C-8 326 -3 296 13 269 C40 220 97 190 155 190 C186 190 213 201 241 211 C237 219 233 218 225 215 C202 206 177 199 149 199 C55 199 -13 284 6 384 C17 444 50 501 87 548 C125 596 169 636 217 672 C277 715 342 749 416 773 C478 792 547 804 615 782 C747 745 765 614 742 492 C725 406 674 263 621 188 C546 161 357 141 263 129 C203 122 141 112 84 86 C-4 45 -102 -52 -62 -163 C-46 -207 -11 -236 32 -250 C145 -287 295 -219 395 -143 L395 -143 Z M-50 -77 C-39 -32 -8 6 30 36 C91 83 168 103 249 114 C367 130 495 137 612 171 C574 107 530 47 474 -15 C381 -116 271 -210 133 -238 C35 -258 -81 -203 -50 -77 L-50 -77 Z " />
<glyph glyph-name="K" unicode="K" horiz-adv-x="1086" d="M1088 289 C1093 294 1091 306 1086 300 C965 146 860 0 723 -140 C696 -167 647 -212 617 -214 C571 -217 573 -163 583 -128 C606 -47 647 28 682 124 C701 173 757 333 672 355 C684 361 696 368 708 374 C862 453 999 566 1129 696 C1141 708 1165 730 1156 737 C1154 739 1151 735 1148 732 C1055 639 957 550 844 472 C779 428 710 389 639 355 C661 448 688 559 676 653 C666 730 631 797 540 812 C411 833 280 752 193 662 C163 631 135 596 118 557 C101 520 95 474 118 441 C128 426 146 414 164 411 C185 407 203 409 224 412 C229 423 207 418 199 418 C188 417 177 418 167 420 C120 429 106 475 116 518 C126 563 154 602 185 636 C259 717 381 805 506 800 C550 799 592 788 620 756 C702 661 639 446 600 340 C584 330 517 304 492 294 C399 260 304 232 214 191 C132 154 38 97 16 4 C-5 -84 25 -187 128 -210 C210 -228 296 -177 361 -118 C485 -1 569 154 628 322 C631 329 631 335 638 338 C650 345 673 348 687 340 C723 320 697 215 688 184 C670 129 648 75 625 22 C605 -24 530 -164 580 -212 C598 -229 623 -230 646 -218 C688 -196 734 -149 771 -108 C810 -66 847 -23 883 22 C953 108 1020 196 1088 289 L1088 289 Z M32 9 C61 117 205 181 318 218 C387 242 447 263 527 293 C552 303 570 309 592 319 C534 157 385 -88 215 -174 C142 -211 58 -191 32 -104 C21 -67 22 -29 32 9 L32 9 Z " />
<glyph glyph-name="L" unicode="L" horiz-adv-x="590" d="M73 251 C71 255 70 257 66 257 C48 260 35 261 22 278 C9 295 1 319 -1 342 C-8 428 29 514 81 582 C119 632 165 676 217 713 C271 749 372 804 440 776 C532 738 444 501 418 432 C361 278 289 125 190 -21 C166 -56 134 -99 104 -137 C85 -141 36 -155 1 -168 C-38 -183 -82 -201 -110 -233 C-120 -245 -135 -270 -124 -288 C-104 -321 -43 -295 -16 -279 C44 -244 90 -198 140 -145 C224 -129 325 -112 420 -117 C454 -119 477 -126 478 -132 C479 -135 473 -145 482 -145 C489 -145 490 -130 475 -121 C435 -97 335 -102 284 -108 C242 -113 199 -119 154 -127 C227 -33 292 65 356 204 C405 309 449 419 481 541 C496 604 534 761 439 793 C358 818 241 750 178 700 C128 659 84 611 50 556 C18 504 -8 443 -11 382 C-12 351 -9 319 5 291 C17 266 45 246 73 251 L73 251 Z M-1 -182 C16 -176 58 -161 88 -156 C65 -182 40 -207 13 -229 C-7 -246 -72 -297 -105 -289 C-119 -285 -113 -264 -108 -255 C-88 -218 -41 -197 -1 -182 L-1 -182 Z " />
<glyph glyph-name="M" unicode="M" horiz-adv-x="1146" d="M1149 286 C1154 294 1154 298 1146 300 C1082 219 1027 134 960 45 C912 -22 861 -91 802 -160 C780 -186 738 -217 723 -176 C700 -114 744 19 768 94 C786 146 805 198 824 249 C863 354 907 458 938 565 C953 618 970 673 976 730 C978 750 981 790 957 799 C925 811 825 646 808 617 C779 567 753 515 726 463 C673 359 626 251 577 145 C571 131 456 -110 436 -105 C423 -102 434 -18 438 2 C468 172 551 364 620 550 C629 574 637 599 645 624 C652 647 688 766 643 771 C625 773 597 741 584 723 C519 637 467 539 411 427 C360 323 314 217 267 111 C243 58 220 6 196 -46 C172 -97 147 -148 118 -196 C112 -205 88 -246 78 -242 C68 -238 76 -191 83 -169 C100 -117 120 -66 140 -14 C177 83 218 178 265 289 C305 391 347 495 369 607 C379 660 385 722 354 768 C325 810 272 813 220 790 C125 747 42 656 -5 560 C-38 496 -65 392 -23 323 C-14 307 3 291 31 295 C39 302 12 300 4 304 C-6 309 -12 320 -17 329 C-28 353 -31 379 -31 405 C-32 546 99 732 240 782 C270 792 324 793 344 762 C374 715 351 625 331 565 C314 511 294 458 273 405 C210 249 137 94 79 -66 C62 -114 38 -173 44 -227 C46 -240 51 -252 63 -258 C96 -276 124 -223 141 -195 C169 -148 192 -97 215 -47 C262 57 306 161 352 264 C414 402 498 582 593 710 C600 719 633 765 646 757 C667 743 591 549 581 525 C561 474 541 422 521 370 C501 316 483 262 465 208 C439 132 412 52 405 -33 C403 -58 406 -93 414 -110 C422 -127 437 -126 446 -121 C466 -110 499 -57 509 -37 C536 13 559 65 583 117 C673 316 760 520 888 715 C896 728 936 784 956 784 C966 784 956 737 955 729 C932 618 891 513 851 408 C809 301 766 194 731 84 C714 31 699 -23 694 -79 C690 -123 694 -204 746 -209 C765 -211 791 -194 806 -177 C856 -122 912 -43 965 28 C1025 113 1081 192 1149 286 L1149 286 Z " />
<glyph glyph-name="N" unicode="N" horiz-adv-x="948" d="M51 636 C105 708 182 782 278 792 C319 796 367 787 376 737 C398 627 321 448 276 335 C240 248 203 161 166 74 C131 -2 87 -100 68 -187 C64 -206 59 -236 73 -251 C79 -258 92 -262 104 -254 C151 -223 278 52 319 138 C378 262 438 384 520 508 C565 579 680 745 756 784 C776 794 774 773 774 757 C768 688 739 617 712 551 C660 417 592 289 539 143 C513 73 436 -125 503 -172 C584 -228 720 -25 759 28 C820 115 885 196 953 291 C956 295 955 298 948 300 C873 205 804 113 731 14 C696 -32 660 -80 616 -119 C604 -130 537 -181 515 -160 C484 -130 519 -18 536 35 C567 135 611 231 658 343 C700 443 791 647 790 747 C790 767 789 806 755 797 C716 787 657 716 626 679 C476 500 375 290 262 57 C215 -41 108 -236 103 -230 C103 -161 186 26 221 109 C290 259 379 476 398 632 C405 689 402 762 346 794 C318 809 284 808 254 802 C164 785 85 711 33 633 C-3 579 -28 517 -34 453 C-37 407 -29 358 -8 315 C-3 306 6 284 20 287 C13 295 7 302 3 311 C-12 341 -20 372 -23 409 C-30 488 5 571 51 636 L51 636 Z " />
<glyph glyph-name="O" unicode="O" horiz-adv-x="988" d="M578 817 C388 861 246 742 132 593 C47 481 -23 339 3 202 C9 168 20 136 36 106 C44 91 55 77 64 65 C44 10 -7 -111 50 -187 C126 -286 312 -220 402 -159 C454 -127 498 -87 545 -47 C580 -34 625 -18 664 1 C743 39 814 97 880 160 C908 188 973 253 994 290 C995 292 999 297 988 300 C957 258 918 220 874 177 C785 92 683 18 567 -21 C679 99 775 307 789 468 C798 625 762 768 578 817 L578 817 Z M219 655 L224 661 C301 743 411 822 545 808 C599 803 653 780 691 744 C866 586 746 233 619 66 C595 35 572 0 540 -28 C521 -37 494 -42 473 -47 C347 -71 211 -55 116 26 C105 35 92 47 84 59 C95 95 118 135 141 178 C170 229 205 279 242 326 C281 377 323 427 372 470 C378 475 385 481 392 485 C395 487 396 487 396 490 C396 491 395 494 394 495 C380 506 298 415 289 405 C201 306 124 197 71 76 C30 138 14 212 23 291 C32 358 59 427 95 486 C135 555 169 600 219 655 L219 655 Z M76 48 C99 25 126 3 159 -15 C211 -46 271 -63 333 -70 C391 -76 451 -70 512 -56 C469 -96 422 -133 371 -162 C299 -204 172 -253 86 -205 C45 -182 37 -136 40 -90 C44 -44 58 4 76 48 L76 48 Z " />
<glyph glyph-name="P" unicode="P" horiz-adv-x="922" d="M628 227 C703 340 787 454 836 581 C858 638 890 741 845 782 C789 832 713 797 663 765 C606 727 557 674 515 620 C469 564 431 503 393 442 C406 482 417 526 423 569 C432 621 443 763 361 774 C267 787 134 657 84 587 C39 523 3 449 -4 371 C-8 323 -1 251 46 219 C61 210 78 208 95 208 C91 214 86 213 79 214 C31 214 12 273 7 314 C-5 411 42 507 96 583 C144 649 261 774 357 760 C433 749 409 617 397 566 C380 490 353 416 322 344 C292 273 261 203 229 133 C197 65 163 -3 134 -79 C128 -97 90 -206 108 -213 C109 -214 120 -220 121 -217 C129 -199 134 -181 141 -162 C201 8 285 169 357 338 C372 372 385 406 406 441 C444 507 488 569 537 628 C573 671 613 712 659 746 C700 775 763 815 819 790 C870 766 845 670 828 628 C774 482 687 350 588 230 C563 231 544 233 516 233 C456 233 397 219 342 190 C266 150 184 -4 313 -9 C427 -9 550 132 619 216 C700 203 792 209 868 247 C888 257 907 272 923 288 C930 295 928 298 922 300 C922 300 916 294 915 293 C835 223 733 221 628 227 L628 227 Z M267 80 C315 206 467 235 579 219 C551 183 519 149 485 118 C451 88 339 -20 284 9 C258 23 259 60 267 80 L267 80 Z " />
<glyph glyph-name="Q" unicode="Q" horiz-adv-x="808" d="M359 -123 C481 8 575 170 657 348 C677 394 698 446 710 495 C731 580 743 697 657 748 C618 772 565 773 520 764 C472 754 425 737 382 713 C296 666 220 601 161 522 C102 445 57 347 60 250 C61 202 75 157 107 122 C137 88 184 66 231 81 C246 87 260 94 273 107 C277 110 281 113 277 118 C273 122 270 117 266 114 C255 103 239 94 223 90 C200 84 176 84 154 93 C134 101 116 117 103 134 C45 210 66 322 103 405 C143 495 209 573 286 635 C339 677 395 711 475 740 C522 757 588 766 638 744 C695 721 715 668 710 605 C708 578 703 552 697 526 C678 451 643 379 599 296 C573 247 545 200 517 153 C461 60 398 -31 322 -108 C279 -89 236 -76 184 -72 C114 -66 14 -103 18 -190 C18 -215 32 -236 53 -250 C110 -284 171 -262 229 -231 C272 -208 318 -168 353 -129 C364 -132 402 -149 417 -153 C523 -187 602 -178 710 -139 C721 -135 725 -134 733 -130 C737 -128 743 -126 741 -122 C740 -119 737 -117 734 -118 C720 -123 702 -131 684 -136 C648 -147 612 -156 575 -161 C500 -171 426 -151 359 -123 L359 -123 Z M317 -115 C309 -126 297 -136 288 -145 C259 -172 228 -198 188 -220 C153 -240 94 -269 54 -241 C14 -215 31 -155 59 -124 C104 -71 189 -74 252 -93 C272 -98 298 -107 317 -115 L317 -115 Z " />
<glyph glyph-name="R" unicode="R" horiz-adv-x="1028" d="M1032 289 C1034 293 1036 298 1028 300 C925 177 830 48 737 -87 C710 -124 682 -163 649 -196 C589 -256 525 -237 535 -142 C537 -119 540 -96 544 -73 C551 -28 561 21 541 67 C537 77 526 94 514 107 C593 166 659 231 731 305 C812 399 907 505 940 632 C946 655 950 680 944 704 C933 750 890 767 837 750 C706 706 568 534 488 421 C460 382 433 341 407 300 C377 251 365 230 332 175 C375 294 627 670 431 770 C369 802 296 786 238 764 C177 740 121 700 80 649 C38 598 8 533 5 465 C3 432 10 397 27 367 C40 346 62 323 90 323 C92 323 101 323 102 324 C103 325 102 327 101 328 C98 331 95 331 91 331 C84 330 78 329 70 332 C55 337 45 350 37 363 C20 393 14 426 15 458 C15 524 46 587 85 636 C141 709 240 767 337 773 C481 780 507 683 472 557 C460 517 444 479 428 441 C394 363 355 289 317 213 C260 103 207 -10 159 -130 C151 -151 122 -227 157 -238 C168 -243 169 -207 177 -188 C228 -66 282 54 349 175 C369 211 390 245 410 279 C505 432 611 576 756 691 C788 715 862 761 908 739 C931 728 933 698 929 673 C901 542 770 394 663 284 C610 228 553 175 486 124 C456 130 402 120 378 90 C370 76 372 71 385 62 C414 47 462 72 489 91 C492 94 504 102 504 102 C527 88 538 50 538 26 C537 -31 521 -80 518 -142 C516 -181 521 -228 568 -241 C602 -250 636 -230 662 -204 C710 -156 754 -90 799 -26 C877 84 946 182 1032 289 L1032 289 Z M401 89 C410 98 426 109 453 114 C459 115 466 115 472 114 C460 106 448 98 436 92 C430 88 394 67 389 72 C387 74 396 84 401 89 L401 89 Z " />
<glyph glyph-name="S" unicode="S" horiz-adv-x="706" d="M495 633 C563 633 713 657 754 729 C766 750 766 776 740 789 C702 808 640 790 596 762 C545 731 505 686 477 645 C432 643 389 643 345 638 C208 624 99 576 36 463 C17 430 -5 383 -6 342 C-6 322 -4 299 8 282 C40 233 115 240 163 264 C166 264 174 266 169 271 C163 277 149 269 142 267 C114 257 73 248 44 263 C-38 301 26 431 63 485 C100 538 154 576 216 599 C296 626 379 626 469 632 C444 582 428 528 432 464 C435 418 445 373 453 327 C462 281 469 233 471 186 C337 138 176 96 60 -2 C14 -42 -40 -110 -17 -181 C4 -244 83 -272 148 -266 C356 -257 511 -19 492 177 C564 201 650 238 708 287 C711 289 715 296 706 300 C652 257 564 215 490 193 C486 264 466 334 455 402 C450 432 446 463 448 494 C453 559 478 614 495 633 L495 633 Z M47 -40 C133 53 254 94 372 136 C405 148 437 160 471 171 C471 122 464 71 448 22 C399 -111 221 -286 60 -235 C-36 -205 -16 -108 47 -40 L47 -40 Z M505 646 C523 678 567 717 606 742 C637 762 672 778 708 779 C721 779 750 777 751 759 C752 743 737 726 725 715 C694 689 657 673 619 662 C584 653 546 647 505 646 L505 646 Z " />
<glyph glyph-name="T" unicode="T" horiz-adv-x="826" d="M121 -254 C209 -254 283 -170 336 -104 C378 -49 408 5 446 77 C563 102 724 170 825 286 C829 290 837 295 826 300 C715 189 611 130 451 87 C478 142 504 198 527 254 C583 393 634 535 696 678 C716 675 757 666 774 662 C847 647 917 634 993 632 C1061 631 1128 644 1189 684 C1194 688 1199 691 1199 697 C1199 705 1195 701 1190 699 C1125 659 1057 640 975 646 C914 650 853 660 793 671 C764 677 735 683 706 689 C623 707 540 729 451 735 C397 738 340 734 286 720 C227 705 171 679 124 638 C64 587 -2 496 23 410 C37 360 78 318 145 318 C175 318 201 334 228 338 C228 341 227 345 224 346 C220 347 197 339 189 336 C172 330 153 325 136 326 C28 335 8 451 50 530 C77 584 124 632 177 663 C268 721 390 735 499 719 C562 710 618 697 677 682 C666 649 624 558 614 535 C561 411 514 285 454 153 C446 136 427 99 415 79 C398 74 381 69 364 64 C277 40 189 4 124 -61 C94 -91 66 -128 57 -170 C53 -190 54 -213 67 -230 C80 -248 100 -254 121 -254 L121 -254 Z M410 67 C375 1 338 -64 290 -122 C271 -146 249 -168 225 -188 C194 -214 87 -279 70 -209 C52 -134 156 -36 225 1 C283 32 347 53 410 67 L410 67 Z " />
<glyph glyph-name="U" unicode="U" horiz-adv-x="1044" d="M235 9 C308 189 456 411 476 604 C479 637 478 671 466 701 C439 767 376 772 309 751 C189 713 80 611 24 487 C-2 428 -19 360 1 297 C20 239 84 194 146 211 C164 216 183 222 200 233 C201 235 200 240 196 240 C190 242 180 235 175 232 C146 218 115 210 83 222 C41 238 13 277 6 323 C0 371 10 417 24 454 C44 506 74 555 112 597 C151 640 197 679 251 709 C292 734 400 774 441 727 C462 704 462 662 458 628 C448 554 418 484 386 418 C329 293 264 173 205 31 C177 -32 154 -119 154 -176 C154 -221 171 -252 204 -258 C221 -261 238 -256 251 -245 C300 -205 374 -99 415 -34 C433 -7 454 20 472 47 C512 104 549 161 589 217 C629 274 666 334 705 395 C627 233 460 -59 512 -192 C546 -278 631 -234 683 -180 C792 -66 946 132 1048 287 C1052 293 1055 298 1044 300 C975 199 907 113 820 3 C772 -56 640 -241 565 -223 C465 -199 588 71 610 121 C641 184 670 248 706 321 C740 390 773 459 803 530 C810 547 818 564 824 581 C830 597 845 625 827 632 C817 636 805 603 802 596 C794 579 786 562 778 546 C760 511 738 477 718 444 C698 411 677 378 657 345 C613 277 567 211 521 144 C476 79 431 15 385 -49 C342 -109 299 -171 246 -224 C232 -238 215 -245 204 -241 C150 -221 216 -40 235 9 L235 9 Z " />
<glyph glyph-name="V" unicode="V" horiz-adv-x="992" d="M252 -267 C304 -260 360 -182 398 -132 C479 -22 552 112 618 248 C640 292 659 335 679 378 C668 313 645 240 675 175 C683 157 696 141 715 131 C785 94 883 161 936 218 C956 239 982 269 996 290 C998 293 1000 297 992 300 C948 238 838 127 749 134 C659 145 673 265 687 331 C695 371 707 409 718 447 C730 486 745 523 761 559 C783 609 807 659 830 716 C834 726 842 737 832 744 C821 752 802 705 797 694 C768 628 737 563 711 486 C703 463 693 442 682 418 C642 334 603 249 553 158 C509 72 459 -13 402 -96 C386 -120 256 -308 215 -232 C181 -169 245 -24 275 46 C334 186 415 353 451 506 C470 586 489 714 402 769 C362 794 303 792 261 780 C170 754 93 691 42 613 C-7 537 -37 439 -16 344 C-2 279 54 215 130 216 C150 216 177 218 194 230 C202 243 165 230 152 228 C79 215 18 265 -4 338 C-23 409 -8 485 20 548 C48 613 95 670 152 711 C201 745 259 774 325 774 C357 774 400 763 422 736 C444 707 447 668 445 634 C440 560 413 488 386 420 C342 304 291 190 229 48 C203 -14 134 -193 205 -253 C218 -264 237 -269 252 -267 L252 -267 Z " />
<glyph glyph-name="W" unicode="W" horiz-adv-x="1301" d="M215 -219 C301 -201 416 57 462 142 C558 319 648 478 779 684 C730 580 691 494 645 380 C612 297 428 -86 618 -115 C716 -130 831 44 883 125 C938 212 985 308 1035 397 C1033 335 1033 257 1090 212 C1151 164 1223 202 1267 243 C1279 254 1289 266 1299 279 C1308 293 1309 297 1301 300 C1280 270 1251 240 1223 225 C1075 146 1034 316 1055 429 C1058 447 1068 461 1076 476 C1089 502 1170 633 1134 643 C1083 658 1043 444 1038 431 C1027 408 1014 386 1001 362 C949 265 762 -97 628 -99 C597 -99 576 -80 569 -51 C538 84 682 382 744 531 C769 594 796 656 820 723 C825 737 829 756 820 757 C810 758 801 749 796 740 C744 658 689 579 626 474 C552 352 485 226 420 98 C395 48 271 -208 206 -204 C185 -203 192 -144 195 -130 C204 -81 218 -46 238 11 C273 107 310 203 351 308 C386 405 427 504 445 611 C455 671 458 761 399 803 C301 872 121 759 57 667 C19 613 -13 552 -26 484 C-45 384 -8 221 133 220 C146 220 173 224 183 234 C189 237 178 243 174 242 C33 191 -45 352 -14 489 C1 558 35 619 77 671 C119 724 173 766 236 791 C285 810 385 834 417 768 C446 712 427 633 403 559 C359 423 305 291 252 159 C226 94 199 28 179 -40 C168 -78 130 -237 215 -219 L215 -219 Z M1127 629 C1118 582 1092 538 1070 493 C1077 524 1087 552 1092 564 C1099 586 1112 609 1127 629 L1127 629 Z " />
<glyph glyph-name="X" unicode="X" horiz-adv-x="716" d="M279 -170 C270 -43 349 191 409 359 C427 378 446 399 464 419 C540 504 620 585 702 672 C709 679 719 688 725 691 C729 693 725 700 722 700 C718 700 713 696 711 694 C611 600 518 487 418 392 C444 480 471 588 437 682 C416 741 381 793 293 792 C238 791 169 753 123 711 C76 668 39 614 14 556 C-12 497 -25 431 -17 365 C-13 333 -6 300 16 273 C33 250 64 230 93 233 C96 233 101 233 98 237 C95 240 93 240 89 240 C30 247 3 297 -7 357 C-16 423 -3 488 22 546 C47 606 84 658 131 702 C189 757 306 820 381 749 C404 726 418 694 425 664 C440 597 429 532 414 470 C403 431 392 391 377 351 C367 337 349 315 335 300 C292 251 250 201 209 150 C126 49 46 -55 -32 -161 C-41 -173 -51 -187 -60 -200 C-62 -204 -71 -213 -63 -217 C-59 -219 -52 -207 -49 -203 C5 -124 67 -50 129 29 C204 122 278 219 363 307 C345 254 328 201 311 148 C283 57 250 -41 256 -145 C259 -202 284 -249 338 -251 C394 -253 453 -179 483 -137 C552 -39 633 100 695 228 C705 248 715 267 722 287 C724 291 727 296 716 300 C675 208 622 120 567 24 C537 -27 398 -287 308 -227 C288 -214 281 -191 279 -170 L279 -170 Z " />
<glyph glyph-name="Y" unicode="Y" horiz-adv-x="885" d="M238 48 C259 166 318 289 361 410 C380 469 400 528 410 591 C418 643 417 750 358 781 C302 809 224 768 175 734 C73 661 -20 534 -32 403 C-33 371 -29 335 -6 307 C16 280 52 266 84 270 C107 273 125 283 146 295 C148 296 147 307 141 304 C118 292 93 273 48 280 C18 285 -5 309 -15 338 C-53 453 53 609 144 689 C194 732 250 779 319 779 C381 779 396 709 393 658 C390 598 369 538 338 456 C294 337 220 180 206 43 C203 12 204 -33 236 -52 C268 -71 306 -51 337 -17 C452 108 560 312 657 460 C623 366 589 287 539 180 C511 119 439 -28 408 -84 C385 -90 337 -95 310 -96 C263 -98 154 -95 117 -129 C103 -142 99 -164 102 -183 C108 -227 138 -262 184 -278 C226 -293 269 -284 304 -261 C354 -227 409 -150 444 -89 C494 -80 550 -53 593 -21 C691 51 799 176 888 289 C892 294 892 298 885 300 C815 221 748 137 666 55 C606 -4 534 -54 450 -77 C468 -41 488 -5 509 38 C578 186 646 331 696 498 C698 505 708 529 702 533 C696 539 688 538 686 534 C681 528 679 520 676 514 C666 495 652 477 638 455 C603 403 568 352 534 300 C468 201 390 66 315 -10 C302 -24 273 -51 248 -39 C230 -30 231 19 238 48 L238 48 Z M402 -97 C377 -142 346 -188 304 -229 C250 -280 160 -290 123 -209 C114 -188 110 -161 123 -142 C150 -102 278 -110 328 -105 C352 -103 376 -101 402 -97 L402 -97 Z " />
<glyph glyph-name="Z" unicode="Z" horiz-adv-x="1016" d="M70 -193 C151 -262 266 -189 323 -126 C368 -76 411 -22 449 35 C449 35 476 31 500 29 C588 20 676 32 761 70 C859 116 951 196 1017 287 C1019 289 1027 299 1016 300 C992 269 962 233 927 200 C887 161 844 126 795 99 C693 42 583 22 454 42 C480 81 506 119 532 159 C578 230 621 307 677 373 C698 374 730 371 740 370 C759 368 766 359 768 361 C776 370 751 377 742 378 C722 381 703 382 683 383 C726 451 780 516 845 588 C888 634 934 681 990 719 C1004 727 1017 735 1033 741 C1044 744 1058 750 1048 764 C1037 781 986 750 969 740 C954 731 943 729 926 727 C874 721 823 721 768 726 C572 745 353 848 164 727 C76 673 -30 535 13 421 C23 395 43 372 67 357 C81 349 96 343 112 341 C123 340 152 341 153 347 C153 355 134 349 123 348 C88 345 55 366 35 396 C11 431 11 476 19 515 C39 597 97 667 169 715 C300 798 450 774 599 740 C704 717 817 699 930 715 C875 673 827 623 781 572 C728 513 681 451 629 384 C613 382 591 381 574 379 C554 378 457 367 442 360 C437 358 442 351 446 352 C494 359 566 370 623 373 C575 305 528 236 483 166 C458 128 431 91 404 49 C321 63 225 81 141 42 C55 2 -5 -123 70 -193 L70 -193 Z M399 42 C349 -35 229 -243 106 -197 C8 -160 58 -33 115 12 C166 52 234 60 299 54 C331 52 364 48 399 42 L399 42 Z " />
<glyph glyph-name="bracketleft" unicode="&#x5b;" horiz-adv-x="467" d="M475 688 C478 696 464 700 431 701 C419 701 394 700 382 691 C365 677 341 620 327 592 C262 461 203 327 149 192 C121 124 94 56 69 -12 C59 -38 20 -140 41 -159 C49 -167 70 -167 76 -161 C78 -158 68 -158 57 -156 C49 -154 50 -141 52 -132 C61 -96 85 -26 105 28 C153 153 203 278 258 401 C286 463 313 525 343 585 C351 600 388 682 395 685 C419 695 444 688 475 688 L475 688 Z " />
<glyph glyph-name="backslash" unicode="&#x5c;" horiz-adv-x="177" d="M129 743 C119 743 121 693 120 682 C112 545 98 415 87 279 C73 124 58 -32 63 -228 C64 -237 61 -271 71 -276 C76 -279 87 -275 84 -267 C81 -264 80 -263 80 -246 C75 -83 94 79 104 247 C117 389 137 608 137 738 C137 741 135 743 129 743 L129 743 Z " />
<glyph glyph-name="bracketright" unicode="&#x5d;" horiz-adv-x="515" d="M480 680 C474 665 466 650 459 634 C351 395 231 144 132 -109 C126 -125 121 -136 117 -147 C101 -150 76 -154 60 -159 C51 -162 49 -168 53 -171 C54 -172 110 -161 121 -158 C124 -157 128 -153 130 -148 C243 123 364 378 492 679 C493 682 498 675 500 680 C501 682 500 684 499 685 C492 694 438 690 426 689 C417 688 410 688 411 681 C412 675 427 679 432 679 C448 681 461 681 480 680 L480 680 Z " />
<glyph glyph-name="asciicircum" unicode="&#x5e;" horiz-adv-x="258" d="M90 519 C88 513 99 509 104 512 C110 516 115 525 120 531 C151 570 184 608 222 648 C216 621 208 595 202 565 C201 558 203 554 207 551 C211 548 214 554 215 559 C223 590 233 620 244 656 C246 663 248 671 245 678 C243 683 238 691 231 689 C208 682 100 549 90 519 L90 519 Z " />
<glyph glyph-name="underscore" unicode="&#x5f;" horiz-adv-x="264" d="M56 184 C56 178 64 181 69 181 C108 184 135 185 188 186 C193 186 206 185 210 186 C214 187 217 188 212 191 C201 198 97 194 66 189 C63 188 57 187 56 184 L56 184 Z " />
<glyph glyph-name="grave" unicode="&#x60;" horiz-adv-x="154" d="M118 697 C113 696 116 676 116 672 C116 662 117 653 117 643 C118 631 115 599 135 601 C131 619 131 633 131 655 C131 662 131 668 130 682 C129 694 127 698 118 697 L118 697 Z " />
<glyph glyph-name="a" unicode="a" horiz-adv-x="292" d="M91 133 C112 200 139 263 170 334 C179 356 184 368 195 397 C198 405 183 410 180 406 C135 347 94 288 39 220 C28 207 1 174 -8 177 C-20 181 9 253 17 270 C25 288 60 359 81 364 C87 365 89 358 91 353 C93 348 96 338 101 342 C104 344 98 361 91 368 C83 376 74 377 65 374 C25 362 -17 274 -29 236 C-34 220 -40 196 -33 182 C-27 170 -10 159 7 166 C41 180 116 296 142 336 C114 271 54 178 54 88 C54 65 63 25 97 31 C159 42 259 224 296 287 C301 296 297 298 292 300 C269 262 247 226 223 190 C202 157 180 124 155 94 C139 75 105 42 93 45 C69 51 87 121 91 133 L91 133 Z " />
<glyph glyph-name="b" unicode="b" horiz-adv-x="346" d="M346 300 C327 281 313 267 298 254 C258 220 213 192 164 174 C182 212 241 339 188 362 C160 374 124 347 104 329 C54 282 25 217 -5 158 C7 207 16 252 31 296 C36 318 62 339 74 357 C167 484 274 636 319 772 C324 789 333 826 312 834 C294 841 275 830 263 821 C186 762 123 609 85 521 C42 422 5 334 -22 226 C-30 194 -45 123 -40 112 C-36 101 -19 106 -16 112 C8 160 29 209 59 255 C85 294 118 339 164 353 C176 356 186 355 190 343 C200 308 181 267 167 238 C155 213 139 184 124 163 C81 156 27 139 1 103 C-11 85 -23 57 -11 36 C1 15 31 14 52 28 C89 52 113 91 135 125 C142 136 149 148 154 157 C216 172 303 236 346 283 C350 287 356 293 346 300 L346 300 Z M174 668 C192 705 265 836 309 825 C343 810 234 619 177 526 C147 479 74 377 40 335 C82 451 123 562 174 668 L174 668 Z M70 81 C59 67 23 26 6 35 C-10 43 -1 72 4 83 C13 104 30 119 51 130 C64 137 100 146 119 150 C104 126 87 103 70 81 L70 81 Z " />
<glyph glyph-name="c" unicode="c" horiz-adv-x="247" d="M112 315 C121 330 128 352 117 367 C106 384 85 385 68 376 C39 360 15 329 -1 300 C-23 261 -56 191 -37 145 C-7 73 81 126 125 163 C159 191 197 228 232 266 C238 272 244 279 250 285 C251 286 260 295 247 300 C247 300 226 278 221 273 C197 249 173 225 149 203 C127 183 24 93 -7 133 C-38 173 29 290 61 330 C71 343 85 360 102 365 C117 367 109 336 107 328 C104 321 104 318 112 315 L112 315 Z " />
<glyph glyph-name="d" unicode="d" horiz-adv-x="419" d="M419 300 C406 282 391 258 379 239 C335 170 253 33 193 2 C147 -22 115 10 108 61 C103 92 107 164 118 202 C134 222 157 252 171 273 C257 397 381 599 438 747 C447 771 468 833 448 848 C371 907 142 402 105 241 C104 236 98 213 95 208 C81 190 50 161 24 163 C-4 163 15 242 20 256 C35 301 57 352 83 383 C87 388 98 397 107 392 C117 386 117 373 119 362 C120 360 120 348 128 354 C130 356 129 366 129 369 C127 381 125 390 116 398 C96 416 73 413 56 395 C23 360 0 311 -13 263 C-23 226 -29 155 25 147 C49 143 71 159 89 175 C83 128 77 74 98 30 C116 -8 157 -31 197 -11 C260 20 319 117 366 193 C384 221 403 249 422 282 C429 294 430 296 419 300 L419 300 Z M443 832 C452 825 426 746 406 703 C351 586 284 473 207 358 C184 323 161 288 134 254 C161 358 229 509 297 632 C329 689 349 733 391 786 C409 809 436 835 443 832 L443 832 Z " />
<glyph glyph-name="e" unicode="e" horiz-adv-x="227" d="M233 286 C236 290 237 298 227 300 C184 244 137 180 80 129 C55 107 19 79 -11 80 C-24 80 -37 90 -37 114 C-37 162 -7 234 16 275 C20 261 37 257 54 266 C77 278 104 315 104 342 C104 357 94 370 77 369 C31 367 -19 272 -33 239 C-50 200 -81 100 -35 73 C46 26 192 228 233 286 L233 286 Z M92 341 C88 314 67 279 39 270 C23 265 20 284 27 298 C42 318 52 346 79 354 C89 357 93 348 92 341 L92 341 Z " />
<glyph glyph-name="f" unicode="f" horiz-adv-x="245" d="M-81 -274 C-113 -273 -128 -230 -130 -196 C-135 -108 -117 -23 -95 56 C-98 58 -99 60 -97 63 C-96 65 -93 64 -92 66 C-30 287 176 654 285 784 C314 818 336 829 352 819 C386 798 333 687 301 634 C234 525 133 393 34 314 C-4 243 -36 147 -63 68 C-36 76 13 106 44 127 C120 180 184 239 245 300 C256 297 249 289 245 285 C153 187 50 97 -68 53 C-23 29 3 -9 11 -59 C19 -107 -15 -276 -81 -274 L-81 -274 Z M38 332 C179 461 339 687 351 791 C352 799 350 807 345 809 C298 832 116 488 38 332 L38 332 Z M-68 43 C-78 0 -88 -42 -95 -84 C-102 -131 -108 -173 -103 -220 C-101 -240 -92 -261 -77 -260 C-40 -258 -4 -144 -5 -75 C-6 -29 -24 22 -68 43 L-68 43 Z " />
<glyph glyph-name="g" unicode="g" horiz-adv-x="277" d="M282 290 C284 293 284 299 277 300 C226 231 168 168 96 115 C118 167 141 223 160 283 C165 298 175 330 170 339 C168 342 163 344 159 345 C150 347 126 302 123 297 C91 243 62 204 38 178 C20 158 -17 138 -16 173 C-15 225 14 283 53 322 C57 326 71 338 85 336 C90 335 95 327 99 332 C95 347 77 357 62 356 C38 355 9 318 -11 282 C-27 253 -47 190 -32 160 C-23 142 -9 139 8 144 C49 156 99 239 126 280 C102 211 75 146 44 79 C39 69 31 65 22 58 C-38 15 -104 -19 -163 -69 C-196 -98 -226 -133 -227 -182 C-228 -250 -174 -276 -114 -236 C-70 -207 -41 -162 -10 -110 C25 -48 49 11 81 82 C156 141 229 206 282 290 L282 290 Z M30 45 C2 -32 -33 -118 -88 -183 C-114 -214 -148 -244 -180 -238 C-213 -232 -215 -181 -206 -154 C-191 -106 -145 -71 -105 -43 C-62 -12 -17 17 30 45 L30 45 Z " />
<glyph glyph-name="h" unicode="h" horiz-adv-x="304" d="M-41 128 C-38 122 -26 115 -19 119 C-9 127 0 145 8 155 C51 212 117 304 174 350 C180 347 128 249 100 179 C92 159 68 91 89 70 C98 61 105 60 115 62 C145 67 190 133 219 171 C250 212 278 249 307 289 C311 294 310 298 304 300 C276 264 234 211 205 173 C191 154 130 69 103 74 C95 75 102 109 117 147 C140 206 168 265 190 330 C193 341 198 355 188 363 C173 374 156 357 131 331 C77 273 33 206 -17 138 C-14 150 -12 157 -9 169 C3 212 13 248 31 305 C66 342 110 400 133 435 C182 510 242 604 268 693 C278 728 294 799 259 799 C224 799 178 720 156 679 C106 589 69 494 34 399 C9 329 -17 253 -35 180 C-38 168 -44 134 -41 128 L-41 128 Z M36 328 C49 366 66 404 79 441 C117 544 147 617 197 711 C215 745 249 789 261 787 C290 783 234 629 217 598 C170 505 109 416 36 328 L36 328 Z " />
<glyph glyph-name="i" unicode="i" horiz-adv-x="176" d="M-12 143 C-20 147 -13 178 -7 195 C8 241 26 283 50 330 C52 334 46 341 42 344 C32 353 21 340 17 332 C-2 300 -30 242 -40 187 C-42 174 -44 155 -36 143 C-27 130 -10 127 3 131 C18 136 31 147 42 157 C78 189 114 229 155 269 C162 276 168 281 176 288 C180 292 184 297 176 300 C176 300 146 272 140 266 C102 231 59 184 23 156 C13 149 -3 138 -12 143 L-12 143 Z M108 461 C109 465 106 470 102 471 C97 472 81 444 78 439 C73 430 60 409 61 399 C61 395 65 393 68 392 C78 413 93 441 108 461 L108 461 Z " />
<glyph glyph-name="j" unicode="j" horiz-adv-x="161" d="M-324 -262 C-278 -292 -230 -262 -199 -218 C-160 -162 -119 -71 -91 -3 C-85 10 -60 77 -52 96 C-31 111 -6 129 18 149 C68 191 115 236 161 286 C167 292 169 297 161 300 C146 284 129 266 114 251 C67 202 15 154 -44 115 C-34 140 -26 162 -22 171 C-8 207 8 243 25 286 C28 296 45 334 43 347 C42 353 37 358 28 355 C19 352 -2 296 -10 280 C-40 217 -67 151 -93 87 C-120 68 -189 18 -211 3 C-273 -39 -343 -90 -357 -168 C-362 -200 -361 -238 -324 -262 L-324 -262 Z M-100 65 C-123 6 -146 -54 -175 -119 C-196 -166 -221 -218 -259 -248 C-277 -262 -311 -263 -329 -245 C-347 -227 -348 -194 -344 -168 C-334 -112 -289 -68 -245 -34 C-199 1 -148 32 -100 65 L-100 65 Z M69 425 C78 440 90 466 97 480 C98 483 96 489 91 489 C88 489 83 479 81 475 C78 469 62 432 63 429 C64 427 67 425 69 425 L69 425 Z " />
<glyph glyph-name="k" unicode="k" horiz-adv-x="314" d="M318 290 C321 293 321 298 314 300 C314 300 272 252 262 240 C239 213 158 114 114 114 C85 114 73 145 64 166 C59 178 53 189 46 199 C59 199 76 205 89 214 C113 231 133 252 149 277 C155 287 165 305 160 316 C148 342 110 307 99 297 C57 258 22 210 -8 161 C-6 174 -2 186 2 199 C9 226 17 253 25 280 C26 284 32 301 32 301 C149 364 310 635 321 765 C324 795 304 811 279 792 C225 752 178 667 137 596 C110 547 13 371 -28 212 C-32 199 -42 157 -41 135 C-40 123 -38 112 -24 112 C-17 112 -9 130 -5 138 C6 161 19 183 34 203 C45 192 50 176 55 162 C71 116 102 85 150 114 C208 149 265 226 318 290 L318 290 Z M35 311 C48 348 63 383 81 421 C130 525 179 633 248 732 C258 746 297 798 308 784 C321 767 301 713 288 679 C227 520 140 391 35 311 L35 311 Z M37 208 C52 228 67 249 85 267 C105 288 140 324 149 316 C157 309 141 284 137 278 C119 251 79 202 37 208 L37 208 Z " />
<glyph glyph-name="l" unicode="l" horiz-adv-x="209" d="M212 289 C215 294 216 297 209 300 C172 256 95 137 30 117 C-10 105 0 168 1 190 C6 230 17 270 28 309 C117 398 205 553 253 656 C266 685 328 804 296 819 C283 825 268 821 252 808 C164 736 83 544 44 433 C20 363 -7 295 -17 223 C-22 195 -35 101 28 105 C81 108 177 243 212 289 L212 289 Z M31 324 C56 413 84 480 119 563 C125 577 238 820 291 811 C325 805 174 527 159 503 C121 441 87 382 31 324 L31 324 Z " />
<glyph glyph-name="m" unicode="m" horiz-adv-x="448" d="M280 128 C282 160 299 207 319 253 C331 282 347 318 354 344 C357 355 357 376 339 372 C330 370 311 348 300 337 C253 286 212 232 170 178 C160 165 126 125 120 129 C116 131 126 165 132 181 C149 224 169 268 189 318 C194 331 202 355 190 361 C182 365 172 356 160 344 C113 295 76 242 34 185 C28 176 -7 128 -15 130 C-19 131 -12 171 -7 186 C8 234 20 270 38 322 C40 329 38 336 32 341 C25 346 22 344 18 338 C9 322 3 308 -4 292 C-14 270 -61 151 -37 127 C-33 123 -27 119 -22 118 C0 112 32 164 46 182 C86 236 129 293 172 341 C164 320 153 300 144 279 C124 234 95 158 97 134 C98 123 102 119 107 117 C122 111 138 127 148 138 C213 208 262 294 337 358 C309 303 285 255 264 194 C258 175 246 135 261 121 C270 113 282 110 293 115 C333 132 408 237 452 290 C454 292 456 297 448 300 C401 248 360 189 304 139 C296 132 287 127 280 128 L280 128 Z " />
<glyph glyph-name="n" unicode="n" horiz-adv-x="282" d="M285 287 C289 291 293 297 282 300 C282 300 244 258 227 240 C185 196 131 134 118 132 C122 181 172 275 192 330 C196 342 203 357 199 370 C198 374 192 378 187 378 C162 376 55 219 35 195 C29 187 2 152 -7 152 C-14 153 -8 185 -5 196 C7 239 22 271 42 313 C47 324 57 344 58 355 C59 362 46 383 39 374 C12 341 -35 226 -37 181 C-38 156 -27 135 -4 138 C22 141 52 195 79 232 C111 277 147 323 184 365 C167 328 149 296 132 256 C117 224 102 185 97 157 C94 140 95 131 106 121 C118 111 140 129 149 138 C200 191 237 237 285 287 L285 287 Z " />
<glyph glyph-name="o" unicode="o" horiz-adv-x="261" d="M121 253 C138 292 177 385 142 427 C126 446 97 443 78 424 C31 377 38 271 106 247 C98 226 75 191 55 168 C44 157 14 127 -4 138 C-31 156 13 260 29 287 C33 294 29 302 23 309 C16 317 9 313 3 306 C-18 277 -37 228 -40 192 C-41 178 -39 154 -27 141 C-17 130 -1 122 15 126 C60 137 102 210 117 244 C162 237 224 260 255 284 C264 291 271 297 261 300 C229 271 164 246 121 253 L121 253 Z M98 428 C116 438 138 428 144 402 C154 357 121 274 110 255 C44 278 40 397 98 428 L98 428 Z " />
<glyph glyph-name="p" unicode="p" horiz-adv-x="308" d="M-39 137 C-22 179 -4 219 15 263 C24 285 48 340 40 352 C38 356 34 362 29 360 C24 357 22 349 20 345 C3 305 -18 266 -39 225 C-65 173 -89 118 -110 66 C-138 -4 -178 -117 -197 -180 C-206 -210 -217 -230 -201 -235 C-188 -239 -187 -219 -177 -195 C-142 -111 -114 -36 -67 70 C-51 109 -32 128 3 187 C27 227 53 266 83 302 C92 313 161 402 185 384 C208 366 171 294 151 266 C144 255 133 242 125 232 C114 232 65 227 39 211 C13 198 -11 164 -14 132 C-14 122 -13 115 -3 107 C4 101 16 98 26 100 C74 108 130 185 154 218 C201 223 269 253 309 290 C315 296 312 299 308 300 C267 268 218 241 163 235 C184 269 201 302 207 339 C210 355 207 377 197 387 C163 421 99 340 80 317 C46 277 16 232 -12 183 C-21 168 -29 152 -39 137 L-39 137 Z M4 120 C1 139 19 176 42 194 C62 209 86 214 113 216 C89 188 45 127 4 120 L4 120 Z " />
<glyph glyph-name="q" unicode="q" horiz-adv-x="308" d="M154 297 C107 205 64 112 22 16 C8 10 -16 5 -30 3 C-39 2 -38 -4 -33 -7 C-22 -14 -9 -21 2 -30 C-17 -72 -33 -112 -45 -156 C-51 -179 -58 -217 -47 -236 C-25 -274 18 -237 39 -194 C63 -146 61 -87 30 -46 C37 -28 44 -12 57 17 C164 70 238 177 311 287 C314 292 316 297 308 300 C308 300 235 191 195 147 C160 106 116 64 64 34 C101 127 142 221 187 314 C191 322 202 348 201 352 C200 356 198 363 192 363 C190 363 186 358 181 352 C143 306 112 254 74 207 C64 195 22 140 1 151 C-12 158 -8 190 -6 201 C4 256 29 309 64 353 C72 363 108 401 111 371 C112 360 109 340 99 333 C95 330 92 328 94 324 C97 318 104 324 108 330 C114 339 117 348 118 358 C119 369 116 381 108 388 C88 406 62 385 46 368 C9 329 -21 271 -29 213 C-33 186 -30 155 -9 143 C29 121 83 194 103 224 C119 248 137 273 154 297 L154 297 Z M-29 -211 C-21 -162 0 -108 26 -53 C40 -69 47 -101 47 -124 C47 -148 41 -172 30 -193 C18 -217 -6 -244 -20 -242 C-28 -241 -32 -229 -29 -211 L-29 -211 Z M-22 -6 C-10 -6 3 -3 15 0 C11 -8 9 -16 5 -24 C-4 -18 -13 -12 -22 -6 L-22 -6 Z " />
<glyph glyph-name="r" unicode="r" horiz-adv-x="188" d="M12 309 C39 344 106 447 67 485 C27 524 -34 460 -52 428 C-86 372 -67 328 -10 304 C-2 300 14 294 17 283 C21 271 14 256 9 245 C-2 220 -13 196 -24 172 C-37 146 -63 85 -35 67 C-7 48 26 93 49 119 C99 176 137 225 191 291 C195 296 194 299 188 300 C134 239 79 168 19 103 C3 85 -10 75 -16 75 C-31 75 1 144 7 155 C25 187 48 230 47 262 C44 285 28 300 12 309 L12 309 Z M3 314 C-12 322 -26 328 -38 343 C-66 376 -21 440 1 464 C14 476 43 497 59 481 C93 446 32 348 3 314 L3 314 Z " />
<glyph glyph-name="s" unicode="s" horiz-adv-x="190" d="M14 304 C42 334 68 370 85 403 C96 424 108 458 92 479 C77 498 49 490 31 480 C-3 461 -54 398 -39 352 C-31 327 -11 309 7 291 C27 272 48 247 57 220 C47 214 41 211 31 206 C-21 180 -103 145 -106 72 C-106 46 -89 29 -67 25 C-5 14 70 92 84 151 C89 171 88 194 82 216 C115 236 155 264 191 288 C196 291 199 296 190 300 C154 276 111 250 77 230 C66 257 39 282 14 304 L14 304 Z M-38 153 C-17 170 24 188 58 205 C64 150 24 87 -22 56 C-43 42 -83 28 -91 58 C-100 95 -68 131 -38 153 L-38 153 Z M6 311 C-12 329 -23 349 -20 375 C-17 401 5 437 28 458 C47 475 87 494 90 462 C95 414 40 345 6 311 L6 311 Z " />
<glyph glyph-name="t" unicode="t" horiz-adv-x="209" d="M96 558 C63 485 32 414 8 332 C-9 272 -28 190 -20 135 C-14 96 7 77 41 82 C69 86 96 122 113 146 C126 164 181 238 214 291 C215 293 218 298 209 300 C169 245 127 183 81 125 C62 100 31 85 17 102 C-1 123 9 183 11 200 C23 291 58 383 96 472 C109 502 126 536 141 563 C166 566 198 570 220 572 C291 578 370 589 442 566 C468 556 476 542 480 545 C486 549 470 563 456 570 C415 590 348 593 283 590 C241 588 199 582 148 578 C180 637 208 693 247 762 C251 770 256 783 248 786 C240 789 234 780 230 775 C207 742 186 708 163 674 C143 643 121 603 103 572 C45 564 -41 546 -84 553 C-121 559 -134 575 -126 609 C-120 636 -103 664 -78 681 C-76 683 -73 687 -77 691 C-82 696 -99 682 -110 669 C-121 656 -134 635 -139 610 C-142 595 -142 572 -128 558 C-100 530 -39 539 2 545 C35 550 63 553 96 558 L96 558 Z " />
<glyph glyph-name="u" unicode="u" horiz-adv-x="275" d="M144 214 C154 247 167 280 180 315 C183 322 187 331 183 338 C180 343 175 348 169 345 C164 342 160 334 156 330 C112 279 72 224 29 169 C16 153 2 141 -7 145 C-23 152 11 241 15 251 C26 279 38 306 49 332 C52 339 55 345 53 352 C52 357 47 364 42 364 C36 364 29 354 26 349 C-1 307 -50 207 -41 159 C-39 147 -30 136 -14 133 C10 129 27 147 51 177 C82 215 106 252 140 294 C129 264 117 234 108 204 C101 180 93 138 115 126 C137 114 159 134 176 154 C210 196 240 242 278 286 C280 289 286 296 275 300 C248 266 210 216 183 180 C177 172 144 129 130 132 C118 135 136 190 144 214 L144 214 Z " />
<glyph glyph-name="v" unicode="v" horiz-adv-x="302" d="M-10 108 C-21 111 7 220 17 257 C24 281 32 304 37 328 C39 338 40 349 29 353 C19 358 14 339 11 332 C-15 259 -43 173 -38 122 C-35 90 -14 89 4 99 C25 111 41 129 57 147 C73 166 89 186 104 206 C110 199 119 193 128 190 C191 167 267 246 305 287 C309 291 312 298 302 300 C276 271 224 215 169 197 C158 193 127 192 108 213 C114 222 137 252 143 261 C181 318 223 378 242 449 C247 469 249 497 236 506 C217 519 191 508 174 495 C123 453 87 385 79 322 C75 288 76 244 97 214 C72 179 3 103 -10 108 L-10 108 Z M103 221 C83 260 89 312 99 354 C110 399 164 499 216 504 C242 506 239 479 235 459 C221 390 153 288 103 221 L103 221 Z " />
<glyph glyph-name="w" unicode="w" horiz-adv-x="449" d="M280 245 C310 291 351 361 350 424 C350 438 344 448 337 450 C311 457 283 394 276 375 C260 334 258 275 264 251 C256 233 198 167 167 156 C153 151 141 154 144 172 C152 220 172 264 193 306 C199 317 204 325 197 337 C191 347 181 352 171 343 C153 327 150 307 134 289 C116 271 98 252 80 234 C72 226 32 185 13 195 C-6 205 31 287 39 303 C44 313 51 323 53 333 C55 341 48 351 39 354 C26 358 5 315 0 302 C-8 277 -24 227 -7 198 C-1 188 7 183 20 183 C37 183 60 199 78 217 C91 230 104 244 126 267 C118 239 104 187 117 164 C122 155 127 151 134 146 C148 137 164 135 181 144 C192 150 219 170 241 196 C254 210 264 224 275 238 C334 189 407 233 449 285 C451 287 459 296 449 300 C445 295 363 185 280 245 L280 245 Z M334 442 C340 440 338 409 336 401 C327 353 302 305 274 264 C270 296 276 333 286 364 C295 391 319 439 334 442 L334 442 Z " />
<glyph glyph-name="x" unicode="x" horiz-adv-x="275" d="M275 300 C275 300 113 113 76 109 C58 107 45 135 42 148 C37 166 34 187 32 216 C56 238 112 288 152 318 C165 327 154 331 151 331 C148 330 84 278 29 235 C29 259 30 275 30 309 C28 326 14 335 4 330 C-4 327 -1 317 0 308 C-1 267 1 216 1 216 C-21 199 -86 146 -82 140 C-77 132 -75 132 -53 151 C-28 172 -17 182 4 198 C7 165 19 97 72 97 C88 97 106 108 124 124 C147 143 235 234 271 279 C281 292 288 297 275 300 L275 300 Z " />
<glyph glyph-name="y" unicode="y" horiz-adv-x="343" d="M199 302 L199 302 C195 308 187 315 180 306 L159 281 C87 198 60 162 29 131 C22 124 1 108 -9 112 C-19 116 -13 140 -11 147 C4 205 23 258 48 326 C51 335 51 341 42 344 C24 350 16 334 10 323 C-18 266 -45 181 -44 136 C-42 118 -39 109 -20 100 C2 89 23 106 47 130 C87 170 119 218 160 265 C134 198 107 132 77 67 C44 48 -19 12 -50 -3 C-100 -28 -152 -53 -190 -97 C-227 -138 -251 -200 -220 -246 C-177 -307 -108 -275 -61 -233 C9 -170 54 -79 92 8 C112 51 123 78 126 81 C202 133 277 214 348 290 C351 293 351 298 343 300 C343 300 327 283 320 276 C261 216 204 151 135 103 C149 141 201 273 199 302 L199 302 Z M-218 -186 C-214 -147 -186 -108 -154 -82 C-91 -30 -13 3 67 45 C50 7 32 -31 12 -69 C-21 -129 -62 -205 -125 -248 C-180 -284 -223 -250 -218 -186 L-218 -186 Z " />
<glyph glyph-name="z" unicode="z" horiz-adv-x="318" d="M318 300 C255 200 188 117 89 56 C85 69 78 85 64 99 C55 108 40 117 25 120 C34 131 42 141 51 151 C94 203 153 287 165 329 C169 343 170 358 164 371 C150 400 120 397 93 384 C65 370 36 342 8 314 C3 309 -3 304 -1 300 C2 293 8 297 11 300 C43 332 80 369 123 379 C136 382 149 374 147 361 C143 332 122 307 105 283 C68 236 28 188 -8 136 C-11 131 -13 126 -10 119 C-6 110 34 105 46 93 C63 77 67 58 68 44 C40 24 5 3 -36 -18 C-86 -45 -146 -75 -186 -123 C-224 -166 -226 -239 -164 -266 C-123 -285 -68 -267 -35 -243 C1 -217 34 -179 70 -107 C92 -62 102 -9 93 40 C211 113 272 198 323 281 C327 287 331 297 318 300 L318 300 Z M-71 -240 C-150 -284 -225 -231 -190 -156 C-166 -105 -102 -69 -46 -38 C-7 -17 34 3 71 26 C77 -18 61 -62 49 -89 C24 -143 -13 -208 -71 -240 L-71 -240 Z " />
<glyph glyph-name="braceleft" unicode="&#x7b;" horiz-adv-x="319" d="M103 183 C116 197 131 209 144 223 C172 248 197 277 218 308 C240 342 255 379 270 416 C297 488 324 562 368 626 C382 646 407 677 427 688 C429 689 431 688 431 691 C431 694 429 698 423 698 C415 696 407 688 382 663 C370 649 359 634 349 619 C307 553 279 478 250 405 C236 369 219 334 195 302 C172 271 144 243 116 217 C100 203 85 190 70 175 C65 171 53 164 60 158 C67 152 74 155 81 159 C99 168 118 176 137 182 C141 183 159 189 162 185 C165 180 156 165 154 161 C137 125 118 91 102 55 C87 19 72 -18 61 -56 C50 -94 44 -133 51 -172 C53 -186 57 -215 77 -208 C81 -207 84 -205 82 -201 C80 -198 75 -199 73 -197 C70 -192 70 -182 70 -172 C68 -136 74 -98 87 -55 C98 -17 111 20 126 56 C141 92 161 126 174 162 C176 170 179 178 176 185 C167 203 145 197 128 191 C119 188 111 186 103 183 L103 183 Z " />
<glyph glyph-name="bar" unicode="&#x7c;" horiz-adv-x="282" d="M351 724 C348 732 345 733 339 726 C334 719 330 711 326 704 C309 673 295 640 281 608 C169 345 58 82 -48 -187 C-55 -204 -61 -222 -67 -239 C-69 -244 -70 -248 -72 -253 C-73 -255 -74 -258 -74 -260 C-74 -262 -75 -260 -73 -263 C-71 -265 -66 -266 -64 -266 C-61 -265 -59 -260 -58 -257 C-44 -224 -32 -190 -18 -157 C75 73 171 293 268 531 C295 596 319 662 351 724 L351 724 Z " />
<glyph glyph-name="braceright" unicode="&#x7d;" horiz-adv-x="263" d="M141 175 C128 165 114 155 101 143 C76 118 62 86 48 54 C33 20 19 -15 4 -49 C-16 -91 -34 -130 -56 -173 C-59 -179 -64 -189 -69 -194 C-71 -196 -76 -198 -74 -201 C-73 -203 -70 -204 -68 -204 C-58 -204 -52 -200 -47 -193 C-36 -179 -27 -163 -20 -148 C1 -103 30 -54 50 -2 C63 30 75 62 91 93 C98 108 109 123 120 135 C132 147 145 157 158 168 C160 169 168 174 169 176 C170 179 166 183 164 184 C158 188 151 186 145 186 C136 186 127 185 118 187 C112 189 103 191 99 197 C91 209 103 231 109 242 C118 258 127 274 135 290 C171 354 206 417 237 483 C252 517 267 551 277 587 C284 614 294 663 258 672 C255 672 248 675 245 674 C241 673 242 669 245 667 C250 662 258 664 265 661 C278 654 274 633 273 621 C267 586 251 552 237 520 C205 452 169 387 132 323 C122 307 113 291 104 275 C96 260 86 244 81 228 C76 212 80 197 94 189 C109 179 125 178 141 175 L141 175 Z " />
<glyph glyph-name="asciitilde" unicode="&#x7e;" horiz-adv-x="289" d="M177 257 C169 278 183 315 171 325 C156 337 128 318 116 307 C103 296 89 283 79 272 C77 270 71 264 72 260 C72 256 80 254 82 256 C92 266 104 278 116 288 C120 292 159 322 164 317 C168 313 156 272 167 253 C173 243 182 241 190 243 C199 246 207 255 214 262 C229 278 242 297 255 314 C258 318 262 323 256 326 C252 327 249 322 246 320 C234 306 222 293 202 271 C194 262 180 249 177 257 L177 257 Z " />
</font>
</svg>
