<?xml version="1.0" encoding="UTF-8"?>
<svg xmlns="http://www.w3.org/2000/svg" xmlns:xlink="http://www.w3.org/1999/xlink" version="1.2" >
<font id="Style Clubs Serif Italic">
<font-face  font-family="Style Clubs" units-per-em="1000" ascent="750" descent="-250" font-style="italic" font-weight="400" font-stretch="normal" slope="-9" cap-height="700" x-height="500" underline-position="-75" underline-thickness="50" />
<missing-glyph  horiz-adv-x="157" d="" />
<glyph glyph-name="NULL" d="" />
<glyph glyph-name="CR" unicode="&#xd;" horiz-adv-x="157" d="" />
<glyph glyph-name="space" unicode="&#x20;" horiz-adv-x="157" d="" />
<glyph glyph-name="exclam" unicode="&#x21;" horiz-adv-x="229" d="M138 644 L124 185 L148 185 L280 644 L284 664 L139 648 L138 644 Z M51 63 C46 29 108 0 108 0 C108 0 178 29 183 63 C189 99 128 128 128 128 C128 128 57 99 51 63 L51 63 Z " />
<glyph glyph-name="quotedbl" unicode="&#x22;" horiz-adv-x="401" d="M189 637 L158 431 L178 431 L282 637 L284 654 L199 654 L189 637 Z M329 637 L297 431 L317 431 L422 637 L424 654 L338 654 L329 637 Z " />
<glyph glyph-name="numbersign" unicode="&#x23;" horiz-adv-x="548" d="M171 183 L108 0 L148 0 L209 183 L346 183 L285 0 L324 0 L385 183 L513 183 L520 221 L399 221 L447 367 L574 367 L580 406 L460 406 L519 580 L479 580 L422 406 L287 406 L347 580 L307 580 L249 406 L120 406 L114 367 L235 367 L185 221 L60 221 L53 183 L171 183 Z M360 221 L223 221 L273 367 L408 367 L360 221 Z " />
<glyph glyph-name="dollar" unicode="&#x24;" horiz-adv-x="516" d="M494 170 C513 290 429 337 384 360 L341 381 L333 384 L366 590 C411 559 503 489 503 489 L510 616 C488 623 442 638 374 641 L387 721 L353 721 L340 641 C234 638 140 576 122 465 C108 374 158 321 219 292 L280 263 L245 38 C195 76 72 177 72 177 L63 30 C94 19 162 -8 236 -13 L220 -115 L254 -115 L270 -13 C363 -9 475 45 494 170 L494 170 Z M223 514 C231 567 280 601 334 604 L302 398 C255 420 214 459 223 514 L223 514 Z M276 24 L312 248 C367 221 402 181 393 126 C385 72 340 29 276 24 L276 24 Z " />
<glyph glyph-name="percent" unicode="&#x25;" horiz-adv-x="686" d="M104 492 C89 397 139 331 235 331 C330 331 400 396 415 492 C431 588 382 653 286 653 C191 653 120 588 104 492 L104 492 Z M94 -10 L135 -10 L692 660 L651 660 L94 -10 Z M323 492 C309 400 274 358 239 358 C205 358 183 402 197 492 C212 583 248 626 282 626 C317 626 339 593 323 492 L323 492 Z M374 161 C359 67 409 0 504 0 C601 0 670 66 685 161 C700 257 652 323 555 323 C460 323 389 257 374 161 L374 161 Z M592 161 C577 69 543 28 508 28 C474 28 452 70 466 161 C480 252 516 296 550 296 C585 296 608 262 592 161 L592 161 Z " />
<glyph glyph-name="ampersand" unicode="&#x26;" horiz-adv-x="667" d="M56 170 C41 74 104 -11 223 -11 C297 -11 380 20 440 85 L496 0 L642 0 C642 0 620 20 578 79 L521 161 C549 192 591 276 615 320 C642 370 657 413 657 413 L526 413 L576 333 C573 311 528 223 501 190 L376 375 C461 417 518 472 528 531 C538 594 492 655 391 655 C292 655 219 592 207 513 C199 465 214 419 248 365 C138 327 70 254 56 170 L56 170 Z M421 112 C388 82 344 55 284 55 C202 55 146 123 159 207 C168 259 205 308 269 336 L421 112 Z M449 529 C441 479 416 434 357 404 C318 465 299 500 306 545 C313 592 347 617 389 617 C430 617 460 594 449 529 L449 529 Z " />
<glyph glyph-name="quotesingle" unicode="&#x27;" horiz-adv-x="234" d="M179 637 L147 431 L168 431 L272 637 L274 654 L188 654 L179 637 L179 637 Z " />
<glyph glyph-name="parenleft" unicode="&#x28;" horiz-adv-x="326" d="M102 301 C65 67 171 -75 266 -140 L281 -120 C217 -47 164 87 198 301 C232 515 328 649 415 721 L406 741 C289 675 139 535 102 301 L102 301 Z " />
<glyph glyph-name="parenright" unicode="&#x29;" horiz-adv-x="331" d="M5 -120 L14 -140 C131 -75 281 67 318 301 C355 535 249 675 154 741 L139 721 C202 649 256 515 222 301 C188 87 93 -47 5 -120 L5 -120 Z " />
<glyph glyph-name="asterisk" unicode="&#x2a;" horiz-adv-x="438" d="M141 377 L209 321 L288 456 L323 322 L410 378 L315 473 L460 486 L446 578 L310 503 L365 643 L269 643 L279 502 L168 576 L123 484 L265 473 L141 377 L141 377 Z " />
<glyph glyph-name="plus" unicode="&#x2b;" horiz-adv-x="515" d="M287 300 L261 135 L297 135 L323 300 L487 300 L493 336 L329 336 L355 500 L319 500 L293 336 L128 336 L122 300 L287 300 L287 300 Z " />
<glyph glyph-name="comma" unicode="&#x2c;" horiz-adv-x="253" d="M207 47 C212 81 152 110 152 110 C152 110 81 81 76 47 C73 29 89 12 105 0 L86 -116 L107 -116 C107 -116 203 24 207 47 L207 47 Z " />
<glyph glyph-name="hyphen" unicode="&#x2d;" horiz-adv-x="403" d="M122 334 L113 277 L376 277 L385 334 L122 334 L122 334 Z " />
<glyph glyph-name="period" unicode="&#x2e;" horiz-adv-x="249" d="M73 63 C68 29 129 0 129 0 C129 0 199 29 204 63 C210 97 148 126 148 126 C148 126 79 97 73 63 L73 63 Z " />
<glyph glyph-name="slash" unicode="&#x2f;" horiz-adv-x="328" d="M394 750 L8 -50 L46 -50 L432 750 L394 750 L394 750 Z " />
<glyph glyph-name="zero" unicode="0" horiz-adv-x="615" d="M114 316 C80 104 182 -12 306 -12 C431 -12 567 103 601 316 C633 521 533 643 409 643 C285 643 146 522 114 316 L114 316 Z M478 316 C446 117 379 26 313 26 C245 26 206 116 238 316 C269 512 335 606 402 606 C469 606 509 512 478 316 L478 316 Z " />
<glyph glyph-name="one" unicode="1" horiz-adv-x="334" d="M121 70 L21 0 L313 0 L235 70 L325 643 L111 558 L190 510 L121 70 L121 70 Z " />
<glyph glyph-name="two" unicode="2" horiz-adv-x="456" d="M23 40 L17 0 L423 0 L447 107 L126 85 C126 85 476 387 493 493 C509 597 431 643 337 643 C270 643 186 612 154 599 L120 456 C120 456 301 606 327 606 C376 606 393 563 381 489 C358 342 250 245 110 118 L23 40 L23 40 Z " />
<glyph glyph-name="three" unicode="3" horiz-adv-x="479" d="M31 36 C86 14 153 -1 201 -1 C320 -1 447 70 467 201 C486 317 405 391 307 391 C285 391 262 387 246 384 L513 605 L519 643 C329 623 183 643 183 643 L129 538 C129 538 330 526 396 552 L165 362 L186 330 C204 337 227 343 249 343 C312 343 364 299 346 187 C330 84 269 37 212 37 L73 176 L31 36 L31 36 Z " />
<glyph glyph-name="four" unicode="4" horiz-adv-x="526" d="M530 208 L448 208 L474 372 L353 328 L334 208 L140 208 C240 290 421 470 512 632 L359 632 C359 632 359 632 359 632 C356 627 281 430 63 198 L59 172 L329 172 L302 0 L416 0 L443 172 L506 172 L530 208 L530 208 Z " />
<glyph glyph-name="five" unicode="5" horiz-adv-x="485" d="M36 43 C83 20 163 -1 216 -1 C328 -1 459 69 482 212 C503 345 406 411 310 411 C256 411 204 394 154 366 L208 538 L483 538 L537 643 L204 643 L102 320 L129 309 C163 337 207 358 251 358 C314 358 382 314 363 191 C345 81 274 37 220 37 L88 178 L36 43 L36 43 Z " />
<glyph glyph-name="six" unicode="6" horiz-adv-x="547" d="M529 615 L534 645 C323 601 125 450 91 234 C64 69 150 -10 278 -10 C405 -10 521 74 541 199 C560 321 471 388 379 388 C324 388 269 363 232 328 C283 463 372 573 529 615 L529 615 Z M219 284 C253 320 296 332 329 332 C404 332 433 269 419 180 C405 91 350 28 286 28 C210 28 189 118 205 219 C208 239 214 263 219 284 L219 284 Z " />
<glyph glyph-name="seven" unicode="7" horiz-adv-x="449" d="M534 637 L152 637 L93 521 L434 521 C434 521 434 521 434 521 C432 519 197 335 69 0 L142 0 C235 259 389 446 475 521 L529 600 L534 637 L534 637 Z " />
<glyph glyph-name="eight" unicode="8" horiz-adv-x="514" d="M61 157 C46 59 126 -10 253 -10 C387 -10 487 68 503 167 C518 262 442 317 397 347 L379 359 C433 381 517 432 529 508 C542 591 459 645 361 645 C260 645 154 590 137 485 C124 401 182 351 220 324 L228 318 C151 292 75 244 61 157 L61 157 Z M396 129 C388 76 332 28 259 28 C182 28 140 83 152 158 C163 228 216 272 261 295 L294 273 C341 239 406 193 396 129 L396 129 Z M444 498 C435 438 390 402 347 381 L334 390 C292 416 235 458 245 519 C253 573 300 608 356 608 C416 608 455 568 444 498 L444 498 Z " />
<glyph glyph-name="nine" unicode="9" horiz-adv-x="545" d="M107 24 L111 -6 C321 37 519 189 554 405 C580 570 494 648 366 648 C240 648 122 566 102 440 C83 318 172 251 265 251 C321 251 375 277 412 311 C362 176 255 79 107 24 L107 24 Z M426 355 C392 319 348 307 315 307 C240 307 211 370 225 459 C239 548 295 611 359 611 C433 611 455 521 439 420 C436 400 431 376 426 355 L426 355 Z " />
<glyph glyph-name="colon" unicode="&#x3a;" horiz-adv-x="250" d="M116 367 C110 331 172 300 172 300 C172 300 242 331 248 367 C253 402 193 433 193 433 C193 433 121 402 116 367 L116 367 Z M68 65 C62 30 125 0 125 0 C125 0 194 30 200 65 C205 101 145 132 145 132 C145 132 73 101 68 65 L68 65 Z " />
<glyph glyph-name="semicolon" unicode="&#x3b;" horiz-adv-x="264" d="M123 360 C117 327 179 297 179 297 C179 297 248 327 254 360 C259 394 199 424 199 424 C199 424 128 394 123 360 L123 360 Z M206 57 C211 91 151 120 151 120 C151 120 80 91 75 57 C72 39 88 22 103 10 L85 -105 L106 -105 C106 -105 202 34 206 57 L206 57 Z " />
<glyph glyph-name="less" unicode="&#x3c;" horiz-adv-x="463" d="M474 452 L90 268 L90 266 L85 235 L84 233 L410 48 L424 135 L135 250 L460 366 L474 452 L474 452 Z " />
<glyph glyph-name="equal" unicode="&#x3d;" horiz-adv-x="480" d="M452 360 L457 396 L147 396 L142 360 L452 360 Z M436 263 L442 300 L132 300 L126 263 L436 263 Z " />
<glyph glyph-name="greater" unicode="&#x3e;" horiz-adv-x="463" d="M131 452 L117 366 L406 250 L81 135 L67 48 L451 233 L457 268 L131 452 L131 452 Z " />
<glyph glyph-name="question" unicode="&#x3f;" horiz-adv-x="440" d="M157 339 L155 182 L176 184 L215 268 C306 299 459 373 480 506 C496 612 419 660 327 660 C274 660 187 639 138 620 L156 511 L325 622 C362 622 390 589 381 532 C362 414 247 368 157 339 L157 339 Z M90 64 C84 29 147 0 147 0 C147 0 216 29 222 64 C227 99 167 128 167 128 C167 128 95 99 90 64 L90 64 Z " />
<glyph glyph-name="at" unicode="&#x40;" horiz-adv-x="847" d="M87 161 C88 -20 236 -111 403 -111 C536 -111 635 -54 700 -12 L642 -12 C588 -48 506 -83 409 -83 C256 -83 136 2 135 165 C133 377 337 539 535 539 C708 539 781 416 782 306 C783 178 684 104 642 87 C623 80 608 79 601 79 C585 79 577 85 577 97 C576 106 580 116 583 123 L695 422 L593 405 C573 412 556 415 538 415 C393 415 226 258 228 133 C227 74 267 39 324 39 C423 39 497 138 497 138 C486 112 482 94 482 82 C482 53 504 36 555 36 C671 36 823 147 821 303 C821 420 732 566 534 566 C317 566 86 390 87 161 L87 161 Z M507 197 C459 125 416 103 386 103 C355 103 335 126 336 161 C335 245 444 384 545 384 C555 384 567 383 576 377 L507 197 Z " />
<glyph glyph-name="A" unicode="A" horiz-adv-x="687" d="M49 14 L19 0 L220 0 L190 25 C166 49 164 81 184 116 L233 210 L439 210 L464 95 C472 71 455 48 433 29 L391 0 L668 0 C612 33 600 73 596 95 L471 643 L414 643 L142 116 C122 82 91 34 49 14 L49 14 Z M430 250 L254 250 L378 490 L379 490 L430 250 Z " />
<glyph glyph-name="B" unicode="B" horiz-adv-x="627" d="M58 15 L32 0 L341 0 C499 0 596 73 612 175 C635 322 462 346 462 346 C552 362 616 415 629 493 C641 571 597 643 443 643 L133 643 L193 560 L118 84 C114 61 91 32 58 15 L58 15 Z M371 356 L284 356 L323 602 L408 602 C493 602 523 546 513 483 C501 407 433 356 371 356 L371 356 Z M316 41 L234 41 L277 315 L378 315 C448 315 500 275 484 176 C469 77 405 41 316 41 L316 41 Z " />
<glyph glyph-name="C" unicode="C" horiz-adv-x="634" d="M109 322 C73 94 204 -13 368 -13 C433 -13 524 8 570 20 L605 163 C605 163 425 24 382 24 C288 24 212 125 243 322 C275 523 381 632 472 632 L656 479 L666 623 C617 638 539 654 475 654 C301 654 142 530 109 322 L109 322 Z " />
<glyph glyph-name="D" unicode="D" horiz-adv-x="686" d="M62 16 L27 0 L309 0 C514 0 658 133 688 323 C718 513 612 643 411 643 L128 643 L188 560 L113 84 C109 61 91 30 62 16 L62 16 Z M306 41 L229 41 L318 602 L396 602 C530 602 583 495 555 321 C528 151 441 41 306 41 L306 41 Z " />
<glyph glyph-name="E" unicode="E" horiz-adv-x="580" d="M47 12 L22 0 L519 0 L566 182 C566 182 423 40 382 40 L224 40 L267 313 L401 313 C427 313 487 239 487 239 L506 354 L274 354 L313 603 L448 603 L584 466 L594 643 L123 643 L183 560 L108 84 C104 61 76 25 47 12 L47 12 Z " />
<glyph glyph-name="F" unicode="F" horiz-adv-x="567" d="M71 16 L37 0 L329 0 L289 17 C256 31 242 61 246 84 L282 313 L407 313 C434 313 494 239 494 239 L512 353 C512 353 440 353 413 353 L288 353 L328 603 L454 603 L591 466 L601 643 L138 643 L198 560 L123 84 C119 61 100 30 71 16 L71 16 Z " />
<glyph glyph-name="G" unicode="G" horiz-adv-x="690" d="M115 316 C80 99 203 -13 366 -13 C437 -13 507 8 563 34 L609 0 L673 309 L406 309 L403 286 L570 273 L516 68 C494 47 443 30 390 30 C282 30 216 115 247 310 C279 517 383 632 486 632 C529 632 669 477 669 477 L679 620 C635 632 561 654 483 654 C308 654 148 529 115 316 L115 316 Z " />
<glyph glyph-name="H" unicode="H" horiz-adv-x="773" d="M82 16 L52 0 L322 0 C269 29 257 61 261 84 L297 313 L574 313 L538 84 C534 61 512 29 451 0 L721 0 C668 29 657 61 661 84 L736 560 C740 582 761 617 822 643 L552 643 C605 617 617 582 613 560 L581 356 L304 356 L336 560 C340 582 359 615 423 643 L153 643 C197 615 217 582 213 560 L138 84 C134 61 111 29 82 16 L82 16 Z " />
<glyph glyph-name="I" unicode="I" horiz-adv-x="368" d="M68 11 L47 0 L317 0 L256 84 L331 560 C335 582 356 616 418 643 L148 643 L208 560 L133 84 C129 61 95 25 68 11 L68 11 Z " />
<glyph glyph-name="J" unicode="J" horiz-adv-x="458" d="M30 26 C60 9 108 -13 171 -13 C257 -13 367 27 386 146 L451 560 C455 582 477 616 505 630 L538 643 L268 643 L328 560 L260 130 C249 57 219 30 178 30 C145 30 69 180 69 180 L30 26 L30 26 Z " />
<glyph glyph-name="K" unicode="K" horiz-adv-x="674" d="M581 113 L452 413 L571 531 C594 555 637 600 690 629 L730 643 L501 643 L522 607 L508 521 L279 291 L321 560 C325 582 349 618 382 632 L408 643 L138 643 L161 630 C186 616 202 582 198 560 L123 84 C119 61 100 26 68 13 L37 0 L286 0 L246 87 L269 230 L357 318 L488 0 L649 0 C649 0 627 16 581 113 L581 113 Z " />
<glyph glyph-name="L" unicode="L" horiz-adv-x="588" d="M77 14 L47 0 L529 0 L577 182 L393 40 L249 40 L331 560 C335 582 356 617 384 631 L418 643 L148 643 L208 560 L133 84 C129 61 106 28 77 14 L77 14 Z " />
<glyph glyph-name="M" unicode="M" horiz-adv-x="867" d="M770 84 L845 560 C849 582 873 618 903 631 L931 643 L706 643 L433 52 L328 643 L111 643 L185 573 L111 104 C106 73 68 29 36 14 L7 0 L136 0 L224 0 L152 105 L220 535 L221 535 L321 0 L452 0 L725 592 L726 592 L646 84 C642 61 621 28 561 0 L830 0 C778 30 766 61 770 84 L770 84 Z " />
<glyph glyph-name="N" unicode="N" horiz-adv-x="711" d="M572 643 L644 540 L567 52 L344 643 L137 643 L211 575 L136 104 C131 73 101 35 72 20 L32 0 L250 0 L177 107 L246 540 L247 540 L452 0 L601 0 L686 540 C691 571 720 608 749 623 L789 643 L572 643 L572 643 Z " />
<glyph glyph-name="O" unicode="O" horiz-adv-x="726" d="M99 321 C68 120 177 -13 360 -13 C544 -13 696 120 727 321 C759 523 650 654 466 654 C282 654 131 523 99 321 L99 321 Z M594 321 C566 143 472 30 369 30 C265 30 204 142 232 319 C260 498 356 611 458 611 C563 611 623 501 594 321 L594 321 Z " />
<glyph glyph-name="P" unicode="P" horiz-adv-x="592" d="M108 84 C98 20 22 0 22 0 L304 0 C304 0 221 20 231 84 L259 259 L361 259 C490 259 610 323 631 455 C651 583 550 643 423 643 L123 643 L183 560 L108 84 Z M340 301 L265 301 L313 602 L390 602 C481 602 519 548 504 454 C488 349 428 301 340 301 L340 301 Z " />
<glyph glyph-name="Q" unicode="Q" horiz-adv-x="776" d="M484 1 C622 39 726 157 752 321 C784 523 675 654 491 654 C306 654 156 523 124 321 C93 120 201 -13 385 -13 C399 -13 414 -12 427 -10 L590 -113 L701 -88 L484 1 L484 1 Z M483 611 C584 611 648 501 619 321 C594 163 515 57 428 35 C372 67 271 141 253 188 C248 226 249 270 257 319 C285 498 384 611 483 611 L483 611 Z M253 151 C269 127 317 69 365 34 C318 42 264 93 253 151 L253 151 Z " />
<glyph glyph-name="R" unicode="R" horiz-adv-x="631" d="M323 288 L458 0 L622 0 C622 0 594 25 549 111 L444 297 C542 316 611 380 625 469 C641 572 577 643 431 643 L124 643 L183 560 L108 84 C98 22 23 0 23 0 L290 0 L259 21 C232 38 228 61 232 84 L264 288 L323 288 L323 288 Z M314 602 L404 602 C476 602 514 555 500 464 C484 364 429 329 341 329 L271 329 L314 602 L314 602 Z " />
<glyph glyph-name="S" unicode="S" horiz-adv-x="511" d="M63 32 C109 14 182 -13 254 -13 C352 -13 473 41 494 173 C513 296 429 343 383 365 L303 404 C254 428 215 466 224 521 C233 580 286 611 342 611 C381 611 503 498 503 498 L511 628 C473 641 409 654 351 654 C240 654 141 589 122 473 C108 381 157 328 219 299 L309 255 C365 228 400 188 391 130 C382 70 337 30 264 30 C212 30 71 180 71 180 L63 32 L63 32 Z " />
<glyph glyph-name="T" unicode="T" horiz-adv-x="573" d="M183 16 L152 0 L422 0 L393 16 C369 29 357 61 361 84 L443 602 L508 602 C545 602 562 577 623 466 L650 643 L126 643 L95 466 C194 579 218 602 255 602 L320 602 L238 84 C234 61 212 29 183 16 L183 16 Z " />
<glyph glyph-name="U" unicode="U" horiz-adv-x="673" d="M128 214 C101 39 218 -13 332 -13 C473 -13 589 65 611 208 L664 540 C676 615 753 643 753 643 L566 643 L623 540 L571 213 C554 103 467 55 384 55 C291 55 235 113 253 225 L306 560 C316 619 392 643 392 643 L122 643 L183 560 L128 214 L128 214 Z " />
<glyph glyph-name="V" unicode="V" horiz-adv-x="660" d="M176 547 L257 0 L391 0 L630 526 C646 561 677 611 718 631 L748 643 L532 643 L597 554 C596 545 592 535 588 526 L372 50 L303 547 C302 554 302 559 303 564 C306 581 315 608 353 629 L379 643 L107 643 L176 547 L176 547 Z " />
<glyph glyph-name="W" unicode="W" horiz-adv-x="994" d="M176 547 L257 0 L389 0 L545 336 L597 0 L731 0 L968 526 C984 561 1010 605 1053 628 L1086 643 L871 643 L935 553 C934 545 931 535 927 526 L712 50 L625 643 L442 643 C442 643 495 621 512 547 L534 403 L374 57 L303 547 C303 554 303 559 304 565 C309 621 380 643 380 643 L107 643 L176 547 L176 547 Z " />
<glyph glyph-name="X" unicode="X" horiz-adv-x="659" d="M158 113 C88 32 11 0 11 0 L230 0 C230 0 171 27 177 65 C179 77 187 88 209 113 L342 269 L432 92 C436 84 438 75 437 68 C430 25 369 0 369 0 L650 0 C650 0 603 21 567 92 L436 347 L596 531 C670 614 744 643 744 643 L526 643 L581 581 C579 569 564 553 546 531 L418 382 L333 552 C329 560 326 568 328 576 C336 627 396 643 396 643 L114 643 L197 552 L324 303 L158 113 L158 113 Z " />
<glyph glyph-name="Y" unicode="Y" horiz-adv-x="659" d="M280 84 C271 30 193 0 193 0 L463 0 C463 0 394 26 403 84 L436 294 L618 533 C689 621 751 643 751 643 L545 643 L591 571 C589 559 582 546 572 533 L423 338 L283 643 L107 643 L188 552 L311 281 L280 84 L280 84 Z " />
<glyph glyph-name="Z" unicode="Z" horiz-adv-x="551" d="M34 24 L31 0 L497 0 L545 182 L361 40 L177 40 L612 618 L616 643 L172 643 L125 465 L305 602 L469 602 L34 24 L34 24 Z " />
<glyph glyph-name="bracketleft" unicode="&#x5b;" horiz-adv-x="297" d="M188 748 L51 -117 L227 -117 L232 -83 L138 -83 L264 713 L358 713 L364 748 L188 748 L188 748 Z " />
<glyph glyph-name="backslash" unicode="&#x5c;" horiz-adv-x="327" d="M261 -54 L298 -54 L165 746 L128 746 L261 -54 L261 -54 Z " />
<glyph glyph-name="bracketright" unicode="&#x5d;" horiz-adv-x="296" d="M32 -117 L207 -117 L344 748 L169 748 L163 713 L257 713 L131 -83 L37 -83 L32 -117 L32 -117 Z " />
<glyph glyph-name="asciicircum" unicode="&#x5e;" horiz-adv-x="413" d="M326 654 L325 654 L302 654 L301 654 L97 339 L163 339 L303 591 L364 339 L429 339 L326 654 L326 654 Z " />
<glyph glyph-name="underscore" unicode="&#x5f;" horiz-adv-x="550" d="M79 36 L74 0 L474 0 L479 36 L79 36 L79 36 Z " />
<glyph glyph-name="grave" unicode="&#x60;" horiz-adv-x="290" d="M136 592 L306 470 L322 482 L229 654 L136 592 L136 592 Z " />
<glyph glyph-name="a" unicode="a" horiz-adv-x="506" d="M345 68 L332 0 L502 0 L457 74 L516 447 L405 429 L401 367 C401 395 370 447 313 447 C203 447 94 360 70 213 C49 80 110 -9 201 -9 C253 -9 300 17 345 68 L345 68 Z M351 107 C319 73 286 59 258 59 C193 59 169 126 184 220 C199 311 251 389 311 389 C350 389 377 372 387 332 L351 107 Z " />
<glyph glyph-name="b" unicode="b" horiz-adv-x="542" d="M392 447 C392 447 294 450 244 369 L292 670 L113 639 L159 568 L79 57 C74 40 59 0 34 0 L70 0 L72 0 L177 0 L190 68 C219 22 256 -10 310 -10 C397 -10 507 73 531 223 C552 359 488 447 392 447 L392 447 Z M286 50 C256 50 224 66 202 102 L238 330 C271 365 306 380 337 380 C403 380 427 310 412 215 C397 122 352 50 286 50 L286 50 Z " />
<glyph glyph-name="c" unicode="c" horiz-adv-x="443" d="M77 218 C55 76 134 -10 242 -10 C351 -10 420 74 440 120 L421 127 C389 90 344 72 302 72 C216 72 171 148 189 262 C203 353 259 421 304 421 C323 421 429 308 429 308 L460 415 C409 434 357 447 316 447 C209 447 100 363 77 218 L77 218 Z " />
<glyph glyph-name="d" unicode="d" horiz-adv-x="558" d="M82 215 C60 80 124 -10 218 -10 C274 -10 322 18 371 72 L363 0 L532 0 C481 26 482 58 485 80 L579 670 L401 639 L447 568 L417 374 C408 446 301 447 301 447 C214 447 105 365 82 215 L82 215 Z M375 108 C340 74 307 58 277 58 C209 58 185 127 200 222 C214 315 259 387 325 387 C357 387 387 371 411 336 L375 108 Z " />
<glyph glyph-name="e" unicode="e" horiz-adv-x="464" d="M68 218 C46 79 127 -10 245 -10 C343 -10 421 61 450 126 L430 132 C401 79 360 55 310 55 C242 55 163 124 179 241 L423 251 L464 259 C480 362 422 447 309 447 C195 447 90 358 68 218 L68 218 Z M358 283 L185 278 C206 367 252 427 298 427 C350 427 367 363 358 283 L358 283 Z " />
<glyph glyph-name="f" unicode="f" horiz-adv-x="441" d="M63 13 L37 0 L285 0 L258 13 C226 27 220 58 223 80 L273 394 L373 394 L399 436 L280 436 L298 552 C307 610 338 638 356 638 L467 556 L537 645 C490 655 430 665 384 665 C273 665 190 602 167 459 L164 436 L106 436 L99 394 L157 394 L107 80 C104 58 92 26 63 13 L63 13 Z " />
<glyph glyph-name="g" unicode="g" horiz-adv-x="498" d="M12 -118 C2 -178 102 -203 178 -203 C282 -203 446 -157 465 -36 C477 39 421 73 333 73 C309 73 215 70 187 70 C173 70 164 77 165 88 C167 98 175 107 220 141 C232 140 247 139 260 139 C382 139 460 202 473 284 C487 368 424 399 378 415 L493 415 L521 491 L334 437 L311 437 C198 437 109 384 94 288 C83 220 116 171 177 150 C177 150 56 67 51 33 C47 9 59 -17 104 -25 L103 -31 C79 -41 19 -75 12 -118 L12 -118 Z M372 -81 C364 -128 288 -165 198 -165 C121 -165 92 -139 98 -103 C103 -70 135 -44 158 -29 C190 -28 292 -25 309 -25 C359 -25 376 -52 372 -81 L372 -81 Z M366 288 C354 211 311 166 266 166 C222 166 192 212 204 288 C216 365 262 415 305 415 C348 415 378 366 366 288 L366 288 Z " />
<glyph glyph-name="h" unicode="h" horiz-adv-x="560" d="M44 8 L27 0 L258 0 L240 10 C214 23 210 58 213 80 L250 312 C287 350 325 369 360 369 C401 369 424 344 414 279 L382 80 C379 58 359 22 329 8 L312 0 L544 0 L524 11 C499 25 494 58 497 80 L535 316 C550 415 488 447 429 447 C360 447 299 403 257 354 L307 670 L128 639 L174 568 L97 80 C94 58 73 22 44 8 L44 8 Z " />
<glyph glyph-name="i" unicode="i" horiz-adv-x="276" d="M51 8 L32 0 L263 0 L244 9 C218 23 215 58 218 80 L277 452 L96 408 L144 343 L102 80 C99 58 80 21 51 8 L51 8 Z M163 569 C157 535 217 508 217 508 C217 508 286 535 292 569 C297 602 236 630 236 630 C236 630 168 602 163 569 L163 569 Z " />
<glyph glyph-name="j" unicode="j" horiz-adv-x="280" d="M5 -159 L-16 -193 C100 -168 193 -106 216 39 L281 452 L100 408 L149 343 L92 -13 C78 -104 62 -130 5 -159 L5 -159 Z M168 569 C162 535 222 508 222 508 C222 508 291 535 297 569 C302 602 241 630 241 630 C241 630 173 602 168 569 L168 569 Z " />
<glyph glyph-name="k" unicode="k" horiz-adv-x="560" d="M495 75 L391 289 C498 365 598 436 598 436 L389 436 L420 389 C425 383 432 371 431 365 C431 362 424 353 413 345 L245 221 L316 671 L137 639 L184 568 L107 80 C104 58 89 26 58 11 L36 0 L262 0 L223 85 L238 178 L299 222 L400 0 L539 0 C539 0 513 36 495 75 L495 75 Z " />
<glyph glyph-name="l" unicode="l" horiz-adv-x="280" d="M218 52 C219 63 221 73 222 80 L316 671 L138 639 L184 568 L107 80 C104 58 92 26 62 12 L37 0 L242 0 L218 52 L218 52 Z " />
<glyph glyph-name="m" unicode="m" horiz-adv-x="823" d="M47 10 L27 0 L200 0 C200 0 209 58 212 80 L248 309 C288 349 320 367 353 367 C391 367 412 340 403 278 L371 80 C368 58 349 22 320 8 L302 0 L474 0 C474 0 483 58 486 80 L522 309 C562 349 595 367 626 367 C665 367 685 340 676 278 L644 80 C641 58 624 23 595 10 L576 0 L806 0 L786 11 C761 25 757 58 760 80 L798 316 C813 415 751 447 696 447 C629 447 566 401 526 346 C526 420 471 447 422 447 C355 447 291 399 250 345 L269 452 L91 408 L139 343 L97 80 C94 58 76 24 47 10 L47 10 Z " />
<glyph glyph-name="n" unicode="n" horiz-adv-x="560" d="M338 10 L317 0 L548 0 L529 11 C504 25 499 58 502 80 L540 316 C555 416 492 447 432 447 C364 447 301 401 258 350 L275 452 L96 408 L144 343 L102 80 C99 58 83 24 54 11 L32 0 L254 0 L218 79 C218 79 218 80 218 80 L255 312 C292 350 330 369 364 369 C406 369 429 344 419 279 L387 80 C384 58 368 23 338 10 L338 10 Z " />
<glyph glyph-name="o" unicode="o" horiz-adv-x="523" d="M67 219 C46 86 117 -10 260 -10 C403 -10 503 86 524 219 C545 351 475 447 332 447 C189 447 88 351 67 219 L67 219 Z M402 219 C381 86 323 28 266 28 C210 28 168 86 189 219 C210 352 270 410 326 410 C383 410 424 357 402 219 L402 219 Z " />
<glyph glyph-name="p" unicode="p" horiz-adv-x="571" d="M73 -106 C64 -161 2 -186 2 -186 L256 -186 C256 -186 179 -161 188 -106 L214 63 C242 19 277 -10 330 -10 C416 -10 527 73 551 223 C572 357 507 447 412 447 C357 447 308 419 260 365 L274 452 L96 408 L144 343 L73 -106 Z M432 215 C417 122 371 50 306 50 C274 50 243 66 221 102 L257 330 C290 365 325 380 355 380 C423 380 447 310 432 215 L432 215 Z " />
<glyph glyph-name="q" unicode="q" horiz-adv-x="547" d="M344 -108 L266 -188 L506 -188 C506 -188 451 -163 459 -108 L548 453 L435 436 L429 373 C429 373 387 447 306 447 C219 447 110 365 87 215 C65 80 129 -10 223 -10 C278 -10 326 16 372 68 L344 -108 Z M378 107 C345 73 311 58 282 58 C215 58 191 127 206 222 C220 315 264 387 330 387 C361 387 392 372 415 337 L378 107 Z " />
<glyph glyph-name="r" unicode="r" horiz-adv-x="395" d="M107 80 C99 28 36 0 36 0 L288 0 C288 0 213 22 222 80 L258 307 C302 361 358 413 358 413 C358 413 386 370 410 330 L445 434 C434 441 422 446 401 447 C339 450 292 421 264 366 L278 452 L100 408 L149 343 L107 80 L107 80 Z " />
<glyph glyph-name="s" unicode="s" horiz-adv-x="436" d="M78 18 C116 4 175 -10 226 -10 C322 -10 399 40 411 119 C423 190 378 235 324 257 L259 286 C227 300 204 319 209 352 C215 386 246 409 282 409 C308 409 417 316 417 316 L423 428 C389 439 336 446 295 446 C211 446 127 400 114 321 C104 254 142 210 201 183 L264 155 C299 139 321 116 316 84 C311 51 278 28 238 28 C194 28 86 142 86 142 L78 18 L78 18 Z " />
<glyph glyph-name="t" unicode="t" horiz-adv-x="335" d="M86 106 C73 20 124 -10 181 -10 C241 -10 288 23 312 47 L303 65 C290 52 268 34 248 34 C219 34 195 65 204 123 L247 394 L370 394 L377 436 L254 436 L275 572 L273 572 L146 483 L139 436 L106 436 L72 394 L132 394 L86 106 L86 106 Z " />
<glyph glyph-name="u" unicode="u" horiz-adv-x="555" d="M104 122 C88 20 154 -10 213 -10 C282 -10 343 37 386 87 L372 0 L544 0 C544 0 489 26 497 80 L554 436 L381 436 L426 356 L389 125 C351 87 314 68 279 68 C238 68 214 93 224 157 L269 436 L95 436 C137 407 141 356 141 356 L104 122 L104 122 Z " />
<glyph glyph-name="v" unicode="v" horiz-adv-x="495" d="M133 356 L190 0 L305 0 L455 317 C467 343 496 400 531 419 L560 436 L388 436 L434 351 C433 347 432 343 429 338 L296 52 L251 356 C251 361 250 365 251 369 C253 383 263 414 292 427 L315 436 L80 436 L133 356 L133 356 Z " />
<glyph glyph-name="w" unicode="w" horiz-adv-x="762" d="M127 356 L191 0 L305 0 L413 220 L454 0 L567 0 L723 317 C735 344 752 387 790 412 L828 436 L654 436 L701 354 C699 347 698 342 695 336 L558 52 L496 436 L338 436 C338 436 375 417 391 356 L404 275 L296 52 L246 356 C246 361 245 365 246 369 C253 417 310 436 310 436 L74 436 L127 356 L127 356 Z " />
<glyph glyph-name="x" unicode="x" horiz-adv-x="516" d="M128 85 C55 18 12 0 12 0 L196 0 L171 15 C150 31 151 48 157 65 C159 70 162 76 169 85 L253 173 L306 76 C307 69 310 64 309 58 C302 18 258 0 258 0 L505 0 C505 0 467 22 436 76 L343 242 L444 349 C508 416 560 436 560 436 L376 436 L413 371 C412 365 408 358 402 351 L327 270 L279 361 C275 366 273 372 274 377 C280 413 328 436 328 436 L79 436 C79 436 117 413 148 361 L237 201 L128 85 L128 85 Z " />
<glyph glyph-name="y" unicode="y" horiz-adv-x="515" d="M45 -175 C58 -183 77 -187 95 -187 C124 -187 185 -180 219 -117 L457 318 C510 414 566 436 566 436 L393 436 L438 354 C437 349 435 344 432 339 L304 98 L250 357 C250 362 235 436 235 436 L74 436 L129 357 L208 2 L251 2 L196 -100 C186 -118 169 -137 153 -137 L57 -53 L45 -175 L45 -175 Z " />
<glyph glyph-name="z" unicode="z" horiz-adv-x="427" d="M40 26 L36 0 L390 0 L426 149 L282 38 L168 38 L467 409 L472 436 L131 436 L95 292 L240 399 L337 399 L40 26 L40 26 Z " />
<glyph glyph-name="braceleft" unicode="&#x7b;" horiz-adv-x="323" d="M133 80 C108 -82 176 -130 274 -143 L280 -124 C209 -103 200 -29 217 76 L236 199 C246 263 208 303 158 303 C208 303 259 342 269 406 L288 529 C305 635 338 708 415 729 L415 748 C313 736 229 687 204 525 L184 398 C176 348 130 320 99 313 L96 292 C125 286 161 257 153 207 L133 80 L133 80 Z " />
<glyph glyph-name="bar" unicode="&#x7c;" horiz-adv-x="176" d="M188 748 L61 -52 L97 -52 L224 748 L188 748 L188 748 Z " />
<glyph glyph-name="braceright" unicode="&#x7d;" horiz-adv-x="333" d="M3 -124 L4 -143 C106 -130 189 -82 214 80 L234 207 C242 257 289 286 319 292 L322 313 C294 320 257 348 265 398 L285 525 C310 687 243 736 145 748 L138 729 C210 708 219 635 202 529 L183 406 C173 342 210 303 259 303 C210 303 160 263 150 199 L131 76 C114 -29 81 -103 3 -124 L3 -124 Z " />
<glyph glyph-name="asciitilde" unicode="&#x7e;" horiz-adv-x="471" d="M212 290 C256 290 306 251 357 251 C389 251 415 264 445 282 L456 351 L365 306 C322 306 275 344 221 344 C185 344 151 330 119 313 L109 251 L212 290 L212 290 Z " />
<glyph glyph-name="exclamdown" unicode="&#xa1;" horiz-adv-x="229" d="M183 -2 L198 457 L174 457 L41 -2 L38 -23 L183 -6 L183 -2 Z M270 579 C276 613 213 643 213 643 C213 643 144 613 138 579 C133 544 193 514 193 514 C193 514 265 544 270 579 L270 579 Z " />
<glyph glyph-name="cent" unicode="&#xa2;" horiz-adv-x="474" d="M471 224 L452 230 C420 193 375 175 332 175 C317 175 305 177 292 181 L343 503 L460 411 L492 518 C442 545 371 550 351 550 L364 636 L330 636 L316 548 C220 533 129 451 108 321 C92 215 156 114 245 96 L229 -1 L263 -1 L278 93 C384 96 452 178 471 224 L471 224 Z M220 365 C232 440 270 492 310 507 L261 199 C238 218 204 265 220 365 L220 365 Z " />
<glyph glyph-name="sterling" unicode="&#xa3;" horiz-adv-x="397" d="M32 30 L28 0 L332 0 L379 93 L142 64 C142 64 215 155 228 205 L336 205 L341 235 L239 235 L240 242 C249 301 221 348 229 399 C235 438 262 460 295 460 C321 460 414 364 414 364 L422 474 C393 480 341 491 304 491 C217 491 143 435 129 344 C123 305 129 269 133 235 L65 235 L60 205 L136 205 C135 193 135 179 132 163 C126 125 108 103 70 68 L32 30 L32 30 Z " />
<glyph glyph-name="currency" unicode="&#xa4;" horiz-adv-x="500" d="M143 107 C172 80 214 64 260 64 C307 64 352 80 390 108 L423 69 L453 96 L421 135 C453 169 477 212 484 258 C492 304 482 348 460 381 L504 420 L483 446 L438 408 C409 436 368 452 321 452 C275 452 228 436 191 408 L157 447 L127 421 L160 382 C127 348 104 305 96 258 C89 211 99 168 122 133 L76 95 L97 68 L143 107 Z M445 258 C432 171 353 101 265 101 C177 101 121 171 134 258 C148 345 227 415 315 415 C403 415 459 345 445 258 L445 258 Z " />
<glyph glyph-name="yen" unicode="&#xa5;" horiz-adv-x="530" d="M599 481 L436 481 L474 415 C473 406 468 400 465 394 L350 251 L234 481 L83 481 C83 481 128 441 142 413 L227 238 L151 238 L147 211 L241 211 L243 207 L237 167 L141 167 L137 139 L233 139 L221 68 C214 21 155 0 155 0 L381 0 L335 68 L347 139 L443 139 L447 167 L351 167 L358 211 L453 211 L457 238 L372 238 L499 395 C549 453 599 481 599 481 L599 481 Z " />
<glyph glyph-name="section" unicode="&#xa7;" horiz-adv-x="537" d="M128 -57 C154 -71 205 -90 256 -90 C350 -90 426 -31 439 55 C446 96 436 128 413 154 C461 183 512 223 523 293 C540 398 438 446 382 476 C311 516 276 548 283 592 C290 636 330 664 367 664 L507 555 L517 678 C490 685 431 702 380 702 C285 702 210 646 196 559 C190 518 199 486 221 462 C181 438 124 397 113 325 C98 228 179 182 243 145 C328 97 361 61 354 16 C348 -20 312 -52 268 -52 L138 73 L128 -57 Z M441 249 C435 214 412 195 390 178 C363 200 330 218 297 237 C242 268 181 304 190 365 C196 401 219 423 243 438 C266 418 294 403 323 386 C402 343 451 313 441 249 L441 249 Z " />
<glyph glyph-name="dieresis" unicode="&#xa8;" horiz-adv-x="411" d="M162 597 C157 566 209 541 209 541 C209 541 270 566 275 597 C280 628 227 654 227 654 C227 654 167 628 162 597 L162 597 Z M332 597 C327 566 380 541 380 541 C380 541 441 566 446 597 C451 628 398 654 398 654 C398 654 337 628 332 597 L332 597 Z " />
<glyph glyph-name="copyright" unicode="&#xa9;" horiz-adv-x="775" d="M109 319 C81 141 206 -4 388 -4 C568 -4 738 141 766 319 C794 498 670 643 490 643 C308 643 137 498 109 319 L109 319 Z M727 319 C703 169 556 33 394 33 C239 33 126 161 151 319 C176 479 329 606 484 606 C646 606 751 471 727 319 L727 319 Z M250 324 C227 178 315 123 410 123 C450 123 507 134 535 140 L563 247 C563 247 442 148 416 148 C373 148 334 206 353 324 C372 444 429 501 476 501 L587 401 L594 507 C559 517 507 525 478 525 C369 525 271 456 250 324 L250 324 Z " />
<glyph glyph-name="ordfeminine" unicode="&#xaa;" horiz-adv-x="353" d="M352 424 L375 570 C383 623 351 654 291 654 C248 654 190 636 148 620 L176 551 C176 551 263 634 279 633 C310 631 303 591 302 581 L296 544 L279 541 L279 541 L155 520 C155 520 108 482 100 425 C92 376 129 353 171 353 C213 353 251 377 273 404 L268 353 L379 353 C379 353 350 413 352 424 L352 424 Z M278 433 C259 416 234 401 209 401 C187 401 171 415 175 437 C177 454 190 468 207 481 C232 497 262 512 292 519 L278 433 L278 433 Z " />
<glyph glyph-name="guillemotleft" unicode="&#xab;" horiz-adv-x="477" d="M68 238 L246 38 L271 38 L178 245 L336 453 L311 453 L71 253 L68 238 Z M247 238 L425 38 L449 38 L357 245 L514 453 L490 453 L250 253 L247 238 Z " />
<glyph glyph-name="registered" unicode="&#xae;" horiz-adv-x="565" d="M385 643 C254 643 130 536 110 410 C90 282 180 176 311 176 C439 176 563 282 583 410 C603 536 513 643 385 643 L385 643 Z M317 213 C208 213 129 300 146 410 C164 519 271 607 380 607 C490 607 565 513 548 410 C532 306 427 213 317 213 L317 213 Z M398 404 C435 416 461 441 467 475 C474 523 444 552 381 552 L246 552 L270 514 L238 312 C235 291 202 274 202 274 L322 274 C322 274 295 291 298 312 L311 396 L336 396 L388 274 L461 274 L440 306 L398 404 L398 404 Z M315 417 L333 531 L368 531 C398 531 412 509 407 477 C400 431 377 417 341 417 L315 417 L315 417 Z " />
<glyph glyph-name="degree" unicode="&#xb0;" horiz-adv-x="411" d="M160 512 C148 439 200 381 273 381 C345 381 415 439 427 512 C438 586 385 643 314 643 C241 643 171 586 160 512 L160 512 Z M383 512 C375 463 330 420 279 420 C228 420 197 463 205 512 C213 564 257 604 308 604 C359 604 391 564 383 512 L383 512 Z " />
<glyph glyph-name="acute" unicode="&#xb4;" horiz-adv-x="272" d="M119 482 L130 470 L338 592 L266 654 L119 482 L119 482 Z " />
<glyph glyph-name="mu" unicode="&#xb5;" horiz-adv-x="536" d="M524 0 C524 0 469 25 478 80 L534 435 L360 435 L407 355 L370 125 C331 87 294 68 260 68 C219 68 195 92 205 157 L254 467 L75 435 L75 435 L75 435 L76 435 L122 365 C122 362 121 358 121 355 L84 121 C84 121 84 121 45 -123 C42 -145 29 -178 0 -192 L-26 -204 L179 -204 L156 -152 L179 -10 C184 -10 189 -10 194 -10 C262 -10 323 36 366 87 L352 0 L524 0 L524 0 Z " />
<glyph glyph-name="paragraph" unicode="&#xb6;" horiz-adv-x="457" d="M208 84 C198 23 122 0 122 0 L245 0 L346 643 L276 643 C192 643 114 575 100 491 C87 408 144 339 228 339 L248 339 L208 84 Z M409 643 L308 0 L430 0 C430 0 360 24 370 84 L445 560 C453 612 531 643 531 643 L409 643 Z " />
<glyph glyph-name="cedilla" unicode="&#xb8;" horiz-adv-x="309" d="M23 -164 C50 -172 87 -179 116 -179 C171 -179 225 -154 234 -99 C243 -43 193 -17 153 -13 L184 19 L149 19 L73 -58 L100 -60 C143 -66 168 -85 163 -114 C159 -140 138 -147 125 -147 L72 -101 L23 -164 L23 -164 Z " />
<glyph glyph-name="ordmasculine" unicode="&#xba;" horiz-adv-x="386" d="M118 504 C104 416 152 353 249 353 C346 353 415 418 428 504 C442 591 393 654 297 654 C201 654 132 591 118 504 L118 504 Z M346 504 C333 419 293 382 254 382 C216 382 186 419 199 504 C213 588 254 625 292 625 C331 625 360 593 346 504 L346 504 Z " />
<glyph glyph-name="guillemotright" unicode="&#xbb;" horiz-adv-x="487" d="M39 37 L64 37 L305 237 L307 252 L130 452 L105 452 L197 244 L39 37 Z M217 37 L243 37 L484 237 L486 252 L309 452 L283 452 L376 244 L217 37 Z " />
<glyph glyph-name="questiondown" unicode="&#xbf;" horiz-adv-x="440" d="M381 304 L384 461 L362 459 L324 375 C232 344 79 270 58 137 C41 31 120 -17 211 -17 C264 -17 351 4 401 23 L381 132 L214 21 C177 21 149 54 158 111 C177 229 292 275 381 304 L381 304 Z M448 579 C454 614 392 643 392 643 C392 643 322 614 316 579 C311 544 372 515 372 515 C372 515 443 544 448 579 L448 579 Z " />
<glyph glyph-name="Agrave" unicode="&#xc0;" horiz-adv-x="687" d="M49 14 L19 0 L220 0 L190 25 C166 49 164 81 184 116 L233 210 L439 210 L464 95 C472 71 455 48 433 29 L391 0 L668 0 C612 33 600 73 596 95 L471 643 L414 643 L142 116 C122 82 91 34 49 14 L49 14 Z M430 250 L254 250 L378 490 L379 490 L430 250 Z M367 792 L537 670 L553 682 L460 854 L367 792 Z " />
<glyph glyph-name="Aacute" unicode="&#xc1;" horiz-adv-x="687" d="M49 14 L19 0 L220 0 L190 25 C166 49 164 81 184 116 L233 210 L439 210 L464 95 C472 71 455 48 433 29 L391 0 L668 0 C612 33 600 73 596 95 L471 643 L414 643 L142 116 C122 82 91 34 49 14 L49 14 Z M430 250 L254 250 L378 490 L379 490 L430 250 Z M350 682 L361 670 L569 792 L497 854 L350 682 Z " />
<glyph glyph-name="Acircumflex" unicode="&#xc2;" horiz-adv-x="687" d="M49 14 L19 0 L220 0 L190 25 C166 49 164 81 184 116 L233 210 L439 210 L464 95 C472 71 455 48 433 29 L391 0 L668 0 C612 33 600 73 596 95 L471 643 L414 643 L142 116 C122 82 91 34 49 14 L49 14 Z M430 250 L254 250 L378 490 L379 490 L430 250 Z M329 687 L341 677 L462 754 L560 678 L574 687 L486 854 L471 854 L329 687 Z " />
<glyph glyph-name="Atilde" unicode="&#xc3;" horiz-adv-x="687" d="M49 14 L19 0 L220 0 L190 25 C166 49 164 81 184 116 L233 210 L439 210 L464 95 C472 71 455 48 433 29 L391 0 L668 0 C612 33 600 73 596 95 L471 643 L414 643 L142 116 C122 82 91 34 49 14 L49 14 Z M430 250 L254 250 L378 490 L379 490 L430 250 Z M451 773 C470 766 490 760 506 760 C584 760 589 854 589 854 C575 835 562 826 544 826 C528 826 512 831 488 842 C467 851 448 856 432 856 C358 856 349 760 349 760 C367 779 376 789 392 789 C407 789 425 784 451 773 L451 773 Z " />
<glyph glyph-name="Adieresis" unicode="&#xc4;" horiz-adv-x="687" d="M49 14 L19 0 L220 0 L190 25 C166 49 164 81 184 116 L233 210 L439 210 L464 95 C472 71 455 48 433 29 L391 0 L668 0 C612 33 600 73 596 95 L471 643 L414 643 L142 116 C122 82 91 34 49 14 L49 14 Z M430 250 L254 250 L378 490 L379 490 L430 250 Z M327 797 C322 766 374 741 374 741 C374 741 435 766 440 797 C445 828 392 854 392 854 C392 854 332 828 327 797 L327 797 Z M497 797 C492 766 545 741 545 741 C545 741 606 766 611 797 C616 828 563 854 563 854 C563 854 502 828 497 797 L497 797 Z " />
<glyph glyph-name="Aring" unicode="&#xc5;" horiz-adv-x="687" d="M49 14 L19 0 L220 0 L190 25 C166 49 164 81 184 116 L233 210 L439 210 L464 95 C472 71 455 48 433 29 L391 0 L668 0 C612 33 600 73 596 95 L471 643 L414 643 L142 116 C122 82 91 34 49 14 L49 14 Z M430 250 L254 250 L378 490 L379 490 L430 250 Z M374 769 C366 719 402 681 450 681 C500 681 548 721 555 769 C563 815 528 854 478 854 C430 854 382 816 374 769 L374 769 Z M518 769 C514 739 487 714 456 714 C427 714 408 739 412 769 C417 797 443 820 472 820 C503 820 523 797 518 769 L518 769 Z " />
<glyph glyph-name="AE" unicode="&#xc6;" horiz-adv-x="910" d="M143 112 C79 30 11 0 11 0 L215 0 C215 0 163 33 169 72 C171 84 180 96 190 112 L290 247 L487 247 L461 84 C457 61 439 50 410 37 L378 22 L375 0 L859 0 L908 182 C908 182 787 41 723 41 L577 41 L620 314 L735 314 C794 314 823 240 823 240 L841 355 L627 355 L666 603 L787 603 L924 466 L932 643 L533 643 C533 643 478 568 143 112 L143 112 Z M540 583 L493 287 L319 287 L540 583 Z " />
<glyph glyph-name="Ccedilla" unicode="&#xc7;" horiz-adv-x="634" d="M109 322 C73 94 204 -13 368 -13 C433 -13 524 8 570 20 L605 163 C605 163 425 24 382 24 C288 24 212 125 243 322 C275 523 381 632 472 632 L656 479 L666 623 C617 638 539 654 475 654 C301 654 142 530 109 322 L109 322 Z M190 -164 C217 -172 254 -179 283 -179 C338 -179 392 -154 401 -99 C410 -43 360 -17 320 -13 L351 19 L316 19 L240 -58 L267 -60 C310 -66 335 -85 330 -114 C326 -140 305 -147 292 -147 L239 -101 L190 -164 Z " />
<glyph glyph-name="Egrave" unicode="&#xc8;" horiz-adv-x="580" d="M47 12 L22 0 L519 0 L566 182 C566 182 423 40 382 40 L224 40 L267 313 L401 313 C427 313 487 239 487 239 L506 354 L274 354 L313 603 L448 603 L584 466 L594 643 L123 643 L183 560 L108 84 C104 61 76 25 47 12 L47 12 Z M313 792 L483 670 L499 682 L406 854 L313 792 Z " />
<glyph glyph-name="Eacute" unicode="&#xc9;" horiz-adv-x="580" d="M47 12 L22 0 L519 0 L566 182 C566 182 423 40 382 40 L224 40 L267 313 L401 313 C427 313 487 239 487 239 L506 354 L274 354 L313 603 L448 603 L584 466 L594 643 L123 643 L183 560 L108 84 C104 61 76 25 47 12 L47 12 Z M297 682 L308 670 L516 792 L444 854 L297 682 Z " />
<glyph glyph-name="Ecircumflex" unicode="&#xca;" horiz-adv-x="580" d="M47 12 L22 0 L519 0 L566 182 C566 182 423 40 382 40 L224 40 L267 313 L401 313 C427 313 487 239 487 239 L506 354 L274 354 L313 603 L448 603 L584 466 L594 643 L123 643 L183 560 L108 84 C104 61 76 25 47 12 L47 12 Z M275 687 L287 677 L408 754 L506 678 L520 687 L432 854 L417 854 L275 687 Z " />
<glyph glyph-name="Edieresis" unicode="&#xcb;" horiz-adv-x="580" d="M47 12 L22 0 L519 0 L566 182 C566 182 423 40 382 40 L224 40 L267 313 L401 313 C427 313 487 239 487 239 L506 354 L274 354 L313 603 L448 603 L584 466 L594 643 L123 643 L183 560 L108 84 C104 61 76 25 47 12 L47 12 Z M274 797 C269 766 321 741 321 741 C321 741 382 766 387 797 C392 828 339 854 339 854 C339 854 279 828 274 797 L274 797 Z M444 797 C439 766 492 741 492 741 C492 741 553 766 558 797 C563 828 510 854 510 854 C510 854 449 828 444 797 L444 797 Z " />
<glyph glyph-name="Igrave" unicode="&#xcc;" horiz-adv-x="368" d="M68 11 L47 0 L317 0 L256 84 L331 560 C335 582 356 616 418 643 L148 643 L208 560 L133 84 C129 61 95 25 68 11 L68 11 Z M207 792 L377 670 L393 682 L300 854 L207 792 Z " />
<glyph glyph-name="Iacute" unicode="&#xcd;" horiz-adv-x="368" d="M68 11 L47 0 L317 0 L256 84 L331 560 C335 582 356 616 418 643 L148 643 L208 560 L133 84 C129 61 95 25 68 11 L68 11 Z M191 682 L202 670 L410 792 L338 854 L191 682 Z " />
<glyph glyph-name="Icircumflex" unicode="&#xce;" horiz-adv-x="368" d="M68 11 L47 0 L317 0 L256 84 L331 560 C335 582 356 616 418 643 L148 643 L208 560 L133 84 C129 61 95 25 68 11 L68 11 Z M169 687 L181 677 L302 754 L400 678 L414 687 L326 854 L311 854 L169 687 Z " />
<glyph glyph-name="Idieresis" unicode="&#xcf;" horiz-adv-x="368" d="M68 11 L47 0 L317 0 L256 84 L331 560 C335 582 356 616 418 643 L148 643 L208 560 L133 84 C129 61 95 25 68 11 L68 11 Z M168 797 C163 766 215 741 215 741 C215 741 276 766 281 797 C286 828 233 854 233 854 C233 854 173 828 168 797 L168 797 Z M338 797 C333 766 386 741 386 741 C386 741 447 766 452 797 C457 828 404 854 404 854 C404 854 343 828 338 797 L338 797 Z " />
<glyph glyph-name="Eth" unicode="&#xd0;" horiz-adv-x="712" d="M428 643 L144 643 L204 559 L171 350 L105 350 L96 293 L162 293 L129 83 C125 61 107 29 78 15 L43 0 L326 0 C531 0 674 133 703 322 C734 512 628 643 428 643 L428 643 Z M323 41 L245 41 L285 293 L360 293 L369 350 L294 350 L334 602 L412 602 C546 602 599 495 571 321 C544 151 457 41 323 41 L323 41 Z " />
<glyph glyph-name="Ntilde" unicode="&#xd1;" horiz-adv-x="711" d="M572 643 L644 540 L567 52 L344 643 L137 643 L211 575 L136 104 C131 73 101 35 72 20 L32 0 L250 0 L177 107 L246 540 L247 540 L452 0 L601 0 L686 540 C691 571 720 608 749 623 L789 643 L572 643 L572 643 Z M463 773 C482 766 502 760 518 760 C596 760 601 854 601 854 C587 835 574 826 556 826 C540 826 524 831 500 842 C479 851 460 856 444 856 C370 856 361 760 361 760 C379 779 388 789 404 789 C419 789 437 784 463 773 L463 773 Z " />
<glyph glyph-name="Ograve" unicode="&#xd2;" horiz-adv-x="726" d="M99 321 C68 120 177 -13 360 -13 C544 -13 696 120 727 321 C759 523 650 654 466 654 C282 654 131 523 99 321 L99 321 Z M594 321 C566 143 472 30 369 30 C265 30 204 142 232 319 C260 498 356 611 458 611 C563 611 623 501 594 321 L594 321 Z M386 792 L556 670 L572 682 L479 854 L386 792 Z " />
<glyph glyph-name="Oacute" unicode="&#xd3;" horiz-adv-x="726" d="M99 321 C68 120 177 -13 360 -13 C544 -13 696 120 727 321 C759 523 650 654 466 654 C282 654 131 523 99 321 L99 321 Z M594 321 C566 143 472 30 369 30 C265 30 204 142 232 319 C260 498 356 611 458 611 C563 611 623 501 594 321 L594 321 Z M370 682 L381 670 L589 792 L517 854 L370 682 Z " />
<glyph glyph-name="Ocircumflex" unicode="&#xd4;" horiz-adv-x="726" d="M99 321 C68 120 177 -13 360 -13 C544 -13 696 120 727 321 C759 523 650 654 466 654 C282 654 131 523 99 321 L99 321 Z M594 321 C566 143 472 30 369 30 C265 30 204 142 232 319 C260 498 356 611 458 611 C563 611 623 501 594 321 L594 321 Z M348 687 L360 677 L481 754 L579 678 L593 687 L505 854 L490 854 L348 687 Z " />
<glyph glyph-name="Otilde" unicode="&#xd5;" horiz-adv-x="726" d="M99 321 C68 120 177 -13 360 -13 C544 -13 696 120 727 321 C759 523 650 654 466 654 C282 654 131 523 99 321 L99 321 Z M594 321 C566 143 472 30 369 30 C265 30 204 142 232 319 C260 498 356 611 458 611 C563 611 623 501 594 321 L594 321 Z M470 773 C489 766 509 760 525 760 C603 760 608 854 608 854 C594 835 581 826 563 826 C547 826 531 831 507 842 C486 851 467 856 451 856 C377 856 368 760 368 760 C386 779 395 789 411 789 C426 789 444 784 470 773 L470 773 Z " />
<glyph glyph-name="Odieresis" unicode="&#xd6;" horiz-adv-x="726" d="M99 321 C68 120 177 -13 360 -13 C544 -13 696 120 727 321 C759 523 650 654 466 654 C282 654 131 523 99 321 L99 321 Z M594 321 C566 143 472 30 369 30 C265 30 204 142 232 319 C260 498 356 611 458 611 C563 611 623 501 594 321 L594 321 Z M347 797 C342 766 394 741 394 741 C394 741 455 766 460 797 C465 828 412 854 412 854 C412 854 352 828 347 797 L347 797 Z M517 797 C512 766 565 741 565 741 C565 741 626 766 631 797 C636 828 583 854 583 854 C583 854 522 828 517 797 L517 797 Z " />
<glyph glyph-name="multiply" unicode="&#xd7;" horiz-adv-x="328" d="M51 179 L70 154 L206 271 L307 154 L332 175 L233 294 L369 412 L349 436 L214 318 L114 433 L90 412 L186 294 L51 179 L51 179 Z " />
<glyph glyph-name="Oslash" unicode="&#xd8;" horiz-adv-x="766" d="M747 321 C766 439 736 533 671 591 L758 700 L717 700 L645 611 C602 639 549 654 486 654 C301 654 151 523 119 321 C101 203 130 110 194 52 L100 -65 L141 -65 L219 31 C262 3 317 -13 380 -13 C563 -13 716 120 747 321 L747 321 Z M261 134 C243 182 240 245 252 319 C281 499 375 611 478 611 C526 611 566 587 591 543 L261 134 Z M614 321 C586 143 491 30 389 30 C339 30 300 56 274 101 L605 510 C622 463 627 398 614 321 L614 321 Z " />
<glyph glyph-name="Ugrave" unicode="&#xd9;" horiz-adv-x="673" d="M128 214 C101 39 218 -13 332 -13 C473 -13 589 65 611 208 L664 540 C676 615 753 643 753 643 L566 643 L623 540 L571 213 C554 103 467 55 384 55 C291 55 235 113 253 225 L306 560 C316 619 392 643 392 643 L122 643 L183 560 L128 214 Z M360 792 L530 670 L546 682 L453 854 L360 792 Z " />
<glyph glyph-name="Uacute" unicode="&#xda;" horiz-adv-x="673" d="M128 214 C101 39 218 -13 332 -13 C473 -13 589 65 611 208 L664 540 C676 615 753 643 753 643 L566 643 L623 540 L571 213 C554 103 467 55 384 55 C291 55 235 113 253 225 L306 560 C316 619 392 643 392 643 L122 643 L183 560 L128 214 Z M343 682 L354 670 L562 792 L490 854 L343 682 Z " />
<glyph glyph-name="Ucircumflex" unicode="&#xdb;" horiz-adv-x="673" d="M128 214 C101 39 218 -13 332 -13 C473 -13 589 65 611 208 L664 540 C676 615 753 643 753 643 L566 643 L623 540 L571 213 C554 103 467 55 384 55 C291 55 235 113 253 225 L306 560 C316 619 392 643 392 643 L122 643 L183 560 L128 214 Z M322 687 L334 677 L455 754 L553 678 L567 687 L479 854 L464 854 L322 687 Z " />
<glyph glyph-name="Udieresis" unicode="&#xdc;" horiz-adv-x="673" d="M128 214 C101 39 218 -13 332 -13 C473 -13 589 65 611 208 L664 540 C676 615 753 643 753 643 L566 643 L623 540 L571 213 C554 103 467 55 384 55 C291 55 235 113 253 225 L306 560 C316 619 392 643 392 643 L122 643 L183 560 L128 214 Z M320 797 C315 766 367 741 367 741 C367 741 428 766 433 797 C438 828 385 854 385 854 C385 854 325 828 320 797 L320 797 Z M490 797 C485 766 538 741 538 741 C538 741 599 766 604 797 C609 828 556 854 556 854 C556 854 495 828 490 797 L490 797 Z " />
<glyph glyph-name="Yacute" unicode="&#xdd;" horiz-adv-x="659" d="M280 84 C271 30 193 0 193 0 L463 0 C463 0 394 26 403 84 L436 294 L618 533 C689 621 751 643 751 643 L545 643 L591 571 C589 559 582 546 572 533 L423 338 L283 643 L107 643 L188 552 L311 281 L280 84 Z M336 682 L347 670 L555 792 L483 854 L336 682 Z " />
<glyph glyph-name="Thorn" unicode="&#xde;" horiz-adv-x="619" d="M108 84 L22 0 L292 0 C292 0 228 61 232 84 L240 135 L343 135 C472 135 592 199 613 329 C633 459 533 519 406 519 L301 519 L307 560 C311 582 393 643 393 643 L123 643 L183 560 L108 84 Z M321 176 L246 176 L294 478 L372 478 C463 478 502 423 488 329 C471 224 410 176 321 176 L321 176 Z " />
<glyph glyph-name="germandbls" unicode="&#xdf;" horiz-adv-x="589" d="M271 33 C289 14 343 -11 395 -11 C466 -11 562 37 578 138 C602 290 414 322 425 386 C433 437 529 451 544 548 C557 628 473 654 391 654 C254 654 171 577 152 456 L92 80 C83 24 22 0 22 0 L253 0 L207 80 L275 509 C289 599 343 616 390 616 C426 616 470 594 461 540 C444 430 358 416 346 336 C328 221 499 210 480 92 C473 50 439 27 403 27 L279 155 L271 33 L271 33 Z " />
<glyph glyph-name="agrave" unicode="&#xe0;" horiz-adv-x="479" d="M319 68 L306 0 L476 0 L431 74 L490 447 L379 429 L375 367 C375 395 344 447 287 447 C177 447 68 360 44 213 C23 80 84 -9 175 -9 C227 -9 274 17 319 68 L319 68 Z M325 107 C293 73 260 59 232 59 C167 59 143 126 158 220 C173 311 225 389 285 389 C324 389 351 372 361 332 L325 107 Z M231 592 L401 470 L417 482 L324 654 L231 592 Z " />
<glyph glyph-name="aacute" unicode="&#xe1;" horiz-adv-x="479" d="M319 68 L306 0 L476 0 L431 74 L490 447 L379 429 L375 367 C375 395 344 447 287 447 C177 447 68 360 44 213 C23 80 84 -9 175 -9 C227 -9 274 17 319 68 L319 68 Z M325 107 C293 73 260 59 232 59 C167 59 143 126 158 220 C173 311 225 389 285 389 C324 389 351 372 361 332 L325 107 Z M214 482 L225 470 L433 592 L361 654 L214 482 Z " />
<glyph glyph-name="acircumflex" unicode="&#xe2;" horiz-adv-x="479" d="M319 68 L306 0 L476 0 L431 74 L490 447 L379 429 L375 367 C375 395 344 447 287 447 C177 447 68 360 44 213 C23 80 84 -9 175 -9 C227 -9 274 17 319 68 L319 68 Z M325 107 C293 73 260 59 232 59 C167 59 143 126 158 220 C173 311 225 389 285 389 C324 389 351 372 361 332 L325 107 Z M194 487 L205 477 L326 554 L424 478 L439 487 L350 654 L335 654 L194 487 Z " />
<glyph glyph-name="atilde" unicode="&#xe3;" horiz-adv-x="479" d="M319 68 L306 0 L476 0 L431 74 L490 447 L379 429 L375 367 C375 395 344 447 287 447 C177 447 68 360 44 213 C23 80 84 -9 175 -9 C227 -9 274 17 319 68 L319 68 Z M325 107 C293 73 260 59 232 59 C167 59 143 126 158 220 C173 311 225 389 285 389 C324 389 351 372 361 332 L325 107 Z M315 573 C334 566 354 560 370 560 C448 560 453 654 453 654 C439 635 427 626 409 626 C393 626 376 631 352 642 C332 651 312 656 296 656 C222 656 213 560 213 560 C231 579 241 589 257 589 C272 589 289 584 315 573 L315 573 Z " />
<glyph glyph-name="adieresis" unicode="&#xe4;" horiz-adv-x="479" d="M319 68 L306 0 L476 0 L431 74 L490 447 L379 429 L375 367 C375 395 344 447 287 447 C177 447 68 360 44 213 C23 80 84 -9 175 -9 C227 -9 274 17 319 68 L319 68 Z M325 107 C293 73 260 59 232 59 C167 59 143 126 158 220 C173 311 225 389 285 389 C324 389 351 372 361 332 L325 107 Z M191 597 C186 566 238 541 238 541 C238 541 299 566 304 597 C309 628 256 654 256 654 C256 654 196 628 191 597 L191 597 Z M361 597 C356 566 409 541 409 541 C409 541 470 566 475 597 C480 628 427 654 427 654 C427 654 366 628 361 597 L361 597 Z " />
<glyph glyph-name="aring" unicode="&#xe5;" horiz-adv-x="479" d="M319 68 L306 0 L476 0 L431 74 L490 447 L379 429 L375 367 C375 395 344 447 287 447 C177 447 68 360 44 213 C23 80 84 -9 175 -9 C227 -9 274 17 319 68 L319 68 Z M325 107 C293 73 260 59 232 59 C167 59 143 126 158 220 C173 311 225 389 285 389 C324 389 351 372 361 332 L325 107 Z M239 569 C231 519 267 481 315 481 C365 481 412 521 420 569 C427 615 392 654 342 654 C294 654 246 616 239 569 L239 569 Z M383 569 C378 539 351 514 320 514 C291 514 272 539 277 569 C281 597 308 620 337 620 C368 620 387 597 383 569 L383 569 Z " />
<glyph glyph-name="ae" unicode="&#xe6;" horiz-adv-x="774" d="M734 132 C706 78 665 54 614 54 C556 54 489 106 482 196 C481 210 481 225 483 241 L728 250 L769 259 C785 361 727 447 614 447 C581 447 548 439 518 425 L521 446 L411 429 L406 367 C406 395 375 446 318 446 C208 446 98 359 75 212 C54 79 116 -8 207 -9 C273 -10 331 18 403 90 C403 90 411 34 487 -1 C506 -10 527 -10 549 -10 C647 -10 726 61 755 126 L734 132 L734 132 Z M603 426 C654 426 671 363 663 283 L489 278 C493 292 496 305 501 318 C525 384 564 426 603 426 L603 426 Z M356 106 C324 72 291 58 264 58 C198 58 175 125 190 219 C205 310 256 388 316 388 C356 388 382 371 392 331 L356 106 L356 106 Z " />
<glyph glyph-name="ccedilla" unicode="&#xe7;" horiz-adv-x="461" d="M77 218 C55 76 134 -10 242 -10 C351 -10 420 74 440 120 L421 127 C389 90 344 72 302 72 C216 72 171 148 189 262 C203 353 259 421 304 421 C323 421 429 308 429 308 L460 415 C409 434 357 447 316 447 C209 447 100 363 77 218 L77 218 Z M104 -164 C131 -172 168 -179 197 -179 C252 -179 306 -154 315 -99 C324 -43 274 -17 234 -13 L265 19 L230 19 L154 -58 L181 -60 C224 -66 249 -85 244 -114 C240 -140 219 -147 206 -147 L153 -101 L104 -164 Z " />
<glyph glyph-name="egrave" unicode="&#xe8;" horiz-adv-x="494" d="M83 218 C61 79 142 -10 260 -10 C358 -10 436 61 465 126 L445 132 C416 79 375 55 325 55 C257 55 178 124 194 241 L438 251 L479 259 C495 362 437 447 324 447 C210 447 105 358 83 218 L83 218 Z M373 283 L200 278 C221 367 267 427 313 427 C365 427 382 363 373 283 L373 283 Z M238 592 L408 470 L424 482 L331 654 L238 592 Z " />
<glyph glyph-name="eacute" unicode="&#xe9;" horiz-adv-x="494" d="M83 218 C61 79 142 -10 260 -10 C358 -10 436 61 465 126 L445 132 C416 79 375 55 325 55 C257 55 178 124 194 241 L438 251 L479 259 C495 362 437 447 324 447 C210 447 105 358 83 218 L83 218 Z M373 283 L200 278 C221 367 267 427 313 427 C365 427 382 363 373 283 L373 283 Z M222 482 L233 470 L441 592 L369 654 L222 482 Z " />
<glyph glyph-name="ecircumflex" unicode="&#xea;" horiz-adv-x="494" d="M83 218 C61 79 142 -10 260 -10 C358 -10 436 61 465 126 L445 132 C416 79 375 55 325 55 C257 55 178 124 194 241 L438 251 L479 259 C495 362 437 447 324 447 C210 447 105 358 83 218 L83 218 Z M373 283 L200 278 C221 367 267 427 313 427 C365 427 382 363 373 283 L373 283 Z M201 487 L212 477 L333 554 L431 478 L446 487 L357 654 L342 654 L201 487 Z " />
<glyph glyph-name="edieresis" unicode="&#xeb;" horiz-adv-x="494" d="M83 218 C61 79 142 -10 260 -10 C358 -10 436 61 465 126 L445 132 C416 79 375 55 325 55 C257 55 178 124 194 241 L438 251 L479 259 C495 362 437 447 324 447 C210 447 105 358 83 218 L83 218 Z M373 283 L200 278 C221 367 267 427 313 427 C365 427 382 363 373 283 L373 283 Z M199 597 C194 566 246 541 246 541 C246 541 307 566 312 597 C317 628 264 654 264 654 C264 654 204 628 199 597 L199 597 Z M369 597 C364 566 417 541 417 541 C417 541 478 566 483 597 C488 628 435 654 435 654 C435 654 374 628 369 597 L369 597 Z " />
<glyph glyph-name="igrave" unicode="&#xec;" horiz-adv-x="296" d="M51 8 L32 0 L263 0 L244 9 C218 23 215 58 218 80 L277 452 L96 408 L144 343 L102 80 C99 58 80 21 51 8 L51 8 Z M139 592 L309 470 L325 482 L232 654 L139 592 Z " />
<glyph glyph-name="iacute" unicode="&#xed;" horiz-adv-x="296" d="M51 8 L32 0 L263 0 L244 9 C218 23 215 58 218 80 L277 452 L96 408 L144 343 L102 80 C99 58 80 21 51 8 L51 8 Z M123 482 L134 470 L342 592 L270 654 L123 482 Z " />
<glyph glyph-name="icircumflex" unicode="&#xee;" horiz-adv-x="296" d="M51 8 L32 0 L263 0 L244 9 C218 23 215 58 218 80 L277 452 L96 408 L144 343 L102 80 C99 58 80 21 51 8 L51 8 Z M103 487 L114 477 L235 554 L333 478 L348 487 L259 654 L244 654 L103 487 Z " />
<glyph glyph-name="idieresis" unicode="&#xef;" horiz-adv-x="296" d="M51 8 L32 0 L263 0 L244 9 C218 23 215 58 218 80 L277 452 L96 408 L144 343 L102 80 C99 58 80 21 51 8 L51 8 Z M100 597 C95 566 147 541 147 541 C147 541 208 566 213 597 C218 628 165 654 165 654 C165 654 105 628 100 597 L100 597 Z M270 597 C265 566 318 541 318 541 C318 541 379 566 384 597 C389 628 336 654 336 654 C336 654 275 628 270 597 L270 597 Z " />
<glyph glyph-name="eth" unicode="&#xf0;" horiz-adv-x="547" d="M445 577 L518 617 L525 660 L420 602 C370 647 308 679 240 696 L235 663 C291 644 335 613 364 572 L275 523 L269 480 L383 543 C412 490 426 425 429 354 C404 392 359 419 307 419 C217 419 108 346 88 215 C66 80 152 -10 275 -10 C398 -10 506 74 535 253 C556 387 517 498 445 577 L445 577 Z M279 31 C217 31 185 99 200 195 C216 291 263 359 336 359 C368 359 406 345 426 306 C424 284 422 258 419 236 C402 128 352 31 279 31 L279 31 Z " />
<glyph glyph-name="ntilde" unicode="&#xf1;" horiz-adv-x="560" d="M338 10 L317 0 L548 0 L529 11 C504 25 499 58 502 80 L540 316 C555 416 492 447 432 447 C364 447 301 401 258 350 L275 452 L96 408 L144 343 L102 80 C99 58 83 24 54 11 L32 0 L254 0 L218 79 C218 79 218 80 218 80 L255 312 C292 350 330 369 364 369 C406 369 429 344 419 279 L387 80 C384 58 368 23 338 10 L338 10 Z M355 573 C374 566 394 560 410 560 C488 560 493 654 493 654 C479 635 467 626 449 626 C433 626 416 631 392 642 C372 651 352 656 336 656 C262 656 253 560 253 560 C271 579 281 589 297 589 C312 589 329 584 355 573 L355 573 Z " />
<glyph glyph-name="ograve" unicode="&#xf2;" horiz-adv-x="551" d="M81 219 C60 86 131 -10 274 -10 C417 -10 517 86 538 219 C559 351 489 447 346 447 C203 447 102 351 81 219 L81 219 Z M416 219 C395 86 337 28 280 28 C224 28 182 86 203 219 C224 352 284 410 340 410 C397 410 438 357 416 219 L416 219 Z M267 592 L437 470 L453 482 L360 654 L267 592 Z " />
<glyph glyph-name="oacute" unicode="&#xf3;" horiz-adv-x="551" d="M81 219 C60 86 131 -10 274 -10 C417 -10 517 86 538 219 C559 351 489 447 346 447 C203 447 102 351 81 219 L81 219 Z M416 219 C395 86 337 28 280 28 C224 28 182 86 203 219 C224 352 284 410 340 410 C397 410 438 357 416 219 L416 219 Z M250 482 L261 470 L469 592 L397 654 L250 482 Z " />
<glyph glyph-name="ocircumflex" unicode="&#xf4;" horiz-adv-x="551" d="M81 219 C60 86 131 -10 274 -10 C417 -10 517 86 538 219 C559 351 489 447 346 447 C203 447 102 351 81 219 L81 219 Z M416 219 C395 86 337 28 280 28 C224 28 182 86 203 219 C224 352 284 410 340 410 C397 410 438 357 416 219 L416 219 Z M230 487 L241 477 L362 554 L460 478 L475 487 L386 654 L371 654 L230 487 Z " />
<glyph glyph-name="otilde" unicode="&#xf5;" horiz-adv-x="551" d="M81 219 C60 86 131 -10 274 -10 C417 -10 517 86 538 219 C559 351 489 447 346 447 C203 447 102 351 81 219 L81 219 Z M416 219 C395 86 337 28 280 28 C224 28 182 86 203 219 C224 352 284 410 340 410 C397 410 438 357 416 219 L416 219 Z M351 573 C370 566 390 560 406 560 C484 560 489 654 489 654 C475 635 463 626 445 626 C429 626 412 631 388 642 C368 651 348 656 332 656 C258 656 249 560 249 560 C267 579 277 589 293 589 C308 589 325 584 351 573 L351 573 Z " />
<glyph glyph-name="odieresis" unicode="&#xf6;" horiz-adv-x="551" d="M81 219 C60 86 131 -10 274 -10 C417 -10 517 86 538 219 C559 351 489 447 346 447 C203 447 102 351 81 219 L81 219 Z M416 219 C395 86 337 28 280 28 C224 28 182 86 203 219 C224 352 284 410 340 410 C397 410 438 357 416 219 L416 219 Z M227 597 C222 566 274 541 274 541 C274 541 335 566 340 597 C345 628 292 654 292 654 C292 654 232 628 227 597 L227 597 Z M397 597 C392 566 445 541 445 541 C445 541 506 566 511 597 C516 628 463 654 463 654 C463 654 402 628 397 597 L397 597 Z " />
<glyph glyph-name="divide" unicode="&#xf7;" horiz-adv-x="431" d="M107 300 L101 264 L412 264 L418 300 L107 300 Z M227 378 C223 351 270 329 270 329 C270 329 323 351 327 378 C332 405 285 428 285 428 C285 428 232 405 227 378 L227 378 Z M197 184 C192 157 239 134 239 134 C239 134 292 157 297 184 C301 211 254 233 254 233 C254 233 201 211 197 184 L197 184 Z " />
<glyph glyph-name="oslash" unicode="&#xf8;" horiz-adv-x="544" d="M535 219 C548 300 526 367 475 408 L548 500 L510 500 L450 424 C420 439 384 447 342 447 C199 447 98 351 77 219 C65 139 86 71 136 31 L54 -72 L93 -72 L161 14 C191 -1 227 -10 270 -10 C413 -10 514 86 535 219 L535 219 Z M198 109 C192 137 193 174 200 219 C221 352 280 410 336 410 C365 410 389 397 404 366 L198 109 Z M412 219 C391 86 333 28 276 28 C248 28 223 42 208 74 L415 332 C421 304 420 266 412 219 L412 219 Z " />
<glyph glyph-name="ugrave" unicode="&#xf9;" horiz-adv-x="576" d="M104 122 C88 20 154 -10 213 -10 C282 -10 343 37 386 87 L372 0 L544 0 C544 0 489 26 497 80 L554 436 L381 436 L426 356 L389 125 C351 87 314 68 279 68 C238 68 214 93 224 157 L269 436 L95 436 C137 407 141 356 141 356 L104 122 Z M279 592 L449 470 L465 482 L372 654 L279 592 Z " />
<glyph glyph-name="uacute" unicode="&#xfa;" horiz-adv-x="576" d="M104 122 C88 20 154 -10 213 -10 C282 -10 343 37 386 87 L372 0 L544 0 C544 0 489 26 497 80 L554 436 L381 436 L426 356 L389 125 C351 87 314 68 279 68 C238 68 214 93 224 157 L269 436 L95 436 C137 407 141 356 141 356 L104 122 Z M263 482 L274 470 L482 592 L410 654 L263 482 Z " />
<glyph glyph-name="ucircumflex" unicode="&#xfb;" horiz-adv-x="576" d="M104 122 C88 20 154 -10 213 -10 C282 -10 343 37 386 87 L372 0 L544 0 C544 0 489 26 497 80 L554 436 L381 436 L426 356 L389 125 C351 87 314 68 279 68 C238 68 214 93 224 157 L269 436 L95 436 C137 407 141 356 141 356 L104 122 Z M242 487 L253 477 L374 554 L472 478 L487 487 L398 654 L383 654 L242 487 Z " />
<glyph glyph-name="udieresis" unicode="&#xfc;" horiz-adv-x="576" d="M104 122 C88 20 154 -10 213 -10 C282 -10 343 37 386 87 L372 0 L544 0 C544 0 489 26 497 80 L554 436 L381 436 L426 356 L389 125 C351 87 314 68 279 68 C238 68 214 93 224 157 L269 436 L95 436 C137 407 141 356 141 356 L104 122 Z M240 597 C235 566 287 541 287 541 C287 541 348 566 353 597 C358 628 305 654 305 654 C305 654 245 628 240 597 L240 597 Z M410 597 C405 566 458 541 458 541 C458 541 519 566 524 597 C529 628 476 654 476 654 C476 654 415 628 410 597 L410 597 Z " />
<glyph glyph-name="yacute" unicode="&#xfd;" horiz-adv-x="515" d="M45 -175 C58 -183 77 -187 95 -187 C124 -187 185 -180 219 -117 L457 318 C510 414 566 436 566 436 L393 436 L438 354 C437 349 435 344 432 339 L304 98 L250 357 C250 362 235 436 235 436 L74 436 L129 357 L208 2 L251 2 L196 -100 C186 -118 169 -137 153 -137 L57 -53 L45 -175 Z M232 482 L243 470 L451 592 L379 654 L232 482 Z " />
<glyph glyph-name="thorn" unicode="&#xfe;" horiz-adv-x="556" d="M75 -30 C67 -79 4 -110 4 -110 L259 -110 C259 -110 182 -81 190 -30 L217 142 C245 98 280 69 332 69 C419 69 530 152 553 302 C575 436 510 526 416 526 C362 526 314 500 265 447 L313 750 L134 718 L182 647 L75 -30 Z M434 294 C419 201 375 129 310 129 C277 129 246 145 223 181 L259 409 C294 443 328 459 357 459 C425 459 449 389 434 294 L434 294 Z " />
<glyph glyph-name="ydieresis" unicode="&#xff;" horiz-adv-x="515" d="M45 -175 C58 -183 77 -187 95 -187 C124 -187 185 -180 219 -117 L457 318 C510 414 566 436 566 436 L393 436 L438 354 C437 349 435 344 432 339 L304 98 L250 357 C250 362 235 436 235 436 L74 436 L129 357 L208 2 L251 2 L196 -100 C186 -118 169 -137 153 -137 L57 -53 L45 -175 Z M209 597 C204 566 256 541 256 541 C256 541 317 566 322 597 C327 628 274 654 274 654 C274 654 214 628 209 597 L209 597 Z M379 597 C374 566 427 541 427 541 C427 541 488 566 493 597 C498 628 445 654 445 654 C445 654 384 628 379 597 L379 597 Z " />
<glyph glyph-name="Lslash" unicode="&#x141;" horiz-adv-x="588" d="M393 40 L249 40 L292 310 L421 380 L427 419 L298 350 L331 560 C335 582 357 617 385 631 L418 643 L148 643 L208 560 L163 277 L68 225 L62 186 L157 238 L133 84 C129 61 107 28 78 14 L47 0 L530 0 L577 182 L393 40 L393 40 Z " />
<glyph glyph-name="lslash" unicode="&#x142;" horiz-adv-x="295" d="M265 342 L331 382 L337 422 L271 381 L317 671 L138 639 L184 568 L142 303 L74 261 L68 221 L136 264 L107 80 C104 59 91 25 62 12 L37 0 L242 0 L219 52 C220 63 222 73 223 80 L265 342 L265 342 Z " />
<glyph glyph-name="OE" unicode="&#x152;" horiz-adv-x="1016" d="M139 322 C106 113 226 -13 390 -13 C455 -13 514 13 562 56 L554 0 L967 0 L1015 182 C1015 182 910 41 831 41 L683 41 L726 314 L841 314 C898 314 929 240 929 240 L947 355 L733 355 L772 603 L893 603 L1031 466 L1039 643 L655 643 L647 588 C611 630 561 653 496 653 C332 653 173 532 139 322 L139 322 Z M577 148 C535 70 473 30 408 30 C304 30 245 140 273 321 C302 502 394 610 499 610 C565 610 614 573 632 494 L577 148 Z " />
<glyph glyph-name="oe" unicode="&#x153;" horiz-adv-x="833" d="M781 132 C759 78 708 54 658 54 C605 54 549 96 532 169 C528 190 527 215 530 241 L547 242 L776 251 L818 259 C834 362 774 447 661 447 C605 447 551 425 508 386 C474 424 421 447 352 447 C209 447 108 351 87 219 C66 86 137 -10 280 -10 C350 -10 410 13 455 52 C487 12 537 -10 596 -10 C695 -10 773 61 802 126 L781 132 L781 132 Z M417 191 C393 77 339 28 286 28 C230 28 189 85 210 219 C231 352 290 409 346 409 C399 409 438 364 425 246 C423 230 419 203 417 191 L417 191 Z M651 427 C703 427 720 363 712 283 L548 278 L536 278 C538 288 541 297 544 307 C569 379 610 427 651 427 L651 427 Z " />
<glyph glyph-name="Scaron" unicode="&#x160;" horiz-adv-x="511" d="M63 32 C109 14 182 -13 254 -13 C352 -13 473 41 494 173 C513 296 429 343 383 365 L303 404 C254 428 215 466 224 521 C233 580 286 611 342 611 C381 611 503 498 503 498 L511 628 C473 641 409 654 351 654 C240 654 141 589 122 473 C108 381 157 328 219 299 L309 255 C365 228 400 188 391 130 C382 70 337 30 264 30 C212 30 71 180 71 180 L63 32 Z M377 779 L280 855 L266 845 L354 678 L369 678 L510 845 L499 855 L377 779 Z " />
<glyph glyph-name="scaron" unicode="&#x161;" horiz-adv-x="436" d="M78 18 C116 4 175 -10 226 -10 C322 -10 399 40 411 119 C423 190 378 235 324 257 L259 286 C227 300 204 319 209 352 C215 386 246 409 282 409 C308 409 417 316 417 316 L423 428 C389 439 336 446 295 446 C211 446 127 400 114 321 C104 254 142 210 201 183 L264 155 C299 139 321 116 316 84 C311 51 278 28 238 28 C194 28 86 142 86 142 L78 18 Z M308 579 L211 655 L198 645 L285 478 L300 478 L442 645 L430 655 L308 579 Z " />
<glyph glyph-name="Ydieresis" unicode="&#x178;" horiz-adv-x="659" d="M280 84 C271 30 193 0 193 0 L463 0 C463 0 394 26 403 84 L436 294 L618 533 C689 621 751 643 751 643 L545 643 L591 571 C589 559 582 546 572 533 L423 338 L283 643 L107 643 L188 552 L311 281 L280 84 Z M313 797 C308 766 360 741 360 741 C360 741 421 766 426 797 C431 828 378 854 378 854 C378 854 318 828 313 797 L313 797 Z M483 797 C478 766 531 741 531 741 C531 741 592 766 597 797 C602 828 549 854 549 854 C549 854 488 828 483 797 L483 797 Z " />
<glyph glyph-name="Zcaron" unicode="&#x17d;" horiz-adv-x="551" d="M34 24 L31 0 L497 0 L545 182 L361 40 L177 40 L612 618 L616 643 L172 643 L125 465 L305 602 L469 602 L34 24 Z M397 779 L300 855 L286 845 L374 678 L389 678 L530 845 L519 855 L397 779 Z " />
<glyph glyph-name="zcaron" unicode="&#x17e;" horiz-adv-x="427" d="M40 26 L36 0 L390 0 L426 149 L282 38 L168 38 L467 409 L472 436 L131 436 L95 292 L240 399 L337 399 L40 26 Z M303 579 L206 655 L193 645 L280 478 L295 478 L437 645 L425 655 L303 579 Z " />
<glyph glyph-name="circumflex" unicode="&#x2c6;" horiz-adv-x="355" d="M136 487 L147 477 L268 554 L366 478 L381 487 L292 654 L277 654 L136 487 L136 487 Z " />
<glyph glyph-name="caron" unicode="&#x2c7;" horiz-adv-x="337" d="M262 579 L165 655 L152 645 L239 478 L254 478 L396 645 L384 655 L262 579 L262 579 Z " />
<glyph glyph-name="breve" unicode="&#x2d8;" horiz-adv-x="329" d="M146 643 C141 551 166 496 240 496 C313 496 357 552 380 643 L360 643 C342 590 296 566 251 566 C206 566 168 590 164 643 L146 643 L146 643 Z " />
<glyph glyph-name="dotaccent" unicode="&#x2d9;" horiz-adv-x="225" d="M147 586 C142 555 195 530 195 530 C195 530 256 555 261 586 C266 617 213 643 213 643 C213 643 152 617 147 586 L147 586 Z " />
<glyph glyph-name="ring" unicode="&#x2da;" horiz-adv-x="282" d="M144 569 C136 519 172 481 220 481 C270 481 317 521 325 569 C332 615 297 654 247 654 C199 654 151 616 144 569 L144 569 Z M288 569 C283 539 256 514 225 514 C196 514 177 539 182 569 C186 597 213 620 242 620 C273 620 292 597 288 569 L288 569 Z " />
<glyph glyph-name="ogonek" unicode="&#x2db;" horiz-adv-x="284" d="M25 -130 C19 -166 47 -190 88 -190 C137 -190 190 -154 218 -116 L199 -93 L146 -134 C124 -134 107 -120 112 -93 C118 -55 163 -10 195 16 L156 16 C102 -23 33 -80 25 -130 L25 -130 Z " />
<glyph glyph-name="tilde" unicode="&#x2dc;" horiz-adv-x="301" d="M232 573 C251 566 271 560 287 560 C365 560 370 654 370 654 C356 635 344 626 326 626 C310 626 293 631 269 642 C249 651 229 656 213 656 C139 656 130 560 130 560 C148 579 158 589 174 589 C189 589 206 584 232 573 L232 573 Z " />
<glyph glyph-name="hungarumlaut" unicode="&#x2dd;" horiz-adv-x="416" d="M116 464 L129 454 L308 605 L228 653 L116 464 Z M283 465 L296 455 L474 606 L394 654 L283 465 Z " />
<glyph glyph-name="endash" unicode="&#x2013;" horiz-adv-x="495" d="M104 336 L98 299 L492 299 L498 336 L104 336 L104 336 Z " />
<glyph glyph-name="emdash" unicode="&#x2014;" horiz-adv-x="907" d="M107 300 L101 263 L888 263 L894 300 L107 300 L107 300 Z " />
<glyph glyph-name="quoteleft" unicode="&#x2018;" horiz-adv-x="197" d="M213 448 L246 654 L225 654 L121 448 L119 432 L205 432 L213 448 L213 448 Z " />
<glyph glyph-name="quoteright" unicode="&#x2019;" horiz-adv-x="241" d="M179 637 L147 431 L168 431 L272 637 L274 654 L188 654 L179 637 L179 637 Z " />
<glyph glyph-name="quotesinglbase" unicode="&#x201a;" horiz-adv-x="214" d="M76 73 L43 -133 L64 -133 L169 73 L171 90 L85 90 L76 73 L76 73 Z " />
<glyph glyph-name="quotedblleft" unicode="&#x201c;" horiz-adv-x="347" d="M354 448 L387 654 L366 654 L262 448 L260 432 L346 432 L354 448 Z M215 448 L248 654 L228 654 L122 448 L121 432 L206 432 L215 448 Z " />
<glyph glyph-name="quotedblright" unicode="&#x201d;" horiz-adv-x="394" d="M189 637 L158 431 L178 431 L282 637 L284 654 L199 654 L189 637 Z M329 637 L297 431 L317 431 L422 637 L424 654 L338 654 L329 637 Z " />
<glyph glyph-name="quotedblbase" unicode="&#x201e;" horiz-adv-x="385" d="M87 73 L55 -133 L75 -133 L180 73 L182 90 L97 90 L87 73 Z M227 73 L194 -133 L214 -133 L320 73 L322 90 L236 90 L227 73 Z " />
<glyph glyph-name="dagger" unicode="&#x2020;" horiz-adv-x="305" d="M378 564 L248 528 L299 644 L204 644 L220 528 L101 564 L86 470 L217 507 L119 0 L188 0 C188 0 245 507 245 507 L363 470 L378 564 L378 564 Z " />
<glyph glyph-name="daggerdbl" unicode="&#x2021;" horiz-adv-x="309" d="M366 470 L381 564 L252 528 L302 644 L207 644 L223 528 L105 564 L90 470 L220 506 L161 137 L43 173 L28 80 L158 116 L106 0 L201 0 L187 116 L304 80 L319 173 L190 137 C214 287 249 506 249 506 L366 470 L366 470 Z " />
<glyph glyph-name="bullet" unicode="&#x2022;" horiz-adv-x="353" d="M107 318 C97 253 208 198 208 198 C208 198 336 253 346 318 C356 381 246 436 246 436 C246 436 117 381 107 318 L107 318 Z " />
<glyph glyph-name="ellipsis" unicode="&#x2026;" horiz-adv-x="747" d="M73 63 C68 29 129 0 129 0 C129 0 199 29 204 63 C210 97 148 126 148 126 C148 126 79 97 73 63 L73 63 Z M322 63 C317 29 378 0 378 0 C378 0 448 29 453 63 C459 97 397 126 397 126 C397 126 328 97 322 63 L322 63 Z M571 63 C566 29 627 0 627 0 C627 0 697 29 702 63 C708 97 646 126 646 126 C646 126 577 97 571 63 L571 63 Z " />
<glyph glyph-name="perthousand" unicode="&#x2030;" horiz-adv-x="1037" d="M104 492 L104 492 C89 397 139 331 235 331 C330 331 400 396 415 492 C431 588 382 653 286 653 C191 653 120 588 104 492 L104 492 Z M94 -10 L135 -10 L692 660 L651 660 L94 -10 Z M323 492 L323 492 C309 400 274 358 239 358 C205 358 183 402 197 492 C212 583 248 626 282 626 C317 626 339 593 323 492 L323 492 Z M374 161 L374 161 C359 67 409 0 504 0 C601 0 670 66 685 161 C700 257 652 323 555 323 C460 323 389 257 374 161 L374 161 Z M592 161 C577 69 543 28 508 28 C474 28 452 70 466 161 C480 252 516 296 550 296 C585 296 608 262 592 161 L592 161 Z M723 162 L723 162 C708 68 758 1 853 1 C950 1 1019 67 1034 162 C1049 258 1001 324 904 324 C809 324 738 258 723 162 L723 162 Z M941 162 C927 70 892 29 857 29 C823 29 801 71 815 162 C830 253 866 297 900 297 C935 297 957 263 941 162 L941 162 Z " />
<glyph glyph-name="guilsinglleft" unicode="&#x2039;" horiz-adv-x="306" d="M71 232 L249 32 L274 32 L181 239 L339 447 L314 447 L74 247 L71 232 L71 232 Z " />
<glyph glyph-name="guilsinglright" unicode="&#x203a;" horiz-adv-x="300" d="M32 32 L56 32 L297 232 L300 247 L121 447 L97 447 L188 239 L32 32 L32 32 Z " />
<glyph glyph-name="Euro" unicode="&#x20ac;" horiz-adv-x="574" d="M122 185 C121 44 222 -13 337 -13 C390 -13 460 0 499 9 L531 136 C531 136 377 18 343 18 C287 18 237 69 242 185 L429 185 L433 214 L245 214 C247 222 247 230 248 237 C249 245 251 253 253 260 L464 260 L468 289 L258 289 C291 405 357 456 414 456 C454 456 564 337 564 337 L572 465 C528 477 462 487 419 487 C294 487 180 418 138 289 L70 289 L66 260 L130 260 C128 253 126 244 125 237 C124 229 124 222 122 214 L58 214 L54 185 L122 185 L122 185 Z " />
<glyph glyph-name="trademark" unicode="&#x2122;" horiz-adv-x="801" d="M199 359 C196 340 156 321 156 321 L291 321 C291 321 257 338 260 359 L302 625 L334 625 C352 624 401 554 401 554 L405 643 L143 643 L119 554 C119 554 192 624 209 625 L241 625 L199 359 Z M442 359 C438 334 393 321 393 321 L498 321 C498 321 456 334 460 359 L497 589 L544 321 L610 321 L751 618 L752 618 L711 359 C707 333 669 321 669 321 L803 321 C803 321 769 333 773 359 L812 605 C816 627 854 643 854 643 L744 643 L603 346 L551 643 L445 643 L482 608 L442 359 Z " />
<glyph glyph-name="fi" unicode="&#xfb01;" horiz-adv-x="590" d="M361 8 L341 0 L573 0 L553 9 C527 23 524 58 527 80 L583 434 L585 436 L584 436 L586 452 L520 436 L269 436 L287 552 C296 610 327 638 346 638 L456 556 L526 645 C479 655 419 665 373 665 C263 665 180 602 157 459 L154 436 L95 436 L88 394 L147 394 L97 80 C94 58 82 26 52 13 L26 0 L274 0 L248 13 C215 27 209 58 212 80 L262 394 L416 394 L454 343 L412 80 C409 58 390 21 361 8 L361 8 Z " />
<glyph glyph-name="fl" unicode="&#xfb02;" horiz-adv-x="544" d="M487 52 C488 63 490 73 491 80 L585 670 L484 653 C445 659 403 665 369 665 C258 665 175 602 152 459 L149 436 L91 436 L84 394 L142 394 L92 80 C89 58 77 26 48 13 L22 0 L269 0 L243 13 C211 27 205 58 208 80 L258 394 L357 394 L384 436 L265 436 L283 552 C292 610 322 638 341 638 L452 556 L452 557 L376 80 C373 58 359 25 330 12 L305 0 L423 0 L479 0 L511 0 L487 52 L487 52 Z " />
</font>
</svg>
