<?xml version="1.0" encoding="UTF-8"?>
<svg xmlns="http://www.w3.org/2000/svg" xmlns:xlink="http://www.w3.org/1999/xlink" version="1.2" >
<font id="Qulliness Alt">
<font-face  font-family="Qulliness Alt" units-per-em="1000" ascent="750" descent="-250" font-style="normal" font-weight="400" font-stretch="normal" cap-height="700" x-height="500" underline-position="-75" underline-thickness="50" />
<missing-glyph  horiz-adv-x="140" d="" />
<glyph glyph-name="NULL" d="" />
<glyph glyph-name="nonmarkingreturn" unicode="&#xd;" horiz-adv-x="140" d="" />
<glyph glyph-name="space" unicode="&#x20;" horiz-adv-x="140" d="" />
<glyph glyph-name="dollar" unicode="&#x24;" horiz-adv-x="321" d="M79 95 Q93 139 107.5 180.5 Q122 222 139 264 Q127 274 114 282 Q101 290 90 300 Q65 320 58.5 350 Q52 380 66 409 Q93 457 142 481.5 Q191 506 245 520 Q250 531 254.5 541 Q259 551 264 561 Q267 567 271.5 571 Q276 575 283 571 Q290 565 286 556 Q284 549 280.5 541 Q277 533 274 526 Q286 527 298 526.5 Q310 526 320.5 522.5 Q331 519 337.5 511 Q344 503 346 488 Q345 464 335.5 445 Q326 426 312 409 Q305 399 296 406 Q287 411 294 422 Q299 429 303 435.5 Q307 442 312 450 Q315 456 318 465 Q321 474 321.5 482 Q322 490 318.5 495.5 Q315 501 305 502 Q295 503 283.5 501.5 Q272 500 262 498 Q238 439 215 383.5 Q192 328 169 271 Q202 244 208 216 Q214 188 209 168 Q204 146 194 125 Q184 104 169.5 88 Q155 72 135.5 62 Q116 52 93 52 Q91 46 89.5 38.5 Q88 31 86 23 Q85 17 81 13 Q77 9 71 10 Q58 14 61 27 Q63 35 65 42.5 Q67 50 69 58 Q70 64 65.5 69.5 Q61 75 59 80 Q54 90 62 96 Q65 98 70.5 98 Q76 98 79 95 Z M233 492 Q215 489 196 481.5 Q177 474 158 463 Q139 452 122.5 438 Q106 424 94 408 Q80 388 82.5 362 Q85 336 106 319 Q117 311 127 302.5 Q137 294 149 288 Q169 339 190.5 390 Q212 441 233 492 Z M100 77 Q113 74 130 84 Q150 97 165.5 121 Q181 145 187 173 Q190 186 187.5 198 Q185 210 180 219.5 Q175 229 169 236 Q163 243 159 246 Q125 162 100 77 Z " />
<glyph glyph-name="percent" unicode="&#x25;" horiz-adv-x="352" d="M296 438 Q270 427 240 425 Q237 425 236.5 423.5 Q236 422 235 420 Q233 411 227 400 Q221 389 213 381 Q205 373 195 369.5 Q185 366 175 371 Q167 375 163 382 Q159 389 157 397 Q153 419 164.5 438 Q176 457 191 469 Q203 477 215 472.5 Q227 468 232 454 Q233 451 238 451 Q261 450 285 461 Q305 470 323.5 481.5 Q342 493 359 506 Q368 513 377 520 Q386 527 395 534 Q407 544 415 534 Q420 528 418 523.5 Q416 519 412 515 Q388 492 366.5 466 Q345 440 325 413 Q278 352 234 290.5 Q190 229 147 165 Q130 139 114 112 Q98 85 81 58 Q79 51 74 45.5 Q69 40 63 43 Q52 48 54 56 Q56 64 60 72 Q84 114 110 154.5 Q136 195 164 235 Q202 290 241 343 Q280 396 321 450 Q315 447 309 444 Q303 441 296 438 Z M200 445 Q192 435 185.5 423.5 Q179 412 183 400 Q186 392 190.5 394 Q195 396 199.5 403 Q204 410 207.5 417.5 Q211 425 211 428 Q211 432 210 433 Q208 436 205 439 Q202 442 200 445 Z M190 106 Q198 111 199.5 116 Q201 121 201 129 Q203 140 213 140 Q223 142 225 130 Q228 114 219 99 Q210 84 192 81 Q173 78 167 95 Q162 112 169.5 132.5 Q177 153 192 160 Q202 165 207 154 Q211 144 202 138 Q200 137 200 137 Q190 122 190 106 Z " />
<glyph glyph-name="ampersand" unicode="&#x26;" horiz-adv-x="330" d="M94 314 Q49 318 57 353 Q68 385 95.5 409 Q123 433 151 447 Q159 452 169.5 457 Q180 462 188 465 Q191 494 197.5 516.5 Q204 539 212 563 Q217 575 222 586.5 Q227 598 234 605 Q237 608 241 607.5 Q245 607 247 605 Q253 600 250 592 Q237 561 228 532.5 Q219 504 214 477 Q228 482 243 486 Q258 490 273 490 Q297 490 308.5 477.5 Q320 465 318 443 Q317 432 312 419 Q307 406 296 392 Q290 384 284 377 Q278 370 271 362 Q267 357 262 357 Q257 357 254 360 Q247 365 252 374 Q257 381 266 392 Q275 403 283 415.5 Q291 428 294.5 440 Q298 452 291 460 Q286 467 276 466.5 Q266 466 258 464 Q221 453 187.5 437.5 Q154 422 125 400 Q113 390 103 378 Q93 366 88 357 Q85 351 84 346 Q83 341 91 340 Q118 337 144 339.5 Q170 342 192 345 Q200 346 209.5 346.5 Q219 347 223 339 Q226 330 220 324 Q215 320 210.5 317 Q206 314 201 311 Q159 283 120.5 251.5 Q82 220 63 185 Q57 171 56 161.5 Q55 152 63 149 Q71 147 80 148 Q89 149 97 151 Q134 163 164 180.5 Q194 198 224 218 Q231 223 238 218 Q245 211 242 204 Q239 197 233 192 Q206 174 176.5 156.5 Q147 139 118 131 Q113 109 108 84.5 Q103 60 98 38 Q95 18 79 21 Q70 23 71.5 33.5 Q73 44 75 52 Q79 67 83 88.5 Q87 110 91 124 Q85 123 79.5 122.5 Q74 122 69 123 Q49 124 38 135.5 Q27 147 30 167 Q34 189 48.5 211 Q63 233 82 252.5 Q101 272 122.5 288 Q144 304 162 316 Q145 314 127 313 Q109 312 94 314 Z " />
<glyph glyph-name="quotesingle" unicode="&#x27;" horiz-adv-x="97" d="M75 559 Q84 557 82 545 Q80 535 78 524.5 Q76 514 72 503 Q68 492 57 496 Q47 500 50 511 Q53 523 55 531.5 Q57 540 60 550 Q64 562 75 559 Z " />
<glyph glyph-name="parenleft" unicode="&#x28;" horiz-adv-x="161" d="M159 536 Q155 532 151 526 Q131 495 115 462.5 Q99 430 86 395 Q72 355 61 314 Q50 273 43 230 Q38 195 37 164.5 Q36 134 42 105 Q43 100 46.5 97 Q50 94 54.5 91.5 Q59 89 62 86 Q65 83 64 78 Q62 67 50 69 Q34 70 24 87 Q16 101 13.5 120 Q11 139 11 159.5 Q11 180 13.5 201 Q16 222 19 240 Q37 341 76 439 Q87 465 100 489.5 Q113 514 130 537 Q137 546 145.5 553.5 Q154 561 163 559 Q171 557 174.5 551.5 Q178 546 180 538 Q182 528 178 524.5 Q174 521 170 521 Q162 521 161.5 526 Q161 531 159 536 Z " />
<glyph glyph-name="parenright" unicode="&#x29;" horiz-adv-x="147" d="M123 330 Q114 281 99.5 234.5 Q85 188 65 142 Q51 109 27 76 Q22 69 13 68 Q4 67 0 76 Q-3 84 2.5 89 Q8 94 12 99 Q29 124 41 151.5 Q53 179 64 208 Q84 268 97.5 326.5 Q111 385 109 442 Q108 465 106 486.5 Q104 508 98 531 Q96 537 95 541.5 Q94 546 96 552 Q100 560 107 558 Q114 556 116 550 Q135 491 133.5 437.5 Q132 384 123 330 Z " />
<glyph glyph-name="asterisk" unicode="&#x2a;" horiz-adv-x="198" d="M122 487 Q120 479 119.5 471 Q119 463 117 455 Q115 445 110 443 Q103 440 97 445 Q92 450 91.5 457 Q91 464 93 471 Q89 468 86 465 Q83 462 79 460 Q70 455 64 461 Q57 466 62 475 Q74 490 91 501 Q86 505 80 507.5 Q74 510 68 513 Q60 518 63 527 Q65 530 68.5 532.5 Q72 535 76 533 Q84 531 90.5 528 Q97 525 105 521 Q108 529 110 538 Q112 547 116 555 Q121 572 133 568 Q142 563 139 554 Q137 547 136 540.5 Q135 534 132 526 Q151 535 168 542 Q173 544 176.5 541.5 Q180 539 181 534 Q184 526 174 520 Q166 515 159 512 Q152 509 146 506 Q154 502 162 499.5 Q170 497 178 493 Q188 488 188 479 Q188 471 182.5 468 Q177 465 170 468 Q158 473 146.5 477.5 Q135 482 122 487 Z " />
<glyph glyph-name="plus" unicode="&#x2b;" horiz-adv-x="232" d="M198 327 Q203 327 209.5 325.5 Q216 324 216 314 Q216 311 212.5 306.5 Q209 302 199 302 Q195 302 181.5 302 Q168 302 153 302 Q138 302 125 302 Q112 302 108 301 Q105 282 102.5 263 Q100 244 98 224 Q96 213 85 213 Q73 213 73 226 Q73 233 74 239.5 Q75 246 76 252 Q78 265 79 277 Q80 289 82 302 Q74 301 65.5 300 Q57 299 50 298 Q39 296 36 304 Q34 309 35.5 313 Q37 317 42 319 Q53 324 64.5 325 Q76 326 86 328 Q88 342 91 355.5 Q94 369 96 382 Q98 390 100.5 394 Q103 398 111 396 Q121 394 119 385 Q117 370 115 356.5 Q113 343 111 328 Q112 328 114 328 Q116 328 124 327.5 Q132 327 149.5 327 Q167 327 198 327 Z " />
<glyph glyph-name="comma" unicode="&#x2c;" horiz-adv-x="83" d="M72 257 Q82 252 77 241 Q71 230 65 219 Q59 208 52 197 Q49 192 44.5 190 Q40 188 35 190 Q28 194 28 198.5 Q28 203 31 209 Q36 220 43.5 230 Q51 240 57 251 Q63 262 72 257 Z " />
<glyph glyph-name="hyphen" unicode="&#x2d;" horiz-adv-x="197" d="M184 316 Q185 305 174.5 304.5 Q164 304 156 304 Q130 302 104.5 301.5 Q79 301 53 299 Q45 298 40 301.5 Q35 305 33.5 309 Q32 313 34.5 317 Q37 321 44 321 Q73 323 102.5 325 Q132 327 161 329 Q172 330 177 327.5 Q182 325 184 316 Z " />
<glyph glyph-name="period" unicode="&#x2e;" horiz-adv-x="94" d="M69 243 Q74 243 77.5 240 Q81 237 81 232 Q81 220 68 220 Q57 220 57 231 Q57 236 60.5 239.5 Q64 243 69 243 Z " />
<glyph glyph-name="slash" unicode="&#x2f;" horiz-adv-x="268" d="M264 548 Q272 543 267 533 Q214 437 162 341 Q110 245 56 143 Q53 138 49 131.5 Q45 125 36 128 Q29 130 28.5 138.5 Q28 147 32 153 Q85 249 135 346 Q185 443 245 541 Q247 546 252.5 549.5 Q258 553 264 548 Z " />
<glyph glyph-name="zero" unicode="0" horiz-adv-x="263" d="M195 428 Q175 454 145 439 Q112 419 90.5 384 Q69 349 55 315 Q55 314 54.5 313 Q54 312 54 310 Q52 298 42 299 Q31 299 31 309 Q31 319 35 325 Q49 363 71.5 400.5 Q94 438 129 458 Q155 474 179 468.5 Q203 463 220 437 Q241 399 238.5 355.5 Q236 312 225 271 Q220 251 211.5 229.5 Q203 208 192.5 188.5 Q182 169 168.5 153.5 Q155 138 140 130 Q116 117 93 124.5 Q70 132 58 156 Q46 180 49.5 211.5 Q53 243 65 274.5 Q77 306 94 334 Q111 362 126 380 Q131 386 139.5 394.5 Q148 403 156 401 Q164 400 167.5 394.5 Q171 389 169 383 Q166 375 160 375 Q154 375 151 370 Q136 352 119 326 Q102 300 90.5 271.5 Q79 243 75 214.5 Q71 186 81 164 Q90 149 102 147.5 Q114 146 125.5 152 Q137 158 146.5 168 Q156 178 161 187 Q181 222 196 264.5 Q211 307 213 355 Q213 375 210 392.5 Q207 410 195 428 Z " />
<glyph glyph-name="one" unicode="1" horiz-adv-x="153" d="M105 494 L101 490 Q91 479 82 467.5 Q73 456 64 445 Q58 438 51 439 Q43 443 43 449 Q43 455 46 458 Q58 474 69.5 489 Q81 504 94 520 Q99 525 106 528 Q122 535 127 519 Q131 510 131 497 Q129 477 125 458 Q121 439 116 420 Q107 379 97 339.5 Q87 300 79 259 Q72 229 67.5 198 Q63 167 58 136 Q56 128 56 120 Q56 112 55 104 Q55 101 57 97 Q61 88 54 81 Q46 75 38 80 Q30 86 30 95 Q30 106 30.5 116.5 Q31 127 32 138 Q44 228 65 319 Q73 350 80.5 380.5 Q88 411 96 443 Q98 454 100.5 466.5 Q103 479 105 491 L105 494 Z " />
<glyph glyph-name="two" unicode="2" horiz-adv-x="289" d="M111 191 Q132 196 152.5 201 Q173 206 194 209 Q203 211 211 206 Q219 201 215 190 Q211 180 203 182.5 Q195 185 188 182 Q157 176 126 168.5 Q95 161 66 150 Q55 146 45 138.5 Q35 131 29 128 Q24 125 18 125 Q12 125 9 130 Q5 135 7 141.5 Q9 148 14 152 Q21 157 32 162.5 Q43 168 52 175 Q131 236 193 311 Q216 340 235 374 Q254 408 252 440 Q252 444 250 451 Q248 458 243 464.5 Q238 471 229 474.5 Q220 478 206 475 Q188 470 170 460 Q152 450 138 439 Q92 399 76 343 Q74 335 74 328 Q74 321 75 313 Q77 302 66 300 Q56 297 53 308 Q47 334 55 360 Q62 384 77 407.5 Q92 431 112 450 Q132 469 156.5 482 Q181 495 207 499 Q227 502 244 495 Q261 488 270 470 Q279 452 278.5 433 Q278 414 273 396 Q264 369 247 341 Q230 313 207.5 286 Q185 259 160 234.5 Q135 210 111 191 Z " />
<glyph glyph-name="three" unicode="3" horiz-adv-x="331" d="M165 335 Q190 327 209 312.5 Q228 298 231 272 Q234 238 223.5 209.5 Q213 181 194.5 158.5 Q176 136 151 121 Q126 106 99 100 Q78 95 64 98 Q50 101 42.5 108 Q35 115 32.5 124 Q30 133 31 141 Q34 168 49 194 Q64 220 75 234 Q78 238 82.5 242 Q87 246 92.5 247.5 Q98 249 102 246.5 Q106 244 107 236 Q108 228 103.5 226 Q99 224 95 220 Q87 211 78.5 197 Q70 183 64 168.5 Q58 154 56 141.5 Q54 129 59 124 Q64 119 73.5 119 Q83 119 94 121 Q137 130 168 163.5 Q199 197 207 241 Q211 263 205 276.5 Q199 290 188.5 297.5 Q178 305 164.5 308.5 Q151 312 140 315 Q132 318 130 325 Q128 332 133 339 Q154 355 176.5 372.5 Q199 390 220 408.5 Q241 427 258 446.5 Q275 466 285 486 Q288 496 282 501 Q276 506 267.5 508.5 Q259 511 249.5 511 Q240 511 235 511 Q210 508 186 500 Q162 492 140.5 479.5 Q119 467 102 450.5 Q85 434 75 414 Q68 404 60 407 Q51 410 53 421 Q55 429 59 436 Q63 443 68 449 Q97 485 138 507 Q179 529 221 535 Q237 537 255 535.5 Q273 534 287 527.5 Q301 521 308 509 Q315 497 310 478 Q304 461 287.5 441 Q271 421 250 401.5 Q229 382 206 364.5 Q183 347 165 335 Z " />
<glyph glyph-name="four" unicode="4" horiz-adv-x="294" d="M277 284 Q284 282 288 277 Q292 272 292 266 Q292 253 278 256 Q273 258 267.5 258 Q262 258 257 258 Q252 258 235.5 257 Q219 256 200 255.5 Q181 255 164 253.5 Q147 252 140 251 Q133 220 125.5 189 Q118 158 110 127 Q108 119 108 114 Q108 109 109 106 Q111 100 108 95.5 Q105 91 100 91 Q95 91 89.5 95.5 Q84 100 83 105 Q80 116 84 129 Q87 143 91.5 163.5 Q96 184 100.5 202.5 Q105 221 108.5 234.5 Q112 248 112 249 Q111 249 102.5 248.5 Q94 248 83 248 Q72 248 61 248 Q50 248 44 249 Q32 251 26.5 258 Q21 265 19 274.5 Q17 284 18.5 295.5 Q20 307 22 317 Q32 362 45.5 404.5 Q59 447 74 489 Q77 496 81.5 507 Q86 518 96 516 Q106 514 104 502.5 Q102 491 99 483 Q88 448 77.5 414 Q67 380 56 345 Q55 341 52 329.5 Q49 318 47 305.5 Q45 293 46 283 Q47 273 55 273 Q72 273 87 274 Q102 275 119 277 Q137 340 152 404.5 Q167 469 187 532 Q193 544 207 539 Q212 537 212 532.5 Q212 528 211 525 Q204 495 196.5 466.5 Q189 438 181 408.5 Q173 379 165 348 Q157 317 148 282 Q180 284 211 285.5 Q242 287 277 284 Z " />
<glyph glyph-name="five" unicode="5" horiz-adv-x="297" d="M101 464 Q97 464 93 463.5 Q89 463 85 463 Q73 463 71 468 Q69 473 71 477 Q73 485 81 485 Q100 487 118.5 490 Q137 493 156 495 Q174 497 197 499.5 Q220 502 244.5 504 Q269 506 293 508 Q317 510 337 510 Q345 510 347 502 Q349 486 333 486 Q311 485 283 483 Q255 481 227 478.5 Q199 476 173 473 Q147 470 129 467 Q109 423 95 391.5 Q81 360 73 329 Q71 322 78 322 Q126 323 150 321.5 Q174 320 193 315 Q208 310 218.5 301 Q229 292 232 277 Q234 257 228 237 Q222 217 211.5 198.5 Q201 180 186.5 164 Q172 148 158 136 Q146 128 132.5 123.5 Q119 119 106.5 120 Q94 121 83.5 128.5 Q73 136 68 151 Q66 158 66 168.5 Q66 179 67.5 191 Q69 203 72 214.5 Q75 226 80 236 Q83 244 89 250 Q95 256 103 253 Q111 248 111 244 Q111 240 109 236 Q102 221 97 202.5 Q92 184 94 164 Q95 150 102.5 146.5 Q110 143 119.5 145 Q129 147 138.5 153 Q148 159 153 164 Q190 201 205 248 Q206 252 206.5 257.5 Q207 263 205.5 269 Q204 275 200 280.5 Q196 286 188 290 Q177 294 166 295 Q155 296 144 297 Q123 297 109.5 297 Q96 297 88.5 297 Q81 297 77 297.5 Q73 298 70 298 Q46 303 46 324 Q47 337 51 349 Q55 361 60 373 Q70 398 81 422 Q92 446 101 464 Z " />
<glyph glyph-name="six" unicode="6" horiz-adv-x="242" d="M63 234 L78 252 Q91 266 104 278.5 Q117 291 131 302 Q142 310 156 314.5 Q170 319 182.5 317.5 Q195 316 205.5 308 Q216 300 220 284 Q225 258 216.5 232 Q208 206 191.5 184 Q175 162 153.5 146 Q132 130 112 125 Q92 117 69 122 Q50 127 41 139 Q32 151 29.5 167 Q27 183 29 200 Q31 217 35 231 Q45 270 60 306.5 Q75 343 94 378 Q112 410 133 439.5 Q154 469 178 496 Q187 506 195 500 Q203 494 198 485 Q196 482 194 479.5 Q192 477 190 474 Q164 442 142 407.5 Q120 373 101 335 Q95 323 89 309 Q83 295 78 280.5 Q73 266 69 253.5 Q65 241 63 234 Z M107 149 Q145 166 170 199.5 Q195 233 195 273 Q193 287 184.5 291.5 Q176 296 163 291 Q143 282 127 266 Q111 250 95 232 Q87 222 79.5 212 Q72 202 67 189 Q65 185 60 183 Q55 181 54 179.5 Q53 178 54 173 Q58 149 74 145 Q90 141 107 149 Z " />
<glyph glyph-name="seven" unicode="7" horiz-adv-x="266" d="M240 478 Q208 476 170 473.5 Q132 471 97 468 Q90 467 86 471 Q82 475 82 481 Q82 489 92 491 Q106 493 127.5 495.5 Q149 498 171.5 500 Q194 502 214.5 503 Q235 504 247 503 Q261 502 263.5 493 Q266 484 264 473 Q251 444 229 411 Q207 378 189 352 Q158 306 131.5 258 Q105 210 84 158 Q80 150 77.5 141.5 Q75 133 72 125 Q70 121 72 118 Q75 108 68 104 Q64 102 59 102 Q54 102 51 106 Q46 111 45 117.5 Q44 124 46 129 Q49 146 62 175.5 Q75 205 93.5 239.5 Q112 274 133 309.5 Q154 345 173 373 Q192 401 209 427.5 Q226 454 240 478 Z " />
<glyph glyph-name="eight" unicode="8" horiz-adv-x="273" d="M148 271 Q143 278 130 290.5 Q117 303 109 311 Q100 318 89 326 Q78 334 68.5 342.5 Q59 351 51 359.5 Q43 368 40 376 Q34 391 38 405.5 Q42 420 51 432 Q60 444 72 453.5 Q84 463 94 470 Q138 498 186 504 Q207 507 224 500 Q242 492 248 479.5 Q254 467 257 452 Q259 443 249 439 Q238 437 235 447 Q232 460 225.5 469.5 Q219 479 205 479 Q173 479 140.5 466 Q108 453 85 432 Q79 427 73 420 Q67 413 64 405 Q61 397 62 389.5 Q63 382 71 375 Q96 352 121.5 333.5 Q147 315 167 289 Q167 289 174 295.5 Q181 302 190.5 311 Q200 320 210 330 Q220 340 226 348 Q234 359 240.5 370.5 Q247 382 250 395 Q252 400 257 403.5 Q262 407 267 405 Q280 401 276 389 Q271 374 264 360 Q257 346 247 334 Q232 314 214.5 298.5 Q197 283 180 266 Q186 243 183.5 217.5 Q181 192 172 171 Q158 146 134 127.5 Q110 109 83 115 Q68 118 60 128.5 Q52 139 54 155 Q56 168 62 179 Q68 190 76 201 Q87 216 101 229 Q115 242 129 255 Q134 259 138.5 263 Q143 267 148 271 Z M159 247 Q146 236 135.5 226.5 Q125 217 113 205 Q102 194 91.5 180.5 Q81 167 79 152 Q80 138 92 138.5 Q104 139 112 143 Q140 158 152 189 Q162 215 159 247 Z " />
<glyph glyph-name="nine" unicode="9" horiz-adv-x="229" d="M74 306 Q63 306 54.5 311 Q46 316 42 327 Q37 342 39 360 Q41 378 46.5 395.5 Q52 413 60.5 428.5 Q69 444 78 455 Q86 464 94.5 471.5 Q103 479 114 484 Q133 492 148 483.5 Q163 475 166 455 Q168 448 165.5 441.5 Q163 435 155 435 Q147 435 145 444 Q144 446 144 448.5 Q144 451 143 454 Q138 468 125 462 Q109 453 99 440.5 Q89 428 81 413 Q78 407 73.5 393.5 Q69 380 66 366 Q63 352 64.5 341 Q66 330 76 330 Q83 330 92 335.5 Q101 341 110.5 349.5 Q120 358 128.5 367 Q137 376 143 383 Q162 405 179.5 428 Q197 451 214 474 Q217 480 223 484.5 Q229 489 235 485 Q245 479 240 468 Q238 462 234.5 455.5 Q231 449 228 443 Q199 386 176 322 Q153 258 136 204 Q130 181 124 158.5 Q118 136 112 113 Q110 105 112 98 Q114 89 103 84 Q92 81 87.5 90 Q83 99 85 107 Q88 126 94.5 153 Q101 180 109 209.5 Q117 239 127 269 Q137 299 148 325 Q152 336 156.5 347 Q161 358 166 371 Q157 362 147 350.5 Q137 339 125.5 329 Q114 319 101 312.5 Q88 306 74 306 Z " />
<glyph glyph-name="colon" unicode="&#x3a;" horiz-adv-x="85" d="M63 346 Q74 344 72 333 Q70 320 59 322 Q48 326 50 335 Q52 348 63 346 Z M40 252 Q51 250 49 241 Q47 230 37 232 Q27 234 29 244 Q31 254 40 252 Z " />
<glyph glyph-name="semicolon" unicode="&#x3b;" horiz-adv-x="98" d="M62 270 Q71 270 73 259 Q73 245 66.5 232.5 Q60 220 46 212 Q38 207 32 213 Q25 220 31 228 Q36 235 42.5 241.5 Q49 248 51 260 Q51 270 62 270 Z M81 341 Q91 341 91 330 Q90 325 87 322 Q84 319 79 320 Q69 320 69 331 Q69 336 72.5 339 Q76 342 81 341 Z " />
<glyph glyph-name="less" unicode="&#x3c;" horiz-adv-x="313" d="M289 372 Q297 364 288.5 357 Q280 350 272 347 Q236 333 200.5 322 Q165 311 128 300 Q115 296 103 292.5 Q91 289 80 286 Q86 282 92.5 278 Q99 274 105 270 Q122 259 140 249 Q158 239 176 228 Q181 224 183 218 Q185 212 179 207 Q172 201 165 206 Q151 214 137.5 221.5 Q124 229 111 237 Q97 246 81 255 Q65 264 53 275 Q46 282 48 290.5 Q50 299 58 304 Q79 312 101.5 318.5 Q124 325 152 333 Q181 342 208.5 351 Q236 360 265 370 Q270 372 277 375.5 Q284 379 289 372 Z " />
<glyph glyph-name="equal" unicode="&#x3d;" horiz-adv-x="216" d="M193 340 Q202 338 199 328 Q197 319 186 317 Q182 316 172 316 L74 316 L74 317 Q65 317 60 318 Q48 318 51 330 Q54 342 68 340 Q79 340 88.5 340 Q98 340 109 341 L188 341 Q191 341 193 340 Z M162 293 Q170 293 173.5 288 Q177 283 172 276 Q167 268 157 268 Q142 267 126.5 266.5 Q111 266 96 265 Q74 265 52 262 Q39 262 41 271 Q41 282 54 284 Q62 286 68.5 287 Q75 288 83 288 Q103 290 122.5 291 Q142 292 162 293 Z " />
<glyph glyph-name="greater" unicode="&#x3e;" horiz-adv-x="333" d="M290 344 Q301 334 297.5 322.5 Q294 311 282 302 Q270 293 256.5 285 Q243 277 229 270 Q133 226 38 179 Q25 172 20 182 Q13 193 25 200 Q67 225 112.5 245 Q158 265 208 288 Q225 296 242 305 Q259 314 273 325 Q253 342 220.5 357 Q188 372 159 387 Q149 391 152 401 Q155 411 166 408 Q176 404 185 400 Q194 396 203 391 Q225 380 247.5 369.5 Q270 359 290 344 Z " />
<glyph glyph-name="question" unicode="&#x3f;" horiz-adv-x="327" d="M304 430 Q305 412 298 395 Q291 378 279 363 Q267 348 252 335.5 Q237 323 223 313 Q198 296 173 280 Q148 264 123 241 Q112 231 107.5 217.5 Q103 204 99 190 Q97 176 85 178 Q73 181 75 194 Q81 241 118 271 Q135 286 153.5 298.5 Q172 311 192 323 Q208 333 223 344 Q238 355 250 369 Q267 389 274.5 411.5 Q282 434 264 461 Q254 476 236 479 Q218 482 201 480 Q175 477 154.5 465 Q134 453 116 435 Q111 430 106 423.5 Q101 417 99 409 Q97 402 89 402 Q79 404 79 410 Q76 424 85 437 Q94 450 105 460 Q128 483 162 496 Q196 509 231 505 Q261 502 281 480 Q301 458 304 430 Z M59 120 Q65 123 70 119 Q75 115 76 109 Q77 104 75 97 Q73 90 63 92 Q58 93 54.5 96 Q51 99 51 107 Q51 117 59 120 Z " />
<glyph glyph-name="at" unicode="&#x40;" horiz-adv-x="393" d="M209 292 Q190 275 168.5 258.5 Q147 242 122 237 Q110 234 102 241 Q94 248 96 260 Q97 270 101.5 282 Q106 294 111 303 Q124 326 142.5 347.5 Q161 369 185 374 Q196 376 206 367 Q216 358 214 347 Q212 337 205 337 Q196 335 193 344 Q190 350 188.5 350.5 Q187 351 182 347 Q153 328 136 296 Q127 282 122 263 Q133 268 146 275.5 Q159 283 169 291 Q177 298 187 306.5 Q197 315 205 321 Q211 327 219 326 Q230 324 232 312 Q234 297 233 282.5 Q232 268 236 254 Q241 235 259 240 Q274 245 288.5 257.5 Q303 270 315 286 Q327 302 336.5 319 Q346 336 352 349 Q358 364 361 383.5 Q364 403 361 421 Q358 439 348 452 Q338 465 317 468 Q297 470 278 466.5 Q259 463 240 456 Q192 438 154.5 408.5 Q117 379 90 335 Q76 313 67.5 287 Q59 261 59 235.5 Q59 210 69 187 Q79 164 103 148 Q120 137 138 134.5 Q156 132 173 135 Q190 138 204.5 144.5 Q219 151 229 157 Q234 161 240.5 161 Q247 161 250 155 Q253 148 249.5 142 Q246 136 239 134 Q216 122 192 115 Q168 108 144.5 109.5 Q121 111 100 121 Q79 131 63 152 Q46 172 39.5 194.5 Q33 217 33 238 Q33 259 37 276 Q41 293 46 304 Q67 355 102 393 Q137 431 185 458 Q217 475 253 486 Q289 497 324 492 Q356 485 370 464 Q384 443 385.5 416 Q387 389 379 361 Q371 333 359 313 Q342 283 319 256.5 Q296 230 272 220 Q255 212 237 218.5 Q219 225 212 250 Q210 257 208.5 269 Q207 281 209 292 Z " />
<glyph glyph-name="A" unicode="A" horiz-adv-x="431" d="M460 366 Q463 366 468.5 365.5 Q474 365 478.5 363 Q483 361 485.5 357.5 Q488 354 486 348 Q484 337 473 339 Q451 341 429.5 339 Q408 337 386 335 Q376 334 364.5 333.5 Q353 333 343 332 Q340 312 337.5 282 Q335 252 333 221.5 Q331 191 329.5 163.5 Q328 136 328 120 Q328 76 332.5 33.5 Q337 -9 344 -56 Q346 -61 349.5 -70 Q353 -79 344 -83 Q336 -87 329 -82 Q322 -77 320 -70 Q316 -59 313.5 -42 Q311 -25 309 -10 Q301 58 299 127 Q297 196 307 277 Q308 288 310 302 Q312 316 314 329 Q304 328 290 326.5 Q276 325 260.5 323.5 Q245 322 230 320 Q215 318 205 317 Q177 266 149.5 213.5 Q122 161 96 108 Q88 90 79.5 72 Q71 54 62 35 Q60 29 57 22 Q54 15 45 17 Q39 19 37.5 23 Q36 27 36.5 32 Q37 37 39 42.5 Q41 48 42 52 Q52 78 63.5 102 Q75 126 87 150 Q108 192 129.5 232 Q151 272 171 314 Q141 311 112 306.5 Q83 302 53 300 Q31 298 13.5 298 Q-4 298 -22 309 Q-31 313 -27 324 Q-25 328 -19 330.5 Q-13 333 -9 329 Q1 323 10.5 322.5 Q20 322 31 324 Q70 329 108 334 Q146 339 188 344 Q208 379 229 415 Q250 451 271 486 Q294 525 319.5 563 Q345 601 374 638 Q377 642 380.5 645 Q384 648 390 646 Q396 645 400 640 Q404 635 403 629 Q401 620 399 611 Q397 602 395 593 Q380 536 368.5 479 Q357 422 347 359 Q376 361 403.5 363 Q431 365 460 366 Z M336 456 Q340 478 344.5 499.5 Q349 521 354 542 Q356 550 358 558 Q360 566 362 574 Q361 574 361 575 Q322 520 288 463 Q254 406 220 347 Q244 349 269.5 351.5 Q295 354 318 356 Q322 380 326.5 404.5 Q331 429 336 456 Z " />
<glyph glyph-name="B" unicode="B" horiz-adv-x="400" d="M419 653 Q423 622 408 592 Q393 562 375 536 Q352 501 325 468 Q298 435 270 401 Q308 387 325 350 Q342 313 345 272 Q348 221 337.5 174.5 Q327 128 307 82 Q292 50 274.5 19 Q257 -12 234 -40 Q223 -53 209.5 -65 Q196 -77 180.5 -85.5 Q165 -94 147 -98 Q129 -102 110 -97 Q87 -92 74 -78.5 Q61 -65 54.5 -47 Q48 -29 47.5 -9 Q47 11 51 31 Q57 65 72 103 Q87 141 108 178 Q129 215 154 249 Q179 283 206 310 Q216 318 226 315 Q231 313 234 308.5 Q237 304 237 299 Q237 294 234 290.5 Q231 287 225 288 Q221 288 215 282 Q209 276 202.5 267.5 Q196 259 190 250.5 Q184 242 181 238 Q164 215 149 191.5 Q134 168 120 143 Q106 117 95.5 90 Q85 63 79 34 Q77 23 75.5 7 Q74 -9 76.5 -24 Q79 -39 86.5 -51.5 Q94 -64 110 -69 Q132 -77 155 -67.5 Q178 -58 197 -41 Q232 -6 259 44 Q286 94 303 148 Q309 169 313.5 193.5 Q318 218 319 243 Q320 268 316 293 Q312 318 300 341 Q286 367 274 371 Q262 375 253 378 Q243 381 240 389 Q237 397 242 406 Q248 416 256 426 Q276 451 295 475 Q314 499 334 524 Q351 546 370.5 575.5 Q390 605 393 637 Q393 647 390.5 654 Q388 661 376 660 Q357 658 338.5 650 Q320 642 302 630 Q284 618 266.5 603.5 Q249 589 233 575 Q216 560 200 543.5 Q184 527 168 510 Q162 504 162 496 Q158 461 151.5 426.5 Q145 392 136 358 Q125 315 113 279.5 Q101 244 82 203 Q79 195 73 184 Q67 173 60.5 162 Q54 151 46 141.5 Q38 132 30 128 Q13 119 -3 123.5 Q-19 128 -27 147 Q-33 171 -30.5 194.5 Q-28 218 -18 247 Q-6 285 11 319.5 Q28 354 48 388 Q67 420 88.5 451 Q110 482 133 511 Q136 514 136 519 Q138 544 139 569 Q140 594 142 619 Q142 624 144 629.5 Q146 635 154 635 Q159 634 162.5 632 Q166 630 166 618 Q166 601 165.5 582.5 Q165 564 165 546 Q217 603 283 650 Q302 664 328.5 675.5 Q355 687 382 687 Q397 687 407 677.5 Q417 668 419 653 Z M122 415 Q123 420 126 436 Q129 452 130 463 Q118 451 104.5 431.5 Q91 412 78.5 390 Q66 368 54 345.5 Q42 323 33 304 Q21 278 11.5 251 Q2 224 -3 195 Q-5 187 -5 178.5 Q-5 170 -3 161 Q2 138 20 154 Q37 171 48 195.5 Q59 220 71 246 Q104 329 122 415 Z " />
<glyph glyph-name="C" unicode="C" horiz-adv-x="372" d="M334 615 Q339 599 340.5 583 Q342 567 337 550 Q335 539 327 540 Q321 538 316.5 542.5 Q312 547 314 555 Q316 568 315.5 587 Q315 606 304 617 Q298 624 290 625 Q282 626 273 623.5 Q264 621 255.5 616 Q247 611 241 606 Q226 594 213.5 579.5 Q201 565 190 551 Q161 510 139 466.5 Q117 423 100 376 Q82 322 70 265 Q58 208 56 148 Q55 113 59 75 Q63 37 78 2 Q89 -21 112.5 -16 Q136 -11 156 5 Q190 32 214 71 Q238 110 258 156 Q263 170 269 183.5 Q275 197 281 211 Q283 215 284.5 218 Q286 221 291 222 Q299 224 304 218 Q309 212 307 204 Q301 193 297 181 Q286 155 275 130 Q264 105 251 81 Q238 57 221 34 Q204 11 181 -10 Q170 -19 159.5 -26 Q149 -33 135 -38 Q105 -48 81 -35.5 Q57 -23 46 8 Q29 50 27.5 108.5 Q26 167 36.5 230.5 Q47 294 66.5 357 Q86 420 111 471 Q120 490 139 521.5 Q158 553 182.5 582.5 Q207 612 235 632 Q263 652 291 649 Q322 645 334 615 Z " />
<glyph glyph-name="D" unicode="D" horiz-adv-x="431" d="M408 507 Q410 459 402.5 412.5 Q395 366 381 320 Q365 269 344 221 Q323 173 296 128 Q283 106 258.5 74.5 Q234 43 204 15.5 Q174 -12 141 -29 Q108 -46 77 -40 Q44 -33 33 1 Q22 36 31 77 Q40 118 58 156 Q72 184 92 213.5 Q112 243 134 270.5 Q156 298 179 323 Q202 348 223 368 Q234 377 243 373 Q253 370 253 360 Q253 355 250.5 353 Q248 351 243 348 Q226 337 206 316 Q186 295 166.5 271 Q147 247 129.5 221.5 Q112 196 100 176 Q70 127 58 74 Q55 57 54 38.5 Q53 20 61 3 Q67 -9 78 -12.5 Q89 -16 101.5 -14 Q114 -12 126.5 -6.5 Q139 -1 149 5 Q175 21 195.5 41.5 Q216 62 235 86 Q264 123 286 163.5 Q308 204 326 247 Q337 274 346.5 301.5 Q356 329 364 358 Q372 391 377 424.5 Q382 458 382 492 Q382 505 380 521.5 Q378 538 372.5 554 Q367 570 356.5 582.5 Q346 595 330 600 Q317 604 303 602 Q289 600 275.5 595 Q262 590 249 582 Q236 574 226 566 Q221 562 215.5 558.5 Q210 555 205 550 Q201 546 201 543 Q192 483 173.5 425.5 Q155 368 129 313 Q116 286 96.5 256 Q77 226 46 214 Q30 209 17.5 214.5 Q5 220 0 236 Q-8 262 -1 297 Q6 332 20 361 Q62 447 130 517 Q140 528 150.5 537.5 Q161 547 172 558 Q176 562 176 565 Q177 575 177.5 590 Q178 605 178 619.5 Q178 634 178.5 644 Q179 654 179 656 Q180 661 183 665 Q186 669 194 669 Q199 669 202.5 666 Q206 663 206 658 Q206 640 205.5 622 Q205 604 206 585 Q213 590 220 594.5 Q227 599 234 604 Q248 612 262.5 618.5 Q277 625 293 627 Q327 633 353.5 619 Q380 605 394 573 Q401 557 404 540.5 Q407 524 408 507 Z M162 484 Q164 492 165.5 500.5 Q167 509 169 517 Q137 489 110.5 455 Q84 421 62 383 Q49 360 39 336.5 Q29 313 24 287 Q22 277 21 267 Q20 257 23 247 Q28 233 40 241 Q47 246 53 250.5 Q59 255 64 261 Q79 278 90 297 Q101 316 110 336 Q127 372 139.5 409 Q152 446 162 484 Z " />
<glyph glyph-name="E" unicode="E" horiz-adv-x="400" d="M66 244 Q58 242 51 241 Q44 240 37 239 Q29 238 20.5 239 Q12 240 12 250 Q11 260 23 262 Q35 264 48.5 267 Q62 270 73 273 Q79 298 85.5 322 Q92 346 98 370 Q104 393 110 415 Q116 437 123 460 Q125 465 125.5 471 Q126 477 127 482 Q129 493 139 493 Q144 492 147.5 488.5 Q151 485 150 480 Q150 466 147 454 Q140 425 135 403 Q130 381 122 352 Q116 327 111 309.5 Q106 292 103 278 Q135 285 169 287.5 Q203 290 235 292 Q240 292 248.5 292 Q257 292 264.5 290.5 Q272 289 277 285 Q282 281 279 273 Q276 264 266 264 Q248 265 231 264.5 Q214 264 194 262 Q169 260 143.5 256.5 Q118 253 96 249 Q88 213 80.5 175 Q73 137 69 99 Q67 76 67 57 Q67 38 73 24 Q77 15 84 11.5 Q91 8 99 8 Q107 8 115 10 Q123 12 130 14 Q159 23 188 32.5 Q217 42 246 51 Q259 56 275 61 Q286 64 292 56 Q296 51 294.5 45.5 Q293 40 288 37 Q283 35 277.5 33 Q272 31 266 29 Q234 19 203 9 Q172 -1 140 -12 Q107 -22 80.5 -15.5 Q54 -9 44 26 Q40 43 39.5 59 Q39 75 41 92 Q44 131 51 168.5 Q58 206 66 244 Z M446 604 Q455 602 459 595 Q463 588 460 581 Q453 569 441 577 Q435 579 432 579 Q420 578 407.5 577.5 Q395 577 382 575 Q307 564 234.5 550.5 Q162 537 91 515 Q80 511 69 507.5 Q58 504 47 500 L41 497 Q33 487 24 495 Q19 499 18.5 504.5 Q18 510 22 514 Q28 518 40.5 524 Q53 530 68.5 535.5 Q84 541 99.5 546 Q115 551 127 554 Q195 571 253.5 581.5 Q312 592 370 600 Q393 604 412 606.5 Q431 609 446 604 Z " />
<glyph glyph-name="F" unicode="F" horiz-adv-x="345" d="M107 323 Q138 332 169 339.5 Q200 347 232 352 Q247 354 262.5 354.5 Q278 355 282 340 Q283 332 277 327 Q271 322 264 326 Q262 328 257.5 328 Q253 328 248 327 Q221 324 194.5 318 Q168 312 141 305 Q132 302 119 298.5 Q106 295 98 291 Q89 255 81 217.5 Q73 180 67 144 Q59 99 53 57.5 Q47 16 43 -27 Q42 -35 43 -45 Q44 -55 35 -59 Q16 -62 16 -37 Q18 6 24.5 45.5 Q31 85 36 124 Q43 165 51 204 Q59 243 68 282 Q54 278 39.5 272.5 Q25 267 11 262 Q7 260 6 259 Q3 254 -2.5 253.5 Q-8 253 -12 257 Q-19 267 -13 273.5 Q-7 280 1 284 Q19 294 38 300.5 Q57 307 76 315 Q93 381 114.5 447 Q136 513 159 578 Q132 571 105.5 565 Q79 559 51 552 Q50 551 49 550.5 Q48 550 47 549 Q41 538 30 544 Q27 546 24 548 Q21 550 19 555 Q16 568 31 573 Q45 577 60 580.5 Q75 584 90 588 Q146 604 202 614.5 Q258 625 315 636 Q341 640 367 644.5 Q393 649 419 649 Q429 648 434 641.5 Q439 635 437 626 Q433 616 418 608.5 Q403 601 393 599 Q385 597 379 602.5 Q373 608 378 619 Q339 613 301.5 606.5 Q264 600 227 593 Q218 591 207.5 589 Q197 587 189 585 Q167 522 145.5 454 Q124 386 107 323 Z " />
<glyph glyph-name="G" unicode="G" horiz-adv-x="367" d="M304 657 Q321 665 335.5 660.5 Q350 656 359.5 644 Q369 632 374 614.5 Q379 597 377 581 Q377 571 366 569 Q354 569 354 581 Q353 588 351 598 Q349 608 345.5 617 Q342 626 335.5 631 Q329 636 318 634 Q291 626 267 599.5 Q243 573 219 541 Q193 504 171.5 465.5 Q150 427 130 387 Q110 343 92.5 298.5 Q75 254 62 207 Q55 182 50.5 154.5 Q46 127 53 105 Q59 88 74 95 Q90 103 109.5 125 Q129 147 145 167 Q186 218 226 267.5 Q266 317 305 368 Q316 382 325.5 396.5 Q335 411 345 425 Q350 430 354 434 Q358 438 366 433 Q376 426 370 414 Q368 409 364.5 404 Q361 399 358 394 Q320 326 294.5 263.5 Q269 201 252.5 137.5 Q236 74 227.5 5.5 Q219 -63 215 -142 Q214 -155 214.5 -167.5 Q215 -180 216 -193 Q218 -199 220.5 -206 Q223 -213 218 -220 Q211 -225 202.5 -222 Q194 -219 192 -208 Q190 -197 189 -187.5 Q188 -178 188 -168 Q190 -47 211 63.5 Q232 174 273 284 Q240 238 208 201 Q176 164 142 122 Q128 105 112 89.5 Q96 74 76 69 Q62 65 49.5 70 Q37 75 31 89 Q19 115 23.5 154 Q28 193 40.5 234 Q53 275 69 313.5 Q85 352 97 378 Q111 409 133 451 Q155 493 182.5 533.5 Q210 574 241 608 Q272 642 304 657 Z " />
<glyph glyph-name="H" unicode="H" horiz-adv-x="442" d="M428 677 Q434 671 431 665 Q426 650 421 635 Q416 620 411 605 Q395 560 380.5 514.5 Q366 469 354 423 Q343 380 333.5 339 Q324 298 313 256 Q322 256 330.5 256.5 Q339 257 347 257 Q352 257 359.5 256.5 Q367 256 373.5 253.5 Q380 251 384 246 Q388 241 386 233 Q384 224 377 223 Q369 221 366.5 226 Q364 231 358 231 Q348 231 334 231 Q320 231 309 230 Q292 143 278 58 Q264 -27 256 -113 Q255 -118 255.5 -123.5 Q256 -129 256 -134 Q256 -143 249 -146 Q240 -151 235 -141.5 Q230 -132 230 -124 Q233 -90 237 -56 Q241 -22 246 16 Q253 70 263 127 Q273 184 280 226 Q264 224 239.5 219 Q215 214 190 208 Q165 202 143.5 196 Q122 190 113 187 Q108 163 103.5 136.5 Q99 110 96 86 Q93 61 90 36 Q87 11 85 -15 Q84 -23 84.5 -35.5 Q85 -48 89 -56 Q93 -65 86 -72 Q77 -77 70 -70 Q62 -63 60.5 -50.5 Q59 -38 59 -25 Q63 26 68.5 76.5 Q74 127 85 179 Q67 173 49 166.5 Q31 160 13 153 Q9 151 6 151 Q-5 149 -8 159 Q-10 168 -1 172 Q3 174 15 179 Q27 184 41 189.5 Q55 195 68.5 200.5 Q82 206 90 209 Q98 254 108 300.5 Q118 347 132 399 Q140 430 149 459.5 Q158 489 168 518 Q169 522 175 528 Q177 530 181 530 Q185 530 187 528 Q194 523 191 515 Q183 488 175.5 461 Q168 434 160 407 Q149 361 137.5 314.5 Q126 268 118 217 Q125 219 146 224 Q167 229 192.5 235 Q218 241 244 246.5 Q270 252 287 254 Q302 329 322.5 404 Q343 479 367 553 Q376 582 386.5 610 Q397 638 407 667 Q409 672 415 678 Q422 683 428 677 Z " />
<glyph glyph-name="I" unicode="I" horiz-adv-x="266" d="M473 646 Q481 641 481.5 631 Q482 621 475 616 Q470 613 464.5 614.5 Q459 616 457 623 Q457 627 452 627 Q417 632 381 630.5 Q345 629 304 625 Q298 625 283 623.5 Q268 622 250.5 619.5 Q233 617 216 614.5 Q199 612 188 610 Q181 584 174 558 Q167 532 159 508 Q120 386 91 263 Q62 140 42 9 Q38 -14 36.5 -33 Q35 -52 33 -73 Q64 -66 94.5 -58.5 Q125 -51 159 -46 Q178 -43 184.5 -44.5 Q191 -46 193 -59 Q194 -64 191 -66.5 Q188 -69 183 -70 Q169 -72 149.5 -75.5 Q130 -79 108 -83 Q86 -87 65.5 -91.5 Q45 -96 30 -100 Q-8 -110 -46 -120 Q-84 -130 -123 -140 Q-128 -142 -136.5 -141.5 Q-145 -141 -144 -132 Q-143 -122 -134 -118.5 Q-125 -115 -117 -113 Q-87 -104 -55 -95 Q-23 -86 6 -78 Q6 -73 7.5 -60.5 Q9 -48 11 -34 Q13 -20 14.5 -8 Q16 4 16 7 Q30 120 56.5 231 Q83 342 118 463 Q129 499 139.5 534 Q150 569 162 606 Q126 599 90.5 591 Q55 583 20 578 Q14 577 9 576 Q4 575 -1 575 Q-12 575 -17 582 Q-21 588 -18 593 Q-15 598 -8 599 Q-3 600 5 600.5 Q13 601 21 603 Q102 623 183.5 636 Q265 649 350 654 Q362 654 379 655 Q396 656 414 655.5 Q432 655 448 653 Q464 651 473 646 Z " />
<glyph glyph-name="J" unicode="J" horiz-adv-x="456" d="M582 611 Q593 608 600 600 Q607 592 602 584 Q598 577 591 577 Q586 577 576 587 Q538 597 499 595 Q460 593 421 593 Q405 515 390 441 Q375 367 351 286 Q334 225 310 166.5 Q286 108 255 52 Q246 35 232.5 15 Q219 -5 203.5 -23.5 Q188 -42 169.5 -56.5 Q151 -71 132 -76 Q109 -82 91.5 -76.5 Q74 -71 62 -58 Q50 -45 43 -26 Q36 -7 34 13 Q31 50 39 94 Q47 138 62.5 182 Q78 226 100 266.5 Q122 307 147 337 Q154 345 163 353.5 Q172 362 183 365 Q193 368 197 358 Q199 349 189 344 Q186 342 182.5 339 Q179 336 175 333 Q165 323 157.5 311.5 Q150 300 142 288 Q93 209 70 116 Q66 101 63 81 Q60 61 60 40.5 Q60 20 62.5 1 Q65 -18 72 -30 Q85 -53 102.5 -55 Q120 -57 143 -43 Q181 -18 207.5 23 Q234 64 256 108 Q280 157 299 207.5 Q318 258 332 311 Q350 379 364.5 447.5 Q379 516 393 591 Q345 588 297 578 Q249 568 198 556 Q197 556 196 555.5 Q195 555 194 555 Q180 552 177 562 Q174 572 187 577 Q241 593 294.5 602 Q348 611 410 617 Q452 621 497.5 620 Q543 619 582 611 Z " />
<glyph glyph-name="K" unicode="K" horiz-adv-x="322" d="M391 654 Q403 651 399 637 Q391 611 379.5 584 Q368 557 354 532 Q310 457 262 388 Q214 319 157 254 Q133 228 106.5 202.5 Q80 177 48 158 Q45 156 43.5 151 Q42 146 45 143 Q107 120 162 81.5 Q217 43 274 4 Q280 0 286 -6 Q292 -12 294 -17 Q296 -24 290 -28 Q287 -31 282.5 -31.5 Q278 -32 274 -28 Q252 -10 222.5 12 Q193 34 160.5 55 Q128 76 96 93 Q64 110 37 119 Q26 68 17.5 19 Q9 -30 -1 -86 Q-3 -99 -4 -111.5 Q-5 -124 -7 -136 Q-9 -149 -19 -149 Q-26 -149 -29 -144.5 Q-32 -140 -32 -133.5 Q-32 -127 -31 -120.5 Q-30 -114 -30 -109 L12 122 Q13 128 8.5 129.5 Q4 131 -2.5 131 Q-9 131 -15.5 130 Q-22 129 -25 128 Q-33 126 -44.5 126 Q-56 126 -58 138 Q-60 150 -44 157 Q-35 161 -28.5 161 Q-22 161 -12 159 Q-5 159 6 163.5 Q17 168 23 175 Q38 249 58 321 Q78 393 97 466 Q108 507 118.5 547.5 Q129 588 139 630 Q141 638 142 645.5 Q143 653 145 661 Q147 670 155 671 Q159 672 162.5 669.5 Q166 667 166 662 Q167 653 166 644 Q158 588 143.5 532 Q129 476 112.5 419.5 Q96 363 80 306 Q64 249 53 192 Q81 212 105 236 Q129 260 151 286 Q251 406 332 544 Q346 568 357.5 593 Q369 618 377 644 Q379 649 382 652 Q385 655 391 654 Z " />
<glyph glyph-name="L" unicode="L" horiz-adv-x="322" d="M348 47 Q359 42 362.5 30.5 Q366 19 353 14 Q344 11 338 22 Q336 25 334 25.5 Q332 26 330 27 Q308 28 287.5 27 Q267 26 247 24 Q143 15 48 -3 Q16 -9 -17 -19 Q-50 -29 -87 -43 Q-101 -48 -108 -43 Q-113 -38 -112.5 -31.5 Q-112 -25 -105 -22 Q-75 -8 -44 0.5 Q-13 9 19 21 Q26 73 36.5 125 Q47 177 60.5 231 Q74 285 90.5 343 Q107 401 127 464 Q138 498 148 532 Q158 566 168 601 Q169 606 170.5 611 Q172 616 171 622 Q170 627 173.5 629.5 Q177 632 182 631 Q187 630 191 626 Q195 622 195 617 Q195 588 186 559.5 Q177 531 166 496 Q131 380 98 264.5 Q65 149 47 24 Q107 36 166 43.5 Q225 51 288 53 Q304 53 319 53 Q334 53 348 47 Z " />
<glyph glyph-name="M" unicode="M" horiz-adv-x="489" d="M505 637 Q525 639 525 619 Q525 612 523 602.5 Q521 593 519 585 Q506 534 493 484 Q480 434 467 384 Q444 296 428 205 Q412 114 401 13 Q399 -4 398 -19.5 Q397 -35 395 -51 Q392 -66 381 -66 Q369 -65 369 -48 Q381 59 395.5 166 Q410 273 441 385 Q455 438 470 491 Q485 544 496 598 Q490 593 484.5 586 Q479 579 474 573 Q442 531 414.5 488 Q387 445 363 399 Q351 375 334.5 339.5 Q318 304 300 268.5 Q282 233 265.5 203.5 Q249 174 238 164 Q230 156 219.5 159 Q209 162 205 174 Q202 183 201 200.5 Q200 218 200 238.5 Q200 259 201 280 Q202 301 204 318 Q205 342 209 377.5 Q213 413 216.5 450 Q220 487 222 519 Q224 551 222 569 Q211 553 197 524 Q183 495 168.5 461.5 Q154 428 141.5 395 Q129 362 121 340 Q103 290 85 240.5 Q67 191 49 141 Q46 136 43.5 126 Q41 116 31 119 Q20 121 22 133 Q25 142 27.5 150.5 Q30 159 33 167 Q46 202 58.5 237.5 Q71 273 83 308 Q105 369 131.5 436 Q158 503 185 559 Q190 569 197.5 579 Q205 589 214 596 Q229 604 241 588 Q247 579 247.5 555 Q248 531 246 501.5 Q244 472 240.5 443 Q237 414 236 395 Q232 345 227.5 291 Q223 237 227 190 L228 189 Q261 249 292 312.5 Q323 376 355 437 Q381 484 410 528 Q439 572 474 613 Q479 619 488 627.5 Q497 636 505 637 Z " />
<glyph glyph-name="N" unicode="N" horiz-adv-x="356" d="M381 617 Q385 599 383 577.5 Q381 556 376.5 532.5 Q372 509 366 485.5 Q360 462 354 440 Q331 359 311 276 Q291 193 277 107 Q273 85 268 50 Q263 15 259 -31 Q259 -34 259.5 -39.5 Q260 -45 259.5 -50.5 Q259 -56 257 -60.5 Q255 -65 250 -67 Q239 -69 235.5 -59 Q232 -49 233 -40 Q235 2 241.5 49 Q248 96 256 143 Q267 207 283.5 273.5 Q300 340 323 426 Q334 464 343.5 502 Q353 540 358 584 Q358 590 358 602 Q358 614 354 616 Q349 618 337.5 611 Q326 604 321 600 Q264 553 219 488.5 Q174 424 131 355 Q107 316 86 275 Q65 234 44 193 Q41 186 35 180 Q29 174 20 177 Q11 180 13.5 193 Q16 206 19 215 Q31 260 43.5 305.5 Q56 351 69 396 Q81 441 90 485 Q99 529 104 574 Q105 578 105.5 584.5 Q106 591 107.5 597.5 Q109 604 112.5 608.5 Q116 613 124 612 Q134 610 132 599 Q129 565 124 530.5 Q119 496 110 457 Q101 418 91 378.5 Q81 339 67 294 Q91 339 122 393 Q153 447 188 497 Q223 547 260.5 586 Q298 625 336 639 Q352 645 365 638.5 Q378 632 381 617 Z " />
<glyph glyph-name="O" unicode="O" horiz-adv-x="422" d="M377 314 Q369 274 356.5 232 Q344 190 328.5 150.5 Q313 111 296 75.5 Q279 40 261 12 Q251 -2 239.5 -16 Q228 -30 214.5 -41.5 Q201 -53 185.5 -60.5 Q170 -68 152 -68 Q136 -68 125 -60.5 Q114 -53 107 -41.5 Q100 -30 96.5 -17 Q93 -4 92 8 Q89 44 95 81.5 Q101 119 112 155 Q91 168 78 187 Q65 206 58 229 Q49 267 53 303.5 Q57 340 69 374.5 Q81 409 99.5 440 Q118 471 140 497 Q153 512 169 528 Q185 544 203 557.5 Q221 571 240 580.5 Q259 590 280 593 Q307 596 326.5 588 Q346 580 359.5 564.5 Q373 549 380.5 528.5 Q388 508 390 487 Q395 442 390.5 399 Q386 356 377 314 Z M145 173 Q160 170 174 173.5 Q188 177 201.5 184.5 Q215 192 227.5 202 Q240 212 251 222 Q256 227 263 230 Q270 233 275 226 Q281 219 274 212 Q266 204 257.5 196.5 Q249 189 241 182 Q218 164 192 154 Q166 144 137 149 Q114 83 117 12 Q118 3 120 -7 Q122 -17 126 -25.5 Q130 -34 136.5 -39 Q143 -44 154 -43 Q180 -39 199.5 -20.5 Q219 -2 233 16 Q261 56 283 105 Q305 154 321.5 203.5 Q338 253 348 299 Q358 345 363 379 Q366 405 367 430.5 Q368 456 365 482 Q361 511 347 537.5 Q333 564 303 568 Q271 571 243.5 554 Q216 537 195 518 Q167 490 142.5 456.5 Q118 423 101.5 387 Q85 351 79 312.5 Q73 274 83 236 Q91 213 98.5 201.5 Q106 190 120 179 Q131 207 143.5 233.5 Q156 260 170 288 Q178 304 189 322 Q200 340 212 346 Q219 350 226 346.5 Q233 343 235 335 Q236 332 233 327 Q230 322 225 322 Q223 322 217 316.5 Q211 311 207 304 Q189 272 173.5 240 Q158 208 145 173 Z " />
<glyph glyph-name="P" unicode="P" horiz-adv-x="500" d="M543 587 Q549 557 543 527 Q537 497 523.5 467.5 Q510 438 490.5 411 Q471 384 450 361 Q394 298 321 247 Q248 196 167 166 Q157 119 146 67 Q135 15 124 -31 Q121 -44 120 -54 Q119 -64 121 -74 Q123 -84 116 -87 Q107 -92 101 -84 Q97 -78 96 -68.5 Q95 -59 96 -48 Q97 -37 99 -26.5 Q101 -16 103 -9 Q111 33 120.5 76 Q130 119 140 161 Q123 158 107 158.5 Q91 159 75 164 Q70 166 65.5 169 Q61 172 64 180 Q66 189 76 187 Q93 184 111 182.5 Q129 181 146 189 Q166 261 185 333 Q204 405 226 476 Q229 487 238 487 Q243 486 246.5 483 Q250 480 248 474 Q228 400 211 334.5 Q194 269 175 197 Q250 231 318 277 Q386 323 443 391 Q465 417 482 446 Q499 475 510 507 Q517 529 518 551.5 Q519 574 512 592 Q505 610 488.5 621 Q472 632 444 632 Q391 629 343 603.5 Q295 578 248 543 Q217 520 188 496 Q159 472 131 446 Q120 435 109.5 424 Q99 413 91 400 Q89 395 84.5 393.5 Q80 392 76 394 Q65 399 70 410 Q75 421 80 429 Q94 448 116.5 469.5 Q139 491 166 512.5 Q193 534 221.5 555.5 Q250 577 277 595 Q296 608 320.5 621 Q345 634 371 643.5 Q397 653 424.5 656.5 Q452 660 478 654 Q531 641 543 587 Z " />
<glyph glyph-name="Q" unicode="Q" horiz-adv-x="424" d="M197 35 Q189 32 183.5 31.5 Q178 31 172 30 Q147 28 126.5 36 Q106 44 90 59 Q74 74 62.5 94 Q51 114 45 135 Q37 164 34.5 192.5 Q32 221 34 250 Q39 316 57 383 Q75 450 114 501 Q117 505 120 508.5 Q123 512 128 514 Q133 518 140 516 Q147 514 149 508 Q152 498 141 494 Q138 493 134 489 Q102 443 86 387 Q70 331 63 279 Q60 252 60 217 Q60 182 67.5 149 Q75 116 93 90 Q111 64 143 56 Q155 53 166.5 54 Q178 55 189 59 Q176 93 167.5 132.5 Q159 172 154 211 Q147 258 146 323.5 Q145 389 155 454.5 Q165 520 189 575 Q213 630 255 656 Q275 668 296 665.5 Q317 663 335 648 Q360 623 372 589 Q384 555 388 517.5 Q392 480 389.5 443 Q387 406 383 375 Q376 329 364.5 281.5 Q353 234 334 190 Q315 146 288 109 Q261 72 224 48 Q230 11 245 -26 Q260 -63 276 -98 Q279 -108 284.5 -116.5 Q290 -125 289 -129 Q289 -133 285.5 -135.5 Q282 -138 277 -138 Q267 -139 261.5 -127.5 Q256 -116 247 -97 Q220 -33 197 35 Z M213 70 Q246 97 269 126.5 Q292 156 309 194 Q341 271 355 353 Q369 435 362 516 Q360 532 354.5 557 Q349 582 338 603 Q327 624 311 635 Q295 646 272 636 Q257 628 245.5 615.5 Q234 603 224.5 588 Q215 573 208 556.5 Q201 540 197 526 Q176 461 172.5 379 Q169 297 179 220 Q185 174 192.5 137.5 Q200 101 213 70 Z " />
<glyph glyph-name="R" unicode="R" horiz-adv-x="488" d="M447 585 Q468 566 476.5 542 Q485 518 484.5 491.5 Q484 465 476.5 439 Q469 413 459 391 Q442 356 418 322.5 Q394 289 365 263 Q345 244 320.5 225 Q296 206 273 190 Q250 174 231 163 Q212 152 203 148 Q233 142 260.5 132.5 Q288 123 317 112 Q352 98 373 87.5 Q394 77 413 64 Q419 60 420.5 53.5 Q422 47 420 41 Q419 34 412 31 Q407 29 402 31.5 Q397 34 397 39 Q397 48 389 52 Q310 95 221 118 Q206 121 191 123.5 Q176 126 161 127 Q140 128 130 118 Q121 81 113 41.5 Q105 2 96 -36 Q91 -56 89.5 -66.5 Q88 -77 85 -94 Q83 -103 76 -106 Q70 -108 64.5 -103.5 Q59 -99 61 -92 Q69 -47 79.5 6.5 Q90 60 101 111 Q86 109 69 106 Q52 103 35 109 Q25 113 24.5 123 Q24 133 32 139 Q47 150 65.5 151 Q84 152 104 150 Q110 150 111 154 Q130 223 146.5 292.5 Q163 362 182 431 Q185 441 195 441 Q200 440 203 436 Q206 432 204 427 Q189 358 171 290 Q153 222 137 154 Q143 154 148.5 154 Q154 154 159 156 Q228 185 285.5 227.5 Q343 270 391 328 Q410 351 424.5 375 Q439 399 449 427 Q456 447 459 469 Q462 491 458.5 512 Q455 533 443.5 550.5 Q432 568 410 580 Q372 599 329 595 Q286 591 244 572 Q202 553 164 525.5 Q126 498 99 471 Q95 468 89 460 Q83 452 83 448 Q83 439 74 438 Q60 435 59 447 Q58 459 65 468 Q99 514 150 549 Q201 584 257 604 Q305 621 354.5 620 Q404 619 447 585 Z " />
<glyph glyph-name="S" unicode="S" horiz-adv-x="489" d="M612 668 Q635 653 642.5 631 Q650 609 639 583 Q628 556 604.5 532 Q581 508 552 488 Q523 468 492.5 453.5 Q462 439 438 431 Q433 429 423.5 428.5 Q414 428 412 437 Q409 446 420 450 Q462 462 497.5 483 Q533 504 566 530 Q580 542 593 557 Q606 572 613 586 Q621 602 618.5 615.5 Q616 629 606.5 638.5 Q597 648 582 654 Q567 660 551 662 Q525 665 499.5 663 Q474 661 449 656 Q276 620 138 517 Q119 503 101.5 487.5 Q84 472 70 453 Q59 438 53 418.5 Q47 399 59 378 Q80 347 115 324 Q150 301 186 275 Q234 242 279.5 198.5 Q325 155 351 98 Q359 78 363 57 Q367 36 364 13 Q357 -33 324.5 -68.5 Q292 -104 250 -128 Q232 -138 208 -147.5 Q184 -157 157.5 -163.5 Q131 -170 105.5 -172 Q80 -174 61 -169 Q30 -161 24 -129 Q21 -113 30 -94 Q39 -75 53 -56.5 Q67 -38 83 -22 Q99 -6 111 3 Q117 8 123.5 11 Q130 14 138 15 Q146 16 152.5 12 Q159 8 157 -1 Q155 -11 147 -9 Q140 -9 135.5 -11.5 Q131 -14 126 -18 Q115 -27 102.5 -40 Q90 -53 78.5 -67.5 Q67 -82 58.5 -96 Q50 -110 49 -120 Q47 -136 59.5 -142 Q72 -148 89.5 -148.5 Q107 -149 125 -146 Q143 -143 152 -141 Q187 -131 218 -116.5 Q249 -102 278 -79 Q313 -50 330.5 -10 Q348 30 331 80 Q309 136 263 179 Q217 222 163 261 Q148 272 130.5 283 Q113 294 96 307 Q79 320 64 334.5 Q49 349 37 366 Q16 401 31 440 Q39 461 56 480.5 Q73 500 94 517.5 Q115 535 138.5 550.5 Q162 566 183 578 Q297 648 431 678 Q452 682 476.5 685.5 Q501 689 525 689 Q549 689 571.5 684 Q594 679 612 668 Z " />
<glyph glyph-name="U" unicode="U" horiz-adv-x="455" d="M329 307 Q298 250 266.5 194.5 Q235 139 203 89 Q192 74 180 57 Q168 40 153.5 24 Q139 8 123.5 -4.5 Q108 -17 90 -24 Q70 -32 54.5 -25 Q39 -18 30 2 Q24 16 22 35.5 Q20 55 20.5 76.5 Q21 98 23 120 Q25 142 28 161 Q39 224 57 284.5 Q75 345 98 405 Q104 421 111 436 Q118 451 125 466 Q132 482 145 478 Q153 476 153.5 467.5 Q154 459 147 456 Q144 453 144 451 Q125 407 109 363 Q93 319 80 273 Q63 215 53 161 Q43 107 45 53 Q47 40 49 28.5 Q51 17 56 7 Q63 -6 78 -1 Q102 8 127 35 Q152 62 175 95 Q198 128 216.5 160.5 Q235 193 246 213 Q277 267 306.5 321 Q336 375 365 429 Q391 476 415 522 Q439 568 464 615 Q467 621 472 627 Q477 633 485 630 Q496 624 493 612 Q491 604 488 595.5 Q485 587 482 579 Q428 425 391 265.5 Q354 106 343 -43 Q343 -52 343.5 -62 Q344 -72 349 -77 Q354 -87 348 -93 Q340 -101 332 -94 Q324 -87 322 -80 Q316 -54 318.5 -29 Q321 -4 323 18 Q337 143 362.5 260.5 Q388 378 426 489 L329 307 Z " />
<glyph glyph-name="T" unicode="T" horiz-adv-x="366" d="M588 649 Q590 640 585 636 Q580 631 573.5 635 Q567 639 560 639 Q480 635 389 617 Q354 610 319.5 603.5 Q285 597 250 589 Q224 480 201.5 369 Q179 258 159 139 Q148 79 138.5 19.5 Q129 -40 122 -100 Q122 -112 112 -112 Q107 -112 103 -108.5 Q99 -105 99 -99 Q99 -89 100.5 -71.5 Q102 -54 104.5 -34 Q107 -14 110.5 8 Q114 30 117 50 Q127 111 138.5 173 Q150 235 163 300.5 Q176 366 190.5 435.5 Q205 505 220 583 Q117 562 19.5 530 Q-78 498 -179 467 Q-183 465 -186 467.5 Q-189 470 -190.5 474.5 Q-192 479 -190.5 483.5 Q-189 488 -183 491 Q-133 508 -84 526.5 Q-35 545 19 560 Q100 585 184 603 Q268 621 363 639 Q409 647 455 655 Q501 663 551 665 Q562 665 572.5 662.5 Q583 660 588 649 Z " />
<glyph glyph-name="W" unicode="W" horiz-adv-x="628" d="M658 667 Q664 668 667.5 665 Q671 662 672.5 657 Q674 652 674 646.5 Q674 641 673 637 Q669 620 665.5 604 Q662 588 658 572 Q637 491 615.5 420 Q594 349 568 273 Q548 218 523 161.5 Q498 105 470 54 Q463 42 454 27 Q445 12 434.5 -2 Q424 -16 413 -27.5 Q402 -39 391 -45 Q380 -50 368 -48 Q356 -46 349 -30 Q344 -19 342.5 -2 Q341 15 341.5 35 Q342 55 343.5 75.5 Q345 96 347 114 Q348 130 350.5 151.5 Q353 173 354.5 195 Q356 217 356.5 236.5 Q357 256 355 269 Q343 254 332.5 240.5 Q322 227 312 211 Q293 179 274 145.5 Q255 112 236 80 Q216 47 195.5 15 Q175 -17 150 -47 Q135 -65 115 -84 Q95 -103 69 -108 Q40 -114 24 -90 Q15 -77 10.5 -60 Q6 -43 5 -25.5 Q4 -8 5.5 10 Q7 28 10 44 Q19 113 37 178.5 Q55 244 77 309 Q89 343 101 377 Q113 411 126 445 Q128 452 133.5 455.5 Q139 459 145 455 Q154 452 150 441 Q133 396 118 351 Q103 306 86 256 Q72 211 60.5 166.5 Q49 122 40 76 Q37 59 34 37.5 Q31 16 31 -5 Q31 -26 33.5 -44.5 Q36 -63 43 -74 Q52 -87 66 -83 Q92 -75 112.5 -51.5 Q133 -28 152 -3 Q174 26 193 57.5 Q212 89 230 121 Q250 154 268.5 187 Q287 220 309 252 Q316 262 326.5 275 Q337 288 346 293 Q355 298 364 295.5 Q373 293 376 284 Q382 264 382 234.5 Q382 205 379 176 Q375 143 372 106.5 Q369 70 367 38 Q367 36 367 27 Q367 18 367.5 7.5 Q368 -3 369.5 -12 Q371 -21 375 -24 Q379 -24 386.5 -17.5 Q394 -11 402 -1.5 Q410 8 418 19 Q426 30 431 39 Q456 81 477 124 Q498 167 516 212 Q531 248 547.5 295 Q564 342 580 392 Q596 442 610.5 491.5 Q625 541 635 582 Q639 596 642 611.5 Q645 627 648 642 Q649 647 649 656 Q649 665 658 667 Z " />
<glyph glyph-name="V" unicode="V" horiz-adv-x="433" d="M39 290 Q43 319 47 346 Q51 373 56 401 Q56 413 66 413 Q71 413 75 410 Q79 407 79 402 Q78 394 77.5 387 Q77 380 76 372 Q74 349 70.5 326.5 Q67 304 64 281 Q56 212 48.5 151 Q41 90 37 27 Q36 7 36 -16 Q36 -39 38 -58.5 Q40 -78 43.5 -92 Q47 -106 53 -108 Q58 -109 68.5 -95.5 Q79 -82 91.5 -62.5 Q104 -43 116 -21.5 Q128 0 136 14 Q179 97 222.5 170 Q266 243 309.5 310.5 Q353 378 397.5 442 Q442 506 489 571 Q500 586 512.5 602 Q525 618 535 624 Q546 630 552 619 Q555 614 552 608 Q549 602 544 597 Q539 592 534 587 Q529 582 526 578 Q433 451 349.5 324.5 Q266 198 191 60 Q171 25 152.5 -8.5 Q134 -42 114 -77 Q103 -94 92 -108 Q81 -122 66 -130 Q47 -139 33.5 -125.5 Q20 -112 17 -95 Q12 -75 10.5 -55 Q9 -35 9 -15 Q10 68 19 142.5 Q28 217 39 290 Z " />
<glyph glyph-name="X" unicode="X" horiz-adv-x="433" d="M585 704 Q590 697 586.5 692.5 Q583 688 579 683 Q488 589 399 485.5 Q310 382 226 276 Q240 208 255.5 140.5 Q271 73 288 7 Q292 -10 298 -26 Q301 -34 295.5 -38.5 Q290 -43 282 -40 Q278 -38 274.5 -31 Q271 -24 268.5 -15.5 Q266 -7 263.5 1.5 Q261 10 260 15 Q246 74 232.5 132.5 Q219 191 205 251 Q137 170 74 87.5 Q11 5 -49 -83 Q-59 -98 -69.5 -113 Q-80 -128 -91 -144 Q-94 -150 -98 -155 Q-102 -160 -109 -158 Q-117 -156 -116.5 -147.5 Q-116 -139 -111 -132 Q-97 -109 -82 -86.5 Q-67 -64 -51 -41 Q6 43 69 123 Q132 203 198 281 Q194 301 189 333.5 Q184 366 179.5 399.5 Q175 433 171 462 Q167 491 165 503 Q164 510 168 514.5 Q172 519 177 520 Q186 520 188 509 Q196 458 203 408.5 Q210 359 221 309 Q299 402 379.5 498 Q460 594 547 685 Q552 691 557 695 Q562 699 567 704 Q571 708 576 708.5 Q581 709 585 704 Z " />
<glyph glyph-name="Y" unicode="Y" horiz-adv-x="356" d="M378 544 Q336 493 298 446.5 Q260 400 218 352 Q205 337 192 322.5 Q179 308 166 296 Q153 284 140 276 Q127 268 115 267 Q94 265 83.5 280 Q73 295 71 314 Q68 341 71.5 371.5 Q75 402 81 429 Q83 435 87.5 439 Q92 443 99 440 Q106 437 105 428 Q100 405 98 382.5 Q96 360 95 337 Q95 332 95 324.5 Q95 317 96.5 309.5 Q98 302 100.5 296.5 Q103 291 108 290 Q114 289 123 294.5 Q132 300 142.5 308.5 Q153 317 162.5 327.5 Q172 338 180 346 Q209 376 235.5 408.5 Q262 441 288 473 Q316 508 342.5 542.5 Q369 577 397 612 Q404 621 412.5 630.5 Q421 640 427 645 Q434 650 441 646 Q449 641 447 632.5 Q445 624 442 617 Q429 591 415.5 564 Q402 537 389 509 Q367 464 346 419 Q325 374 305 328 Q260 226 223 123.5 Q186 21 152 -85 Q146 -104 141 -124 Q136 -144 131 -164 Q130 -172 127.5 -182.5 Q125 -193 117 -193 Q110 -193 107.5 -189.5 Q105 -186 104 -180.5 Q103 -175 104 -169.5 Q105 -164 105 -161 Q109 -139 115 -118 Q121 -97 128 -76 Q147 -16 167.5 41.5 Q188 99 208 157 Q240 242 276 325 Q312 408 351 489 Q356 500 364.5 516.5 Q373 533 378 544 Z " />
<glyph glyph-name="Z" unicode="Z" horiz-adv-x="402" d="M-24 -24 Q14 -4 56.5 8.5 Q99 21 138 30 Q149 33 172 37.5 Q195 42 219 44 Q243 46 262.5 44 Q282 42 285 30 Q287 22 282 18 Q276 13 270 16 Q263 20 256.5 20.5 Q250 21 243 20 Q188 15 134.5 3.5 Q81 -8 29 -28 Q8 -36 -12 -46 Q-32 -56 -52 -67 Q-58 -70 -67 -73 Q-76 -76 -82 -70 Q-87 -66 -84 -59 Q-81 -52 -76 -44 Q-55 -17 -31.5 8 Q-8 33 16 57 Q62 103 109 146.5 Q156 190 205 232 Q247 268 287.5 304 Q328 340 367 379 Q393 405 417.5 432 Q442 459 465 488 Q469 493 472.5 499 Q476 505 478 510 Q480 516 474.5 519 Q469 522 461.5 522.5 Q454 523 446 523 Q438 523 434 523 Q374 519 318 506 Q262 493 206 472 Q192 467 176.5 459.5 Q161 452 146.5 444 Q132 436 121 426.5 Q110 417 106 407 Q102 399 112 393 Q118 389 120 385 Q122 379 118 374.5 Q114 370 107 371 Q95 373 86.5 383.5 Q78 394 80 408 Q86 431 107 446.5 Q128 462 145 472 Q196 496 257 514 Q318 532 375 542 Q410 547 435.5 548.5 Q461 550 484 544 Q511 534 503 507 Q498 492 486.5 475.5 Q475 459 461 442 Q447 425 431.5 409 Q416 393 404 380 Q369 344 332 310.5 Q295 277 257 244 Q206 199 155.5 154.5 Q105 110 56 62 Q35 40 14 18.5 Q-7 -3 -24 -24 Z " />
<glyph glyph-name="bracketleft" unicode="&#x5b;" horiz-adv-x="170" d="M152 548 Q165 546 162 536 Q159 526 151 525 Q144 525 141.5 525 Q139 525 137 517 Q111 414 89.5 310.5 Q68 207 51 99 Q64 99 77 100 Q90 101 104 102 Q109 102 116 100 Q123 98 123 90 Q123 87 120.5 82 Q118 77 110 77 Q77 74 44 74 Q33 73 28 79 Q23 85 25 96 Q38 183 55.5 271 Q73 359 97 462 Q102 482 108 501 Q114 520 119 539 Q122 550 131.5 550 Q141 550 152 548 Z " />
<glyph glyph-name="backslash" unicode="&#x5c;" horiz-adv-x="149" d="M118 114 Q120 106 118 101 Q116 96 108 94 Q96 94 93 107 Q79 176 67.5 243.5 Q56 311 43 380 Q38 409 32.5 437.5 Q27 466 22 495 Q22 497 21.5 499 Q21 501 22 503 Q24 514 36 512 Q42 510 44 502 Q49 479 53.5 456 Q58 433 63 410 Q78 337 91 263.5 Q104 190 118 114 Z " />
<glyph glyph-name="bracketright" unicode="&#x5d;" horiz-adv-x="198" d="M157 541 Q184 544 181 518 Q179 504 177.5 491 Q176 478 173 465 Q165 427 155.5 388.5 Q146 350 138 311 Q130 278 124.5 244.5 Q119 211 112 177 Q109 160 105.5 142.5 Q102 125 99 108 Q95 82 67 76 Q63 75 60 74 Q57 73 53 73 Q41 71 39 82 Q37 96 49 97 Q54 99 64 101 Q72 104 73 111 Q75 122 77.5 133 Q80 144 82 155 Q90 197 97.5 237.5 Q105 278 113 320 Q120 350 127.5 380 Q135 410 142 440 Q146 458 149 476.5 Q152 495 156 513 L156 516 Q150 515 144.5 515 Q139 515 134 514 Q129 513 123.5 513 Q118 513 113 513 Q102 513 100 522 Q98 534 111 536 Q122 537 132 538 Q142 539 152 540 Q154 541 157 541 Z " />
<glyph glyph-name="asciicircum" unicode="&#x5e;" horiz-adv-x="136" d="M121 638 Q113 635 107 641 Q104 644 101.5 647 Q99 650 96 653 Q93 657 88 654 Q81 649 74 642.5 Q67 636 59 634 Q51 632 48 640 Q44 647 53 655 Q60 661 65.5 666 Q71 671 79 676 Q94 687 110 674 Q115 670 118 666 Q121 662 125 657 Q128 652 127 646 Q126 640 121 638 Z " />
<glyph glyph-name="underscore" unicode="&#x5f;" horiz-adv-x="228" d="M47 223 Q40 224 35.5 227 Q31 230 33 238 Q36 246 46 246 Q76 248 101 248.5 Q126 249 160 250 Q171 251 182 251 Q193 251 204 251 Q217 251 217 239 Q217 228 204 226 Q194 226 180 225.5 Q166 225 152 225 L47 223 Z " />
<glyph glyph-name="grave" unicode="&#x60;" horiz-adv-x="94" d="M76 625 Q82 612 72 607 Q61 602 55 615 Q53 620 49.5 627.5 Q46 635 40 638 Q33 643 37 651 Q40 659 49 659 Q58 659 62 651 Q66 644 69.5 638 Q73 632 76 625 Z " />
<glyph glyph-name="a" unicode="a" horiz-adv-x="186" d="M8 201 Q-17 198 -22 223 Q-24 231 -22 241.5 Q-20 252 -18 260 Q-10 283 2.5 304.5 Q15 326 35 345 Q48 356 66 361.5 Q84 367 96 352 Q100 347 100 340.5 Q100 334 93 332 Q85 330 81 335 Q76 341 67.5 337 Q59 333 54 328 Q15 289 3 243 Q2 240 1.5 232.5 Q1 225 3 224 Q10 222 20 229.5 Q30 237 40.5 246.5 Q51 256 60 266 Q69 276 72 279 Q89 296 101 311 Q113 326 129 340 Q138 349 148 345 Q159 340 157 326 Q156 318 155 311.5 Q154 305 152 297 Q144 256 135 219 Q126 182 119 144 Q115 125 101 130 Q91 133 93 146 Q101 186 109 224 Q117 262 127 300 Q117 289 103 273 Q89 257 73 241.5 Q57 226 40 214.5 Q23 203 8 201 Z " />
<glyph glyph-name="b" unicode="b" horiz-adv-x="164" d="M25 297 Q24 293 24 292 Q24 291 22 280 Q29 293 42 306.5 Q55 320 71 328 Q88 337 103 334 Q116 331 124.5 320.5 Q133 310 135 296 Q137 279 133.5 264 Q130 249 123 234 Q115 218 100.5 201.5 Q86 185 64 185 Q49 187 42 197 Q36 208 44 215 Q53 222 61 213 Q66 210 72 212.5 Q78 215 82 219 Q95 233 102.5 250.5 Q110 268 110 290 Q109 303 101.5 307 Q94 311 83 306 Q75 302 69 296.5 Q63 291 58 285 Q36 259 26 229 Q17 205 9.5 181 Q2 157 -2 131 Q-4 119 -14 121 Q-26 121 -26.5 132.5 Q-27 144 -25 152 Q-19 187 -13.5 221 Q-8 255 -2 290 Q0 298 1 304 Q2 310 4 319 Q14 371 26.5 425.5 Q39 480 52 531 Q61 565 69.5 595.5 Q78 626 90 660 Q97 677 105.5 696 Q114 715 130 728 Q149 744 169 727 Q188 710 191.5 680 Q195 650 192 624 Q184 558 159 498.5 Q134 439 94 385 Q79 364 62.5 345 Q46 326 30 306 Q28 304 27 302 Q26 300 25 297 Z M96 595 Q92 581 85 556 Q78 531 69.5 498.5 Q61 466 52 429 Q43 392 35 354 Q51 371 67.5 391 Q84 411 96 432 Q118 467 134 503 Q150 539 160 579 Q166 601 168 623.5 Q170 646 168 668 Q168 672 167 679.5 Q166 687 163.5 693.5 Q161 700 158 705 Q155 710 150 710 Q142 710 135 697.5 Q128 685 123 674 Q107 633 96 595 Z " />
<glyph glyph-name="c" unicode="c" horiz-adv-x="184" d="M-18 234 Q-17 248 -14 263.5 Q-11 279 -5 290 Q1 303 9.5 317 Q18 331 28.5 343 Q39 355 51.5 363.5 Q64 372 78 374 Q96 376 105 364.5 Q114 353 112 339 Q111 331 102 329 Q93 329 90 338 Q89 343 87.5 347.5 Q86 352 80 350 Q61 342 47.5 326.5 Q34 311 25 294 Q17 277 10.5 258 Q4 239 7 222 Q8 217 12 215.5 Q16 214 21 214.5 Q26 215 31.5 216.5 Q37 218 40 220 Q55 228 70 235 Q85 242 99 250 L184 300 Q198 295 197 287.5 Q196 280 193 277 Q190 275 187 273.5 Q184 272 182 270 Q164 259 141.5 246 Q119 233 97.5 221 Q76 209 57 200.5 Q38 192 27 191 Q1 189 -8.5 202.5 Q-18 216 -18 234 Z " />
<glyph glyph-name="d" unicode="d" horiz-adv-x="176" d="M231 744 Q238 743 241.5 737.5 Q245 732 245.5 724.5 Q246 717 245.5 709.5 Q245 702 245 697 Q239 652 226 610.5 Q213 569 198 527 Q183 484 165 443.5 Q147 403 129 361 Q125 353 124.5 346 Q124 339 123 332 Q120 260 118.5 188 Q117 116 120 38 Q120 36 120.5 33.5 Q121 31 121 29 Q119 20 111 18 Q106 17 102 19 Q98 21 97 25 Q94 38 92.5 56 Q91 74 91 103 Q91 148 92 193 Q93 238 95 286 Q90 275 80 260 Q70 245 58 231 Q46 217 32.5 206.5 Q19 196 6 194 Q-2 193 -8.5 196.5 Q-15 200 -18 209 Q-21 218 -20.5 232 Q-20 246 -15.5 262 Q-11 278 -3.5 293.5 Q4 309 13 320 Q36 348 71 352 Q84 354 95 347 Q97 351 98.5 354.5 Q100 358 100 362 Q108 435 121 496 Q134 557 148 603 Q151 612 158.5 635.5 Q166 659 177 683 Q188 707 201.5 725.5 Q215 744 231 744 Z M84 322 Q85 327 81 328 Q67 331 51.5 320 Q36 309 28 298 Q18 284 12.5 269 Q7 254 5 238 Q4 233 4 229 Q4 225 4 220 Q14 224 22 231 Q30 238 36 244 Q51 262 62 282 Q73 302 84 322 Z M192 587 Q202 617 211 653 Q220 689 222 711 Q211 694 199 667 Q187 640 177 611 Q163 569 154.5 530 Q146 491 139 448 Q154 482 167 517 Q180 552 192 587 Z " />
<glyph glyph-name="e" unicode="e" horiz-adv-x="228" d="M17 269 Q12 245 25.5 232.5 Q39 220 78 224 Q106 229 131 240.5 Q156 252 180 267 L228 300 Q245 293 243 285 Q241 277 234 272 Q220 262 207.5 254 Q195 246 180 237 Q158 224 135.5 214.5 Q113 205 87 200 Q69 197 51 198.5 Q33 200 16 208 Q0 216 -6 232.5 Q-12 249 -10 266 Q-1 337 72 365 Q94 373 107 361.5 Q120 350 118 331 Q115 304 94.5 283.5 Q74 263 48 259 Q40 258 31 260.5 Q22 263 17 269 Z M93 333 Q95 347 81 342 Q45 328 27 297 Q25 294 28 291 Q35 282 49 284 Q66 287 78.5 301 Q91 315 93 333 Z " />
<glyph glyph-name="g" unicode="g" horiz-adv-x="251" d="M262 281 Q260 277 256.5 274.5 Q253 272 251 270 Q223 250 198 231.5 Q173 213 145 193 Q136 145 124.5 95.5 Q113 46 99 -1 Q81 -57 60 -115.5 Q39 -174 -1 -221 Q-13 -236 -31.5 -251 Q-50 -266 -71.5 -276.5 Q-93 -287 -116.5 -291 Q-140 -295 -162 -287 Q-185 -279 -197 -262 Q-209 -245 -212.5 -223.5 Q-216 -202 -212.5 -178.5 Q-209 -155 -201 -133 Q-178 -73 -132.5 -21 Q-87 31 -32 83 Q3 115 43.5 147.5 Q84 180 122 208 Q125 237 129 260 Q132 280 134 296 Q136 312 137 314 Q119 287 100 267 Q81 247 56 224 Q48 217 39 211.5 Q30 206 20 202 Q0 195 -12.5 203.5 Q-25 212 -24 232 Q-22 259 -9 285.5 Q4 312 28 327 Q59 344 84 324 Q95 315 88 306 Q85 302 80 302 Q75 302 72 305 Q64 311 56.5 310.5 Q49 310 41.5 305 Q34 300 27.5 293 Q21 286 17 279 Q12 269 8 260 Q4 251 2 240 Q1 237 1 231.5 Q1 226 3 224 Q5 222 9.5 223.5 Q14 225 16 227 Q22 231 28 235 Q34 239 40 244 Q63 263 81.5 285 Q100 307 117 330 Q122 337 126 343 Q130 349 135 356 Q139 362 144.5 364 Q150 366 154.5 364.5 Q159 363 162.5 358.5 Q166 354 165 346 Q162 317 159 288 Q156 259 151 230 Q153 230 165 239 Q177 248 192.5 259.5 Q208 271 224.5 282.5 Q241 294 251 300 Q259 297 261.5 291.5 Q264 286 262 281 Z M107 134 Q109 143 111 152.5 Q113 162 115 171 Q98 158 77.5 142 Q57 126 40 112 Q11 88 -22 59 Q-55 30 -85 -3 Q-115 -36 -140.5 -72.5 Q-166 -109 -180 -148 Q-185 -161 -188 -179 Q-191 -197 -189 -214 Q-187 -231 -178 -245 Q-169 -259 -149 -264 Q-120 -270 -89 -256 Q-58 -242 -36 -221 Q-15 -202 0.5 -177 Q16 -152 28 -125 Q40 -98 49.5 -69.5 Q59 -41 68 -13 Q92 59 107 134 Z " />
<glyph glyph-name="h" unicode="h" horiz-adv-x="144" d="M75 378 Q63 356 53.5 340.5 Q44 325 28 301 Q23 275 17.5 253 Q12 231 10 217 Q17 231 28 247.5 Q39 264 51 280 Q63 296 75 310 Q87 324 98 333 Q106 338 114.5 335 Q123 332 124 323 Q125 307 124 289 Q123 271 120.5 253.5 Q118 236 116 220.5 Q114 205 114 195 Q114 182 104 180 Q93 177 90.5 188 Q88 199 89 208 Q91 230 94.5 252.5 Q98 275 100 303 Q83 279 66 253 Q49 227 32 201 Q23 187 16 170 Q9 153 1 138 Q-3 133 -7.5 128 Q-12 123 -21 127 Q-28 130 -27.5 140.5 Q-27 151 -25 160 Q-21 186 -17.5 207 Q-14 228 -10.5 248 Q-7 268 -3 289.5 Q1 311 7 338 Q16 380 26.5 420 Q37 460 48 501 Q54 523 62 550.5 Q70 578 80.5 605.5 Q91 633 104.5 657.5 Q118 682 133 698 Q143 708 153.5 706.5 Q164 705 169 693 Q173 682 173.5 667.5 Q174 653 172.5 637.5 Q171 622 167.5 606 Q164 590 160 577 Q143 525 122 475.5 Q101 426 75 378 Z M55 432 Q51 418 45.5 396.5 Q40 375 36 360 Q41 368 45 375.5 Q49 383 52 388 Q78 436 99.5 486 Q121 536 137 589 Q143 611 146.5 635 Q150 659 148 679 Q141 671 134 659 Q127 647 121 633.5 Q115 620 110.5 608.5 Q106 597 104 591 Q88 550 77.5 514 Q67 478 55 432 Z " />
<glyph glyph-name="f" unicode="f" horiz-adv-x="144" d="M105 509 Q83 465 65.5 420.5 Q48 376 35 329 Q33 324 31.5 316 Q30 308 28 300.5 Q26 293 25 287 Q24 281 24 280 Q25 280 32.5 284 Q40 288 50.5 292.5 Q61 297 72.5 302.5 Q84 308 92 311 Q103 316 114 315 Q123 313 123 306 Q123 298 121.5 294.5 Q120 291 112 291 Q106 291 104 289 Q97 286 87.5 281.5 Q78 277 69 273 Q60 269 53.5 266 Q47 263 47 263 Q74 256 90 241.5 Q106 227 113.5 206 Q121 185 121 158.5 Q121 132 115 101 Q107 62 91 20 Q75 -22 43 -51 Q33 -60 17 -64 Q1 -68 -10 -52 Q-21 -36 -24.5 -4 Q-28 28 -27.5 64 Q-27 100 -24 135 Q-21 170 -18 191 Q-9 256 6.5 318.5 Q22 381 47 442 Q50 448 57 464.5 Q64 481 73 500 Q82 519 91.5 537.5 Q101 556 108 567 Q110 571 115 572 Q120 573 124 571 Q133 566 128 556 Q122 544 116.5 532 Q111 520 105 509 Z M67 226 Q55 234 43 237.5 Q31 241 17 245 Q10 206 5.5 166.5 Q1 127 -1 82 Q-1 61 -0.5 40 Q0 19 2 -2 Q2 -5 3 -12 Q4 -19 6 -25 Q8 -31 11.5 -35.5 Q15 -40 20 -38 Q24 -37 29.5 -31 Q35 -25 40.5 -18 Q46 -11 49.5 -4 Q53 3 55 6 Q81 57 92 117 Q94 128 95 143.5 Q96 159 94.5 175 Q93 191 86.5 204.5 Q80 218 67 226 Z " />
<glyph glyph-name="i" unicode="i" horiz-adv-x="51" d="M-13 242 Q-8 264 -3 285 Q2 306 7 328 Q12 347 25 343 Q34 338 31 328 Q29 318 26.5 308.5 Q24 299 22 290 Q17 268 13.5 246.5 Q10 225 6 203 Q4 196 2 187.5 Q0 179 -6 179 Q-17 178 -20 188 Q-22 196 -19 212.5 Q-16 229 -13 242 Z M44 427 Q32 427 32 439 Q32 444 35.5 447 Q39 450 44 449 Q56 449 56 437 Q54 427 44 427 Z " />
<glyph glyph-name="j" unicode="j" horiz-adv-x="138" d="M138 300 Q149 297 150.5 291 Q152 285 147 278 Q144 274 128 262 Q112 250 91 235.5 Q70 221 47.5 207.5 Q25 194 10 187 Q5 164 -1 137.5 Q-7 111 -14 88 Q-30 35 -51 -14.5 Q-72 -64 -101 -112 Q-109 -123 -122 -139.5 Q-135 -156 -154.5 -172 Q-174 -188 -199 -201 Q-224 -214 -255 -218 Q-275 -220 -289.5 -216.5 Q-304 -213 -314 -207 Q-324 -201 -330 -193.5 Q-336 -186 -339 -180 Q-353 -150 -347 -116.5 Q-341 -83 -325 -51 Q-309 -19 -288 8.5 Q-267 36 -250 54 Q-215 90 -175.5 117.5 Q-136 145 -91 168 Q-73 176 -52 186.5 Q-31 197 -13 205 Q-8 236 -4.5 263 Q-1 290 2 317 Q3 324 5 328 Q7 332 15 332 Q26 329 25 315 Q22 291 19.5 263 Q17 235 16 219 Q33 228 54.5 242 Q76 256 95 269 Q117 284 138 300 Z M-25 144 Q-23 151 -22 158 Q-21 165 -19 173 Q-52 160 -87 141 Q-133 118 -173 88 Q-213 58 -247 19 Q-274 -12 -292 -46.5 Q-310 -81 -318 -121 Q-319 -127 -319.5 -137.5 Q-320 -148 -317.5 -159 Q-315 -170 -308 -179 Q-301 -188 -287 -192 Q-268 -197 -245 -191.5 Q-222 -186 -199.5 -172.5 Q-177 -159 -157 -140 Q-137 -121 -123 -99 Q-103 -67 -87 -32 Q-71 3 -57 39 Q-47 65 -39.5 91 Q-32 117 -25 144 Z M34 425 Q29 424 23.5 428 Q18 432 19 440 Q20 447 25 450.5 Q30 454 36 454 Q41 454 45 450.5 Q49 447 48 440 Q48 436 44.5 431 Q41 426 34 425 Z " />
<glyph glyph-name="k" unicode="k" horiz-adv-x="154" d="M191 659 Q194 644 191 623.5 Q188 603 182.5 582 Q177 561 170 541.5 Q163 522 156 507 Q138 469 119.5 433 Q101 397 78 362 Q66 344 53 327 Q40 310 27 293 Q25 288 24 281.5 Q23 275 21 269 Q27 273 38 281 Q49 289 61 297 Q73 305 82.5 312 Q92 319 94 320 Q104 328 111 320 Q114 317 114 312 Q114 307 109 304 Q103 299 91 290 Q79 281 65.5 271.5 Q52 262 40.5 254 Q29 246 23 242 Q21 240 17.5 236.5 Q14 233 15 230 Q19 230 31 231 Q43 232 56.5 233.5 Q70 235 83 236 Q96 237 103 238 Q114 239 118 234.5 Q122 230 122 225 Q122 214 109 212 Q108 212 94.5 211 Q81 210 64.5 208.5 Q48 207 32 206 Q16 205 10 204 Q6 176 1 144.5 Q-4 113 -9 85 Q-10 83 -13.5 77 Q-17 71 -28 74 Q-36 77 -34 86 Q-34 89 -31.5 107 Q-29 125 -25.5 145.5 Q-22 166 -19.5 183 Q-17 200 -17 201 Q-10 243 -4 276.5 Q2 310 10 343 Q17 376 26 413.5 Q35 451 47.5 489.5 Q60 528 77 565.5 Q94 603 118 636 Q126 647 136 658.5 Q146 670 160 675 Q171 680 179.5 675 Q188 670 191 659 Z M168 631 Q168 636 169 642 Q170 648 168 652 Q160 649 147.5 633 Q135 617 129 606 Q111 575 96.5 542.5 Q82 510 71 475 Q61 443 52 411.5 Q43 380 37 346 Q45 358 49.5 364.5 Q54 371 59 379 Q82 415 101 452.5 Q120 490 137 528 Q148 553 156 578.5 Q164 604 168 631 Z " />
<glyph glyph-name="l" unicode="l" horiz-adv-x="103" d="M-39 75 Q-31 135 -21.5 190.5 Q-12 246 0 301 Q7 337 19.5 386.5 Q32 436 48.5 485.5 Q65 535 85.5 577 Q106 619 129 639 Q140 649 151.5 645.5 Q163 642 167 628 Q170 613 168 593.5 Q166 574 160.5 553.5 Q155 533 148 513.5 Q141 494 134 478 Q115 436 93.5 396.5 Q72 357 48 319 Q37 302 27 286.5 Q17 271 15 253 Q7 211 1 174.5 Q-5 138 -10 101 Q-15 68 -19 35 Q-23 2 -27 -31 Q-31 -67 -34.5 -103 Q-38 -139 -40 -176 Q-40 -181 -39.5 -187 Q-39 -193 -38 -198 Q-36 -209 -45 -212 Q-50 -214 -54 -212.5 Q-58 -211 -60.5 -207 Q-63 -203 -64 -198.5 Q-65 -194 -65 -190 Q-66 -183 -65.5 -172.5 Q-65 -162 -64.5 -150 Q-64 -138 -62.5 -126 Q-61 -114 -60 -104 Q-54 -47 -49 -5 Q-44 37 -39 75 Z M146 621 Q141 620 135 611 Q129 602 122.5 590 Q116 578 110.5 565.5 Q105 553 101 544 Q92 523 81.5 494 Q71 465 62 437 Q53 409 46 385.5 Q39 362 36 350 Q48 370 60.5 391.5 Q73 413 84 433 Q98 461 111 489.5 Q124 518 134 548 Q136 555 139 566 Q142 577 144.5 588 Q147 599 147.5 608.5 Q148 618 146 621 Z " />
<glyph glyph-name="m" unicode="m" horiz-adv-x="293" d="M273 393 Q273 385 271 372.5 Q269 360 267 352 Q264 339 257.5 306 Q251 273 243.5 234.5 Q236 196 230 158.5 Q224 121 222 99 Q222 94 222.5 83.5 Q223 73 223 70 Q224 59 214 55 Q209 53 204.5 55 Q200 57 198 62 Q196 72 196 78 Q195 100 200 136.5 Q205 173 211.5 210.5 Q218 248 224.5 279.5 Q231 311 233 323 Q235 332 237.5 340.5 Q240 349 242 359 Q237 353 229 341 Q221 329 211 315 Q201 301 191 286.5 Q181 272 173 260 Q163 247 154 233 Q145 219 131 208 Q123 203 114.5 206 Q106 209 104 219 Q102 237 103.5 257 Q105 277 108 307 Q90 286 72 264.5 Q54 243 37 222 Q32 217 24.5 208.5 Q17 200 9 196 Q0 192 -7 196 Q-14 200 -14 209 Q-15 235 -7.5 269.5 Q0 304 8 336 Q10 344 14 352 Q18 360 27 357 Q37 354 34 342 Q30 324 26.5 306 Q23 288 19 271 Q16 255 13 234 Q13 234 21.5 244 Q30 254 42 268 Q54 282 66.5 297 Q79 312 88 323 Q91 327 98 333.5 Q105 340 112 343 Q118 345 124.5 343.5 Q131 342 133 334 Q134 329 134 318.5 Q134 308 133 295 Q132 282 130.5 268 Q129 254 128 242 Q132 246 141.5 259.5 Q151 273 161.5 289 Q172 305 182.5 319.5 Q193 334 198 342 Q202 348 208.5 357 Q215 366 221.5 375 Q228 384 234.5 392 Q241 400 247 405 Q256 412 264.5 408 Q273 404 273 393 Z " />
<glyph glyph-name="n" unicode="n" horiz-adv-x="245" d="M245 300 Q254 297 256 290 Q258 283 251 276 Q235 260 214.5 243.5 Q194 227 180 216 Q172 210 163 206 Q154 202 146 201.5 Q138 201 132 205 Q126 209 124 219 Q119 241 121 267 Q123 293 124 319 Q101 305 82 288.5 Q63 272 43 252 Q37 246 28.5 237.5 Q20 229 14 226 Q6 222 -1.5 226 Q-9 230 -9 239 Q-9 246 -8 254 Q-7 262 -5 270 Q-2 287 -0.5 299.5 Q1 312 5 329 Q7 334 11 337 Q15 340 20 339 Q25 338 28 334.5 Q31 331 30 326 Q28 311 25.5 295.5 Q23 280 19 265 Q39 285 64.5 308.5 Q90 332 119 344 Q128 348 135.5 344.5 Q143 341 146 333 Q148 327 148.5 321 Q149 315 149 310 Q149 301 148.5 287 Q148 273 147.5 260 Q147 247 147.5 237.5 Q148 228 150 227 Q153 225 166 234.5 Q179 244 195 257 Q211 270 225 282.5 Q239 295 245 300 Z " />
<glyph glyph-name="o" unicode="o" horiz-adv-x="115" d="M66 326 Q78 317 82 302.5 Q86 288 82 272 Q80 262 73.5 248.5 Q67 235 58 222 Q49 209 38 199.5 Q27 190 16 188 Q7 186 -1 189.5 Q-9 193 -13 202 Q-20 218 -17.5 237.5 Q-15 257 -12 269 Q-7 284 1.5 302 Q10 320 24 331 Q31 337 39 331 Q41 329 43 331 Q54 338 66 326 Z M58 277 Q60 290 58 295 Q56 300 53 302 Q50 304 46 303.5 Q42 303 38 306 Q35 308 34 309.5 Q33 311 31 307 Q9 270 6 223 Q6 219 6.5 214.5 Q7 210 9 209 Q16 211 22 217 Q48 240 58 277 Z " />
<glyph glyph-name="p" unicode="p" horiz-adv-x="205" d="M205 300 Q213 298 216 290 Q219 282 211 277 Q206 274 196 268.5 Q186 263 174 257 Q162 251 150.5 245 Q139 239 133 236 Q113 225 94 213.5 Q75 202 55 191 Q49 186 41 185.5 Q33 185 29 193 Q24 202 34 209 Q64 231 85 260 Q106 289 123 321 Q126 328 128.5 334.5 Q131 341 131 348 Q111 343 96.5 331 Q82 319 69 307 Q55 293 43 279 Q31 265 20 250 Q18 247 17 243.5 Q16 240 15 237 Q8 199 1.5 162.5 Q-5 126 -13 88 Q-17 68 -22 40 Q-27 12 -33.5 -15.5 Q-40 -43 -49 -66 Q-58 -89 -70 -98 Q-84 -109 -95 -98 Q-106 -87 -108 -74 Q-113 -55 -113 -36.5 Q-113 -18 -111 1 Q-103 69 -77.5 129.5 Q-52 190 -14 246 Q-10 253 -7.5 259 Q-5 265 -4 273 Q-1 293 1.5 313.5 Q4 334 7 354 Q11 383 14.5 391 Q18 399 26 399 Q36 399 36.5 391 Q37 383 37 376 Q35 356 32.5 340 Q30 324 26 299 Q48 324 71.5 343.5 Q95 363 121 371 Q139 376 149.5 366 Q160 356 156 337 Q153 323 147.5 311.5 Q142 300 134 288 Q129 279 123 270.5 Q117 262 112 254 L205 300 Z M-19 190 Q-22 185 -27.5 176 Q-33 167 -37 159 Q-71 91 -83 16 Q-87 -7 -87 -30.5 Q-87 -54 -82 -77 Q-68 -47 -61 -14 Q-54 19 -46 51 Q-41 77 -35.5 103.5 Q-30 130 -25 157 Q-23 165 -22 173.5 Q-21 182 -19 190 Z " />
<glyph glyph-name="q" unicode="q" horiz-adv-x="126" d="M135 436 Q143 433 142.5 426 Q142 419 139 411 Q87 280 56 146 Q45 96 35.5 47 Q26 -2 19 -53 Q14 -90 9.5 -127 Q5 -164 0 -201 Q-2 -214 -2.5 -227.5 Q-3 -241 -4 -254 Q-4 -261 -3 -268.5 Q-2 -276 -7 -280 Q-15 -285 -22 -279.5 Q-29 -274 -29 -264 Q-28 -213 -21 -155 Q-14 -97 -3 -25 Q8 40 21.5 103.5 Q35 167 52 230 Q48 225 43 217.5 Q38 210 32.5 203.5 Q27 197 20 192.5 Q13 188 4 188 Q-5 188 -9.5 193 Q-14 198 -16.5 205 Q-19 212 -19 219.5 Q-19 227 -19 232 Q-16 262 -5.5 287.5 Q5 313 25 333 Q36 342 48 342 Q60 342 67 331 Q68 330 68.5 328 Q69 326 70 325 Q83 350 94 374.5 Q105 399 116 425 Q118 430 123 434 Q128 438 135 436 Z M56 295 Q56 296 56.5 297 Q57 298 57 299 Q55 303 53 306.5 Q51 310 49 314 Q44 319 40 314.5 Q36 310 34 306 Q23 289 17 271 Q11 253 7 234 Q6 229 5.5 223.5 Q5 218 7 213 Q12 216 15.5 221 Q19 226 22 231 Q31 247 39.5 263 Q48 279 56 295 Z " />
<glyph glyph-name="r" unicode="r" horiz-adv-x="177" d="M144 322 Q155 317 153 308 Q152 303 148.5 300 Q145 297 140 298 Q134 299 127 302 Q120 305 112.5 307 Q105 309 98 309.5 Q91 310 85 306 Q74 298 63 284 Q52 270 44 258 Q33 239 26 227 Q19 215 8 196 Q3 189 -1 182.5 Q-5 176 -16 178 Q-26 180 -24 192 Q-22 204 -18 222 Q-12 250 -5.5 278 Q1 306 8 334 Q10 340 14.5 344 Q19 348 25 346 Q34 342 33 334 Q29 317 25 301 Q21 285 16 265 Q35 298 64 322 Q85 340 113 333 Q129 329 144 322 Z " />
<glyph glyph-name="s" unicode="s" horiz-adv-x="123" d="M102 311 Q100 302 89 302 Q79 302 79 311 Q78 317 78 323 Q78 329 77 335 Q75 346 68 344.5 Q61 343 53 338 Q31 322 25 294 Q22 277 31 260.5 Q40 244 47 230 Q71 186 44 145 Q37 135 27.5 124.5 Q18 114 6.5 106.5 Q-5 99 -17.5 95 Q-30 91 -43 94 Q-57 97 -63.5 105 Q-70 113 -72 121.5 Q-74 130 -73 137.5 Q-72 145 -71 148 Q-62 178 -45 208 Q-40 216 -30.5 218.5 Q-21 221 -18 211 Q-13 201 -23 194 L-26 191 Q-28 186 -33.5 175 Q-39 164 -43 151.5 Q-47 139 -47 129 Q-47 119 -38 117 Q-16 115 2 133.5 Q20 152 29 171 Q37 187 31 203 Q26 213 21.5 222.5 Q17 232 12 242 Q7 251 3.5 260.5 Q0 270 -1 281 Q-3 297 2.5 311 Q8 325 17 338 Q24 346 31.5 353 Q39 360 49 365 Q67 373 82.5 366.5 Q98 360 100 341 Q101 333 102 323.5 Q103 314 102 311 Z " />
<glyph glyph-name="u" unicode="u" horiz-adv-x="218" d="M173 364 Q182 368 189.5 363.5 Q197 359 196 349 Q195 343 194 338.5 Q193 334 191 326 Q178 284 167.5 239.5 Q157 195 151 146 Q150 142 146.5 138 Q143 134 137 134 Q129 134 126.5 140 Q124 146 125 151 Q130 194 140 236.5 Q150 279 163 323 Q145 307 124 289 Q103 271 85 255 Q79 250 70.5 244 Q62 238 52.5 233 Q43 228 32.5 225.5 Q22 223 13 225 Q-5 230 -7 252 Q-8 274 5 317 Q8 326 17 326 Q23 326 26 321.5 Q29 317 27 311 Q25 302 22.5 293 Q20 284 18 275 Q16 268 16 258 Q16 248 25 248 Q30 248 38.5 252.5 Q47 257 56 264 Q65 271 74.5 279.5 Q84 288 92 295 Q102 304 114 315 Q126 326 138 336 Q150 346 159.5 354 Q169 362 173 364 Z " />
<glyph glyph-name="t" unicode="t" horiz-adv-x="177" d="M177 300 Q187 298 190 293.5 Q193 289 192.5 284.5 Q192 280 190 276 Q188 272 187 271 Q161 226 134 186.5 Q107 147 78 105 Q48 63 22 63 Q5 63 -3.5 77 Q-12 91 -15.5 110 Q-19 129 -18.5 149 Q-18 169 -17 180 Q-13 227 -5.5 272.5 Q2 318 13 364 Q16 376 20 392.5 Q24 409 28 424 Q32 439 35.5 451.5 Q39 464 40 469 Q30 469 17 468.5 Q4 468 -9.5 467 Q-23 466 -35.5 464.5 Q-48 463 -57 462 Q-74 460 -91 457.5 Q-108 455 -125 453 Q-136 451 -148.5 449.5 Q-161 448 -172 452 Q-181 455 -182 463 Q-183 471 -175 476 Q-166 480 -159 476 Q-155 474 -153 474 Q-119 479 -85 483.5 Q-51 488 -14 491 Q0 493 16.5 493.5 Q33 494 47 495 Q51 508 58 529.5 Q65 551 74 576 Q83 601 93.5 627.5 Q104 654 116 677 Q128 700 140.5 717 Q153 734 166 741 Q180 748 190.5 745 Q201 742 205 727 Q209 708 206 682.5 Q203 657 195.5 630 Q188 603 178.5 576.5 Q169 550 161 531 Q158 524 152.5 512.5 Q147 501 146 499 Q147 499 160.5 499 Q174 499 192 499 Q210 499 229 499 Q248 499 262 499 Q272 499 285 498.5 Q298 498 311 496.5 Q324 495 335.5 492.5 Q347 490 354 486 Q356 484 358.5 481.5 Q361 479 361 477 Q362 471 357 467 Q352 463 345 465 Q334 470 323 471 Q312 472 300 473 Q257 475 217 474 Q177 473 133 473 Q120 448 105 422.5 Q90 397 74 374 Q66 362 57.5 350.5 Q49 339 41 328 L29 313 Q27 311 27 308 Q23 285 19 261 Q15 237 12 213 Q11 208 9.5 188 Q8 168 8 145.5 Q8 123 11.5 104.5 Q15 86 24 85 Q30 85 41 97.5 Q52 110 65 129 Q78 148 93.5 172 Q109 196 124 220 Q139 244 152.5 265 Q166 286 177 300 Z M131 645 Q114 610 100 572 Q86 534 75 496 Q81 497 94 496.5 Q107 496 117 498 Q135 533 150.5 573.5 Q166 614 175 652 Q178 668 181.5 686.5 Q185 705 180 722 Q165 707 153.5 687 Q142 667 131 645 Z M67 471 Q59 444 54 423 Q49 405 45 388.5 Q41 372 40 370 Q44 375 52 386.5 Q60 398 69 412.5 Q78 427 87.5 442.5 Q97 458 104 472 Q102 472 88 471.5 Q74 471 67 471 Z " />
<glyph glyph-name="v" unicode="v" horiz-adv-x="222" d="M229 288 Q229 283 224 277.5 Q219 272 202 271 Q181 270 162 272 Q143 274 122 280 Q114 282 112 281.5 Q110 281 106 275 Q100 265 87.5 245.5 Q75 226 62 205.5 Q49 185 37.5 168.5 Q26 152 21 148 Q11 140 2.5 144 Q-6 148 -8 162 Q-10 175 -9.5 193 Q-9 211 -7.5 230 Q-6 249 -4.5 267 Q-3 285 -1 298 Q1 308 1 313.5 Q1 319 3 324 Q4 330 8.5 332 Q13 334 18 333 Q29 331 27 319 Q22 288 20 255.5 Q18 223 16 180 Q33 208 50 236 Q67 264 87 292 Q102 313 126 305 Q146 299 162.5 297.5 Q179 296 196 296 Q204 296 214 298 Q218 299 222 300 Q229 297 229 288 Z " />
<glyph glyph-name="w" unicode="w" horiz-adv-x="228" d="M4 231 Q15 241 31 255.5 Q47 270 61 279 Q82 293 93 271 Q96 265 98 255.5 Q100 246 103.5 238 Q107 230 112.5 225 Q118 220 127 222 Q141 226 149.5 234.5 Q158 243 165 255 Q174 271 179 294.5 Q184 318 179 336 Q176 346 186 352 Q191 354 196.5 352.5 Q202 351 204 346 Q206 340 206 328.5 Q206 317 204.5 304.5 Q203 292 200.5 279 Q198 266 194 257 Q191 249 184 238.5 Q177 228 167 219 Q157 210 144.5 204 Q132 198 117 198 Q104 199 96 205 Q88 211 83.5 219.5 Q79 228 76.5 238 Q74 248 71 257 Q63 250 54.5 242 Q46 234 37.5 226.5 Q29 219 20.5 213 Q12 207 5 204 Q-5 200 -12 205.5 Q-19 211 -21 222 Q-22 231 -19 245 Q-16 259 -10.5 275 Q-5 291 2 306.5 Q9 322 15 334 Q21 345 31 342 Q43 338 38 326 Q35 319 32.5 314.5 Q30 310 29 307 Q25 298 20.5 286 Q16 274 12.5 262.5 Q9 251 6.5 242.5 Q4 234 4 231 Z " />
<glyph glyph-name="x" unicode="x" horiz-adv-x="151" d="M28 281 Q28 282 35 288.5 Q42 295 52 304 Q62 313 73 322 Q84 331 93 337 Q103 344 112.5 347.5 Q122 351 132 340 Q140 331 133 319 Q128 312 121.5 313.5 Q115 315 113 322 Q112 321 110.5 320 Q109 319 108 318 Q88 303 69.5 285 Q51 267 34 250 Q38 233 42 218 Q45 205 48.5 191 Q52 177 54 168 Q57 152 47 149 Q35 146 30 160 Q28 168 25 179.5 Q22 191 19.5 201.5 Q17 212 15 219.5 Q13 227 13 228 Q12 228 -0.5 214.5 Q-13 201 -30 181 Q-47 161 -65.5 139 Q-84 117 -97 101 Q-100 96 -103 91.5 Q-106 87 -106 82 Q-106 72 -114 69 Q-118 67 -121.5 69 Q-125 71 -127 74 Q-132 84 -128 95.5 Q-124 107 -117 116 Q-107 128 -88.5 149.5 Q-70 171 -51 193.5 Q-32 216 -15.5 234 Q1 252 6 258 Q4 274 1 289 Q-1 302 -3 315.5 Q-5 329 -7 339 Q-9 346 -5.5 349.5 Q-2 353 3 354 Q7 355 10.5 353 Q14 351 15 345 Q16 339 17.5 329.5 Q19 320 21 310.5 Q23 301 24.5 292.5 Q26 284 28 281 Z " />
<glyph glyph-name="y" unicode="y" horiz-adv-x="223" d="M137 295 Q134 291 130.5 286 Q127 281 124 276 Q114 262 103 247.5 Q92 233 79 220 Q72 213 64.5 206.5 Q57 200 48.5 196 Q40 192 31.5 191.5 Q23 191 14 196 Q6 200 2.5 210 Q-1 220 -2.5 232 Q-4 244 -4 255.5 Q-4 267 -3 273 Q-2 287 -0.5 296 Q1 305 3 316 Q4 323 9.5 326.5 Q15 330 20 326 Q27 322 25 314 Q24 307 23 300.5 Q22 294 21 287 Q19 273 18.5 259 Q18 245 20 231 Q23 209 40 220 Q45 223 50.5 228 Q56 233 61 238 Q76 253 88.5 270 Q101 287 113 304 Q121 318 129 331.5 Q137 345 145 359 Q146 361 147 362.5 Q148 364 149 366 Q156 376 165 373 Q176 369 175.5 359.5 Q175 350 173 342 Q168 321 162.5 292 Q157 263 151.5 236.5 Q146 210 142 190.5 Q138 171 138 170 Q141 172 149.5 180 Q158 188 163 191 Q173 198 180 195 Q187 192 189 184 Q190 176 183 172 Q169 162 154.5 149.5 Q140 137 128 126 Q117 88 108.5 49.5 Q100 11 88 -27 Q74 -66 58 -104 Q42 -142 21 -177 Q1 -209 -25 -236 Q-51 -263 -87 -271 Q-111 -276 -130.5 -265 Q-150 -254 -157 -230 Q-162 -208 -160.5 -187.5 Q-159 -167 -153 -146 Q-142 -113 -124.5 -85 Q-107 -57 -84 -32 Q-38 16 10 57.5 Q58 99 105 140 Q107 152 111.5 173 Q116 194 121 217 Q126 240 130.5 261 Q135 282 137 295 Z M96 99 Q91 95 84 88 Q77 81 71 76 Q46 54 22 33 Q-2 12 -26 -10 Q-45 -27 -63 -45.5 Q-81 -64 -95 -86 Q-111 -109 -122 -134.5 Q-133 -160 -135 -189 Q-136 -200 -135 -210 Q-134 -220 -130 -230 Q-122 -246 -108 -247.5 Q-94 -249 -76 -240 Q-55 -229 -39 -213 Q-23 -197 -9 -178 Q22 -129 42 -78 Q49 -61 57 -36.5 Q65 -12 72.5 13.5 Q80 39 86.5 62 Q93 85 96 99 Z " />
<glyph glyph-name="z" unicode="z" horiz-adv-x="229" d="M104 317 Q96 317 90 316.5 Q84 316 79 315 Q66 312 49 306 Q32 300 18 291 Q7 284 2 293 Q-5 302 5 309 Q12 314 19.5 317.5 Q27 321 35 325 Q41 328 50.5 331 Q60 334 70 336 Q80 338 90 339 Q100 340 108 339 Q119 336 124.5 327.5 Q130 319 126 308 Q115 286 94 262.5 Q73 239 52 222 Q45 217 34.5 208 Q24 199 22 197 Q68 183 93 139 Q93 140 105.5 154.5 Q118 169 135 189.5 Q152 210 170.5 232 Q189 254 202 269 Q205 273 209.5 278.5 Q214 284 219 289 Q224 294 229 300 Q238 297 241.5 292.5 Q245 288 244.5 283.5 Q244 279 241.5 275.5 Q239 272 238 271 Q206 236 176 200 Q146 164 117 128 Q115 126 113.5 123.5 Q112 121 110 119 Q107 116 105 113 Q115 87 119.5 57 Q124 27 122 -2 Q119 -47 107.5 -88.5 Q96 -130 79 -171 Q63 -208 44 -242 Q25 -276 -1 -307 Q-8 -315 -18.5 -326.5 Q-29 -338 -43 -348.5 Q-57 -359 -74 -366 Q-91 -373 -110 -373 Q-147 -373 -158 -338 Q-165 -317 -163 -293.5 Q-161 -270 -154.5 -247.5 Q-148 -225 -139 -205 Q-130 -185 -124 -171 Q-102 -127 -75.5 -86.5 Q-49 -46 -20 -7 Q3 23 28 55.5 Q53 88 76 117 Q68 134 56.5 147 Q45 160 28 168 Q22 170 15 172 Q8 174 1 176 Q-7 178 -11.5 183 Q-16 188 -14 194 Q-13 199 -10.5 202.5 Q-8 206 -6 208 Q4 216 11 221 Q18 226 26 233 Q43 248 60 263.5 Q77 279 92 297 Q99 305 104 317 Z M87 90 Q82 83 73 72.5 Q64 62 54.5 49.5 Q45 37 35 24 Q25 11 17 0 Q-11 -36 -36.5 -73 Q-62 -110 -84 -150 Q-92 -164 -102 -184.5 Q-112 -205 -120.5 -228.5 Q-129 -252 -134 -276.5 Q-139 -301 -136 -323 Q-132 -350 -105 -347 Q-93 -346 -82 -341 Q-71 -336 -61 -329 Q-41 -315 -25.5 -297 Q-10 -279 3 -259 Q66 -165 90 -52 Q98 -17 98 19 Q98 55 87 90 Z " />
<glyph glyph-name="braceleft" unicode="&#x7b;" horiz-adv-x="139" d="M4 96 Q4 113 6.5 129.5 Q9 146 13 163 Q16 178 19 193 Q22 208 24 222 Q25 234 25.5 250 Q26 266 17 275 Q4 284 12 299 Q23 313 31 327 Q39 341 43 358 Q47 377 50 395.5 Q53 414 58 433 Q62 450 67 466 Q72 482 81 497 Q90 511 101.5 523.5 Q113 536 130 531 Q139 526 142 518 Q147 510 139 504 Q130 499 124 506 Q120 509 117 506 Q110 499 106 491 Q102 483 97 474 Q89 456 85 437.5 Q81 419 77 400 Q73 384 70 368.5 Q67 353 63 338 Q59 315 41 294 Q37 291 40 287 Q45 282 46 275.5 Q47 269 49 262 Q52 239 49 217 Q46 195 41 172 Q37 155 34.5 138.5 Q32 122 29 105 Q28 97 28.5 88 Q29 79 33 71 Q35 66 33.5 62 Q32 58 28 56 Q17 51 11 60 Q6 68 5 77.5 Q4 87 4 96 Z " />
<glyph glyph-name="bar" unicode="&#x7c;" horiz-adv-x="127" d="M101 527 Q111 524 109 514 Q107 502 100 464.5 Q93 427 83.5 378.5 Q74 330 63.5 276 Q53 222 44 177 Q35 132 28.5 102 Q22 72 22 71 Q19 59 8 63 Q-2 65 -2 77 Q-2 79 5 112.5 Q12 146 22 195 Q32 244 43.5 301 Q55 358 65 406.5 Q75 455 81.5 487.5 Q88 520 88 520 Q92 531 101 527 Z " />
<glyph glyph-name="braceright" unicode="&#x7d;" horiz-adv-x="132" d="M116 463 Q116 434 112 411 Q108 388 103 365 Q101 357 99 349 Q97 341 95 333 Q89 311 99 287 Q104 278 102.5 273 Q101 268 92 262 Q76 251 74 228 Q72 208 69.5 188 Q67 168 65 148 Q59 110 39 74 Q37 70 29 64 Q22 60 16 68 Q10 75 15 83 Q27 102 34 127 Q37 139 38.5 151.5 Q40 164 42 176 Q44 193 46 209 Q48 225 51 242 Q54 265 72 278 Q75 281 74 284 Q67 298 67 312.5 Q67 327 71 342 Q76 362 79.5 381 Q83 400 87 420 Q93 452 89 481 Q88 485 86 491 Q83 502 73 502 Q61 502 61 513 Q61 522 74 524 Q97 526 106 504 Q112 493 113.5 481.5 Q115 470 116 463 Z " />
<glyph glyph-name="asciitilde" unicode="&#x7e;" horiz-adv-x="178" d="M111 247 Q99 247 89 257 L80 266 Q79 266 77.5 267.5 Q76 269 74 268 Q65 262 57 249 Q50 239 42 244 Q38 246 36.5 250.5 Q35 255 38 260 Q43 271 51.5 279.5 Q60 288 70 291 Q83 296 94 287 L106 275 Q110 271 115 274 Q117 276 120 277.5 Q123 279 125 281 Q130 284 135 284 Q140 284 143 279 Q146 275 145.5 270 Q145 265 140 261 Q134 256 127 251.5 Q120 247 111 247 Z " />
<glyph glyph-name="s_t" unicode="&#xfb06;" horiz-adv-x="184" d="M349 486 Q353 483 354 478.5 Q355 474 352.5 470 Q350 466 346 464.5 Q342 463 337 466 Q330 471 320.5 470 Q311 469 303 468 Q283 466 262 464.5 Q241 463 221 461 Q205 430 188 399 Q171 368 149 334 Q144 326 138 316 Q132 306 120 287 Q118 277 116.5 268 Q115 259 113 249 Q105 191 102.5 132.5 Q100 74 102 15 Q102 4 91 4 Q79 4 79 15 Q79 23 78.5 30 Q78 37 78 45 Q76 157 93 267 Q85 259 77.5 252 Q70 245 62 237 Q54 230 46 223 Q38 216 29 209 Q26 207 23.5 205 Q21 203 18 201 Q16 198 15 195 Q14 192 12 190 Q8 185 1 182 Q-6 179 -12 185 Q-19 192 -15.5 200 Q-12 208 -5 213 Q-4 213 -3 214 Q0 226 0 238 Q1 258 -0.5 280 Q-2 302 5 322 Q9 333 20 342.5 Q31 352 45 349 Q52 347 56 341.5 Q60 336 61 329.5 Q62 323 59.5 316 Q57 309 51 306 Q47 304 43 305.5 Q39 307 36.5 310 Q34 313 34 317.5 Q34 322 38 325 Q39 330 35.5 328.5 Q32 327 28 317 Q23 306 22.5 295.5 Q22 285 22 272 Q22 264 22.5 255 Q23 246 23 234 Q58 263 87 293 Q90 297 93.5 300.5 Q97 304 100 308 Q108 344 117 379.5 Q126 415 138 450 Q136 449 134 449 Q132 449 130 448 Q103 443 76.5 437.5 Q50 432 24 423 Q19 421 15 423.5 Q11 426 10 431 Q7 441 18 445 Q32 450 46 454 Q60 458 75 461 Q92 465 110.5 468.5 Q129 472 147 474 Q152 487 157 499 Q162 511 167 524 Q175 543 187 564 Q199 585 214 601 Q220 607 228.5 611.5 Q237 616 246 613 Q254 610 256 603 Q258 596 258 588 Q257 569 252.5 549.5 Q248 530 241 511 Q236 497 231 485 Q252 487 273 488.5 Q294 490 314 492 Q324 493 332.5 492 Q341 491 349 486 Z M193 458 Q185 456 178.5 455.5 Q172 455 164 454 Q146 404 133 352 L193 458 Z M223 529 Q228 543 231 557.5 Q234 572 235 589 Q228 584 223 577 Q218 570 213 562 Q201 542 191 521 Q181 500 173 478 Q181 479 189.5 480 Q198 481 206 482 L223 529 Z " />
<glyph glyph-name="exclam" unicode="&#x21;" horiz-adv-x="151" d="M128 539 Q138 537 136 526 Q120 445 103.5 363 Q87 281 72 187 Q70 179 65 176.5 Q60 174 54 177 Q47 180 47 192 Q63 282 78 361 Q93 440 112 525 Q113 527 113 528.5 Q113 530 114 532 Q119 542 128 539 Z M40 105 Q47 107 49.5 101 Q52 95 53 89 Q53 80 45 78 Q40 76 35 80 Q30 84 28 91 Q27 96 30.5 100.5 Q34 105 40 105 Z " />
<glyph glyph-name="quotedbl" unicode="&#x22;" horiz-adv-x="144" d="M81 585 Q91 583 89 570 Q85 556 82 542 Q79 528 75 511 Q73 504 67.5 498 Q62 492 53 497 Q46 502 49 510 L67 576 Q71 588 81 585 Z M123 580 Q129 582 133.5 577.5 Q138 573 136 567 Q133 556 130.5 545.5 Q128 535 124 524 Q122 518 116.5 513 Q111 508 104 512 Q98 517 99 524 Q101 533 104.5 545.5 Q108 558 113 571 Q117 579 123 580 Z " />
<glyph glyph-name="numbersign" unicode="&#x23;" horiz-adv-x="346" d="M282 358 Q290 357 305 356.5 Q320 356 328 351 Q343 343 336 330 Q334 326 329 325 Q324 324 321 326 Q318 328 310 329 Q302 330 294 331 Q284 332 273 332 Q269 323 265.5 313 Q262 303 258 294 Q263 292 277 290 Q291 288 299 285 Q315 279 310 265 Q308 260 304 257.5 Q300 255 296 258 Q293 260 285 261.5 Q277 263 269 265 Q259 267 249 268 Q241 245 232 220 Q223 195 215 172 Q213 166 211 164 Q205 155 195 161 Q191 163 189.5 167.5 Q188 172 190 177 Q198 200 206.5 224 Q215 248 223 271 Q214 272 204 272 Q194 272 186 272 L166 272 Q159 250 152 226.5 Q145 203 139 181 Q136 173 134.5 164 Q133 155 131 147 Q129 137 120 137 Q110 137 107 147 Q105 153 106 158 Q107 163 109 168 Q112 180 116.5 195 Q121 210 125 224.5 Q129 239 132.5 251 Q136 263 138 268 Q134 268 118 264.5 Q102 261 91 258 Q89 258 87 256 Q78 250 71 258 Q66 266 70.5 273.5 Q75 281 84 281 Q98 285 115 289.5 Q132 294 147 296 Q149 301 152.5 313 Q156 325 157 327 Q147 325 129 322.5 Q111 320 97 318 Q92 317 88 316 Q84 315 79 313 Q70 310 66 317 Q60 325 67 331 Q74 337 80 339 Q86 341 100 344 Q114 347 128 349 Q145 352 165 354 Q166 355 169.5 363.5 Q173 372 177.5 383 Q182 394 186 405 Q190 416 193 423 Q195 428 199.5 431.5 Q204 435 210 432 Q219 427 215 416 Q210 402 203.5 387 Q197 372 192 355 Q192 355 199.5 355.5 Q207 356 217 356 Q227 356 237.5 356.5 Q248 357 255 357 Q259 365 263 374 Q266 381 269.5 389 Q273 397 275 402 Q282 415 293 407 Q298 405 299 400 Q300 395 297 391 Q296 389 293.5 384.5 Q291 380 289 374.5 Q287 369 285 364 Q283 359 282 358 Z M245 331 Q243 331 233 330.5 Q223 330 212 329 Q199 328 182 328 Q181 323 178.5 313 Q176 303 174 298 Q188 299 205 298.5 Q222 298 233 297 Q235 303 239 314 Q243 325 245 331 Z " />
</font>
</svg>
