<?xml version="1.0" encoding="UTF-8"?>
<svg xmlns="http://www.w3.org/2000/svg" xmlns:xlink="http://www.w3.org/1999/xlink" version="1.2" >
<font id="Qulliness Swash">
<font-face  font-family="Qulliness Swash" units-per-em="1000" ascent="750" descent="-250" font-style="normal" font-weight="400" font-stretch="normal" cap-height="700" x-height="500" underline-position="-75" underline-thickness="50" />
<missing-glyph  horiz-adv-x="500" d="" />
<glyph glyph-name="NULL" d="" />
<glyph glyph-name="CR" unicode="&#xd;" horiz-adv-x="500" d="" />
<glyph glyph-name="space" unicode="&#x20;" horiz-adv-x="500" d="" />
<glyph glyph-name="A" unicode="A" horiz-adv-x="932" d="M879 -134 C843 -95 785 -81 734 -72 C674 -61 613 -58 552 -59 C430 -61 307 -79 190 -113 C162 -122 134 -132 106 -143 C93 -148 80 -154 67 -160 C58 -164 45 -171 52 -183 C59 -195 74 -185 83 -180 C93 -175 104 -171 115 -166 C143 -155 172 -145 201 -136 C319 -102 443 -85 565 -84 C624 -84 684 -85 742 -99 C793 -110 822 -120 851 -142 C858 -147 865 -159 875 -154 C883 -150 885 -140 879 -134 L879 -134 Z " />
<glyph glyph-name="B" unicode="B" horiz-adv-x="756" d="M738 -62 C677 -19 595 -16 524 -29 C505 -32 486 -38 467 -44 C458 -47 449 -51 441 -55 C438 -56 436 -58 434 -59 C428 -59 423 -51 419 -48 C404 -38 385 -36 368 -35 C347 -34 327 -36 307 -39 C225 -49 146 -75 68 -101 C58 -104 49 -107 39 -111 C31 -114 18 -116 12 -122 C8 -127 8 -134 13 -139 C19 -146 27 -141 35 -139 C74 -125 114 -112 154 -100 C198 -87 242 -75 287 -67 C305 -64 410 -49 410 -73 C411 -75 402 -87 401 -90 C398 -103 411 -116 424 -108 C429 -104 433 -99 435 -93 C436 -89 436 -87 439 -84 C442 -82 447 -80 450 -78 C463 -72 477 -67 491 -63 C551 -45 620 -40 680 -61 C695 -66 710 -74 723 -82 C738 -92 753 -73 738 -62 L738 -62 Z M381 -61 C380 -61 380 -61 380 -61 C381 -61 382 -61 381 -61 L381 -61 Z " />
<glyph glyph-name="C" unicode="C" horiz-adv-x="836" d="M796 -100 C788 -91 777 -87 766 -83 C753 -79 741 -75 728 -72 C701 -66 674 -62 647 -59 C592 -55 537 -57 483 -64 C427 -70 372 -81 318 -94 C264 -107 210 -119 155 -123 C129 -124 100 -126 75 -118 C68 -116 62 -114 60 -106 C60 -99 55 -95 48 -95 C29 -96 36 -121 45 -130 C59 -143 81 -146 100 -148 C154 -153 209 -143 262 -132 C316 -121 370 -107 424 -97 C532 -79 645 -72 751 -104 C759 -107 770 -109 777 -117 C770 -120 765 -122 764 -128 C763 -133 766 -141 772 -143 C780 -146 791 -138 796 -132 C805 -123 803 -110 796 -100 L796 -100 Z " />
<glyph glyph-name="D" unicode="D" horiz-adv-x="851" d="M795 -88 C707 -88 77 -95 56 -95 C43 -95 37 -91 28 -91 C19 -90 9 -94 10 -104 C10 -120 30 -119 41 -119 C126 -118 759 -113 780 -113 C796 -113 801 -118 814 -117 C821 -116 827 -110 826 -103 C826 -87 806 -89 795 -88 L795 -88 Z " />
<glyph glyph-name="E" unicode="E" horiz-adv-x="797" d="M764 -90 C715 -76 662 -74 610 -75 C556 -75 502 -79 447 -83 C341 -92 233 -108 126 -106 C104 -106 82 -105 60 -101 C52 -99 41 -94 34 -99 C30 -103 28 -110 30 -115 C34 -124 48 -124 56 -126 C68 -128 80 -129 93 -130 C118 -132 144 -132 170 -131 C278 -127 385 -113 493 -105 C546 -101 600 -98 654 -100 C677 -101 701 -103 723 -106 C730 -107 736 -109 742 -110 C748 -111 754 -114 761 -114 C767 -115 772 -110 773 -104 C774 -98 771 -92 764 -90 L764 -90 Z " />
<glyph glyph-name="F" unicode="F" horiz-adv-x="895" d="M846 -47 C844 -29 817 -38 805 -39 C785 -41 766 -42 746 -44 C706 -47 666 -49 626 -52 C546 -56 466 -59 386 -60 C310 -61 231 -63 156 -51 C147 -49 131 -41 123 -48 C114 -55 118 -66 126 -70 C142 -77 165 -78 182 -80 C201 -82 220 -83 239 -83 C329 -88 419 -86 509 -82 C419 -97 330 -115 242 -137 C199 -148 156 -160 114 -173 C94 -179 75 -185 55 -192 C47 -195 36 -197 34 -207 C34 -216 42 -221 50 -220 C59 -220 69 -214 78 -211 C89 -207 100 -203 111 -200 C132 -193 152 -187 173 -181 C216 -169 260 -158 304 -148 C390 -128 477 -112 564 -98 C613 -90 663 -83 713 -76 C738 -73 764 -70 789 -67 C803 -65 848 -68 846 -47 L846 -47 Z " />
<glyph glyph-name="G" unicode="G" horiz-adv-x="901" d="M853 -194 C699 -151 540 -129 381 -114 C450 -112 519 -108 588 -102 C622 -99 656 -96 690 -91 C705 -88 720 -86 735 -82 C744 -80 766 -78 769 -66 C776 -40 737 -56 728 -58 C695 -66 661 -70 628 -73 C559 -81 489 -85 419 -88 C351 -91 282 -92 213 -93 C179 -93 144 -93 109 -93 C93 -93 76 -92 59 -92 C49 -92 36 -100 45 -112 C53 -121 77 -118 88 -119 C106 -119 124 -120 142 -121 C175 -123 209 -125 243 -128 C312 -133 382 -139 451 -146 C528 -155 604 -166 680 -180 C717 -187 754 -195 791 -204 C801 -206 810 -208 820 -211 C829 -213 840 -218 849 -219 C865 -220 869 -199 853 -194 L853 -194 Z " />
<glyph glyph-name="H" unicode="H" horiz-adv-x="871" d="M83 -122 C82 -121 82 -122 83 -122 L83 -122 L83 -122 Z M808 -88 C703 -86 597 -89 493 -98 C393 -107 294 -125 195 -136 C169 -138 142 -142 116 -139 C105 -138 85 -132 83 -123 C81 -115 86 -107 84 -99 C80 -86 65 -87 59 -98 C48 -122 66 -149 88 -158 C113 -169 144 -165 171 -163 C205 -160 238 -156 272 -151 C404 -132 536 -116 670 -113 C708 -112 746 -112 784 -112 C794 -112 813 -117 819 -106 C823 -98 817 -88 808 -88 L808 -88 Z " />
<glyph glyph-name="I" unicode="I" horiz-adv-x="869" d="M824 -106 C823 -100 820 -92 814 -89 C808 -87 800 -89 798 -95 C794 -104 801 -115 798 -125 C799 -122 794 -130 792 -132 C788 -134 784 -136 780 -138 C756 -146 727 -144 702 -143 C647 -142 591 -137 535 -134 C422 -126 308 -123 195 -130 C166 -132 138 -134 110 -137 C97 -138 84 -140 71 -141 C62 -142 42 -140 38 -152 C29 -178 87 -164 98 -163 C126 -160 154 -158 182 -156 C294 -148 406 -150 518 -157 C580 -162 642 -168 705 -168 C745 -169 836 -171 824 -106 L824 -106 Z " />
<glyph glyph-name="J" unicode="J" horiz-adv-x="841" d="M804 -126 C725 -61 613 -68 519 -82 C418 -97 318 -126 216 -133 C172 -136 126 -135 85 -118 C76 -115 66 -108 57 -102 C51 -99 47 -95 40 -100 C35 -103 33 -109 35 -115 C40 -125 57 -132 66 -137 C80 -144 94 -149 109 -152 C172 -167 239 -158 302 -147 C370 -136 437 -121 505 -110 C562 -101 621 -94 679 -101 C706 -104 733 -112 758 -125 C768 -131 778 -141 789 -146 C801 -151 815 -135 804 -126 L804 -126 Z " />
<glyph glyph-name="K" unicode="K" horiz-adv-x="869" d="M800 -93 C689 -127 576 -137 461 -125 C356 -114 248 -87 144 -120 C119 -127 96 -138 74 -151 C67 -154 56 -159 56 -168 C56 -175 64 -184 73 -179 C85 -173 116 -157 126 -153 C148 -143 172 -137 195 -133 C298 -115 405 -148 508 -154 C572 -158 636 -154 699 -143 C731 -137 762 -130 793 -121 C802 -118 815 -117 815 -105 C815 -97 808 -90 800 -93 L800 -93 Z " />
<glyph glyph-name="L" unicode="L" horiz-adv-x="826" d="M787 -109 C747 -100 704 -106 664 -112 C642 -115 621 -119 600 -123 C590 -125 580 -127 571 -129 C567 -130 556 -134 553 -133 C551 -132 547 -125 544 -123 C517 -100 464 -106 431 -107 C388 -109 344 -113 300 -119 C257 -125 214 -132 170 -140 C149 -144 127 -148 106 -152 C85 -156 61 -157 41 -164 C34 -167 29 -176 34 -183 C39 -190 46 -189 53 -188 C75 -184 96 -179 118 -175 C161 -167 203 -159 247 -152 C295 -144 345 -138 394 -134 C435 -131 484 -125 524 -140 C501 -145 476 -148 453 -155 C441 -159 435 -175 450 -180 C459 -183 472 -180 481 -179 C492 -177 503 -175 514 -172 C523 -170 532 -167 540 -163 C551 -158 563 -156 575 -154 C623 -144 670 -134 719 -131 C737 -130 755 -129 773 -132 C780 -133 789 -136 794 -129 C798 -122 795 -111 787 -109 L787 -109 Z " />
<glyph glyph-name="M" unicode="M" horiz-adv-x="879" d="M837 -116 C818 -109 793 -111 772 -109 C750 -107 729 -104 707 -102 C663 -98 619 -94 576 -92 C532 -90 488 -89 444 -92 C411 -93 358 -92 333 -116 C330 -119 327 -126 325 -127 C322 -129 310 -125 307 -125 C297 -124 288 -122 278 -121 C256 -119 234 -117 213 -115 C172 -113 129 -111 90 -123 C82 -126 79 -137 85 -143 C91 -150 98 -146 106 -145 C123 -141 141 -139 159 -139 C208 -138 257 -144 304 -150 C317 -151 329 -152 340 -156 C349 -159 358 -162 367 -163 C378 -165 389 -166 401 -167 C410 -167 423 -169 432 -166 C446 -159 438 -144 426 -141 C403 -136 378 -135 355 -131 C393 -114 442 -116 483 -115 C533 -115 582 -117 632 -121 C675 -124 719 -128 762 -133 C784 -135 806 -138 828 -140 C835 -140 843 -141 846 -134 C851 -126 845 -118 837 -116 L837 -116 Z " />
<glyph glyph-name="N" unicode="N" horiz-adv-x="788" d="M212 -128 C212 -128 212 -128 212 -128 L212 -128 L212 -128 Z M751 -116 C744 -110 732 -110 723 -109 C713 -107 703 -105 693 -104 C612 -90 530 -77 447 -79 C427 -80 407 -81 387 -85 C370 -88 351 -94 338 -106 C335 -109 332 -114 329 -117 C326 -120 329 -119 325 -118 C314 -114 301 -111 290 -110 C270 -106 251 -104 231 -103 C159 -101 79 -118 25 -170 C12 -182 30 -199 43 -187 C55 -176 68 -166 82 -159 C139 -129 207 -123 269 -132 C284 -134 298 -136 312 -140 C316 -142 320 -143 324 -145 C327 -147 328 -149 329 -153 C332 -158 337 -163 343 -166 C357 -171 368 -157 363 -144 C361 -140 358 -137 355 -134 C354 -133 350 -131 351 -129 C351 -128 354 -126 355 -125 C358 -122 359 -121 360 -121 C394 -104 433 -104 471 -104 C517 -105 563 -110 608 -116 C649 -121 691 -128 731 -136 C739 -137 748 -140 754 -132 C758 -127 757 -120 751 -116 L751 -116 Z " />
<glyph glyph-name="O" unicode="O" horiz-adv-x="784" d="M761 -96 C641 -78 518 -89 398 -102 C337 -109 277 -117 217 -125 C187 -129 156 -133 126 -137 C102 -139 73 -145 49 -140 C68 -120 107 -116 134 -114 C180 -109 225 -112 271 -113 C279 -113 289 -111 289 -101 C289 -90 278 -88 270 -88 C245 -85 220 -85 195 -85 C149 -86 97 -87 54 -107 C40 -114 20 -127 22 -146 C24 -167 52 -167 68 -166 C116 -165 165 -157 213 -150 C312 -137 411 -124 510 -117 C566 -113 621 -111 677 -113 C700 -114 723 -116 746 -119 C754 -120 763 -123 768 -115 C772 -109 769 -97 761 -96 L761 -96 Z " />
<glyph glyph-name="P" unicode="P" horiz-adv-x="812" d="M747 -95 C703 -78 651 -79 606 -82 C580 -83 555 -85 530 -89 C522 -90 512 -92 513 -103 C513 -114 523 -115 531 -114 C577 -110 622 -104 668 -106 C695 -108 734 -109 754 -128 C731 -134 701 -130 677 -129 C647 -128 616 -126 586 -123 C525 -119 465 -114 404 -111 C283 -105 160 -102 41 -127 C33 -129 30 -141 35 -147 C41 -153 50 -150 57 -149 C80 -145 103 -141 126 -139 C181 -133 237 -132 293 -133 C392 -134 491 -141 591 -148 C639 -152 688 -156 737 -155 C753 -154 781 -153 782 -132 C783 -113 762 -101 747 -95 L747 -95 Z " />
<glyph glyph-name="Q" unicode="Q" horiz-adv-x="647" d="M604 -132 C520 -107 432 -105 345 -111 C302 -114 259 -119 216 -125 C174 -132 132 -123 90 -125 C73 -125 49 -126 37 -139 C26 -151 30 -168 46 -172 C63 -176 86 -171 104 -168 C127 -165 149 -161 172 -157 C214 -150 260 -159 302 -162 C346 -166 390 -168 434 -167 C445 -167 457 -166 468 -166 C477 -165 489 -166 496 -161 C503 -156 502 -145 494 -140 C486 -136 469 -141 460 -141 C411 -144 363 -141 314 -138 C376 -132 438 -131 499 -137 C529 -140 558 -145 587 -153 C596 -155 606 -160 612 -149 C615 -142 612 -134 604 -132 L604 -132 Z " />
<glyph glyph-name="R" unicode="R" horiz-adv-x="657" d="M37 -152 C43 -163 54 -157 62 -154 C91 -145 120 -138 149 -134 C210 -124 272 -122 333 -124 C285 -130 237 -135 188 -135 C179 -135 162 -131 154 -136 C146 -141 146 -152 154 -157 C161 -162 173 -160 181 -160 C193 -160 204 -160 216 -160 C260 -158 304 -153 347 -148 C389 -142 434 -130 476 -135 C499 -137 522 -140 545 -142 C563 -144 586 -148 603 -143 C619 -138 622 -121 610 -110 C597 -97 573 -98 557 -98 C514 -99 473 -109 431 -106 C388 -102 344 -99 301 -99 C214 -98 126 -105 43 -134 C36 -137 33 -146 37 -152 L37 -152 Z " />
<glyph glyph-name="S" unicode="S" horiz-adv-x="662" d="M616 -135 C559 -134 502 -132 445 -130 C495 -123 545 -119 595 -112 C603 -111 611 -110 613 -101 C614 -92 608 -87 601 -86 C590 -85 575 -89 564 -90 C550 -92 536 -94 521 -95 C473 -101 424 -108 375 -114 C351 -117 327 -121 303 -124 C280 -127 256 -124 233 -123 C183 -123 133 -120 83 -125 C70 -127 45 -128 44 -146 C43 -169 77 -169 92 -170 C138 -171 186 -164 233 -158 C256 -155 280 -150 304 -151 C328 -151 353 -152 377 -153 C431 -155 486 -156 540 -158 C554 -158 568 -159 582 -159 C593 -159 609 -163 619 -160 C632 -156 630 -135 616 -135 L616 -135 Z " />
<glyph glyph-name="T" unicode="T" horiz-adv-x="641" d="M53 -176 C63 -178 79 -173 90 -172 C104 -171 118 -169 132 -168 C186 -162 240 -156 294 -150 C318 -147 342 -145 366 -142 C390 -139 414 -142 438 -143 C485 -146 533 -149 579 -144 C595 -143 628 -140 625 -117 C622 -99 598 -100 584 -99 C534 -98 484 -105 435 -110 C412 -112 388 -116 366 -115 C341 -114 317 -113 292 -111 C243 -109 194 -106 145 -104 C131 -103 117 -103 102 -102 C91 -102 76 -99 66 -101 C58 -103 53 -108 55 -116 C57 -126 66 -126 73 -126 C124 -129 174 -130 224 -133 C168 -139 111 -145 54 -151 C40 -152 39 -173 53 -176 L53 -176 Z " />
<glyph glyph-name="U" unicode="U" horiz-adv-x="598" d="M562 -109 C514 -101 464 -95 415 -99 C390 -101 366 -104 342 -111 C321 -117 301 -128 279 -135 C275 -111 237 -108 218 -106 C183 -103 148 -104 114 -108 C98 -110 38 -110 42 -136 C45 -157 104 -159 95 -135 C128 -131 161 -129 193 -130 C206 -130 246 -130 253 -139 C254 -140 255 -140 255 -141 C255 -141 255 -142 255 -142 C255 -143 255 -143 255 -143 C256 -149 262 -157 268 -160 C281 -166 297 -155 309 -150 C337 -137 368 -129 399 -125 C435 -121 472 -122 509 -126 C518 -128 527 -129 535 -130 C542 -131 553 -135 560 -134 C573 -132 576 -112 562 -109 L562 -109 Z " />
<glyph glyph-name="V" unicode="V" horiz-adv-x="512" d="M477 -124 C462 -113 443 -109 425 -107 C374 -100 323 -106 272 -112 C221 -118 175 -126 124 -132 C115 -133 104 -137 99 -136 C94 -134 89 -122 83 -117 C69 -108 50 -111 36 -120 C25 -127 11 -146 24 -158 C35 -169 61 -165 75 -163 C74 -171 70 -180 77 -187 C84 -193 94 -189 97 -181 C99 -176 99 -172 100 -166 C101 -160 97 -161 103 -160 C111 -158 148 -154 157 -153 C205 -146 254 -138 302 -133 C348 -129 399 -123 443 -135 C452 -138 463 -141 467 -150 C469 -153 468 -155 468 -158 C470 -167 477 -178 488 -169 C503 -158 487 -133 477 -124 L477 -124 Z M65 -137 L70 -139 C64 -139 58 -140 52 -140 C50 -140 62 -137 65 -137 L65 -137 Z " />
<glyph glyph-name="W" unicode="W" horiz-adv-x="628" d="M96 -137 C96 -138 95 -138 95 -139 C95 -139 96 -137 96 -137 L96 -137 Z M133 -124 C134 -123 134 -123 133 -124 L133 -124 L133 -124 Z M519 -92 C505 -83 486 -82 472 -92 C466 -97 462 -109 457 -111 C452 -112 443 -110 438 -110 C386 -105 335 -100 283 -96 C232 -93 180 -90 130 -99 C113 -102 93 -107 79 -119 C69 -128 55 -155 70 -165 C81 -173 88 -161 89 -152 C90 -150 89 -148 90 -145 C94 -135 105 -132 113 -129 C157 -114 208 -117 254 -119 C302 -122 351 -126 400 -131 C414 -132 428 -134 442 -135 C446 -135 451 -134 454 -136 C459 -138 456 -136 458 -141 C460 -146 459 -152 461 -156 C465 -164 475 -168 482 -161 C488 -154 484 -145 483 -138 C496 -138 522 -141 533 -130 C545 -117 531 -99 519 -92 L519 -92 Z M505 -113 C499 -113 492 -113 486 -113 L491 -110 C494 -111 506 -113 505 -113 L505 -113 Z M133 -124 C133 -124 132 -124 132 -124 C132 -124 133 -124 133 -124 L133 -124 Z " />
<glyph glyph-name="X" unicode="X" horiz-adv-x="519" d="M371 -79 C314 -74 256 -79 199 -89 C145 -98 91 -111 41 -133 C33 -137 20 -140 20 -151 C20 -164 33 -164 42 -161 C61 -153 79 -144 99 -138 C152 -121 207 -111 262 -105 C294 -103 326 -101 358 -103 C425 -106 456 -128 461 -154 C476 -164 482 -142 480 -131 C474 -86 405 -81 371 -79 L371 -79 Z " />
<glyph glyph-name="Y" unicode="Y" horiz-adv-x="510" d="M488 -139 C395 -99 283 -89 182 -96 C140 -99 82 -102 50 -132 C39 -142 25 -167 38 -180 C43 -184 51 -184 56 -180 C60 -177 59 -173 59 -169 C59 -141 120 -129 128 -127 C135 -126 142 -125 147 -124 C210 -115 280 -119 340 -127 C384 -133 433 -143 476 -160 C476 -160 476 -160 476 -160 C476 -160 476 -160 476 -160 C476 -160 476 -160 476 -161 C476 -161 476 -160 476 -160 C491 -167 503 -145 488 -139 L488 -139 Z " />
<glyph glyph-name="Z" unicode="Z" horiz-adv-x="678" d="M653 -104 C642 -103 630 -107 619 -109 C606 -111 593 -113 580 -115 C553 -119 526 -123 498 -127 C443 -136 388 -146 333 -150 C394 -135 457 -121 518 -105 C528 -102 539 -94 530 -83 C524 -76 513 -80 505 -81 C473 -85 440 -90 408 -95 C344 -106 280 -116 216 -127 C184 -132 153 -137 121 -143 C106 -145 91 -147 76 -150 C66 -152 44 -150 41 -164 C34 -192 106 -170 119 -168 C155 -162 192 -156 228 -150 C222 -154 221 -164 226 -169 C232 -175 247 -174 255 -175 C276 -177 298 -177 319 -175 C366 -173 413 -166 459 -159 C505 -152 551 -144 598 -137 C608 -136 618 -134 628 -133 C632 -132 638 -130 643 -130 C648 -131 648 -135 654 -134 C672 -131 672 -106 653 -104 L653 -104 Z " />
<glyph glyph-name="a" unicode="a" horiz-adv-x="908" d="M865 -110 C829 -71 771 -57 720 -48 C660 -37 599 -34 538 -35 C416 -37 293 -55 176 -89 C148 -98 120 -108 92 -119 C79 -124 66 -130 53 -136 C44 -140 31 -147 38 -159 C45 -171 60 -161 69 -156 C79 -151 90 -147 101 -142 C129 -131 158 -121 187 -112 C305 -78 429 -61 551 -60 C610 -60 670 -61 728 -75 C779 -86 808 -96 837 -118 C844 -123 851 -135 861 -130 C869 -126 871 -116 865 -110 L865 -110 Z " />
<glyph glyph-name="b" unicode="b" horiz-adv-x="833" d="M770 -84 C709 -41 627 -38 556 -51 C537 -54 518 -60 499 -66 C490 -69 481 -73 473 -77 C470 -78 468 -80 466 -81 C460 -81 455 -73 451 -70 C436 -60 417 -58 400 -57 C379 -56 359 -58 339 -61 C257 -71 178 -97 100 -123 C90 -126 81 -129 71 -133 C63 -136 50 -138 44 -144 C40 -149 40 -156 45 -161 C51 -168 59 -163 67 -161 C106 -147 146 -134 186 -122 C230 -109 274 -97 319 -89 C337 -86 442 -71 442 -95 C443 -97 434 -109 433 -112 C430 -125 443 -138 456 -130 C461 -126 465 -121 467 -115 C468 -111 468 -109 471 -106 L482 -100 C495 -94 509 -89 523 -85 C583 -67 652 -62 712 -83 C727 -88 742 -96 755 -104 C770 -114 785 -95 770 -84 L770 -84 L770 -84 Z M413 -83 C412 -83 412 -83 412 -83 C413 -83 414 -83 413 -83 L413 -83 Z " />
<glyph glyph-name="c" unicode="c" horiz-adv-x="833" d="M796 -100 C788 -91 777 -87 766 -83 C753 -79 741 -75 728 -72 C701 -66 674 -62 647 -59 C592 -55 537 -57 483 -64 C427 -70 372 -81 318 -94 C264 -107 210 -119 155 -123 C129 -124 100 -126 75 -118 C68 -116 62 -114 60 -106 C60 -99 55 -95 48 -95 C29 -96 36 -121 45 -130 C59 -143 81 -146 100 -148 C154 -153 209 -143 262 -132 C316 -121 370 -107 424 -97 C532 -79 645 -72 751 -104 C759 -107 770 -109 777 -117 C770 -120 765 -122 764 -128 C763 -133 766 -141 772 -143 C780 -146 791 -138 796 -132 C805 -123 803 -110 796 -100 L796 -100 Z " />
<glyph glyph-name="d" unicode="d" horiz-adv-x="833" d="M795 -88 C707 -88 77 -95 56 -95 C43 -95 37 -91 28 -91 C19 -90 9 -94 10 -104 C10 -120 30 -119 41 -119 C126 -118 759 -113 780 -113 C796 -113 801 -118 814 -117 C821 -116 827 -110 826 -103 C826 -87 806 -89 795 -88 L795 -88 Z " />
<glyph glyph-name="e" unicode="e" horiz-adv-x="833" d="M764 -90 C715 -76 662 -74 610 -75 C556 -75 502 -79 447 -83 C341 -92 233 -108 126 -106 C104 -106 82 -105 60 -101 C52 -99 41 -94 34 -99 C30 -103 28 -110 30 -115 C34 -124 48 -124 56 -126 C68 -128 80 -129 93 -130 C118 -132 144 -132 170 -131 C278 -127 385 -113 493 -105 C546 -101 600 -98 654 -100 C677 -101 701 -103 723 -106 L742 -110 C748 -111 754 -114 761 -114 C767 -115 772 -110 773 -104 C774 -98 771 -92 764 -90 L764 -90 Z " />
<glyph glyph-name="f" unicode="f" horiz-adv-x="891" d="M846 -47 C844 -29 817 -38 805 -39 L746 -44 L626 -52 C546 -56 466 -59 386 -60 C310 -61 231 -63 156 -51 C147 -49 131 -41 123 -48 C114 -55 118 -66 126 -70 C142 -77 165 -78 182 -80 C201 -82 220 -83 239 -83 C329 -88 419 -86 509 -82 C419 -97 330 -115 242 -137 C199 -148 156 -160 114 -173 C94 -179 75 -185 55 -192 C47 -195 36 -197 34 -207 C34 -216 42 -221 50 -220 C59 -220 69 -214 78 -211 C89 -207 100 -203 111 -200 C132 -193 152 -187 173 -181 C216 -169 260 -158 304 -148 C390 -128 477 -112 564 -98 C613 -90 663 -83 713 -76 L789 -67 C803 -65 848 -68 846 -47 L846 -47 Z " />
<glyph glyph-name="g" unicode="g" horiz-adv-x="900" d="M853 -194 C699 -151 540 -129 381 -114 C450 -112 519 -108 588 -102 C622 -99 656 -96 690 -91 C705 -88 720 -86 735 -82 C744 -80 766 -78 769 -66 C776 -40 737 -56 728 -58 C695 -66 661 -70 628 -73 C559 -81 489 -85 419 -88 C351 -91 282 -92 213 -93 L109 -93 C93 -93 76 -92 59 -92 C49 -92 36 -100 45 -112 C53 -121 77 -118 88 -119 C106 -119 124 -120 142 -121 C175 -123 209 -125 243 -128 C312 -133 382 -139 451 -146 C528 -155 604 -166 680 -180 C717 -187 754 -195 791 -204 C801 -206 810 -208 820 -211 C829 -213 840 -218 849 -219 C865 -220 869 -199 853 -194 L853 -194 Z " />
<glyph glyph-name="h" unicode="h" horiz-adv-x="866" d="M83 -122 C82 -121 82 -122 83 -122 L83 -122 L83 -122 Z M808 -88 C703 -86 597 -89 493 -98 C393 -107 294 -125 195 -136 C169 -138 142 -142 116 -139 C105 -138 85 -132 83 -123 C81 -115 86 -107 84 -99 C80 -86 65 -87 59 -98 C48 -122 66 -149 88 -158 C113 -169 144 -165 171 -163 C205 -160 238 -156 272 -151 C404 -132 536 -116 670 -113 C708 -112 746 -112 784 -112 C794 -112 813 -117 819 -106 C823 -98 817 -88 808 -88 L808 -88 Z " />
<glyph glyph-name="i" unicode="i" horiz-adv-x="833" d="M824 -106 C823 -100 820 -92 814 -89 C808 -87 800 -89 798 -95 C794 -104 801 -115 798 -125 C799 -122 794 -130 792 -132 L780 -138 C756 -146 727 -144 702 -143 C647 -142 591 -137 535 -134 C422 -126 308 -123 195 -130 C166 -132 138 -134 110 -137 L71 -141 C62 -142 42 -140 38 -152 C29 -178 87 -164 98 -163 C126 -160 154 -158 182 -156 C294 -148 406 -150 518 -157 C580 -162 642 -168 705 -168 C745 -169 836 -171 824 -106 L824 -106 Z " />
<glyph glyph-name="j" unicode="j" horiz-adv-x="833" d="M804 -126 C725 -61 613 -68 519 -82 C418 -97 318 -126 216 -133 C172 -136 126 -135 85 -118 C76 -115 66 -108 57 -102 C51 -99 47 -95 40 -100 C35 -103 33 -109 35 -115 C40 -125 57 -132 66 -137 C80 -144 94 -149 109 -152 C172 -167 239 -158 302 -147 C370 -136 437 -121 505 -110 C562 -101 621 -94 679 -101 C706 -104 733 -112 758 -125 C768 -131 778 -141 789 -146 C801 -151 815 -135 804 -126 L804 -126 Z " />
<glyph glyph-name="k" unicode="k" horiz-adv-x="833" d="M800 -93 C689 -127 576 -137 461 -125 C356 -114 248 -87 144 -120 C119 -127 96 -138 74 -151 C67 -154 56 -159 56 -168 C56 -175 64 -184 73 -179 C85 -173 116 -157 126 -153 C148 -143 172 -137 195 -133 C298 -115 405 -148 508 -154 C572 -158 636 -154 699 -143 C731 -137 762 -130 793 -121 C802 -118 815 -117 815 -105 C815 -97 808 -90 800 -93 L800 -93 Z " />
<glyph glyph-name="l" unicode="l" horiz-adv-x="833" d="M787 -109 C747 -100 704 -106 664 -112 C642 -115 621 -119 600 -123 L571 -129 C567 -130 556 -134 553 -133 C551 -132 547 -125 544 -123 C517 -100 464 -106 431 -107 C388 -109 344 -113 300 -119 C257 -125 214 -132 170 -140 L106 -152 C85 -156 61 -157 41 -164 C34 -167 29 -176 34 -183 C39 -190 46 -189 53 -188 L118 -175 C161 -167 203 -159 247 -152 C295 -144 345 -138 394 -134 C435 -131 484 -125 524 -140 C501 -145 476 -148 453 -155 C441 -159 435 -175 450 -180 C459 -183 472 -180 481 -179 C492 -177 503 -175 514 -172 C523 -170 532 -167 540 -163 C551 -158 563 -156 575 -154 C623 -144 670 -134 719 -131 C737 -130 755 -129 773 -132 C780 -133 789 -136 794 -129 C798 -122 795 -111 787 -109 L787 -109 Z " />
<glyph glyph-name="m" unicode="m" horiz-adv-x="883" d="M837 -116 C818 -109 793 -111 772 -109 L707 -102 C663 -98 619 -94 576 -92 C532 -90 488 -89 444 -92 C411 -93 358 -92 333 -116 C330 -119 327 -126 325 -127 C322 -129 310 -125 307 -125 L278 -121 L213 -115 C172 -113 129 -111 90 -123 C82 -126 79 -137 85 -143 C91 -150 98 -146 106 -145 C123 -141 141 -139 159 -139 C208 -138 257 -144 304 -150 C317 -151 329 -152 340 -156 C349 -159 358 -162 367 -163 C378 -165 389 -166 401 -167 C410 -167 423 -169 432 -166 C446 -159 438 -144 426 -141 C403 -136 378 -135 355 -131 C393 -114 442 -116 483 -115 C533 -115 582 -117 632 -121 C675 -124 719 -128 762 -133 L828 -140 C835 -140 843 -141 846 -134 C851 -126 845 -118 837 -116 L837 -116 Z " />
<glyph glyph-name="n" unicode="n" horiz-adv-x="896" d="M814 -116 C807 -110 795 -110 786 -109 C776 -107 766 -105 756 -104 C675 -90 593 -77 510 -79 C490 -80 470 -81 450 -85 C433 -88 414 -94 401 -106 L392 -117 C389 -120 392 -119 388 -118 C377 -114 364 -111 353 -110 C333 -106 314 -104 294 -103 C222 -101 142 -118 88 -170 C75 -182 93 -199 106 -187 C118 -176 131 -166 145 -159 C202 -129 270 -123 332 -132 C347 -134 361 -136 375 -140 L387 -145 C390 -147 391 -149 392 -153 C395 -158 400 -163 406 -166 C420 -171 431 -157 426 -144 C424 -140 421 -137 418 -134 C417 -133 413 -131 414 -129 C414 -128 417 -126 418 -125 C421 -122 422 -121 423 -121 C457 -104 496 -104 534 -104 C580 -105 626 -110 671 -116 C712 -121 754 -128 794 -136 C802 -137 811 -140 817 -132 C821 -127 820 -120 814 -116 L814 -116 Z " />
<glyph glyph-name="o" unicode="o" horiz-adv-x="833" d="M761 -96 C641 -78 518 -89 398 -102 C337 -109 277 -117 217 -125 L126 -137 C102 -139 73 -145 49 -140 C68 -120 107 -116 134 -114 C180 -109 225 -112 271 -113 C279 -113 289 -111 289 -101 C289 -90 278 -88 270 -88 C245 -85 220 -85 195 -85 C149 -86 97 -87 54 -107 C40 -114 20 -127 22 -146 C24 -167 52 -167 68 -166 C116 -165 165 -157 213 -150 C312 -137 411 -124 510 -117 C566 -113 621 -111 677 -113 C700 -114 723 -116 746 -119 C754 -120 763 -123 768 -115 C772 -109 769 -97 761 -96 L761 -96 Z " />
<glyph glyph-name="p" unicode="p" horiz-adv-x="833" d="M747 -95 C703 -78 651 -79 606 -82 C580 -83 555 -85 530 -89 C522 -90 512 -92 513 -103 C513 -114 523 -115 531 -114 C577 -110 622 -104 668 -106 C695 -108 734 -109 754 -128 C731 -134 701 -130 677 -129 C647 -128 616 -126 586 -123 C525 -119 465 -114 404 -111 C283 -105 160 -102 41 -127 C33 -129 30 -141 35 -147 C41 -153 50 -150 57 -149 C80 -145 103 -141 126 -139 C181 -133 237 -132 293 -133 C392 -134 491 -141 591 -148 C639 -152 688 -156 737 -155 C753 -154 781 -153 782 -132 C783 -113 762 -101 747 -95 L747 -95 Z " />
<glyph glyph-name="q" unicode="q" horiz-adv-x="657" d="M604 -132 C520 -107 432 -105 345 -111 C302 -114 259 -119 216 -125 C174 -132 132 -123 90 -125 C73 -125 49 -126 37 -139 C26 -151 30 -168 46 -172 C63 -176 86 -171 104 -168 C127 -165 149 -161 172 -157 C214 -150 260 -159 302 -162 C346 -166 390 -168 434 -167 C445 -167 457 -166 468 -166 C477 -165 489 -166 496 -161 C503 -156 502 -145 494 -140 C486 -136 469 -141 460 -141 C411 -144 363 -141 314 -138 C376 -132 438 -131 499 -137 C529 -140 558 -145 587 -153 C596 -155 606 -160 612 -149 C615 -142 612 -134 604 -132 L604 -132 Z " />
<glyph glyph-name="r" unicode="r" horiz-adv-x="665" d="M37 -152 C43 -163 54 -157 62 -154 C91 -145 120 -138 149 -134 C210 -124 272 -122 333 -124 C285 -130 237 -135 188 -135 C179 -135 162 -131 154 -136 C146 -141 146 -152 154 -157 C161 -162 173 -160 181 -160 L216 -160 C260 -158 304 -153 347 -148 C389 -142 434 -130 476 -135 L545 -142 C563 -144 586 -148 603 -143 C619 -138 622 -121 610 -110 C597 -97 573 -98 557 -98 C514 -99 473 -109 431 -106 C388 -102 344 -99 301 -99 C214 -98 126 -105 43 -134 C36 -137 33 -146 37 -152 L37 -152 Z " />
<glyph glyph-name="s" unicode="s" horiz-adv-x="682" d="M616 -135 C559 -134 502 -132 445 -130 C495 -123 545 -119 595 -112 C603 -111 611 -110 613 -101 C614 -92 608 -87 601 -86 C590 -85 575 -89 564 -90 C550 -92 536 -94 521 -95 L375 -114 L303 -124 C280 -127 256 -124 233 -123 C183 -123 133 -120 83 -125 C70 -127 45 -128 44 -146 C43 -169 77 -169 92 -170 C138 -171 186 -164 233 -158 C256 -155 280 -150 304 -151 C328 -151 353 -152 377 -153 L540 -158 C554 -158 568 -159 582 -159 C593 -159 609 -163 619 -160 C632 -156 630 -135 616 -135 L616 -135 Z " />
<glyph glyph-name="t" unicode="t" horiz-adv-x="678" d="M53 -176 C63 -178 79 -173 90 -172 L132 -168 L294 -150 L366 -142 C390 -139 414 -142 438 -143 C485 -146 533 -149 579 -144 C595 -143 628 -140 625 -117 C622 -99 598 -100 584 -99 C534 -98 484 -105 435 -110 C412 -112 388 -116 366 -115 C341 -114 317 -113 292 -111 L145 -104 L102 -102 C91 -102 76 -99 66 -101 C58 -103 53 -108 55 -116 C57 -126 66 -126 73 -126 C124 -129 174 -130 224 -133 L54 -151 C40 -152 39 -173 53 -176 L53 -176 Z " />
<glyph glyph-name="u" unicode="u" horiz-adv-x="624" d="M562 -109 C514 -101 464 -95 415 -99 C390 -101 366 -104 342 -111 C321 -117 301 -128 279 -135 C275 -111 237 -108 218 -106 C183 -103 148 -104 114 -108 C98 -110 38 -110 42 -136 C45 -157 104 -159 95 -135 C128 -131 161 -129 193 -130 C206 -130 246 -130 253 -139 C254 -140 255 -140 255 -141 C255 -141 255 -142 255 -142 C255 -143 255 -143 255 -143 C256 -149 262 -157 268 -160 C281 -166 297 -155 309 -150 C337 -137 368 -129 399 -125 C435 -121 472 -122 509 -126 C518 -128 527 -129 535 -130 C542 -131 553 -135 560 -134 C573 -132 576 -112 562 -109 L562 -109 Z " />
<glyph glyph-name="v" unicode="v" horiz-adv-x="532" d="M477 -124 C462 -113 443 -109 425 -107 C374 -100 323 -106 272 -112 C221 -118 175 -126 124 -132 C115 -133 104 -137 99 -136 C94 -134 89 -122 83 -117 C69 -108 50 -111 36 -120 C25 -127 11 -146 24 -158 C35 -169 61 -165 75 -163 C74 -171 70 -180 77 -187 C84 -193 94 -189 97 -181 C99 -176 99 -172 100 -166 C101 -160 97 -161 103 -160 C111 -158 148 -154 157 -153 C205 -146 254 -138 302 -133 C348 -129 399 -123 443 -135 C452 -138 463 -141 467 -150 C469 -153 468 -155 468 -158 C470 -167 477 -178 488 -169 C503 -158 487 -133 477 -124 L477 -124 L477 -124 Z M65 -137 L70 -139 C64 -139 58 -140 52 -140 C50 -140 62 -137 65 -137 L65 -137 Z " />
<glyph glyph-name="w" unicode="w" horiz-adv-x="569" d="M96 -137 C96 -138 95 -138 95 -139 C95 -139 96 -137 96 -137 L96 -137 L96 -137 Z M133 -124 C134 -123 134 -123 133 -124 L133 -124 L133 -124 Z M519 -92 C505 -83 486 -82 472 -92 C466 -97 462 -109 457 -111 C452 -112 443 -110 438 -110 C386 -105 335 -100 283 -96 C232 -93 180 -90 130 -99 C113 -102 93 -107 79 -119 C69 -128 55 -155 70 -165 C81 -173 88 -161 89 -152 C90 -150 89 -148 90 -145 C94 -135 105 -132 113 -129 C157 -114 208 -117 254 -119 C302 -122 351 -126 400 -131 L442 -135 C446 -135 451 -134 454 -136 C459 -138 456 -136 458 -141 C460 -146 459 -152 461 -156 C465 -164 475 -168 482 -161 C488 -154 484 -145 483 -138 C496 -138 522 -141 533 -130 C545 -117 531 -99 519 -92 L519 -92 L519 -92 Z M505 -113 L486 -113 L491 -110 C494 -111 506 -113 505 -113 L505 -113 L505 -113 Z M133 -124 C133 -124 132 -124 132 -124 C132 -124 133 -124 133 -124 L133 -124 Z " />
<glyph glyph-name="x" unicode="x" horiz-adv-x="511" d="M371 -79 C314 -74 256 -79 199 -89 C145 -98 91 -111 41 -133 C33 -137 20 -140 20 -151 C20 -164 33 -164 42 -161 C61 -153 79 -144 99 -138 C152 -121 207 -111 262 -105 C294 -103 326 -101 358 -103 C425 -106 456 -128 461 -154 C476 -164 482 -142 480 -131 C474 -86 405 -81 371 -79 L371 -79 Z " />
<glyph glyph-name="y" unicode="y" horiz-adv-x="523" d="M488 -139 C395 -99 283 -89 182 -96 C140 -99 82 -102 50 -132 C39 -142 25 -167 38 -180 C43 -184 51 -184 56 -180 C60 -177 59 -173 59 -169 C59 -141 120 -129 128 -127 L147 -124 C210 -115 280 -119 340 -127 C384 -133 433 -143 476 -160 C476 -160 476 -160 476 -161 C476 -161 476 -160 476 -160 C491 -167 503 -145 488 -139 L488 -139 Z " />
<glyph glyph-name="z" unicode="z" horiz-adv-x="695" d="M653 -104 C642 -103 630 -107 619 -109 L580 -115 L498 -127 C443 -136 388 -146 333 -150 C394 -135 457 -121 518 -105 C528 -102 539 -94 530 -83 C524 -76 513 -80 505 -81 C473 -85 440 -90 408 -95 L216 -127 C184 -132 153 -137 121 -143 C106 -145 91 -147 76 -150 C66 -152 44 -150 41 -164 C34 -192 106 -170 119 -168 L228 -150 C222 -154 221 -164 226 -169 C232 -175 247 -174 255 -175 C276 -177 298 -177 319 -175 C366 -173 413 -166 459 -159 L598 -137 L628 -133 C632 -132 638 -130 643 -130 C648 -131 648 -135 654 -134 C672 -131 672 -106 653 -104 L653 -104 Z " />
</font>
</svg>
