<?xml version="1.0" encoding="UTF-8"?>
<svg xmlns="http://www.w3.org/2000/svg" xmlns:xlink="http://www.w3.org/1999/xlink" version="1.2" >
<font id="Qulliness">
<font-face  font-family="Qulliness" units-per-em="1000" ascent="750" descent="-250" font-style="normal" font-weight="400" font-stretch="normal" cap-height="700" x-height="500" underline-position="-75" underline-thickness="50" />
<missing-glyph  horiz-adv-x="140" d="" />
<glyph glyph-name="NULL" d="" />
<glyph glyph-name="CR" unicode="&#xd;" horiz-adv-x="140" d="" />
<glyph glyph-name="space" unicode="&#x20;" horiz-adv-x="140" d="" />
<glyph glyph-name="exclam" unicode="&#x21;" horiz-adv-x="151" d="M128 539 C122 541 117 538 114 532 C113 530 113 527 112 525 C87 412 69 312 47 192 C47 184 49 179 54 177 C62 173 70 177 72 187 C92 311 115 419 136 526 C137 533 134 538 128 539 L128 539 Z M40 105 C32 105 27 98 28 91 C30 82 38 76 45 78 C50 79 53 82 53 89 C52 97 49 107 40 105 L40 105 Z " />
<glyph glyph-name="quotedbl" unicode="&#x22;" horiz-adv-x="144" d="M81 585 C75 587 69 583 67 576 C61 554 55 532 49 510 C47 504 49 500 53 497 C65 490 73 502 75 511 C80 533 84 551 89 570 C90 578 87 584 81 585 L81 585 Z M123 580 C118 579 115 575 113 571 C107 554 102 536 99 524 C98 519 100 515 104 512 C113 507 122 516 124 524 C129 538 132 553 136 567 C138 575 131 582 123 580 L123 580 Z " />
<glyph glyph-name="numbersign" unicode="&#x23;" horiz-adv-x="346" d="M282 358 C284 362 294 387 297 391 C301 396 299 404 293 407 C286 412 279 410 275 402 C269 388 255 357 255 357 C237 357 193 355 192 355 C199 377 209 397 215 416 C217 422 215 429 210 432 C202 436 196 430 193 423 C186 405 167 357 165 354 C165 354 96 345 80 339 C72 337 58 328 66 317 C69 312 74 311 79 313 C85 315 91 317 97 318 C115 321 144 325 157 327 C156 325 149 303 147 296 C127 293 102 286 84 281 C72 281 65 269 71 258 C75 253 81 252 87 256 C88 257 89 258 91 258 C106 262 133 268 138 268 C133 254 118 200 109 168 C107 162 105 155 107 147 C109 141 114 137 120 137 C125 137 130 141 131 147 C133 158 135 170 139 181 C147 210 157 243 166 272 C166 272 200 273 223 271 C212 240 200 208 190 177 C187 171 190 164 195 161 C201 157 207 158 211 164 C213 166 214 169 215 172 C226 203 238 238 249 268 C249 268 288 263 296 258 C301 254 308 258 310 265 C313 273 309 281 299 285 C289 289 265 292 258 294 C263 306 268 320 273 332 C273 332 313 332 321 326 C325 323 333 325 336 330 C340 337 337 346 328 351 C317 357 292 357 282 358 L282 358 Z M245 331 C242 323 235 305 233 297 C219 298 192 299 174 298 C177 305 181 321 182 328 C182 328 242 331 245 331 L245 331 Z " />
<glyph glyph-name="dollar" unicode="&#x24;" horiz-adv-x="321" d="M79 95 C75 99 66 99 62 96 C57 92 56 86 59 80 C62 73 70 66 69 58 C66 48 63 37 61 27 C59 18 64 12 71 10 C79 9 85 15 86 23 C88 33 91 44 93 52 C155 52 196 109 209 168 C215 194 213 235 169 271 C199 346 230 420 262 498 C275 501 292 503 305 502 C331 500 321 467 312 450 C306 440 300 431 294 422 C290 416 291 409 296 406 C301 402 308 403 312 409 C331 432 345 456 346 488 C342 528 306 528 274 526 C278 535 283 547 286 556 C289 562 288 567 283 571 C274 576 268 569 264 561 C257 548 251 534 245 520 C173 501 102 473 66 409 C48 370 57 327 90 300 C105 287 123 277 139 264 C117 209 98 153 79 95 L79 95 Z M233 492 C205 424 176 356 149 288 C133 296 121 308 106 319 C78 342 76 382 94 408 C126 451 186 483 233 492 L233 492 Z M100 77 C117 134 137 191 159 246 C170 238 194 208 187 173 C179 136 156 101 130 84 C118 77 108 75 100 77 L100 77 Z " />
<glyph glyph-name="percent" unicode="&#x25;" horiz-adv-x="352" d="M296 438 C305 442 313 446 321 450 C267 379 214 308 164 235 C127 182 92 128 60 72 C55 62 48 49 63 43 C71 39 78 49 81 58 C103 94 124 130 147 165 C204 250 263 332 325 413 C352 449 380 484 412 515 C417 520 421 526 415 534 C410 540 402 540 395 534 C383 525 371 515 359 506 C336 489 312 473 285 461 C270 454 254 450 238 451 C236 451 233 452 232 454 C226 473 207 480 191 469 C171 453 152 426 157 397 C160 386 165 376 175 371 C202 358 229 395 235 420 C236 423 236 425 240 425 C260 426 278 430 296 438 L296 438 Z M200 445 C203 441 207 437 210 433 C211 432 211 430 211 428 C210 421 190 378 183 400 C178 416 189 432 200 445 L200 445 Z M190 106 C190 118 194 128 200 137 C200 137 201 138 202 138 C208 142 210 147 207 154 C204 160 198 163 192 160 C172 151 160 117 167 95 C171 84 181 79 192 81 C216 85 229 109 225 130 C224 137 219 141 213 140 C206 140 202 136 201 129 C201 119 201 112 190 106 L190 106 Z " />
<glyph glyph-name="ampersand" unicode="&#x26;" horiz-adv-x="330" d="M94 314 C114 312 139 313 162 316 C114 285 41 227 30 167 C26 140 42 124 69 123 C76 122 83 123 91 124 C86 105 80 72 75 52 C73 41 67 23 79 21 C91 19 96 26 98 38 C104 67 112 102 118 131 C156 142 197 168 233 192 C241 198 247 209 238 218 C234 221 228 221 224 218 C184 191 146 167 97 151 C86 148 74 146 63 149 C52 153 55 167 63 185 C88 231 145 274 201 311 C207 315 214 319 220 324 C224 328 225 334 223 339 C218 350 203 346 192 345 C163 341 127 336 91 340 C81 341 84 349 88 357 C95 369 109 387 125 400 C163 429 209 449 258 464 C268 467 285 469 291 460 C309 439 265 392 252 374 C249 369 250 363 254 360 C258 356 266 356 271 362 C280 372 288 382 296 392 C310 410 317 429 318 443 C321 472 305 490 273 490 C253 490 233 483 214 477 C220 513 233 551 250 592 C252 597 251 602 247 605 C244 608 238 609 234 605 C225 596 218 579 212 563 C201 531 192 504 188 465 C178 461 161 453 151 447 C114 428 71 395 57 353 C52 330 63 317 94 314 L94 314 Z " />
<glyph glyph-name="quotesingle" unicode="&#x27;" horiz-adv-x="97" d="M75 559 C68 561 63 558 60 550 C56 537 54 527 50 511 C48 504 52 498 57 496 C63 494 70 497 72 503 C77 517 79 532 82 545 C83 552 80 558 75 559 L75 559 Z " />
<glyph glyph-name="parenleft" unicode="&#x28;" horiz-adv-x="161" d="M159 536 C161 530 160 521 170 521 C175 521 182 525 180 538 C178 548 173 557 163 559 C151 561 139 549 130 537 C108 507 90 473 76 439 C50 374 31 308 19 240 C11 192 4 124 24 87 C30 77 38 70 50 69 C57 68 63 72 64 78 C66 91 44 91 42 105 C34 143 36 183 43 230 C52 287 67 342 86 395 C103 441 124 485 151 526 C153 529 156 533 159 536 L159 536 Z " />
<glyph glyph-name="parenright" unicode="&#x29;" horiz-adv-x="147" d="M123 330 C135 401 141 472 116 550 C113 558 101 562 96 552 C93 544 95 539 98 531 C106 501 108 472 109 442 C112 366 91 287 64 208 C50 170 35 132 12 99 C7 92 -4 87 0 76 C5 64 21 67 27 76 C42 97 55 119 65 142 C91 203 111 265 123 330 L123 330 Z " />
<glyph glyph-name="asterisk" unicode="&#x2a;" horiz-adv-x="198" d="M122 487 C139 480 154 475 170 468 C179 464 188 469 188 479 C188 486 184 490 178 493 C168 498 157 501 146 506 C154 510 163 514 174 520 C181 524 183 528 181 534 C180 540 174 544 168 542 C155 537 144 532 132 526 C136 537 137 545 139 554 C141 560 138 565 133 568 C125 571 119 565 116 555 C111 544 109 532 105 521 C95 526 86 530 76 533 C71 535 65 531 63 527 C61 521 63 516 68 513 C76 509 84 506 91 501 C80 494 70 485 62 475 C59 470 60 464 64 461 C68 457 74 457 79 460 C84 463 88 467 93 471 C91 462 90 452 97 445 C101 442 105 441 110 443 C115 445 116 450 117 455 C119 466 120 476 122 487 L122 487 Z " />
<glyph glyph-name="plus" unicode="&#x2b;" horiz-adv-x="232" d="M198 327 C115 327 113 328 111 328 C114 348 116 365 119 385 C120 391 116 395 111 396 C100 398 98 392 96 382 C93 365 89 346 86 328 C73 325 56 325 42 319 C36 317 34 310 36 304 C38 299 44 297 50 298 C59 299 72 301 82 302 C80 285 78 269 76 252 C75 244 73 235 73 226 C73 219 78 213 85 213 C92 213 97 217 98 224 C101 251 104 276 108 301 C118 303 188 302 199 302 C212 302 216 310 216 314 C216 327 205 327 198 327 L198 327 Z " />
<glyph glyph-name="comma" unicode="&#x2c;" horiz-adv-x="83" d="M72 257 C67 260 61 258 57 251 C49 237 38 224 31 209 C27 201 26 195 35 190 C41 187 48 191 52 197 C61 211 69 226 77 241 C80 248 78 254 72 257 L72 257 Z " />
<glyph glyph-name="hyphen" unicode="&#x2d;" horiz-adv-x="197" d="M184 316 C182 328 176 330 161 329 C122 326 83 324 44 321 C26 320 31 297 53 299 C87 302 122 302 156 304 C167 304 186 302 184 316 L184 316 Z " />
<glyph glyph-name="period" unicode="&#x2e;" horiz-adv-x="94" d="M69 243 C63 243 57 238 57 231 C57 225 62 220 68 220 C75 220 81 225 81 232 C81 238 75 243 69 243 L69 243 Z " />
<glyph glyph-name="slash" unicode="&#x2f;" horiz-adv-x="268" d="M264 548 C256 554 248 548 245 541 C165 411 102 280 32 153 C27 145 27 131 36 128 C48 124 52 136 56 143 C128 278 197 406 267 533 C270 539 269 545 264 548 L264 548 Z " />
<glyph glyph-name="zero" unicode="0" horiz-adv-x="263" d="M195 428 C211 404 213 381 213 355 C211 292 188 233 161 187 C148 163 105 125 81 164 C54 223 110 322 151 370 C153 373 156 375 160 375 C164 375 167 378 169 383 C172 391 166 400 156 401 C146 404 132 388 126 380 C85 332 27 221 58 156 C74 124 108 113 140 130 C181 151 211 217 225 271 C240 325 248 387 220 437 C198 471 163 479 129 458 C83 431 54 376 35 325 C30 317 28 299 42 299 C49 298 53 302 54 310 C54 312 55 314 55 315 C74 360 101 412 145 439 C165 449 182 445 195 428 L195 428 Z " />
<glyph glyph-name="one" unicode="1" horiz-adv-x="153" d="M105 494 C105 492 105 491 105 491 C102 475 99 458 96 443 C86 401 75 360 65 319 C51 259 40 199 32 138 C31 124 30 109 30 95 C30 89 33 84 38 80 C43 77 49 77 54 81 C59 86 60 91 57 97 C56 99 55 102 55 104 C56 115 56 125 58 136 C64 177 70 219 79 259 C90 313 104 366 116 420 C122 445 129 470 131 497 C131 504 130 512 127 519 C124 528 115 532 106 528 C101 526 97 523 94 520 C77 499 62 479 46 458 C44 456 43 452 43 449 C43 444 47 441 51 439 C56 438 61 441 64 445 C76 460 88 475 101 490 C102 491 103 492 105 494 L105 494 Z " />
<glyph glyph-name="two" unicode="2" horiz-adv-x="289" d="M111 191 C175 243 250 324 273 396 C280 420 282 446 270 470 C258 494 233 503 207 499 C138 488 73 425 55 360 C50 343 49 326 53 308 C55 301 60 298 66 300 C72 301 76 306 75 313 C74 323 73 333 76 343 C87 381 108 413 138 439 C157 454 182 469 206 475 C244 483 251 450 252 440 C254 397 224 350 193 311 C151 260 104 215 52 175 C40 166 23 158 14 152 C7 147 4 137 9 130 C13 124 22 124 29 128 C37 132 52 145 66 150 C105 165 147 174 188 182 C197 186 210 177 215 190 C220 204 206 211 194 209 C166 205 139 198 111 191 L111 191 Z " />
<glyph glyph-name="three" unicode="3" horiz-adv-x="331" d="M165 335 C214 367 294 432 310 478 C323 529 265 540 221 535 C165 527 107 497 68 449 C62 441 56 432 53 421 C52 415 55 409 60 407 C66 405 71 408 75 414 C102 467 169 503 235 511 C248 512 292 512 285 486 C259 432 189 382 133 339 C126 330 130 319 140 315 C170 306 217 301 207 241 C197 183 151 133 94 121 C79 119 66 118 59 124 C45 138 74 196 95 220 C100 225 108 226 107 236 C104 257 82 246 75 234 C61 215 35 177 31 141 C28 120 42 87 99 100 C170 117 239 182 231 272 C227 307 198 324 165 335 L165 335 Z " />
<glyph glyph-name="four" unicode="4" horiz-adv-x="294" d="M277 284 C231 288 190 285 148 282 C171 376 192 444 211 525 C212 529 213 537 207 539 C197 543 191 540 187 532 C161 448 143 361 119 277 C97 275 77 273 55 273 C35 273 53 335 56 345 C70 391 84 437 99 483 C103 494 110 513 96 516 C83 519 78 498 74 489 C54 433 35 377 22 317 C16 290 13 254 44 249 C60 246 109 249 112 249 C111 247 92 167 84 129 C82 122 81 113 83 105 C84 98 93 91 100 91 C107 91 111 98 109 106 C108 109 108 111 108 114 C108 118 109 123 110 127 C120 168 131 210 140 251 C158 255 243 257 257 258 C264 258 271 258 278 256 C287 254 292 259 292 266 C292 274 286 282 277 284 L277 284 Z " />
<glyph glyph-name="five" unicode="5" horiz-adv-x="297" d="M101 464 C89 440 73 406 60 373 C54 357 47 341 46 324 C46 309 55 301 70 298 C78 297 87 297 144 297 C159 296 174 295 188 290 C210 279 208 258 205 248 C195 217 177 188 153 164 C139 150 97 127 94 164 C92 191 100 216 109 236 C111 241 113 247 103 253 C92 257 84 247 80 236 C67 210 63 170 68 151 C82 110 126 114 158 136 C196 167 238 224 232 277 C228 297 213 309 193 315 C168 322 142 323 78 322 C73 322 72 325 73 329 C83 370 102 409 129 467 C177 474 274 484 333 486 C343 486 348 492 347 502 C346 507 342 510 337 510 C285 509 203 500 156 495 C131 492 106 488 81 485 C76 485 72 482 71 477 C69 472 69 463 85 463 C90 463 96 464 101 464 L101 464 Z " />
<glyph glyph-name="six" unicode="6" horiz-adv-x="242" d="M63 234 C68 254 85 304 101 335 C126 385 156 431 190 474 C193 478 195 481 198 485 C201 490 200 496 195 500 C191 503 185 504 178 496 C146 460 118 420 94 378 C69 331 48 283 35 231 C25 193 19 135 69 122 C83 119 99 120 112 125 C166 139 234 215 220 284 C209 327 161 324 131 302 C112 288 95 270 78 252 C73 246 68 240 63 234 L63 234 Z M107 149 C84 139 59 141 54 173 C53 180 53 180 60 183 C63 184 66 187 67 189 C73 206 84 219 95 232 C116 256 137 279 163 291 C180 298 193 292 195 273 C195 220 158 171 107 149 L107 149 Z " />
<glyph glyph-name="seven" unicode="7" horiz-adv-x="266" d="M240 478 C222 446 198 410 173 373 C122 298 54 174 46 129 C44 123 45 112 51 106 C55 101 63 101 68 104 C73 107 74 112 72 118 C71 120 71 123 72 125 C76 136 79 147 84 158 C112 227 148 291 189 352 C213 387 247 435 264 473 C267 488 265 502 247 503 C215 505 130 496 92 491 C86 490 82 486 82 481 C82 473 88 467 97 468 C143 472 197 475 240 478 L240 478 Z " />
<glyph glyph-name="eight" unicode="8" horiz-adv-x="273" d="M148 271 C142 266 135 260 129 255 C110 238 91 221 76 201 C65 187 56 172 54 155 C51 134 63 119 83 115 C119 107 154 138 172 171 C184 199 188 236 180 266 C202 288 227 308 247 334 C260 350 269 369 276 389 C278 396 274 403 267 405 C260 407 252 402 250 395 C246 378 237 362 226 348 C209 327 168 289 167 289 C140 323 104 345 71 375 C50 393 69 418 85 432 C116 460 162 479 205 479 C224 479 231 464 235 447 C237 441 243 438 249 439 C254 441 258 446 257 452 C253 472 248 489 224 500 C212 505 199 506 186 504 C153 500 122 488 94 470 C67 452 25 417 40 376 C48 354 85 330 109 311 C119 301 141 280 148 271 L148 271 Z M159 247 C161 226 159 207 152 189 C144 168 131 153 112 143 C101 138 80 134 79 152 C82 172 99 190 113 205 C129 221 142 232 159 247 L159 247 Z " />
<glyph glyph-name="nine" unicode="9" horiz-adv-x="229" d="M74 306 C112 306 142 346 166 371 C160 354 153 339 148 325 C120 255 93 159 85 107 C82 96 89 80 103 84 C110 87 113 92 112 98 C111 103 111 108 112 113 C120 144 128 174 136 204 C158 276 189 367 228 443 C232 451 237 460 240 468 C243 475 241 481 235 485 C227 490 218 482 214 474 C192 443 168 412 143 383 C127 365 94 329 76 330 C49 330 74 398 81 413 C91 433 104 450 125 462 C134 466 140 463 143 454 C144 450 144 447 145 444 C146 439 150 435 155 435 C166 435 168 446 166 455 C162 482 139 495 114 484 C99 478 88 467 78 455 C54 427 30 368 42 327 C47 313 60 306 74 306 L74 306 Z " />
<glyph glyph-name="colon" unicode="&#x3a;" horiz-adv-x="85" d="M63 346 C57 347 51 342 50 335 C49 329 53 324 59 322 C65 321 71 326 72 333 C73 339 70 345 63 346 L63 346 Z M40 252 C35 253 30 250 29 244 C28 238 32 233 37 232 C43 231 48 235 49 241 C50 246 46 251 40 252 L40 252 Z " />
<glyph glyph-name="semicolon" unicode="&#x3b;" horiz-adv-x="98" d="M62 270 C56 270 51 266 51 260 C49 244 37 237 31 228 C27 223 28 217 32 213 C35 210 41 209 46 212 C64 223 73 241 73 259 C72 266 68 270 62 270 L62 270 Z M81 341 C75 342 69 337 69 331 C69 325 73 320 79 320 C85 319 90 324 91 330 C91 336 87 341 81 341 L81 341 Z " />
<glyph glyph-name="less" unicode="&#x3c;" horiz-adv-x="313" d="M289 372 C282 381 272 372 265 370 C227 357 190 345 152 333 C115 322 86 315 58 304 C47 297 44 284 53 275 C69 260 92 249 111 237 C128 226 147 216 165 206 C169 203 174 203 179 207 C187 213 183 223 176 228 C152 243 128 256 105 270 C97 275 88 281 80 286 C95 290 111 295 128 300 C177 314 224 329 272 347 C283 351 300 361 289 372 L289 372 Z " />
<glyph glyph-name="equal" unicode="&#x3d;" horiz-adv-x="216" d="M193 340 C191 341 190 341 188 341 C161 341 135 341 109 341 C95 340 82 340 68 340 C59 341 53 337 51 330 C49 323 52 318 60 318 C65 317 69 317 74 317 C74 317 74 317 74 316 C106 316 139 316 172 316 C177 316 182 316 186 317 C192 318 198 323 199 328 C201 334 199 339 193 340 L193 340 Z M162 293 C136 292 109 290 83 288 C73 288 64 286 54 284 C46 283 41 277 41 271 C40 265 45 262 52 262 C67 264 81 265 96 265 C116 266 137 267 157 268 C163 268 168 270 172 276 C178 285 173 293 162 293 L162 293 Z " />
<glyph glyph-name="greater" unicode="&#x3e;" horiz-adv-x="333" d="M290 344 C263 364 232 376 203 391 C191 397 179 403 166 408 C160 410 154 407 152 401 C150 395 152 390 159 387 C198 367 247 347 273 325 C255 311 230 299 208 288 C142 257 80 233 25 200 C18 196 16 188 20 182 C23 176 30 175 38 179 C102 211 165 241 229 270 C247 279 266 290 282 302 C298 314 305 331 290 344 L290 344 Z " />
<glyph glyph-name="question" unicode="&#x3f;" horiz-adv-x="327" d="M304 430 C300 467 271 501 231 505 C184 510 136 491 105 460 C91 447 75 428 79 410 C79 406 84 403 89 402 C93 402 98 405 99 409 C102 420 109 428 116 435 C140 459 167 476 201 480 C223 483 251 481 264 461 C288 425 273 395 250 369 C234 351 213 336 192 323 C166 307 141 291 118 271 C93 251 79 226 75 194 C74 186 77 180 85 178 C92 177 98 182 99 190 C104 209 108 228 123 241 C156 271 190 290 223 313 C261 339 308 382 304 430 L304 430 Z M59 120 C53 118 51 113 51 107 C51 97 57 93 63 92 C76 90 77 103 76 109 C75 117 67 124 59 120 L59 120 Z " />
<glyph glyph-name="at" unicode="&#x40;" horiz-adv-x="393" d="M209 292 C207 277 209 259 212 250 C221 217 250 210 272 220 C304 233 337 273 359 313 C391 367 409 474 324 492 C277 499 228 481 185 458 C121 422 74 372 46 304 C33 276 18 206 63 152 C106 96 179 101 239 134 C248 137 254 146 250 155 C246 163 236 162 229 157 C203 141 148 118 103 148 C39 190 53 277 90 335 C126 393 177 432 240 456 C265 465 290 471 317 468 C372 461 367 389 352 349 C337 314 299 253 259 240 C248 237 239 243 236 254 C231 272 234 292 232 312 C231 320 226 325 219 326 C214 327 209 325 205 321 C195 313 179 300 169 291 C156 280 136 269 122 263 C125 274 131 288 136 296 C147 317 162 334 182 347 C189 352 189 352 193 344 C195 338 199 336 205 337 C210 337 213 341 214 347 C216 362 200 377 185 374 C153 367 128 334 111 303 C105 291 97 273 96 260 C94 244 106 233 122 237 C155 243 184 269 209 292 L209 292 Z " />
<glyph glyph-name="A" unicode="A" horiz-adv-x="411" d="M344 286 C350 319 355 350 362 385 C369 423 376 459 384 496 C394 540 404 584 413 628 C416 651 422 668 406 674 C392 679 383 666 374 652 C338 593 301 534 266 474 C225 405 185 331 144 261 C121 255 47 238 18 229 C12 227 8 222 8 216 C9 208 18 204 26 207 C59 215 91 225 126 231 C106 190 85 153 60 97 C51 76 45 62 41 50 C39 43 42 36 48 34 C61 32 65 44 68 55 C95 116 128 179 160 238 C209 250 260 252 313 258 C310 241 308 221 305 198 C295 114 285 29 283 -61 C283 -75 281 -97 296 -104 C306 -108 318 -99 313 -88 C310 -79 310 -70 310 -61 C313 35 323 130 337 236 C338 243 339 251 340 258 C349 258 360 251 367 260 C370 264 370 270 368 274 C363 284 353 283 344 286 L344 286 Z M176 268 C245 386 311 504 383 618 C374 576 363 525 353 476 C345 440 338 403 331 367 C325 340 321 315 317 285 C272 282 227 276 176 268 L176 268 Z " />
<glyph glyph-name="B" unicode="B" horiz-adv-x="426" d="M185 519 C183 524 183 530 179 536 C175 542 167 543 161 539 C156 536 155 529 158 523 C159 521 160 519 160 517 C159 507 159 496 158 486 C158 483 157 479 155 476 C121 424 92 369 67 313 C55 286 31 240 35 212 C37 200 48 194 60 199 C70 202 87 225 96 241 C118 278 134 316 149 355 C162 388 173 422 180 456 C181 462 182 468 185 473 C208 508 234 541 263 572 C293 604 325 632 362 655 C375 662 388 669 402 671 C420 674 427 667 423 649 C414 601 374 554 342 516 C304 472 265 429 227 386 C218 376 210 367 203 356 C190 337 195 323 216 316 C226 313 235 310 244 306 C287 289 302 243 303 197 C302 136 284 80 251 28 C229 -8 202 -37 165 -57 C143 -69 120 -77 95 -76 C77 -74 63 -66 53 -51 C30 -12 47 44 68 91 C84 125 105 156 126 188 C138 205 151 222 164 239 C166 241 169 243 172 244 C179 247 183 250 183 256 C183 262 179 268 173 270 C158 274 147 259 135 246 C107 210 82 171 59 131 C29 81 6 18 20 -44 C32 -81 61 -103 100 -103 C123 -103 144 -96 164 -87 C202 -69 233 -42 258 -9 C294 38 316 91 326 148 C334 207 332 270 283 314 C267 329 245 334 225 342 C245 368 268 391 294 421 C330 461 365 501 397 544 C420 575 449 616 451 659 C451 680 437 699 417 698 C386 701 344 677 317 656 C266 618 224 570 185 519 L185 519 Z M128 377 C113 333 95 290 70 250 C85 294 106 336 128 377 L128 377 Z " />
<glyph glyph-name="C" unicode="C" horiz-adv-x="379" d="M8 162 C5 106 9 33 47 -17 C66 -41 92 -54 125 -52 C153 -50 178 -39 200 -23 C232 1 255 31 271 66 C284 92 295 120 306 147 C313 164 320 181 326 198 C329 206 325 214 318 215 C304 217 302 208 298 197 C285 165 272 134 259 102 C238 52 204 -3 147 -21 C108 -33 78 -21 60 13 C33 66 32 131 39 197 C43 230 50 263 59 295 C77 365 104 433 143 496 C173 544 236 608 271 619 C289 625 299 622 309 607 C321 588 329 568 327 545 C326 538 330 533 336 532 C343 530 349 535 351 544 C357 571 344 610 323 633 C312 644 297 650 280 648 C242 644 197 607 167 572 C72 465 18 310 8 162 L8 162 Z " />
<glyph glyph-name="D" unicode="D" horiz-adv-x="431" d="M222 585 C181 548 144 499 117 460 C123 491 126 500 129 521 C135 549 137 578 135 607 C134 615 128 621 121 621 C114 621 110 615 110 606 C110 579 107 554 102 523 C94 482 84 442 74 401 C71 386 67 372 60 358 C48 334 37 309 30 284 C28 275 26 265 26 256 C25 250 30 245 36 243 C47 240 54 248 58 258 C66 282 74 305 82 328 C86 341 89 355 95 367 C114 406 138 443 164 479 C187 512 213 543 244 569 C261 584 279 597 300 604 C330 614 354 603 371 568 C397 508 382 434 365 367 C325 233 242 89 141 2 C124 -11 105 -26 85 -32 C66 -38 49 -29 44 -8 C38 31 52 73 73 110 C97 155 125 198 157 239 C166 252 178 263 189 275 C191 278 193 279 198 278 C206 276 213 282 212 291 C212 298 206 305 199 307 C191 309 184 306 179 301 C170 294 161 286 153 277 C116 233 85 186 56 136 C31 91 5 33 20 -21 C28 -46 48 -59 74 -58 C120 -55 161 -19 194 12 C276 96 355 231 392 364 C409 430 426 515 394 584 C371 631 327 647 280 625 C259 615 240 601 222 585 L222 585 Z " />
<glyph glyph-name="E" unicode="E" horiz-adv-x="402" d="M130 473 C103 411 83 346 63 280 C46 277 19 270 3 266 C-5 265 -9 261 -9 255 C-8 248 -2 243 5 243 C7 243 9 243 10 243 C18 244 25 245 33 247 C41 248 49 250 58 252 C51 213 44 162 41 114 C41 95 41 77 45 59 C52 34 69 20 93 22 C97 23 101 23 105 25 C126 30 144 39 162 50 C198 71 233 93 269 115 C270 116 272 117 273 119 C275 123 275 128 272 133 C269 138 263 140 258 139 C255 138 252 137 250 135 C235 126 222 117 208 109 C178 90 149 72 118 58 C108 54 98 49 87 48 C82 48 78 50 76 54 C74 59 72 63 71 68 C67 84 68 101 69 117 C71 164 78 212 87 257 C144 272 213 282 275 298 C281 300 289 301 296 300 C305 299 311 301 313 309 C314 317 309 325 301 327 C293 329 277 325 253 321 C200 310 149 300 95 288 C114 347 130 409 159 479 C172 482 184 485 196 487 C268 502 339 517 412 527 C432 530 453 532 473 534 C477 534 482 533 486 532 C494 529 501 533 502 541 C503 549 498 557 489 559 C485 560 481 561 476 561 C463 560 449 559 436 558 C393 551 350 545 307 537 C220 520 134 503 49 482 C39 479 29 478 19 476 C14 475 11 471 11 466 C11 461 14 456 19 455 C23 454 27 453 30 453 C54 458 78 462 101 467 C110 469 120 471 130 473 L130 473 Z " />
<glyph glyph-name="F" unicode="F" horiz-adv-x="373" d="M84 315 C66 220 48 125 29 28 C27 22 30 15 35 12 C48 6 54 18 57 29 C64 66 71 104 78 141 C90 201 101 263 114 321 C142 325 174 331 202 335 C221 338 240 339 259 341 C261 341 264 341 266 340 C272 336 279 338 282 340 C288 344 289 349 287 356 C282 370 262 368 250 367 C207 361 161 356 121 350 C126 375 160 497 170 534 C202 540 237 543 274 546 C308 548 341 550 375 548 C383 548 388 541 397 545 C402 548 404 552 404 558 C401 570 390 574 377 575 C335 579 267 574 212 567 C170 562 128 554 86 547 C72 545 57 542 42 540 C35 538 32 534 32 527 C33 521 38 513 56 516 C84 521 113 525 143 530 C126 469 107 403 90 343 C80 340 31 328 18 324 C10 322 7 315 10 308 C13 302 20 300 27 302 C46 306 63 312 84 315 L84 315 Z " />
<glyph glyph-name="G" unicode="G" horiz-adv-x="437" d="M288 315 C283 299 229 190 214 160 C189 106 148 37 108 2 C98 -7 73 -21 63 -1 C42 41 44 99 53 157 C62 212 76 266 95 319 C124 401 163 478 217 548 C237 573 258 597 284 616 C297 625 310 635 327 634 C327 634 328 634 328 634 C334 635 338 639 338 645 C338 650 334 655 328 656 C309 659 292 651 272 638 C245 620 223 595 202 570 C155 512 120 447 91 379 C49 277 -5 99 35 -2 C50 -36 80 -45 111 -26 C145 -5 188 58 210 98 C230 136 248 175 268 213 C257 131 241 49 241 -42 C242 -53 247 -71 263 -63 C272 -54 267 -46 266 -34 C267 -14 267 7 269 27 C278 106 287 185 306 269 C310 285 314 304 318 320 C343 326 368 328 396 331 C398 331 400 331 402 330 C406 326 411 325 416 327 C421 330 424 335 424 341 C423 358 397 358 382 356 C307 347 237 331 163 303 C153 299 137 294 142 280 C146 270 159 274 166 277 C193 286 221 296 248 304 C260 308 276 312 288 315 L288 315 Z " />
<glyph glyph-name="H" unicode="H" horiz-adv-x="442" d="M91 206 C87 185 81 162 77 140 C60 61 45 -19 33 -99 C30 -121 26 -157 30 -168 C33 -175 39 -178 45 -176 C51 -174 53 -169 53 -162 C53 -153 52 -145 53 -137 C57 -111 60 -86 64 -61 C79 30 100 119 119 211 C182 224 234 234 297 244 C270 141 245 43 227 -65 C223 -83 219 -113 225 -122 C228 -127 234 -129 240 -127 C245 -125 247 -121 247 -114 C247 -106 247 -101 248 -92 C254 -57 260 -23 267 11 C278 62 290 113 302 163 C309 191 318 221 325 248 C342 251 364 252 373 253 C378 253 382 252 386 250 C392 248 397 247 400 251 C411 262 398 276 385 277 C369 279 348 277 332 275 C353 345 372 405 394 476 C409 524 424 573 438 621 C445 645 451 670 457 695 C460 704 451 711 442 707 C435 702 433 695 431 687 C418 642 406 598 392 554 C364 461 333 370 305 272 C246 262 183 250 124 239 C141 328 169 414 189 512 C191 523 191 533 192 544 C193 552 187 557 180 556 C175 555 171 551 170 544 C168 530 166 517 163 504 C139 413 118 323 95 233 C50 224 5 209 -38 195 C-44 191 -50 189 -48 179 C-46 173 -39 170 -32 173 C9 184 50 195 91 206 L91 206 Z " />
<glyph glyph-name="I" unicode="I" horiz-adv-x="300" d="M85 24 C86 47 89 68 92 91 C106 181 126 269 154 372 C172 437 194 504 213 568 C245 570 275 571 320 570 C326 569 343 569 345 564 C344 559 346 556 351 554 C354 552 362 552 366 555 C376 561 379 581 360 588 C323 599 255 595 207 592 C174 590 128 586 90 575 C84 574 81 569 81 563 C82 557 86 551 97 554 C127 558 151 561 186 565 C183 553 179 543 175 530 C151 460 131 388 112 317 C87 221 67 118 56 20 C39 16 -2 8 -20 4 C-32 1 -44 -1 -52 -3 C-58 -5 -62 -9 -61 -15 C-58 -25 -48 -26 -40 -24 C-14 -19 12 -14 39 -9 C76 -3 113 3 151 9 C172 12 193 16 214 14 C221 13 225 17 227 22 C228 28 225 33 219 36 C211 40 202 40 192 39 C156 35 121 31 85 24 L85 24 Z " />
<glyph glyph-name="J" unicode="J" horiz-adv-x="467" d="M400 596 C375 462 326 235 253 84 C225 27 165 -44 118 -63 C76 -79 15 -77 -2 -22 C-16 31 9 91 34 141 C51 173 73 202 96 230 C124 263 162 309 200 328 C207 332 210 336 208 343 C206 348 200 352 194 350 C174 345 148 321 127 302 C102 277 79 251 57 223 C10 159 -40 73 -30 -13 C-25 -42 -13 -66 12 -81 C112 -135 211 -43 261 45 C295 105 321 169 342 235 C377 353 404 474 426 598 C472 603 518 603 569 605 C584 605 601 606 616 600 C622 598 626 600 629 604 C632 608 632 613 629 618 C620 630 601 629 585 630 C511 630 436 626 359 617 C307 610 241 601 197 590 C190 588 187 583 189 577 C192 566 207 569 216 571 C276 579 336 590 400 596 L400 596 Z " />
<glyph glyph-name="K" unicode="K" horiz-adv-x="364" d="M394 684 C378 678 343 629 322 598 C270 525 219 452 172 376 C114 284 67 185 26 84 C40 158 53 233 66 307 C86 409 129 550 165 653 C167 660 163 666 157 667 C151 668 146 666 143 659 C104 559 73 465 51 365 C28 258 10 147 -7 39 C-10 13 -13 -8 -12 -33 C-12 -40 -8 -47 -2 -48 C4 -50 9 -46 11 -39 C35 36 63 104 91 172 C182 115 274 -31 327 -114 C332 -121 337 -129 347 -124 C351 -121 354 -116 352 -111 C349 -102 341 -89 334 -78 C276 14 193 146 104 195 C125 230 148 262 171 294 C229 375 287 455 345 536 C381 588 411 635 418 667 C421 681 407 689 394 684 L394 684 Z M235 429 C276 489 322 552 364 613 C334 559 280 485 235 429 L235 429 Z " />
<glyph glyph-name="L" unicode="L" horiz-adv-x="322" d="M30 -2 C39 45 52 92 63 140 C96 287 144 429 190 579 C198 606 207 634 214 661 C215 667 214 673 208 674 C200 675 194 675 189 662 C151 545 115 428 78 305 C50 205 28 103 4 1 C2 -10 -9 -51 14 -42 C19 -40 26 -33 32 -29 C58 -13 86 1 114 12 C181 38 250 58 320 74 C337 78 354 80 371 78 C378 77 383 83 383 90 C383 101 366 106 357 105 C342 104 326 101 311 98 C216 78 117 49 30 -2 L30 -2 Z " />
<glyph glyph-name="M" unicode="M" horiz-adv-x="546" d="M122 378 C80 292 47 203 12 116 C31 271 70 421 113 584 C115 591 111 598 105 598 C98 599 93 595 91 587 C72 517 53 447 32 368 C21 328 13 287 6 246 C-4 190 -12 135 -13 91 C-13 84 -12 75 -10 70 C-5 57 9 56 18 67 C26 78 36 103 43 122 C86 240 135 356 194 468 C210 498 227 527 247 554 C223 450 188 295 193 239 C194 219 207 205 224 216 C239 226 254 261 264 279 C291 333 321 385 352 437 C388 496 427 553 473 605 C492 626 513 650 537 667 C536 650 532 633 528 616 C512 555 495 494 479 433 C444 296 414 155 402 7 C400 -17 398 -42 397 -66 C396 -71 398 -77 399 -81 C401 -87 406 -89 411 -88 C416 -87 420 -84 421 -79 C422 -77 422 -74 422 -72 C423 -61 422 -50 423 -39 C429 32 436 103 450 176 C472 294 498 409 531 530 C541 568 565 649 562 678 C560 691 549 696 537 694 C524 691 514 681 502 670 C463 634 430 594 398 552 C348 483 307 410 266 336 C251 307 235 279 220 250 C220 298 230 345 239 393 C248 439 259 484 269 529 C272 542 275 556 274 569 C273 577 270 584 262 588 C248 593 235 579 227 569 C214 549 200 529 188 508 C163 466 142 422 122 378 L122 378 Z " />
<glyph glyph-name="N" unicode="N" horiz-adv-x="443" d="M146 503 C150 406 152 307 153 206 C153 162 159 101 182 67 C199 42 227 36 252 53 C264 61 273 71 282 82 C364 195 406 344 418 485 C421 541 424 609 399 663 C395 671 390 677 383 682 C371 690 354 688 344 679 C340 676 339 670 341 666 C344 659 352 658 359 661 C366 663 370 662 374 655 C377 651 379 647 380 643 C387 624 390 605 391 586 C397 466 378 352 333 235 C316 192 297 150 271 111 C262 97 252 84 239 75 C225 65 215 67 205 81 C179 117 180 177 177 308 C178 376 177 444 171 512 C170 520 168 527 165 534 C160 545 146 546 137 538 C123 525 109 483 99 452 C79 389 64 326 49 262 C31 179 16 96 2 13 C0 4 2 -13 16 -10 C21 -9 24 -4 24 8 C32 48 40 88 48 128 C61 193 75 259 90 324 C106 385 122 439 146 503 L146 503 Z " />
<glyph glyph-name="O" unicode="O" horiz-adv-x="436" d="M386 477 C369 559 275 623 179 576 C109 543 55 471 35 403 C19 350 5 272 21 228 C24 217 38 199 49 210 C53 214 54 220 50 225 C42 236 41 249 41 262 C38 341 60 427 109 487 C150 538 208 577 271 564 C332 551 360 498 366 444 C377 318 318 166 252 64 C227 26 136 -82 91 -19 C56 30 74 121 88 182 C102 245 150 363 188 408 C192 413 192 420 188 425 C182 433 172 426 167 421 C111 348 83 272 64 194 C46 116 32 31 68 -29 C85 -59 111 -70 144 -62 C209 -46 259 27 286 72 C346 173 409 328 386 477 L386 477 Z " />
<glyph glyph-name="P" unicode="P" horiz-adv-x="555" d="M129 218 C109 142 97 73 84 -9 C81 -34 72 -81 81 -100 C84 -106 89 -108 95 -107 C100 -106 104 -102 103 -95 C101 -80 103 -66 104 -51 C114 39 136 127 156 218 C170 217 232 228 257 238 C368 276 483 345 553 453 C586 510 594 584 549 622 C504 664 434 665 374 657 C258 637 144 582 41 520 C26 510 11 500 -1 487 C-6 480 -11 473 -12 463 C-13 456 -10 451 -4 448 C2 446 7 448 10 454 C23 481 62 502 95 520 C190 571 295 626 409 634 C438 636 468 634 497 623 C564 596 564 531 532 470 C488 393 409 340 329 297 C277 271 222 250 163 245 C190 342 216 437 250 539 C252 545 252 551 247 555 C237 560 230 556 226 545 C194 454 167 360 135 244 C114 242 83 249 64 273 C58 281 48 284 42 275 C40 269 42 264 52 253 C64 241 79 230 96 225 C106 222 117 220 129 218 L129 218 Z " />
<glyph glyph-name="Q" unicode="Q" horiz-adv-x="500" d="M284 18 C349 -52 413 -94 478 -120 C485 -123 492 -124 499 -125 C506 -127 510 -130 511 -136 C511 -142 508 -148 501 -149 C483 -151 457 -139 440 -130 C377 -98 332 -67 289 -24 C280 -14 273 -8 266 -1 C243 -28 215 -49 186 -64 C167 -73 147 -80 126 -81 C86 -82 55 -61 40 -22 C29 5 28 34 29 63 C29 77 31 91 32 106 C20 102 9 98 1 87 C-1 82 -8 81 -13 83 C-17 86 -20 92 -17 97 C-15 102 -12 107 -8 111 C4 124 26 132 37 135 C48 181 64 230 79 255 C68 273 59 302 56 322 C50 371 58 419 73 465 C106 563 173 661 272 690 C314 703 354 700 390 675 C496 593 468 422 440 317 C412 223 371 136 314 56 C303 43 295 29 284 18 L284 18 Z M266 36 C276 48 285 59 294 72 C357 160 401 257 425 362 C439 420 445 478 437 537 C428 589 408 640 362 662 C245 706 141 571 105 481 C88 437 78 393 80 346 C80 324 83 303 94 283 C111 313 128 344 146 375 C157 393 169 410 184 425 C189 430 195 434 201 438 C207 441 214 440 220 437 C225 434 227 430 226 425 C226 420 222 416 217 416 C211 415 207 413 203 409 C199 405 195 401 192 396 C160 355 135 305 111 259 C122 249 144 240 165 242 C177 244 188 249 200 252 C212 255 221 253 221 242 C221 237 219 233 214 232 C204 229 195 225 186 222 C151 211 120 220 100 235 C84 204 71 170 64 136 C130 134 185 106 234 64 C245 55 255 46 266 36 L266 36 Z M248 16 C229 41 169 81 152 89 C125 103 78 111 59 110 C55 94 53 45 54 35 C57 -2 68 -45 106 -54 C153 -58 191 -36 221 -9 C230 -1 239 7 248 16 L248 16 Z " />
<glyph glyph-name="R" unicode="R" horiz-adv-x="577" d="M430 682 C384 678 340 666 297 648 C233 622 174 587 120 544 C89 520 61 493 37 462 C24 445 13 428 7 407 C5 400 4 392 6 384 C8 378 14 375 19 376 C25 377 28 383 28 389 C28 393 28 397 29 401 C36 427 60 452 78 472 C110 505 146 533 183 559 C237 594 293 623 354 642 C397 655 441 661 486 658 C530 655 580 636 588 589 C598 511 522 438 472 394 C379 313 275 248 164 194 C170 221 178 248 184 275 C197 328 211 381 220 435 C222 449 223 462 224 475 C224 477 224 479 224 480 C222 489 216 493 209 492 C202 491 198 483 199 475 C200 471 201 466 200 462 C196 443 193 422 188 403 C181 372 174 340 166 309 C156 268 144 217 135 182 C121 174 57 153 43 150 C33 148 27 142 29 133 C31 125 40 123 47 124 C69 127 97 130 123 132 C118 106 111 79 106 53 C88 -31 72 -109 60 -188 C59 -196 60 -204 61 -212 C62 -219 68 -222 74 -221 C81 -220 84 -216 84 -208 C85 -203 84 -197 85 -191 C103 -82 124 27 151 130 C250 128 340 103 418 69 C430 64 463 47 463 39 C463 34 466 31 471 29 C476 28 480 30 483 34 C491 43 489 57 474 67 C463 74 451 81 439 87 C371 119 302 140 237 150 C207 154 181 157 156 157 C156 163 156 163 160 165 C182 175 203 185 224 196 C312 242 395 297 472 360 C540 416 606 486 614 557 C627 662 521 692 430 682 L430 682 Z " />
<glyph glyph-name="S" unicode="S" horiz-adv-x="517" d="M612 690 C564 720 488 712 431 700 C343 680 260 647 183 600 C126 567 53 518 31 462 C21 437 23 411 37 388 C68 342 122 312 163 283 C235 231 302 176 331 102 C354 36 324 -19 278 -57 C240 -87 198 -106 152 -119 C128 -125 44 -140 49 -98 C52 -71 98 -19 126 4 C132 9 138 13 147 13 C152 12 156 16 157 21 C159 33 149 38 138 37 C127 36 119 31 111 25 C80 0 17 -64 24 -107 C28 -129 41 -142 61 -147 C113 -161 203 -132 250 -106 C306 -74 355 -26 364 35 C368 65 362 93 351 120 C317 195 250 253 186 297 C138 332 87 359 59 400 C43 428 55 455 70 475 C89 500 113 521 138 539 C231 608 335 654 449 678 C482 685 516 688 551 684 C595 678 635 652 613 608 C604 590 585 568 566 552 C522 517 475 488 420 472 C414 470 410 465 412 459 C414 447 431 451 438 453 C503 474 610 533 639 605 C653 639 643 670 612 690 L612 690 Z " />
<glyph glyph-name="T" unicode="T" horiz-adv-x="400" d="M247 577 C218 467 188 357 166 236 C148 139 117 -42 123 -75 C123 -84 132 -102 145 -96 C149 -94 150 -89 150 -84 C143 -62 152 -14 157 28 C170 117 186 206 203 294 C223 389 246 478 276 581 C316 588 350 595 387 601 C462 615 538 619 617 625 C619 625 622 623 624 622 C638 615 646 623 647 633 C647 647 629 651 617 650 C547 646 477 639 394 628 C345 621 297 613 248 603 C156 584 67 561 -19 524 C-26 521 -31 518 -30 509 C-29 504 -25 500 -20 500 C-10 501 7 508 20 513 C94 539 171 562 247 577 L247 577 Z " />
<glyph glyph-name="U" unicode="U" horiz-adv-x="478" d="M422 477 C427 487 431 495 438 507 C417 434 400 357 384 265 C366 159 353 50 355 -61 C355 -73 356 -84 358 -96 C359 -103 362 -109 368 -113 C374 -117 381 -117 386 -113 C390 -108 390 -103 386 -96 C384 -94 383 -91 382 -88 C381 -81 380 -73 380 -66 C379 56 393 175 418 309 C434 389 454 469 477 547 C488 586 499 624 514 661 C518 674 528 687 515 693 C503 699 499 690 494 680 C484 658 475 635 463 613 C427 543 392 473 354 404 C312 324 268 245 222 167 C193 119 164 71 130 27 C114 6 84 -32 68 -30 C47 -30 43 23 49 61 C62 182 99 292 141 413 C154 448 168 482 181 516 C182 518 183 520 185 521 C189 523 192 527 192 532 C192 537 189 541 184 544 C176 548 169 544 164 534 C147 502 119 429 101 373 C64 258 10 95 24 -1 C27 -30 43 -63 79 -53 C108 -45 129 -15 151 12 C186 59 216 108 246 159 C308 263 366 369 422 477 L422 477 Z " />
<glyph glyph-name="V" unicode="V" horiz-adv-x="389" d="M482 641 C472 648 465 645 456 630 C409 555 366 484 325 412 C215 219 152 104 107 -21 C100 -40 67 -126 62 -127 C55 -119 52 -45 54 -7 C64 198 89 315 110 472 C118 520 124 569 131 618 C132 625 129 630 122 632 C116 633 110 629 109 621 C99 567 91 516 84 466 C59 321 39 177 31 33 C28 -13 27 -60 32 -106 C34 -118 36 -130 42 -141 C50 -157 67 -158 79 -146 C90 -135 113 -82 122 -55 C175 101 254 235 331 371 C383 462 432 544 483 625 C487 631 487 637 482 641 L482 641 Z " />
<glyph glyph-name="W" unicode="W" horiz-adv-x="628" d="M584 512 C582 524 574 541 560 533 C550 527 559 515 559 507 C560 494 561 480 561 467 C554 328 538 161 502 66 C484 17 460 -38 424 -58 C412 -65 404 -62 396 -51 C390 -41 385 -29 383 -17 C365 80 379 172 388 263 C391 293 396 324 391 345 C388 359 375 365 360 357 C333 342 290 253 277 225 C252 172 228 120 204 67 C183 23 160 -20 134 -60 C114 -90 84 -125 67 -129 C50 -133 45 -118 43 -110 C28 -46 40 35 53 101 C68 174 87 246 112 317 C133 377 156 436 179 496 C195 536 211 576 226 616 C228 620 228 626 224 628 C207 637 202 621 197 609 C178 563 160 516 142 469 C84 325 36 183 16 35 C8 -20 3 -81 22 -129 C32 -154 55 -159 74 -153 C123 -137 182 -34 209 22 C256 119 291 204 343 295 C348 304 359 320 365 329 C365 289 361 251 356 213 C350 164 346 115 347 66 C349 15 354 -34 376 -67 C395 -94 427 -90 448 -72 C497 -29 529 51 542 104 C558 168 576 257 581 336 C586 414 588 463 584 512 L584 512 Z " />
<glyph glyph-name="X" unicode="X" horiz-adv-x="400" d="M614 676 C613 681 609 684 603 685 C586 688 568 667 557 658 C423 540 306 428 201 306 C179 394 159 476 140 557 C138 567 129 576 120 570 C116 568 114 563 115 557 C118 547 121 537 123 527 C139 447 157 368 180 289 C181 285 180 282 177 278 C105 191 36 102 -23 6 C-51 -41 -84 -95 -100 -134 C-102 -140 -99 -146 -94 -148 C-88 -150 -82 -148 -79 -142 C-72 -128 -64 -113 -56 -99 C13 28 92 134 178 239 C181 243 185 248 190 253 C198 224 206 197 214 169 C236 96 255 28 281 -41 C284 -49 292 -50 298 -47 C304 -44 306 -38 303 -30 C300 -23 298 -16 295 -9 C265 84 238 178 210 273 C210 276 210 278 212 280 C236 307 259 335 284 360 C397 475 486 557 576 640 C585 649 596 655 608 664 C612 667 615 671 614 676 L614 676 Z " />
<glyph glyph-name="Y" unicode="Y" horiz-adv-x="411" d="M385 515 C390 521 393 524 397 528 C392 515 356 432 347 408 C297 270 257 123 238 -31 C235 -55 230 -100 236 -111 C241 -121 253 -125 262 -118 C267 -113 268 -105 263 -101 C259 -98 258 -94 258 -90 C259 -73 260 -56 262 -39 C276 72 304 181 339 303 C366 396 401 485 446 570 C450 578 454 585 458 593 C461 600 461 607 453 612 C443 618 435 611 429 603 C368 536 310 466 254 395 C213 344 172 294 131 244 C114 222 84 193 68 189 C62 187 58 188 55 195 C48 214 47 245 48 265 C54 354 80 441 109 537 C116 560 123 583 129 606 C131 612 128 619 123 621 C115 624 108 618 106 610 C95 577 85 544 75 511 C53 440 34 368 25 294 C21 253 19 208 34 181 C41 168 57 162 70 164 C87 166 114 184 142 217 C177 260 212 303 248 346 C293 403 339 459 385 515 L385 515 Z " />
<glyph glyph-name="Z" unicode="Z" horiz-adv-x="402" d="M109 334 C123 344 138 355 143 359 C190 392 236 424 282 456 C320 483 369 518 389 554 C404 583 396 606 366 617 C303 640 217 639 138 628 C135 627 130 625 127 621 C117 611 131 600 142 604 C144 606 146 606 149 606 C167 608 185 610 204 611 C253 613 315 615 363 591 C371 586 371 574 367 566 C357 549 339 531 313 511 C266 477 218 443 171 409 C141 388 114 369 84 347 C80 344 71 337 67 332 C59 321 66 308 79 307 C121 307 160 309 207 300 C233 294 257 284 279 267 C331 225 338 153 315 91 C287 24 246 -34 192 -83 C167 -105 139 -122 108 -135 C74 -147 43 -132 45 -101 C48 -67 81 -18 105 1 C110 6 111 12 108 17 C105 22 99 24 92 21 C75 10 65 -3 50 -24 C32 -51 8 -92 24 -128 C40 -161 81 -169 112 -160 C147 -149 176 -130 203 -107 C278 -41 362 76 352 182 C343 248 308 287 248 313 C206 330 158 335 109 334 L109 334 Z " />
<glyph glyph-name="bracketleft" unicode="&#x5b;" horiz-adv-x="170" d="M152 548 C138 550 123 553 119 539 C112 514 104 488 97 462 C65 325 43 212 25 96 C23 82 30 73 44 74 C66 74 88 75 110 77 C120 77 123 86 123 90 C123 100 111 102 104 102 C86 101 68 99 51 99 C73 242 103 380 137 517 C139 527 142 525 151 525 C158 526 160 529 162 536 C164 542 159 547 152 548 L152 548 Z " />
<glyph glyph-name="backslash" unicode="&#x5c;" horiz-adv-x="149" d="M118 114 C100 215 83 313 63 410 C57 440 50 471 44 502 C43 507 40 511 36 512 C28 513 23 509 22 503 C21 501 22 497 22 495 C29 457 36 418 43 380 C60 289 75 198 93 107 C95 97 99 94 108 94 C119 96 120 104 118 114 L118 114 Z " />
<glyph glyph-name="bracketright" unicode="&#x5d;" horiz-adv-x="198" d="M157 541 C156 541 154 541 152 540 C139 539 125 537 111 536 C104 535 99 530 100 522 C101 517 106 513 113 513 C120 513 127 513 134 514 C141 515 148 515 156 516 C156 515 156 514 156 513 C151 489 147 464 142 440 C133 400 122 360 113 320 C102 265 93 210 82 155 C80 140 76 125 73 111 C72 105 69 103 64 101 C59 100 54 99 49 97 C41 96 38 90 39 82 C40 76 46 72 53 73 C58 73 62 75 67 76 C85 80 96 90 99 108 C103 131 108 154 112 177 C121 222 128 267 138 311 C148 363 162 414 173 465 C177 482 179 500 181 518 C183 534 174 543 157 541 L157 541 Z " />
<glyph glyph-name="asciicircum" unicode="&#x5e;" horiz-adv-x="136" d="M121 638 C128 641 129 651 125 657 C120 663 116 669 110 674 C100 682 89 683 79 676 C69 669 62 663 53 655 C46 649 46 644 48 640 C50 635 54 633 59 634 C70 637 79 647 88 654 C91 656 94 656 96 653 C100 649 103 645 107 641 C111 637 116 636 121 638 L121 638 Z " />
<glyph glyph-name="underscore" unicode="&#x5f;" horiz-adv-x="228" d="M152 225 C170 225 191 226 204 226 C212 227 217 232 217 239 C217 246 212 251 204 251 C189 251 175 251 160 250 C115 249 86 248 46 246 C39 246 35 243 33 238 C31 228 38 224 47 223 L152 225 Z " />
<glyph glyph-name="grave" unicode="&#x60;" horiz-adv-x="94" d="M76 625 C72 634 67 642 62 651 C57 662 41 661 37 651 C35 647 36 641 40 638 C48 634 52 622 55 615 C59 607 65 604 72 607 C78 610 80 617 76 625 L76 625 Z " />
<glyph glyph-name="a" unicode="a" horiz-adv-x="258" d="M115 313 C115 313 114 313 114 313 C115 316 115 318 115 320 C118 349 94 369 66 361 C49 357 36 347 25 334 C-4 303 -36 241 -34 197 C-33 184 -23 176 -9 178 C7 180 23 192 31 198 C59 220 90 252 114 275 C107 254 104 230 107 213 C109 199 117 190 129 188 C150 186 184 213 194 220 C218 238 250 262 269 277 C275 282 272 295 258 300 C258 300 203 258 181 242 C167 232 141 211 136 212 C127 214 132 244 136 256 C142 275 148 293 154 311 C155 314 156 318 156 321 C155 333 144 338 135 332 C132 330 129 327 126 324 C122 321 119 317 115 313 L115 313 Z M-10 201 C-9 209 -8 216 -7 222 C2 256 17 287 40 313 C47 322 57 333 73 337 C85 341 93 334 93 322 C93 310 98 306 111 308 C72 271 35 229 -10 201 L-10 201 Z " />
<glyph glyph-name="b" unicode="b" horiz-adv-x="218" d="M39 310 C55 329 71 348 86 368 C120 416 154 464 182 517 C214 576 248 670 240 723 C237 745 218 758 196 750 C128 726 93 625 69 565 C46 503 30 438 14 373 C9 353 2 312 -6 268 C-6 268 -18 188 -20 177 C-24 145 -31 110 -31 78 C-30 72 -26 69 -20 68 C-15 68 -10 70 -8 75 C-6 78 -6 81 -5 84 C9 136 28 186 56 233 C59 238 62 244 65 249 C59 234 54 221 49 208 C44 195 42 183 43 169 C45 144 67 132 89 143 C104 151 115 163 124 176 C150 216 169 259 181 305 C187 329 191 365 164 371 C142 376 121 357 108 344 C76 311 49 274 27 233 C21 223 10 202 9 202 C9 202 19 264 19 268 C19 268 22 286 23 294 C24 300 32 302 39 310 L39 310 Z M35 350 C61 461 88 571 144 666 C160 692 178 719 203 726 C210 728 215 726 216 718 C217 709 216 700 215 690 C211 647 197 607 179 568 C154 512 120 461 85 411 C67 386 48 358 32 339 C33 342 34 347 35 350 L35 350 Z M74 205 C81 222 85 233 95 248 C99 254 101 258 98 263 C94 270 84 271 78 267 C82 273 88 282 94 289 C112 310 127 329 152 345 C158 349 161 346 161 340 C160 329 159 319 156 310 C144 265 126 223 98 185 C93 178 87 170 79 166 C73 162 69 164 68 172 C67 182 71 196 74 205 L74 205 Z " />
<glyph glyph-name="c" unicode="c" horiz-adv-x="138" d="M-16 266 C-24 244 -34 206 -30 185 C-26 166 -12 157 7 161 C16 164 25 168 32 174 C54 192 74 212 97 234 C101 237 103 240 103 245 C102 250 99 253 95 255 C88 258 82 255 77 251 C59 232 40 214 17 195 C13 191 -2 181 -5 184 C-7 187 -6 205 -4 212 C3 255 21 293 48 327 C53 333 73 353 82 349 C86 348 86 343 85 339 C85 332 88 327 94 326 C100 325 106 328 107 335 C110 346 108 357 100 366 C90 376 79 377 66 372 C39 362 5 321 -16 266 L-16 266 Z " />
<glyph glyph-name="d" unicode="d" horiz-adv-x="288" d="M108 285 C108 266 109 245 116 226 C124 208 137 198 157 197 C173 196 193 203 209 213 C236 232 267 255 295 274 C304 281 304 295 288 300 C288 300 261 280 253 275 C233 261 214 247 194 233 C183 227 171 221 159 222 C148 223 142 227 139 239 C133 267 135 296 135 322 C135 328 137 333 140 338 C175 401 211 479 242 562 C260 614 284 690 277 736 C273 754 258 758 244 747 C230 735 220 718 210 698 C190 656 176 613 162 569 C139 497 121 430 114 352 C114 347 111 338 108 334 C93 310 77 286 61 263 C50 247 36 233 23 221 C16 215 8 209 4 210 C1 211 1 221 2 227 C7 263 23 296 47 323 C51 328 56 332 62 335 C66 337 68 336 70 332 C73 328 78 326 83 327 C87 329 91 333 91 339 C90 344 88 348 84 352 C76 360 66 361 55 357 C44 353 35 346 27 338 C-1 307 -19 269 -23 231 C-25 221 -26 184 8 186 C20 188 30 193 38 200 C65 223 86 253 108 285 L108 285 Z M146 403 C154 455 167 499 184 556 C197 597 210 637 228 676 C234 690 243 711 254 723 C254 686 243 650 230 605 C207 536 180 467 146 403 L146 403 Z " />
<glyph glyph-name="e" unicode="e" horiz-adv-x="196" d="M17 274 C34 266 48 269 62 277 C81 287 96 302 107 321 C111 328 114 337 116 345 C119 362 108 380 91 380 C64 380 41 360 21 335 C-2 302 -16 269 -20 229 C-23 190 1 171 33 172 C57 174 76 181 95 191 C118 204 140 217 163 230 C168 234 173 240 169 248 C165 255 155 256 148 251 C138 245 127 239 117 233 C99 222 57 194 26 196 C15 196 7 204 6 215 C6 230 10 253 17 274 L17 274 Z M45 295 C42 294 35 291 30 292 C28 293 26 295 28 299 C38 319 52 337 73 349 C76 351 81 353 85 354 C94 356 90 344 88 339 C78 319 64 305 45 295 L45 295 Z " />
<glyph glyph-name="f" unicode="f" horiz-adv-x="144" d="M144 300 C95 279 48 257 4 233 C22 295 56 385 87 459 C98 486 110 512 121 539 C123 543 123 548 120 551 C117 555 112 556 108 554 C104 552 100 548 99 545 C88 524 77 503 68 481 C36 403 6 324 -19 243 C-40 176 -59 107 -66 37 C-69 4 -70 -29 -63 -62 C-60 -78 -55 -93 -45 -107 C-34 -122 -17 -127 1 -123 C19 -118 32 -108 44 -95 C66 -72 81 -45 91 -15 C99 8 104 31 103 54 C101 94 84 127 57 155 C38 174 17 188 -1 200 C33 222 74 240 110 257 C125 264 135 268 150 274 C161 280 163 296 144 300 L144 300 Z M57 116 C74 89 81 60 76 29 C70 -9 56 -42 32 -72 C24 -81 16 -88 6 -94 C4 -95 3 -96 1 -96 C-12 -102 -22 -99 -28 -86 C-35 -74 -38 -61 -40 -48 C-46 -6 -42 35 -35 76 C-29 108 -21 140 -14 172 C-14 173 -13 175 -12 176 C14 159 40 142 57 116 L57 116 Z " />
<glyph glyph-name="g" unicode="g" horiz-adv-x="217" d="M144 305 C135 263 128 219 120 176 C120 176 100 164 92 160 C37 128 -13 92 -56 46 C-94 6 -128 -36 -151 -86 C-170 -128 -182 -171 -179 -218 C-178 -238 -174 -257 -165 -275 C-148 -308 -117 -322 -80 -312 C-31 -298 3 -248 28 -203 C53 -158 71 -110 87 -61 C111 9 125 76 140 148 C140 151 142 159 142 159 C149 163 157 169 166 169 C172 169 178 175 178 182 C179 188 176 193 169 194 C161 196 152 193 149 191 C159 239 166 287 172 336 C173 343 169 349 163 353 C158 355 152 354 146 348 C140 340 132 332 126 324 C102 297 77 272 51 247 C41 239 31 231 19 226 C9 223 7 225 7 235 C7 268 22 294 48 315 C51 317 56 320 59 319 C63 317 64 311 63 307 C63 300 67 294 73 294 C79 293 84 297 85 303 C87 314 86 323 79 333 C68 348 49 347 32 335 C9 318 -6 295 -14 267 C-19 253 -21 237 -17 220 C-14 209 -7 202 5 200 C24 197 47 211 61 224 C87 244 109 269 132 293 C135 296 140 301 144 305 L144 305 Z M113 141 C110 130 107 117 104 106 C95 66 87 28 76 -11 C60 -70 39 -127 11 -181 C-4 -210 -21 -238 -46 -261 C-63 -278 -88 -295 -115 -288 C-143 -280 -152 -242 -154 -214 C-156 -167 -143 -123 -120 -82 C-78 -7 -21 54 50 103 C70 117 91 130 113 141 L113 141 Z " />
<glyph glyph-name="h" unicode="h" horiz-adv-x="285" d="M285 300 C285 300 226 250 195 232 C189 228 175 219 165 216 C156 213 149 216 146 223 C138 243 136 273 132 296 C130 308 128 321 123 331 C115 346 102 349 88 341 C61 326 35 290 18 262 C21 275 21 293 28 303 C60 353 92 403 121 455 C151 509 175 566 193 625 C202 659 208 689 201 713 C195 733 177 741 158 735 C95 714 62 596 48 542 C36 495 27 448 18 401 C14 379 -13 232 -16 213 C-17 205 -19 198 -19 191 C-19 185 -17 181 -12 179 C-7 176 -2 177 2 181 C5 184 7 187 8 190 C18 212 30 233 42 254 C55 274 69 293 87 310 C90 313 97 319 99 318 C102 317 104 308 105 303 C112 270 112 233 127 208 C135 194 148 188 164 191 C199 197 259 248 293 276 C300 282 303 295 285 300 L285 300 Z M48 422 C57 469 66 515 80 561 C95 613 116 687 164 710 C172 713 175 711 177 703 C180 691 179 680 177 668 C171 633 159 600 146 567 C122 507 90 450 56 394 C53 389 44 375 38 368 C41 386 45 404 48 422 L48 422 Z " />
<glyph glyph-name="i" unicode="i" horiz-adv-x="168" d="M168 300 C168 300 151 283 145 278 C121 255 98 233 74 211 C61 199 42 187 30 185 C21 183 15 186 12 195 C8 208 9 223 11 237 C15 268 24 297 35 326 C37 331 36 337 32 340 C27 343 20 343 17 339 C7 323 2 306 -3 290 C-12 263 -18 219 -12 192 C-8 173 4 162 22 160 C45 157 72 175 90 191 C120 219 181 277 182 278 C187 284 186 294 168 300 L168 300 Z M53 443 C59 444 64 450 64 456 C63 463 56 468 50 467 C44 466 40 461 40 454 C41 448 46 443 53 443 L53 443 Z " />
<glyph glyph-name="j" unicode="j" horiz-adv-x="80" d="M32 175 C23 175 14 173 4 172 C9 201 20 254 24 292 C25 302 26 313 27 323 C27 329 23 332 19 334 C11 337 4 332 3 323 C-1 291 -5 260 -11 228 C-14 209 -19 187 -23 168 C-106 152 -184 125 -253 76 C-343 14 -432 -113 -408 -221 C-402 -251 -386 -276 -358 -289 C-293 -320 -217 -261 -179 -225 C-150 -198 -128 -165 -108 -130 C-77 -78 -55 -22 -35 36 C-24 70 -13 108 -3 144 C12 149 30 151 44 150 C51 149 57 152 58 159 C60 175 43 175 32 175 L32 175 Z M-79 -10 C-109 -83 -143 -159 -201 -211 C-235 -242 -293 -287 -340 -270 C-364 -260 -378 -241 -383 -216 C-407 -111 -310 7 -232 60 C-171 101 -104 126 -31 139 C-44 88 -59 38 -79 -10 L-79 -10 Z M40 455 C46 454 52 459 53 467 C53 474 50 479 43 480 C37 481 30 476 29 470 C28 463 33 456 40 455 L40 455 Z " />
<glyph glyph-name="k" unicode="k" horiz-adv-x="257" d="M257 300 C203 262 94 192 22 210 C18 211 15 215 16 219 C17 225 20 229 23 234 C36 254 54 270 73 285 C91 300 112 313 133 325 C142 330 144 338 137 343 C129 348 120 343 113 340 C79 323 20 271 19 270 C20 276 21 279 22 283 C26 297 28 303 35 313 C44 324 57 343 64 356 C97 407 124 451 153 505 C188 570 220 649 219 714 C219 737 208 755 186 753 C148 748 112 670 98 642 C62 562 36 478 18 392 C11 356 3 320 -4 283 C-14 231 -23 179 -32 126 C-38 89 -44 53 -48 12 C-49 6 -44 2 -39 0 C-29 -2 -24 4 -23 14 C-16 75 -5 131 4 190 C9 188 12 187 16 185 C93 168 203 233 260 272 C263 274 279 287 257 300 L257 300 Z M43 387 C52 432 64 476 78 520 C93 566 111 611 133 655 C147 683 163 709 185 728 C195 736 194 705 193 696 C187 645 170 597 148 550 C123 500 95 451 65 403 C60 394 48 378 38 362 C40 371 41 379 43 387 L43 387 Z " />
<glyph glyph-name="l" unicode="l" horiz-adv-x="189" d="M4 333 C-4 280 -14 176 7 137 C31 95 73 102 105 140 C133 166 183 240 206 277 C210 283 215 296 189 300 C189 300 105 174 81 152 C70 141 51 127 36 142 C22 158 20 188 20 202 C21 225 23 249 23 272 C23 288 29 300 38 312 C59 340 79 368 98 398 C154 489 231 611 249 725 C251 739 251 754 247 768 C242 786 227 796 208 794 C152 788 120 725 95 674 C63 603 41 529 24 454 C15 414 9 374 4 333 L4 333 Z M31 344 C35 383 44 431 56 480 C71 539 89 597 113 652 C130 690 167 760 209 770 C231 775 225 735 223 722 C206 619 143 523 85 426 C69 398 48 371 31 344 L31 344 Z " />
<glyph glyph-name="m" unicode="m" horiz-adv-x="363" d="M363 300 C363 300 322 252 302 233 C294 225 273 209 261 205 C247 201 238 206 236 221 C234 247 232 279 226 296 C220 313 205 318 190 310 C175 303 164 291 153 280 C139 265 129 253 116 238 C115 236 109 230 108 229 C111 252 125 320 121 341 C118 355 105 360 92 354 C83 349 76 338 71 332 C49 299 30 270 15 242 C20 270 28 301 34 330 C36 342 42 356 27 359 C21 360 15 358 13 351 C11 345 10 340 8 333 C-1 301 -8 272 -13 239 C-15 226 -16 213 -15 205 C-13 192 1 185 12 193 C23 204 30 217 38 229 C56 258 94 318 95 320 C92 301 87 269 84 246 C82 235 81 225 84 215 C87 200 100 193 113 200 C123 205 138 222 146 233 C161 251 173 264 195 283 C197 284 200 286 202 288 C204 281 206 261 207 247 C208 239 209 224 211 216 C216 188 241 173 268 180 C281 184 295 193 302 199 C322 216 357 251 373 272 C381 283 383 295 363 300 L363 300 Z " />
<glyph glyph-name="n" unicode="n" horiz-adv-x="161" d="M118 358 C104 360 91 346 81 337 C55 313 28 282 10 257 C17 279 26 301 31 315 C35 325 28 332 19 330 C14 328 11 324 9 320 C-4 291 -21 247 -32 214 C-34 208 -31 201 -26 198 C-22 195 -14 196 -8 202 C3 212 19 233 32 249 C60 281 83 308 108 330 C98 297 93 273 88 241 C86 228 84 202 84 190 C84 185 87 181 91 179 C99 175 109 183 110 194 C111 213 113 232 116 251 C120 272 125 293 129 314 C132 329 138 355 118 358 L118 358 Z " />
<glyph glyph-name="o" unicode="o" horiz-adv-x="171" d="M-4 283 C-14 286 -21 284 -24 274 C-29 259 -36 228 -27 197 C-21 180 -9 172 7 172 C16 173 25 175 32 181 C47 192 58 209 68 227 C69 230 71 231 74 231 C81 232 88 233 94 234 C128 241 154 257 177 272 C182 275 193 287 171 300 C146 282 107 261 81 258 C85 272 87 287 85 304 C82 330 60 346 36 339 C20 334 9 323 2 307 C-1 299 -2 291 -4 283 L-4 283 Z M1 267 C9 247 25 239 41 235 C36 224 25 203 11 195 C3 191 -4 194 -6 201 C-9 214 -11 238 1 267 L1 267 Z M60 301 C61 287 58 271 53 258 C47 258 39 261 34 263 C26 267 20 277 21 285 C23 298 28 308 43 315 C53 318 59 312 60 301 L60 301 Z " />
<glyph glyph-name="p" unicode="p" horiz-adv-x="224" d="M-17 97 C3 198 20 281 25 306 C26 312 23 317 17 319 C9 321 4 316 2 308 C-5 277 -13 246 -20 215 C-35 140 -50 66 -65 -9 C-73 -52 -79 -95 -86 -138 C-90 -168 -95 -197 -98 -229 C-99 -236 -97 -241 -92 -244 C-84 -249 -74 -244 -73 -233 C-66 -193 -61 -154 -50 -108 C-38 -53 -21 0 -4 53 C11 101 27 149 46 196 C61 230 77 264 99 295 C112 312 125 328 143 340 C152 347 158 346 159 332 C159 285 147 246 105 208 C104 207 103 206 103 206 C99 201 98 195 102 190 C105 185 113 183 117 186 C133 198 148 213 159 233 C173 257 181 283 184 311 C185 323 185 336 180 348 C173 367 158 374 139 367 C97 347 66 294 50 264 C27 221 10 175 -6 129 C-9 121 -14 105 -17 97 L-17 97 Z " />
<glyph glyph-name="q" unicode="q" horiz-adv-x="267" d="M14 198 C52 202 74 242 95 270 C90 257 48 148 30 88 C29 84 27 82 23 79 C18 75 12 70 7 65 C0 56 2 46 11 39 C14 37 14 35 13 31 C-4 -35 -19 -101 -29 -169 C-36 -220 -42 -294 -24 -331 C-11 -361 17 -371 46 -357 C66 -347 82 -331 95 -312 C134 -259 162 -178 152 -105 C140 -42 109 9 54 43 C44 49 45 49 48 59 C49 65 52 68 57 72 C72 83 88 94 103 106 C165 153 218 209 274 268 C282 278 294 291 267 300 C209 233 141 166 63 107 C91 191 125 272 161 362 C165 370 167 382 156 386 C146 390 142 382 136 375 C111 339 86 303 61 268 C52 255 24 212 9 222 C-3 230 20 285 25 295 C31 305 49 328 61 311 C68 301 74 298 82 306 C89 313 84 318 79 326 C71 339 53 345 38 340 C28 337 21 330 14 323 C-7 298 -24 246 -17 220 C-13 204 -1 197 14 198 L14 198 Z M38 24 C49 16 60 9 69 0 C108 -39 130 -86 129 -142 C129 -196 103 -255 70 -303 C56 -323 17 -358 -1 -321 C-17 -280 -10 -229 -5 -180 C4 -113 34 11 38 24 L38 24 Z " />
<glyph glyph-name="r" unicode="r" horiz-adv-x="178" d="M153 349 C148 351 138 348 130 344 C73 317 37 280 7 234 C12 256 22 298 23 303 C25 312 21 316 14 318 C7 319 2 314 0 305 C-8 267 -18 230 -25 194 C-26 187 -23 182 -17 179 C-11 177 -5 177 -1 182 C13 199 25 218 36 232 C75 284 94 296 139 321 C141 322 154 328 158 329 C166 331 161 346 153 349 L153 349 Z " />
<glyph glyph-name="s" unicode="s" horiz-adv-x="157" d="M52 339 C54 335 55 332 57 329 C60 324 66 322 71 324 C76 327 78 332 77 337 C75 343 72 349 69 354 C62 362 53 365 44 361 C8 341 -6 299 -7 252 C-7 234 -6 216 -4 185 C-15 173 -30 158 -40 146 C-72 110 -104 56 -94 4 C-88 -25 -54 -44 -25 -30 C15 -8 23 45 27 91 C29 119 24 147 23 176 C63 208 117 242 160 271 C170 278 178 290 157 300 C123 274 27 212 21 205 C19 225 18 242 19 259 C20 279 24 298 33 316 C38 325 43 333 52 339 L52 339 Z M0 154 C1 137 2 116 2 99 C0 69 -2 17 -32 -5 C-46 -14 -65 -8 -69 8 C-78 41 -58 79 -39 107 C-28 121 -11 142 0 154 L0 154 Z " />
<glyph glyph-name="t" unicode="t" horiz-adv-x="126" d="M299 536 C276 546 198 550 166 547 C183 593 202 638 209 686 C211 702 212 716 206 731 C200 745 185 752 172 745 C145 733 128 700 115 677 C106 661 71 580 62 544 C30 542 -2 542 -29 539 C-35 538 -38 534 -38 529 C-38 518 -31 516 -20 516 C4 516 29 518 53 519 C32 438 7 360 -4 279 C-15 208 -23 139 -19 70 C-19 64 -18 57 -13 52 C-8 47 -1 46 4 50 C10 54 11 60 8 67 C7 69 6 72 6 74 C6 93 6 113 6 132 C8 181 14 230 21 279 C22 284 24 288 27 293 C40 311 54 329 66 348 C99 401 130 464 155 521 C155 521 191 522 238 520 C249 520 278 518 281 512 C284 506 290 503 296 505 C303 508 307 513 308 520 C309 528 305 533 299 536 L299 536 Z M32 341 C43 385 66 469 81 519 C92 520 114 521 127 521 C101 461 56 377 32 341 L32 341 Z M146 567 C142 557 138 547 138 547 C124 546 105 545 89 544 C100 581 123 636 147 678 C154 690 172 722 182 721 C197 721 165 612 146 567 L146 567 Z " />
<glyph glyph-name="u" unicode="u" horiz-adv-x="233" d="M233 300 C233 300 218 282 195 257 C191 252 177 239 170 239 C159 239 158 256 158 262 C158 279 161 303 158 319 C156 331 142 337 133 328 C120 316 109 299 97 284 C79 261 61 238 42 217 C35 209 26 201 19 197 C11 193 8 196 8 203 C9 238 22 287 30 327 C31 332 32 336 31 340 C30 348 22 352 15 348 C5 343 4 329 4 319 C-6 278 -19 222 -15 197 C-13 182 -4 174 9 173 C31 172 53 192 68 209 C89 232 123 276 132 288 C132 285 132 279 132 275 C132 263 132 248 137 236 C145 215 167 208 188 221 C206 232 223 252 239 274 C244 281 256 290 233 300 L233 300 Z " />
<glyph glyph-name="v" unicode="v" horiz-adv-x="179" d="M15 170 C13 175 14 191 15 210 C17 240 21 269 26 311 C28 321 27 329 15 330 C9 330 3 325 2 316 C-7 268 -17 182 -10 161 C-6 146 8 140 22 146 C45 155 69 188 88 214 C123 265 158 316 192 369 C196 375 195 382 190 386 C184 392 174 388 169 380 C161 369 154 358 147 347 C119 306 92 265 65 225 C51 205 25 174 15 170 L15 170 Z " />
<glyph glyph-name="w" unicode="w" horiz-adv-x="271" d="M-7 197 C-5 232 17 282 35 319 C37 323 39 327 40 331 C42 335 40 340 36 342 C32 345 27 345 23 342 C21 340 19 338 18 336 C-5 295 -34 232 -32 195 C-31 179 -21 168 -7 171 C14 173 60 227 77 250 C77 234 81 217 89 203 C95 193 106 188 118 190 C144 193 166 232 181 259 C183 264 186 266 192 267 C213 268 265 274 272 276 C287 281 285 294 271 300 C271 300 229 293 188 292 C175 291 166 285 159 273 C156 267 126 215 115 215 C109 215 105 230 104 236 C102 247 101 259 99 270 C98 277 94 283 87 285 C77 288 65 276 57 266 C36 244 16 216 -7 197 L-7 197 Z " />
<glyph glyph-name="x" unicode="x" horiz-adv-x="193" d="M-2 185 C8 162 28 155 49 159 C83 166 126 211 159 238 C176 252 185 259 202 275 C209 281 213 294 193 300 C193 300 172 281 162 272 C133 246 104 223 72 198 C59 187 42 176 29 186 C21 193 19 203 18 214 C50 254 88 299 120 339 C125 345 128 351 121 358 C113 363 111 361 101 352 C75 322 22 259 21 258 C22 275 24 292 25 309 C26 319 28 330 29 341 C30 349 24 355 16 354 C3 351 3 334 2 323 C-2 291 -6 252 -7 221 C-37 183 -57 147 -82 108 C-89 98 -98 80 -99 73 C-101 63 -95 52 -83 54 C-72 56 -75 69 -69 80 C-55 103 -41 125 -27 147 C-19 160 -11 172 -2 185 L-2 185 Z " />
<glyph glyph-name="y" unicode="y" horiz-adv-x="275" d="M121 308 C112 251 102 192 92 133 C42 87 -13 33 -59 -18 C-95 -59 -130 -100 -156 -148 C-185 -200 -208 -261 -189 -324 C-170 -368 -127 -390 -79 -367 C-22 -338 10 -271 35 -212 C83 -109 102 3 116 122 C165 166 224 219 273 263 C276 266 284 273 287 277 C292 282 296 296 275 300 C231 260 143 181 122 161 C126 179 143 281 149 312 C150 320 152 328 153 337 C154 344 151 349 145 352 C136 357 130 350 123 344 C102 326 81 306 60 288 C47 277 34 267 19 261 C17 268 18 277 20 284 C24 298 28 313 33 327 C34 334 32 341 26 342 C19 344 14 341 11 334 C2 313 -6 289 -6 265 C-6 252 0 241 11 237 C26 231 46 245 59 255 C79 271 97 288 121 308 L121 308 Z M87 94 C74 -3 56 -96 14 -198 C-11 -255 -44 -337 -115 -352 C-148 -355 -169 -320 -171 -288 C-174 -214 -128 -143 -82 -84 C-34 -24 20 30 87 94 L87 94 Z " />
<glyph glyph-name="z" unicode="z" horiz-adv-x="147" d="M54 187 C40 191 25 192 -1 193 C37 231 79 262 116 305 C126 317 116 330 105 329 C69 323 36 315 7 306 C1 304 -2 298 -1 293 C0 287 5 284 11 284 C28 285 57 294 82 300 C45 267 11 240 -31 199 C-42 186 -36 172 -20 170 C0 168 20 167 43 164 C89 155 103 110 87 62 C68 13 39 -29 2 -66 C-9 -76 -49 -112 -67 -102 C-82 -93 -61 -46 -55 -35 C-38 0 -4 36 24 70 C25 72 28 73 30 74 C38 78 40 86 35 93 C23 107 7 91 -2 81 C-39 38 -100 -26 -97 -95 C-95 -113 -84 -124 -66 -127 C-37 -131 -5 -106 19 -85 C56 -49 84 -8 105 38 C130 93 128 165 54 187 L54 187 Z " />
<glyph glyph-name="braceleft" unicode="&#x7b;" horiz-adv-x="139" d="M4 96 C4 84 4 71 11 60 C15 54 22 53 28 56 C33 59 36 65 33 71 C28 82 28 94 29 105 C33 128 36 150 41 172 C47 202 53 231 49 262 C47 271 46 280 40 287 C38 290 38 292 41 294 C52 307 60 321 63 338 C68 358 72 379 77 400 C82 425 87 450 97 474 C103 486 108 497 117 506 C119 508 121 509 124 506 C128 501 134 501 139 504 C143 507 145 513 142 518 C140 524 136 528 130 531 C108 537 93 516 81 497 C69 477 63 455 58 433 C52 408 48 383 43 358 C38 335 27 318 12 299 C7 290 8 281 17 275 C29 263 25 238 24 222 C22 203 17 183 13 163 C8 141 4 118 4 96 L4 96 Z " />
<glyph glyph-name="bar" unicode="&#x7c;" horiz-adv-x="127" d="M101 527 C96 529 90 526 88 520 C87 519 0 84 -2 77 C-2 69 2 64 8 63 C14 61 20 64 22 71 C24 77 101 464 109 514 C110 520 107 525 101 527 L101 527 Z " />
<glyph glyph-name="braceright" unicode="&#x7d;" horiz-adv-x="132" d="M116 463 C115 472 114 489 106 504 C100 518 88 525 74 524 C66 523 61 519 61 513 C61 506 66 502 73 502 C81 502 84 498 86 491 C87 488 88 485 89 481 C92 461 91 440 87 420 C82 394 77 368 71 342 C66 322 65 303 74 284 C75 281 74 280 72 278 C60 269 53 256 51 242 C47 220 45 198 42 176 C40 160 38 143 34 127 C30 112 24 97 15 83 C12 78 13 72 16 68 C19 64 25 62 29 64 C33 67 37 70 39 74 C52 97 61 122 65 148 C68 175 71 202 74 228 C75 242 80 254 92 262 C104 270 105 275 99 287 C93 302 91 317 95 333 C98 344 100 355 103 365 C109 395 116 425 116 463 L116 463 Z " />
<glyph glyph-name="asciitilde" unicode="&#x7e;" horiz-adv-x="178" d="M111 247 C123 247 132 254 140 261 C147 266 147 274 143 279 C139 285 131 285 125 281 C122 279 118 276 115 274 C112 272 109 272 106 275 C102 279 98 283 94 287 C88 292 78 294 70 291 C57 287 45 274 38 260 C34 254 37 247 42 244 C47 241 53 243 57 249 C62 257 68 264 74 268 C76 269 79 266 80 266 C83 263 86 260 89 257 C95 251 102 247 111 247 L111 247 Z " />
<glyph glyph-name="quoteleft" unicode="&#x2018;" horiz-adv-x="90" d="M75 559 C68 561 63 558 60 550 C56 537 54 527 50 511 C48 504 52 498 57 496 C63 494 70 497 72 503 C77 517 79 532 82 545 C83 552 80 558 75 559 L75 559 Z " />
<glyph glyph-name="quoteright" unicode="&#x2019;" horiz-adv-x="90" d="M75 559 C68 561 63 558 60 550 C56 537 54 527 50 511 C48 504 52 498 57 496 C63 494 70 497 72 503 C77 517 79 532 82 545 C83 552 80 558 75 559 L75 559 Z " />
<glyph glyph-name="quotedblleft" unicode="&#x201c;" horiz-adv-x="144" d="M81 585 C75 587 69 583 67 576 L49 510 C47 504 49 500 53 497 C65 490 73 502 75 511 L89 570 C90 578 87 584 81 585 L81 585 L81 585 Z M123 580 C118 579 115 575 113 571 C107 554 102 536 99 524 C98 519 100 515 104 512 C113 507 122 516 124 524 C129 538 132 553 136 567 C138 575 131 582 123 580 L123 580 Z " />
<glyph glyph-name="quotedblright" unicode="&#x201d;" horiz-adv-x="142" d="M81 585 C75 587 69 583 67 576 L49 510 C47 504 49 500 53 497 C65 490 73 502 75 511 L89 570 C90 578 87 584 81 585 L81 585 L81 585 Z M123 580 C118 579 115 575 113 571 C107 554 102 536 99 524 C98 519 100 515 104 512 C113 507 122 516 124 524 C129 538 132 553 136 567 C138 575 131 582 123 580 L123 580 Z " />
<glyph glyph-name="s_t" unicode="&#xfb06;" horiz-adv-x="184" d="M349 486 C338 493 327 493 314 492 C287 490 259 488 231 485 C235 494 238 502 241 511 C250 536 257 563 258 588 C258 598 256 609 246 613 C234 617 222 609 214 601 C194 580 178 549 167 524 C160 507 153 491 147 474 C123 471 98 466 75 461 C55 457 36 452 18 445 C12 443 8 437 10 431 C11 425 18 421 24 423 C58 435 94 442 130 448 C132 449 135 449 138 450 C122 403 110 356 100 308 C96 303 91 298 87 293 C67 272 45 252 23 234 C23 250 22 261 22 272 C22 289 22 303 28 317 C33 330 39 332 38 325 C27 316 40 301 51 306 C68 315 63 345 45 349 C27 353 10 337 5 322 C-4 295 1 265 0 238 C0 229 -1 222 -3 214 C-3 214 -4 213 -5 213 C-14 207 -21 194 -12 185 C-4 177 7 183 12 190 C15 193 16 197 18 201 C22 204 25 206 29 209 C41 218 52 228 62 237 C73 247 83 257 93 267 C82 194 77 119 78 45 C78 35 79 25 79 15 C79 9 84 4 91 4 C97 4 102 9 102 15 C99 93 102 172 113 249 C115 262 117 274 120 287 C136 312 143 323 149 334 C178 379 200 420 221 461 C247 464 276 466 303 468 C314 469 328 472 337 466 C350 458 361 478 349 486 L349 486 Z M133 352 C142 387 152 420 164 454 C174 455 183 456 193 458 L133 352 Z M206 482 C195 481 184 479 173 478 C184 507 197 536 213 562 C219 572 226 583 235 589 C234 567 229 548 223 529 L206 482 Z " />
</font>
</svg>
