<?xml version="1.0" encoding="UTF-8"?>
<svg xmlns="http://www.w3.org/2000/svg" xmlns:xlink="http://www.w3.org/1999/xlink" version="1.2" >
<font id="Forester">
<font-face  font-family="Forester" units-per-em="1000" ascent="750" descent="-250" font-style="normal" font-weight="400" font-stretch="normal" cap-height="700" x-height="500" underline-position="-75" underline-thickness="50" />
<missing-glyph  horiz-adv-x="201" d="" />
<glyph glyph-name="NULL" d="" />
<glyph glyph-name="&amp;#x0;" horiz-adv-x="201" d="" />
<glyph glyph-name="&amp;#xd;" unicode="&#xd;" horiz-adv-x="201" d="" />
<glyph glyph-name="space" unicode="&#x20;" horiz-adv-x="201" d="" />
<glyph glyph-name="exclam" unicode="&#x21;" horiz-adv-x="259" d="M60 173 L199 173 L199 626 L60 626 L60 173 Z M60 0 L199 0 L199 123 L60 123 L60 0 Z " />
<glyph glyph-name="quotedbl" unicode="&#x22;" horiz-adv-x="354" d="M32 435 L113 435 L166 627 L57 627 L32 435 Z M187 435 L268 435 L321 627 L213 627 L187 435 Z " />
<glyph glyph-name="numbersign" unicode="&#x23;" horiz-adv-x="636" d="M53 206 L152 206 L137 1 L263 1 L277 206 L346 206 L331 1 L456 1 L471 206 L569 206 L575 303 L478 303 L482 357 L579 357 L586 454 L489 454 L502 627 L377 627 L365 454 L296 454 L308 627 L183 627 L171 454 L71 454 L65 357 L163 357 L159 303 L60 303 L53 206 Z M285 303 L289 357 L358 357 L354 303 L285 303 Z " />
<glyph glyph-name="dollar" unicode="&#x24;" horiz-adv-x="560" d="M28 451 C28 433 31 416 35 401 C40 387 46 374 53 363 C60 352 70 342 81 333 C93 324 104 316 115 311 C126 305 139 299 154 294 C169 289 183 285 194 282 C206 279 219 276 234 273 L234 109 C211 111 187 114 161 120 C137 125 116 130 98 136 C81 141 58 149 29 159 L29 36 C109 9 177 -6 234 -9 L234 -57 L330 -57 L330 -9 C397 -2 448 17 483 51 C519 85 537 128 537 183 C537 201 534 219 530 235 C525 250 519 264 512 275 C505 287 496 297 485 307 C474 317 463 325 451 332 C440 338 427 344 412 349 C397 355 384 359 371 362 C359 365 345 369 330 372 L330 510 C370 506 426 495 498 475 L498 591 C433 612 377 624 330 629 L330 676 L234 676 L234 630 C212 628 191 624 171 619 C151 614 132 606 114 597 C97 587 82 575 69 562 C56 548 47 532 39 513 C32 494 28 474 28 451 L28 451 Z M167 458 C167 465 167 471 169 477 C170 482 173 487 177 494 C182 499 188 505 198 509 C207 514 220 517 234 519 L234 395 C210 402 193 410 182 419 C172 429 167 441 167 458 L167 458 Z M330 104 L330 249 C354 241 371 232 382 221 C393 210 398 195 398 176 C398 167 397 160 396 154 C394 147 391 140 387 134 C382 127 375 121 366 116 C356 110 345 106 330 104 L330 104 Z " />
<glyph glyph-name="percent" unicode="&#x25;" horiz-adv-x="988" d="M32 434 C32 408 36 384 42 361 C48 338 58 317 72 297 C85 277 103 262 127 250 C150 238 177 233 207 233 C232 233 254 237 274 244 C294 252 311 263 324 275 C337 288 348 304 357 321 C366 339 372 357 376 376 C380 394 382 414 382 434 C382 454 380 473 376 492 C373 510 366 528 357 546 C348 563 337 579 324 592 C311 605 294 615 274 623 C254 631 232 635 207 635 C183 635 160 631 140 623 C120 616 104 605 90 592 C77 579 66 564 57 546 C48 529 42 511 38 492 C34 473 32 454 32 434 L32 434 Z M152 434 C152 450 153 464 156 477 C159 489 165 500 174 510 C183 519 194 524 207 524 C221 524 232 519 240 510 C249 500 255 489 258 477 C261 464 263 450 263 434 C263 409 258 387 250 370 C241 352 227 343 207 343 C188 343 174 352 165 370 C156 387 152 409 152 434 L152 434 Z M181 0 L333 0 L811 626 L659 626 L181 0 Z M611 192 C611 172 613 153 616 134 C620 115 627 97 636 80 C644 62 655 47 668 34 C682 21 698 11 718 3 C738 -5 761 -9 785 -9 C810 -9 832 -5 852 2 C872 10 889 21 902 34 C915 47 926 62 935 80 C944 97 950 115 954 134 C958 153 960 172 960 192 C960 218 957 242 950 265 C944 288 934 309 921 329 C907 348 889 364 866 376 C842 387 815 393 785 393 C755 393 728 387 705 376 C681 364 663 348 650 329 C637 309 627 287 620 265 C614 242 611 218 611 192 L611 192 Z M735 235 C738 248 744 259 752 268 C761 278 772 283 785 283 C805 283 819 274 827 256 C836 239 841 217 841 192 C841 176 839 162 836 149 C833 137 827 125 818 116 C810 106 799 102 785 102 C772 102 761 106 752 116 C744 125 738 137 735 149 C732 162 730 176 730 192 C730 208 732 222 735 235 L735 235 Z " />
<glyph glyph-name="ampersand" unicode="&#x26;" horiz-adv-x="669" d="M578 115 C562 115 550 117 545 123 C539 128 536 137 536 150 L536 264 L609 264 L609 387 L536 387 L536 435 L398 435 L398 387 L325 387 C282 387 237 394 218 403 C198 412 189 428 189 451 C189 492 220 512 282 512 C320 512 356 508 390 499 C423 491 460 478 499 461 L499 584 C434 619 362 636 282 636 C213 636 158 619 115 584 C73 550 52 506 52 452 C52 404 74 364 120 331 C90 313 68 291 53 267 C38 242 30 215 30 188 C30 130 54 83 101 46 C148 10 208 -9 282 -9 C343 -9 395 5 438 32 C439 31 439 31 440 30 C468 4 511 -9 568 -9 C595 -9 615 -3 631 5 L631 124 C611 117 601 115 578 115 L578 115 Z M396 204 C396 178 386 157 366 139 C346 123 318 114 282 114 C244 114 216 121 197 134 C179 148 170 167 170 191 C170 218 181 237 205 249 C228 260 277 264 325 264 L396 264 L396 204 L396 204 Z " />
<glyph glyph-name="quotesingle" unicode="&#x27;" horiz-adv-x="198" d="M32 435 L113 435 L167 627 L58 627 L32 435 L32 435 Z " />
<glyph glyph-name="parenleft" unicode="&#x28;" horiz-adv-x="363" d="M40 287 C40 119 89 -36 188 -177 L308 -134 C221 -23 178 118 178 289 C178 367 188 440 209 509 C229 577 262 645 308 713 L187 750 C135 678 98 604 75 529 C51 453 40 372 40 287 L40 287 Z " />
<glyph glyph-name="parenright" unicode="&#x29;" horiz-adv-x="363" d="M55 -134 L175 -177 C274 -36 323 119 323 287 C323 372 312 453 289 529 C266 604 228 678 176 750 L55 713 C101 645 134 577 155 509 C175 440 186 367 186 289 C186 129 142 -13 55 -134 L55 -134 Z " />
<glyph glyph-name="asterisk" unicode="&#x2a;" horiz-adv-x="454" d="M68 508 L134 471 L69 434 L122 341 L179 373 L179 313 L304 313 L304 375 L362 343 L416 433 L350 470 L415 507 L363 599 L304 567 L304 627 L179 627 L179 567 L122 599 L68 508 L68 508 Z " />
<glyph glyph-name="plus" unicode="&#x2b;" horiz-adv-x="611" d="M59 222 L242 222 L242 44 L367 44 L367 222 L550 222 L550 321 L367 321 L367 500 L242 500 L242 321 L59 321 L59 222 L59 222 Z " />
<glyph glyph-name="comma" unicode="&#x2c;" horiz-adv-x="249" d="M37 -70 L141 -70 L213 117 L74 117 L37 -70 L37 -70 Z " />
<glyph glyph-name="hyphen" unicode="&#x2d;" horiz-adv-x="438" d="M63 232 L381 232 L381 331 L63 331 L63 232 L63 232 Z " />
<glyph glyph-name="period" unicode="&#x2e;" horiz-adv-x="268" d="M69 0 L207 0 L207 123 L69 123 L69 0 L69 0 Z " />
<glyph glyph-name="slash" unicode="&#x2f;" horiz-adv-x="695" d="M12 0 L165 0 L676 699 L523 699 L12 0 L12 0 Z " />
<glyph glyph-name="zero" unicode="0" horiz-adv-x="657" d="M58 218 C64 188 74 159 89 131 C103 103 121 79 142 58 C163 38 190 21 221 9 C253 -3 288 -9 326 -9 C365 -9 400 -3 432 9 C463 21 490 38 511 58 C532 79 550 103 564 131 C578 159 589 188 595 218 C602 249 605 280 605 313 C605 346 602 377 595 408 C589 438 578 467 564 495 C550 523 532 547 511 568 C490 588 463 605 432 617 C400 629 365 635 326 635 C288 635 253 629 221 617 C190 605 163 588 142 568 C121 547 103 523 89 495 C74 467 64 438 58 408 C51 377 48 346 48 313 C48 280 51 249 58 218 L58 218 Z M194 389 C199 412 206 433 217 451 C227 470 242 485 261 496 C279 507 301 512 326 512 C352 512 374 507 392 496 C411 485 426 470 436 451 C446 433 454 412 459 389 C464 366 467 340 467 313 C467 285 464 260 459 237 C454 214 446 193 436 174 C426 155 411 141 392 130 C374 119 352 114 326 114 C301 114 279 119 261 130 C242 141 227 155 217 174 C206 193 199 214 194 237 C189 260 186 285 186 313 C186 340 189 366 194 389 L194 389 Z " />
<glyph glyph-name="one" unicode="1" horiz-adv-x="344" d="M19 381 L145 470 L145 0 L284 0 L284 626 L165 626 L19 522 L19 381 L19 381 Z " />
<glyph glyph-name="two" unicode="2" horiz-adv-x="538" d="M33 0 L507 0 L507 123 L233 123 L427 306 C453 331 473 355 486 377 C499 400 505 427 505 457 C505 509 485 551 443 585 C402 618 348 635 281 635 C211 635 141 617 73 580 L73 462 C100 473 123 482 139 487 C155 493 176 498 203 504 C229 509 255 512 281 512 C313 512 335 506 348 496 C361 485 368 468 368 447 C368 434 365 422 358 411 C352 401 341 388 327 374 L33 96 L33 0 L33 0 Z " />
<glyph glyph-name="three" unicode="3" horiz-adv-x="545" d="M43 40 C82 23 118 10 150 2 C183 -5 221 -9 263 -9 C341 -9 403 9 450 45 C496 81 519 130 519 192 C519 218 513 244 499 268 C486 293 465 314 437 333 C457 346 473 363 485 383 C496 404 502 426 502 449 C502 505 480 550 436 584 C391 618 334 635 263 635 C184 635 110 618 43 585 L43 466 C73 477 97 485 114 490 C131 495 154 500 181 505 C209 510 236 512 263 512 C330 512 363 491 363 448 C363 431 357 417 344 406 C332 395 312 389 285 389 L186 389 L186 266 L302 266 C330 266 350 260 362 246 C375 233 381 215 381 195 C381 141 342 114 263 114 C237 114 210 116 182 121 C154 126 131 131 114 136 C97 141 73 149 43 159 L43 40 L43 40 Z " />
<glyph glyph-name="four" unicode="4" horiz-adv-x="575" d="M28 171 L354 171 L354 0 L493 0 L493 171 L547 171 L547 294 L493 294 L493 626 L371 626 L28 270 L28 171 Z M207 294 L354 447 L354 294 L207 294 Z " />
<glyph glyph-name="five" unicode="5" horiz-adv-x="582" d="M60 43 C127 8 198 -9 273 -9 C313 -9 349 -3 383 10 C416 23 443 40 464 61 C486 83 502 107 514 135 C525 163 531 192 531 223 C531 291 511 346 471 389 C431 432 379 453 314 453 C293 453 272 450 250 443 C229 437 212 428 199 416 L199 503 L510 503 L510 626 L60 626 L60 256 L181 256 C192 282 206 300 223 313 C239 325 260 330 286 330 C305 330 322 328 336 321 C351 315 362 307 370 297 C378 287 383 275 387 263 C391 251 393 238 393 223 C393 203 389 186 383 171 C376 157 366 145 354 137 C342 129 328 123 312 119 C297 116 280 114 261 114 C229 114 194 119 158 128 C121 137 88 148 60 161 L60 43 L60 43 Z " />
<glyph glyph-name="six" unicode="6" horiz-adv-x="588" d="M60 195 C60 168 66 142 77 117 C89 92 105 70 125 51 C146 33 172 18 204 7 C235 -4 269 -9 306 -9 C344 -9 378 -4 410 7 C441 18 467 33 488 52 C508 71 524 93 536 119 C547 144 553 171 553 199 C553 228 547 255 537 280 C526 305 511 327 492 346 C473 365 449 380 420 391 C391 402 359 407 324 407 C279 407 237 394 198 369 L198 427 C198 456 207 478 225 492 C242 505 274 512 319 512 C344 512 369 509 394 504 C419 498 440 492 456 486 C473 480 493 472 516 461 L516 584 C454 618 388 635 318 635 C281 635 248 631 219 623 C190 614 165 603 145 588 C126 574 110 556 97 536 C84 516 74 495 69 473 C63 451 60 427 60 402 L60 195 Z M224 261 C242 277 269 284 306 284 C343 284 371 277 388 261 C406 246 414 225 414 199 C414 173 406 152 388 137 C371 122 343 114 306 114 C269 114 242 122 224 137 C207 152 198 173 198 199 C198 225 207 246 224 261 L224 261 Z " />
<glyph glyph-name="seven" unicode="7" horiz-adv-x="538" d="M18 504 L350 504 L35 0 L187 0 L518 528 L518 626 L18 626 L18 504 L18 504 Z " />
<glyph glyph-name="eight" unicode="8" horiz-adv-x="565" d="M30 187 C30 129 53 82 100 46 C147 9 208 -9 281 -9 C355 -9 416 9 463 46 C510 82 534 130 534 187 C534 215 528 241 516 266 C504 291 485 312 461 330 C495 364 512 404 512 452 C512 506 491 550 448 584 C406 618 350 635 281 635 C213 635 157 618 115 584 C72 549 51 505 51 452 C51 404 68 363 102 330 C78 312 60 291 48 266 C36 241 30 215 30 187 L30 187 Z M168 190 C168 213 177 232 196 245 C214 259 243 265 281 265 C320 265 348 259 367 245 C386 232 395 213 395 190 C395 168 385 150 365 135 C345 121 317 113 281 113 C243 113 214 120 196 134 C177 147 168 166 168 190 L168 190 Z M189 451 C189 491 220 512 281 512 C343 512 374 491 374 451 C374 409 343 389 281 389 C248 389 225 394 211 405 C196 415 189 431 189 451 L189 451 Z " />
<glyph glyph-name="nine" unicode="9" horiz-adv-x="585" d="M43 427 C43 398 48 371 59 346 C69 321 84 299 103 280 C122 261 147 246 175 235 C205 224 236 218 272 218 C317 218 359 231 397 257 L397 199 C397 169 388 148 371 134 C353 121 322 114 276 114 C251 114 227 117 201 122 C176 128 155 134 139 140 C123 146 103 154 80 165 L80 42 C141 8 207 -9 278 -9 C314 -9 347 -5 376 3 C406 12 430 23 450 38 C469 52 486 69 499 89 C512 110 521 131 527 153 C533 175 535 199 535 224 L535 430 C535 458 530 484 518 509 C507 534 491 556 470 574 C449 593 423 608 392 619 C361 630 327 635 289 635 C251 635 217 630 186 619 C154 607 128 592 108 573 C87 554 71 532 60 507 C48 482 43 455 43 427 L43 427 Z M207 489 C225 504 252 512 289 512 C327 512 354 504 371 489 C388 474 397 453 397 427 C397 401 388 380 371 365 C354 349 327 341 289 341 C252 341 225 349 207 365 C190 380 181 401 181 427 C181 453 190 474 207 489 L207 489 Z " />
<glyph glyph-name="colon" unicode="&#x3a;" horiz-adv-x="293" d="M78 378 L217 378 L217 501 L78 501 L78 378 Z M78 48 L217 48 L217 171 L78 171 L78 48 Z " />
<glyph glyph-name="semicolon" unicode="&#x3b;" horiz-adv-x="254" d="M27 -41 L131 -41 L203 146 L64 146 L27 -41 Z M64 378 L203 378 L203 501 L64 501 L64 378 Z " />
<glyph glyph-name="less" unicode="&#x3c;" horiz-adv-x="576" d="M27 265 L516 91 L516 200 L232 301 L516 402 L516 511 L27 337 L27 265 L27 265 Z " />
<glyph glyph-name="equal" unicode="&#x3d;" horiz-adv-x="583" d="M44 330 L534 330 L534 428 L44 428 L44 330 Z M44 163 L534 163 L534 261 L44 261 L44 163 Z " />
<glyph glyph-name="greater" unicode="&#x3e;" horiz-adv-x="577" d="M51 91 L539 265 L539 337 L51 511 L51 402 L335 301 L51 200 L51 91 L51 91 Z " />
<glyph glyph-name="question" unicode="&#x3f;" horiz-adv-x="482" d="M12 462 C101 495 173 512 230 512 C290 512 321 490 321 447 C321 435 317 424 309 414 C302 403 292 393 280 385 C268 376 255 367 240 357 C225 348 211 337 196 326 C182 314 168 302 157 288 C145 275 135 258 127 238 C120 218 116 197 116 173 L255 173 C255 188 258 202 266 213 C273 225 283 235 295 244 C307 252 320 261 335 269 C350 277 364 286 379 297 C393 307 406 318 418 331 C430 344 440 360 448 379 C455 399 459 422 459 447 C459 501 439 546 399 582 C359 617 307 635 242 635 C201 635 163 631 128 622 C92 614 54 601 12 584 L12 462 Z M116 0 L254 0 L254 123 L116 123 L116 0 Z " />
<glyph glyph-name="at" unicode="&#x40;" horiz-adv-x="920" d="M52 150 C52 49 83 -31 146 -90 C208 -149 294 -179 402 -179 C475 -179 540 -168 596 -148 L596 -71 C535 -92 473 -102 413 -102 C355 -102 305 -91 263 -69 C221 -47 190 -17 170 21 C149 60 139 104 139 154 C139 210 148 264 169 315 C189 365 216 408 250 444 C284 480 325 508 372 529 C420 550 470 561 523 561 C605 561 669 540 715 499 C762 458 785 404 785 338 C785 299 780 262 772 229 C764 195 753 168 739 146 C726 124 711 108 695 95 C679 83 663 77 647 77 C633 77 623 82 617 90 C610 99 606 114 606 135 C606 148 607 161 610 174 L651 434 L569 434 L561 405 L558 408 C555 411 551 414 545 418 C540 421 533 425 526 428 C519 432 510 435 499 437 C488 440 476 441 465 441 C432 441 403 434 378 421 C352 408 331 390 314 366 C297 343 284 315 275 284 C266 252 262 218 262 181 C262 134 274 97 298 69 C322 41 357 27 403 27 C420 27 436 29 452 33 C467 36 480 40 490 45 C500 49 509 55 518 60 C526 66 532 71 534 73 C537 75 539 77 540 79 C545 56 556 38 572 23 C589 8 611 1 639 1 C685 1 726 16 762 47 C798 77 825 118 844 169 C862 220 872 277 872 340 C872 381 864 419 849 455 C833 491 812 522 783 549 C754 576 717 598 673 613 C629 629 579 637 524 637 C458 637 396 625 337 600 C279 575 229 541 187 498 C145 456 112 404 88 343 C64 283 52 219 52 150 L52 150 Z M349 182 C349 237 358 281 378 315 C397 349 426 365 465 365 C477 365 488 364 497 361 C507 359 515 356 521 353 C526 350 531 346 536 342 C541 338 543 335 545 333 C546 331 547 330 547 329 L518 143 C496 117 464 104 420 104 C395 104 377 110 366 123 C354 136 349 155 349 182 L349 182 Z " />
<glyph glyph-name="A" unicode="A" horiz-adv-x="640" d="M12 0 L154 0 L207 144 L435 144 L488 0 L629 0 L392 626 L250 626 L12 0 Z M252 267 L321 457 L390 267 L252 267 Z " />
<glyph glyph-name="B" unicode="B" horiz-adv-x="642" d="M50 0 L400 0 C458 0 508 18 549 54 C589 90 610 134 610 188 C610 217 603 245 589 273 C575 300 555 324 528 343 C553 370 566 405 566 449 C566 500 546 542 507 576 C467 609 420 626 365 626 L50 626 L50 0 Z M189 389 L189 503 L365 503 C383 503 398 498 410 487 C422 476 427 463 427 447 C427 430 422 416 410 405 C398 394 383 389 365 389 L189 389 Z M189 122 L189 266 L400 266 C421 266 438 259 451 244 C465 230 471 212 471 191 C471 172 465 155 451 142 C438 129 421 122 400 122 L189 122 Z " />
<glyph glyph-name="C" unicode="C" horiz-adv-x="659" d="M63 189 C78 150 100 116 130 87 C159 57 197 34 244 17 C291 -1 343 -9 402 -9 C479 -9 550 2 616 25 L616 144 C548 124 477 114 403 114 C363 114 329 119 299 129 C270 138 247 152 230 171 C212 189 199 210 191 233 C183 257 179 283 179 313 C179 342 183 369 191 392 C199 416 212 437 230 455 C247 473 270 487 299 497 C329 507 363 512 403 512 C477 512 548 502 616 482 L616 601 C550 624 479 635 402 635 C343 635 291 626 244 609 C197 592 159 569 130 539 C100 510 78 476 63 437 C48 399 40 357 40 313 C40 269 48 227 63 189 L63 189 Z " />
<glyph glyph-name="D" unicode="D" horiz-adv-x="718" d="M61 0 L345 0 C394 0 439 8 481 23 C522 39 557 61 586 88 C615 116 637 149 653 188 C670 226 678 268 678 312 C678 372 664 425 637 473 C609 521 570 558 519 585 C468 613 410 626 345 626 L61 626 L61 0 Z M199 123 L199 503 L345 503 C406 503 453 486 488 450 C522 415 539 369 539 312 C539 256 522 210 488 175 C453 140 406 123 345 123 L199 123 Z " />
<glyph glyph-name="E" unicode="E" horiz-adv-x="616" d="M60 0 L578 0 L578 123 L198 123 L198 265 L432 265 L432 388 L198 388 L198 503 L578 503 L578 626 L60 626 L60 0 L60 0 Z " />
<glyph glyph-name="F" unicode="F" horiz-adv-x="548" d="M60 1 L198 1 L198 266 L413 266 L413 389 L198 389 L198 504 L510 504 L510 627 L60 627 L60 1 L60 1 Z " />
<glyph glyph-name="G" unicode="G" horiz-adv-x="676" d="M229 455 C247 473 270 487 299 497 C329 507 363 512 403 512 C477 512 547 502 616 482 L616 601 C550 624 479 635 402 635 C343 635 290 626 244 609 C197 592 159 569 130 539 C100 510 78 476 63 437 C48 398 40 357 40 313 C40 269 48 227 63 189 C78 150 100 116 130 87 C159 57 197 34 244 16 C290 -1 343 -9 402 -9 C479 -9 550 2 616 25 L616 350 L478 350 L381 350 L381 253 L478 253 L478 118 C453 115 428 114 403 114 C363 114 329 119 299 129 C270 138 247 152 229 171 C212 189 199 210 191 233 C183 257 178 283 178 313 C178 342 183 369 191 392 C199 416 212 437 229 455 L229 455 Z " />
<glyph glyph-name="H" unicode="H" horiz-adv-x="664" d="M60 0 L199 0 L199 265 L466 265 L466 0 L604 0 L604 626 L466 626 L466 388 L199 388 L199 626 L60 626 L60 0 L60 0 Z " />
<glyph glyph-name="I" unicode="I" horiz-adv-x="258" d="M60 0 L198 0 L198 626 L60 626 L60 0 L60 0 Z " />
<glyph glyph-name="J" unicode="J" horiz-adv-x="333" d="M15 6 C47 -4 76 -9 103 -9 C133 -9 159 -5 181 4 C204 12 223 24 237 39 C250 53 261 70 268 88 C275 106 278 126 278 146 L278 626 L140 626 L140 154 C140 139 137 128 132 122 C127 117 115 114 98 114 C79 114 51 119 15 130 L15 6 L15 6 Z " />
<glyph glyph-name="K" unicode="K" horiz-adv-x="640" d="M55 0 L194 0 L194 178 L269 257 L467 0 L630 0 L353 346 L620 626 L458 626 L194 343 L194 626 L55 626 L55 0 L55 0 Z " />
<glyph glyph-name="L" unicode="L" horiz-adv-x="583" d="M55 0 L573 0 L573 123 L193 123 L193 626 L55 626 L55 0 L55 0 Z " />
<glyph glyph-name="M" unicode="M" horiz-adv-x="756" d="M696 627 L557 627 L378 175 L199 627 L60 627 L60 0 L199 0 L199 278 L309 0 L447 0 L557 278 L557 0 L696 0 L696 627 L696 627 Z " />
<glyph glyph-name="N" unicode="N" horiz-adv-x="665" d="M60 0 L198 0 L198 399 L467 0 L605 0 L605 626 L467 626 L467 228 L198 626 L60 626 L60 0 L60 0 Z " />
<glyph glyph-name="O" unicode="O" horiz-adv-x="746" d="M64 187 C80 147 102 113 130 84 C159 55 194 33 236 16 C278 0 324 -9 373 -9 C423 -9 468 0 510 16 C552 33 587 55 616 84 C645 113 667 147 682 187 C698 226 706 268 706 313 C706 359 698 401 682 440 C667 480 645 514 616 543 C588 572 553 594 511 611 C469 628 423 636 373 636 C323 636 277 628 236 611 C194 594 158 572 130 543 C102 514 80 480 64 440 C48 401 40 359 40 313 C40 268 48 226 64 187 L64 187 Z M178 313 C178 373 196 421 230 458 C264 494 312 513 373 513 C435 513 482 494 517 458 C551 421 568 373 568 313 C568 255 551 207 516 170 C482 133 434 114 373 114 C312 114 264 133 230 170 C196 207 178 255 178 313 L178 313 Z " />
<glyph glyph-name="P" unicode="P" horiz-adv-x="608" d="M60 0 L198 0 L198 242 L374 242 C432 242 480 260 520 297 C560 334 580 380 580 434 C580 488 560 534 521 571 C482 608 433 626 374 626 L60 626 L60 0 Z M198 365 L198 503 L374 503 C394 503 410 497 422 483 C435 470 441 454 441 434 C441 414 435 398 422 385 C410 371 394 365 374 365 L198 365 Z " />
<glyph glyph-name="Q" unicode="Q" horiz-adv-x="746" d="M593 67 C631 98 659 136 678 179 C697 223 706 268 706 314 C706 359 698 401 682 440 C666 480 644 514 616 543 C587 572 552 594 510 611 C468 628 423 636 373 636 C323 636 277 628 235 611 C193 595 158 572 130 543 C102 514 79 480 63 440 C48 401 40 358 40 313 C40 268 48 226 63 187 C79 147 102 113 130 84 C158 55 193 33 235 16 C277 0 323 -9 373 -9 C402 -9 431 -5 459 2 C459 2 497 -101 640 -101 L703 8 C703 8 610 6 593 67 L593 67 Z M373 114 C312 114 264 133 230 170 C195 207 178 255 178 313 C178 373 195 421 229 458 C263 495 311 513 373 513 C434 513 482 495 516 458 C551 421 567 373 567 313 C567 255 550 207 516 170 C482 133 434 114 373 114 L373 114 Z " />
<glyph glyph-name="R" unicode="R" horiz-adv-x="602" d="M520 321 C533 332 546 346 552 358 C564 383 570 408 570 434 C570 488 550 533 511 570 C471 608 422 626 364 626 L50 626 L50 0 L188 0 L188 254 L360 254 C410 254 428 227 428 208 C428 208 426 118 428 79 C429 58 434 24 448 0 L587 0 C573 26 567 58 566 79 C565 134 566 215 566 215 C566 237 563 258 555 277 C549 293 535 310 520 321 L520 321 Z M412 385 C398 370 382 365 364 365 L188 365 L188 503 L364 503 C384 503 400 497 412 483 C425 470 431 454 431 434 C431 415 425 398 412 385 L412 385 Z " />
<glyph glyph-name="S" unicode="S" horiz-adv-x="556" d="M26 454 C26 439 27 424 31 410 C34 397 38 385 43 374 C49 364 56 354 65 345 C74 336 82 328 90 322 C98 316 109 309 122 304 C134 298 145 293 154 290 C163 286 175 283 189 279 C204 276 215 273 222 271 C230 270 241 268 255 265 C306 256 343 246 364 236 C385 225 396 207 396 183 C396 174 394 166 392 159 C389 152 384 145 377 138 C370 130 357 125 341 120 C324 116 304 114 279 114 C232 114 190 118 154 125 C118 132 75 143 26 159 L26 40 C69 23 109 10 148 2 C187 -5 230 -9 279 -9 C361 -9 423 8 468 42 C512 75 534 123 534 183 C534 200 532 216 529 231 C525 245 521 258 515 269 C510 281 503 291 493 301 C484 311 475 319 466 326 C458 332 447 339 434 345 C421 351 409 356 400 359 C390 363 378 367 363 370 C348 374 336 377 328 378 C319 380 307 382 293 385 C245 394 211 403 192 412 C173 421 164 435 164 454 C164 462 165 468 167 474 C169 479 173 485 180 491 C186 498 197 503 211 506 C226 510 245 512 267 512 C311 512 350 509 383 505 C417 500 454 492 496 481 L496 600 C458 613 422 622 387 627 C352 632 312 635 267 635 C235 635 205 632 177 625 C149 618 123 607 100 593 C77 580 59 561 46 537 C32 513 26 486 26 454 L26 454 Z " />
<glyph glyph-name="T" unicode="T" horiz-adv-x="569" d="M13 503 L215 503 L215 0 L354 0 L354 503 L556 503 L556 626 L13 626 L13 503 L13 503 Z " />
<glyph glyph-name="U" unicode="U" horiz-adv-x="721" d="M60 236 C60 202 67 171 81 141 C95 111 116 85 141 63 C167 41 199 23 236 10 C274 -3 315 -9 360 -9 C404 -9 445 -3 483 10 C521 23 553 41 579 63 C604 85 624 111 639 141 C654 170 661 202 661 236 L661 626 L522 626 L522 241 C522 208 507 179 477 153 C446 127 407 114 360 114 C313 114 274 127 243 153 C213 179 198 208 198 241 L198 626 L60 626 L60 236 L60 236 Z " />
<glyph glyph-name="V" unicode="V" horiz-adv-x="640" d="M12 626 L249 0 L391 0 L629 626 L487 626 L320 169 L154 626 L12 626 L12 626 Z " />
<glyph glyph-name="W" unicode="W" horiz-adv-x="898" d="M11 626 L191 0 L357 0 L449 373 L539 0 L707 0 L886 626 L745 626 L624 168 L513 626 L385 626 L273 167 L151 626 L11 626 L11 626 Z " />
<glyph glyph-name="X" unicode="X" horiz-adv-x="675" d="M12 0 L174 0 L337 217 L500 0 L662 0 L418 313 L662 626 L500 626 L337 408 L174 626 L12 626 L256 313 L12 0 L12 0 Z " />
<glyph glyph-name="Y" unicode="Y" horiz-adv-x="637" d="M1 626 L248 294 L248 0 L387 0 L387 294 L634 626 L475 626 L318 408 L160 626 L1 626 L1 626 Z " />
<glyph glyph-name="Z" unicode="Z" horiz-adv-x="565" d="M20 0 L539 0 L539 123 L197 123 L541 522 L541 626 L20 626 L20 503 L364 503 L20 104 L20 0 L20 0 Z " />
<glyph glyph-name="bracketleft" unicode="&#x5b;" horiz-adv-x="339" d="M50 -189 L289 -189 L289 -66 L188 -66 L188 627 L289 627 L289 750 L50 750 L50 -189 L50 -189 Z " />
<glyph glyph-name="backslash" unicode="&#x5c;" horiz-adv-x="697" d="M13 690 L525 -9 L678 -9 L166 690 L13 690 L13 690 Z " />
<glyph glyph-name="bracketright" unicode="&#x5d;" horiz-adv-x="340" d="M50 -65 L50 -188 L290 -188 L290 751 L50 751 L50 628 L152 628 L152 -65 L50 -65 L50 -65 Z " />
<glyph glyph-name="asciicircum" unicode="&#x5e;" horiz-adv-x="418" d="M43 305 L147 305 L211 463 L275 305 L380 305 L251 627 L172 627 L43 305 L43 305 Z " />
<glyph glyph-name="underscore" unicode="&#x5f;" horiz-adv-x="615" d="M64 85 L64 0 L554 0 L554 85 L64 85 L64 85 Z " />
<glyph glyph-name="grave" unicode="&#x60;" horiz-adv-x="235" d="M29 627 L121 489 L200 489 L127 627 L29 627 L29 627 Z " />
<glyph glyph-name="a" unicode="a" horiz-adv-x="513" d="M70 34 C103 5 145 -9 198 -9 C246 -9 292 2 334 26 L337 0 L467 0 L467 235 C467 315 451 373 419 408 C387 444 333 461 258 461 C192 461 124 453 54 435 L54 320 C128 335 190 343 239 343 C273 343 297 339 309 331 C320 324 327 309 327 288 L199 288 C146 288 103 274 70 244 C37 215 20 180 20 138 C20 97 37 62 70 34 L70 34 Z M170 164 C178 171 187 174 199 174 L328 174 L328 137 C311 127 291 119 268 114 C244 108 221 105 198 105 C187 105 177 108 170 115 C162 121 159 129 159 139 C159 149 162 157 170 164 L170 164 Z " />
<glyph glyph-name="b" unicode="b" horiz-adv-x="557" d="M55 0 L178 0 L183 43 C220 8 262 -9 308 -9 C354 -9 393 2 427 24 C461 45 486 74 502 109 C519 144 527 183 527 226 C527 258 522 288 512 316 C503 344 489 369 471 391 C453 413 430 430 402 443 C374 455 342 461 308 461 C266 461 228 450 193 426 L193 626 L55 626 L55 0 Z M218 309 C235 329 259 338 290 338 C322 338 346 329 363 309 C379 289 388 262 388 226 C388 191 379 163 363 143 C346 124 322 114 290 114 C259 114 235 124 218 143 C201 163 193 191 193 226 C193 262 201 289 218 309 L218 309 Z " />
<glyph glyph-name="c" unicode="c" horiz-adv-x="499" d="M30 226 C30 192 35 161 47 133 C58 105 75 80 97 59 C119 38 149 21 186 9 C223 -3 266 -9 314 -9 C368 -9 418 -2 465 13 L465 132 C416 120 366 114 316 114 C262 114 224 124 202 144 C179 164 168 191 168 226 C168 243 170 257 175 270 C180 283 188 295 199 306 C210 316 225 324 245 330 C265 336 288 338 316 338 C366 338 416 332 465 320 L465 439 C418 454 368 461 314 461 C266 461 223 456 186 443 C149 432 119 415 97 393 C75 372 58 347 47 319 C35 291 30 260 30 226 L30 226 Z " />
<glyph glyph-name="d" unicode="d" horiz-adv-x="564" d="M30 226 C30 183 38 144 55 109 C71 74 96 45 130 24 C164 2 203 -9 249 -9 C295 -9 336 8 374 43 L379 0 L502 0 L502 626 L363 626 L363 426 C329 450 290 461 249 461 C214 461 183 455 155 443 C127 430 104 413 86 391 C68 369 54 344 45 316 C35 288 30 258 30 226 L30 226 Z M194 309 C211 329 235 338 266 338 C298 338 322 329 339 309 C356 289 364 262 364 226 C364 191 356 163 339 143 C322 124 298 114 266 114 C235 114 211 124 194 143 C177 163 169 191 169 226 C169 262 177 289 194 309 L194 309 Z " />
<glyph glyph-name="e" unicode="e" horiz-adv-x="527" d="M30 226 C30 201 32 177 38 155 C44 132 53 111 67 90 C80 70 97 53 117 38 C137 24 162 12 192 4 C223 -5 257 -9 295 -9 C357 -9 416 1 472 23 L472 141 C415 123 357 114 298 114 C254 114 223 121 204 135 C185 150 173 170 169 197 L485 197 C497 277 489 329 452 384 C435 410 409 427 377 441 C346 455 310 461 269 461 C232 461 198 455 168 443 C138 431 112 414 92 392 C72 371 57 346 46 318 C35 289 30 259 30 226 L30 226 Z M189 289 C194 304 203 317 217 327 C231 337 248 342 269 342 C290 342 308 337 322 327 C336 317 345 304 349 289 L189 289 Z " />
<glyph glyph-name="f" unicode="f" horiz-adv-x="379" d="M23 330 L95 330 L95 0 L234 0 L234 330 L334 330 L334 453 L234 453 L234 467 C234 483 237 495 244 502 C251 508 261 512 276 512 C296 512 324 508 359 501 L359 619 C323 630 292 635 266 635 C209 635 167 620 138 589 C110 558 95 518 95 467 L95 453 L23 453 L23 330 L23 330 Z " />
<glyph glyph-name="g" unicode="g" horiz-adv-x="568" d="M41 -42 C41 -88 63 -124 106 -150 C149 -176 206 -190 279 -190 C351 -190 408 -176 451 -150 C494 -124 516 -88 516 -42 C516 -20 511 1 503 18 C494 36 483 50 469 60 C456 70 439 79 420 85 C401 92 383 97 365 99 C347 102 328 103 308 104 C278 105 256 107 242 109 C227 111 218 114 213 118 C208 122 205 127 205 135 C205 141 207 146 210 150 C228 145 246 143 265 143 C303 143 337 149 369 161 C400 174 425 192 444 215 C462 239 472 265 472 295 C472 307 470 320 466 332 L522 332 L522 455 L332 455 C310 460 286 463 261 463 C222 463 187 457 155 444 C123 431 98 412 79 387 C60 363 50 335 50 303 C50 265 65 232 94 203 C77 178 68 154 68 128 C68 98 78 71 96 50 C60 24 41 -6 41 -42 L41 -42 Z M179 -42 C179 -22 192 -12 216 -12 C324 -12 377 -22 377 -42 C377 -48 377 -53 375 -56 C373 -60 369 -63 363 -66 C357 -70 347 -72 333 -73 C320 -75 301 -75 279 -75 C261 -75 245 -74 232 -73 C219 -71 210 -69 203 -67 C196 -65 191 -62 188 -59 C184 -56 181 -53 181 -50 C180 -48 179 -45 179 -42 L179 -42 Z M206 333 C218 341 237 345 261 345 C285 345 303 341 315 333 C327 325 333 315 333 303 C333 291 327 281 315 273 C303 266 285 262 261 262 C237 262 218 266 206 273 C194 281 188 291 188 303 C188 315 194 325 206 333 L206 333 Z " />
<glyph glyph-name="h" unicode="h" horiz-adv-x="568" d="M60 0 L198 0 L198 250 C198 276 206 297 222 314 C238 330 262 338 296 338 C330 338 354 330 370 314 C385 297 393 276 393 250 L393 0 L531 0 L531 259 C531 285 527 310 520 333 C512 357 501 378 486 398 C471 417 450 432 424 444 C398 455 368 461 333 461 C284 461 239 448 198 421 L198 626 L60 626 L60 0 L60 0 Z " />
<glyph glyph-name="i" unicode="i" horiz-adv-x="258" d="M60 503 L198 503 L198 626 L60 626 L60 503 Z M60 0 L198 0 L198 453 L60 453 L60 0 Z " />
<glyph glyph-name="j" unicode="j" horiz-adv-x="334" d="M10 -48 L10 -167 C38 -176 70 -181 108 -181 C133 -181 155 -177 174 -170 C194 -164 211 -153 226 -140 C242 -126 253 -107 261 -83 C270 -60 274 -32 274 0 L274 453 L135 453 L135 0 C135 -21 131 -36 121 -45 C112 -54 97 -58 76 -58 C59 -58 37 -55 10 -48 L10 -48 Z M136 503 L273 503 L273 626 L136 626 L136 503 Z " />
<glyph glyph-name="k" unicode="k" horiz-adv-x="539" d="M62 0 L201 0 L201 118 L239 157 L368 0 L532 0 L328 248 L529 453 L367 453 L201 284 L201 626 L62 626 L62 0 L62 0 Z " />
<glyph glyph-name="l" unicode="l" horiz-adv-x="260" d="M61 0 L200 0 L200 626 L61 626 L61 0 L61 0 Z " />
<glyph glyph-name="m" unicode="m" horiz-adv-x="824" d="M60 0 L199 0 L199 250 C199 275 205 296 217 313 C228 330 248 338 274 338 C300 338 319 330 331 313 C343 296 349 275 349 250 L349 0 L488 0 L488 250 C488 275 493 296 505 313 C518 330 537 338 563 338 C589 338 609 330 620 313 C632 296 638 275 638 250 L638 0 L777 0 L777 259 C777 278 775 296 771 314 C767 331 760 349 751 367 C741 386 729 401 714 415 C699 429 680 440 655 448 C631 457 603 461 572 461 C518 461 471 442 431 403 C417 422 399 436 378 446 C356 456 334 461 310 461 C264 461 223 445 188 412 L184 453 L60 453 L60 0 L60 0 Z " />
<glyph glyph-name="n" unicode="n" horiz-adv-x="558" d="M50 -1 L189 -1 L189 253 C189 279 197 299 212 314 C228 329 252 337 286 337 C320 337 345 329 360 314 C375 299 383 279 383 253 L383 -1 L522 -1 L522 253 C522 315 504 365 468 403 C432 441 384 460 323 460 C265 460 216 443 178 408 L174 452 L50 452 L50 -1 L50 -1 Z " />
<glyph glyph-name="o" unicode="o" horiz-adv-x="551" d="M99 57 C145 13 204 -9 276 -9 C348 -9 407 13 453 57 C498 100 521 157 521 226 C521 296 498 352 453 396 C407 440 348 461 276 461 C204 461 145 440 99 396 C54 352 31 296 31 226 C31 157 54 100 99 57 L99 57 Z M198 308 C217 328 243 338 276 338 C310 338 336 328 355 308 C373 288 383 260 383 226 C383 192 373 164 355 144 C336 124 310 114 276 114 C243 114 217 124 198 144 C179 164 170 192 170 226 C170 260 179 288 198 308 L198 308 Z " />
<glyph glyph-name="p" unicode="p" horiz-adv-x="563" d="M50 -172 L188 -172 L188 35 C225 7 265 -7 309 -7 C343 -7 373 -1 400 12 C428 24 450 41 467 63 C485 85 498 110 507 138 C517 166 522 196 522 228 C522 260 517 290 507 318 C498 347 485 371 467 393 C450 415 428 432 400 445 C373 457 343 463 309 463 C261 463 217 446 177 412 L173 455 L50 455 L50 -172 Z M213 311 C230 331 254 340 285 340 C316 340 341 331 357 311 C374 291 383 263 383 228 C383 193 374 165 357 145 C341 126 316 116 285 116 C254 116 230 126 213 145 C196 165 188 193 188 228 C188 263 196 291 213 311 L213 311 Z " />
<glyph glyph-name="q" unicode="q" horiz-adv-x="563" d="M55 136 C65 108 78 83 95 61 C113 39 135 22 162 10 C190 -3 220 -9 253 -9 C297 -9 338 5 375 33 L375 -174 L513 -174 L513 453 L390 453 L385 410 C345 444 301 461 253 461 C220 461 190 455 162 443 C135 430 113 413 95 391 C78 369 65 345 55 316 C46 288 41 258 41 226 C41 194 46 164 55 136 L55 136 Z M205 309 C222 329 246 338 278 338 C309 338 333 329 350 309 C367 289 375 261 375 226 C375 191 367 163 350 143 C333 124 309 114 278 114 C246 114 222 124 205 143 C188 163 180 191 180 226 C180 261 188 289 205 309 L205 309 Z " />
<glyph glyph-name="r" unicode="r" horiz-adv-x="354" d="M41 0 L179 0 L179 306 C200 315 221 322 242 325 C263 328 290 330 323 330 L323 454 C290 454 261 451 238 445 C215 439 192 428 169 412 L164 454 L41 454 L41 0 L41 0 Z " />
<glyph glyph-name="s" unicode="s" horiz-adv-x="469" d="M38 18 C105 0 172 -9 239 -9 C306 -9 359 3 397 28 C436 53 455 89 455 137 C455 161 450 182 441 200 C431 218 418 233 399 245 C381 256 361 265 338 272 C315 279 289 285 258 289 C229 294 208 298 196 303 C184 307 178 314 178 322 C178 330 183 336 193 339 C203 341 219 343 244 343 C296 343 355 335 418 320 L418 439 C360 454 301 461 243 461 C182 461 132 450 95 426 C57 402 38 369 38 326 C38 303 42 283 51 266 C59 248 70 234 82 224 C94 214 109 206 127 199 C145 191 161 186 175 183 C189 181 204 178 222 176 C235 175 246 173 254 172 C262 171 272 169 283 166 C295 163 304 159 310 155 C316 150 319 144 319 138 C319 134 318 130 316 126 C313 123 310 120 305 118 C300 116 295 115 290 113 C285 112 279 111 272 111 C264 110 258 110 254 110 C249 109 243 109 236 109 C201 109 169 112 141 116 C113 120 79 127 38 137 L38 18 L38 18 Z " />
<glyph glyph-name="t" unicode="t" horiz-adv-x="364" d="M13 330 L85 330 L85 138 C85 91 100 56 128 30 C156 4 199 -9 256 -9 C283 -9 314 -4 349 7 L349 125 C316 118 289 114 266 114 C250 114 239 116 233 122 C227 127 224 137 224 150 L224 330 L324 330 L324 453 L224 453 L224 634 L85 634 L85 453 L13 453 L13 330 L13 330 Z " />
<glyph glyph-name="u" unicode="u" horiz-adv-x="592" d="M61 198 C61 175 63 154 68 134 C72 114 80 95 90 77 C100 60 113 45 129 32 C144 19 163 9 186 2 C209 -6 235 -9 264 -9 C315 -9 362 8 404 43 L408 -1 L532 -1 L532 453 L394 453 L394 198 C394 173 386 152 370 137 C355 122 330 114 296 114 C262 114 237 122 222 137 C207 152 199 172 199 198 L199 453 L61 453 L61 198 L61 198 Z " />
<glyph glyph-name="v" unicode="v" horiz-adv-x="509" d="M3 454 L187 0 L321 0 L506 454 L364 454 L255 171 L145 454 L3 454 L3 454 Z " />
<glyph glyph-name="w" unicode="w" horiz-adv-x="707" d="M5 454 L150 0 L287 0 L353 231 L419 0 L556 0 L701 454 L560 454 L487 192 L415 454 L291 454 L218 192 L146 454 L5 454 L5 454 Z " />
<glyph glyph-name="x" unicode="x" horiz-adv-x="540" d="M6 0 L168 0 L268 125 L368 0 L530 0 L349 227 L530 454 L368 454 L268 329 L168 454 L6 454 L187 227 L6 0 L6 0 Z " />
<glyph glyph-name="y" unicode="y" horiz-adv-x="517" d="M6 453 L190 -1 C182 -20 171 -34 158 -44 C146 -53 126 -58 100 -58 C81 -58 54 -53 22 -44 L22 -167 C52 -176 80 -181 105 -181 C124 -181 142 -179 159 -175 C176 -171 191 -166 204 -160 C216 -154 228 -146 239 -136 C251 -126 260 -117 268 -107 C275 -98 283 -86 290 -73 C298 -59 304 -48 308 -37 C313 -27 318 -15 324 -1 L508 453 L367 453 L257 170 L148 453 L6 453 L6 453 Z " />
<glyph glyph-name="z" unicode="z" horiz-adv-x="515" d="M33 0 L485 0 L485 124 L227 124 L485 342 L485 454 L33 454 L33 331 L290 331 L33 112 L33 0 L33 0 Z " />
<glyph glyph-name="braceleft" unicode="&#x7b;" horiz-adv-x="401" d="M50 223 C70 223 86 221 95 216 C105 211 110 201 110 184 L110 15 C110 -24 115 -57 125 -84 C135 -110 151 -131 171 -147 C192 -162 217 -173 246 -180 C275 -186 309 -189 351 -189 L351 -66 C330 -66 314 -66 303 -64 C291 -62 281 -58 272 -52 C263 -46 257 -38 254 -27 C250 -15 249 0 249 18 L249 187 C249 205 244 223 235 239 C225 256 212 270 195 280 C212 290 225 304 234 321 C244 338 249 356 249 374 L249 546 C249 561 250 573 252 583 C255 593 258 601 263 607 C267 613 274 617 283 620 C292 623 301 625 311 626 C321 627 334 627 351 627 L351 750 C309 750 274 747 246 741 C217 735 192 724 171 709 C151 694 135 674 125 647 C115 621 110 588 110 549 L110 378 C110 362 105 351 95 346 C85 340 70 337 50 337 L50 223 L50 223 Z " />
<glyph glyph-name="bar" unicode="&#x7c;" horiz-adv-x="220" d="M63 -123 L163 -123 L163 750 L63 750 L63 -123 L63 -123 Z " />
<glyph glyph-name="braceright" unicode="&#x7d;" horiz-adv-x="391" d="M40 -66 L40 -189 C81 -189 116 -186 145 -180 C174 -173 199 -162 220 -147 C240 -131 256 -110 266 -84 C276 -57 281 -24 281 15 L281 184 C281 201 286 211 296 216 C305 221 321 223 341 223 L341 337 C321 337 306 340 296 346 C286 351 281 362 281 378 L281 549 C281 588 276 621 266 647 C256 674 240 694 220 709 C199 724 174 735 145 741 C117 747 82 750 40 750 L40 627 C57 627 70 627 80 626 C90 625 99 623 108 620 C117 617 124 613 128 607 C133 601 136 593 139 583 C141 573 142 561 142 546 L142 374 C142 356 147 338 157 321 C166 304 179 290 196 280 C179 270 166 256 156 239 C147 223 142 205 142 187 L142 18 C142 0 141 -15 137 -27 C134 -38 128 -46 119 -52 C110 -58 100 -62 88 -64 C77 -66 61 -66 40 -66 L40 -66 Z " />
<glyph glyph-name="asciitilde" unicode="&#x7e;" horiz-adv-x="608" d="M56 224 L183 224 C185 231 187 237 188 241 C190 245 192 250 195 255 C198 260 202 264 207 266 C212 269 218 270 225 270 C239 270 254 268 269 263 C285 258 298 253 310 247 C322 241 337 236 356 231 C374 226 394 224 414 224 C433 224 451 227 468 232 C484 238 497 245 508 254 C518 263 528 274 536 287 C544 300 551 314 555 327 C560 340 564 354 568 371 L440 371 C437 356 433 344 427 336 C421 327 410 323 396 323 C382 323 368 326 352 331 C337 335 324 341 312 347 C300 353 285 358 267 363 C248 368 229 370 209 370 C129 370 78 322 56 224 L56 224 Z " />
<glyph glyph-name="cent" unicode="&#xa2;" horiz-adv-x="538" d="M41 238 C41 176 59 124 95 83 C132 42 187 17 260 7 L260 -76 L356 -76 L356 3 C393 6 433 14 476 26 L476 149 C425 137 385 130 356 128 L356 348 C389 345 429 338 476 327 L476 451 C430 462 390 470 356 472 L356 550 L260 550 L260 469 C187 459 132 434 96 393 C59 352 41 300 41 238 L41 238 Z M179 238 C179 266 185 289 197 307 C210 325 230 337 260 344 L260 132 C230 139 209 151 197 168 C185 186 179 209 179 238 L179 238 Z " />
<glyph glyph-name="sterling" unicode="&#xa3;" horiz-adv-x="544" d="M250 464 C250 496 278 512 334 512 C387 512 444 500 507 475 L507 599 C446 623 387 635 329 635 C266 635 215 619 174 587 C133 556 112 515 112 466 L112 434 L43 434 L43 337 L112 337 C112 337 112 333 112 326 C111 288 105 160 43 123 L43 0 L507 0 L507 123 L198 123 C198 123 250 181 250 337 L449 337 L449 434 L250 434 L250 464 L250 464 Z " />
<glyph glyph-name="yen" unicode="&#xa5;" horiz-adv-x="645" d="M5 626 L252 295 L252 284 L122 284 L122 188 L252 188 L252 138 L122 138 L122 41 L252 41 L252 0 L391 0 L391 41 L521 41 L521 138 L391 138 L391 188 L521 188 L521 284 L391 284 L391 295 L638 626 L479 626 L322 408 L164 626 L5 626 L5 626 Z " />
<glyph glyph-name="dieresis" unicode="&#xa8;" horiz-adv-x="383" d="M68 548 L156 548 L156 636 L68 636 L68 548 Z M225 548 L313 548 L313 636 L225 636 L225 548 Z " />
<glyph glyph-name="copyright" unicode="&#xa9;" horiz-adv-x="788" d="M107 148 C135 99 175 60 226 33 C277 5 334 -8 397 -8 C460 -8 517 5 568 33 C619 60 659 99 688 148 C716 197 731 252 731 314 C731 375 716 431 688 480 C659 529 619 567 568 595 C517 622 460 636 397 636 C334 636 277 622 226 595 C175 567 135 529 107 480 C78 431 63 375 63 314 C63 252 78 197 107 148 L107 148 Z M210 496 C258 543 320 567 397 567 C474 567 536 543 584 496 C633 448 657 388 657 314 C657 240 633 179 584 132 C536 85 474 61 397 61 C320 61 258 85 210 132 C161 179 137 240 137 314 C137 388 161 449 210 496 L210 496 Z M276 199 C308 168 352 153 410 153 C448 153 483 158 517 170 L517 230 C482 219 447 214 411 214 C372 214 343 223 325 241 C307 259 299 283 299 314 C299 344 307 369 325 387 C343 405 372 414 411 414 C447 414 483 408 517 398 L517 458 C483 469 448 475 410 475 C352 475 308 460 276 429 C245 399 229 360 229 314 C229 268 245 229 276 199 L276 199 Z " />
<glyph glyph-name="guillemotleft" unicode="&#xab;" horiz-adv-x="544" d="M23 324 L157 148 L303 148 L169 324 L303 500 L157 500 L23 324 Z M225 324 L359 148 L505 148 L371 324 L505 500 L359 500 L225 324 Z " />
<glyph glyph-name="registered" unicode="&#xae;" horiz-adv-x="788" d="M106 148 C135 99 175 60 226 33 C276 5 333 -8 396 -8 C459 -8 517 5 568 33 C618 60 658 99 687 148 C716 197 730 252 730 314 C730 375 716 431 687 480 C658 529 618 567 568 595 C517 622 459 636 396 636 C333 636 276 622 226 595 C175 567 135 529 106 480 C77 431 63 375 63 314 C63 252 77 197 106 148 L106 148 Z M209 496 C257 543 320 567 396 567 C473 567 536 543 584 496 C632 448 656 388 656 314 C656 240 632 179 584 132 C536 85 473 61 396 61 C320 61 257 85 209 132 C161 179 137 240 137 314 C137 388 161 449 209 496 L209 496 Z M269 157 L339 157 L339 284 L373 284 L469 157 L551 157 L452 284 C476 289 495 301 509 318 C522 335 529 354 529 375 C529 401 520 424 500 443 C480 462 456 471 427 471 L269 471 L269 157 Z M339 340 L339 409 L427 409 C436 409 444 406 451 399 C457 393 460 384 460 375 C460 365 457 357 451 350 C444 343 436 340 427 340 L339 340 Z " />
<glyph glyph-name="acute" unicode="&#xb4;" horiz-adv-x="233" d="M25 489 L104 489 L196 627 L98 627 L25 489 L25 489 Z " />
<glyph glyph-name="cedilla" unicode="&#xb8;" horiz-adv-x="295" d="M221 -36 C211 -20 198 -8 183 0 L107 0 C117 -9 126 -19 133 -31 C140 -42 144 -54 144 -64 C144 -96 110 -112 42 -112 L42 -189 C171 -189 236 -154 236 -84 C236 -67 231 -51 221 -36 L221 -36 Z " />
<glyph glyph-name="guillemotright" unicode="&#xbb;" horiz-adv-x="579" d="M57 148 L204 148 L337 324 L204 500 L57 500 L192 324 L57 148 Z M260 500 L393 324 L260 148 L406 148 L540 324 L406 500 L260 500 Z " />
<glyph glyph-name="Agrave" unicode="&#xc0;" horiz-adv-x="640" d="M12 0 L154 0 L207 144 L435 144 L488 0 L629 0 L392 626 L250 626 L12 0 Z M252 267 L321 457 L390 267 L252 267 Z M235 827 L327 689 L406 689 L333 827 L235 827 Z " />
<glyph glyph-name="Aacute" unicode="&#xc1;" horiz-adv-x="640" d="M12 0 L154 0 L207 144 L435 144 L488 0 L629 0 L392 626 L250 626 L12 0 Z M252 267 L321 457 L390 267 L252 267 Z M226 689 L305 689 L397 827 L299 827 L226 689 Z " />
<glyph glyph-name="Acircumflex" unicode="&#xc2;" horiz-adv-x="640" d="M12 0 L154 0 L207 144 L435 144 L488 0 L629 0 L392 626 L250 626 L12 0 Z M252 267 L321 457 L390 267 L252 267 Z M148 707 L247 707 L318 772 L388 707 L488 707 L374 827 L262 827 L148 707 Z " />
<glyph glyph-name="Atilde" unicode="&#xc3;" horiz-adv-x="640" d="M12 0 L154 0 L207 144 L435 144 L488 0 L629 0 L392 626 L250 626 L12 0 Z M252 267 L321 457 L390 267 L252 267 Z M156 761 L238 751 C244 775 256 787 273 787 C278 787 284 785 292 780 C299 776 307 771 313 766 C320 761 329 756 341 752 C352 748 364 746 376 746 C408 746 434 755 452 774 C471 793 481 818 484 849 L402 860 C396 836 384 824 368 824 C362 824 356 826 349 830 C341 834 334 839 327 844 C320 850 311 854 300 859 C288 863 276 865 264 865 C232 865 207 856 188 837 C169 818 159 793 156 761 L156 761 Z " />
<glyph glyph-name="Adieresis" unicode="&#xc4;" horiz-adv-x="640" d="M12 0 L154 0 L207 144 L435 144 L488 0 L629 0 L392 626 L250 626 L12 0 Z M252 267 L321 457 L390 267 L252 267 Z M186 748 L274 748 L274 836 L186 836 L186 748 Z M343 748 L431 748 L431 836 L343 836 L343 748 Z " />
<glyph glyph-name="Aring" unicode="&#xc5;" horiz-adv-x="640" d="M12 0 L154 0 L207 144 L435 144 L488 0 L629 0 L392 626 L250 626 L12 0 Z M252 267 L321 457 L390 267 L252 267 Z M258 686 C275 669 296 661 320 661 C343 661 364 669 381 686 C398 703 407 723 407 747 C407 771 398 791 381 809 C364 825 343 834 320 834 C296 834 275 825 258 809 C241 791 232 771 232 747 C232 723 241 703 258 686 L258 686 Z M285 747 C285 757 288 765 295 772 C302 779 310 782 320 782 C329 782 337 779 344 772 C351 765 354 757 354 747 C354 738 351 729 344 723 C337 716 329 713 320 713 C310 713 302 716 295 723 C288 729 285 738 285 747 L285 747 Z " />
<glyph glyph-name="AE" unicode="&#xc6;" horiz-adv-x="865" d="M459 504 L839 504 L839 627 L249 627 L12 0 L154 0 L206 145 L320 145 L320 0 L839 0 L839 123 L459 123 L459 265 L692 265 L692 388 L459 388 L459 504 L459 504 Z M320 267 L251 267 L320 457 L320 456 L320 267 L320 267 Z " />
<glyph glyph-name="Ccedilla" unicode="&#xc7;" horiz-adv-x="654" d="M63 189 C78 150 100 116 130 87 C159 57 197 34 244 17 C291 -1 343 -9 402 -9 C479 -9 550 2 616 25 L616 144 C548 124 477 114 403 114 C363 114 329 119 299 129 C270 138 247 152 230 171 C212 189 199 210 191 233 C183 257 179 283 179 313 C179 342 183 369 191 392 C199 416 212 437 230 455 C247 473 270 487 299 497 C329 507 363 512 403 512 C477 512 548 502 616 482 L616 601 C550 624 479 635 402 635 C343 635 291 626 244 609 C197 592 159 569 130 539 C100 510 78 476 63 437 C48 399 40 357 40 313 C40 269 48 227 63 189 L63 189 Z M410 -36 C400 -20 387 -8 372 0 L296 0 C306 -9 315 -19 322 -31 C329 -42 333 -54 333 -64 C333 -96 299 -112 231 -112 L231 -189 C360 -189 425 -154 425 -84 C425 -67 420 -51 410 -36 L410 -36 Z " />
<glyph glyph-name="Egrave" unicode="&#xc8;" horiz-adv-x="616" d="M60 0 L578 0 L578 123 L198 123 L198 265 L432 265 L432 388 L198 388 L198 503 L578 503 L578 626 L60 626 L60 0 Z M223 827 L315 689 L394 689 L321 827 L223 827 Z " />
<glyph glyph-name="Eacute" unicode="&#xc9;" horiz-adv-x="616" d="M60 0 L578 0 L578 123 L198 123 L198 265 L432 265 L432 388 L198 388 L198 503 L578 503 L578 626 L60 626 L60 0 Z M214 689 L293 689 L385 827 L287 827 L214 689 Z " />
<glyph glyph-name="Ecircumflex" unicode="&#xca;" horiz-adv-x="616" d="M60 0 L578 0 L578 123 L198 123 L198 265 L432 265 L432 388 L198 388 L198 503 L578 503 L578 626 L60 626 L60 0 Z M136 707 L235 707 L306 772 L376 707 L476 707 L362 827 L250 827 L136 707 Z " />
<glyph glyph-name="Edieresis" unicode="&#xcb;" horiz-adv-x="616" d="M60 0 L578 0 L578 123 L198 123 L198 265 L432 265 L432 388 L198 388 L198 503 L578 503 L578 626 L60 626 L60 0 Z M174 748 L262 748 L262 836 L174 836 L174 748 Z M331 748 L419 748 L419 836 L331 836 L331 748 Z " />
<glyph glyph-name="Igrave" unicode="&#xcc;" horiz-adv-x="258" d="M60 0 L198 0 L198 626 L60 626 L60 0 Z M44 827 L136 689 L215 689 L142 827 L44 827 Z " />
<glyph glyph-name="Iacute" unicode="&#xcd;" horiz-adv-x="258" d="M60 0 L198 0 L198 626 L60 626 L60 0 Z M35 689 L114 689 L206 827 L108 827 L35 689 Z " />
<glyph glyph-name="Icircumflex" unicode="&#xce;" horiz-adv-x="258" d="M60 0 L198 0 L198 626 L60 626 L60 0 Z M-43 707 L56 707 L127 772 L197 707 L297 707 L183 827 L71 827 L-43 707 Z " />
<glyph glyph-name="Idieresis" unicode="&#xcf;" horiz-adv-x="258" d="M60 0 L198 0 L198 626 L60 626 L60 0 Z M-4 748 L84 748 L84 836 L-4 836 L-4 748 Z M153 748 L241 748 L241 836 L153 836 L153 748 Z " />
<glyph glyph-name="Eth" unicode="&#xd0;" horiz-adv-x="774" d="M117 0 L401 0 C450 0 495 8 537 23 C578 39 613 61 642 88 C671 116 693 149 709 188 C726 226 734 268 734 312 C734 372 720 425 693 473 C665 521 626 558 575 585 C524 613 466 626 401 626 L117 626 L117 0 Z M255 123 L255 503 L401 503 C462 503 509 486 544 450 C578 415 595 369 595 312 C595 256 578 210 544 175 C509 140 462 123 401 123 L255 123 Z M40 249 L358 249 L358 348 L40 348 L40 249 Z " />
<glyph glyph-name="Ntilde" unicode="&#xd1;" horiz-adv-x="666" d="M61 0 L199 0 L199 399 L468 0 L606 0 L606 626 L468 626 L468 228 L199 626 L61 626 L61 0 Z M176 761 L258 751 C264 775 276 787 293 787 C298 787 304 785 312 780 C319 776 327 771 333 766 C340 761 349 756 361 752 C372 748 384 746 396 746 C428 746 454 755 472 774 C491 793 501 818 504 849 L422 860 C416 836 404 824 388 824 C382 824 376 826 369 830 C361 834 354 839 347 844 C340 850 331 854 320 859 C308 863 296 865 284 865 C252 865 227 856 208 837 C189 818 179 793 176 761 L176 761 Z " />
<glyph glyph-name="Ograve" unicode="&#xd2;" horiz-adv-x="747" d="M65 187 C81 147 103 113 131 84 C160 55 195 33 237 16 C279 0 325 -9 374 -9 C424 -9 469 0 511 16 C553 33 588 55 617 84 C646 113 668 147 683 187 C699 226 707 268 707 313 C707 359 699 401 683 440 C668 480 646 514 617 543 C589 572 554 594 512 611 C470 628 424 636 374 636 C324 636 278 628 237 611 C195 594 159 572 131 543 C103 514 81 480 65 440 C49 401 41 359 41 313 C41 268 49 226 65 187 L65 187 Z M179 313 C179 373 197 421 231 458 C265 494 313 513 374 513 C436 513 483 494 518 458 C552 421 569 373 569 313 C569 255 552 207 517 170 C483 133 435 114 374 114 C313 114 265 133 231 170 C197 207 179 255 179 313 L179 313 Z M288 827 L380 689 L459 689 L386 827 L288 827 Z " />
<glyph glyph-name="Oacute" unicode="&#xd3;" horiz-adv-x="747" d="M65 187 C81 147 103 113 131 84 C160 55 195 33 237 16 C279 0 325 -9 374 -9 C424 -9 469 0 511 16 C553 33 588 55 617 84 C646 113 668 147 683 187 C699 226 707 268 707 313 C707 359 699 401 683 440 C668 480 646 514 617 543 C589 572 554 594 512 611 C470 628 424 636 374 636 C324 636 278 628 237 611 C195 594 159 572 131 543 C103 514 81 480 65 440 C49 401 41 359 41 313 C41 268 49 226 65 187 L65 187 Z M179 313 C179 373 197 421 231 458 C265 494 313 513 374 513 C436 513 483 494 518 458 C552 421 569 373 569 313 C569 255 552 207 517 170 C483 133 435 114 374 114 C313 114 265 133 231 170 C197 207 179 255 179 313 L179 313 Z M279 689 L358 689 L450 827 L352 827 L279 689 Z " />
<glyph glyph-name="Ocircumflex" unicode="&#xd4;" horiz-adv-x="747" d="M65 187 C81 147 103 113 131 84 C160 55 195 33 237 16 C279 0 325 -9 374 -9 C424 -9 469 0 511 16 C553 33 588 55 617 84 C646 113 668 147 683 187 C699 226 707 268 707 313 C707 359 699 401 683 440 C668 480 646 514 617 543 C589 572 554 594 512 611 C470 628 424 636 374 636 C324 636 278 628 237 611 C195 594 159 572 131 543 C103 514 81 480 65 440 C49 401 41 359 41 313 C41 268 49 226 65 187 L65 187 Z M179 313 C179 373 197 421 231 458 C265 494 313 513 374 513 C436 513 483 494 518 458 C552 421 569 373 569 313 C569 255 552 207 517 170 C483 133 435 114 374 114 C313 114 265 133 231 170 C197 207 179 255 179 313 L179 313 Z M201 707 L300 707 L371 772 L441 707 L541 707 L427 827 L315 827 L201 707 Z " />
<glyph glyph-name="Otilde" unicode="&#xd5;" horiz-adv-x="747" d="M65 187 C81 147 103 113 131 84 C160 55 195 33 237 16 C279 0 325 -9 374 -9 C424 -9 469 0 511 16 C553 33 588 55 617 84 C646 113 668 147 683 187 C699 226 707 268 707 313 C707 359 699 401 683 440 C668 480 646 514 617 543 C589 572 554 594 512 611 C470 628 424 636 374 636 C324 636 278 628 237 611 C195 594 159 572 131 543 C103 514 81 480 65 440 C49 401 41 359 41 313 C41 268 49 226 65 187 L65 187 Z M179 313 C179 373 197 421 231 458 C265 494 313 513 374 513 C436 513 483 494 518 458 C552 421 569 373 569 313 C569 255 552 207 517 170 C483 133 435 114 374 114 C313 114 265 133 231 170 C197 207 179 255 179 313 L179 313 Z M216 761 L298 751 C304 775 316 787 333 787 C338 787 344 785 352 780 C359 776 367 771 373 766 C380 761 389 756 401 752 C412 748 424 746 436 746 C468 746 494 755 512 774 C531 793 541 818 544 849 L462 860 C456 836 444 824 428 824 C422 824 416 826 409 830 C401 834 394 839 387 844 C380 850 371 854 360 859 C348 863 336 865 324 865 C292 865 267 856 248 837 C229 818 219 793 216 761 L216 761 Z " />
<glyph glyph-name="Odieresis" unicode="&#xd6;" horiz-adv-x="747" d="M65 187 C81 147 103 113 131 84 C160 55 195 33 237 16 C279 0 325 -9 374 -9 C424 -9 469 0 511 16 C553 33 588 55 617 84 C646 113 668 147 683 187 C699 226 707 268 707 313 C707 359 699 401 683 440 C668 480 646 514 617 543 C589 572 554 594 512 611 C470 628 424 636 374 636 C324 636 278 628 237 611 C195 594 159 572 131 543 C103 514 81 480 65 440 C49 401 41 359 41 313 C41 268 49 226 65 187 L65 187 Z M179 313 C179 373 197 421 231 458 C265 494 313 513 374 513 C436 513 483 494 518 458 C552 421 569 373 569 313 C569 255 552 207 517 170 C483 133 435 114 374 114 C313 114 265 133 231 170 C197 207 179 255 179 313 L179 313 Z M240 748 L328 748 L328 836 L240 836 L240 748 Z M397 748 L485 748 L485 836 L397 836 L397 748 Z " />
<glyph glyph-name="Oslash" unicode="&#xd8;" horiz-adv-x="747" d="M683 440 C667 479 645 513 616 542 C612 547 606 552 601 557 L646 627 L508 627 L500 615 C461 629 419 636 374 636 C324 636 278 627 236 611 C194 594 159 571 131 542 C102 513 80 479 64 440 C48 401 40 358 40 313 C40 268 48 226 64 186 C80 147 102 113 131 84 C136 79 141 74 146 70 L101 0 L239 0 L247 12 C286 -2 328 -9 374 -9 C423 -9 469 -1 511 16 C553 32 588 55 616 84 C645 113 667 147 683 186 C699 226 707 268 707 313 C707 358 699 401 683 440 L683 440 Z M179 313 C179 372 196 420 230 457 C264 494 312 513 374 513 C394 513 413 511 430 507 L219 182 C192 217 179 261 179 313 L179 313 Z M517 169 C482 133 435 114 374 114 C353 114 335 116 317 120 L528 444 C555 409 568 366 568 313 C568 254 551 206 517 169 L517 169 Z " />
<glyph glyph-name="Ugrave" unicode="&#xd9;" horiz-adv-x="721" d="M60 236 C60 202 67 171 81 141 C95 111 116 85 141 63 C167 41 199 23 236 10 C274 -3 315 -9 360 -9 C404 -9 445 -3 483 10 C521 23 553 41 579 63 C604 85 624 111 639 141 C654 170 661 202 661 236 L661 626 L522 626 L522 241 C522 208 507 179 477 153 C446 127 407 114 360 114 C313 114 274 127 243 153 C213 179 198 208 198 241 L198 626 L60 626 L60 236 Z M275 827 L367 689 L446 689 L373 827 L275 827 Z " />
<glyph glyph-name="Uacute" unicode="&#xda;" horiz-adv-x="721" d="M60 236 C60 202 67 171 81 141 C95 111 116 85 141 63 C167 41 199 23 236 10 C274 -3 315 -9 360 -9 C404 -9 445 -3 483 10 C521 23 553 41 579 63 C604 85 624 111 639 141 C654 170 661 202 661 236 L661 626 L522 626 L522 241 C522 208 507 179 477 153 C446 127 407 114 360 114 C313 114 274 127 243 153 C213 179 198 208 198 241 L198 626 L60 626 L60 236 Z M266 689 L345 689 L437 827 L339 827 L266 689 Z " />
<glyph glyph-name="Ucircumflex" unicode="&#xdb;" horiz-adv-x="721" d="M60 236 C60 202 67 171 81 141 C95 111 116 85 141 63 C167 41 199 23 236 10 C274 -3 315 -9 360 -9 C404 -9 445 -3 483 10 C521 23 553 41 579 63 C604 85 624 111 639 141 C654 170 661 202 661 236 L661 626 L522 626 L522 241 C522 208 507 179 477 153 C446 127 407 114 360 114 C313 114 274 127 243 153 C213 179 198 208 198 241 L198 626 L60 626 L60 236 Z M188 707 L287 707 L358 772 L428 707 L528 707 L414 827 L302 827 L188 707 Z " />
<glyph glyph-name="Udieresis" unicode="&#xdc;" horiz-adv-x="721" d="M60 236 C60 202 67 171 81 141 C95 111 116 85 141 63 C167 41 199 23 236 10 C274 -3 315 -9 360 -9 C404 -9 445 -3 483 10 C521 23 553 41 579 63 C604 85 624 111 639 141 C654 170 661 202 661 236 L661 626 L522 626 L522 241 C522 208 507 179 477 153 C446 127 407 114 360 114 C313 114 274 127 243 153 C213 179 198 208 198 241 L198 626 L60 626 L60 236 Z M227 748 L315 748 L315 836 L227 836 L227 748 Z M384 748 L472 748 L472 836 L384 836 L384 748 Z " />
<glyph glyph-name="Yacute" unicode="&#xdd;" horiz-adv-x="637" d="M1 626 L248 294 L248 0 L387 0 L387 294 L634 626 L475 626 L318 408 L160 626 L1 626 Z M224 689 L303 689 L395 827 L297 827 L224 689 Z " />
<glyph glyph-name="germandbls" unicode="&#xdf;" horiz-adv-x="643" d="M593 273 C579 300 559 323 532 343 C557 370 570 405 570 449 C570 500 550 542 511 576 C472 609 424 626 369 626 L223 626 C130 626 55 551 55 458 L55 -54 L193 -54 L193 461 C193 484 212 503 235 503 L369 503 C387 503 402 498 414 487 C426 476 432 463 432 447 C432 430 426 416 414 405 C402 394 388 389 369 389 L325 389 L325 266 L404 266 C425 266 442 259 455 244 C469 230 476 212 476 191 C476 172 469 155 455 142 C442 129 425 122 404 122 L252 122 L252 0 L404 0 C462 0 512 18 553 54 C594 90 614 134 614 188 C614 217 607 245 593 273 L593 273 Z " />
<glyph glyph-name="agrave" unicode="&#xe0;" horiz-adv-x="523" d="M70 34 C103 5 145 -9 198 -9 C246 -9 292 2 334 26 L337 0 L467 0 L467 235 C467 315 451 373 419 408 C387 444 333 461 258 461 C192 461 124 453 54 435 L54 320 C128 335 190 343 239 343 C273 343 297 339 309 331 C320 324 327 309 327 288 L199 288 C146 288 103 274 70 244 C37 215 20 180 20 138 C20 97 37 62 70 34 L70 34 Z M170 164 C178 171 187 174 199 174 L328 174 L328 137 C311 127 291 119 268 114 C244 108 221 105 198 105 C187 105 177 108 170 115 C162 121 159 129 159 139 C159 149 162 157 170 164 L170 164 Z M176 627 L268 489 L347 489 L274 627 L176 627 Z " />
<glyph glyph-name="aacute" unicode="&#xe1;" horiz-adv-x="523" d="M70 34 C103 5 145 -9 198 -9 C246 -9 292 2 334 26 L337 0 L467 0 L467 235 C467 315 451 373 419 408 C387 444 333 461 258 461 C192 461 124 453 54 435 L54 320 C128 335 190 343 239 343 C273 343 297 339 309 331 C320 324 327 309 327 288 L199 288 C146 288 103 274 70 244 C37 215 20 180 20 138 C20 97 37 62 70 34 L70 34 Z M170 164 C178 171 187 174 199 174 L328 174 L328 137 C311 127 291 119 268 114 C244 108 221 105 198 105 C187 105 177 108 170 115 C162 121 159 129 159 139 C159 149 162 157 170 164 L170 164 Z M167 489 L246 489 L338 627 L240 627 L167 489 Z " />
<glyph glyph-name="acircumflex" unicode="&#xe2;" horiz-adv-x="523" d="M70 34 C103 5 145 -9 198 -9 C246 -9 292 2 334 26 L337 0 L467 0 L467 235 C467 315 451 373 419 408 C387 444 333 461 258 461 C192 461 124 453 54 435 L54 320 C128 335 190 343 239 343 C273 343 297 339 309 331 C320 324 327 309 327 288 L199 288 C146 288 103 274 70 244 C37 215 20 180 20 138 C20 97 37 62 70 34 L70 34 Z M170 164 C178 171 187 174 199 174 L328 174 L328 137 C311 127 291 119 268 114 C244 108 221 105 198 105 C187 105 177 108 170 115 C162 121 159 129 159 139 C159 149 162 157 170 164 L170 164 Z M89 507 L188 507 L259 572 L329 507 L429 507 L315 627 L203 627 L89 507 Z " />
<glyph glyph-name="atilde" unicode="&#xe3;" horiz-adv-x="523" d="M70 34 C103 5 145 -9 198 -9 C246 -9 292 2 334 26 L337 0 L467 0 L467 235 C467 315 451 373 419 408 C387 444 333 461 258 461 C192 461 124 453 54 435 L54 320 C128 335 190 343 239 343 C273 343 297 339 309 331 C320 324 327 309 327 288 L199 288 C146 288 103 274 70 244 C37 215 20 180 20 138 C20 97 37 62 70 34 L70 34 Z M170 164 C178 171 187 174 199 174 L328 174 L328 137 C311 127 291 119 268 114 C244 108 221 105 198 105 C187 105 177 108 170 115 C162 121 159 129 159 139 C159 149 162 157 170 164 L170 164 Z M104 561 L186 551 C192 575 204 587 221 587 C226 587 232 585 240 580 C247 576 255 571 261 566 C268 561 277 556 289 552 C300 548 312 546 324 546 C356 546 382 555 400 574 C419 593 429 618 432 649 L350 660 C344 636 332 624 316 624 C310 624 304 626 297 630 C289 634 282 639 275 644 C268 650 259 654 248 659 C236 663 224 665 212 665 C180 665 155 656 136 637 C117 618 107 593 104 561 L104 561 Z " />
<glyph glyph-name="adieresis" unicode="&#xe4;" horiz-adv-x="523" d="M70 34 C103 5 145 -9 198 -9 C246 -9 292 2 334 26 L337 0 L467 0 L467 235 C467 315 451 373 419 408 C387 444 333 461 258 461 C192 461 124 453 54 435 L54 320 C128 335 190 343 239 343 C273 343 297 339 309 331 C320 324 327 309 327 288 L199 288 C146 288 103 274 70 244 C37 215 20 180 20 138 C20 97 37 62 70 34 L70 34 Z M170 164 C178 171 187 174 199 174 L328 174 L328 137 C311 127 291 119 268 114 C244 108 221 105 198 105 C187 105 177 108 170 115 C162 121 159 129 159 139 C159 149 162 157 170 164 L170 164 Z M128 548 L216 548 L216 636 L128 636 L128 548 Z M285 548 L373 548 L373 636 L285 636 L285 548 Z " />
<glyph glyph-name="aring" unicode="&#xe5;" horiz-adv-x="513" d="M70 34 C103 5 145 -9 198 -9 C246 -9 292 2 334 26 L337 0 L467 0 L467 235 C467 315 451 373 419 408 C387 444 333 461 258 461 C192 461 124 453 54 435 L54 320 C128 335 190 343 239 343 C273 343 297 339 309 331 C320 324 327 309 327 288 L199 288 C146 288 103 274 70 244 C37 215 20 180 20 138 C20 97 37 62 70 34 L70 34 Z M170 164 C178 171 187 174 199 174 L328 174 L328 137 C311 127 291 119 268 114 C244 108 221 105 198 105 C187 105 177 108 170 115 C162 121 159 129 159 139 C159 149 162 157 170 164 L170 164 Z M195 486 C212 469 233 461 257 461 C280 461 301 469 318 486 C335 503 344 523 344 547 C344 571 335 591 318 609 C301 625 280 634 257 634 C233 634 212 625 195 609 C178 591 169 571 169 547 C169 523 178 503 195 486 L195 486 Z M222 547 C222 557 225 565 232 572 C239 579 247 582 257 582 C266 582 274 579 281 572 C288 565 291 557 291 547 C291 538 288 529 281 523 C274 516 266 513 257 513 C247 513 239 516 232 523 C225 529 222 538 222 547 L222 547 Z " />
<glyph glyph-name="ae" unicode="&#xe6;" horiz-adv-x="833" d="M758 385 C739 409 715 428 683 442 C652 455 616 462 575 462 C538 462 504 456 474 444 C454 436 436 426 421 414 C389 446 337 462 265 462 C199 462 131 453 61 436 L61 321 C135 336 197 343 246 343 C281 343 304 340 316 332 C328 324 334 310 334 289 L206 289 C153 289 110 274 77 245 C44 216 27 180 27 139 C27 98 44 63 77 34 C110 6 153 -9 205 -9 C253 -9 299 3 341 27 C341 27 374 47 392 66 C401 56 411 47 423 39 C443 24 468 13 498 4 C528 -4 563 -9 600 -9 C663 -9 722 2 778 23 L778 142 C721 124 663 114 604 114 C560 114 529 122 510 136 C490 150 479 171 475 197 L791 197 C804 267 795 339 758 385 L758 385 Z M335 137 C318 128 298 120 275 114 C251 109 228 106 205 106 C194 106 184 109 177 115 C169 121 166 129 166 140 C166 149 169 158 177 165 C185 171 195 175 206 175 L335 175 L335 137 L335 137 Z M495 289 C500 305 509 318 523 328 C537 338 554 343 575 343 C596 343 614 338 628 328 C641 318 651 305 655 289 L495 289 L495 289 Z " />
<glyph glyph-name="ccedilla" unicode="&#xe7;" horiz-adv-x="499" d="M30 226 C30 192 35 161 47 133 C58 105 75 80 97 59 C119 38 149 21 186 9 C223 -3 266 -9 314 -9 C368 -9 418 -2 465 13 L465 132 C416 120 366 114 316 114 C262 114 224 124 202 144 C179 164 168 191 168 226 C168 243 170 257 175 270 C180 283 188 295 199 306 C210 316 225 324 245 330 C265 336 288 338 316 338 C366 338 416 332 465 320 L465 439 C418 454 368 461 314 461 C266 461 223 456 186 443 C149 432 119 415 97 393 C75 372 58 347 47 319 C35 291 30 260 30 226 L30 226 Z M316 -36 C306 -20 293 -8 278 0 L202 0 C212 -9 221 -19 228 -31 C235 -42 239 -54 239 -64 C239 -96 205 -112 137 -112 L137 -189 C266 -189 331 -154 331 -84 C331 -67 326 -51 316 -36 L316 -36 Z " />
<glyph glyph-name="egrave" unicode="&#xe8;" horiz-adv-x="528" d="M30 226 C30 201 32 177 38 155 C44 132 53 111 67 90 C80 70 97 53 117 38 C137 24 162 12 192 4 C223 -5 257 -9 295 -9 C357 -9 416 1 472 23 L472 141 C415 123 357 114 298 114 C254 114 223 121 204 135 C185 150 173 170 169 197 L485 197 C497 277 489 329 452 384 C435 410 409 427 377 441 C346 455 310 461 269 461 C232 461 198 455 168 443 C138 431 112 414 92 392 C72 371 57 346 46 318 C35 289 30 259 30 226 L30 226 Z M189 289 C194 304 203 317 217 327 C231 337 248 342 269 342 C290 342 308 337 322 327 C336 317 345 304 349 289 L189 289 Z M179 627 L271 489 L350 489 L277 627 L179 627 Z " />
<glyph glyph-name="eacute" unicode="&#xe9;" horiz-adv-x="528" d="M30 226 C30 201 32 177 38 155 C44 132 53 111 67 90 C80 70 97 53 117 38 C137 24 162 12 192 4 C223 -5 257 -9 295 -9 C357 -9 416 1 472 23 L472 141 C415 123 357 114 298 114 C254 114 223 121 204 135 C185 150 173 170 169 197 L485 197 C497 277 489 329 452 384 C435 410 409 427 377 441 C346 455 310 461 269 461 C232 461 198 455 168 443 C138 431 112 414 92 392 C72 371 57 346 46 318 C35 289 30 259 30 226 L30 226 Z M189 289 C194 304 203 317 217 327 C231 337 248 342 269 342 C290 342 308 337 322 327 C336 317 345 304 349 289 L189 289 Z M170 489 L249 489 L341 627 L243 627 L170 489 Z " />
<glyph glyph-name="ecircumflex" unicode="&#xea;" horiz-adv-x="528" d="M30 226 C30 201 32 177 38 155 C44 132 53 111 67 90 C80 70 97 53 117 38 C137 24 162 12 192 4 C223 -5 257 -9 295 -9 C357 -9 416 1 472 23 L472 141 C415 123 357 114 298 114 C254 114 223 121 204 135 C185 150 173 170 169 197 L485 197 C497 277 489 329 452 384 C435 410 409 427 377 441 C346 455 310 461 269 461 C232 461 198 455 168 443 C138 431 112 414 92 392 C72 371 57 346 46 318 C35 289 30 259 30 226 L30 226 Z M189 289 C194 304 203 317 217 327 C231 337 248 342 269 342 C290 342 308 337 322 327 C336 317 345 304 349 289 L189 289 Z M92 507 L191 507 L262 572 L332 507 L432 507 L318 627 L206 627 L92 507 Z " />
<glyph glyph-name="edieresis" unicode="&#xeb;" horiz-adv-x="528" d="M30 226 C30 201 32 177 38 155 C44 132 53 111 67 90 C80 70 97 53 117 38 C137 24 162 12 192 4 C223 -5 257 -9 295 -9 C357 -9 416 1 472 23 L472 141 C415 123 357 114 298 114 C254 114 223 121 204 135 C185 150 173 170 169 197 L485 197 C497 277 489 329 452 384 C435 410 409 427 377 441 C346 455 310 461 269 461 C232 461 198 455 168 443 C138 431 112 414 92 392 C72 371 57 346 46 318 C35 289 30 259 30 226 L30 226 Z M189 289 C194 304 203 317 217 327 C231 337 248 342 269 342 C290 342 308 337 322 327 C336 317 345 304 349 289 L189 289 Z M130 548 L218 548 L218 636 L130 636 L130 548 Z M287 548 L375 548 L375 636 L287 636 L287 548 Z " />
<glyph glyph-name="igrave" unicode="&#xec;" horiz-adv-x="258" d="M60 0 L198 0 L198 453 L60 453 L60 0 Z M44 627 L136 489 L215 489 L142 627 L44 627 Z " />
<glyph glyph-name="iacute" unicode="&#xed;" horiz-adv-x="258" d="M60 0 L198 0 L198 453 L60 453 L60 0 Z M35 489 L114 489 L206 627 L108 627 L35 489 Z " />
<glyph glyph-name="icircumflex" unicode="&#xee;" horiz-adv-x="343" d="M99 0 L237 0 L237 453 L99 453 L99 0 Z M-2 507 L97 507 L168 572 L238 507 L338 507 L224 627 L112 627 L-2 507 Z " />
<glyph glyph-name="idieresis" unicode="&#xef;" horiz-adv-x="268" d="M65 0 L203 0 L203 453 L65 453 L65 0 Z M12 548 L100 548 L100 636 L12 636 L12 548 Z M169 548 L257 548 L257 636 L169 636 L169 548 Z " />
<glyph glyph-name="ntilde" unicode="&#xf1;" horiz-adv-x="588" d="M60 -1 L199 -1 L199 253 C199 279 207 299 222 314 C238 329 262 337 296 337 C330 337 355 329 370 314 C385 299 393 279 393 253 L393 -1 L532 -1 L532 253 C532 315 514 365 478 403 C442 441 394 460 333 460 C275 460 226 443 188 408 L184 452 L60 452 L60 -1 Z M137 561 L219 551 C225 575 237 587 254 587 C259 587 265 585 273 580 C280 576 288 571 294 566 C301 561 310 556 322 552 C333 548 345 546 357 546 C389 546 415 555 433 574 C452 593 462 618 465 649 L383 660 C377 636 365 624 349 624 C343 624 337 626 330 630 C322 634 315 639 308 644 C301 650 292 654 281 659 C269 663 257 665 245 665 C213 665 188 656 169 637 C150 618 140 593 137 561 L137 561 Z " />
<glyph glyph-name="ograve" unicode="&#xf2;" horiz-adv-x="551" d="M99 57 C145 13 204 -9 276 -9 C348 -9 407 13 453 57 C498 100 521 157 521 226 C521 296 498 352 453 396 C407 440 348 461 276 461 C204 461 145 440 99 396 C54 352 31 296 31 226 C31 157 54 100 99 57 L99 57 Z M198 308 C217 328 243 338 276 338 C310 338 336 328 355 308 C373 288 383 260 383 226 C383 192 373 164 355 144 C336 124 310 114 276 114 C243 114 217 124 198 144 C179 164 170 192 170 226 C170 260 179 288 198 308 L198 308 Z M190 627 L282 489 L361 489 L288 627 L190 627 Z " />
<glyph glyph-name="oacute" unicode="&#xf3;" horiz-adv-x="551" d="M99 57 C145 13 204 -9 276 -9 C348 -9 407 13 453 57 C498 100 521 157 521 226 C521 296 498 352 453 396 C407 440 348 461 276 461 C204 461 145 440 99 396 C54 352 31 296 31 226 C31 157 54 100 99 57 L99 57 Z M198 308 C217 328 243 338 276 338 C310 338 336 328 355 308 C373 288 383 260 383 226 C383 192 373 164 355 144 C336 124 310 114 276 114 C243 114 217 124 198 144 C179 164 170 192 170 226 C170 260 179 288 198 308 L198 308 Z M181 489 L260 489 L352 627 L254 627 L181 489 Z " />
<glyph glyph-name="ocircumflex" unicode="&#xf4;" horiz-adv-x="551" d="M99 57 C145 13 204 -9 276 -9 C348 -9 407 13 453 57 C498 100 521 157 521 226 C521 296 498 352 453 396 C407 440 348 461 276 461 C204 461 145 440 99 396 C54 352 31 296 31 226 C31 157 54 100 99 57 L99 57 Z M198 308 C217 328 243 338 276 338 C310 338 336 328 355 308 C373 288 383 260 383 226 C383 192 373 164 355 144 C336 124 310 114 276 114 C243 114 217 124 198 144 C179 164 170 192 170 226 C170 260 179 288 198 308 L198 308 Z M103 507 L202 507 L273 572 L343 507 L443 507 L329 627 L217 627 L103 507 Z " />
<glyph glyph-name="otilde" unicode="&#xf5;" horiz-adv-x="551" d="M99 57 C145 13 204 -9 276 -9 C348 -9 407 13 453 57 C498 100 521 157 521 226 C521 296 498 352 453 396 C407 440 348 461 276 461 C204 461 145 440 99 396 C54 352 31 296 31 226 C31 157 54 100 99 57 L99 57 Z M198 308 C217 328 243 338 276 338 C310 338 336 328 355 308 C373 288 383 260 383 226 C383 192 373 164 355 144 C336 124 310 114 276 114 C243 114 217 124 198 144 C179 164 170 192 170 226 C170 260 179 288 198 308 L198 308 Z M111 561 L193 551 C199 575 211 587 228 587 C233 587 239 585 247 580 C254 576 262 571 268 566 C275 561 284 556 296 552 C307 548 319 546 331 546 C363 546 389 555 407 574 C426 593 436 618 439 649 L357 660 C351 636 339 624 323 624 C317 624 311 626 304 630 C296 634 289 639 282 644 C275 650 266 654 255 659 C243 663 231 665 219 665 C187 665 162 656 143 637 C124 618 114 593 111 561 L111 561 Z " />
<glyph glyph-name="odieresis" unicode="&#xf6;" horiz-adv-x="551" d="M99 57 C145 13 204 -9 276 -9 C348 -9 407 13 453 57 C498 100 521 157 521 226 C521 296 498 352 453 396 C407 440 348 461 276 461 C204 461 145 440 99 396 C54 352 31 296 31 226 C31 157 54 100 99 57 L99 57 Z M198 308 C217 328 243 338 276 338 C310 338 336 328 355 308 C373 288 383 260 383 226 C383 192 373 164 355 144 C336 124 310 114 276 114 C243 114 217 124 198 144 C179 164 170 192 170 226 C170 260 179 288 198 308 L198 308 Z M142 548 L230 548 L230 636 L142 636 L142 548 Z M299 548 L387 548 L387 636 L299 636 L299 548 Z " />
<glyph glyph-name="oslash" unicode="&#xf8;" horiz-adv-x="550" d="M453 395 L495 458 L356 458 L352 452 C328 459 303 462 275 462 C203 462 144 440 98 397 C53 353 30 296 30 227 C30 158 52 102 97 59 L56 -4 L194 -4 L198 1 C222 -6 247 -9 275 -9 C347 -9 406 13 452 57 C497 101 520 157 520 227 C520 295 498 351 453 395 L453 395 Z M169 226 C169 261 178 288 197 308 C216 329 242 339 275 339 C277 339 278 339 279 339 L176 180 C171 194 169 209 169 226 L169 226 Z M353 145 C335 124 309 114 275 114 C274 114 273 114 271 114 L374 273 C379 259 382 244 382 226 C382 192 372 165 353 145 L353 145 Z " />
<glyph glyph-name="ugrave" unicode="&#xf9;" horiz-adv-x="592" d="M61 198 C61 175 63 154 68 134 C72 114 80 95 90 77 C100 60 113 45 129 32 C144 19 163 9 186 2 C209 -6 235 -9 264 -9 C315 -9 362 8 404 43 L408 -1 L532 -1 L532 453 L394 453 L394 198 C394 173 386 152 370 137 C355 122 330 114 296 114 C262 114 237 122 222 137 C207 152 199 172 199 198 L199 453 L61 453 L61 198 Z M211 627 L303 489 L382 489 L309 627 L211 627 Z " />
<glyph glyph-name="uacute" unicode="&#xfa;" horiz-adv-x="592" d="M61 198 C61 175 63 154 68 134 C72 114 80 95 90 77 C100 60 113 45 129 32 C144 19 163 9 186 2 C209 -6 235 -9 264 -9 C315 -9 362 8 404 43 L408 -1 L532 -1 L532 453 L394 453 L394 198 C394 173 386 152 370 137 C355 122 330 114 296 114 C262 114 237 122 222 137 C207 152 199 172 199 198 L199 453 L61 453 L61 198 Z M202 489 L281 489 L373 627 L275 627 L202 489 Z " />
<glyph glyph-name="ucircumflex" unicode="&#xfb;" horiz-adv-x="592" d="M61 198 C61 175 63 154 68 134 C72 114 80 95 90 77 C100 60 113 45 129 32 C144 19 163 9 186 2 C209 -6 235 -9 264 -9 C315 -9 362 8 404 43 L408 -1 L532 -1 L532 453 L394 453 L394 198 C394 173 386 152 370 137 C355 122 330 114 296 114 C262 114 237 122 222 137 C207 152 199 172 199 198 L199 453 L61 453 L61 198 Z M126 507 L225 507 L296 572 L366 507 L466 507 L352 627 L240 627 L126 507 Z " />
<glyph glyph-name="udieresis" unicode="&#xfc;" horiz-adv-x="592" d="M61 198 C61 175 63 154 68 134 C72 114 80 95 90 77 C100 60 113 45 129 32 C144 19 163 9 186 2 C209 -6 235 -9 264 -9 C315 -9 362 8 404 43 L408 -1 L532 -1 L532 453 L394 453 L394 198 C394 173 386 152 370 137 C355 122 330 114 296 114 C262 114 237 122 222 137 C207 152 199 172 199 198 L199 453 L61 453 L61 198 Z M162 548 L250 548 L250 636 L162 636 L162 548 Z M319 548 L407 548 L407 636 L319 636 L319 548 Z " />
<glyph glyph-name="yacute" unicode="&#xfd;" horiz-adv-x="517" d="M6 453 L190 -1 C182 -20 171 -34 158 -44 C146 -53 126 -58 100 -58 C81 -58 54 -53 22 -44 L22 -167 C52 -176 80 -181 105 -181 C124 -181 142 -179 159 -175 C176 -171 191 -166 204 -160 C216 -154 228 -146 239 -136 C251 -126 260 -117 268 -107 C275 -98 283 -86 290 -73 C298 -59 304 -48 308 -37 C313 -27 318 -15 324 -1 L508 453 L367 453 L257 170 L148 453 L6 453 Z M164 489 L243 489 L335 627 L237 627 L164 489 Z " />
<glyph glyph-name="ydieresis" unicode="&#xff;" horiz-adv-x="517" d="M6 453 L190 -1 C182 -20 171 -34 158 -44 C146 -53 126 -58 100 -58 C81 -58 54 -53 22 -44 L22 -167 C52 -176 80 -181 105 -181 C124 -181 142 -179 159 -175 C176 -171 191 -166 204 -160 C216 -154 228 -146 239 -136 C251 -126 260 -117 268 -107 C275 -98 283 -86 290 -73 C298 -59 304 -48 308 -37 C313 -27 318 -15 324 -1 L508 453 L367 453 L257 170 L148 453 L6 453 Z M125 548 L213 548 L213 636 L125 636 L125 548 Z M282 548 L370 548 L370 636 L282 636 L282 548 Z " />
<glyph glyph-name="Lslash" unicode="&#x141;" horiz-adv-x="669" d="M141 0 L659 0 L659 123 L279 123 L279 626 L141 626 L141 0 Z M52 244 L370 244 L370 343 L52 343 L52 244 Z " />
<glyph glyph-name="lslash" unicode="&#x142;" horiz-adv-x="400" d="M133 0 L272 0 L272 626 L133 626 L133 0 Z M46 232 L364 232 L364 331 L46 331 L46 232 Z " />
<glyph glyph-name="OE" unicode="&#x152;" horiz-adv-x="1104" d="M1081 504 L1081 627 L562 627 L562 585 C546 595 529 604 511 611 C469 628 423 636 373 636 C324 636 278 628 236 611 C194 594 159 571 130 542 C102 514 80 480 64 440 C48 401 40 358 40 313 C40 268 48 226 64 186 C80 147 102 113 131 84 C159 55 194 33 236 16 C278 0 324 -9 373 -9 C423 -9 469 0 511 16 C529 23 546 32 562 42 L562 0 L1081 0 L1081 123 L701 123 L701 248 C702 253 703 259 703 265 L934 265 L934 388 L701 388 L701 504 L1081 504 L1081 504 Z M517 170 C483 133 435 114 373 114 C312 114 264 133 230 170 C196 207 179 254 179 313 C179 373 196 421 230 457 C264 494 312 513 373 513 C435 513 483 494 517 457 C540 433 554 404 562 370 L562 257 C554 223 539 194 517 170 L517 170 Z " />
<glyph glyph-name="oe" unicode="&#x153;" horiz-adv-x="879" d="M804 384 C785 408 761 428 730 441 C698 455 662 462 621 462 C584 462 551 455 520 443 C492 432 469 417 450 398 C404 440 346 462 275 462 C203 462 144 440 98 396 C53 353 30 296 30 226 C30 157 53 100 98 57 C144 13 203 -9 275 -9 C346 -9 404 12 449 55 C455 49 462 43 469 38 C489 24 514 12 544 4 C575 -5 609 -9 647 -9 C709 -9 769 2 825 23 L825 142 C767 123 709 114 650 114 C607 114 575 121 556 135 C537 150 525 170 521 197 L838 197 C850 267 841 339 804 384 L804 384 Z M354 144 C335 124 309 114 275 114 C242 114 216 124 197 144 C178 165 169 192 169 226 C169 260 178 288 197 308 C216 328 242 339 275 339 C309 339 335 328 354 308 C372 288 382 260 382 226 C382 192 372 165 354 144 L354 144 Z M542 289 C546 304 555 317 569 327 C583 338 601 343 622 343 C643 343 660 338 674 327 C688 317 697 304 702 289 L542 289 L542 289 Z " />
<glyph glyph-name="Scaron" unicode="&#x160;" horiz-adv-x="556" d="M26 454 C26 439 27 424 31 410 C34 397 38 385 43 374 C49 364 56 354 65 345 C74 336 82 328 90 322 C98 316 109 309 122 304 C134 298 145 293 154 290 C163 286 175 283 189 279 C204 276 215 273 222 271 C230 270 241 268 255 265 C306 256 343 246 364 236 C385 225 396 207 396 183 C396 174 394 166 392 159 C389 152 384 145 377 138 C370 130 357 125 341 120 C324 116 304 114 279 114 C232 114 190 118 154 125 C118 132 75 143 26 159 L26 40 C69 23 109 10 148 2 C187 -5 230 -9 279 -9 C361 -9 423 8 468 42 C512 75 534 123 534 183 C534 200 532 216 529 231 C525 245 521 258 515 269 C510 281 503 291 493 301 C484 311 475 319 466 326 C458 332 447 339 434 345 C421 351 409 356 400 359 C390 363 378 367 363 370 C348 374 336 377 328 378 C319 380 307 382 293 385 C245 394 211 403 192 412 C173 421 164 435 164 454 C164 462 165 468 167 474 C169 479 173 485 180 491 C186 498 197 503 211 506 C226 510 245 512 267 512 C311 512 350 509 383 505 C417 500 454 492 496 481 L496 600 C458 613 422 622 387 627 C352 632 312 635 267 635 C235 635 205 632 177 625 C149 618 123 607 100 593 C77 580 59 561 46 537 C32 513 26 486 26 454 L26 454 Z M194 836 L94 836 L208 716 L320 716 L434 836 L335 836 L264 771 L194 836 Z " />
<glyph glyph-name="scaron" unicode="&#x161;" horiz-adv-x="469" d="M38 18 C105 0 172 -9 239 -9 C306 -9 359 3 397 28 C436 53 455 89 455 137 C455 161 450 182 441 200 C431 218 418 233 399 245 C381 256 361 265 338 272 C315 279 289 285 258 289 C229 294 208 298 196 303 C184 307 178 314 178 322 C178 330 183 336 193 339 C203 341 219 343 244 343 C296 343 355 335 418 320 L418 439 C360 454 301 461 243 461 C182 461 132 450 95 426 C57 402 38 369 38 326 C38 303 42 283 51 266 C59 248 70 234 82 224 C94 214 109 206 127 199 C145 191 161 186 175 183 C189 181 204 178 222 176 C235 175 246 173 254 172 C262 171 272 169 283 166 C295 163 304 159 310 155 C316 150 319 144 319 138 C319 134 318 130 316 126 C313 123 310 120 305 118 C300 116 295 115 290 113 C285 112 279 111 272 111 C264 110 258 110 254 110 C249 109 243 109 236 109 C201 109 169 112 141 116 C113 120 79 127 38 137 L38 18 Z M150 636 L50 636 L164 516 L276 516 L390 636 L291 636 L220 571 L150 636 Z " />
<glyph glyph-name="Ydieresis" unicode="&#x178;" horiz-adv-x="637" d="M1 626 L248 294 L248 0 L387 0 L387 294 L634 626 L475 626 L318 408 L160 626 L1 626 Z M185 748 L273 748 L273 836 L185 836 L185 748 Z M342 748 L430 748 L430 836 L342 836 L342 748 Z " />
<glyph glyph-name="Zcaron" unicode="&#x17d;" horiz-adv-x="565" d="M20 0 L539 0 L539 123 L197 123 L541 522 L541 626 L20 626 L20 503 L364 503 L20 104 L20 0 Z M198 836 L98 836 L212 716 L324 716 L438 836 L339 836 L268 771 L198 836 Z " />
<glyph glyph-name="zcaron" unicode="&#x17e;" horiz-adv-x="515" d="M33 0 L485 0 L485 124 L227 124 L485 342 L485 454 L33 454 L33 331 L290 331 L33 112 L33 0 Z M187 636 L87 636 L201 516 L313 516 L427 636 L328 636 L257 571 L187 636 Z " />
<glyph glyph-name="circumflex" unicode="&#x2c6;" horiz-adv-x="402" d="M29 507 L128 507 L199 572 L269 507 L369 507 L255 627 L143 627 L29 507 L29 507 Z " />
<glyph glyph-name="caron" unicode="&#x2c7;" horiz-adv-x="433" d="M139 636 L39 636 L153 516 L265 516 L379 636 L280 636 L209 571 L139 636 L139 636 Z " />
<glyph glyph-name="ring" unicode="&#x2da;" horiz-adv-x="275" d="M77 486 C94 469 115 461 139 461 C162 461 183 469 200 486 C217 503 226 523 226 547 C226 571 217 591 200 609 C183 625 162 634 139 634 C115 634 94 625 77 609 C60 591 51 571 51 547 C51 523 60 503 77 486 L77 486 Z M104 547 C104 557 107 565 114 572 C121 579 129 582 139 582 C148 582 156 579 163 572 C170 565 173 557 173 547 C173 538 170 529 163 523 C156 516 148 513 139 513 C129 513 121 516 114 523 C107 529 104 538 104 547 L104 547 Z " />
<glyph glyph-name="tilde" unicode="&#x2dc;" horiz-adv-x="405" d="M37 561 L119 551 C125 575 137 587 154 587 C159 587 165 585 173 580 C180 576 188 571 194 566 C201 561 210 556 222 552 C233 548 245 546 257 546 C289 546 315 555 333 574 C352 593 362 618 365 649 L283 660 C277 636 265 624 249 624 C243 624 237 626 230 630 C222 634 215 639 208 644 C201 650 192 654 181 659 C169 663 157 665 145 665 C113 665 88 656 69 637 C50 618 40 593 37 561 L37 561 Z " />
<glyph glyph-name="quoteleft" unicode="&#x2018;" horiz-adv-x="209" d="M37 434 L147 434 L171 627 L91 627 L37 434 L37 434 Z " />
<glyph glyph-name="quoteright" unicode="&#x2019;" horiz-adv-x="213" d="M37 435 L118 435 L171 627 L63 627 L37 435 L37 435 Z " />
<glyph glyph-name="quotesinglbase" unicode="&#x201a;" horiz-adv-x="209" d="M16 -108 L120 -108 L192 79 L53 79 L16 -108 L16 -108 Z " />
<glyph glyph-name="quotedblleft" unicode="&#x201c;" horiz-adv-x="417" d="M64 435 L172 435 L198 627 L117 627 L64 435 Z M219 435 L328 435 L353 627 L272 627 L219 435 Z " />
<glyph glyph-name="quotedblright" unicode="&#x201d;" horiz-adv-x="372" d="M43 435 L124 435 L177 627 L67 627 L43 435 Z M198 435 L279 435 L332 627 L223 627 L198 435 Z " />
<glyph glyph-name="quotedblbase" unicode="&#x201e;" horiz-adv-x="394" d="M54 -121 L135 -121 L188 71 L78 71 L54 -121 Z M209 -121 L290 -121 L343 71 L234 71 L209 -121 Z " />
<glyph glyph-name="ellipsis" unicode="&#x2026;" horiz-adv-x="804" d="M201 123 C200 123 200 123 199 123 C172 123 144 123 116 123 C99 123 81 123 63 123 C63 123 63 123 63 123 C63 123 63 123 63 123 C63 122 62 122 62 122 C62 83 62 43 62 4 C62 3 62 2 62 2 C62 1 62 1 62 1 C63 1 63 1 63 0 C64 0 66 0 68 0 C83 0 97 0 112 0 C130 0 148 0 165 0 C171 0 177 0 183 0 C188 0 193 0 198 0 C199 0 199 0 200 1 C200 1 201 2 201 3 C201 43 201 82 201 123 L201 123 Z M148 41 C148 41 149 42 149 42 C149 42 149 41 149 41 C149 41 149 41 149 41 C148 41 148 41 148 42 C148 42 147 42 147 42 C147 42 148 42 148 43 C148 43 148 43 148 44 C148 44 148 44 149 44 C149 44 149 44 149 44 C148 43 148 43 148 43 C148 42 148 42 148 41 L148 41 Z M162 85 C162 85 162 85 161 85 C161 85 162 85 162 85 C162 85 162 85 162 85 C163 85 163 84 163 84 C163 84 163 84 163 84 C163 84 162 85 162 85 L162 85 Z M125 99 C125 99 125 98 126 98 C126 98 126 99 126 99 C126 99 125 99 125 99 C125 99 125 99 125 100 C125 100 125 100 125 100 C125 100 126 100 126 100 C126 99 125 99 125 99 L125 99 Z M150 73 C150 73 151 73 151 73 C150 73 150 73 150 73 C150 73 150 73 150 73 C151 73 151 73 151 73 C152 73 152 73 152 73 C152 73 152 73 151 73 C151 73 151 73 150 73 L150 73 Z M148 54 C147 54 147 54 146 54 C146 54 146 55 146 55 C146 55 147 55 147 55 C147 55 148 54 148 54 C148 54 148 54 149 54 C149 54 149 54 149 54 C149 54 149 53 148 54 C148 54 148 54 148 54 L148 54 Z M126 54 C126 54 126 55 127 55 C127 55 127 55 127 55 C127 55 127 54 127 54 C127 54 126 54 126 54 C126 54 126 53 126 53 C125 53 125 53 125 53 C125 53 124 54 125 54 C125 54 125 54 126 54 L126 54 Z M113 53 C113 54 113 54 113 55 C113 54 113 54 113 53 C113 53 112 53 112 53 C112 53 112 53 111 53 C111 53 111 53 111 53 C111 54 112 54 112 54 C112 54 112 54 113 53 L113 53 Z M164 60 C164 60 165 60 165 60 C165 60 165 60 165 60 C165 60 165 60 165 60 C164 60 164 60 164 60 C164 61 163 61 163 62 C163 62 164 62 164 62 C164 62 164 62 164 62 C164 61 164 61 164 60 L164 60 Z M117 63 C117 63 117 62 117 61 C117 61 116 60 115 60 C116 61 116 62 117 63 C117 64 117 64 118 64 C119 64 120 64 120 62 C119 63 118 63 117 63 L117 63 Z M104 47 C105 47 105 47 105 48 C105 47 106 47 106 46 C105 46 105 46 104 46 C104 46 104 47 105 47 C103 47 102 47 100 47 C100 47 100 48 100 48 C102 48 103 47 104 47 L104 47 Z M143 76 C144 76 144 76 145 76 C145 76 145 75 145 75 C145 74 144 74 144 73 C144 73 144 72 144 72 C144 71 144 71 143 70 C143 70 143 70 142 69 C142 70 142 71 143 72 C143 73 142 73 142 74 C142 75 143 75 143 76 C143 77 142 77 142 78 C142 78 142 79 142 79 C142 79 143 79 143 78 C143 78 143 77 143 76 L143 76 Z M141 53 C141 53 141 54 142 54 C142 54 142 54 142 54 C142 53 142 53 142 52 C142 51 141 50 140 51 C139 51 138 51 138 52 C139 54 140 52 141 53 L141 53 Z M124 49 C122 48 121 48 120 48 C120 48 120 48 120 48 C121 49 121 49 122 50 C122 50 123 51 123 52 C124 51 124 50 124 49 L124 49 Z M127 80 C127 81 127 82 126 83 C127 84 128 84 129 83 C130 82 130 82 127 80 L127 80 Z M137 44 C137 46 137 46 137 47 C138 48 139 47 139 46 C139 46 139 46 139 45 C138 45 138 45 137 44 L137 44 Z M149 60 C148 60 148 60 148 61 C148 61 148 62 148 62 C149 62 149 61 150 61 C150 61 149 60 149 60 L149 60 Z M121 35 C121 35 121 34 121 34 C120 34 119 34 118 35 C118 35 118 36 118 36 C119 36 120 36 121 35 C121 35 121 35 121 35 L121 35 Z M163 39 C162 40 162 41 161 41 C162 42 163 41 163 39 L163 39 Z M95 75 C96 75 96 75 97 75 C97 75 97 75 97 74 C96 74 96 74 95 74 C95 75 95 75 95 75 L95 75 Z M122 60 C122 60 123 61 123 60 C123 60 124 59 124 59 C124 58 123 58 123 58 C123 58 122 59 122 60 C122 60 122 60 122 60 L122 60 Z M125 12 C125 13 125 13 125 13 C125 14 126 14 126 14 C126 13 126 13 126 13 C126 13 126 12 125 12 L125 12 Z M127 87 C127 87 127 88 127 88 C127 88 128 88 128 88 C128 88 128 88 128 87 C128 87 128 87 127 87 L127 87 Z M159 51 C160 51 160 51 160 51 C160 50 159 50 159 50 C159 50 159 51 159 51 C159 51 159 51 159 51 L159 51 Z M153 45 C153 45 153 45 153 45 C152 45 152 45 152 45 C152 45 152 46 152 46 C152 46 153 45 153 45 L153 45 Z M162 33 C163 33 163 33 163 33 C163 33 163 33 163 33 C163 33 163 32 163 32 C163 32 162 33 162 33 L162 33 Z M128 51 C128 51 128 51 128 51 C128 51 127 51 127 52 C127 52 128 52 128 53 C128 52 129 52 129 51 C129 51 128 51 128 51 L128 51 Z M134 45 C134 45 134 44 134 44 C134 44 134 44 133 44 C133 44 133 44 133 44 C133 45 133 45 134 45 L134 45 Z M123 42 C123 42 124 42 124 41 C124 41 124 41 123 40 C123 41 123 41 122 41 C122 42 123 42 123 42 L123 42 Z M118 39 C118 39 118 39 119 39 C118 39 118 39 118 39 C118 39 118 39 118 39 C118 39 118 39 118 39 L118 39 Z M154 28 C153 29 153 29 153 30 C153 30 153 30 153 30 C154 30 154 30 154 28 L154 28 Z M130 63 C130 62 130 62 130 62 C129 62 129 63 129 63 C129 63 129 64 129 63 C130 63 130 63 130 63 L130 63 Z M93 64 C93 64 93 64 93 64 C92 64 92 65 92 65 C92 65 93 66 93 65 C93 65 93 65 93 64 L93 64 Z M109 62 C108 62 108 61 107 61 C107 61 107 62 107 62 C107 62 108 62 108 63 C108 63 109 62 109 62 L109 62 Z M160 62 C160 62 161 62 161 62 C161 62 161 61 161 61 C161 61 160 61 160 61 C160 61 159 61 160 62 C160 62 160 62 160 62 L160 62 Z M138 77 C138 77 137 77 137 76 C137 77 137 77 137 77 C137 77 137 78 137 78 C138 78 138 77 138 77 L138 77 Z M133 54 C133 54 133 55 133 56 C133 56 133 56 133 56 C133 55 133 54 133 54 C133 54 133 54 133 54 L133 54 Z M143 50 C143 50 143 49 143 49 C143 49 143 49 142 49 C142 49 142 49 142 49 C142 50 143 50 143 50 L143 50 Z M109 51 C109 51 110 51 110 51 C110 51 110 51 110 51 C110 51 110 50 109 50 C109 50 109 51 109 51 L109 51 Z M135 64 C135 63 135 63 135 63 C135 63 135 63 135 63 C135 63 135 63 135 64 L135 64 Z M142 63 C143 63 143 63 143 62 C143 62 142 62 142 62 C142 62 141 62 141 62 C142 63 142 63 142 63 L142 63 Z M155 58 C155 57 154 57 154 57 C154 57 154 57 154 57 C154 57 154 58 154 58 C154 58 154 58 155 58 L155 58 Z M130 56 C130 56 130 56 130 56 C129 56 129 56 129 57 C129 57 130 57 130 57 C130 57 130 56 130 56 L130 56 Z M76 26 C76 26 76 26 76 26 C75 26 75 26 75 26 C76 26 76 26 76 26 C76 26 76 26 76 26 L76 26 Z M133 38 C133 39 133 39 134 39 C134 39 134 38 134 38 C134 38 134 38 133 38 C133 38 133 38 133 38 L133 38 Z M164 37 C165 37 165 37 165 37 C165 37 164 36 164 36 C164 36 164 36 164 36 C164 37 164 37 164 37 L164 37 Z M101 44 C101 44 101 44 100 44 C100 44 100 44 100 44 C100 44 101 45 101 45 C101 45 101 44 101 44 L101 44 Z M110 41 C110 41 110 41 111 41 C111 41 111 41 111 41 C111 41 110 41 110 41 C110 41 110 41 110 41 L110 41 Z M138 80 C138 81 138 81 138 81 C139 81 139 81 139 80 C139 80 139 80 139 80 C138 80 138 80 138 80 L138 80 Z M160 68 C160 68 160 68 160 67 C160 68 160 68 160 68 C160 68 160 68 160 68 C160 68 160 68 160 68 L160 68 Z M152 69 C152 69 152 69 152 69 C152 69 152 69 152 69 C152 69 152 69 152 69 C152 69 152 69 152 69 L152 69 Z M163 66 C163 65 163 65 163 65 C162 65 162 66 162 66 C162 66 163 67 163 66 C163 66 163 66 163 66 L163 66 Z M141 66 C140 66 140 66 140 66 C140 66 140 67 140 67 C140 67 140 67 140 67 C140 67 140 66 141 66 L141 66 Z M101 75 C101 74 101 74 101 74 C100 74 100 74 100 74 C100 74 100 75 100 75 C100 75 101 75 101 75 L101 75 Z M118 73 C118 73 118 73 118 73 C118 73 118 73 118 73 C118 74 118 74 118 74 C118 74 118 73 118 73 L118 73 Z M125 73 C125 73 125 73 125 73 C125 72 125 72 124 72 C124 72 124 73 124 73 C124 73 125 73 125 73 L125 73 Z M148 103 C148 103 148 103 148 103 C148 102 148 102 148 102 C148 102 148 102 148 102 C148 103 148 103 148 103 L148 103 Z M140 27 L140 26 L140 26 L140 27 Z M149 11 C149 11 150 11 150 11 C150 11 150 11 150 10 C149 10 149 11 149 11 C149 11 149 11 149 11 L149 11 Z M194 15 L194 15 L193 15 L194 15 Z M115 9 C115 9 115 9 115 9 C115 9 115 8 115 8 C115 8 115 9 114 9 C114 9 115 9 115 9 L115 9 Z M143 23 L143 23 L143 23 L143 23 Z M122 24 L122 24 L122 24 L122 24 Z M97 19 L98 19 L97 19 L97 19 Z M105 77 L105 77 L105 76 L105 77 Z M149 76 C148 75 148 75 148 75 C148 76 148 76 148 76 C148 76 148 76 149 76 C149 76 149 76 149 76 L149 76 Z M138 75 C138 75 138 75 138 75 C138 75 138 75 138 74 C138 74 138 74 138 75 C138 75 138 75 138 75 L138 75 Z M115 82 C115 82 115 82 114 82 C114 82 114 82 114 83 C114 83 114 83 114 83 C115 83 115 83 115 82 L115 82 Z M146 83 L147 82 L146 82 L146 83 Z M143 82 C143 82 143 82 143 81 C143 81 143 81 143 81 C142 81 142 81 142 81 C142 81 142 82 143 82 L143 82 Z M101 79 L101 79 L101 79 L101 79 Z M108 79 L109 79 L109 78 L108 79 Z M135 67 C136 67 136 67 136 67 C135 67 135 67 135 67 C135 67 135 67 135 67 L135 67 Z M77 66 C77 66 77 66 77 66 C77 66 77 66 76 66 C76 66 76 66 76 66 C77 66 77 66 77 66 L77 66 Z M124 64 C123 64 123 64 123 64 C123 64 123 64 123 64 C123 64 123 65 123 65 C123 64 123 64 124 64 L124 64 Z M158 64 C158 64 158 63 158 63 C158 63 158 64 158 64 C158 64 158 64 158 64 C158 64 158 64 158 64 L158 64 Z M90 62 C90 61 90 61 90 61 C90 61 90 62 89 62 C89 62 90 62 90 62 C90 62 90 62 90 62 L90 62 Z M102 70 C102 70 102 70 102 70 C102 70 102 70 102 70 C102 70 102 70 102 70 L102 70 Z M120 71 C120 71 120 71 120 71 C120 71 120 71 120 71 C120 71 120 71 120 71 L120 71 Z M129 71 C129 71 129 70 129 70 C129 70 129 70 129 70 C129 70 129 70 129 70 C129 70 129 71 129 71 L129 71 Z M134 70 C134 70 134 70 134 70 C133 70 133 70 133 70 C133 70 133 70 134 70 C134 70 134 70 134 70 L134 70 Z M146 70 C147 69 147 69 147 69 C147 69 146 69 146 69 C146 69 146 69 146 69 C146 69 146 69 146 70 L146 70 Z M143 97 C143 97 143 97 143 97 C143 97 143 97 143 97 C143 97 143 97 143 97 C143 97 143 97 143 97 L143 97 Z M165 115 L164 115 L165 115 L165 115 Z M147 94 C147 94 146 94 146 94 C146 94 146 94 146 94 C146 94 146 94 146 94 C146 94 147 94 147 94 L147 94 Z M123 93 C123 93 123 93 123 93 C123 93 123 93 123 93 C123 93 123 93 123 93 C123 93 123 93 123 93 L123 93 Z M97 101 C97 101 96 100 96 100 C96 100 96 101 95 101 C96 101 96 101 96 101 C96 101 96 101 97 101 L97 101 Z M123 86 C123 86 123 86 123 86 C123 86 122 86 122 87 C122 87 123 87 123 87 C123 87 123 87 123 86 L123 86 Z M113 85 C113 85 113 85 113 85 C113 85 113 86 114 86 C114 86 114 85 114 85 C114 85 114 85 113 85 L113 85 Z M117 85 C117 85 117 85 117 85 C117 85 117 85 117 85 C117 85 117 85 117 85 L117 85 Z M153 83 C153 83 153 83 153 83 C153 83 153 83 153 83 C153 83 153 83 153 83 L153 83 Z M134 88 C134 88 134 88 134 88 C134 88 134 88 134 89 C134 89 134 89 134 89 C134 89 134 89 134 88 L134 88 Z M75 39 L75 39 L75 39 L75 39 Z M138 39 C138 39 137 39 137 39 C137 39 137 39 137 39 C137 39 137 39 138 39 C138 40 138 39 138 39 L138 39 Z M97 37 C97 37 97 37 97 37 C97 37 98 37 98 37 C98 37 98 37 98 37 C98 37 98 37 97 37 L97 37 Z M82 42 C82 42 82 42 82 42 C82 42 81 42 81 42 C81 42 81 42 81 42 C81 42 81 42 82 42 L82 42 Z M104 31 C103 31 103 31 103 31 C103 31 103 31 103 32 C103 32 103 32 103 32 C103 32 103 32 104 31 L104 31 Z M142 31 L143 31 L142 30 L142 31 Z M130 30 C129 29 129 29 129 29 C129 29 129 29 129 29 C129 29 129 30 129 30 C129 30 129 30 130 30 L130 30 Z M124 37 C123 37 123 37 123 37 C123 37 123 37 123 37 C123 37 123 37 123 37 C124 37 124 37 124 37 L124 37 Z M145 36 C145 37 145 37 145 37 C145 37 145 37 145 37 C145 37 145 37 145 36 L145 36 Z M155 36 C155 36 155 36 155 36 C155 36 155 36 154 36 C155 37 155 37 155 37 C155 37 155 36 155 36 L155 36 Z M148 33 C148 33 147 33 147 34 C148 34 148 34 148 34 C148 34 148 34 148 33 C148 33 148 33 148 33 L148 33 Z M121 58 C121 57 121 57 121 57 C121 57 121 57 120 57 C120 57 120 57 120 57 C120 57 120 58 121 58 L121 58 Z M164 57 C164 56 164 56 164 56 C163 56 163 57 163 57 C163 57 163 57 163 57 C164 57 164 57 164 57 L164 57 Z M157 55 C157 55 157 55 157 55 C157 55 157 55 157 55 C157 55 157 55 157 55 C157 55 157 55 157 55 L157 55 Z M132 59 C132 59 132 60 132 60 C132 60 132 59 133 59 C132 59 132 59 132 59 L132 59 Z M185 50 C185 49 185 49 185 49 C185 49 185 49 185 49 C185 49 185 49 185 50 C185 50 185 50 185 50 L185 50 Z M128 48 C128 48 128 48 128 48 C128 48 128 48 128 48 C128 48 128 48 128 48 L128 48 Z M193 54 C193 54 193 53 193 53 C193 53 193 54 192 54 C193 54 193 54 193 54 C193 54 193 54 193 54 L193 54 Z M79 53 C80 53 80 53 80 53 C80 53 80 53 80 52 C80 52 80 53 79 53 L79 53 Z M147 52 C147 52 147 51 147 51 C147 51 147 51 146 51 C146 51 146 51 146 51 C146 52 146 52 147 52 L147 52 Z M469 123 C468 123 468 123 467 123 C440 123 412 123 384 123 C367 123 349 123 331 123 C331 123 331 123 331 123 C331 123 331 123 331 123 C331 122 330 122 330 122 C330 83 330 43 330 4 C330 3 330 2 330 2 C330 1 330 1 330 1 C331 1 331 1 331 0 C332 0 334 0 336 0 C351 0 365 0 380 0 C398 0 416 0 433 0 C439 0 445 0 451 0 C456 0 461 0 466 0 C467 0 467 0 468 1 C468 1 469 2 469 3 C469 43 469 82 469 123 L469 123 Z M416 41 C416 41 417 42 417 42 C417 42 417 41 417 41 C417 41 417 41 417 41 C416 41 416 41 416 42 C416 42 415 42 415 42 C415 42 416 42 416 43 C416 43 416 43 416 44 C416 44 416 44 417 44 C417 44 417 44 417 44 C416 43 416 43 416 43 C416 42 416 42 416 41 L416 41 Z M430 85 C430 85 430 85 429 85 C429 85 430 85 430 85 C430 85 430 85 430 85 C431 85 431 84 431 84 C431 84 431 84 431 84 C431 84 430 85 430 85 L430 85 Z M393 99 C393 99 393 98 394 98 C394 98 394 99 394 99 C394 99 393 99 393 99 C393 99 393 99 393 100 C393 100 393 100 393 100 C393 100 394 100 394 100 C394 99 393 99 393 99 L393 99 Z M418 73 C418 73 419 73 419 73 C418 73 418 73 418 73 C418 73 418 73 418 73 C419 73 419 73 419 73 C420 73 420 73 420 73 C420 73 420 73 419 73 C419 73 419 73 418 73 L418 73 Z M416 54 C415 54 415 54 414 54 C414 54 414 55 414 55 C414 55 415 55 415 55 C415 55 416 54 416 54 C416 54 416 54 417 54 C417 54 417 54 417 54 C417 54 417 53 416 54 C416 54 416 54 416 54 L416 54 Z M394 54 C394 54 394 55 395 55 C395 55 395 55 395 55 C395 55 395 54 395 54 C395 54 394 54 394 54 C394 54 394 53 394 53 C393 53 393 53 393 53 C393 53 392 54 393 54 C393 54 393 54 394 54 L394 54 Z M381 53 C381 54 381 54 381 55 C381 54 381 54 381 53 C381 53 380 53 380 53 C380 53 380 53 379 53 C379 53 379 53 379 53 C379 54 380 54 380 54 C380 54 380 54 381 53 L381 53 Z M432 60 C432 60 433 60 433 60 C433 60 433 60 433 60 C433 60 433 60 433 60 C432 60 432 60 432 60 C432 61 431 61 431 62 C431 62 432 62 432 62 C432 62 432 62 432 62 C432 61 432 61 432 60 L432 60 Z M385 63 C385 63 385 62 385 61 C385 61 384 60 383 60 C384 61 384 62 385 63 C385 64 385 64 386 64 C387 64 388 64 388 62 C387 63 386 63 385 63 L385 63 Z M372 47 C373 47 373 47 373 48 C373 47 374 47 374 46 C373 46 373 46 372 46 C372 46 372 47 373 47 C371 47 370 47 368 47 C368 47 368 48 368 48 C370 48 371 47 372 47 L372 47 Z M411 76 C412 76 412 76 413 76 C413 76 413 75 413 75 C413 74 412 74 412 73 C412 73 412 72 412 72 C412 71 412 71 411 70 C411 70 411 70 410 69 C410 70 410 71 411 72 C411 73 410 73 410 74 C410 75 411 75 411 76 C411 77 410 77 410 78 C410 78 410 79 410 79 C410 79 411 79 411 78 C411 78 411 77 411 76 L411 76 Z M409 53 C409 53 409 54 410 54 C410 54 410 54 410 54 C410 53 410 53 410 52 C410 51 409 50 408 51 C407 51 406 51 406 52 C407 54 408 52 409 53 L409 53 Z M392 49 C390 48 389 48 388 48 C388 48 388 48 388 48 C389 49 389 49 390 50 C390 50 391 51 391 52 C392 51 392 50 392 49 L392 49 Z M395 80 C395 81 395 82 394 83 C395 84 396 84 397 83 C398 82 398 82 395 80 L395 80 Z M405 44 C405 46 405 46 405 47 C406 48 407 47 407 46 C407 46 407 46 407 45 C406 45 406 45 405 44 L405 44 Z M417 60 C416 60 416 60 416 61 C416 61 416 62 416 62 C417 62 417 61 418 61 C418 61 417 60 417 60 L417 60 Z M389 35 C389 35 389 34 389 34 C388 34 387 34 386 35 C386 35 386 36 386 36 C387 36 388 36 389 35 C389 35 389 35 389 35 L389 35 Z M431 39 C430 40 430 41 429 41 C430 42 431 41 431 39 L431 39 Z M363 75 C364 75 364 75 365 75 C365 75 365 75 365 74 C364 74 364 74 363 74 C363 75 363 75 363 75 L363 75 Z M390 60 C390 60 391 61 391 60 C391 60 392 59 392 59 C392 58 391 58 391 58 C391 58 390 59 390 60 C390 60 390 60 390 60 L390 60 Z M393 12 C393 13 393 13 393 13 C393 14 394 14 394 14 C394 13 394 13 394 13 C394 13 394 12 393 12 L393 12 Z M395 87 C395 87 395 88 395 88 C395 88 396 88 396 88 C396 88 396 88 396 87 C396 87 396 87 395 87 L395 87 Z M427 51 C428 51 428 51 428 51 C428 50 427 50 427 50 C427 50 427 51 427 51 C427 51 427 51 427 51 L427 51 Z M421 45 C421 45 421 45 421 45 C420 45 420 45 420 45 C420 45 420 46 420 46 C420 46 421 45 421 45 L421 45 Z M430 33 C431 33 431 33 431 33 C431 33 431 33 431 33 C431 33 431 32 431 32 C431 32 430 33 430 33 L430 33 Z M396 51 C396 51 396 51 396 51 C396 51 395 51 395 52 C395 52 396 52 396 53 C396 52 397 52 397 51 C397 51 396 51 396 51 L396 51 Z M402 45 C402 45 402 44 402 44 C402 44 402 44 401 44 C401 44 401 44 401 44 C401 45 401 45 402 45 L402 45 Z M391 42 C391 42 392 42 392 41 C392 41 392 41 391 40 C391 41 391 41 390 41 C390 42 391 42 391 42 L391 42 Z M386 39 C386 39 386 39 387 39 C386 39 386 39 386 39 C386 39 386 39 386 39 C386 39 386 39 386 39 L386 39 Z M422 28 C421 29 421 29 421 30 C421 30 421 30 421 30 C422 30 422 30 422 28 L422 28 Z M398 63 C398 62 398 62 398 62 C397 62 397 63 397 63 C397 63 397 64 397 63 C398 63 398 63 398 63 L398 63 Z M361 64 C361 64 361 64 361 64 C360 64 360 65 360 65 C360 65 361 66 361 65 C361 65 361 65 361 64 L361 64 Z M377 62 C376 62 376 61 375 61 C375 61 375 62 375 62 C375 62 376 62 376 63 C376 63 377 62 377 62 L377 62 Z M428 62 C428 62 429 62 429 62 C429 62 429 61 429 61 C429 61 428 61 428 61 C428 61 427 61 428 62 C428 62 428 62 428 62 L428 62 Z M406 77 C406 77 405 77 405 76 C405 77 405 77 405 77 C405 77 405 78 405 78 C406 78 406 77 406 77 L406 77 Z M401 54 C401 54 401 55 401 56 C401 56 401 56 401 56 C401 55 401 54 401 54 C401 54 401 54 401 54 L401 54 Z M411 50 C411 50 411 49 411 49 C411 49 411 49 410 49 C410 49 410 49 410 49 C410 50 411 50 411 50 L411 50 Z M377 51 C377 51 378 51 378 51 C378 51 378 51 378 51 C378 51 378 50 377 50 C377 50 377 51 377 51 L377 51 Z M403 64 C403 63 403 63 403 63 C403 63 403 63 403 63 C403 63 403 63 403 64 L403 64 Z M410 63 C411 63 411 63 411 62 C411 62 410 62 410 62 C410 62 409 62 409 62 C410 63 410 63 410 63 L410 63 Z M423 58 C423 57 422 57 422 57 C422 57 422 57 422 57 C422 57 422 58 422 58 C422 58 422 58 423 58 L423 58 Z M398 56 C398 56 398 56 398 56 C397 56 397 56 397 57 C397 57 398 57 398 57 C398 57 398 56 398 56 L398 56 Z M344 26 C344 26 344 26 344 26 C343 26 343 26 343 26 C344 26 344 26 344 26 C344 26 344 26 344 26 L344 26 Z M401 38 C401 39 401 39 402 39 C402 39 402 38 402 38 C402 38 402 38 401 38 C401 38 401 38 401 38 L401 38 Z M432 37 C433 37 433 37 433 37 C433 37 432 36 432 36 C432 36 432 36 432 36 C432 37 432 37 432 37 L432 37 Z M369 44 C369 44 369 44 368 44 C368 44 368 44 368 44 C368 44 369 45 369 45 C369 45 369 44 369 44 L369 44 Z M378 41 C378 41 378 41 379 41 C379 41 379 41 379 41 C379 41 378 41 378 41 C378 41 378 41 378 41 L378 41 Z M406 80 C406 81 406 81 406 81 C407 81 407 81 407 80 C407 80 407 80 407 80 C406 80 406 80 406 80 L406 80 Z M428 68 C428 68 428 68 428 67 C428 68 428 68 428 68 C428 68 428 68 428 68 C428 68 428 68 428 68 L428 68 Z M420 69 C420 69 420 69 420 69 C420 69 420 69 420 69 C420 69 420 69 420 69 C420 69 420 69 420 69 L420 69 Z M431 66 C431 65 431 65 431 65 C430 65 430 66 430 66 C430 66 431 67 431 66 C431 66 431 66 431 66 L431 66 Z M409 66 C408 66 408 66 408 66 C408 66 408 67 408 67 C408 67 408 67 408 67 C408 67 408 66 409 66 L409 66 Z M369 75 C369 74 369 74 369 74 C368 74 368 74 368 74 C368 74 368 75 368 75 C368 75 369 75 369 75 L369 75 Z M386 73 C386 73 386 73 386 73 C386 73 386 73 386 73 C386 74 386 74 386 74 C386 74 386 73 386 73 L386 73 Z M393 73 C393 73 393 73 393 73 C393 72 393 72 392 72 C392 72 392 73 392 73 C392 73 393 73 393 73 L393 73 Z M416 103 C416 103 416 103 416 103 C416 102 416 102 416 102 C416 102 416 102 416 102 C416 103 416 103 416 103 L416 103 Z M408 27 L408 26 L408 26 L408 27 Z M417 11 C417 11 418 11 418 11 C418 11 418 11 418 10 C417 10 417 11 417 11 C417 11 417 11 417 11 L417 11 Z M462 15 L462 15 L461 15 L462 15 Z M383 9 C383 9 383 9 383 9 C383 9 383 8 383 8 C383 8 383 9 382 9 C382 9 383 9 383 9 L383 9 Z M411 23 L411 23 L411 23 L411 23 Z M390 24 L390 24 L390 24 L390 24 Z M365 19 L366 19 L365 19 L365 19 Z M373 77 L373 77 L373 76 L373 77 Z M417 76 C416 75 416 75 416 75 C416 76 416 76 416 76 C416 76 416 76 417 76 C417 76 417 76 417 76 L417 76 Z M406 75 C406 75 406 75 406 75 C406 75 406 75 406 74 C406 74 406 74 406 75 C406 75 406 75 406 75 L406 75 Z M383 82 C383 82 383 82 382 82 C382 82 382 82 382 83 C382 83 382 83 382 83 C383 83 383 83 383 82 L383 82 Z M414 83 L415 82 L414 82 L414 83 Z M411 82 C411 82 411 82 411 81 C411 81 411 81 411 81 C410 81 410 81 410 81 C410 81 410 82 411 82 L411 82 Z M369 79 L369 79 L369 79 L369 79 Z M376 79 L377 79 L377 78 L376 79 Z M403 67 C404 67 404 67 404 67 C403 67 403 67 403 67 C403 67 403 67 403 67 L403 67 Z M345 66 C345 66 345 66 345 66 C345 66 345 66 344 66 C344 66 344 66 344 66 C345 66 345 66 345 66 L345 66 Z M392 64 C391 64 391 64 391 64 C391 64 391 64 391 64 C391 64 391 65 391 65 C391 64 391 64 392 64 L392 64 Z M426 64 C426 64 426 63 426 63 C426 63 426 64 426 64 C426 64 426 64 426 64 C426 64 426 64 426 64 L426 64 Z M358 62 C358 61 358 61 358 61 C358 61 358 62 357 62 C357 62 358 62 358 62 C358 62 358 62 358 62 L358 62 Z M370 70 C370 70 370 70 370 70 C370 70 370 70 370 70 C370 70 370 70 370 70 L370 70 Z M388 71 C388 71 388 71 388 71 C388 71 388 71 388 71 C388 71 388 71 388 71 L388 71 Z M397 71 C397 71 397 70 397 70 C397 70 397 70 397 70 C397 70 397 70 397 70 C397 70 397 71 397 71 L397 71 Z M402 70 C402 70 402 70 402 70 C401 70 401 70 401 70 C401 70 401 70 402 70 C402 70 402 70 402 70 L402 70 Z M414 70 C415 69 415 69 415 69 C415 69 414 69 414 69 C414 69 414 69 414 69 C414 69 414 69 414 70 L414 70 Z M411 97 C411 97 411 97 411 97 C411 97 411 97 411 97 C411 97 411 97 411 97 C411 97 411 97 411 97 L411 97 Z M433 115 L432 115 L433 115 L433 115 Z M415 94 C415 94 414 94 414 94 C414 94 414 94 414 94 C414 94 414 94 414 94 C414 94 415 94 415 94 L415 94 Z M391 93 C391 93 391 93 391 93 C391 93 391 93 391 93 C391 93 391 93 391 93 C391 93 391 93 391 93 L391 93 Z M365 101 C365 101 364 100 364 100 C364 100 364 101 363 101 C364 101 364 101 364 101 C364 101 364 101 365 101 L365 101 Z M391 86 C391 86 391 86 391 86 C391 86 390 86 390 87 C390 87 391 87 391 87 C391 87 391 87 391 86 L391 86 Z M381 85 C381 85 381 85 381 85 C381 85 381 86 382 86 C382 86 382 85 382 85 C382 85 382 85 381 85 L381 85 Z M385 85 C385 85 385 85 385 85 C385 85 385 85 385 85 C385 85 385 85 385 85 L385 85 Z M421 83 C421 83 421 83 421 83 C421 83 421 83 421 83 C421 83 421 83 421 83 L421 83 Z M402 88 C402 88 402 88 402 88 C402 88 402 88 402 89 C402 89 402 89 402 89 C402 89 402 89 402 88 L402 88 Z M343 39 L343 39 L343 39 L343 39 Z M406 39 C406 39 405 39 405 39 C405 39 405 39 405 39 C405 39 405 39 406 39 C406 40 406 39 406 39 L406 39 Z M365 37 C365 37 365 37 365 37 C365 37 366 37 366 37 C366 37 366 37 366 37 C366 37 366 37 365 37 L365 37 Z M350 42 C350 42 350 42 350 42 C350 42 349 42 349 42 C349 42 349 42 349 42 C349 42 349 42 350 42 L350 42 Z M372 31 C371 31 371 31 371 31 C371 31 371 31 371 32 C371 32 371 32 371 32 C371 32 371 32 372 31 L372 31 Z M410 31 L411 31 L410 30 L410 31 Z M398 30 C397 29 397 29 397 29 C397 29 397 29 397 29 C397 29 397 30 397 30 C397 30 397 30 398 30 L398 30 Z M392 37 C391 37 391 37 391 37 C391 37 391 37 391 37 C391 37 391 37 391 37 C392 37 392 37 392 37 L392 37 Z M413 36 C413 37 413 37 413 37 C413 37 413 37 413 37 C413 37 413 37 413 36 L413 36 Z M423 36 C423 36 423 36 423 36 C423 36 423 36 422 36 C423 37 423 37 423 37 C423 37 423 36 423 36 L423 36 Z M416 33 C416 33 415 33 415 34 C416 34 416 34 416 34 C416 34 416 34 416 33 C416 33 416 33 416 33 L416 33 Z M389 58 C389 57 389 57 389 57 C389 57 389 57 388 57 C388 57 388 57 388 57 C388 57 388 58 389 58 L389 58 Z M432 57 C432 56 432 56 432 56 C431 56 431 57 431 57 C431 57 431 57 431 57 C432 57 432 57 432 57 L432 57 Z M425 55 C425 55 425 55 425 55 C425 55 425 55 425 55 C425 55 425 55 425 55 C425 55 425 55 425 55 L425 55 Z M400 59 C400 59 400 60 400 60 C400 60 400 59 401 59 C400 59 400 59 400 59 L400 59 Z M453 50 C453 49 453 49 453 49 C453 49 453 49 453 49 C453 49 453 49 453 50 C453 50 453 50 453 50 L453 50 Z M396 48 C396 48 396 48 396 48 C396 48 396 48 396 48 C396 48 396 48 396 48 L396 48 Z M461 54 C461 54 461 53 461 53 C461 53 461 54 460 54 C461 54 461 54 461 54 C461 54 461 54 461 54 L461 54 Z M347 53 C348 53 348 53 348 53 C348 53 348 53 348 52 C348 52 348 53 347 53 L347 53 Z M415 52 C415 52 415 51 415 51 C415 51 415 51 414 51 C414 51 414 51 414 51 C414 52 414 52 415 52 L415 52 Z M737 123 C736 123 736 123 735 123 C708 123 680 123 652 123 C635 123 617 123 599 123 C599 123 599 123 599 123 C599 123 599 123 599 123 C599 122 598 122 598 122 C598 83 598 43 598 4 C598 3 598 2 598 2 C598 1 598 1 598 1 C599 1 599 1 599 0 C600 0 602 0 604 0 C619 0 633 0 648 0 C666 0 684 0 701 0 C707 0 713 0 719 0 C724 0 729 0 734 0 C735 0 735 0 736 1 C736 1 737 2 737 3 C737 43 737 82 737 123 L737 123 Z M684 41 C684 41 685 42 685 42 C685 42 685 41 685 41 C685 41 685 41 685 41 C684 41 684 41 684 42 C684 42 683 42 683 42 C683 42 684 42 684 43 C684 43 684 43 684 44 C684 44 684 44 685 44 C685 44 685 44 685 44 C684 43 684 43 684 43 C684 42 684 42 684 41 L684 41 Z M698 85 C698 85 698 85 697 85 C697 85 698 85 698 85 C698 85 698 85 698 85 C699 85 699 84 699 84 C699 84 699 84 699 84 C699 84 698 85 698 85 L698 85 Z M661 99 C661 99 661 98 662 98 C662 98 662 99 662 99 C662 99 661 99 661 99 C661 99 661 99 661 100 C661 100 661 100 661 100 C661 100 662 100 662 100 C662 99 661 99 661 99 L661 99 Z M686 73 C686 73 687 73 687 73 C686 73 686 73 686 73 C686 73 686 73 686 73 C687 73 687 73 687 73 C688 73 688 73 688 73 C688 73 688 73 687 73 C687 73 687 73 686 73 L686 73 Z M684 54 C683 54 683 54 682 54 C682 54 682 55 682 55 C682 55 683 55 683 55 C683 55 684 54 684 54 C684 54 684 54 685 54 C685 54 685 54 685 54 C685 54 685 53 684 54 C684 54 684 54 684 54 L684 54 Z M662 54 C662 54 662 55 663 55 C663 55 663 55 663 55 C663 55 663 54 663 54 C663 54 662 54 662 54 C662 54 662 53 662 53 C661 53 661 53 661 53 C661 53 660 54 661 54 C661 54 661 54 662 54 L662 54 Z M649 53 C649 54 649 54 649 55 C649 54 649 54 649 53 C649 53 648 53 648 53 C648 53 648 53 647 53 C647 53 647 53 647 53 C647 54 648 54 648 54 C648 54 648 54 649 53 L649 53 Z M700 60 C700 60 701 60 701 60 C701 60 701 60 701 60 C701 60 701 60 701 60 C700 60 700 60 700 60 C700 61 699 61 699 62 C699 62 700 62 700 62 C700 62 700 62 700 62 C700 61 700 61 700 60 L700 60 Z M653 63 C653 63 653 62 653 61 C653 61 652 60 651 60 C652 61 652 62 653 63 C653 64 653 64 654 64 C655 64 656 64 656 62 C655 63 654 63 653 63 L653 63 Z M640 47 C641 47 641 47 641 48 C641 47 642 47 642 46 C641 46 641 46 640 46 C640 46 640 47 641 47 C639 47 638 47 636 47 C636 47 636 48 636 48 C638 48 639 47 640 47 L640 47 Z M679 76 C680 76 680 76 681 76 C681 76 681 75 681 75 C681 74 680 74 680 73 C680 73 680 72 680 72 C680 71 680 71 679 70 C679 70 679 70 678 69 C678 70 678 71 679 72 C679 73 678 73 678 74 C678 75 679 75 679 76 C679 77 678 77 678 78 C678 78 678 79 678 79 C678 79 679 79 679 78 C679 78 679 77 679 76 L679 76 Z M677 53 C677 53 677 54 678 54 C678 54 678 54 678 54 C678 53 678 53 678 52 C678 51 677 50 676 51 C675 51 674 51 674 52 C675 54 676 52 677 53 L677 53 Z M660 49 C658 48 657 48 656 48 C656 48 656 48 656 48 C657 49 657 49 658 50 C658 50 659 51 659 52 C660 51 660 50 660 49 L660 49 Z M663 80 C663 81 663 82 662 83 C663 84 664 84 665 83 C666 82 666 82 663 80 L663 80 Z M673 44 C673 46 673 46 673 47 C674 48 675 47 675 46 C675 46 675 46 675 45 C674 45 674 45 673 44 L673 44 Z M685 60 C684 60 684 60 684 61 C684 61 684 62 684 62 C685 62 685 61 686 61 C686 61 685 60 685 60 L685 60 Z M657 35 C657 35 657 34 657 34 C656 34 655 34 654 35 C654 35 654 36 654 36 C655 36 656 36 657 35 C657 35 657 35 657 35 L657 35 Z M699 39 C698 40 698 41 697 41 C698 42 699 41 699 39 L699 39 Z M631 75 C632 75 632 75 633 75 C633 75 633 75 633 74 C632 74 632 74 631 74 C631 75 631 75 631 75 L631 75 Z M658 60 C658 60 659 61 659 60 C659 60 660 59 660 59 C660 58 659 58 659 58 C659 58 658 59 658 60 C658 60 658 60 658 60 L658 60 Z M661 12 C661 13 661 13 661 13 C661 14 662 14 662 14 C662 13 662 13 662 13 C662 13 662 12 661 12 L661 12 Z M663 87 C663 87 663 88 663 88 C663 88 664 88 664 88 C664 88 664 88 664 87 C664 87 664 87 663 87 L663 87 Z M695 51 C696 51 696 51 696 51 C696 50 695 50 695 50 C695 50 695 51 695 51 C695 51 695 51 695 51 L695 51 Z M689 45 C689 45 689 45 689 45 C688 45 688 45 688 45 C688 45 688 46 688 46 C688 46 689 45 689 45 L689 45 Z M698 33 C699 33 699 33 699 33 C699 33 699 33 699 33 C699 33 699 32 699 32 C699 32 698 33 698 33 L698 33 Z M664 51 C664 51 664 51 664 51 C664 51 663 51 663 52 C663 52 664 52 664 53 C664 52 665 52 665 51 C665 51 664 51 664 51 L664 51 Z M670 45 C670 45 670 44 670 44 C670 44 670 44 669 44 C669 44 669 44 669 44 C669 45 669 45 670 45 L670 45 Z M659 42 C659 42 660 42 660 41 C660 41 660 41 659 40 C659 41 659 41 658 41 C658 42 659 42 659 42 L659 42 Z M654 39 C654 39 654 39 655 39 C654 39 654 39 654 39 C654 39 654 39 654 39 C654 39 654 39 654 39 L654 39 Z M690 28 C689 29 689 29 689 30 C689 30 689 30 689 30 C690 30 690 30 690 28 L690 28 Z M666 63 C666 62 666 62 666 62 C665 62 665 63 665 63 C665 63 665 64 665 63 C666 63 666 63 666 63 L666 63 Z M629 64 C629 64 629 64 629 64 C628 64 628 65 628 65 C628 65 629 66 629 65 C629 65 629 65 629 64 L629 64 Z M645 62 C644 62 644 61 643 61 C643 61 643 62 643 62 C643 62 644 62 644 63 C644 63 645 62 645 62 L645 62 Z M696 62 C696 62 697 62 697 62 C697 62 697 61 697 61 C697 61 696 61 696 61 C696 61 695 61 696 62 C696 62 696 62 696 62 L696 62 Z M674 77 C674 77 673 77 673 76 C673 77 673 77 673 77 C673 77 673 78 673 78 C674 78 674 77 674 77 L674 77 Z M669 54 C669 54 669 55 669 56 C669 56 669 56 669 56 C669 55 669 54 669 54 C669 54 669 54 669 54 L669 54 Z M679 50 C679 50 679 49 679 49 C679 49 679 49 678 49 C678 49 678 49 678 49 C678 50 679 50 679 50 L679 50 Z M645 51 C645 51 646 51 646 51 C646 51 646 51 646 51 C646 51 646 50 645 50 C645 50 645 51 645 51 L645 51 Z M671 64 C671 63 671 63 671 63 C671 63 671 63 671 63 C671 63 671 63 671 64 L671 64 Z M678 63 C679 63 679 63 679 62 C679 62 678 62 678 62 C678 62 677 62 677 62 C678 63 678 63 678 63 L678 63 Z M691 58 C691 57 690 57 690 57 C690 57 690 57 690 57 C690 57 690 58 690 58 C690 58 690 58 691 58 L691 58 Z M666 56 C666 56 666 56 666 56 C665 56 665 56 665 57 C665 57 666 57 666 57 C666 57 666 56 666 56 L666 56 Z M612 26 C612 26 612 26 612 26 C611 26 611 26 611 26 C612 26 612 26 612 26 C612 26 612 26 612 26 L612 26 Z M669 38 C669 39 669 39 670 39 C670 39 670 38 670 38 C670 38 670 38 669 38 C669 38 669 38 669 38 L669 38 Z M700 37 C701 37 701 37 701 37 C701 37 700 36 700 36 C700 36 700 36 700 36 C700 37 700 37 700 37 L700 37 Z M637 44 C637 44 637 44 636 44 C636 44 636 44 636 44 C636 44 637 45 637 45 C637 45 637 44 637 44 L637 44 Z M646 41 C646 41 646 41 647 41 C647 41 647 41 647 41 C647 41 646 41 646 41 C646 41 646 41 646 41 L646 41 Z M674 80 C674 81 674 81 674 81 C675 81 675 81 675 80 C675 80 675 80 675 80 C674 80 674 80 674 80 L674 80 Z M696 68 C696 68 696 68 696 67 C696 68 696 68 696 68 C696 68 696 68 696 68 C696 68 696 68 696 68 L696 68 Z M688 69 C688 69 688 69 688 69 C688 69 688 69 688 69 C688 69 688 69 688 69 C688 69 688 69 688 69 L688 69 Z M699 66 C699 65 699 65 699 65 C698 65 698 66 698 66 C698 66 699 67 699 66 C699 66 699 66 699 66 L699 66 Z M677 66 C676 66 676 66 676 66 C676 66 676 67 676 67 C676 67 676 67 676 67 C676 67 676 66 677 66 L677 66 Z M637 75 C637 74 637 74 637 74 C636 74 636 74 636 74 C636 74 636 75 636 75 C636 75 637 75 637 75 L637 75 Z M654 73 C654 73 654 73 654 73 C654 73 654 73 654 73 C654 74 654 74 654 74 C654 74 654 73 654 73 L654 73 Z M661 73 C661 73 661 73 661 73 C661 72 661 72 660 72 C660 72 660 73 660 73 C660 73 661 73 661 73 L661 73 Z M684 103 C684 103 684 103 684 103 C684 102 684 102 684 102 C684 102 684 102 684 102 C684 103 684 103 684 103 L684 103 Z M676 27 L676 26 L676 26 L676 27 Z M685 11 C685 11 686 11 686 11 C686 11 686 11 686 10 C685 10 685 11 685 11 C685 11 685 11 685 11 L685 11 Z M730 15 L730 15 L729 15 L730 15 Z M651 9 C651 9 651 9 651 9 C651 9 651 8 651 8 C651 8 651 9 650 9 C650 9 651 9 651 9 L651 9 Z M679 23 L679 23 L679 23 L679 23 Z M658 24 L658 24 L658 24 L658 24 Z M633 19 L634 19 L633 19 L633 19 Z M641 77 L641 77 L641 76 L641 77 Z M685 76 C684 75 684 75 684 75 C684 76 684 76 684 76 C684 76 684 76 685 76 C685 76 685 76 685 76 L685 76 Z M674 75 C674 75 674 75 674 75 C674 75 674 75 674 74 C674 74 674 74 674 75 C674 75 674 75 674 75 L674 75 Z M651 82 C651 82 651 82 650 82 C650 82 650 82 650 83 C650 83 650 83 650 83 C651 83 651 83 651 82 L651 82 Z M682 83 L683 82 L682 82 L682 83 Z M679 82 C679 82 679 82 679 81 C679 81 679 81 679 81 C678 81 678 81 678 81 C678 81 678 82 679 82 L679 82 Z M637 79 L637 79 L637 79 L637 79 Z M644 79 L645 79 L645 78 L644 79 Z M671 67 C672 67 672 67 672 67 C671 67 671 67 671 67 C671 67 671 67 671 67 L671 67 Z M613 66 C613 66 613 66 613 66 C613 66 613 66 612 66 C612 66 612 66 612 66 C613 66 613 66 613 66 L613 66 Z M660 64 C659 64 659 64 659 64 C659 64 659 64 659 64 C659 64 659 65 659 65 C659 64 659 64 660 64 L660 64 Z M694 64 C694 64 694 63 694 63 C694 63 694 64 694 64 C694 64 694 64 694 64 C694 64 694 64 694 64 L694 64 Z M626 62 C626 61 626 61 626 61 C626 61 626 62 625 62 C625 62 626 62 626 62 C626 62 626 62 626 62 L626 62 Z M638 70 C638 70 638 70 638 70 C638 70 638 70 638 70 C638 70 638 70 638 70 L638 70 Z M656 71 C656 71 656 71 656 71 C656 71 656 71 656 71 C656 71 656 71 656 71 L656 71 Z M665 71 C665 71 665 70 665 70 C665 70 665 70 665 70 C665 70 665 70 665 70 C665 70 665 71 665 71 L665 71 Z M670 70 C670 70 670 70 670 70 C669 70 669 70 669 70 C669 70 669 70 670 70 C670 70 670 70 670 70 L670 70 Z M682 70 C683 69 683 69 683 69 C683 69 682 69 682 69 C682 69 682 69 682 69 C682 69 682 69 682 70 L682 70 Z M679 97 C679 97 679 97 679 97 C679 97 679 97 679 97 C679 97 679 97 679 97 C679 97 679 97 679 97 L679 97 Z M701 115 L700 115 L701 115 L701 115 Z M683 94 C683 94 682 94 682 94 C682 94 682 94 682 94 C682 94 682 94 682 94 C682 94 683 94 683 94 L683 94 Z M659 93 C659 93 659 93 659 93 C659 93 659 93 659 93 C659 93 659 93 659 93 C659 93 659 93 659 93 L659 93 Z M633 101 C633 101 632 100 632 100 C632 100 632 101 631 101 C632 101 632 101 632 101 C632 101 632 101 633 101 L633 101 Z M659 86 C659 86 659 86 659 86 C659 86 658 86 658 87 C658 87 659 87 659 87 C659 87 659 87 659 86 L659 86 Z M649 85 C649 85 649 85 649 85 C649 85 649 86 650 86 C650 86 650 85 650 85 C650 85 650 85 649 85 L649 85 Z M653 85 C653 85 653 85 653 85 C653 85 653 85 653 85 C653 85 653 85 653 85 L653 85 Z M689 83 C689 83 689 83 689 83 C689 83 689 83 689 83 C689 83 689 83 689 83 L689 83 Z M670 88 C670 88 670 88 670 88 C670 88 670 88 670 89 C670 89 670 89 670 89 C670 89 670 89 670 88 L670 88 Z M611 39 L611 39 L611 39 L611 39 Z M674 39 C674 39 673 39 673 39 C673 39 673 39 673 39 C673 39 673 39 674 39 C674 40 674 39 674 39 L674 39 Z M633 37 C633 37 633 37 633 37 C633 37 634 37 634 37 C634 37 634 37 634 37 C634 37 634 37 633 37 L633 37 Z M618 42 C618 42 618 42 618 42 C618 42 617 42 617 42 C617 42 617 42 617 42 C617 42 617 42 618 42 L618 42 Z M640 31 C639 31 639 31 639 31 C639 31 639 31 639 32 C639 32 639 32 639 32 C639 32 639 32 640 31 L640 31 Z M678 31 L679 31 L678 30 L678 31 Z M666 30 C665 29 665 29 665 29 C665 29 665 29 665 29 C665 29 665 30 665 30 C665 30 665 30 666 30 L666 30 Z M660 37 C659 37 659 37 659 37 C659 37 659 37 659 37 C659 37 659 37 659 37 C660 37 660 37 660 37 L660 37 Z M681 36 C681 37 681 37 681 37 C681 37 681 37 681 37 C681 37 681 37 681 36 L681 36 Z M691 36 C691 36 691 37 691 37 C691 37 691 37 690 36 C691 36 691 36 691 36 C691 36 691 36 691 36 L691 36 Z M684 33 C684 33 684 33 684 33 C684 34 684 34 684 34 C684 34 684 34 683 34 C683 33 684 33 684 33 L684 33 Z M657 58 C656 58 656 57 656 57 C656 57 656 57 656 57 C657 57 657 57 657 57 C657 57 657 57 657 58 L657 58 Z M700 57 C700 57 700 57 699 57 C699 57 699 57 699 57 C699 57 699 56 700 56 C700 56 700 56 700 57 L700 57 Z M693 55 C693 55 693 55 693 55 C693 55 693 55 693 55 C693 55 693 55 693 55 C693 55 693 55 693 55 L693 55 Z M668 59 C668 59 668 59 669 59 C668 59 668 60 668 60 C668 60 668 59 668 59 L668 59 Z M721 50 C721 50 721 50 721 50 C721 49 721 49 721 49 C721 49 721 49 721 49 C721 49 721 49 721 50 L721 50 Z M664 48 C664 48 664 48 664 48 C664 48 664 48 664 48 C664 48 664 48 664 48 L664 48 Z M729 54 C729 54 729 54 729 54 C729 54 729 54 728 54 C729 54 729 53 729 53 C729 53 729 54 729 54 L729 54 Z M615 53 C616 53 616 52 616 52 C616 53 616 53 616 53 C616 53 616 53 615 53 L615 53 Z M683 52 C682 52 682 52 682 51 C682 51 682 51 682 51 C683 51 683 51 683 51 C683 51 683 52 683 52 L683 52 Z " />
<glyph glyph-name="guilsinglleft" unicode="&#x2039;" horiz-adv-x="238" d="M51 299 L185 151 L185 265 L141 326 L185 386 L185 501 L51 353 L51 299 L51 299 Z " />
<glyph glyph-name="guilsinglright" unicode="&#x203a;" horiz-adv-x="239" d="M54 150 L189 298 L189 352 L54 500 L54 385 L98 325 L54 264 L54 150 L54 150 Z " />
<glyph glyph-name="Euro" unicode="&#x20ac;" horiz-adv-x="629" d="M32 191 L132 191 C156 130 196 82 254 45 C312 9 385 -9 473 -9 C515 -9 558 -6 599 2 L599 124 C554 117 513 114 474 114 C383 114 319 140 283 191 L412 191 L412 288 L250 288 C249 293 249 302 249 313 C249 324 249 332 250 338 L412 338 L412 434 L283 434 C319 486 383 512 474 512 C514 512 556 509 599 502 L599 624 C558 631 516 635 473 635 C385 635 312 617 254 580 C196 544 156 496 132 434 L32 434 L32 338 L112 338 C111 332 111 324 111 313 C111 307 111 299 112 288 L32 288 L32 191 L32 191 Z " />
<glyph glyph-name="trademark" unicode="&#x2122;" horiz-adv-x="620" d="M47 582 L138 582 L138 334 L188 334 L188 582 L279 582 L279 627 L47 627 L47 582 Z M298 334 L348 334 L348 543 L416 422 L450 422 L518 543 L518 334 L568 334 L568 627 L509 627 L433 490 L357 627 L298 627 L298 334 Z " />
</font>
</svg>
