<?xml version="1.0" encoding="UTF-8"?>
<svg xmlns="http://www.w3.org/2000/svg" xmlns:xlink="http://www.w3.org/1999/xlink" version="1.2" >
<font id="Oskosh">
<font-face  font-family="Oskosh" units-per-em="1000" ascent="750" descent="-250" font-style="normal" font-weight="400" font-stretch="normal" cap-height="900" x-height="500" underline-position="-75" underline-thickness="50" />
<missing-glyph  horiz-adv-x="252" d="" />
<glyph glyph-name="NULL" d="" />
<glyph glyph-name="CR" unicode="&#xd;" horiz-adv-x="252" d="" />
<glyph glyph-name="space" unicode="&#x20;" horiz-adv-x="252" d="" />
<glyph glyph-name="exclam" unicode="&#x21;" horiz-adv-x="204" d="M104 -41 C68 -41 68 -96 104 -96 C140 -95 138 -41 104 -41 L104 -41 Z M115 592 C97 591 95 575 95 562 C94 539 93 517 92 495 C91 454 90 413 88 372 C86 288 84 205 82 122 C82 102 82 83 82 64 C81 49 75 22 90 12 C102 4 117 11 120 24 C122 33 120 44 120 53 C120 65 121 77 121 89 C122 171 124 254 126 336 C128 382 129 427 131 473 C131 497 132 521 133 545 C134 560 140 593 115 592 L115 592 Z " />
<glyph glyph-name="quotedbl" unicode="&#x22;" horiz-adv-x="198" d="M76 664 C45 679 41 628 38 611 C35 594 19 545 51 538 C62 535 70 542 72 551 C75 567 74 584 78 600 C81 615 101 652 76 664 L76 664 Z M142 660 C115 665 117 627 115 610 C112 595 98 558 127 550 C154 544 151 584 154 600 C157 615 171 653 142 660 L142 660 Z " />
<glyph glyph-name="numbersign" unicode="&#x23;" horiz-adv-x="578" d="M523 372 C495 373 466 373 438 374 C444 393 451 412 458 431 C465 451 475 472 480 492 C483 506 471 520 456 516 C439 512 436 485 431 472 C422 445 405 400 396 374 C343 374 289 374 237 373 C245 399 253 425 261 451 C266 467 284 500 262 511 C236 523 230 482 225 467 C219 446 202 392 196 373 C171 372 113 372 98 372 C88 372 78 373 71 364 C66 357 67 347 73 340 C80 331 93 333 103 334 C130 334 156 334 183 334 C181 324 157 249 154 246 C121 244 98 245 67 245 C55 245 42 245 38 231 C35 221 40 210 50 207 C62 202 81 206 94 206 C110 206 126 206 142 206 C128 160 113 113 101 66 C97 51 97 29 119 31 C139 33 140 61 144 77 C156 122 169 159 183 207 C226 206 312 207 337 206 C322 163 308 120 293 76 C289 62 278 37 300 32 C323 26 328 56 333 71 C346 115 362 161 378 206 C405 206 433 206 449 206 C465 206 498 199 508 217 C512 224 510 234 504 240 C496 248 484 246 474 245 C447 245 419 245 392 245 C403 275 413 306 424 335 C451 334 480 334 507 334 C516 334 527 331 535 338 C549 349 541 372 523 372 L523 372 Z M351 245 C299 245 247 245 196 245 C202 264 220 322 224 334 C277 333 336 333 383 335 C372 305 361 275 351 245 L351 245 Z " />
<glyph glyph-name="dollar" unicode="&#x24;" horiz-adv-x="327" d="M265 169 C249 201 230 232 208 260 C202 268 198 273 197 281 C195 290 196 300 196 308 C197 328 197 348 196 368 C202 359 205 345 216 341 C227 338 239 344 241 355 C244 365 235 377 231 386 C225 398 217 410 207 419 C202 424 199 425 198 432 C196 439 198 447 198 454 C198 466 204 486 199 497 C194 507 182 512 172 508 C160 503 161 490 160 479 C159 472 160 464 159 457 C159 454 160 449 159 446 C157 439 161 442 154 440 C142 437 130 438 120 431 C98 420 88 397 89 373 C92 348 107 327 122 307 C130 298 138 288 146 279 C147 276 152 271 154 267 C159 261 158 256 158 248 C158 177 158 106 156 34 C154 35 146 36 144 39 C145 38 146 38 146 37 C121 46 102 70 98 96 C95 110 96 126 99 141 C100 147 102 153 104 159 C106 162 107 164 108 167 C108 168 113 174 109 170 C126 189 107 218 85 202 C66 188 60 153 58 131 C52 76 79 24 131 2 C137 0 145 -1 150 -4 C158 -8 154 -4 155 -11 C155 -14 154 -19 154 -22 C154 -36 153 -50 150 -64 C150 -75 144 -88 148 -98 C153 -109 165 -114 175 -109 C186 -104 186 -92 188 -82 C190 -67 192 -51 193 -36 C192 -29 193 -22 194 -16 C194 -6 196 -8 205 -6 C218 -3 229 2 239 9 C261 24 275 46 280 71 C289 105 279 138 265 169 L265 169 Z M143 399 C143 400 143 399 143 399 L143 399 L143 399 Z M142 399 C141 398 141 398 141 398 C141 398 141 398 142 399 L142 399 Z M136 395 C137 397 136 396 135 395 C135 395 136 395 136 395 L136 395 Z M130 387 C130 390 130 388 130 387 C130 387 130 387 130 387 L130 387 Z M130 387 C129 387 129 387 129 387 C129 387 129 387 130 387 L130 387 Z M158 392 C157 370 157 347 158 325 C145 339 129 357 128 377 C128 394 142 402 158 401 C158 398 158 395 158 392 L158 392 Z M240 71 C240 71 240 72 240 72 C240 72 240 71 240 71 L240 71 Z M246 93 C247 88 241 75 239 70 C238 65 234 60 231 55 C231 56 232 56 232 56 C233 57 231 54 231 54 C233 49 208 37 205 35 C204 34 197 33 196 32 C197 91 197 151 196 210 C218 178 249 134 246 93 L246 93 Z " />
<glyph glyph-name="percent" unicode="&#x25;" horiz-adv-x="526" d="M489 509 C436 496 353 401 313 402 C299 402 289 404 279 411 C263 427 259 448 270 465 C278 477 290 486 305 481 C310 478 313 472 314 467 C311 460 303 456 301 449 C298 441 301 433 308 427 C324 416 341 432 348 446 C363 478 339 517 304 521 C267 525 234 495 227 459 C219 419 240 380 280 369 C327 355 371 384 408 408 C339 322 271 236 203 149 C169 106 136 62 103 19 C86 -3 70 -24 54 -46 C46 -56 38 -67 30 -78 C23 -87 17 -95 24 -106 C41 -133 67 -97 79 -85 C100 -63 120 -40 142 -19 C137 -49 153 -84 183 -92 C213 -100 247 -86 266 -62 C286 -36 287 1 268 28 C247 57 207 63 176 50 C238 131 301 212 365 292 C398 334 431 376 465 417 C481 437 499 457 513 478 C518 486 521 496 515 504 C509 511 497 514 489 509 L489 509 Z M183 11 C195 17 207 21 223 16 C251 4 247 -31 228 -47 C219 -55 195 -60 186 -49 C175 -36 189 -2 162 -3 C169 2 176 7 183 11 L183 11 Z " />
<glyph glyph-name="ampersand" unicode="&#x26;" horiz-adv-x="405" d="M316 -4 C330 11 343 27 356 44 C365 56 383 73 370 89 C357 105 341 90 333 78 C321 62 309 48 297 33 C271 84 247 136 224 188 C215 206 209 226 203 240 C200 247 200 246 203 253 C215 278 234 301 248 325 C276 369 301 419 299 474 C296 521 261 557 212 552 C160 546 131 497 122 450 C111 394 131 337 147 284 C149 278 151 271 153 265 C155 258 157 255 155 249 C149 236 139 224 132 213 C118 188 104 164 92 138 C68 89 45 35 45 -21 C45 -76 76 -125 135 -123 C194 -120 247 -72 287 -33 C300 -58 314 -83 329 -107 C337 -121 356 -156 375 -143 C392 -131 366 -95 357 -79 C343 -54 329 -29 316 -4 L316 -4 Z M167 467 C175 487 189 508 210 514 C223 518 242 513 250 502 C284 459 205 328 184 296 C165 357 147 414 167 467 L167 467 Z M129 -84 C95 -86 84 -51 84 -22 C84 17 98 55 113 90 C130 131 152 169 174 207 C191 164 210 122 230 80 C240 59 250 38 261 17 C262 15 269 6 268 3 C268 1 259 -6 257 -8 C223 -42 169 -82 129 -84 L129 -84 Z " />
<glyph glyph-name="quotesingle" unicode="&#x27;" horiz-adv-x="132" d="M65 673 C60 659 58 643 55 629 C52 616 46 601 46 588 C45 565 78 558 84 581 C87 595 90 610 94 624 C97 637 103 653 103 667 C102 690 72 693 65 673 L65 673 Z " />
<glyph glyph-name="parenleft" unicode="&#x28;" horiz-adv-x="232" d="M176 651 C152 664 138 625 131 609 C119 585 110 559 102 533 C85 480 73 425 64 369 C47 257 42 138 71 28 C77 3 86 -21 97 -44 C105 -59 121 -95 141 -93 C151 -92 158 -85 159 -76 C159 -66 152 -59 147 -51 C134 -33 125 -12 117 9 C82 109 85 222 98 326 C105 387 117 448 134 507 C142 533 151 560 163 585 C169 598 176 610 183 623 C187 632 188 645 176 651 L176 651 Z M100 342 C100 343 100 343 100 344 C100 347 100 343 100 342 L100 342 Z " />
<glyph glyph-name="parenright" unicode="&#x29;" horiz-adv-x="250" d="M144 631 C138 639 132 651 121 652 C111 653 101 646 100 636 C98 627 104 620 109 613 C117 602 124 590 129 578 C149 538 159 491 163 448 C176 339 165 226 141 118 C130 67 115 15 93 -33 C86 -48 61 -76 79 -91 C102 -110 118 -70 126 -55 C174 44 194 162 203 271 C209 336 209 401 200 466 C192 523 177 583 144 631 L144 631 Z M159 215 C158 212 159 215 159 216 C159 216 159 215 159 215 L159 215 Z " />
<glyph glyph-name="asterisk" unicode="&#x2a;" horiz-adv-x="278" d="M254 326 C243 343 227 332 214 324 C198 313 181 302 165 291 C166 309 179 359 149 358 C121 358 127 310 126 292 C112 304 69 354 54 321 C47 307 58 299 68 290 C82 278 97 266 112 254 C100 246 89 237 77 229 C68 222 53 214 46 205 C42 198 43 187 48 181 C52 177 57 175 63 175 C66 175 68 176 71 177 C72 177 79 182 75 179 C91 191 107 203 123 215 C123 198 114 147 143 148 C154 148 162 157 162 167 C163 183 162 198 162 214 C176 204 190 189 206 181 C217 176 232 184 233 197 C235 212 218 220 208 228 C198 236 187 244 177 252 C195 264 212 276 230 288 C242 296 266 308 254 326 L254 326 Z " />
<glyph glyph-name="plus" unicode="&#x2b;" horiz-adv-x="332" d="M284 224 C252 225 221 224 189 223 C190 248 191 274 192 299 C193 316 202 351 178 356 C154 360 155 330 154 315 C153 300 150 245 150 221 C130 220 103 219 96 218 C80 217 44 215 40 202 C38 195 40 185 46 180 C53 173 64 176 74 177 C99 179 124 181 149 182 C147 131 147 91 148 37 C148 21 170 11 182 25 C188 32 187 40 187 48 C187 61 187 74 187 86 C187 105 188 163 188 184 C213 184 251 186 268 186 C277 186 287 184 295 189 C311 199 303 224 284 224 L284 224 Z " />
<glyph glyph-name="comma" unicode="&#x2c;" horiz-adv-x="110" d="M60 -79 C51 -73 38 -77 33 -86 C30 -91 30 -97 32 -102 C34 -107 38 -109 40 -113 C48 -125 26 -132 25 -145 C24 -156 32 -165 43 -166 C55 -167 65 -155 71 -146 C87 -124 84 -94 60 -79 L60 -79 Z " />
<glyph glyph-name="hyphen" unicode="&#x2d;" horiz-adv-x="267" d="M228 228 C184 228 140 226 96 222 C81 220 53 223 42 211 C32 199 41 180 55 179 C65 178 77 181 87 182 C98 183 109 184 120 185 C143 187 165 188 187 188 C202 188 232 182 243 196 C253 208 244 228 228 228 L228 228 Z " />
<glyph glyph-name="period" unicode="&#x2e;" horiz-adv-x="120" d="M55 -106 C66 -112 80 -103 82 -92 C84 -81 75 -70 65 -66 C38 -54 29 -98 55 -106 L55 -106 Z " />
<glyph glyph-name="slash" unicode="&#x2f;" horiz-adv-x="412" d="M382 640 C357 646 350 607 343 590 C333 565 322 541 312 516 C290 465 268 414 246 363 C198 257 149 151 99 47 C86 21 74 -5 61 -31 C55 -44 48 -57 42 -71 C37 -80 29 -91 33 -102 C36 -110 44 -115 53 -115 C67 -114 70 -101 75 -90 C88 -65 100 -39 112 -14 C163 91 213 196 260 302 C287 360 312 419 338 478 C351 508 364 539 377 570 C383 585 414 633 382 640 L382 640 Z " />
<glyph glyph-name="zero" unicode="0" horiz-adv-x="493" d="M412 419 C389 462 352 500 304 515 C253 530 197 522 153 493 C57 432 29 301 32 195 C34 89 64 -45 165 -101 C213 -127 273 -130 321 -102 C368 -73 399 -22 420 28 C446 91 458 159 456 226 C455 292 443 360 412 419 L412 419 Z M416 172 C407 86 378 -3 314 -59 C293 -73 273 -83 248 -83 C231 -83 210 -80 197 -73 C105 -28 76 84 71 179 C65 294 99 466 231 482 C268 488 305 477 333 456 C359 435 373 409 386 383 C396 360 403 335 408 310 C417 265 420 218 416 172 L416 172 Z " />
<glyph glyph-name="one" unicode="1" horiz-adv-x="195" d="M138 -17 C135 71 135 159 136 247 C136 330 135 413 143 495 C142 493 142 492 142 490 C144 510 125 522 109 509 C90 493 73 471 56 453 C45 441 26 419 51 409 C70 401 89 431 100 443 C97 347 96 251 96 155 C97 107 97 59 98 12 C99 -11 99 -34 100 -57 C101 -73 98 -103 108 -116 C121 -132 143 -118 142 -101 C141 -73 139 -45 138 -17 L138 -17 Z " />
<glyph glyph-name="two" unicode="2" horiz-adv-x="449" d="M404 -74 C298 -77 192 -75 85 -79 C140 -3 196 73 252 148 C301 215 360 283 366 368 C371 441 330 508 256 524 C179 540 107 495 72 427 C62 406 55 384 50 362 C47 346 37 315 61 311 C81 308 84 328 86 342 C89 362 97 380 102 400 C110 426 135 455 160 470 C186 486 223 491 247 486 C295 473 324 443 327 398 C331 328 291 268 246 205 C203 147 160 89 118 31 C97 3 76 -26 55 -55 C45 -69 6 -108 39 -119 C46 -121 56 -119 62 -119 C92 -119 119 -117 146 -116 C182 -116 218 -115 254 -115 C294 -115 335 -114 375 -114 C389 -114 413 -118 421 -103 C428 -91 419 -74 404 -74 L404 -74 Z " />
<glyph glyph-name="three" unicode="3" horiz-adv-x="438" d="M352 204 C342 209 331 213 321 217 C412 275 437 423 348 496 C304 532 239 538 184 527 C128 515 80 480 54 429 C41 402 28 364 39 335 C43 325 52 317 64 320 C70 321 75 326 77 332 C78 335 79 338 78 341 C72 363 78 401 103 434 C124 462 154 480 188 488 C220 495 257 496 289 485 C361 461 376 379 354 317 C337 268 295 239 253 229 C244 227 232 227 225 221 C212 209 220 189 236 187 C251 185 269 186 282 185 C315 182 344 169 364 143 C383 118 386 81 382 52 C379 25 367 1 351 -21 C352 -21 352 -20 352 -20 C304 -77 232 -96 165 -75 C134 -66 110 -46 94 -22 C84 -5 77 14 77 33 C76 46 77 62 61 65 C46 68 38 55 38 42 C36 -17 72 -74 124 -101 C235 -157 384 -98 416 24 C434 90 416 169 352 204 L352 204 Z " />
<glyph glyph-name="four" unicode="4" horiz-adv-x="443" d="M396 158 C388 159 380 159 373 159 C374 225 375 292 377 359 C378 392 380 426 381 459 C381 471 386 489 378 499 C370 509 356 509 348 499 C340 490 343 473 342 462 C341 444 341 427 340 409 C339 377 338 344 337 312 C336 278 335 245 335 212 C334 197 337 178 334 164 C331 154 335 161 328 159 C325 157 319 159 315 159 C305 158 296 158 287 158 C214 157 140 155 66 153 C110 218 151 285 187 354 C206 390 224 425 240 462 C245 473 248 489 232 494 C217 500 210 488 204 476 C171 405 134 335 94 268 C72 233 50 199 27 165 C19 154 3 140 11 125 C19 109 41 114 56 114 C148 115 241 119 333 120 C333 63 332 7 332 -49 C332 -62 332 -75 332 -87 C332 -99 329 -114 338 -123 C344 -129 354 -130 361 -125 C372 -119 371 -109 371 -98 C371 -42 371 14 372 69 C372 77 372 84 372 92 C372 98 370 108 372 114 C370 119 372 121 377 120 C380 120 383 120 387 120 C391 120 396 119 400 120 C422 125 419 158 396 158 L396 158 Z " />
<glyph glyph-name="five" unicode="5" horiz-adv-x="457" d="M153 457 C156 465 159 464 167 464 C176 464 184 465 193 465 C213 465 234 466 254 466 C292 466 331 466 370 465 C386 465 405 461 421 465 C435 468 441 483 433 495 C424 507 405 504 392 504 C373 504 354 504 334 504 C276 506 219 506 164 503 C150 502 133 503 124 488 C116 476 113 459 109 445 C105 428 100 411 96 393 C87 358 78 323 65 290 C59 273 52 257 42 242 C35 230 29 214 46 207 C62 200 82 219 95 226 C106 234 123 240 134 246 C197 274 279 286 336 241 C381 204 401 144 397 86 C386 -34 305 -101 191 -90 C137 -86 82 -57 61 -7 C57 3 56 13 53 22 C46 39 18 38 15 19 C13 0 26 -27 35 -42 C78 -116 173 -140 253 -128 C339 -115 401 -57 425 25 C447 101 438 187 385 248 C313 332 191 318 101 274 C124 333 134 396 153 457 L153 457 Z " />
<glyph glyph-name="six" unicode="6" horiz-adv-x="449" d="M340 258 C239 311 122 260 67 167 C71 186 76 209 86 226 C86 225 85 225 85 224 C103 267 129 307 160 342 C189 377 229 414 261 438 C282 455 307 467 328 484 C346 500 328 527 306 517 C283 506 260 487 239 471 C218 454 197 436 177 417 C101 345 37 251 24 145 C12 48 43 -72 144 -110 C239 -146 350 -112 402 -23 C431 25 444 86 430 141 C417 190 385 234 340 258 L340 258 Z M341 211 C341 211 341 211 341 211 C341 211 341 211 341 211 L341 211 Z M63 67 C63 69 63 68 63 67 L63 67 L63 67 Z M154 -72 C154 -72 153 -72 153 -72 C154 -72 157 -73 154 -72 L154 -72 Z M293 -71 C291 -72 292 -72 293 -71 C293 -71 293 -71 293 -71 L293 -71 Z M328 -51 C327 -51 327 -51 327 -51 C328 -51 329 -50 328 -51 L328 -51 Z M396 78 C389 4 338 -64 263 -80 C199 -95 127 -76 92 -18 C69 18 61 62 60 104 C75 99 83 111 88 123 C104 164 145 208 188 227 C224 243 276 248 312 228 C311 229 310 229 309 229 C319 229 335 216 342 210 C351 203 359 194 367 185 C367 185 366 186 366 186 C389 154 400 117 396 78 L396 78 Z " />
<glyph glyph-name="seven" unicode="7" horiz-adv-x="477" d="M433 416 C443 429 472 454 455 472 C446 481 430 477 419 477 C401 476 384 476 366 476 C302 474 238 472 174 472 C143 472 112 473 80 473 C63 474 7 486 14 452 C16 442 23 438 33 436 C49 434 67 435 84 434 C115 434 147 433 179 433 C252 433 327 435 401 438 C293 296 194 150 107 -5 C97 -24 87 -43 77 -61 C70 -75 50 -98 59 -114 C67 -128 85 -126 93 -114 C106 -95 115 -73 126 -53 C168 24 213 100 260 173 C315 256 373 337 433 416 L433 416 Z " />
<glyph glyph-name="eight" unicode="8" horiz-adv-x="447" d="M410 107 C376 155 324 186 273 214 C324 243 390 280 404 342 C418 400 382 463 332 491 C233 547 70 495 64 369 C60 292 135 247 193 214 C139 186 81 155 44 105 C6 54 6 -14 48 -63 C89 -111 156 -128 217 -130 C278 -131 345 -115 392 -72 C442 -25 449 50 410 107 L410 107 Z M134 302 C115 322 107 336 103 354 C93 403 143 448 179 464 C214 478 290 478 325 449 C355 424 384 370 359 333 C344 305 317 289 294 272 C284 266 243 237 233 237 C218 237 147 289 134 302 L134 302 Z M342 -61 C318 -75 291 -84 263 -88 C211 -96 135 -91 96 -55 C61 -25 44 14 62 59 C70 76 87 99 115 121 C146 145 180 163 214 182 C224 187 231 193 242 188 C268 172 295 158 320 140 C345 122 379 95 388 66 C405 13 389 -31 342 -61 L342 -61 Z " />
<glyph glyph-name="nine" unicode="9" horiz-adv-x="452" d="M223 512 C141 513 57 468 28 389 C-2 305 37 217 118 183 C159 166 205 164 247 174 C269 180 289 188 309 199 C323 207 354 222 356 240 C356 250 350 259 340 261 C329 263 321 255 314 249 C296 235 275 224 254 217 C218 205 168 200 133 219 C99 233 63 269 58 313 C52 357 70 401 103 431 C169 490 284 487 343 421 C403 356 382 249 345 183 C329 151 306 124 282 98 C228 42 169 -6 123 -69 C115 -79 98 -96 103 -111 C109 -127 129 -126 138 -114 C148 -102 155 -89 164 -78 C176 -63 188 -50 201 -36 C253 19 315 67 359 131 C382 163 399 200 408 238 C442 381 385 509 223 512 L223 512 Z " />
<glyph glyph-name="colon" unicode="&#x3a;" horiz-adv-x="180" d="M92 167 C111 146 138 180 115 199 C106 206 94 206 86 197 C78 186 84 175 92 167 L92 167 Z M74 47 C61 25 98 0 112 23 C125 46 90 67 74 47 L74 47 Z " />
<glyph glyph-name="semicolon" unicode="&#x3b;" horiz-adv-x="151" d="M82 195 C101 175 128 209 104 227 C81 245 60 214 82 195 L82 195 Z M111 24 C110 43 89 84 64 67 C55 61 53 45 61 37 C66 32 70 33 72 25 C75 5 41 -14 62 -32 C89 -55 111 5 111 24 L111 24 Z M68 33 C69 33 69 32 68 33 L68 33 Z " />
<glyph glyph-name="less" unicode="&#x3c;" horiz-adv-x="352" d="M298 220 C290 246 260 229 243 223 C219 214 196 205 172 195 C147 186 123 176 98 166 C88 162 78 158 68 154 C58 150 46 148 41 138 C31 115 65 105 79 97 C101 86 124 75 146 64 C169 53 192 42 215 30 C230 23 252 26 248 48 C247 61 234 64 224 69 C212 75 200 81 187 87 C160 100 133 114 106 127 C142 142 178 157 215 171 C232 178 251 185 269 191 C282 196 304 202 298 220 L298 220 Z " />
<glyph glyph-name="equal" unicode="&#x3d;" horiz-adv-x="301" d="M233 181 C192 179 150 178 109 177 C94 177 70 183 60 169 C52 156 61 141 75 138 C93 135 114 138 133 139 C154 139 174 140 195 141 C209 141 235 137 247 148 C258 159 250 182 233 181 L233 181 Z M233 112 C190 110 147 109 104 109 C89 108 59 115 49 100 C41 87 50 72 64 70 C84 66 107 70 127 70 C148 70 170 71 191 71 C206 72 234 67 247 79 C258 90 250 113 233 112 L233 112 Z " />
<glyph glyph-name="greater" unicode="&#x3e;" horiz-adv-x="318" d="M50 58 C28 50 33 18 56 19 C67 20 81 27 91 31 C105 36 118 42 132 47 C181 66 230 85 278 104 C287 108 295 114 294 125 C294 138 283 142 273 147 C250 160 226 171 203 183 C179 194 157 205 134 217 C120 224 90 240 86 213 C84 200 92 194 102 189 C116 182 130 175 144 168 C172 155 200 141 228 127 C168 104 110 79 50 58 L50 58 Z " />
<glyph glyph-name="question" unicode="&#x3f;" horiz-adv-x="452" d="M291 586 C196 608 105 566 53 486 C41 467 30 446 27 423 C26 414 25 403 32 396 C38 389 49 389 56 394 C64 400 64 406 65 414 C66 423 69 431 72 439 C80 458 92 476 106 491 C133 522 171 547 211 552 C290 562 378 521 388 435 C392 394 382 351 362 315 C339 275 298 239 274 222 C219 181 103 114 105 40 C107 0 149 -19 184 -8 C198 -4 222 7 224 24 C226 44 203 49 190 38 C191 40 189 37 189 37 C181 29 155 22 147 34 C121 71 237 147 256 160 C294 187 332 215 363 250 C420 317 452 422 405 503 C381 545 338 575 291 586 L291 586 Z M166 -61 C130 -61 131 -116 167 -116 C203 -115 200 -61 166 -61 L166 -61 Z " />
<glyph glyph-name="at" unicode="&#x40;" horiz-adv-x="470" d="M375 332 C317 366 240 357 183 326 C123 293 78 235 57 171 C37 108 38 32 80 -22 C125 -78 203 -83 266 -56 C283 -49 299 -39 313 -28 C325 -20 348 -5 350 11 C351 27 333 37 320 29 C313 24 307 17 301 11 C300 11 289 2 294 6 C267 -13 241 -28 208 -32 C192 -34 175 -34 160 -30 C147 -26 138 -20 126 -14 C86 9 80 69 84 108 C85 122 88 135 91 148 C99 176 112 202 129 225 C144 248 164 268 187 283 C208 297 238 312 263 313 C297 314 340 315 365 293 C409 254 415 193 396 140 C392 128 379 110 366 101 C360 97 339 87 337 97 C336 105 332 112 332 120 C331 130 332 141 334 151 C336 161 345 174 342 185 C339 195 329 201 319 199 C303 196 295 167 287 155 C276 139 262 125 247 113 C232 103 207 84 188 84 C176 84 179 98 179 104 C181 118 185 132 192 144 C203 163 222 180 234 179 C251 178 237 129 269 143 C285 150 281 172 276 185 C260 224 219 224 190 201 C162 179 145 145 141 110 C138 86 140 54 169 47 C213 35 265 75 295 104 C298 86 306 66 324 58 C339 51 357 54 372 60 C403 73 424 102 435 132 C460 201 442 294 375 332 L375 332 Z " />
<glyph glyph-name="A" unicode="A" horiz-adv-x="506" d="M457 262 C464 269 464 279 459 286 C453 296 446 295 436 294 C429 373 421 452 403 529 C388 590 363 686 291 701 C225 715 171 664 142 610 C106 545 90 470 77 398 C70 353 64 307 60 262 C60 254 58 247 58 240 C59 236 58 234 54 233 C48 228 40 226 35 219 C25 205 37 186 54 189 C50 123 48 57 47 -9 C46 -25 46 -40 46 -56 C46 -71 43 -92 46 -107 C49 -118 60 -125 71 -122 C85 -118 85 -105 85 -92 C85 7 86 82 91 156 C92 166 89 201 97 205 C101 208 112 208 118 209 C143 213 166 216 190 220 C260 231 330 241 400 250 C405 171 408 92 412 12 C414 -24 413 -63 422 -99 C424 -111 429 -125 445 -124 C460 -123 466 -107 460 -95 C461 -96 462 -98 462 -99 C454 -74 454 -47 453 -21 C451 13 449 46 448 80 C447 113 445 146 443 179 C442 196 441 213 440 231 C440 235 436 253 439 255 C443 259 452 257 457 262 L457 262 Z M117 248 C110 247 104 246 98 245 C102 298 108 351 118 404 C132 476 148 550 186 608 C201 630 220 649 242 659 C257 666 282 664 288 662 C324 649 342 600 352 567 C379 480 385 404 394 331 C394 327 397 289 397 289 C384 286 336 281 331 280 C260 270 188 259 117 248 L117 248 Z " />
<glyph glyph-name="B" unicode="B" horiz-adv-x="563" d="M62 600 C75 606 88 611 101 616 C113 521 115 424 114 328 C114 317 113 305 113 294 C113 284 116 267 112 259 C110 253 98 252 94 245 C89 237 91 227 98 221 C101 218 104 218 107 216 C112 213 110 210 110 202 C110 165 108 128 106 91 C104 35 103 -20 102 -75 C89 -73 73 -69 67 -86 C62 -100 73 -110 85 -112 C89 -113 94 -112 98 -113 C104 -116 101 -114 104 -121 C107 -126 112 -130 118 -131 C124 -132 130 -130 135 -126 C137 -124 139 -118 140 -117 C143 -115 152 -118 156 -118 C230 -121 306 -114 376 -87 C433 -65 489 -28 520 27 C552 84 558 162 524 220 C485 287 400 302 328 299 C404 347 466 422 469 515 C471 560 455 604 422 635 C389 666 343 681 298 686 C243 692 186 683 132 667 C131 677 131 688 122 694 C115 699 106 699 99 694 C94 690 92 683 92 677 C92 671 95 665 94 660 C93 653 93 655 86 652 C75 648 65 643 54 639 C46 636 38 634 34 625 C27 607 45 593 62 600 L62 600 Z M372 259 C406 259 445 243 464 230 C501 201 507 157 507 116 C504 81 491 50 471 25 C460 10 444 -4 428 -16 C377 -54 308 -71 249 -76 C223 -79 197 -80 171 -79 C165 -79 158 -79 152 -79 C143 -78 141 -79 141 -70 C141 -56 141 -42 142 -28 C143 60 150 141 150 223 C155 226 168 230 173 231 C186 235 198 240 211 243 C263 256 319 263 372 259 L372 259 Z M141 629 C230 655 341 666 410 591 C431 562 434 529 429 497 C418 428 375 377 320 340 C282 316 244 293 201 281 C185 277 168 273 151 268 C153 329 154 391 152 452 C150 498 149 542 143 585 C143 591 136 628 141 629 L141 629 Z " />
<glyph glyph-name="C" unicode="C" horiz-adv-x="488" d="M388 18 C425 104 447 198 458 290 C459 306 467 334 445 339 C422 343 422 318 420 303 C416 262 408 220 398 179 C379 100 358 21 311 -41 C293 -63 275 -80 250 -86 C193 -98 149 -39 130 7 C91 109 84 218 93 327 C98 387 109 446 127 504 C142 552 163 604 200 639 C216 655 236 666 260 661 C280 657 297 642 309 626 C330 598 343 557 346 528 C347 518 347 506 355 499 C363 492 374 493 381 500 C394 512 384 542 381 557 C372 596 356 636 327 665 C293 699 243 713 199 688 C155 663 128 611 108 565 C64 460 48 340 51 226 C53 169 58 111 73 55 C85 10 102 -37 132 -73 C168 -115 226 -139 279 -116 C334 -93 366 -33 388 18 L388 18 Z " />
<glyph glyph-name="D" unicode="D" horiz-adv-x="588" d="M37 -115 C62 -118 88 -114 113 -108 C126 -106 138 -102 150 -98 C159 -95 158 -98 161 -106 C163 -111 166 -118 170 -123 C184 -141 211 -125 203 -104 C202 -100 199 -96 197 -93 C197 -91 195 -89 195 -87 C194 -80 191 -85 198 -80 C209 -72 224 -68 236 -62 C326 -17 408 48 469 128 C530 209 567 305 570 406 C572 501 545 605 460 659 C363 719 240 692 151 630 C151 647 158 694 127 685 C115 682 112 672 112 661 C112 645 112 629 112 613 C112 605 114 601 107 595 C103 591 98 586 94 582 C86 574 73 564 71 552 C69 542 75 533 85 530 C98 526 105 536 113 545 C114 437 116 328 121 220 C124 130 128 43 144 -38 C144 -42 148 -52 147 -55 C145 -62 120 -67 111 -69 C100 -71 90 -74 79 -75 C65 -77 51 -76 37 -76 C11 -78 12 -113 37 -115 L37 -115 Z M159 588 C225 638 314 670 396 646 C479 621 522 534 528 461 C535 377 517 292 484 225 C444 148 384 83 315 32 C274 2 230 -24 184 -44 C181 -29 179 -13 177 2 C153 159 156 301 153 439 C153 484 152 519 152 554 C152 559 152 565 152 571 C151 580 151 581 159 588 L159 588 Z " />
<glyph glyph-name="E" unicode="E" horiz-adv-x="518" d="M42 617 C50 618 72 624 75 619 C77 616 80 588 81 577 C89 516 95 333 95 303 C95 300 89 300 88 298 C80 289 82 279 89 271 C90 269 95 268 95 267 C96 266 95 258 95 257 C95 199 95 168 95 137 C95 74 94 11 92 -52 C92 -54 93 -62 92 -63 C91 -65 81 -64 79 -64 C71 -65 63 -66 55 -68 C44 -71 34 -77 35 -91 C37 -119 74 -104 91 -102 C90 -122 117 -131 127 -113 C129 -111 128 -102 130 -100 C131 -99 145 -100 147 -99 C161 -99 176 -99 190 -99 C243 -98 295 -98 347 -94 C372 -92 396 -90 421 -86 C439 -83 464 -78 478 -65 C496 -48 476 -25 456 -34 C447 -38 438 -42 429 -44 C383 -54 326 -56 274 -58 C226 -59 179 -59 131 -61 C133 7 134 74 134 142 C134 250 134 248 134 267 C151 272 190 275 199 276 C266 281 332 282 399 286 C415 287 466 286 449 317 C441 330 428 327 415 326 C398 325 380 324 363 323 C286 320 210 317 134 309 C132 414 131 522 113 626 C225 639 334 650 442 650 C455 650 475 645 488 649 C499 652 505 664 501 675 C496 687 483 687 472 688 C351 695 242 680 137 668 C129 667 121 666 113 665 C113 665 106 664 105 664 C103 665 101 675 100 678 C96 689 89 699 76 696 C65 693 56 677 62 670 C64 667 65 662 66 659 C51 657 25 660 19 643 C13 627 27 615 42 617 L42 617 Z " />
<glyph glyph-name="F" unicode="F" horiz-adv-x="546" d="M33 622 C44 625 58 624 73 627 C78 615 80 593 81 581 C85 548 88 515 90 482 C92 449 93 415 94 382 C94 365 95 349 95 332 C95 326 98 314 95 310 C94 306 87 304 85 298 C83 294 83 289 85 284 C87 278 93 278 96 273 C99 269 96 257 96 252 C96 210 96 168 96 127 C95 62 94 -3 92 -68 C92 -80 88 -98 95 -108 C101 -118 115 -120 124 -112 C134 -104 131 -87 131 -76 C132 -60 132 -44 132 -27 C134 38 135 104 135 170 C135 187 135 203 135 220 C135 236 136 257 135 272 C160 278 220 283 226 283 C291 287 357 289 422 293 C436 293 456 290 467 299 C477 307 476 323 466 330 C454 338 429 332 416 331 C397 330 379 329 360 329 C285 325 209 323 134 314 C133 420 132 528 113 632 C181 640 250 646 318 651 C352 653 386 655 420 656 C437 656 453 656 470 656 C484 656 506 650 518 657 C528 662 531 676 525 685 C516 696 499 694 487 695 C453 696 419 695 385 694 C318 690 251 685 184 679 C166 677 148 675 130 673 C124 672 108 668 104 672 C100 675 98 688 96 693 C90 701 78 705 69 700 C55 691 61 677 65 666 C50 664 24 666 16 651 C9 640 18 621 33 622 L33 622 Z " />
<glyph glyph-name="G" unicode="G" horiz-adv-x="539" d="M50 26 C67 -21 93 -69 135 -98 C183 -131 247 -137 297 -105 C344 -76 374 -26 397 22 C425 79 443 140 458 201 C462 219 466 237 469 255 C470 258 470 262 471 266 C472 274 471 273 480 274 C487 275 496 274 503 276 C515 280 521 291 515 303 C508 318 491 314 477 313 C478 331 459 347 444 332 C441 329 440 326 439 322 C438 319 439 312 438 311 C436 309 424 310 421 310 C414 309 407 309 399 308 C352 306 304 304 257 304 C247 303 238 304 231 296 C225 290 225 281 229 274 C239 257 268 265 284 265 C334 266 383 268 432 271 C421 205 404 140 379 77 C358 23 330 -27 286 -66 C286 -66 276 -73 273 -75 C248 -88 216 -91 189 -82 C169 -75 149 -63 129 -39 C115 -24 105 -5 98 11 C77 56 67 103 61 148 C54 195 53 244 55 291 C61 384 80 481 124 564 C147 608 188 661 236 661 C282 661 315 625 333 589 C342 572 347 555 351 537 C353 524 351 501 366 494 C373 491 382 493 388 499 C394 505 394 513 392 522 C390 540 386 558 381 575 C370 608 352 641 325 664 C294 692 252 707 212 698 C169 687 136 653 112 619 C58 541 33 443 22 351 C8 244 12 128 50 26 L50 26 Z " />
<glyph glyph-name="H" unicode="H" horiz-adv-x="503" d="M-7 208 C10 223 32 232 53 239 C49 124 46 8 52 -107 C52 -116 51 -128 57 -136 C64 -144 76 -145 84 -138 C94 -130 91 -118 91 -107 C90 -92 89 -77 89 -62 C88 -3 88 56 89 115 C88 138 91 221 92 249 C129 256 219 265 258 267 C304 270 350 272 395 275 C394 156 396 45 396 -74 C396 -90 395 -116 398 -132 C401 -143 413 -150 424 -146 C439 -140 437 -125 437 -112 C437 -79 437 -47 436 -14 C436 50 434 211 434 279 C438 280 449 281 454 281 C466 284 477 293 471 307 C465 324 449 320 434 318 C434 392 435 466 437 540 C438 576 440 612 442 648 C443 660 450 682 442 693 C434 705 417 704 409 692 C403 681 405 663 404 650 C394 556 397 461 395 367 C395 350 395 330 395 314 C374 313 354 311 341 310 C258 306 174 304 93 289 C95 368 98 446 102 525 C104 564 106 603 108 642 C109 656 112 684 112 691 C112 706 91 711 80 702 C72 695 72 674 71 659 C70 638 68 618 67 598 C63 520 60 461 56 368 C55 339 53 312 52 281 C16 271 -27 251 -53 215 C-61 203 -58 184 -40 182 C-25 180 -16 199 -7 208 L-7 208 Z " />
<glyph glyph-name="I" unicode="I" horiz-adv-x="254" d="M42 655 C61 657 81 658 100 660 C98 516 109 91 115 -84 C95 -85 74 -85 54 -88 C39 -91 26 -106 37 -121 C47 -133 65 -126 78 -125 C99 -123 120 -122 141 -122 C160 -121 180 -121 199 -123 C212 -124 230 -127 234 -110 C243 -74 172 -83 153 -83 C149 66 143 297 141 378 C139 455 138 531 139 608 C139 617 139 651 140 661 C162 665 179 665 200 667 C212 667 228 667 232 682 C237 700 219 707 205 706 C161 703 118 700 75 697 C60 696 34 699 25 684 C18 673 27 654 42 655 L42 655 Z " />
<glyph glyph-name="J" unicode="J" horiz-adv-x="493" d="M75 -38 C102 -87 148 -121 204 -129 C261 -137 315 -117 353 -75 C393 -32 415 26 429 83 C444 145 449 209 450 273 C451 405 454 538 447 670 C446 680 446 693 435 698 C417 706 366 697 340 697 C327 697 310 697 307 681 C300 648 353 658 370 659 C374 659 399 662 404 658 C412 651 412 622 411 603 C409 532 411 449 411 374 C411 249 414 144 377 45 C367 17 353 -15 336 -35 C281 -102 190 -120 123 -45 C97 -16 82 43 78 84 C74 126 72 169 75 213 C76 228 83 258 58 258 C37 258 38 234 37 220 C30 135 32 39 75 -38 L75 -38 Z " />
<glyph glyph-name="K" unicode="K" horiz-adv-x="534" d="M496 -100 C460 -88 439 -37 424 -7 C404 32 386 72 366 110 C326 185 275 257 199 299 C287 415 373 534 453 657 C460 667 467 681 455 691 C441 702 428 690 421 679 C401 648 380 617 359 587 C319 527 277 468 234 410 C189 348 142 288 95 228 C96 312 96 396 95 479 C94 522 94 564 92 606 C90 626 89 646 87 665 C86 679 81 696 64 692 C45 689 48 672 49 657 C51 636 52 614 53 593 C55 551 56 509 56 467 C57 384 57 301 56 218 C56 207 57 195 56 184 C54 177 50 173 48 165 C47 162 47 158 49 154 C50 151 54 149 55 146 C58 138 55 122 54 113 C54 70 53 28 51 -15 C51 -35 50 -56 49 -76 C49 -90 41 -117 56 -126 C68 -134 82 -127 86 -114 C91 -95 89 -72 89 -52 C92 8 91 69 94 129 C94 138 94 147 94 156 C94 168 101 173 108 182 C132 212 149 234 175 267 C207 250 247 214 257 203 C314 140 348 60 385 -16 C402 -52 421 -92 452 -119 C463 -128 483 -143 499 -136 C515 -129 513 -105 496 -100 L496 -100 Z " />
<glyph glyph-name="L" unicode="L" horiz-adv-x="486" d="M14 -107 C23 -107 32 -108 41 -108 C40 -120 40 -132 54 -137 C64 -139 74 -134 78 -125 C79 -121 77 -110 79 -108 C82 -106 100 -108 103 -108 C118 -108 134 -108 148 -108 C210 -108 272 -107 334 -105 C365 -103 396 -102 427 -100 C438 -99 454 -100 462 -92 C470 -85 470 -74 464 -66 C455 -55 441 -60 430 -61 C413 -62 397 -63 380 -64 C349 -65 318 -66 287 -67 C218 -69 150 -70 81 -69 C90 153 101 376 89 597 C88 610 87 623 86 636 C85 649 86 664 82 677 C78 695 52 700 45 681 C41 671 46 655 47 644 C48 630 48 616 49 602 C51 574 52 548 53 521 C56 408 54 295 51 183 C50 120 47 57 45 -5 C44 -21 44 -37 43 -52 C43 -56 43 -60 42 -63 C41 -69 43 -68 37 -69 C31 -70 23 -68 16 -68 C-10 -70 -13 -107 14 -107 L14 -107 Z " />
<glyph glyph-name="M" unicode="M" horiz-adv-x="603" d="M39 -87 C39 -106 63 -114 74 -98 C80 -91 78 -80 77 -71 C77 -57 77 -43 76 -29 C75 21 74 71 74 121 C74 223 75 324 78 425 C80 482 82 539 84 597 C138 483 183 365 232 249 C239 234 246 219 252 204 C257 193 261 173 273 168 C281 165 291 167 297 174 C307 186 313 206 320 220 C350 280 379 341 409 401 C443 469 478 537 515 603 C514 460 512 316 512 172 C513 102 514 32 517 -38 C518 -56 518 -75 519 -93 C520 -106 522 -124 539 -124 C554 -123 559 -111 558 -99 C558 -80 557 -62 556 -44 C551 99 551 242 552 385 C553 456 553 528 554 599 C554 617 554 634 554 652 C554 664 558 682 547 691 C524 712 507 669 499 654 C420 516 353 373 282 232 C249 307 218 384 186 460 C169 501 152 541 134 581 C126 600 117 618 109 636 C104 645 99 655 94 664 C90 674 86 686 77 691 C63 698 50 688 48 674 C45 651 46 626 45 602 C43 560 42 518 40 476 C38 387 36 299 35 210 C35 111 36 12 39 -87 L39 -87 Z " />
<glyph glyph-name="N" unicode="N" horiz-adv-x="571" d="M58 -91 C58 -109 80 -117 92 -104 C98 -97 97 -89 96 -80 C96 -68 96 -56 95 -44 C94 3 93 51 93 98 C93 192 94 287 96 381 C97 435 99 489 101 542 C137 405 171 268 214 133 C233 71 254 8 287 -48 C313 -94 364 -145 419 -109 C468 -76 485 -5 497 49 C512 118 519 189 524 259 C529 328 531 397 533 466 C534 502 535 539 536 576 C536 592 537 609 537 626 C537 634 538 642 538 650 C538 659 540 669 537 677 C533 688 519 692 509 686 C496 679 499 660 499 648 C498 612 497 576 496 540 C495 470 493 400 489 330 C485 262 481 194 471 126 C462 66 453 -2 419 -54 C408 -71 388 -89 366 -79 C340 -68 324 -36 312 -12 C282 45 263 107 244 169 C202 304 168 441 132 578 C123 610 117 644 105 675 C101 685 92 692 80 688 C65 683 67 666 66 653 C63 582 60 510 58 438 C54 297 52 155 55 13 C56 -22 57 -57 58 -91 L58 -91 Z M473 140 C473 140 473 140 473 140 C473 140 473 140 473 140 L473 140 Z " />
<glyph glyph-name="O" unicode="O" horiz-adv-x="578" d="M59 53 C80 -9 114 -73 172 -109 C230 -145 301 -141 358 -106 C478 -32 522 154 533 279 C539 355 534 434 513 508 C495 573 463 638 406 677 C352 714 276 726 215 699 C154 672 115 613 91 552 C77 514 68 473 63 433 C62 422 62 412 59 402 C50 371 42 341 37 309 C25 223 30 136 59 53 L59 53 Z M74 157 C74 160 74 157 74 156 C74 156 74 157 74 157 L74 157 Z M71 254 C85 201 107 148 136 102 C151 80 168 58 188 40 C200 28 227 -1 246 6 C255 9 260 19 259 28 C257 40 243 45 234 52 C216 65 200 81 186 99 C136 163 105 245 100 323 C99 339 99 355 99 371 C99 386 98 399 105 411 C101 405 109 421 109 422 C112 428 115 433 118 439 C134 468 152 491 175 509 C206 535 245 552 284 557 C289 558 352 550 338 585 C333 597 321 597 310 597 C294 597 277 596 262 592 C205 581 154 550 117 507 C135 568 169 636 231 664 C286 689 358 671 402 631 C456 581 478 506 489 435 C501 360 498 282 484 207 C460 90 415 -54 305 -88 C269 -100 230 -98 197 -79 C132 -41 100 39 83 109 C72 157 69 205 71 254 L71 254 Z " />
<glyph glyph-name="P" unicode="P" horiz-adv-x="553" d="M18 147 C36 146 52 146 70 146 C69 79 68 11 63 -56 C62 -73 61 -89 60 -105 C59 -118 63 -133 79 -133 C90 -133 97 -124 99 -113 C101 -95 103 -71 104 -53 C109 27 111 148 111 148 C161 149 250 169 298 188 C411 233 516 324 534 450 C543 509 531 570 490 615 C450 660 392 681 334 690 C296 696 258 697 220 695 C171 693 125 682 107 679 C101 682 101 690 92 692 C87 693 80 691 76 687 C70 682 73 677 69 671 C66 667 50 664 44 663 C28 660 19 648 27 634 C36 616 55 625 70 629 C73 505 74 381 74 257 C74 247 72 199 72 187 C48 185 20 192 7 183 C-9 172 -1 148 18 147 L18 147 Z M109 640 C181 656 271 664 344 649 C379 641 414 629 442 607 C502 568 507 485 489 425 C459 319 361 255 270 219 C220 201 166 191 112 187 C114 265 114 343 113 421 C111 494 110 567 109 640 L109 640 Z " />
<glyph glyph-name="Q" unicode="Q" horiz-adv-x="590" d="M93 -54 C131 -100 186 -131 246 -133 C309 -135 369 -107 413 -64 C438 -92 466 -119 495 -142 C506 -150 522 -167 536 -167 C551 -167 559 -152 552 -138 C549 -132 534 -123 518 -111 C498 -96 455 -56 439 -35 C448 -25 469 7 472 14 C509 78 532 151 545 225 C558 302 559 379 542 456 C527 522 498 591 451 641 C404 690 338 718 271 715 C239 714 207 704 184 681 C143 640 140 588 141 553 C141 546 139 547 133 543 C119 532 106 520 93 507 C69 480 50 450 36 417 C4 341 -6 253 3 172 C11 91 40 9 93 -54 L93 -54 Z M292 560 C303 560 319 557 329 563 C338 570 342 583 334 591 C324 600 279 599 262 595 C234 591 206 583 181 571 C182 589 185 607 193 624 C198 636 209 653 217 658 C256 687 317 677 354 662 C440 621 484 535 504 445 C526 349 516 246 487 150 C471 95 448 42 414 -5 C346 79 292 174 249 272 C228 322 210 374 197 426 C191 450 186 474 183 498 C182 505 182 511 181 518 C180 527 181 528 190 532 C224 549 258 557 292 560 L292 560 Z M40 260 C46 349 74 441 143 501 C155 395 195 292 242 196 C264 150 290 104 318 61 C326 49 388 -31 388 -34 C387 -39 369 -52 366 -54 C314 -82 274 -113 193 -83 C71 -22 32 133 40 260 L40 260 Z " />
<glyph glyph-name="R" unicode="R" horiz-adv-x="603" d="M40 149 C58 149 77 149 95 149 C94 100 92 52 89 3 C88 -22 86 -48 85 -73 C84 -100 80 -127 96 -129 C120 -132 121 -109 122 -94 C124 -69 125 -44 127 -19 C130 32 132 83 134 134 C244 63 362 6 485 -42 C499 -48 514 -53 529 -59 C541 -63 557 -74 570 -65 C578 -59 580 -48 575 -40 C569 -28 550 -25 539 -21 C481 0 424 24 368 50 C301 81 237 116 174 155 C335 175 521 265 555 440 C571 523 545 606 471 652 C397 699 300 704 216 695 C189 693 163 689 137 683 C128 681 130 683 125 688 C122 692 118 694 113 695 C105 695 96 690 93 682 C91 677 92 674 89 672 C77 663 54 666 49 651 C46 642 51 631 59 627 C70 622 82 629 92 632 C94 532 97 432 97 332 C97 265 95 227 95 189 C84 186 39 190 30 185 C12 175 22 150 40 149 L40 149 Z M366 651 C468 629 531 565 519 462 C509 348 395 258 293 222 C242 204 189 194 135 190 C137 267 136 345 135 423 C135 463 133 602 131 642 C168 657 308 664 366 651 L366 651 Z " />
<glyph glyph-name="S" unicode="S" horiz-adv-x="552" d="M171 254 C206 236 244 223 281 210 C342 188 471 145 488 88 C493 70 493 51 490 33 C481 -17 445 -49 405 -69 C354 -93 290 -95 238 -85 C207 -80 168 -70 145 -50 C121 -29 105 -3 113 30 C117 44 133 64 118 76 C95 95 81 60 77 44 C63 -5 83 -51 122 -81 C163 -113 215 -124 266 -128 C353 -134 455 -112 505 -33 C530 6 539 59 525 103 C509 149 466 175 424 194 C367 222 307 242 247 264 C188 286 136 315 95 359 C56 406 45 467 63 524 C75 559 100 590 128 612 C217 674 337 678 429 614 C461 591 487 538 480 495 C477 480 463 459 481 448 C519 426 522 517 520 535 C510 619 427 674 351 693 C196 731 -3 626 17 447 C27 358 94 292 171 254 L171 254 Z " />
<glyph glyph-name="T" unicode="T" horiz-adv-x="470" d="M-21 608 C61 626 144 638 228 646 C227 458 220 270 215 83 C213 38 213 -6 216 -51 C217 -70 223 -165 259 -145 C279 -135 266 -113 262 -97 C257 -80 255 -63 255 -45 C252 2 253 49 254 96 C257 191 260 285 263 380 C265 454 267 524 267 594 C267 634 267 642 268 649 C281 656 541 655 561 654 C577 654 607 645 615 664 C623 685 600 691 586 692 C539 695 493 696 446 696 C400 695 354 694 308 691 C298 691 287 690 277 689 C263 688 266 694 256 700 C250 703 242 702 236 698 C228 690 228 684 215 684 C169 679 122 673 77 666 C54 662 32 658 9 654 C-7 651 -38 651 -44 633 C-50 619 -36 605 -21 608 L-21 608 Z " />
<glyph glyph-name="U" unicode="U" horiz-adv-x="571" d="M540 191 C540 288 541 385 544 481 C545 529 547 577 548 624 C549 641 557 675 535 681 C514 688 510 664 510 649 C507 604 501 558 496 515 C483 420 464 319 439 224 C417 146 381 30 334 -26 C287 -90 236 -102 182 -49 C98 33 68 330 72 444 C72 516 79 586 86 657 C88 672 71 687 55 676 C47 669 47 659 46 649 C44 636 43 622 42 609 C36 556 33 503 33 449 C30 297 48 -9 183 -99 C221 -124 268 -124 308 -101 C346 -79 373 -41 394 -4 C450 95 478 210 502 320 C500 179 503 54 508 -71 C510 -86 506 -119 530 -118 C556 -117 548 -85 547 -68 C546 -42 544 -16 543 10 C541 71 540 131 540 191 L540 191 Z " />
<glyph glyph-name="V" unicode="V" horiz-adv-x="609" d="M363 -30 C420 75 455 192 489 306 C525 426 556 548 586 669 C589 680 593 691 583 700 C576 706 564 706 557 699 C548 691 547 672 544 661 C540 646 537 631 533 616 C517 556 502 495 486 435 C453 318 419 199 373 86 C354 37 332 -13 301 -56 C290 -71 274 -92 254 -95 C233 -98 214 -80 203 -64 C171 -20 157 36 145 88 C133 141 124 195 116 250 C100 372 91 495 83 618 C82 630 85 645 78 655 C72 664 61 666 51 660 C39 652 43 637 44 625 C45 609 46 593 47 578 C51 515 56 452 62 389 C73 269 85 145 120 28 C134 -18 151 -71 187 -106 C205 -123 229 -136 255 -134 C281 -132 302 -115 318 -96 C336 -77 350 -53 363 -30 L363 -30 Z " />
<glyph glyph-name="W" unicode="W" horiz-adv-x="760" d="M352 76 C359 108 365 140 369 172 C375 126 382 80 395 36 C406 -3 421 -45 449 -75 C476 -105 520 -119 557 -101 C593 -82 614 -42 630 -7 C668 79 684 176 697 269 C711 366 718 463 722 561 C723 585 723 608 724 632 C724 649 731 683 710 690 C686 697 685 670 685 655 C685 630 684 605 683 581 C681 483 674 386 661 290 C649 200 634 108 600 23 C588 -8 571 -50 540 -66 C502 -85 471 -45 456 -16 C418 57 410 146 403 226 C394 322 392 419 392 516 C392 526 394 536 388 544 C382 551 373 553 365 549 C347 541 353 512 353 496 C353 447 351 397 347 347 C342 259 333 171 314 85 C305 42 295 -1 277 -41 C231 -149 177 -112 142 -25 C126 18 116 63 108 108 C92 203 85 300 82 397 C80 446 80 496 80 545 C80 570 80 595 81 620 C81 632 81 643 81 655 C81 665 84 677 76 685 C61 700 44 685 43 668 C41 644 41 619 41 594 C40 545 40 497 42 448 C43 350 49 251 62 154 C68 107 76 60 89 15 C100 -27 115 -71 141 -105 C165 -136 203 -159 242 -143 C278 -129 298 -89 313 -56 C331 -13 343 31 352 76 L352 76 Z " />
<glyph glyph-name="X" unicode="X" horiz-adv-x="588" d="M59 -113 C146 15 235 143 321 271 C386 151 451 29 516 -91 C522 -101 527 -117 539 -121 C548 -125 558 -120 563 -111 C569 -99 559 -87 553 -76 C523 -22 494 32 464 87 C436 140 407 194 379 247 C370 262 357 288 347 308 C364 341 387 370 406 401 C439 451 472 502 503 553 C520 579 536 605 552 631 C557 640 565 649 565 660 C564 670 555 678 544 677 C529 676 522 658 515 647 C488 603 461 559 434 515 C398 459 362 403 325 347 C279 432 233 517 186 602 C174 623 162 644 150 665 C146 673 143 682 134 685 C125 688 115 685 110 677 C101 663 107 637 113 622 C116 615 120 606 127 602 C133 598 140 600 144 597 C146 595 148 590 149 587 C200 496 251 404 298 310 C293 299 283 284 276 274 C236 213 196 155 154 95 C116 41 80 -15 41 -69 C35 -78 24 -89 22 -99 C18 -121 47 -130 59 -113 L59 -113 Z " />
<glyph glyph-name="Y" unicode="Y" horiz-adv-x="521" d="M268 113 C322 138 356 198 380 250 C409 311 429 376 446 441 C440 341 434 240 427 140 C424 92 421 44 418 -5 C417 -27 415 -49 410 -70 C407 -82 404 -92 400 -103 C399 -106 398 -109 397 -112 C397 -113 394 -119 396 -114 C389 -132 406 -152 424 -141 C432 -136 434 -124 437 -115 C442 -103 445 -89 448 -76 C460 -23 460 33 463 87 C470 198 477 308 484 418 C487 473 491 527 494 582 C496 609 498 635 499 661 C500 677 504 713 475 704 C464 700 462 691 460 680 C458 667 455 653 452 640 C447 613 441 587 435 560 C423 507 410 454 394 401 C379 350 361 298 336 250 C321 221 286 160 248 146 C159 114 122 231 107 296 C84 388 79 485 77 580 C76 605 76 630 76 655 C76 664 78 673 72 680 C66 687 57 689 49 685 C31 677 37 647 37 631 C37 606 38 581 38 556 C41 460 48 361 74 267 C86 222 104 173 137 138 C172 102 222 92 268 113 L268 113 Z " />
<glyph glyph-name="Z" unicode="Z" horiz-adv-x="572" d="M29 -126 C155 -114 281 -109 407 -100 C422 -99 436 -98 450 -97 C463 -96 480 -98 492 -92 C500 -87 504 -78 500 -68 C495 -55 483 -55 471 -56 C409 -61 346 -65 284 -69 C213 -73 142 -77 71 -83 C127 -8 180 69 234 146 C288 224 343 301 397 379 C423 417 448 455 472 495 C495 532 518 571 532 613 C539 631 545 653 532 670 C510 699 378 695 342 693 C249 690 156 681 64 676 C47 675 30 662 42 645 C53 629 83 638 98 639 C146 642 193 646 241 649 C288 652 336 654 383 655 C401 656 497 659 500 644 C503 628 462 554 453 539 C430 500 405 462 380 424 C327 345 272 268 218 191 C164 114 112 37 56 -39 C44 -55 31 -72 18 -88 C18 -88 19 -88 19 -87 C14 -94 8 -101 10 -110 C12 -118 20 -126 29 -126 L29 -126 Z " />
<glyph glyph-name="bracketleft" unicode="&#x5b;" horiz-adv-x="289" d="M226 628 C198 638 166 642 136 641 C111 640 80 637 68 612 C57 587 58 553 56 525 C54 494 53 462 52 430 C49 299 49 167 61 37 C64 9 65 -22 74 -49 C82 -75 101 -83 126 -86 C155 -89 187 -89 216 -83 C226 -81 236 -76 237 -64 C238 -51 226 -43 214 -44 C186 -45 159 -50 131 -47 C127 -47 116 -47 113 -44 C111 -42 110 -33 109 -30 C106 -17 104 -3 103 11 C95 75 93 140 91 204 C89 277 89 350 91 423 C92 460 93 497 95 534 C97 550 98 565 100 581 C101 585 102 594 106 597 C108 599 119 601 120 601 C150 602 178 602 207 593 C218 590 230 586 237 599 C244 610 237 623 226 628 L226 628 Z M205 -46 C205 -46 204 -46 204 -46 C204 -46 205 -46 205 -46 L205 -46 Z M202 -46 C201 -46 202 -46 202 -46 L202 -46 L202 -46 Z M125 -46 C125 -46 125 -46 125 -46 C126 -47 127 -47 125 -46 L125 -46 Z " />
<glyph glyph-name="backslash" unicode="&#x5c;" horiz-adv-x="427" d="M271 210 C223 314 176 418 131 522 C122 545 112 567 103 590 C98 602 92 614 88 626 C83 636 80 651 70 658 C61 663 49 659 43 650 C37 639 46 626 50 615 C61 589 72 562 83 536 C129 429 176 323 225 217 C249 164 274 112 299 60 C311 34 324 8 337 -18 C343 -31 349 -43 355 -55 C360 -66 364 -83 374 -91 C382 -98 395 -96 402 -87 C410 -75 401 -62 396 -51 C382 -22 368 6 354 35 C326 93 298 152 271 210 L271 210 Z " />
<glyph glyph-name="bracketright" unicode="&#x5d;" horiz-adv-x="311" d="M251 490 C249 525 248 559 243 594 C241 607 238 622 229 632 C220 641 205 645 192 647 C160 652 124 649 93 640 C80 637 63 632 64 616 C65 599 81 596 93 600 C121 608 152 613 181 610 C194 608 200 608 203 595 C206 579 207 563 209 547 C214 476 215 404 215 332 C215 262 213 191 209 120 C208 84 205 48 201 13 C199 1 198 -10 195 -22 C193 -30 194 -34 187 -37 C181 -40 171 -39 165 -40 C148 -41 131 -40 114 -39 C103 -38 89 -32 79 -37 C68 -42 64 -56 71 -66 C78 -77 98 -77 111 -78 C126 -79 142 -79 157 -79 C175 -78 195 -78 211 -70 C235 -56 236 -16 240 9 C250 87 251 167 253 246 C254 328 254 409 251 490 L251 490 Z M199 606 C199 606 199 603 199 606 L199 606 Z M201 604 C201 604 204 601 201 604 L201 604 Z M99 -38 C100 -38 100 -38 100 -38 C100 -38 100 -38 99 -38 L99 -38 Z M102 -38 C103 -38 103 -38 102 -38 L102 -38 L102 -38 Z M179 -38 C177 -39 178 -39 180 -38 C179 -38 179 -38 179 -38 L179 -38 Z " />
<glyph glyph-name="asciicircum" unicode="&#x5e;" horiz-adv-x="218" d="M59 502 C78 492 86 510 93 524 C102 546 112 567 121 589 C127 563 132 537 137 511 C140 501 140 488 149 482 C156 477 165 477 172 482 C188 494 174 525 171 540 C166 565 161 590 156 615 C152 632 153 669 131 672 C109 675 103 643 96 628 C86 604 76 581 65 558 C59 544 38 513 59 502 L59 502 Z " />
<glyph glyph-name="underscore" unicode="&#x5f;" horiz-adv-x="410" d="M321 -91 C268 -91 215 -93 161 -96 C147 -97 132 -98 117 -99 C107 -100 95 -99 85 -104 C69 -113 75 -138 94 -140 C106 -141 121 -138 134 -137 C147 -136 159 -135 172 -134 C199 -133 226 -131 253 -131 C266 -130 280 -130 294 -130 C304 -130 319 -133 329 -128 C348 -120 342 -91 321 -91 L321 -91 Z " />
<glyph glyph-name="grave" unicode="&#x60;" horiz-adv-x="210" d="M117 635 C110 644 103 654 97 664 C91 674 83 684 70 681 C36 672 73 628 83 615 C92 603 102 592 112 581 C120 573 129 564 141 570 C173 585 127 622 117 635 L117 635 Z " />
<glyph glyph-name="a" unicode="a" horiz-adv-x="450" d="M390 459 C362 465 363 429 360 411 C355 384 352 357 348 330 C339 367 325 406 295 433 C267 458 228 465 192 455 C121 436 76 368 52 303 C22 222 19 133 39 50 C56 -21 100 -117 184 -120 C278 -124 320 -11 341 62 C344 1 351 -60 360 -121 C362 -132 364 -142 376 -145 C386 -148 397 -142 399 -132 C402 -121 397 -108 396 -98 C394 -87 393 -75 391 -64 C376 55 370 179 386 298 C390 330 393 362 398 394 C400 411 414 453 390 459 L390 459 Z M327 173 C314 105 299 33 263 -27 C250 -49 229 -76 203 -80 C108 -96 76 48 67 110 C61 167 66 223 84 277 C100 326 128 378 173 405 C192 416 214 423 235 420 C262 416 279 398 291 376 C307 345 314 310 320 276 C325 243 333 206 327 173 L327 173 Z " />
<glyph glyph-name="b" unicode="b" horiz-adv-x="494" d="M441 140 C446 236 430 347 366 418 C338 449 300 465 259 457 C210 449 176 409 153 368 C125 317 110 259 98 202 C101 307 104 411 107 515 C108 565 113 616 111 666 C111 685 89 698 76 680 C71 673 72 659 72 650 C72 636 71 623 71 609 C65 403 57 196 56 -11 C55 -38 55 -65 56 -93 C56 -103 55 -119 64 -127 C70 -133 82 -134 89 -128 C98 -120 97 -106 98 -96 C100 -81 102 -67 103 -52 C106 -23 109 7 112 36 C122 -11 143 -61 180 -93 C217 -124 266 -131 310 -113 C403 -74 434 50 441 140 L441 140 Z M374 18 C357 -23 322 -81 274 -83 C227 -85 212 -73 191 -49 C177 -31 166 -9 160 11 C151 36 146 62 145 88 C145 105 157 147 127 144 C137 204 150 265 174 321 C189 360 223 415 267 419 C298 422 318 412 337 393 C374 352 389 295 397 246 C410 170 402 90 374 18 L374 18 Z " />
<glyph glyph-name="c" unicode="c" horiz-adv-x="412" d="M188 459 C118 438 74 372 52 306 C26 226 22 133 40 51 C57 -23 99 -101 180 -116 C257 -129 325 -79 354 -10 C358 0 362 10 365 21 C367 30 372 45 370 54 C365 71 342 73 334 59 C330 52 330 44 329 37 C317 -4 297 -43 260 -65 C230 -82 195 -83 167 -74 C125 -56 79 12 70 112 C67 149 69 187 74 223 C85 307 130 426 228 426 C262 426 286 403 301 377 C306 370 311 352 312 347 C312 336 312 321 324 316 C335 312 347 318 351 329 C358 352 343 384 332 403 C301 452 244 476 188 459 L188 459 Z " />
<glyph glyph-name="d" unicode="d" horiz-adv-x="454" d="M343 85 C345 36 347 -13 350 -62 C351 -74 352 -86 353 -98 C354 -107 354 -119 363 -124 C369 -129 378 -129 384 -125 C394 -119 393 -108 394 -98 C398 -48 397 2 398 52 C398 103 398 153 399 204 C400 305 401 405 404 506 C406 556 407 605 411 655 C411 664 415 675 409 684 C404 691 394 694 386 691 C367 683 371 650 370 634 C363 519 362 404 361 289 C346 359 314 455 227 454 C142 453 85 372 57 301 C23 217 15 121 40 34 C58 -33 102 -111 179 -118 C281 -128 336 1 343 85 L343 85 Z M317 148 C296 141 305 115 305 99 C304 79 301 59 295 40 C280 -13 242 -86 180 -80 C103 -66 76 28 67 93 C60 147 67 207 84 261 C107 333 155 423 240 414 C293 401 309 338 320 294 C332 242 337 189 340 137 C337 145 326 151 317 148 L317 148 Z " />
<glyph glyph-name="e" unicode="e" horiz-adv-x="396" d="M255 445 C181 467 110 419 72 358 C32 293 19 213 21 138 C22 66 38 -14 89 -68 C139 -121 220 -129 281 -90 C314 -68 338 -33 351 5 C356 19 368 47 356 60 C344 74 326 65 322 50 C316 19 306 -10 285 -35 C246 -78 185 -90 138 -59 C68 -13 58 97 63 167 C122 171 166 169 212 171 C262 171 302 173 341 173 C351 174 360 176 365 186 C369 197 367 212 367 223 C367 267 361 306 349 343 C333 388 302 430 255 445 L255 445 Z M327 212 C239 210 152 208 64 206 C71 275 95 352 156 391 C182 409 215 416 246 406 C277 397 295 370 307 342 C323 302 328 257 327 212 L327 212 Z " />
<glyph glyph-name="f" unicode="f" horiz-adv-x="290" d="M22 359 C45 362 67 364 90 365 C92 274 92 182 92 91 C92 45 92 -1 91 -46 C91 -66 90 -85 90 -104 C90 -121 106 -138 122 -124 C135 -113 130 -85 130 -70 C130 -46 130 -22 130 2 C131 48 131 95 131 141 C131 185 131 229 130 273 C130 298 128 352 129 366 C143 367 161 367 171 367 C196 367 221 367 246 368 C256 368 266 367 273 377 C277 384 277 393 271 400 C264 408 255 407 245 407 C232 406 219 406 206 406 C180 406 154 406 129 405 C129 441 129 483 134 516 C143 572 165 679 242 657 C253 653 262 636 266 622 C271 606 268 554 299 569 C322 580 307 627 300 645 C289 671 267 694 237 698 C183 706 141 667 121 621 C97 566 92 503 90 445 C89 437 89 417 89 407 C54 404 24 399 17 398 C4 396 -13 392 -10 373 C-7 357 9 358 22 359 L22 359 Z " />
<glyph glyph-name="g" unicode="g" horiz-adv-x="449" d="M120 -309 C120 -294 114 -277 95 -284 C76 -290 80 -323 81 -338 C84 -384 109 -423 149 -445 C190 -469 243 -472 287 -452 C328 -433 358 -396 370 -352 C385 -303 381 -246 382 -195 C383 -140 383 -86 383 -32 C384 77 383 187 391 295 C392 324 396 353 399 381 C401 397 413 432 398 443 C390 449 377 447 371 440 C363 431 364 412 362 400 C358 371 355 341 352 311 C343 348 330 388 302 415 C275 443 234 452 196 443 C124 426 77 355 53 289 C23 209 20 121 42 39 C61 -30 107 -115 188 -118 C281 -122 323 -13 345 60 C344 -53 346 -167 341 -279 C339 -321 333 -364 302 -395 C271 -426 222 -434 181 -418 C135 -400 115 -357 120 -309 L120 -309 Z M329 165 C320 114 308 63 288 14 C274 -19 253 -61 216 -75 C179 -89 142 -66 120 -36 C69 34 58 158 76 227 C98 312 141 392 214 407 C252 415 280 385 297 353 C319 311 337 229 329 165 L329 165 Z " />
<glyph glyph-name="h" unicode="h" horiz-adv-x="457" d="M360 294 C376 254 381 211 384 169 C388 118 388 67 388 17 C387 -9 387 -34 386 -60 C386 -76 381 -108 407 -105 C429 -103 425 -75 425 -59 C426 -33 426 -8 426 17 C427 67 427 116 423 166 C420 211 415 259 399 302 C385 338 361 374 322 385 C280 397 239 377 209 348 C173 313 149 268 130 223 C108 174 91 122 76 70 C80 220 86 371 91 521 C92 560 93 598 94 636 C95 650 100 673 92 685 C84 697 66 696 59 684 C52 672 56 650 55 636 C55 616 54 596 54 576 C53 539 51 502 50 465 C45 312 39 158 35 4 C35 -33 33 -70 35 -107 C35 -119 38 -132 52 -134 C71 -136 73 -118 76 -104 C89 -31 107 41 129 112 C150 177 175 245 217 299 C235 323 261 348 292 349 C327 351 348 324 360 294 L360 294 Z " />
<glyph glyph-name="i" unicode="i" horiz-adv-x="135" d="M47 -1 C48 -21 48 -41 48 -61 C48 -70 49 -79 49 -88 C49 -97 48 -109 51 -117 C56 -129 72 -132 82 -124 C94 -114 88 -88 87 -73 C86 6 87 87 88 167 C90 245 95 323 94 402 C94 415 86 430 71 426 C53 423 55 402 55 388 C54 349 53 309 51 269 C49 179 48 89 47 -1 L47 -1 Z M78 506 C103 506 102 546 77 546 C52 545 54 506 78 506 L78 506 Z " />
<glyph glyph-name="j" unicode="j" horiz-adv-x="162" d="M101 541 C76 541 76 502 101 502 C126 502 126 541 101 541 L101 541 Z M100 420 C75 419 80 384 79 367 C77 286 76 203 76 122 C75 12 79 -99 70 -209 C66 -255 62 -311 42 -351 C21 -390 -4 -428 -55 -427 C-87 -426 -110 -399 -123 -369 C-135 -341 -132 -319 -135 -291 C-135 -298 -134 -284 -134 -282 C-135 -274 -140 -266 -148 -264 C-170 -259 -173 -282 -174 -298 C-176 -338 -166 -381 -142 -414 C-92 -481 4 -476 52 -412 C104 -343 108 -243 112 -160 C116 -66 114 29 115 123 C116 204 116 285 118 366 C119 382 128 421 100 420 L100 420 Z " />
<glyph glyph-name="k" unicode="k" horiz-adv-x="351" d="M260 29 C228 88 205 146 183 206 C223 218 258 256 276 293 C287 315 310 363 280 381 C242 404 202 335 187 311 C174 291 163 270 152 249 C147 241 138 238 136 228 C135 224 137 221 136 218 C136 213 131 206 129 201 C105 150 84 96 67 42 C66 171 69 300 74 429 C77 492 80 556 85 619 C85 634 86 650 88 665 C89 677 93 692 82 701 C74 707 63 707 56 700 C47 691 49 673 49 662 C39 533 34 403 30 274 C29 209 28 145 28 81 C27 49 28 16 28 -16 C29 -48 26 -82 30 -113 C32 -125 42 -135 54 -132 C70 -128 69 -113 72 -100 C77 -67 86 -34 95 -2 C111 56 132 112 156 167 C191 81 230 -4 280 -83 C289 -97 301 -128 320 -129 C328 -130 335 -125 337 -118 C343 -107 337 -100 330 -91 C305 -52 281 -12 260 29 L260 29 Z M221 290 C230 304 238 316 249 328 C240 303 226 284 206 266 C211 274 216 283 221 290 L221 290 Z " />
<glyph glyph-name="l" unicode="l" horiz-adv-x="185" d="M118 403 C131 454 140 505 145 557 C147 581 149 607 147 632 C146 649 144 681 130 693 C92 725 78 612 75 595 C68 543 64 491 62 439 C60 397 65 337 46 306 C42 297 38 289 34 280 C29 273 23 266 24 257 C25 239 47 234 58 247 C59 160 62 73 73 -13 C77 -44 79 -91 103 -115 C115 -126 134 -127 144 -114 C148 -108 149 -101 146 -94 C143 -87 133 -82 128 -83 C126 -77 124 -70 122 -64 C116 -36 112 -10 109 19 C105 62 102 105 100 148 C98 191 98 234 97 277 C97 297 94 322 100 341 C107 362 113 382 118 403 L118 403 Z " />
<glyph glyph-name="m" unicode="m" horiz-adv-x="603" d="M514 317 C548 232 543 133 538 44 C536 -5 532 -54 530 -103 C530 -119 531 -151 556 -141 C576 -133 569 -101 570 -85 C575 14 585 112 576 210 C570 287 549 400 457 414 C350 431 323 285 310 209 C305 253 299 298 284 340 C272 373 249 411 208 410 C169 409 140 376 122 344 C101 305 88 262 78 219 C77 238 77 257 77 276 C77 291 83 319 68 329 C57 337 41 329 39 316 C37 304 38 260 38 251 C39 166 40 81 39 -5 C39 -25 39 -46 38 -66 C38 -82 30 -110 46 -121 C58 -129 73 -121 76 -108 C81 -88 78 -64 80 -44 C85 38 94 120 113 199 C122 240 134 282 153 319 C161 334 171 351 186 362 C234 398 254 312 259 284 C267 248 271 212 275 176 C282 88 282 0 289 -87 C290 -101 298 -117 315 -110 C333 -103 328 -80 328 -65 C329 -21 331 22 334 65 C339 144 346 225 372 300 C381 328 398 372 432 377 C472 382 500 350 514 317 L514 317 Z M433 377 C433 377 433 377 434 377 C433 377 433 377 433 377 L433 377 Z " />
<glyph glyph-name="n" unicode="n" horiz-adv-x="447" d="M66 -117 C73 -76 72 -33 75 8 C78 45 81 82 86 119 C96 189 110 262 144 324 C171 373 220 418 281 404 C346 389 364 304 373 248 C385 173 384 97 382 21 C381 -19 379 -59 379 -99 C379 -113 383 -131 402 -128 C420 -124 418 -104 418 -90 C419 -9 424 71 421 152 C418 223 412 301 379 365 C363 397 338 426 303 438 C269 450 230 447 198 432 C127 399 93 320 73 249 C73 274 73 298 73 323 C73 339 81 376 59 382 C52 385 44 382 39 376 C32 368 34 357 34 347 C35 322 34 297 34 272 C33 171 32 71 30 -29 C29 -56 25 -85 27 -112 C29 -132 62 -140 66 -117 L66 -117 Z " />
<glyph glyph-name="o" unicode="o" horiz-adv-x="461" d="M41 334 C34 319 14 284 42 279 C23 227 20 171 25 116 C29 65 40 14 63 -32 C87 -77 124 -117 175 -129 C222 -141 272 -131 312 -104 C399 -44 430 81 429 181 C428 275 402 394 314 446 C264 476 200 474 149 447 C102 423 65 380 41 334 L41 334 Z M104 314 C128 345 155 362 191 359 C196 359 201 357 206 358 C219 360 226 373 220 385 C215 399 196 398 183 398 C165 399 147 395 130 387 C186 438 270 445 324 388 C378 330 393 236 390 160 C388 87 355 -22 297 -67 C250 -103 191 -108 143 -71 C72 -16 54 122 66 205 C72 243 82 282 104 314 L104 314 Z " />
<glyph glyph-name="p" unicode="p" horiz-adv-x="490" d="M419 379 C403 411 380 443 347 460 C310 480 265 476 229 456 C152 414 121 313 102 234 C89 183 82 130 76 78 C77 144 79 209 81 275 C83 325 85 372 85 419 C86 432 88 448 74 454 C41 467 46 413 46 398 C44 366 43 334 43 302 C41 237 39 172 37 107 C34 -24 31 -156 29 -288 C28 -321 28 -354 27 -388 C27 -402 27 -417 27 -432 C27 -447 24 -465 27 -480 C28 -491 38 -499 49 -497 C62 -495 65 -484 66 -473 C67 -439 66 -406 68 -372 C72 -300 82 -228 89 -156 C97 -84 104 -12 112 60 C121 3 138 -59 180 -101 C220 -141 286 -159 336 -128 C384 -98 413 -41 430 10 C450 67 460 127 460 187 C461 252 448 319 419 379 L419 379 Z M421 175 C417 104 407 48 385 0 C358 -52 330 -109 266 -103 C205 -99 176 -32 161 15 C156 32 153 50 151 68 C149 83 147 97 147 111 C146 125 142 145 123 140 C132 196 144 252 164 305 C187 366 232 444 305 434 C346 427 374 388 388 354 C406 306 423 236 421 175 L421 175 Z " />
<glyph glyph-name="q" unicode="q" horiz-adv-x="471" d="M417 456 C398 455 398 435 396 420 C395 397 393 375 392 352 C389 308 387 265 386 221 C372 306 344 429 250 459 C165 487 99 417 65 348 C22 260 5 159 16 62 C26 -25 64 -139 166 -150 C282 -163 343 -34 363 61 C369 -44 374 -150 378 -256 C380 -309 381 -361 381 -413 C382 -439 381 -465 382 -490 C382 -500 384 -509 394 -513 C402 -517 412 -514 417 -506 C424 -498 421 -485 421 -476 C421 -462 421 -448 421 -434 C420 -407 420 -380 420 -353 C419 -300 419 -247 419 -195 C419 -88 419 19 422 126 C423 185 425 243 428 301 C429 331 431 361 433 391 C434 408 448 457 417 456 L417 456 Z M351 133 C331 132 332 111 330 96 C330 97 331 98 331 100 C325 66 316 27 303 -2 C261 -95 191 -147 124 -95 C88 -64 64 0 57 50 C44 131 53 211 79 281 C99 335 129 401 182 421 C220 436 263 418 286 388 C337 314 350 219 358 132 C356 133 354 133 351 133 L351 133 Z " />
<glyph glyph-name="r" unicode="r" horiz-adv-x="462" d="M243 477 C144 437 110 311 89 217 C90 280 88 340 88 400 C87 411 89 425 87 436 C82 453 58 457 50 441 C46 432 48 420 48 410 C50 313 52 232 50 149 C48 72 47 0 44 -73 C44 -90 35 -124 55 -133 C78 -142 82 -114 84 -99 C86 -74 89 -50 91 -26 C108 117 117 280 203 398 C214 413 236 432 257 441 C294 455 329 447 359 429 C385 412 407 388 416 359 C419 351 419 341 424 333 C437 316 461 330 458 349 C446 444 331 513 243 477 L243 477 Z " />
<glyph glyph-name="s" unicode="s" horiz-adv-x="445" d="M307 -116 C348 -88 372 -44 382 4 C393 54 393 109 357 149 C324 187 275 204 229 219 C181 236 134 248 110 288 C92 314 105 354 115 377 C142 434 218 444 267 432 C317 421 331 387 330 346 C330 350 330 347 330 345 C327 333 320 318 329 308 C343 291 360 306 364 322 C376 364 369 409 336 439 C283 487 188 487 129 450 C63 408 38 293 101 237 C136 206 184 194 228 179 C264 166 306 152 330 122 C359 85 352 32 339 -8 C323 -56 292 -88 244 -102 C206 -110 169 -110 137 -93 C95 -71 77 -29 70 15 C64 47 68 98 95 116 C102 120 109 119 112 128 C116 135 113 145 107 150 C95 161 74 150 64 141 C40 121 33 84 30 54 C23 -33 70 -124 161 -142 C209 -152 266 -144 307 -116 L307 -116 Z " />
<glyph glyph-name="t" unicode="t" horiz-adv-x="364" d="M111 -3 C112 -38 121 -75 143 -104 C168 -136 210 -148 248 -136 C288 -124 330 -88 348 -51 C357 -33 337 -13 320 -26 C313 -31 309 -40 305 -46 C287 -71 262 -96 234 -103 C194 -114 165 -84 156 -44 C150 -16 148 13 148 41 C147 103 147 165 148 227 C148 255 151 361 150 387 C186 389 235 388 262 387 C280 387 331 377 331 406 C330 421 318 426 306 426 C289 427 273 427 257 427 C221 427 187 427 151 427 C153 475 154 524 155 573 C156 588 157 618 131 611 C112 605 116 578 116 562 C115 544 114 457 113 429 C88 428 43 426 31 426 C15 425 -15 430 -19 409 C-25 378 17 386 33 387 C59 387 85 387 112 388 C109 258 105 127 111 -3 L111 -3 Z " />
<glyph glyph-name="u" unicode="u" horiz-adv-x="487" d="M141 -108 C166 -128 202 -136 233 -127 C265 -117 289 -93 308 -67 C353 -4 377 73 395 147 C395 93 395 39 397 -14 C398 -39 399 -64 401 -89 C402 -105 402 -137 427 -129 C450 -122 440 -89 439 -72 C437 -45 436 -18 436 9 C434 62 434 115 435 168 C435 222 436 276 438 330 C439 356 440 382 441 408 C441 418 444 432 438 441 C433 449 423 452 414 448 C396 439 401 405 399 389 C397 367 394 345 391 323 C384 273 374 222 362 173 C349 121 334 69 312 20 C301 -3 289 -27 274 -47 C254 -74 217 -105 182 -87 C152 -73 131 -42 118 -13 C68 96 72 321 85 419 C86 430 85 444 72 447 C58 451 49 441 47 428 C41 391 38 353 37 315 C33 241 36 165 49 92 C60 22 81 -63 141 -108 L141 -108 Z " />
<glyph glyph-name="v" unicode="v" horiz-adv-x="437" d="M399 425 C370 320 342 215 305 112 C291 73 277 35 258 -3 C250 -19 212 -88 188 -89 C157 -90 139 -36 131 -13 C126 3 122 18 118 34 C96 124 88 212 82 298 C79 329 78 360 75 390 C73 400 70 410 59 412 C48 414 38 406 36 396 C33 384 37 368 38 355 C41 307 45 261 50 215 C56 152 65 90 79 29 C90 -18 105 -79 145 -111 C248 -194 321 40 343 102 C367 169 387 237 406 305 C416 338 425 372 434 405 C437 416 440 431 426 437 C416 443 402 436 399 425 L399 425 Z " />
<glyph glyph-name="w" unicode="w" horiz-adv-x="544" d="M500 438 C476 437 481 408 481 392 C480 366 479 341 478 315 C476 267 471 219 465 171 C457 103 434 -15 401 -63 C387 -80 370 -91 349 -74 C314 -41 306 12 298 55 C294 78 292 100 289 123 C284 188 283 252 283 317 C283 329 280 342 265 343 C253 345 245 335 244 324 C242 308 244 291 243 275 C243 257 242 239 241 221 C238 160 232 98 220 38 C213 5 205 -29 192 -60 C186 -74 167 -107 151 -107 C102 -106 84 16 76 61 C70 103 66 145 63 187 C60 238 60 288 60 339 C60 363 60 387 61 411 C61 421 61 429 52 435 C45 440 36 439 29 434 C21 427 22 417 22 408 C21 395 21 382 21 369 C21 344 20 319 21 294 C21 244 23 193 28 142 C32 93 38 44 49 -4 C58 -46 72 -93 104 -123 C120 -138 141 -149 164 -144 C186 -139 202 -122 213 -103 C240 -60 251 -7 260 43 C269 -5 281 -64 318 -99 C336 -114 361 -123 384 -117 C454 -99 481 33 491 86 C502 145 509 204 514 264 C516 297 518 329 519 362 C519 378 520 395 520 411 C520 424 516 439 500 438 L500 438 Z " />
<glyph glyph-name="x" unicode="x" horiz-adv-x="454" d="M253 127 C295 50 337 -27 380 -104 C388 -117 395 -141 413 -142 C433 -142 434 -121 427 -108 C407 -69 384 -31 363 8 C347 36 299 129 277 163 C291 185 306 206 321 228 C345 264 369 301 392 337 C404 356 416 374 427 392 C435 405 434 424 416 426 C395 428 385 398 376 385 C362 363 349 342 335 321 C309 281 283 241 256 202 C234 242 211 282 189 322 C178 342 167 361 156 380 C151 388 147 396 142 404 C137 413 133 426 123 430 C104 440 94 420 94 404 C94 395 96 386 100 377 C102 373 104 369 108 366 C112 361 120 365 123 360 C129 352 146 320 153 307 C181 255 207 214 229 166 C198 114 165 68 130 20 C104 -17 79 -53 53 -89 C44 -102 26 -119 39 -135 C54 -154 71 -131 80 -118 C138 -37 196 45 253 127 L253 127 Z " />
<glyph glyph-name="y" unicode="y" horiz-adv-x="452" d="M339 -218 C336 -248 335 -279 323 -307 C319 -317 312 -326 318 -337 C324 -348 341 -350 350 -340 C360 -329 365 -308 368 -294 C372 -277 374 -260 376 -244 C379 -206 398 25 401 62 C407 135 413 207 419 280 C422 319 425 357 428 396 C429 408 434 424 422 433 C411 442 396 436 391 423 C385 405 382 384 377 365 C371 345 366 324 359 303 C343 247 324 194 298 148 C273 104 229 47 178 53 C102 62 95 172 93 235 C92 277 94 320 99 362 C101 375 108 394 103 406 C96 421 74 421 68 407 C63 398 63 386 62 377 C60 366 59 355 58 345 C52 285 51 211 64 148 C71 110 85 70 114 43 C142 16 180 8 217 18 C259 30 290 63 314 98 C341 138 359 183 376 228 C369 144 345 -134 339 -218 L339 -218 Z " />
<glyph glyph-name="z" unicode="z" horiz-adv-x="461" d="M390 420 C341 425 291 422 242 420 C190 418 138 414 86 411 C70 410 36 414 39 388 C42 364 71 371 88 372 C140 374 191 379 243 381 C272 382 300 383 329 383 C350 383 396 385 402 377 C355 313 285 212 241 165 C225 164 194 162 181 162 C172 161 162 162 155 158 C142 150 142 132 155 124 C162 120 170 122 178 123 C189 123 201 124 212 124 C166 69 121 13 74 -41 C62 -54 51 -67 39 -81 C30 -91 12 -103 17 -119 C22 -135 38 -132 52 -131 C71 -130 91 -129 110 -127 C184 -123 258 -120 331 -116 C348 -115 365 -114 382 -113 C394 -112 410 -110 412 -94 C413 -83 403 -74 392 -73 C373 -72 351 -76 331 -77 C248 -81 165 -85 82 -90 C144 -21 202 53 262 124 C293 126 312 121 332 126 C346 129 353 146 343 158 C333 169 311 165 297 165 C337 213 378 262 412 315 C425 336 446 365 440 391 C436 415 410 418 390 420 L390 420 Z " />
<glyph glyph-name="braceleft" unicode="&#x7b;" horiz-adv-x="207" d="M174 -56 C160 -49 156 -60 146 -65 C142 -67 134 -66 131 -65 C113 -59 106 -34 104 -13 C101 12 101 38 101 63 C101 106 101 150 108 193 C111 214 113 236 104 256 C102 261 99 265 97 269 C93 275 92 274 96 280 C101 290 106 301 109 312 C122 353 122 397 123 440 C123 489 127 546 133 590 C134 600 135 611 138 621 C152 615 168 628 165 643 C162 657 148 665 135 665 C99 665 97 620 94 594 C89 554 86 514 84 474 C84 423 83 389 80 357 C77 333 69 307 53 286 C46 278 41 269 48 259 C59 244 72 261 72 217 C70 197 66 178 65 158 C61 108 61 57 64 7 C66 -32 72 -75 109 -96 C127 -106 148 -109 165 -98 C179 -90 195 -67 174 -56 L174 -56 Z " />
<glyph glyph-name="bar" unicode="&#x7c;" horiz-adv-x="141" d="M69 720 C44 718 50 689 50 672 C51 645 52 619 51 592 C53 540 51 369 52 317 C50 213 50 86 49 -18 C49 -44 48 -70 48 -96 C48 -109 47 -122 47 -135 C47 -146 45 -158 55 -166 C61 -172 69 -172 76 -168 C86 -162 86 -153 85 -143 C87 -117 87 -91 87 -65 C89 39 89 167 90 271 C90 330 92 508 91 567 C90 596 90 624 90 653 C89 670 97 721 69 720 L69 720 Z " />
<glyph glyph-name="braceright" unicode="&#x7d;" horiz-adv-x="228" d="M174 311 C161 318 161 330 161 345 C162 364 166 382 168 401 C172 449 172 498 170 546 C168 584 164 629 131 653 C115 664 95 670 76 664 C62 659 42 642 52 625 C56 617 66 614 75 617 C80 619 82 624 87 627 C94 630 108 622 108 621 C122 611 127 594 129 574 C132 549 131 524 132 499 C132 455 131 412 125 368 C120 335 121 316 136 294 C140 288 141 288 137 281 C131 271 127 261 124 250 C110 209 111 164 110 122 C110 72 106 16 100 -28 C99 -39 98 -50 95 -60 C80 -53 65 -66 68 -82 C71 -96 85 -104 98 -104 C134 -103 135 -58 139 -32 C147 29 149 87 149 146 C150 164 150 185 153 205 C156 226 162 251 176 270 C180 277 187 282 188 290 C189 299 184 309 174 311 L174 311 Z " />
<glyph glyph-name="asciitilde" unicode="&#x7e;" horiz-adv-x="353" d="M292 338 C280 329 274 317 264 306 C260 301 254 301 249 303 C236 310 226 321 215 330 C196 346 175 353 151 348 C132 344 29 300 66 271 C85 256 100 281 115 291 C129 300 147 309 164 311 C181 313 192 298 203 288 C220 273 241 260 264 263 C289 267 295 288 311 304 C318 310 324 317 320 327 C316 338 302 344 292 338 L292 338 Z " />
<glyph glyph-name="exclamdown" unicode="&#xa1;" horiz-adv-x="204" d="M104 496 C140 496 140 551 104 551 C68 550 70 496 104 496 L104 496 L104 496 Z M93 -137 C111 -136 113 -120 113 -107 L116 -40 C117 1 118 42 120 83 L126 333 L126 391 C127 406 133 433 118 443 C106 451 91 444 88 431 C86 422 88 411 88 402 C88 390 87 378 87 366 C86 284 84 201 82 119 L77 -18 C77 -42 76 -66 75 -90 C74 -105 68 -138 93 -137 L93 -137 Z " />
<glyph glyph-name="cent" unicode="&#xa2;" horiz-adv-x="289" d="M258 129 C244 133 236 122 232 110 C229 103 220 86 212 77 C200 63 183 52 166 49 C169 114 170 178 170 243 C193 235 203 224 211 202 C216 188 234 182 245 195 C255 207 245 225 239 237 C230 252 217 265 200 273 C192 277 182 282 170 284 C169 289 170 300 170 305 C170 319 173 346 151 346 C133 345 131 329 131 315 C131 309 131 291 131 282 C121 280 106 273 100 270 C37 232 20 135 49 71 C61 41 94 9 124 4 C124 -10 115 -40 124 -50 C135 -63 156 -57 158 -41 C160 -23 162 -6 163 9 C188 14 210 21 229 39 C243 51 299 120 258 129 L258 129 Z M126 49 C94 59 79 91 75 120 C69 157 82 204 109 231 C116 238 122 240 129 241 C129 182 130 113 126 49 L126 49 Z " />
<glyph glyph-name="sterling" unicode="&#xa3;" horiz-adv-x="421" d="M377 -78 C284 -71 187 -71 94 -78 C116 -46 131 -8 143 28 C146 38 163 88 167 112 C218 111 237 110 256 109 C271 108 287 118 280 135 C274 150 254 148 241 149 C219 151 198 151 177 151 C183 177 189 203 196 228 C200 240 203 252 207 263 C224 311 256 368 316 370 C327 370 339 368 349 364 C359 359 368 348 380 350 C391 353 399 363 396 375 C392 388 375 395 364 400 C312 421 253 400 217 360 C164 302 153 220 135 151 C114 149 97 149 82 143 C68 137 66 120 77 110 C88 100 113 109 126 109 C115 67 102 23 83 -17 C75 -35 65 -53 52 -69 C42 -81 17 -93 25 -112 C33 -132 57 -120 72 -119 C96 -116 120 -115 143 -114 C194 -113 244 -113 295 -114 C309 -114 324 -115 338 -115 C351 -116 368 -120 381 -117 C404 -112 399 -80 377 -78 L377 -78 Z " />
<glyph glyph-name="currency" unicode="&#xa4;" horiz-adv-x="558" d="M467 385 C479 393 502 402 505 418 C508 432 493 443 480 439 C463 434 445 417 431 407 C423 401 380 364 375 364 C372 363 340 374 334 375 C274 385 221 375 181 353 C179 352 173 363 171 365 C158 380 144 395 130 409 C119 420 106 437 91 443 C76 448 61 436 65 420 C67 412 74 408 80 403 C87 396 94 389 101 382 C115 368 129 354 143 338 C143 337 150 332 149 331 C127 308 109 290 98 258 C73 189 94 105 150 57 C122 33 97 3 75 -25 C67 -36 61 -48 73 -58 C79 -63 86 -64 93 -61 C98 -59 107 -48 104 -51 C128 -21 153 15 182 33 C181 33 183 34 183 34 C182 34 181 35 182 34 C214 11 261 7 306 11 C326 13 347 18 367 27 C371 29 373 31 378 29 C381 28 385 24 388 21 C397 14 406 6 414 -2 C431 -18 447 -36 464 -51 C476 -62 497 -55 497 -37 C496 -19 471 -2 460 9 C443 25 427 40 409 54 C450 89 480 143 480 198 C481 253 458 310 412 343 C430 360 449 372 467 385 L467 385 Z M441 190 C433 141 406 93 365 70 C330 49 297 43 258 50 C178 64 119 131 128 206 C134 254 154 313 239 334 C265 340 294 341 322 338 C357 333 396 317 414 288 C430 267 444 225 441 190 L441 190 Z " />
<glyph glyph-name="yen" unicode="&#xa5;" horiz-adv-x="410" d="M386 424 C393 432 394 444 386 451 C375 461 363 457 355 448 C333 425 312 401 292 376 C272 352 254 326 237 299 C222 276 206 248 197 212 C196 212 186 212 186 212 C182 238 164 276 160 286 C148 317 132 346 116 374 C108 389 100 403 91 417 C85 428 78 448 66 454 C56 460 43 456 39 444 C34 430 47 416 53 404 C89 343 127 281 145 211 C132 211 119 210 106 210 C97 210 86 212 78 207 C64 197 69 171 86 171 C103 171 136 170 153 172 C156 160 159 127 159 121 C144 121 130 121 115 121 C104 121 92 122 86 109 C74 80 115 82 130 82 C152 82 153 81 161 81 C164 67 162 38 162 31 C160 -1 158 -46 158 -76 C158 -93 154 -117 176 -119 C198 -121 197 -96 198 -79 C199 -50 201 -7 202 22 C203 47 205 67 208 82 C220 82 224 82 229 82 C245 82 301 75 288 108 C284 120 274 121 263 121 C247 121 230 121 214 121 C216 131 218 141 220 151 C222 159 223 165 226 173 C245 176 275 168 293 176 C308 182 309 202 295 211 C289 215 280 213 273 213 C261 213 250 213 239 213 C256 258 282 299 311 337 C308 333 316 344 317 345 C324 354 331 363 339 371 C354 389 370 407 386 424 L386 424 Z " />
<glyph glyph-name="brokenbar" unicode="&#xa6;" horiz-adv-x="180" d="M86 792 C75 791 66 783 66 772 C66 651 66 530 66 408 C66 374 66 340 66 306 C66 296 75 286 86 287 C96 287 105 295 105 306 C105 428 105 549 105 670 C105 704 105 738 105 772 C105 782 96 792 86 792 L86 792 Z M86 87 C75 87 66 79 66 68 C66 -54 66 -175 66 -296 C66 -330 66 -364 66 -398 C66 -408 75 -418 86 -418 C96 -417 105 -409 105 -398 C105 -277 105 -156 105 -34 C105 0 105 34 105 68 C105 78 96 88 86 87 L86 87 Z " />
<glyph glyph-name="section" unicode="&#xa7;" horiz-adv-x="534" d="M113 307 C113 307 113 306 113 305 C113 306 113 307 113 307 L113 307 Z M484 40 C461 103 402 140 343 162 C387 175 432 203 445 250 C458 296 445 341 408 371 C369 403 323 416 274 428 C250 433 226 437 203 446 C157 463 124 495 112 540 C91 633 182 696 262 700 C346 704 433 668 444 612 C445 607 445 602 444 597 C443 585 433 572 437 560 C441 550 453 545 463 549 C476 554 479 573 482 584 C496 655 429 700 371 721 C261 760 88 723 71 588 C61 511 110 445 177 415 C130 400 86 369 75 318 C61 258 104 216 148 191 C199 162 258 150 309 133 C353 119 399 98 428 61 C444 42 453 18 452 -6 C452 -55 424 -90 379 -113 C307 -152 146 -148 106 -67 C97 -50 97 -39 106 -3 C113 18 87 36 73 16 C56 -7 56 -48 66 -73 C76 -98 94 -118 116 -133 C165 -167 231 -178 290 -174 C342 -171 395 -155 435 -121 C481 -82 505 -18 484 40 L484 40 Z M255 194 C220 203 174 217 147 238 C124 254 109 278 113 307 C123 378 234 398 290 384 C312 378 334 371 355 361 C399 343 422 297 406 255 C389 213 302 183 255 194 L255 194 Z " />
<glyph glyph-name="dieresis" unicode="&#xa8;" horiz-adv-x="200" d="M90 725 C83 749 44 739 51 714 C58 689 93 700 90 725 L90 725 Z M155 706 C180 714 162 752 139 742 C114 732 133 694 155 706 L155 706 Z " />
<glyph glyph-name="copyright" unicode="&#xa9;" horiz-adv-x="711" d="M515 226 C491 232 491 206 486 190 C483 182 478 174 474 166 C465 152 455 135 441 125 C391 90 313 93 274 132 C229 177 217 253 220 311 C222 355 231 400 253 439 C271 471 298 498 333 512 C352 520 374 523 395 521 C431 518 471 488 471 454 C472 445 471 437 480 431 C497 420 511 438 510 454 C509 492 481 526 448 544 C373 585 282 546 234 481 C144 358 157 70 353 64 C399 62 445 77 478 108 C495 125 509 146 519 168 C525 182 541 220 515 226 L515 226 Z M664 427 C648 500 616 573 559 624 C504 673 432 694 359 693 C285 693 211 671 155 621 C105 576 73 515 55 451 C17 313 23 148 122 36 C221 -78 404 -106 527 -14 C661 86 697 271 664 427 L664 427 Z M612 164 C588 100 546 40 486 4 C428 -33 357 -40 290 -24 C151 8 73 142 71 278 C69 403 101 553 218 621 C323 683 478 667 558 572 C604 517 626 445 635 375 C644 304 637 232 612 164 L612 164 Z " />
<glyph glyph-name="ordfeminine" unicode="&#xaa;" horiz-adv-x="290" d="M239 453 C231 507 228 562 232 616 C233 631 234 644 235 658 C235 669 239 681 231 690 C223 697 210 697 203 689 C196 682 196 668 195 659 C173 692 133 700 99 679 C69 660 51 625 42 592 C32 552 34 508 46 469 C56 435 76 397 111 384 C155 369 187 404 202 441 C205 424 206 362 238 375 C250 380 251 392 249 403 C245 420 242 436 239 453 L239 453 Z M186 542 C182 516 178 492 171 469 C167 455 151 415 126 418 C104 421 90 456 81 489 C69 535 73 594 102 629 C113 643 133 658 150 650 C170 639 174 611 179 592 C182 577 188 558 186 542 L186 542 Z " />
<glyph glyph-name="guillemotleft" unicode="&#xab;" horiz-adv-x="271" d="M215 8 C202 24 191 41 179 59 C172 68 166 78 160 88 C155 95 153 96 159 103 C162 109 166 114 169 119 C183 139 196 159 209 179 C214 186 220 193 219 203 C217 212 210 218 202 219 C182 221 170 190 161 176 C147 156 134 136 120 116 C115 108 109 102 112 92 C115 82 124 72 129 64 C141 45 154 26 167 7 C176 -4 184 -14 193 -25 C199 -33 205 -40 216 -38 C225 -36 232 -28 232 -19 C232 -8 222 0 215 8 L215 8 Z M139 2 C126 18 114 35 103 52 C96 62 90 72 83 81 C79 89 77 89 82 97 C86 102 89 107 93 113 C106 132 119 152 133 172 C137 180 144 187 142 197 C141 205 134 212 126 213 C105 215 93 183 84 170 C71 150 57 129 44 110 C38 102 33 95 36 86 C38 76 47 66 53 58 C65 38 77 19 91 1 C99 -10 107 -21 116 -31 C122 -39 128 -46 140 -44 C149 -42 156 -35 156 -25 C156 -14 146 -6 139 2 L139 2 Z " />
<glyph glyph-name="registered" unicode="&#xae;" horiz-adv-x="543" d="M397 305 C381 311 366 317 350 324 C349 324 348 325 347 325 C345 326 344 326 342 327 C338 329 334 331 331 332 C323 336 315 339 308 343 C294 350 281 357 268 364 C316 376 361 400 387 444 C402 471 410 506 400 536 C388 570 356 591 322 598 C289 606 254 604 221 597 C218 600 214 602 210 601 C202 601 195 596 192 590 C190 589 188 589 186 588 C177 585 169 575 173 564 C175 557 182 550 191 550 C192 498 193 446 192 395 C188 395 184 395 181 395 C170 395 161 386 161 375 C162 365 170 356 181 356 C184 356 187 356 191 356 C191 352 191 348 191 344 C190 316 188 289 186 261 C185 251 196 241 206 242 C217 242 224 250 225 261 C227 288 228 314 229 341 C279 311 332 287 387 268 C396 264 409 271 411 281 C413 292 408 301 397 305 L397 305 Z M231 396 C231 436 231 476 230 516 C230 531 230 545 230 559 C236 561 249 562 249 562 C285 565 303 564 331 555 C367 538 374 508 359 475 C347 449 325 431 301 417 C280 406 255 396 231 396 L231 396 Z M474 590 C455 622 431 647 402 665 C368 685 328 696 282 696 C206 696 144 666 101 609 C63 557 42 482 42 393 C42 323 65 258 107 211 C128 186 154 167 183 154 C213 140 247 133 282 133 C339 133 391 155 432 197 C485 250 517 331 517 415 C517 453 511 526 474 590 L474 590 Z M406 223 C372 189 329 171 282 171 C223 171 172 193 134 235 C99 276 79 332 79 393 C79 474 97 541 131 587 C167 635 217 659 282 659 C355 659 408 629 442 571 C476 513 480 442 480 414 C480 379 473 343 461 309 C448 276 429 246 406 223 L406 223 Z " />
<glyph glyph-name="plusminus" unicode="&#xb1;" horiz-adv-x="352" d="M284 224 C252 225 221 224 189 223 L192 299 C193 316 202 351 178 356 C154 360 155 330 154 315 C153 300 150 245 150 221 C130 220 103 219 96 218 C80 217 44 215 40 202 C38 195 40 185 46 180 C53 173 64 176 74 177 C99 179 124 181 149 182 C147 131 147 91 148 37 C148 21 170 11 182 25 C188 32 187 40 187 48 L187 86 C187 105 188 163 188 184 C213 184 251 186 268 186 C277 186 287 184 295 189 C311 199 303 224 284 224 L284 224 Z M282 -20 C229 -20 176 -22 122 -25 L78 -28 C68 -29 56 -28 46 -33 C30 -42 36 -67 55 -69 C67 -70 82 -67 95 -66 L133 -63 C160 -62 187 -60 214 -60 C227 -59 241 -59 255 -59 C265 -59 280 -62 290 -57 C309 -49 303 -20 282 -20 L282 -20 Z " />
<glyph glyph-name="acute" unicode="&#xb4;" horiz-adv-x="160" d="M72 653 C62 640 15 603 47 588 C60 582 69 591 77 599 C87 610 96 621 105 633 C116 647 153 690 119 699 C105 703 98 692 92 682 C86 672 79 663 72 653 L72 653 Z " />
<glyph glyph-name="paragraph" unicode="&#xb6;" horiz-adv-x="400" d="M362 638 C362 665 317 661 300 661 C272 662 244 661 216 657 C164 650 111 634 72 597 C35 562 18 506 32 455 C46 402 96 374 147 363 C158 360 183 356 200 353 C200 313 200 275 199 235 C198 174 197 113 196 53 C195 23 194 -8 194 -38 C194 -56 183 -105 213 -105 C241 -105 233 -60 233 -42 C233 -13 234 16 235 46 C236 109 238 267 239 355 C242 357 252 357 255 360 C260 364 263 369 263 375 C262 388 251 394 239 394 C240 409 242 436 218 434 C198 432 201 410 201 395 C155 398 88 410 71 460 C63 483 65 509 73 531 C81 551 94 563 108 577 C148 604 193 617 241 621 C268 623 294 622 320 621 C320 588 320 550 319 537 C315 420 310 302 307 185 C305 127 304 70 303 12 C302 -17 302 -46 302 -75 C302 -85 301 -97 312 -103 C321 -107 332 -104 337 -97 C343 -88 341 -73 341 -63 C341 -47 341 -32 341 -16 C341 13 342 41 343 70 C344 129 346 188 348 248 C350 313 353 378 355 442 C356 476 357 509 359 542 C360 574 363 607 362 638 L362 638 Z M179 397 C179 397 179 397 178 397 C176 397 178 397 179 397 L179 397 Z " />
<glyph glyph-name="cedilla" unicode="&#xb8;" horiz-adv-x="150" d="M117 -123 C113 -120 109 -118 105 -116 C120 -88 85 -66 70 -95 C64 -107 57 -118 63 -132 C66 -138 71 -143 78 -146 C85 -151 99 -152 99 -161 C99 -163 99 -164 98 -166 C94 -173 84 -173 77 -172 C65 -170 55 -163 44 -160 C29 -157 17 -168 20 -183 C24 -198 46 -204 59 -207 C76 -213 94 -213 110 -205 C143 -188 146 -146 117 -123 L117 -123 Z " />
<glyph glyph-name="ordmasculine" unicode="&#xba;" horiz-adv-x="283" d="M253 581 C241 633 209 690 148 691 C119 692 91 678 71 657 C56 643 28 606 35 586 C36 583 37 581 38 579 C40 575 40 574 39 569 C27 519 40 457 65 419 C95 371 155 354 202 389 C258 431 266 518 253 581 L253 581 Z M219 513 C216 483 208 446 183 424 C165 408 139 404 119 417 C78 443 74 509 76 553 C76 579 94 620 123 616 C150 612 165 634 140 652 C159 652 171 652 181 644 C216 620 222 554 219 513 L219 513 Z " />
<glyph glyph-name="guillemotright" unicode="&#xbb;" horiz-adv-x="266" d="M154 107 C140 127 127 147 113 167 C107 177 100 186 94 196 C89 204 84 215 73 218 C65 221 57 217 52 210 C46 200 50 192 56 183 C69 163 82 143 96 123 C100 118 113 104 114 97 C114 93 106 85 104 81 C100 76 97 71 93 65 C81 47 70 30 56 13 C47 1 25 -17 41 -32 C59 -49 74 -27 83 -15 C99 5 114 26 128 47 C135 58 142 68 148 79 C154 87 161 97 154 107 L154 107 Z M164 213 C154 229 127 222 128 202 C128 192 137 183 142 175 C149 165 156 154 163 144 C169 134 176 125 182 115 C185 112 190 106 191 102 C193 97 186 90 182 84 C170 64 157 44 143 25 C134 14 115 0 115 -16 C114 -36 138 -39 149 -28 C181 5 204 46 229 84 C234 93 238 100 233 110 C227 122 217 132 210 143 C195 166 179 189 164 213 L164 213 Z " />
<glyph glyph-name="questiondown" unicode="&#xbf;" horiz-adv-x="452" d="M168 -119 C263 -141 354 -99 406 -19 C418 0 429 21 432 44 C433 53 434 64 427 71 C421 78 410 78 403 73 C395 67 395 61 394 53 C393 44 390 36 387 28 C379 9 367 -9 353 -24 C326 -55 288 -80 248 -85 C169 -95 81 -54 71 32 C67 73 77 116 97 152 C120 192 161 228 185 245 C240 286 356 353 354 427 C352 467 310 486 275 475 C261 471 237 460 235 443 C233 423 256 418 269 429 C268 427 270 430 270 430 C278 438 304 445 312 433 C338 396 222 320 203 307 C165 280 127 252 96 217 C39 150 7 45 54 -36 C78 -78 121 -108 168 -119 L168 -119 L168 -119 Z M293 528 C329 528 328 583 292 583 C256 582 259 528 293 528 L293 528 Z " />
<glyph glyph-name="Agrave" unicode="&#xc0;" horiz-adv-x="506" d="M457 262 C464 269 464 279 459 286 C453 296 446 295 436 294 C429 373 421 452 403 529 C388 590 363 686 291 701 C225 715 171 664 142 610 C106 545 90 470 77 398 C70 353 64 307 60 262 C60 254 58 247 58 240 C59 236 58 234 54 233 C48 228 40 226 35 219 C25 205 37 186 54 189 C50 123 48 57 47 -9 C46 -25 46 -40 46 -56 C46 -71 43 -92 46 -107 C49 -118 60 -125 71 -122 C85 -118 85 -105 85 -92 C85 7 86 82 91 156 C92 166 89 201 97 205 C101 208 112 208 118 209 C143 213 166 216 190 220 C260 231 330 241 400 250 C405 171 408 92 412 12 C414 -24 413 -63 422 -99 C424 -111 429 -125 445 -124 C460 -123 466 -107 460 -95 C461 -96 462 -98 462 -99 C454 -74 454 -47 453 -21 C451 13 449 46 448 80 C447 113 445 146 443 179 C442 196 441 213 440 231 C440 235 436 253 439 255 C443 259 452 257 457 262 L457 262 Z M117 248 C110 247 104 246 98 245 C102 298 108 351 118 404 C132 476 148 550 186 608 C201 630 220 649 242 659 C257 666 282 664 288 662 C324 649 342 600 352 567 C379 480 385 404 394 331 C394 327 397 289 397 289 C384 286 336 281 331 280 C260 270 188 259 117 248 L117 248 Z M265 859 C258 868 251 878 245 888 C239 898 231 908 218 905 C184 896 221 852 231 839 C240 827 250 816 260 805 C268 797 277 788 289 794 C321 809 275 846 265 859 L265 859 Z " />
<glyph glyph-name="Aacute" unicode="&#xc1;" horiz-adv-x="506" d="M457 262 C464 269 464 279 459 286 C453 296 446 295 436 294 C429 373 421 452 403 529 C388 590 363 686 291 701 C225 715 171 664 142 610 C106 545 90 470 77 398 C70 353 64 307 60 262 C60 254 58 247 58 240 C59 236 58 234 54 233 C48 228 40 226 35 219 C25 205 37 186 54 189 C50 123 48 57 47 -9 C46 -25 46 -40 46 -56 C46 -71 43 -92 46 -107 C49 -118 60 -125 71 -122 C85 -118 85 -105 85 -92 C85 7 86 82 91 156 C92 166 89 201 97 205 C101 208 112 208 118 209 C143 213 166 216 190 220 C260 231 330 241 400 250 C405 171 408 92 412 12 C414 -24 413 -63 422 -99 C424 -111 429 -125 445 -124 C460 -123 466 -107 460 -95 C461 -96 462 -98 462 -99 C454 -74 454 -47 453 -21 C451 13 449 46 448 80 C447 113 445 146 443 179 C442 196 441 213 440 231 C440 235 436 253 439 255 C443 259 452 257 457 262 L457 262 Z M117 248 C110 247 104 246 98 245 C102 298 108 351 118 404 C132 476 148 550 186 608 C201 630 220 649 242 659 C257 666 282 664 288 662 C324 649 342 600 352 567 C379 480 385 404 394 331 C394 327 397 289 397 289 C384 286 336 281 331 280 C260 270 188 259 117 248 L117 248 Z M244 833 C234 820 187 783 219 768 C232 762 241 771 249 779 C259 790 268 801 277 813 C288 827 325 870 291 879 C277 883 270 872 264 862 C258 852 251 843 244 833 L244 833 Z " />
<glyph glyph-name="Acircumflex" unicode="&#xc2;" horiz-adv-x="506" d="M457 262 C464 269 464 279 459 286 C453 296 446 295 436 294 C429 373 421 452 403 529 C388 590 363 686 291 701 C225 715 171 664 142 610 C106 545 90 470 77 398 C70 353 64 307 60 262 C60 254 58 247 58 240 C59 236 58 234 54 233 C48 228 40 226 35 219 C25 205 37 186 54 189 C50 123 48 57 47 -9 C46 -25 46 -40 46 -56 C46 -71 43 -92 46 -107 C49 -118 60 -125 71 -122 C85 -118 85 -105 85 -92 C85 7 86 82 91 156 C92 166 89 201 97 205 C101 208 112 208 118 209 C143 213 166 216 190 220 C260 231 330 241 400 250 C405 171 408 92 412 12 C414 -24 413 -63 422 -99 C424 -111 429 -125 445 -124 C460 -123 466 -107 460 -95 C461 -96 462 -98 462 -99 C454 -74 454 -47 453 -21 C451 13 449 46 448 80 C447 113 445 146 443 179 C442 196 441 213 440 231 C440 235 436 253 439 255 C443 259 452 257 457 262 L457 262 Z M117 248 C110 247 104 246 98 245 C102 298 108 351 118 404 C132 476 148 550 186 608 C201 630 220 649 242 659 C257 666 282 664 288 662 C324 649 342 600 352 567 C379 480 385 404 394 331 C394 327 397 289 397 289 C384 286 336 281 331 280 C260 270 188 259 117 248 L117 248 Z M323 834 C307 845 291 856 274 866 C258 877 250 869 236 859 C222 850 204 842 192 831 C182 822 184 805 197 799 C211 792 227 806 238 814 C243 817 255 828 260 829 C265 829 278 817 282 815 C293 807 308 792 323 800 C336 808 335 826 323 834 L323 834 Z " />
<glyph glyph-name="Atilde" unicode="&#xc3;" horiz-adv-x="506" d="M457 262 C464 269 464 279 459 286 C453 296 446 295 436 294 C429 373 421 452 403 529 C388 590 363 686 291 701 C225 715 171 664 142 610 C106 545 90 470 77 398 C70 353 64 307 60 262 C60 254 58 247 58 240 C59 236 58 234 54 233 C48 228 40 226 35 219 C25 205 37 186 54 189 C50 123 48 57 47 -9 C46 -25 46 -40 46 -56 C46 -71 43 -92 46 -107 C49 -118 60 -125 71 -122 C85 -118 85 -105 85 -92 C85 7 86 82 91 156 C92 166 89 201 97 205 C101 208 112 208 118 209 C143 213 166 216 190 220 C260 231 330 241 400 250 C405 171 408 92 412 12 C414 -24 413 -63 422 -99 C424 -111 429 -125 445 -124 C460 -123 466 -107 460 -95 C461 -96 462 -98 462 -99 C454 -74 454 -47 453 -21 C451 13 449 46 448 80 C447 113 445 146 443 179 C442 196 441 213 440 231 C440 235 436 253 439 255 C443 259 452 257 457 262 L457 262 Z M117 248 C110 247 104 246 98 245 C102 298 108 351 118 404 C132 476 148 550 186 608 C201 630 220 649 242 659 C257 666 282 664 288 662 C324 649 342 600 352 567 C379 480 385 404 394 331 C394 327 397 289 397 289 C384 286 336 281 331 280 C260 270 188 259 117 248 L117 248 Z M327 852 C315 858 308 852 300 845 C299 843 298 842 296 841 C294 840 286 838 291 839 C287 835 276 844 273 846 C264 851 257 857 246 860 C227 865 206 860 191 847 C180 835 169 809 191 802 C199 800 208 803 213 809 C215 812 216 815 218 818 C218 818 223 822 219 819 C219 820 225 823 226 823 C221 821 230 823 232 823 C236 823 238 822 242 820 C257 811 269 799 288 800 C302 800 317 806 327 816 C336 826 343 844 327 852 L327 852 Z M216 816 C216 816 216 816 217 817 C217 816 216 816 216 816 L216 816 Z M237 823 C238 823 238 822 238 822 C238 822 237 823 237 823 L237 823 Z M297 842 C298 842 298 842 299 843 C299 843 298 842 297 842 L297 842 Z " />
<glyph glyph-name="Adieresis" unicode="&#xc4;" horiz-adv-x="506" d="M457 262 C464 269 464 279 459 286 C453 296 446 295 436 294 C429 373 421 452 403 529 C388 590 363 686 291 701 C225 715 171 664 142 610 C106 545 90 470 77 398 C70 353 64 307 60 262 C60 254 58 247 58 240 C59 236 58 234 54 233 C48 228 40 226 35 219 C25 205 37 186 54 189 C50 123 48 57 47 -9 C46 -25 46 -40 46 -56 C46 -71 43 -92 46 -107 C49 -118 60 -125 71 -122 C85 -118 85 -105 85 -92 C85 7 86 82 91 156 C92 166 89 201 97 205 C101 208 112 208 118 209 C143 213 166 216 190 220 C260 231 330 241 400 250 C405 171 408 92 412 12 C414 -24 413 -63 422 -99 C424 -111 429 -125 445 -124 C460 -123 466 -107 460 -95 C461 -96 462 -98 462 -99 C454 -74 454 -47 453 -21 C451 13 449 46 448 80 C447 113 445 146 443 179 C442 196 441 213 440 231 C440 235 436 253 439 255 C443 259 452 257 457 262 L457 262 Z M117 248 C110 247 104 246 98 245 C102 298 108 351 118 404 C132 476 148 550 186 608 C201 630 220 649 242 659 C257 666 282 664 288 662 C324 649 342 600 352 567 C379 480 385 404 394 331 C394 327 397 289 397 289 C384 286 336 281 331 280 C260 270 188 259 117 248 L117 248 Z M231 811 C224 835 185 825 192 800 C199 775 234 786 231 811 L231 811 Z M296 792 C321 800 303 838 280 828 C255 818 274 780 296 792 L296 792 Z " />
<glyph glyph-name="Aring" unicode="&#xc5;" horiz-adv-x="506" d="M457 262 C464 269 464 279 459 286 C453 296 446 295 436 294 C429 373 421 452 403 529 C388 590 363 686 291 701 C225 715 171 664 142 610 C106 545 90 470 77 398 C70 353 64 307 60 262 C60 254 58 247 58 240 C59 236 58 234 54 233 C48 228 40 226 35 219 C25 205 37 186 54 189 C50 123 48 57 47 -9 C46 -25 46 -40 46 -56 C46 -71 43 -92 46 -107 C49 -118 60 -125 71 -122 C85 -118 85 -105 85 -92 C85 7 86 82 91 156 C92 166 89 201 97 205 C101 208 112 208 118 209 C143 213 166 216 190 220 C260 231 330 241 400 250 C405 171 408 92 412 12 C414 -24 413 -63 422 -99 C424 -111 429 -125 445 -124 C460 -123 466 -107 460 -95 C461 -96 462 -98 462 -99 C454 -74 454 -47 453 -21 C451 13 449 46 448 80 C447 113 445 146 443 179 C442 196 441 213 440 231 C440 235 436 253 439 255 C443 259 452 257 457 262 L457 262 Z M117 248 C110 247 104 246 98 245 C102 298 108 351 118 404 C132 476 148 550 186 608 C201 630 220 649 242 659 C257 666 282 664 288 662 C324 649 342 600 352 567 C379 480 385 404 394 331 C394 327 397 289 397 289 C384 286 336 281 331 280 C260 270 188 259 117 248 L117 248 Z M259 842 C205 842 205 759 259 759 C312 759 312 842 259 842 L259 842 Z M259 791 C246 791 246 810 259 810 C271 810 271 791 259 791 L259 791 Z " />
<glyph glyph-name="AE" unicode="&#xc6;" horiz-adv-x="753" d="M432 614 C484 619 537 624 589 626 C615 628 640 628 666 628 C678 628 691 628 704 628 C715 627 726 626 732 637 C744 659 717 666 701 667 C675 668 649 668 623 667 C571 665 519 661 468 656 C420 652 375 649 331 642 C322 641 319 638 315 647 C292 694 251 703 206 682 C125 645 94 538 76 459 C57 383 52 314 43 245 C43 240 44 230 42 226 C39 222 33 220 29 218 C21 212 14 205 16 194 C18 183 28 176 38 178 C34 120 32 63 31 5 C31 -24 30 -52 30 -80 C30 -97 25 -144 56 -132 C64 -129 68 -122 69 -114 C71 -99 69 -82 69 -67 C69 -39 70 -11 70 18 C72 76 74 134 78 192 C78 194 78 199 79 200 C80 202 90 205 92 206 C99 208 106 210 112 212 C127 217 143 221 158 224 C174 227 189 230 205 232 C212 234 219 235 226 236 C229 236 233 237 236 237 C237 237 248 239 243 238 C272 242 299 247 325 247 C330 242 326 198 326 190 C327 137 326 83 325 30 C325 4 325 -21 324 -46 C324 -55 327 -81 321 -85 C317 -87 308 -86 303 -87 C297 -88 291 -89 285 -91 C270 -95 258 -114 275 -127 C287 -135 310 -125 323 -124 C323 -142 345 -152 357 -138 C361 -134 360 -130 362 -125 C361 -121 363 -120 368 -121 C371 -121 375 -121 379 -121 C392 -121 404 -121 417 -120 C470 -119 523 -119 576 -116 C601 -114 625 -112 649 -108 C668 -105 696 -101 710 -87 C728 -70 708 -46 688 -55 C679 -59 670 -63 661 -65 C654 -67 647 -69 640 -70 C638 -70 619 -73 628 -71 C588 -78 546 -78 506 -80 C458 -81 411 -81 363 -82 C365 -14 366 54 366 123 C366 156 365 189 365 222 C365 228 362 240 365 245 C367 250 377 249 383 250 C399 252 415 253 431 254 C500 259 568 261 637 265 C649 266 667 264 677 272 C685 278 686 290 679 299 C670 310 654 305 642 304 C624 303 605 302 586 301 C512 298 438 294 364 289 C361 393 359 502 331 603 C365 607 398 611 432 614 L432 614 Z M146 261 C125 256 103 251 82 244 C87 310 96 363 107 419 C115 458 125 498 139 536 C151 567 167 599 190 623 C208 642 256 672 271 643 C271 644 275 637 277 635 C267 633 258 633 252 624 C249 617 249 609 254 603 C260 595 269 595 278 596 C280 596 286 598 288 597 C293 596 293 589 295 583 C307 533 312 481 316 430 C318 403 320 377 321 350 C323 332 321 308 321 287 C256 283 203 273 146 261 L146 261 Z " />
<glyph glyph-name="Ccedilla" unicode="&#xc7;" horiz-adv-x="515" d="M388 18 C425 104 447 198 458 290 C459 306 467 334 445 339 C422 343 422 318 420 303 C416 262 408 220 398 179 C379 100 358 21 311 -41 C293 -63 275 -80 250 -86 C193 -98 149 -39 130 7 C91 109 84 218 93 327 C98 387 109 446 127 504 C142 552 163 604 200 639 C216 655 236 666 260 661 C280 657 297 642 309 626 C330 598 343 557 346 528 C347 518 347 506 355 499 C363 492 374 493 381 500 C394 512 384 542 381 557 C372 596 356 636 327 665 C293 699 243 713 199 688 C155 663 128 611 108 565 C64 460 48 340 51 226 C53 169 58 111 73 55 C85 10 102 -37 132 -73 C168 -115 226 -139 279 -116 C334 -93 366 -33 388 18 L388 18 Z M269 -137 C265 -134 261 -132 257 -130 C272 -102 237 -80 222 -109 C216 -121 209 -132 215 -146 C218 -152 223 -157 230 -160 C237 -165 251 -166 251 -175 C251 -177 251 -178 250 -180 C246 -187 236 -187 229 -186 C217 -184 207 -177 196 -174 C181 -171 169 -182 172 -197 C176 -212 198 -218 211 -221 C228 -227 246 -227 262 -219 C295 -202 298 -160 269 -137 L269 -137 Z " />
<glyph glyph-name="Egrave" unicode="&#xc8;" horiz-adv-x="518" d="M42 617 C50 618 72 624 75 619 C77 616 80 588 81 577 C89 516 95 333 95 303 C95 300 89 300 88 298 C80 289 82 279 89 271 C90 269 95 268 95 267 C96 266 95 258 95 257 C95 199 95 168 95 137 C95 74 94 11 92 -52 C92 -54 93 -62 92 -63 C91 -65 81 -64 79 -64 C71 -65 63 -66 55 -68 C44 -71 34 -77 35 -91 C37 -119 74 -104 91 -102 C90 -122 117 -131 127 -113 C129 -111 128 -102 130 -100 C131 -99 145 -100 147 -99 C161 -99 176 -99 190 -99 C243 -98 295 -98 347 -94 C372 -92 396 -90 421 -86 C439 -83 464 -78 478 -65 C496 -48 476 -25 456 -34 C447 -38 438 -42 429 -44 C383 -54 326 -56 274 -58 C226 -59 179 -59 131 -61 C133 7 134 74 134 142 C134 250 134 248 134 267 C151 272 190 275 199 276 C266 281 332 282 399 286 C415 287 466 286 449 317 C441 330 428 327 415 326 C398 325 380 324 363 323 C286 320 210 317 134 309 C132 414 131 522 113 626 C225 639 334 650 442 650 C455 650 475 645 488 649 C499 652 505 664 501 675 C496 687 483 687 472 688 C351 695 242 680 137 668 C129 667 121 666 113 665 C113 665 106 664 105 664 C103 665 101 675 100 678 C96 689 89 699 76 696 C65 693 56 677 62 670 C64 667 65 662 66 659 C51 657 25 660 19 643 C13 627 27 615 42 617 L42 617 Z M281 830 C274 839 267 849 261 859 C255 869 247 879 234 876 C200 867 237 823 247 810 C256 798 266 787 276 776 C284 768 293 759 305 765 C337 780 291 817 281 830 L281 830 Z " />
<glyph glyph-name="Eacute" unicode="&#xc9;" horiz-adv-x="518" d="M42 617 C50 618 72 624 75 619 C77 616 80 588 81 577 C89 516 95 333 95 303 C95 300 89 300 88 298 C80 289 82 279 89 271 C90 269 95 268 95 267 C96 266 95 258 95 257 C95 199 95 168 95 137 C95 74 94 11 92 -52 C92 -54 93 -62 92 -63 C91 -65 81 -64 79 -64 C71 -65 63 -66 55 -68 C44 -71 34 -77 35 -91 C37 -119 74 -104 91 -102 C90 -122 117 -131 127 -113 C129 -111 128 -102 130 -100 C131 -99 145 -100 147 -99 C161 -99 176 -99 190 -99 C243 -98 295 -98 347 -94 C372 -92 396 -90 421 -86 C439 -83 464 -78 478 -65 C496 -48 476 -25 456 -34 C447 -38 438 -42 429 -44 C383 -54 326 -56 274 -58 C226 -59 179 -59 131 -61 C133 7 134 74 134 142 C134 250 134 248 134 267 C151 272 190 275 199 276 C266 281 332 282 399 286 C415 287 466 286 449 317 C441 330 428 327 415 326 C398 325 380 324 363 323 C286 320 210 317 134 309 C132 414 131 522 113 626 C225 639 334 650 442 650 C455 650 475 645 488 649 C499 652 505 664 501 675 C496 687 483 687 472 688 C351 695 242 680 137 668 C129 667 121 666 113 665 C113 665 106 664 105 664 C103 665 101 675 100 678 C96 689 89 699 76 696 C65 693 56 677 62 670 C64 667 65 662 66 659 C51 657 25 660 19 643 C13 627 27 615 42 617 L42 617 Z M256 834 C246 821 199 784 231 769 C244 763 253 772 261 780 C271 791 280 802 289 814 C300 828 337 871 303 880 C289 884 282 873 276 863 C270 853 263 844 256 834 L256 834 Z " />
<glyph glyph-name="Ecircumflex" unicode="&#xca;" horiz-adv-x="518" d="M42 617 C50 618 72 624 75 619 C77 616 80 588 81 577 C89 516 95 333 95 303 C95 300 89 300 88 298 C80 289 82 279 89 271 C90 269 95 268 95 267 C96 266 95 258 95 257 C95 199 95 168 95 137 C95 74 94 11 92 -52 C92 -54 93 -62 92 -63 C91 -65 81 -64 79 -64 C71 -65 63 -66 55 -68 C44 -71 34 -77 35 -91 C37 -119 74 -104 91 -102 C90 -122 117 -131 127 -113 C129 -111 128 -102 130 -100 C131 -99 145 -100 147 -99 C161 -99 176 -99 190 -99 C243 -98 295 -98 347 -94 C372 -92 396 -90 421 -86 C439 -83 464 -78 478 -65 C496 -48 476 -25 456 -34 C447 -38 438 -42 429 -44 C383 -54 326 -56 274 -58 C226 -59 179 -59 131 -61 C133 7 134 74 134 142 C134 250 134 248 134 267 C151 272 190 275 199 276 C266 281 332 282 399 286 C415 287 466 286 449 317 C441 330 428 327 415 326 C398 325 380 324 363 323 C286 320 210 317 134 309 C132 414 131 522 113 626 C225 639 334 650 442 650 C455 650 475 645 488 649 C499 652 505 664 501 675 C496 687 483 687 472 688 C351 695 242 680 137 668 C129 667 121 666 113 665 C113 665 106 664 105 664 C103 665 101 675 100 678 C96 689 89 699 76 696 C65 693 56 677 62 670 C64 667 65 662 66 659 C51 657 25 660 19 643 C13 627 27 615 42 617 L42 617 Z M335 831 C319 842 303 853 286 863 C270 874 262 866 248 856 C234 847 216 839 204 828 C194 819 196 802 209 796 C223 789 239 803 250 811 C255 814 267 825 272 826 C277 826 290 814 294 812 C305 804 320 789 335 797 C348 805 347 823 335 831 L335 831 Z " />
<glyph glyph-name="Edieresis" unicode="&#xcb;" horiz-adv-x="518" d="M42 617 C50 618 72 624 75 619 C77 616 80 588 81 577 C89 516 95 333 95 303 C95 300 89 300 88 298 C80 289 82 279 89 271 C90 269 95 268 95 267 C96 266 95 258 95 257 C95 199 95 168 95 137 C95 74 94 11 92 -52 C92 -54 93 -62 92 -63 C91 -65 81 -64 79 -64 C71 -65 63 -66 55 -68 C44 -71 34 -77 35 -91 C37 -119 74 -104 91 -102 C90 -122 117 -131 127 -113 C129 -111 128 -102 130 -100 C131 -99 145 -100 147 -99 C161 -99 176 -99 190 -99 C243 -98 295 -98 347 -94 C372 -92 396 -90 421 -86 C439 -83 464 -78 478 -65 C496 -48 476 -25 456 -34 C447 -38 438 -42 429 -44 C383 -54 326 -56 274 -58 C226 -59 179 -59 131 -61 C133 7 134 74 134 142 C134 250 134 248 134 267 C151 272 190 275 199 276 C266 281 332 282 399 286 C415 287 466 286 449 317 C441 330 428 327 415 326 C398 325 380 324 363 323 C286 320 210 317 134 309 C132 414 131 522 113 626 C225 639 334 650 442 650 C455 650 475 645 488 649 C499 652 505 664 501 675 C496 687 483 687 472 688 C351 695 242 680 137 668 C129 667 121 666 113 665 C113 665 106 664 105 664 C103 665 101 675 100 678 C96 689 89 699 76 696 C65 693 56 677 62 670 C64 667 65 662 66 659 C51 657 25 660 19 643 C13 627 27 615 42 617 L42 617 Z M244 807 C237 831 198 821 205 796 C212 771 247 782 244 807 L244 807 Z M309 788 C334 796 316 834 293 824 C268 814 287 776 309 788 L309 788 Z " />
<glyph glyph-name="Igrave" unicode="&#xcc;" horiz-adv-x="254" d="M42 655 C61 657 81 658 100 660 C98 516 109 91 115 -84 C95 -85 74 -85 54 -88 C39 -91 26 -106 37 -121 C47 -133 65 -126 78 -125 C99 -123 120 -122 141 -122 C160 -121 180 -121 199 -123 C212 -124 230 -127 234 -110 C243 -74 172 -83 153 -83 C149 66 143 297 141 378 C139 455 138 531 139 608 C139 617 139 651 140 661 C162 665 179 665 200 667 C212 667 228 667 232 682 C237 700 219 707 205 706 C161 703 118 700 75 697 C60 696 34 699 25 684 C18 673 27 654 42 655 L42 655 Z M139 839 C132 848 125 858 119 868 C113 878 105 888 92 885 C58 876 95 832 105 819 C114 807 124 796 134 785 C142 777 151 768 163 774 C195 789 149 826 139 839 L139 839 Z " />
<glyph glyph-name="Iacute" unicode="&#xcd;" horiz-adv-x="254" d="M42 655 C61 657 81 658 100 660 C98 516 109 91 115 -84 C95 -85 74 -85 54 -88 C39 -91 26 -106 37 -121 C47 -133 65 -126 78 -125 C99 -123 120 -122 141 -122 C160 -121 180 -121 199 -123 C212 -124 230 -127 234 -110 C243 -74 172 -83 153 -83 C149 66 143 297 141 378 C139 455 138 531 139 608 C139 617 139 651 140 661 C162 665 179 665 200 667 C212 667 228 667 232 682 C237 700 219 707 205 706 C161 703 118 700 75 697 C60 696 34 699 25 684 C18 673 27 654 42 655 L42 655 Z M115 832 C105 819 58 782 90 767 C103 761 112 770 120 778 C130 789 139 800 148 812 C159 826 196 869 162 878 C148 882 141 871 135 861 C129 851 122 842 115 832 L115 832 Z " />
<glyph glyph-name="Icircumflex" unicode="&#xce;" horiz-adv-x="254" d="M42 655 C61 657 81 658 100 660 C98 516 109 91 115 -84 C95 -85 74 -85 54 -88 C39 -91 26 -106 37 -121 C47 -133 65 -126 78 -125 C99 -123 120 -122 141 -122 C160 -121 180 -121 199 -123 C212 -124 230 -127 234 -110 C243 -74 172 -83 153 -83 C149 66 143 297 141 378 C139 455 138 531 139 608 C139 617 139 651 140 661 C162 665 179 665 200 667 C212 667 228 667 232 682 C237 700 219 707 205 706 C161 703 118 700 75 697 C60 696 34 699 25 684 C18 673 27 654 42 655 L42 655 Z M186 826 C170 837 154 848 137 858 C121 869 113 861 99 851 C85 842 67 834 55 823 C45 814 47 797 60 791 C74 784 90 798 101 806 C106 809 118 820 123 821 C128 821 141 809 145 807 C156 799 171 784 186 792 C199 800 198 818 186 826 L186 826 Z " />
<glyph glyph-name="Idieresis" unicode="&#xcf;" horiz-adv-x="254" d="M42 655 C61 657 81 658 100 660 C98 516 109 91 115 -84 C95 -85 74 -85 54 -88 C39 -91 26 -106 37 -121 C47 -133 65 -126 78 -125 C99 -123 120 -122 141 -122 C160 -121 180 -121 199 -123 C212 -124 230 -127 234 -110 C243 -74 172 -83 153 -83 C149 66 143 297 141 378 C139 455 138 531 139 608 C139 617 139 651 140 661 C162 665 179 665 200 667 C212 667 228 667 232 682 C237 700 219 707 205 706 C161 703 118 700 75 697 C60 696 34 699 25 684 C18 673 27 654 42 655 L42 655 Z M105 824 C98 848 59 838 66 813 C73 788 108 799 105 824 L105 824 Z M170 805 C195 813 177 851 154 841 C129 831 148 793 170 805 L170 805 Z " />
<glyph glyph-name="Eth" unicode="&#xd0;" horiz-adv-x="603" d="M552 525 C532 606 477 673 395 695 C308 718 217 690 145 641 C145 657 151 705 120 696 C108 692 106 682 106 672 C105 656 106 640 106 624 C106 595 68 589 64 563 C62 553 68 544 78 541 C91 537 98 547 106 556 C103 467 106 391 111 312 C103 307 64 308 51 307 C37 305 19 303 20 286 C21 268 36 266 50 268 C71 270 92 272 112 273 C118 156 122 55 140 -45 C138 -51 117 -55 110 -57 C99 -59 88 -62 77 -64 C66 -65 56 -66 45 -66 C33 -66 21 -63 14 -74 C9 -81 9 -91 15 -98 C23 -106 35 -105 45 -105 C70 -106 95 -101 119 -94 C129 -92 138 -87 146 -87 C157 -87 158 -111 169 -117 C177 -122 187 -121 193 -114 C200 -105 198 -97 194 -88 C192 -85 185 -70 188 -69 C309 -32 442 94 501 199 C556 296 579 415 552 525 L552 525 Z M521 381 C499 196 346 40 178 -33 C156 68 156 173 151 275 C169 276 187 276 205 276 C218 276 232 282 230 298 C228 311 217 315 205 315 C187 316 168 315 150 314 C148 374 147 435 146 495 C145 525 145 554 145 584 C145 593 146 593 152 598 C168 611 184 620 201 630 C280 672 387 684 457 618 C522 557 531 461 521 381 L521 381 Z " />
<glyph glyph-name="Ntilde" unicode="&#xd1;" horiz-adv-x="586" d="M58 -91 C58 -109 80 -117 92 -104 C98 -97 97 -89 96 -80 C96 -68 96 -56 95 -44 C94 3 93 51 93 98 C93 192 94 287 96 381 C97 435 99 489 101 542 C137 405 171 268 214 133 C233 71 254 8 287 -48 C313 -94 364 -145 419 -109 C468 -76 485 -5 497 49 C512 118 519 189 524 259 C529 328 531 397 533 466 C534 502 535 539 536 576 C536 592 537 609 537 626 C537 634 538 642 538 650 C538 659 540 669 537 677 C533 688 519 692 509 686 C496 679 499 660 499 648 C498 612 497 576 496 540 C495 470 493 400 489 330 C485 262 481 194 471 126 C462 66 453 -2 419 -54 C408 -71 388 -89 366 -79 C340 -68 324 -36 312 -12 C282 45 263 107 244 169 C202 304 168 441 132 578 C123 610 117 644 105 675 C101 685 92 692 80 688 C65 683 67 666 66 653 C63 582 60 510 58 438 C54 297 52 155 55 13 C56 -22 57 -57 58 -91 L58 -91 Z M473 140 C473 140 473 140 473 140 C473 140 473 140 473 140 L473 140 Z M359 844 C347 850 340 844 332 837 C331 835 330 834 328 833 C326 832 318 830 323 831 C319 827 308 836 305 838 C296 843 289 849 278 852 C259 857 238 852 223 839 C212 827 201 801 223 794 C231 792 240 795 245 801 C247 804 248 807 250 810 C250 810 255 814 251 811 C251 812 257 815 258 815 C253 813 262 815 264 815 C268 815 270 814 274 812 C289 803 301 791 320 792 C334 792 349 798 359 808 C368 818 375 836 359 844 L359 844 Z M248 808 C248 808 248 808 249 809 C249 808 248 808 248 808 L248 808 Z M269 815 C270 815 270 814 270 814 C270 814 269 815 269 815 L269 815 Z M329 834 C330 834 330 834 331 835 C331 835 330 834 329 834 L329 834 Z " />
<glyph glyph-name="Ograve" unicode="&#xd2;" horiz-adv-x="578" d="M59 53 C80 -9 114 -73 172 -109 C230 -145 301 -141 358 -106 C478 -32 522 154 533 279 C539 355 534 434 513 508 C495 573 463 638 406 677 C352 714 276 726 215 699 C154 672 115 613 91 552 C77 514 68 473 63 433 C62 422 62 412 59 402 C50 371 42 341 37 309 C25 223 30 136 59 53 L59 53 Z M74 157 C74 160 74 157 74 156 C74 156 74 157 74 157 L74 157 Z M71 254 C85 201 107 148 136 102 C151 80 168 58 188 40 C200 28 227 -1 246 6 C255 9 260 19 259 28 C257 40 243 45 234 52 C216 65 200 81 186 99 C136 163 105 245 100 323 C99 339 99 355 99 371 C99 386 98 399 105 411 C101 405 109 421 109 422 C112 428 115 433 118 439 C134 468 152 491 175 509 C206 535 245 552 284 557 C289 558 352 550 338 585 C333 597 321 597 310 597 C294 597 277 596 262 592 C205 581 154 550 117 507 C135 568 169 636 231 664 C286 689 358 671 402 631 C456 581 478 506 489 435 C501 360 498 282 484 207 C460 90 415 -54 305 -88 C269 -100 230 -98 197 -79 C132 -41 100 39 83 109 C72 157 69 205 71 254 L71 254 Z M309 843 C302 852 295 862 289 872 C283 882 275 892 262 889 C228 880 265 836 275 823 C284 811 294 800 304 789 C312 781 321 772 333 778 C365 793 319 830 309 843 L309 843 Z " />
<glyph glyph-name="Oacute" unicode="&#xd3;" horiz-adv-x="578" d="M59 53 C80 -9 114 -73 172 -109 C230 -145 301 -141 358 -106 C478 -32 522 154 533 279 C539 355 534 434 513 508 C495 573 463 638 406 677 C352 714 276 726 215 699 C154 672 115 613 91 552 C77 514 68 473 63 433 C62 422 62 412 59 402 C50 371 42 341 37 309 C25 223 30 136 59 53 L59 53 Z M74 157 C74 160 74 157 74 156 C74 156 74 157 74 157 L74 157 Z M71 254 C85 201 107 148 136 102 C151 80 168 58 188 40 C200 28 227 -1 246 6 C255 9 260 19 259 28 C257 40 243 45 234 52 C216 65 200 81 186 99 C136 163 105 245 100 323 C99 339 99 355 99 371 C99 386 98 399 105 411 C101 405 109 421 109 422 C112 428 115 433 118 439 C134 468 152 491 175 509 C206 535 245 552 284 557 C289 558 352 550 338 585 C333 597 321 597 310 597 C294 597 277 596 262 592 C205 581 154 550 117 507 C135 568 169 636 231 664 C286 689 358 671 402 631 C456 581 478 506 489 435 C501 360 498 282 484 207 C460 90 415 -54 305 -88 C269 -100 230 -98 197 -79 C132 -41 100 39 83 109 C72 157 69 205 71 254 L71 254 Z M277 835 C267 822 220 785 252 770 C265 764 274 773 282 781 C292 792 301 803 310 815 C321 829 358 872 324 881 C310 885 303 874 297 864 C291 854 284 845 277 835 L277 835 Z " />
<glyph glyph-name="Ocircumflex" unicode="&#xd4;" horiz-adv-x="578" d="M59 53 C80 -9 114 -73 172 -109 C230 -145 301 -141 358 -106 C478 -32 522 154 533 279 C539 355 534 434 513 508 C495 573 463 638 406 677 C352 714 276 726 215 699 C154 672 115 613 91 552 C77 514 68 473 63 433 C62 422 62 412 59 402 C50 371 42 341 37 309 C25 223 30 136 59 53 L59 53 Z M74 157 C74 160 74 157 74 156 C74 156 74 157 74 157 L74 157 Z M71 254 C85 201 107 148 136 102 C151 80 168 58 188 40 C200 28 227 -1 246 6 C255 9 260 19 259 28 C257 40 243 45 234 52 C216 65 200 81 186 99 C136 163 105 245 100 323 C99 339 99 355 99 371 C99 386 98 399 105 411 C101 405 109 421 109 422 C112 428 115 433 118 439 C134 468 152 491 175 509 C206 535 245 552 284 557 C289 558 352 550 338 585 C333 597 321 597 310 597 C294 597 277 596 262 592 C205 581 154 550 117 507 C135 568 169 636 231 664 C286 689 358 671 402 631 C456 581 478 506 489 435 C501 360 498 282 484 207 C460 90 415 -54 305 -88 C269 -100 230 -98 197 -79 C132 -41 100 39 83 109 C72 157 69 205 71 254 L71 254 Z M353 824 C337 835 321 846 304 856 C288 867 280 859 266 849 C252 840 234 832 222 821 C212 812 214 795 227 789 C241 782 257 796 268 804 C273 807 285 818 290 819 C295 819 308 807 312 805 C323 797 338 782 353 790 C366 798 365 816 353 824 L353 824 Z " />
<glyph glyph-name="Otilde" unicode="&#xd5;" horiz-adv-x="578" d="M59 53 C80 -9 114 -73 172 -109 C230 -145 301 -141 358 -106 C478 -32 522 154 533 279 C539 355 534 434 513 508 C495 573 463 638 406 677 C352 714 276 726 215 699 C154 672 115 613 91 552 C77 514 68 473 63 433 C62 422 62 412 59 402 C50 371 42 341 37 309 C25 223 30 136 59 53 L59 53 Z M74 157 C74 160 74 157 74 156 C74 156 74 157 74 157 L74 157 Z M71 254 C85 201 107 148 136 102 C151 80 168 58 188 40 C200 28 227 -1 246 6 C255 9 260 19 259 28 C257 40 243 45 234 52 C216 65 200 81 186 99 C136 163 105 245 100 323 C99 339 99 355 99 371 C99 386 98 399 105 411 C101 405 109 421 109 422 C112 428 115 433 118 439 C134 468 152 491 175 509 C206 535 245 552 284 557 C289 558 352 550 338 585 C333 597 321 597 310 597 C294 597 277 596 262 592 C205 581 154 550 117 507 C135 568 169 636 231 664 C286 689 358 671 402 631 C456 581 478 506 489 435 C501 360 498 282 484 207 C460 90 415 -54 305 -88 C269 -100 230 -98 197 -79 C132 -41 100 39 83 109 C72 157 69 205 71 254 L71 254 Z M360 843 C348 849 341 843 333 836 C332 834 331 833 329 832 C327 831 319 829 324 830 C320 826 309 835 306 837 C297 842 290 848 279 851 C260 856 239 851 224 838 C213 826 202 800 224 793 C232 791 241 794 246 800 C248 803 249 806 251 809 C251 809 256 813 252 810 C252 811 258 814 259 814 C254 812 263 814 265 814 C269 814 271 813 275 811 C290 802 302 790 321 791 C335 791 350 797 360 807 C369 817 376 835 360 843 L360 843 Z M249 807 C249 807 249 807 250 808 C250 807 249 807 249 807 L249 807 Z M270 814 C271 814 271 813 271 813 C271 813 270 814 270 814 L270 814 Z M330 833 C331 833 331 833 332 834 C332 834 331 833 330 833 L330 833 Z " />
<glyph glyph-name="Odieresis" unicode="&#xd6;" horiz-adv-x="578" d="M59 53 C80 -9 114 -73 172 -109 C230 -145 301 -141 358 -106 C478 -32 522 154 533 279 C539 355 534 434 513 508 C495 573 463 638 406 677 C352 714 276 726 215 699 C154 672 115 613 91 552 C77 514 68 473 63 433 C62 422 62 412 59 402 C50 371 42 341 37 309 C25 223 30 136 59 53 L59 53 Z M74 157 C74 160 74 157 74 156 C74 156 74 157 74 157 L74 157 Z M71 254 C85 201 107 148 136 102 C151 80 168 58 188 40 C200 28 227 -1 246 6 C255 9 260 19 259 28 C257 40 243 45 234 52 C216 65 200 81 186 99 C136 163 105 245 100 323 C99 339 99 355 99 371 C99 386 98 399 105 411 C101 405 109 421 109 422 C112 428 115 433 118 439 C134 468 152 491 175 509 C206 535 245 552 284 557 C289 558 352 550 338 585 C333 597 321 597 310 597 C294 597 277 596 262 592 C205 581 154 550 117 507 C135 568 169 636 231 664 C286 689 358 671 402 631 C456 581 478 506 489 435 C501 360 498 282 484 207 C460 90 415 -54 305 -88 C269 -100 230 -98 197 -79 C132 -41 100 39 83 109 C72 157 69 205 71 254 L71 254 Z M261 827 C254 851 215 841 222 816 C229 791 264 802 261 827 L261 827 Z M326 808 C351 816 333 854 310 844 C285 834 304 796 326 808 L326 808 Z " />
<glyph glyph-name="multiply" unicode="&#xd7;" horiz-adv-x="312" d="M273 55 C258 70 242 86 227 102 C211 118 193 137 179 153 C208 183 232 214 258 243 C267 254 286 270 276 285 C264 302 248 291 238 280 C210 247 182 214 152 182 C137 199 121 217 106 235 C91 252 77 273 60 289 C47 301 25 291 27 273 C28 263 37 256 43 249 C51 239 59 230 67 220 C77 208 116 164 126 153 C121 147 95 119 91 115 C74 98 58 81 42 64 C31 53 16 32 39 23 C52 18 59 27 68 35 C77 44 86 54 96 64 C115 84 134 104 153 124 C178 96 204 69 231 42 C240 33 249 18 264 22 C278 26 283 44 273 55 L273 55 Z " />
<glyph glyph-name="Oslash" unicode="&#xd8;" horiz-adv-x="552" d="M520 440 C515 476 507 513 493 548 C487 565 479 581 470 597 C466 605 458 613 455 622 C452 627 452 627 455 633 C457 638 459 643 461 648 C469 665 476 682 484 699 C489 712 492 728 475 733 C459 738 453 725 447 713 C440 694 431 676 423 657 C367 711 277 732 205 699 C133 665 92 589 72 516 C66 494 61 472 58 449 C56 439 55 428 54 418 C53 406 49 396 46 385 C33 342 27 297 25 253 C20 165 35 75 76 -4 C81 -14 86 -24 92 -34 C95 -37 100 -43 102 -47 C104 -53 98 -61 95 -67 C90 -79 84 -90 79 -102 C74 -111 68 -120 66 -130 C62 -148 82 -162 97 -150 C105 -144 109 -128 114 -118 C120 -106 125 -94 131 -82 C166 -116 214 -137 264 -134 C315 -130 362 -104 397 -67 C473 12 505 131 520 237 C530 304 530 372 520 440 L520 440 Z M125 551 C125 551 125 550 124 549 C125 550 125 551 125 551 L125 551 Z M92 400 C94 404 95 408 97 412 C94 406 101 422 102 423 C105 429 108 434 111 440 C117 450 123 461 130 470 C141 485 154 499 168 510 C198 536 237 553 277 557 C276 557 275 557 274 557 C290 559 343 553 331 585 C326 597 314 598 302 598 C286 598 270 596 254 593 C198 582 147 551 110 508 C125 560 151 615 197 649 C240 681 298 682 347 662 C360 657 372 650 382 642 C386 639 390 636 394 632 C397 630 399 627 402 624 C407 620 406 619 404 613 C389 581 375 549 361 517 C332 453 303 388 274 323 C241 250 208 178 175 105 C145 146 123 193 108 241 C92 293 89 346 92 400 L92 400 Z M126 192 C126 193 126 193 126 193 C124 196 126 194 126 192 L126 192 Z M66 158 C66 161 67 158 67 157 C67 157 67 157 66 158 L66 158 Z M122 -8 C75 70 59 164 64 255 C76 207 95 161 119 119 C125 108 132 98 139 89 C142 85 145 81 147 77 C149 75 151 72 154 69 C157 67 158 64 154 61 C153 51 144 39 140 29 C134 17 128 4 122 -8 L122 -8 Z M483 254 C477 203 466 153 449 105 C435 62 413 11 386 -20 C347 -65 299 -103 236 -94 C208 -91 183 -77 163 -58 C160 -56 149 -48 149 -44 C148 -38 159 -22 161 -17 C169 0 177 18 186 36 C198 25 221 1 239 7 C257 13 253 34 240 43 C234 48 227 52 220 57 C216 60 212 64 208 67 C205 71 204 71 204 76 C204 78 207 83 208 86 C219 109 230 133 241 156 C282 248 324 339 365 431 C388 482 410 533 433 584 C491 488 496 362 483 254 L483 254 Z M223 55 C223 54 224 54 224 54 C224 54 223 55 223 55 L223 55 Z " />
<glyph glyph-name="Ugrave" unicode="&#xd9;" horiz-adv-x="600" d="M540 191 C540 288 541 385 544 481 C545 529 547 577 548 624 C549 641 557 675 535 681 C514 688 510 664 510 649 C507 604 501 558 496 515 C483 420 464 319 439 224 C417 146 381 30 334 -26 C287 -90 236 -102 182 -49 C98 33 68 330 72 444 C72 516 79 586 86 657 C88 672 71 687 55 676 C47 669 47 659 46 649 C44 636 43 622 42 609 C36 556 33 503 33 449 C30 297 48 -9 183 -99 C221 -124 268 -124 308 -101 C346 -79 373 -41 394 -4 C450 95 478 210 502 320 C500 179 503 54 508 -71 C510 -86 506 -119 530 -118 C556 -117 548 -85 547 -68 C546 -42 544 -16 543 10 C541 71 540 131 540 191 L540 191 Z M305 839 C298 848 291 858 285 868 C279 878 271 888 258 885 C224 876 261 832 271 819 C280 807 290 796 300 785 C308 777 317 768 329 774 C361 789 315 826 305 839 L305 839 Z " />
<glyph glyph-name="Uacute" unicode="&#xda;" horiz-adv-x="600" d="M540 191 C540 288 541 385 544 481 C545 529 547 577 548 624 C549 641 557 675 535 681 C514 688 510 664 510 649 C507 604 501 558 496 515 C483 420 464 319 439 224 C417 146 381 30 334 -26 C287 -90 236 -102 182 -49 C98 33 68 330 72 444 C72 516 79 586 86 657 C88 672 71 687 55 676 C47 669 47 659 46 649 C44 636 43 622 42 609 C36 556 33 503 33 449 C30 297 48 -9 183 -99 C221 -124 268 -124 308 -101 C346 -79 373 -41 394 -4 C450 95 478 210 502 320 C500 179 503 54 508 -71 C510 -86 506 -119 530 -118 C556 -117 548 -85 547 -68 C546 -42 544 -16 543 10 C541 71 540 131 540 191 L540 191 Z M276 827 C266 814 219 777 251 762 C264 756 273 765 281 773 C291 784 300 795 309 807 C320 821 357 864 323 873 C309 877 302 866 296 856 C290 846 283 837 276 827 L276 827 Z " />
<glyph glyph-name="Ucircumflex" unicode="&#xdb;" horiz-adv-x="600" d="M540 191 C540 288 541 385 544 481 C545 529 547 577 548 624 C549 641 557 675 535 681 C514 688 510 664 510 649 C507 604 501 558 496 515 C483 420 464 319 439 224 C417 146 381 30 334 -26 C287 -90 236 -102 182 -49 C98 33 68 330 72 444 C72 516 79 586 86 657 C88 672 71 687 55 676 C47 669 47 659 46 649 C44 636 43 622 42 609 C36 556 33 503 33 449 C30 297 48 -9 183 -99 C221 -124 268 -124 308 -101 C346 -79 373 -41 394 -4 C450 95 478 210 502 320 C500 179 503 54 508 -71 C510 -86 506 -119 530 -118 C556 -117 548 -85 547 -68 C546 -42 544 -16 543 10 C541 71 540 131 540 191 L540 191 Z M361 811 C345 822 329 833 312 843 C296 854 288 846 274 836 C260 827 242 819 230 808 C220 799 222 782 235 776 C249 769 265 783 276 791 C281 794 293 805 298 806 C303 806 316 794 320 792 C331 784 346 769 361 777 C374 785 373 803 361 811 L361 811 Z " />
<glyph glyph-name="Udieresis" unicode="&#xdc;" horiz-adv-x="600" d="M540 191 C540 288 541 385 544 481 C545 529 547 577 548 624 C549 641 557 675 535 681 C514 688 510 664 510 649 C507 604 501 558 496 515 C483 420 464 319 439 224 C417 146 381 30 334 -26 C287 -90 236 -102 182 -49 C98 33 68 330 72 444 C72 516 79 586 86 657 C88 672 71 687 55 676 C47 669 47 659 46 649 C44 636 43 622 42 609 C36 556 33 503 33 449 C30 297 48 -9 183 -99 C221 -124 268 -124 308 -101 C346 -79 373 -41 394 -4 C450 95 478 210 502 320 C500 179 503 54 508 -71 C510 -86 506 -119 530 -118 C556 -117 548 -85 547 -68 C546 -42 544 -16 543 10 C541 71 540 131 540 191 L540 191 Z M269 811 C262 835 223 825 230 800 C237 775 272 786 269 811 L269 811 Z M334 792 C359 800 341 838 318 828 C293 818 312 780 334 792 L334 792 Z " />
<glyph glyph-name="Yacute" unicode="&#xdd;" horiz-adv-x="556" d="M268 113 C322 138 356 198 380 250 C409 311 429 376 446 441 C440 341 434 240 427 140 C424 92 421 44 418 -5 C417 -27 415 -49 410 -70 C407 -82 404 -92 400 -103 C399 -106 398 -109 397 -112 C397 -113 394 -119 396 -114 C389 -132 406 -152 424 -141 C432 -136 434 -124 437 -115 C442 -103 445 -89 448 -76 C460 -23 460 33 463 87 C470 198 477 308 484 418 C487 473 491 527 494 582 C496 609 498 635 499 661 C500 677 504 713 475 704 C464 700 462 691 460 680 C458 667 455 653 452 640 C447 613 441 587 435 560 C423 507 410 454 394 401 C379 350 361 298 336 250 C321 221 286 160 248 146 C159 114 122 231 107 296 C84 388 79 485 77 580 C76 605 76 630 76 655 C76 664 78 673 72 680 C66 687 57 689 49 685 C31 677 37 647 37 631 C37 606 38 581 38 556 C41 460 48 361 74 267 C86 222 104 173 137 138 C172 102 222 92 268 113 L268 113 Z M260 843 C250 830 203 793 235 778 C248 772 257 781 265 789 C275 800 284 811 293 823 C304 837 341 880 307 889 C293 893 286 882 280 872 C274 862 267 853 260 843 L260 843 Z " />
<glyph glyph-name="Thorn" unicode="&#xde;" horiz-adv-x="431" d="M271 444 C207 456 141 452 78 439 C77 503 75 566 74 630 C74 642 77 659 69 669 C61 679 47 679 39 669 C32 660 35 645 35 635 C35 581 37 533 38 486 C38 471 39 456 39 441 C39 441 40 432 39 430 C33 424 25 424 25 413 C23 406 29 398 35 395 C39 390 40 396 40 388 C39 327 39 215 39 192 C39 178 39 154 39 154 C37 152 27 154 25 154 C12 153 2 141 7 128 C12 115 26 115 37 115 C36 72 34 28 32 -15 C30 -49 29 -74 27 -107 C26 -117 22 -131 28 -140 C37 -153 57 -150 63 -136 C65 -129 65 -120 65 -112 C66 -100 67 -87 68 -74 C72 -7 75 76 76 116 C141 118 202 127 260 152 C324 179 387 232 400 301 C415 383 343 431 271 444 L271 444 Z M363 317 C361 270 324 233 286 209 C241 180 185 161 135 159 C116 157 97 155 78 154 C79 235 79 319 79 396 C121 408 161 412 202 412 C229 412 256 409 282 402 C323 391 364 366 363 317 L363 317 Z " />
<glyph glyph-name="germandbls" unicode="&#xdf;" horiz-adv-x="637" d="M605 111 C602 168 579 223 536 261 C492 300 434 319 376 325 C454 390 535 480 511 590 C500 638 471 683 425 704 C379 725 320 719 274 697 C179 651 126 546 101 448 C73 334 70 215 63 98 C57 -24 52 -153 5 -267 C6 -266 6 -265 6 -265 C3 -273 -4 -282 -3 -292 C-2 -304 8 -311 20 -309 C32 -308 35 -296 39 -286 C45 -273 51 -258 56 -244 C74 -186 84 -125 90 -64 C104 63 103 192 118 319 C122 353 127 387 135 420 C150 489 175 553 218 603 C241 631 271 656 306 668 C339 680 380 685 411 668 C444 650 467 628 475 571 C485 503 444 446 402 401 C377 376 354 356 330 338 C323 332 311 326 307 317 C304 310 306 302 310 296 C317 288 326 289 335 289 C353 288 370 287 387 285 C425 278 471 265 500 241 C554 195 576 131 564 66 C546 -30 460 -90 372 -103 C331 -108 290 -100 257 -86 C246 -81 221 -67 205 -55 C197 -50 190 -43 180 -46 C170 -49 164 -60 166 -70 C172 -89 208 -104 223 -113 C245 -124 269 -133 293 -138 C390 -157 496 -120 556 -41 C590 2 608 56 605 111 L605 111 Z " />
<glyph glyph-name="agrave" unicode="&#xe0;" horiz-adv-x="471" d="M411 459 C383 465 384 429 381 411 C376 384 373 357 369 330 C360 367 346 406 316 433 C288 458 249 465 213 455 C142 436 97 368 73 303 C43 222 40 133 60 50 C77 -21 121 -117 205 -120 C299 -124 341 -11 362 62 C365 1 372 -60 381 -121 C383 -132 385 -142 397 -145 C407 -148 418 -142 420 -132 C423 -121 418 -108 417 -98 C415 -87 414 -75 412 -64 C397 55 391 179 407 298 C411 330 414 362 419 394 C421 411 435 453 411 459 L411 459 Z M348 173 C335 105 320 33 284 -27 C271 -49 250 -76 224 -80 C129 -96 97 48 88 110 C82 167 87 223 105 277 C121 326 149 378 194 405 C213 416 235 423 256 420 C283 416 300 398 312 376 C328 345 335 310 341 276 C346 243 354 206 348 173 L348 173 Z M248 588 C241 597 234 607 228 617 C222 627 214 637 201 634 C167 625 204 581 214 568 C223 556 233 545 243 534 C251 526 260 517 272 523 C304 538 258 575 248 588 L248 588 Z " />
<glyph glyph-name="aacute" unicode="&#xe1;" horiz-adv-x="471" d="M411 459 C383 465 384 429 381 411 C376 384 373 357 369 330 C360 367 346 406 316 433 C288 458 249 465 213 455 C142 436 97 368 73 303 C43 222 40 133 60 50 C77 -21 121 -117 205 -120 C299 -124 341 -11 362 62 C365 1 372 -60 381 -121 C383 -132 385 -142 397 -145 C407 -148 418 -142 420 -132 C423 -121 418 -108 417 -98 C415 -87 414 -75 412 -64 C397 55 391 179 407 298 C411 330 414 362 419 394 C421 411 435 453 411 459 L411 459 Z M348 173 C335 105 320 33 284 -27 C271 -49 250 -76 224 -80 C129 -96 97 48 88 110 C82 167 87 223 105 277 C121 326 149 378 194 405 C213 416 235 423 256 420 C283 416 300 398 312 376 C328 345 335 310 341 276 C346 243 354 206 348 173 L348 173 Z M227 575 C217 562 170 525 202 510 C215 504 224 513 232 521 C242 532 251 543 260 555 C271 569 308 612 274 621 C260 625 253 614 247 604 C241 594 234 585 227 575 L227 575 Z " />
<glyph glyph-name="acircumflex" unicode="&#xe2;" horiz-adv-x="471" d="M411 459 C383 465 384 429 381 411 C376 384 373 357 369 330 C360 367 346 406 316 433 C288 458 249 465 213 455 C142 436 97 368 73 303 C43 222 40 133 60 50 C77 -21 121 -117 205 -120 C299 -124 341 -11 362 62 C365 1 372 -60 381 -121 C383 -132 385 -142 397 -145 C407 -148 418 -142 420 -132 C423 -121 418 -108 417 -98 C415 -87 414 -75 412 -64 C397 55 391 179 407 298 C411 330 414 362 419 394 C421 411 435 453 411 459 L411 459 Z M348 173 C335 105 320 33 284 -27 C271 -49 250 -76 224 -80 C129 -96 97 48 88 110 C82 167 87 223 105 277 C121 326 149 378 194 405 C213 416 235 423 256 420 C283 416 300 398 312 376 C328 345 335 310 341 276 C346 243 354 206 348 173 L348 173 Z M299 558 C283 569 267 580 250 590 C234 601 226 593 212 583 C198 574 180 566 168 555 C158 546 160 529 173 523 C187 516 203 530 214 538 C219 541 231 552 236 553 C241 553 254 541 258 539 C269 531 284 516 299 524 C312 532 311 550 299 558 L299 558 Z " />
<glyph glyph-name="atilde" unicode="&#xe3;" horiz-adv-x="471" d="M411 459 C383 465 384 429 381 411 C376 384 373 357 369 330 C360 367 346 406 316 433 C288 458 249 465 213 455 C142 436 97 368 73 303 C43 222 40 133 60 50 C77 -21 121 -117 205 -120 C299 -124 341 -11 362 62 C365 1 372 -60 381 -121 C383 -132 385 -142 397 -145 C407 -148 418 -142 420 -132 C423 -121 418 -108 417 -98 C415 -87 414 -75 412 -64 C397 55 391 179 407 298 C411 330 414 362 419 394 C421 411 435 453 411 459 L411 459 Z M348 173 C335 105 320 33 284 -27 C271 -49 250 -76 224 -80 C129 -96 97 48 88 110 C82 167 87 223 105 277 C121 326 149 378 194 405 C213 416 235 423 256 420 C283 416 300 398 312 376 C328 345 335 310 341 276 C346 243 354 206 348 173 L348 173 Z M308 576 C296 582 289 576 281 569 C280 567 279 566 277 565 C275 564 267 562 272 563 C268 559 257 568 254 570 C245 575 238 581 227 584 C208 589 187 584 172 571 C161 559 150 533 172 526 C180 524 189 527 194 533 C196 536 197 539 199 542 C199 542 204 546 200 543 C200 544 206 547 207 547 C202 545 211 547 213 547 C217 547 219 546 223 544 C238 535 250 523 269 524 C283 524 298 530 308 540 C317 550 324 568 308 576 L308 576 Z M197 540 C197 540 197 540 198 541 C198 540 197 540 197 540 L197 540 Z M218 547 C219 547 219 546 219 546 C219 546 218 547 218 547 L218 547 Z M278 566 C279 566 279 566 280 567 C280 567 279 566 278 566 L278 566 Z " />
<glyph glyph-name="adieresis" unicode="&#xe4;" horiz-adv-x="471" d="M411 459 C383 465 384 429 381 411 C376 384 373 357 369 330 C360 367 346 406 316 433 C288 458 249 465 213 455 C142 436 97 368 73 303 C43 222 40 133 60 50 C77 -21 121 -117 205 -120 C299 -124 341 -11 362 62 C365 1 372 -60 381 -121 C383 -132 385 -142 397 -145 C407 -148 418 -142 420 -132 C423 -121 418 -108 417 -98 C415 -87 414 -75 412 -64 C397 55 391 179 407 298 C411 330 414 362 419 394 C421 411 435 453 411 459 L411 459 Z M348 173 C335 105 320 33 284 -27 C271 -49 250 -76 224 -80 C129 -96 97 48 88 110 C82 167 87 223 105 277 C121 326 149 378 194 405 C213 416 235 423 256 420 C283 416 300 398 312 376 C328 345 335 310 341 276 C346 243 354 206 348 173 L348 173 Z M204 552 C197 576 158 566 165 541 C172 516 207 527 204 552 L204 552 Z M269 533 C294 541 276 579 253 569 C228 559 247 521 269 533 L269 533 Z " />
<glyph glyph-name="aring" unicode="&#xe5;" horiz-adv-x="471" d="M411 459 C383 465 384 429 381 411 C376 384 373 357 369 330 C360 367 346 406 316 433 C288 458 249 465 213 455 C142 436 97 368 73 303 C43 222 40 133 60 50 C77 -21 121 -117 205 -120 C299 -124 341 -11 362 62 C365 1 372 -60 381 -121 C383 -132 385 -142 397 -145 C407 -148 418 -142 420 -132 C423 -121 418 -108 417 -98 C415 -87 414 -75 412 -64 C397 55 391 179 407 298 C411 330 414 362 419 394 C421 411 435 453 411 459 L411 459 Z M348 173 C335 105 320 33 284 -27 C271 -49 250 -76 224 -80 C129 -96 97 48 88 110 C82 167 87 223 105 277 C121 326 149 378 194 405 C213 416 235 423 256 420 C283 416 300 398 312 376 C328 345 335 310 341 276 C346 243 354 206 348 173 L348 173 Z M234 592 C180 592 180 509 234 509 C287 509 287 592 234 592 L234 592 Z M234 541 C221 541 221 560 234 560 C246 560 246 541 234 541 L234 541 Z " />
<glyph glyph-name="ae" unicode="&#xe6;" horiz-adv-x="703" d="M453 170 C508 172 563 173 618 174 C635 175 669 168 675 191 C680 213 676 242 674 265 C667 350 626 452 526 451 C473 451 425 420 394 378 C397 398 399 417 402 436 C404 452 403 477 380 471 C360 466 361 432 359 415 C355 391 352 367 349 342 C340 379 325 418 296 445 C267 470 228 477 192 467 C123 448 79 383 54 320 C23 240 19 152 37 69 C53 0 92 -94 172 -107 C268 -123 316 -10 338 63 C349 6 352 -52 361 -109 C362 -120 364 -130 376 -133 C385 -136 395 -131 398 -123 C403 -113 398 -99 396 -88 C395 -79 394 -70 393 -61 C445 -121 535 -131 599 -82 C630 -59 651 -24 663 12 C667 27 677 52 663 64 C651 74 635 65 632 51 C625 20 615 -9 594 -34 C569 -62 538 -75 505 -75 C483 -75 463 -69 447 -58 C409 -33 384 19 381 59 C379 91 374 128 377 167 C398 167 432 170 453 170 L453 170 Z M380 251 C394 311 424 377 484 403 C508 414 537 416 562 406 C589 394 605 370 617 344 C623 330 631 298 633 278 C635 268 640 217 637 214 C636 211 603 213 597 213 C524 211 452 209 379 208 C379 222 380 236 380 251 L380 251 Z M327 185 C314 117 299 45 263 -15 C243 -49 214 -76 176 -68 C140 -62 116 -23 100 5 C83 43 72 81 68 122 C62 179 67 235 85 289 C101 338 128 389 174 417 C192 428 214 435 236 432 C262 428 279 410 291 388 C308 357 315 321 320 288 C326 255 333 218 327 185 L327 185 Z " />
<glyph glyph-name="ccedilla" unicode="&#xe7;" horiz-adv-x="412" d="M188 459 C118 438 74 372 52 306 C26 226 22 133 40 51 C57 -23 99 -101 180 -116 C257 -129 325 -79 354 -10 C358 0 362 10 365 21 C367 30 372 45 370 54 C365 71 342 73 334 59 C330 52 330 44 329 37 C317 -4 297 -43 260 -65 C230 -82 195 -83 167 -74 C125 -56 79 12 70 112 C67 149 69 187 74 223 C85 307 130 426 228 426 C262 426 286 403 301 377 C306 370 311 352 312 347 C312 336 312 321 324 316 C335 312 347 318 351 329 C358 352 343 384 332 403 C301 452 244 476 188 459 L188 459 Z M241 -123 C237 -120 233 -118 229 -116 C244 -88 209 -66 194 -95 C188 -107 181 -118 187 -132 C190 -138 195 -143 202 -146 C209 -151 223 -152 223 -161 C223 -163 223 -164 222 -166 C218 -173 208 -173 201 -172 C189 -170 179 -163 168 -160 C153 -157 141 -168 144 -183 C148 -198 170 -204 183 -207 C200 -213 218 -213 234 -205 C267 -188 270 -146 241 -123 L241 -123 Z " />
<glyph glyph-name="egrave" unicode="&#xe8;" horiz-adv-x="396" d="M255 445 C181 467 110 419 72 358 C32 293 19 213 21 138 C22 66 38 -14 89 -68 C139 -121 220 -129 281 -90 C314 -68 338 -33 351 5 C356 19 368 47 356 60 C344 74 326 65 322 50 C316 19 306 -10 285 -35 C246 -78 185 -90 138 -59 C68 -13 58 97 63 167 C122 171 166 169 212 171 C262 171 302 173 341 173 C351 174 360 176 365 186 C369 197 367 212 367 223 C367 267 361 306 349 343 C333 388 302 430 255 445 L255 445 Z M327 212 C239 210 152 208 64 206 C71 275 95 352 156 391 C182 409 215 416 246 406 C277 397 295 370 307 342 C323 302 328 257 327 212 L327 212 Z M216 575 C209 584 202 594 196 604 C190 614 182 624 169 621 C135 612 172 568 182 555 C191 543 201 532 211 521 C219 513 228 504 240 510 C272 525 226 562 216 575 L216 575 Z " />
<glyph glyph-name="eacute" unicode="&#xe9;" horiz-adv-x="396" d="M255 445 C181 467 110 419 72 358 C32 293 19 213 21 138 C22 66 38 -14 89 -68 C139 -121 220 -129 281 -90 C314 -68 338 -33 351 5 C356 19 368 47 356 60 C344 74 326 65 322 50 C316 19 306 -10 285 -35 C246 -78 185 -90 138 -59 C68 -13 58 97 63 167 C122 171 166 169 212 171 C262 171 302 173 341 173 C351 174 360 176 365 186 C369 197 367 212 367 223 C367 267 361 306 349 343 C333 388 302 430 255 445 L255 445 Z M327 212 C328 257 323 302 307 342 C295 370 277 397 246 406 C215 416 182 409 156 391 C95 352 71 275 64 206 C152 208 239 210 327 212 L327 212 Z M189 570 C196 580 203 589 209 599 C215 609 222 620 236 616 C270 607 233 564 222 550 C213 538 204 527 194 516 C186 508 177 499 164 505 C132 520 179 557 189 570 L189 570 Z " />
<glyph glyph-name="ecircumflex" unicode="&#xea;" horiz-adv-x="396" d="M255 445 C181 467 110 419 72 358 C32 293 19 213 21 138 C22 66 38 -14 89 -68 C139 -121 220 -129 281 -90 C314 -68 338 -33 351 5 C356 19 368 47 356 60 C344 74 326 65 322 50 C316 19 306 -10 285 -35 C246 -78 185 -90 138 -59 C68 -13 58 97 63 167 C122 171 166 169 212 171 C262 171 302 173 341 173 C351 174 360 176 365 186 C369 197 367 212 367 223 C367 267 361 306 349 343 C333 388 302 430 255 445 L255 445 Z M327 212 C239 210 152 208 64 206 C71 275 95 352 156 391 C182 409 215 416 246 406 C277 397 295 370 307 342 C323 302 328 257 327 212 L327 212 Z M264 545 C248 556 232 567 215 577 C199 588 191 580 177 570 C163 561 145 553 133 542 C123 533 125 516 138 510 C152 503 168 517 179 525 C184 528 196 539 201 540 C206 540 219 528 223 526 C234 518 249 503 264 511 C277 519 276 537 264 545 L264 545 Z " />
<glyph glyph-name="edieresis" unicode="&#xeb;" horiz-adv-x="396" d="M255 445 C181 467 110 419 72 358 C32 293 19 213 21 138 C22 66 38 -14 89 -68 C139 -121 220 -129 281 -90 C314 -68 338 -33 351 5 C356 19 368 47 356 60 C344 74 326 65 322 50 C316 19 306 -10 285 -35 C246 -78 185 -90 138 -59 C68 -13 58 97 63 167 C122 171 166 169 212 171 C262 171 302 173 341 173 C351 174 360 176 365 186 C369 197 367 212 367 223 C367 267 361 306 349 343 C333 388 302 430 255 445 L255 445 Z M327 212 C239 210 152 208 64 206 C71 275 95 352 156 391 C182 409 215 416 246 406 C277 397 295 370 307 342 C323 302 328 257 327 212 L327 212 Z M184 537 C177 561 138 551 145 526 C152 501 187 512 184 537 L184 537 Z M249 518 C274 526 256 564 233 554 C208 544 227 506 249 518 L249 518 Z " />
<glyph glyph-name="igrave" unicode="&#xec;" horiz-adv-x="135" d="M47 -1 C48 -21 48 -41 48 -61 C48 -70 49 -79 49 -88 C49 -97 48 -109 51 -117 C56 -129 72 -132 82 -124 C94 -114 88 -88 87 -73 C86 6 87 87 88 167 C90 245 95 323 94 402 C94 415 86 430 71 426 C53 423 55 402 55 388 C54 349 53 309 51 269 C49 179 48 89 47 -1 L47 -1 Z M82 570 C75 579 68 589 62 599 C56 609 48 619 35 616 C1 607 38 563 48 550 C57 538 67 527 77 516 C85 508 94 499 106 505 C138 520 92 557 82 570 L82 570 Z " />
<glyph glyph-name="iacute" unicode="&#xed;" horiz-adv-x="135" d="M47 -1 C48 -21 48 -41 48 -61 C48 -70 49 -79 49 -88 C49 -97 48 -109 51 -117 C56 -129 72 -132 82 -124 C94 -114 88 -88 87 -73 C86 6 87 87 88 167 C90 245 95 323 94 402 C94 415 86 430 71 426 C53 423 55 402 55 388 C54 349 53 309 51 269 C49 179 48 89 47 -1 L47 -1 Z M56 576 C46 563 -1 526 31 511 C44 505 53 514 61 522 C71 533 80 544 89 556 C100 570 137 613 103 622 C89 626 82 615 76 605 C70 595 63 586 56 576 L56 576 Z " />
<glyph glyph-name="icircumflex" unicode="&#xee;" horiz-adv-x="118" d="M38 -1 C39 -21 39 -41 39 -61 C39 -70 40 -79 40 -88 C40 -97 39 -109 42 -117 C47 -129 63 -132 73 -124 C85 -114 79 -88 78 -73 C77 6 78 87 79 167 C81 245 86 323 85 402 C85 415 77 430 62 426 C44 423 46 402 46 388 C45 349 44 309 42 269 C40 179 39 89 38 -1 L38 -1 Z M121 547 C105 558 89 569 72 579 C56 590 48 582 34 572 C20 563 2 555 -10 544 C-20 535 -18 518 -5 512 C9 505 25 519 36 527 C41 530 53 541 58 542 C63 542 76 530 80 528 C91 520 106 505 121 513 C134 521 133 539 121 547 L121 547 Z " />
<glyph glyph-name="idieresis" unicode="&#xef;" horiz-adv-x="151" d="M47 -1 C48 -21 48 -41 48 -61 C48 -70 49 -79 49 -88 C49 -97 48 -109 51 -117 C56 -129 72 -132 82 -124 C94 -114 88 -88 87 -73 C86 6 87 87 88 167 C90 245 95 323 94 402 C94 415 86 430 71 426 C53 423 55 402 55 388 C54 349 53 309 51 269 C49 179 48 89 47 -1 L47 -1 Z M49 536 C42 560 3 550 10 525 C17 500 52 511 49 536 L49 536 Z M114 517 C139 525 121 563 98 553 C73 543 92 505 114 517 L114 517 Z " />
<glyph glyph-name="eth" unicode="&#xf0;" horiz-adv-x="505" d="M481 250 C490 263 478 275 476 287 C473 302 470 315 466 330 C440 417 395 491 337 551 C352 567 365 578 373 584 C382 592 397 600 398 612 C399 623 390 634 379 633 C364 633 321 595 310 585 C305 586 281 614 275 620 C252 643 233 670 211 683 C200 688 187 683 183 671 C178 655 195 645 205 635 C231 609 257 584 282 557 C264 540 246 524 228 507 C217 497 195 482 207 465 C222 444 241 466 253 477 C271 494 290 511 308 528 C359 471 401 406 424 333 C348 397 242 419 154 366 C69 315 31 219 36 123 C39 35 75 -69 158 -112 C241 -154 344 -128 405 -61 C478 22 494 144 481 250 L481 250 Z M445 159 C441 88 421 11 370 -41 C307 -106 194 -111 135 -45 C108 -15 92 24 83 63 C68 127 70 198 102 256 C147 338 247 384 337 342 C337 342 336 343 335 343 C369 328 398 307 423 281 C430 273 439 266 441 256 C443 249 443 240 444 233 C446 209 446 184 445 159 L445 159 Z " />
<glyph glyph-name="ntilde" unicode="&#xf1;" horiz-adv-x="447" d="M66 -117 C73 -76 72 -33 75 8 C78 45 81 82 86 119 C96 189 110 262 144 324 C171 373 220 418 281 404 C346 389 364 304 373 248 C385 173 384 97 382 21 C381 -19 379 -59 379 -99 C379 -113 383 -131 402 -128 C420 -124 418 -104 418 -90 C419 -9 424 71 421 152 C418 223 412 301 379 365 C363 397 338 426 303 438 C269 450 230 447 198 432 C127 399 93 320 73 249 C73 274 73 298 73 323 C73 339 81 376 59 382 C52 385 44 382 39 376 C32 368 34 357 34 347 C35 322 34 297 34 272 C33 171 32 71 30 -29 C29 -56 25 -85 27 -112 C29 -132 62 -140 66 -117 L66 -117 Z M299 565 C287 571 280 565 272 558 C271 556 270 555 268 554 C266 553 258 551 263 552 C259 548 248 557 245 559 C236 564 229 570 218 573 C199 578 178 573 163 560 C152 548 141 522 163 515 C171 513 180 516 185 522 C187 525 188 528 190 531 C190 531 195 535 191 532 C191 533 197 536 198 536 C193 534 202 536 204 536 C208 536 210 535 214 533 C229 524 241 512 260 513 C274 513 289 519 299 529 C308 539 315 557 299 565 L299 565 Z M188 529 C188 529 188 529 189 530 C189 529 188 529 188 529 L188 529 Z M209 536 C210 536 210 535 210 535 C210 535 209 536 209 536 L209 536 Z M269 555 C270 555 270 555 271 556 C271 556 270 555 269 555 L269 555 Z " />
<glyph glyph-name="ograve" unicode="&#xf2;" horiz-adv-x="461" d="M41 334 C34 319 14 284 42 279 C23 227 20 171 25 116 C29 65 40 14 63 -32 C87 -77 124 -117 175 -129 C222 -141 272 -131 312 -104 C399 -44 430 81 429 181 C428 275 402 394 314 446 C264 476 200 474 149 447 C102 423 65 380 41 334 L41 334 Z M104 314 C128 345 155 362 191 359 C196 359 201 357 206 358 C219 360 226 373 220 385 C215 399 196 398 183 398 C165 399 147 395 130 387 C186 438 270 445 324 388 C378 330 393 236 390 160 C388 87 355 -22 297 -67 C250 -103 191 -108 143 -71 C72 -16 54 122 66 205 C72 243 82 282 104 314 L104 314 Z M243 570 C236 579 229 589 223 599 C217 609 209 619 196 616 C162 607 199 563 209 550 C218 538 228 527 238 516 C246 508 255 499 267 505 C299 520 253 557 243 570 L243 570 Z " />
<glyph glyph-name="oacute" unicode="&#xf3;" horiz-adv-x="461" d="M41 334 C34 319 14 284 42 279 C23 227 20 171 25 116 C29 65 40 14 63 -32 C87 -77 124 -117 175 -129 C222 -141 272 -131 312 -104 C399 -44 430 81 429 181 C428 275 402 394 314 446 C264 476 200 474 149 447 C102 423 65 380 41 334 L41 334 Z M104 314 C128 345 155 362 191 359 C196 359 201 357 206 358 C219 360 226 373 220 385 C215 399 196 398 183 398 C165 399 147 395 130 387 C186 438 270 445 324 388 C378 330 393 236 390 160 C388 87 355 -22 297 -67 C250 -103 191 -108 143 -71 C72 -16 54 122 66 205 C72 243 82 282 104 314 L104 314 Z M222 573 C212 560 165 523 197 508 C210 502 219 511 227 519 C237 530 246 541 255 553 C266 567 303 610 269 619 C255 623 248 612 242 602 C236 592 229 583 222 573 L222 573 Z " />
<glyph glyph-name="ocircumflex" unicode="&#xf4;" horiz-adv-x="461" d="M41 334 C34 319 14 284 42 279 C23 227 20 171 25 116 C29 65 40 14 63 -32 C87 -77 124 -117 175 -129 C222 -141 272 -131 312 -104 C399 -44 430 81 429 181 C428 275 402 394 314 446 C264 476 200 474 149 447 C102 423 65 380 41 334 L41 334 Z M104 314 C128 345 155 362 191 359 C196 359 201 357 206 358 C219 360 226 373 220 385 C215 399 196 398 183 398 C165 399 147 395 130 387 C186 438 270 445 324 388 C378 330 393 236 390 160 C388 87 355 -22 297 -67 C250 -103 191 -108 143 -71 C72 -16 54 122 66 205 C72 243 82 282 104 314 L104 314 Z M293 552 C277 563 261 574 244 584 C228 595 220 587 206 577 C192 568 174 560 162 549 C152 540 154 523 167 517 C181 510 197 524 208 532 C213 535 225 546 230 547 C235 547 248 535 252 533 C263 525 278 510 293 518 C306 526 305 544 293 552 L293 552 Z " />
<glyph glyph-name="otilde" unicode="&#xf5;" horiz-adv-x="461" d="M41 334 C34 319 14 284 42 279 C23 227 20 171 25 116 C29 65 40 14 63 -32 C87 -77 124 -117 175 -129 C222 -141 272 -131 312 -104 C399 -44 430 81 429 181 C428 275 402 394 314 446 C264 476 200 474 149 447 C102 423 65 380 41 334 L41 334 Z M104 314 C128 345 155 362 191 359 C196 359 201 357 206 358 C219 360 226 373 220 385 C215 399 196 398 183 398 C165 399 147 395 130 387 C186 438 270 445 324 388 C378 330 393 236 390 160 C388 87 355 -22 297 -67 C250 -103 191 -108 143 -71 C72 -16 54 122 66 205 C72 243 82 282 104 314 L104 314 Z M293 571 C281 577 274 571 266 564 C265 562 264 561 262 560 C260 559 252 557 257 558 C253 554 242 563 239 565 C230 570 223 576 212 579 C193 584 172 579 157 566 C146 554 135 528 157 521 C165 519 174 522 179 528 C181 531 182 534 184 537 C184 537 189 541 185 538 C185 539 191 542 192 542 C187 540 196 542 198 542 C202 542 204 541 208 539 C223 530 235 518 254 519 C268 519 283 525 293 535 C302 545 309 563 293 571 L293 571 Z M182 535 C182 535 182 535 183 536 C183 535 182 535 182 535 L182 535 Z M203 542 C204 542 204 541 204 541 C204 541 203 542 203 542 L203 542 Z M263 561 C264 561 264 561 265 562 C265 562 264 561 263 561 L263 561 Z " />
<glyph glyph-name="odieresis" unicode="&#xf6;" horiz-adv-x="461" d="M41 334 C34 319 14 284 42 279 C23 227 20 171 25 116 C29 65 40 14 63 -32 C87 -77 124 -117 175 -129 C222 -141 272 -131 312 -104 C399 -44 430 81 429 181 C428 275 402 394 314 446 C264 476 200 474 149 447 C102 423 65 380 41 334 L41 334 Z M104 314 C128 345 155 362 191 359 C196 359 201 357 206 358 C219 360 226 373 220 385 C215 399 196 398 183 398 C165 399 147 395 130 387 C186 438 270 445 324 388 C378 330 393 236 390 160 C388 87 355 -22 297 -67 C250 -103 191 -108 143 -71 C72 -16 54 122 66 205 C72 243 82 282 104 314 L104 314 Z M205 538 C198 562 159 552 166 527 C173 502 208 513 205 538 L205 538 Z M270 519 C295 527 277 565 254 555 C229 545 248 507 270 519 L270 519 Z " />
<glyph glyph-name="divide" unicode="&#xf7;" horiz-adv-x="240" d="M208 160 C164 160 120 158 75 154 C60 153 33 156 22 143 C12 132 20 113 35 111 C45 111 57 114 67 115 C78 116 89 117 100 117 C122 119 144 120 166 121 C182 121 212 115 223 128 C233 141 224 160 208 160 L208 160 Z M111 204 C130 183 157 217 135 235 C126 243 113 243 106 233 C97 223 103 212 111 204 L111 204 Z M117 50 C136 30 163 63 141 82 C132 89 119 90 112 80 C103 69 109 59 117 50 L117 50 Z " />
<glyph glyph-name="oslash" unicode="&#xf8;" horiz-adv-x="461" d="M362 420 C369 437 376 453 383 468 C388 480 393 495 379 503 C371 508 359 505 354 497 C344 483 339 463 332 448 C270 492 188 484 128 441 C100 421 78 395 60 366 C51 351 11 289 52 288 C21 201 15 99 50 12 C60 -13 81 -52 96 -74 C90 -86 85 -97 79 -109 C72 -123 70 -145 92 -145 C102 -146 107 -140 111 -131 C118 -119 123 -107 129 -94 C220 -156 327 -112 378 -28 C434 60 446 173 427 274 C417 326 398 380 362 420 L362 420 Z M117 -29 C96 3 84 29 76 56 C55 135 66 217 95 291 C109 331 143 373 192 370 C201 369 210 366 218 370 C229 375 231 389 225 398 C217 410 197 409 185 409 C169 409 152 405 137 399 C179 435 236 450 288 429 C286 429 312 418 314 413 C317 406 290 351 286 343 C268 302 249 260 231 219 C193 136 156 54 117 -29 L117 -29 Z M395 147 C389 91 361 -6 308 -52 C263 -93 188 -97 149 -60 C156 -36 188 31 195 47 C212 84 229 122 247 160 C280 233 312 306 345 380 C390 308 403 224 395 147 L395 147 Z " />
<glyph glyph-name="ugrave" unicode="&#xf9;" horiz-adv-x="487" d="M141 -108 C166 -128 202 -136 233 -127 C265 -117 289 -93 308 -67 C353 -4 377 73 395 147 C395 93 395 39 397 -14 C398 -39 399 -64 401 -89 C402 -105 402 -137 427 -129 C450 -122 440 -89 439 -72 C437 -45 436 -18 436 9 C434 62 434 115 435 168 C435 222 436 276 438 330 C439 356 440 382 441 408 C441 418 444 432 438 441 C433 449 423 452 414 448 C396 439 401 405 399 389 C397 367 394 345 391 323 C384 273 374 222 362 173 C349 121 334 69 312 20 C301 -3 289 -27 274 -47 C254 -74 217 -105 182 -87 C152 -73 131 -42 118 -13 C68 96 72 321 85 419 C86 430 85 444 72 447 C58 451 49 441 47 428 C41 391 38 353 37 315 C33 241 36 165 49 92 C60 22 81 -63 141 -108 L141 -108 Z M255 572 C248 581 241 591 235 601 C229 611 221 621 208 618 C174 609 211 565 221 552 C230 540 240 529 250 518 C258 510 267 501 279 507 C311 522 265 559 255 572 L255 572 Z " />
<glyph glyph-name="uacute" unicode="&#xfa;" horiz-adv-x="487" d="M141 -108 C166 -128 202 -136 233 -127 C265 -117 289 -93 308 -67 C353 -4 377 73 395 147 C395 93 395 39 397 -14 C398 -39 399 -64 401 -89 C402 -105 402 -137 427 -129 C450 -122 440 -89 439 -72 C437 -45 436 -18 436 9 C434 62 434 115 435 168 C435 222 436 276 438 330 C439 356 440 382 441 408 C441 418 444 432 438 441 C433 449 423 452 414 448 C396 439 401 405 399 389 C397 367 394 345 391 323 C384 273 374 222 362 173 C349 121 334 69 312 20 C301 -3 289 -27 274 -47 C254 -74 217 -105 182 -87 C152 -73 131 -42 118 -13 C68 96 72 321 85 419 C86 430 85 444 72 447 C58 451 49 441 47 428 C41 391 38 353 37 315 C33 241 36 165 49 92 C60 22 81 -63 141 -108 L141 -108 Z M231 572 C221 559 174 522 206 507 C219 501 228 510 236 518 C246 529 255 540 264 552 C275 566 312 609 278 618 C264 622 257 611 251 601 C245 591 238 582 231 572 L231 572 Z " />
<glyph glyph-name="ucircumflex" unicode="&#xfb;" horiz-adv-x="487" d="M141 -108 C166 -128 202 -136 233 -127 C265 -117 289 -93 308 -67 C353 -4 377 73 395 147 C395 93 395 39 397 -14 C398 -39 399 -64 401 -89 C402 -105 402 -137 427 -129 C450 -122 440 -89 439 -72 C437 -45 436 -18 436 9 C434 62 434 115 435 168 C435 222 436 276 438 330 C439 356 440 382 441 408 C441 418 444 432 438 441 C433 449 423 452 414 448 C396 439 401 405 399 389 C397 367 394 345 391 323 C384 273 374 222 362 173 C349 121 334 69 312 20 C301 -3 289 -27 274 -47 C254 -74 217 -105 182 -87 C152 -73 131 -42 118 -13 C68 96 72 321 85 419 C86 430 85 444 72 447 C58 451 49 441 47 428 C41 391 38 353 37 315 C33 241 36 165 49 92 C60 22 81 -63 141 -108 L141 -108 Z M309 546 C293 557 277 568 260 578 C244 589 236 581 222 571 C208 562 190 554 178 543 C168 534 170 517 183 511 C197 504 213 518 224 526 C229 529 241 540 246 541 C251 541 264 529 268 527 C279 519 294 504 309 512 C322 520 321 538 309 546 L309 546 Z " />
<glyph glyph-name="udieresis" unicode="&#xfc;" horiz-adv-x="487" d="M141 -108 C166 -128 202 -136 233 -127 C265 -117 289 -93 308 -67 C353 -4 377 73 395 147 C395 93 395 39 397 -14 C398 -39 399 -64 401 -89 C402 -105 402 -137 427 -129 C450 -122 440 -89 439 -72 C437 -45 436 -18 436 9 C434 62 434 115 435 168 C435 222 436 276 438 330 C439 356 440 382 441 408 C441 418 444 432 438 441 C433 449 423 452 414 448 C396 439 401 405 399 389 C397 367 394 345 391 323 C384 273 374 222 362 173 C349 121 334 69 312 20 C301 -3 289 -27 274 -47 C254 -74 217 -105 182 -87 C152 -73 131 -42 118 -13 C68 96 72 321 85 419 C86 430 85 444 72 447 C58 451 49 441 47 428 C41 391 38 353 37 315 C33 241 36 165 49 92 C60 22 81 -63 141 -108 L141 -108 Z M216 538 C209 562 170 552 177 527 C184 502 219 513 216 538 L216 538 Z M281 519 C306 527 288 565 265 555 C240 545 259 507 281 519 L281 519 Z " />
<glyph glyph-name="yacute" unicode="&#xfd;" horiz-adv-x="452" d="M339 -218 C336 -248 335 -279 323 -307 C319 -317 312 -326 318 -337 C324 -348 341 -350 350 -340 C360 -329 365 -308 368 -294 C372 -277 374 -260 376 -244 C379 -206 398 25 401 62 C407 135 413 207 419 280 C422 319 425 357 428 396 C429 408 434 424 422 433 C411 442 396 436 391 423 C385 405 382 384 377 365 C371 345 366 324 359 303 C343 247 324 194 298 148 C273 104 229 47 178 53 C102 62 95 172 93 235 C92 277 94 320 99 362 C101 375 108 394 103 406 C96 421 74 421 68 407 C63 398 63 386 62 377 C60 366 59 355 58 345 C52 285 51 211 64 148 C71 110 85 70 114 43 C142 16 180 8 217 18 C259 30 290 63 314 98 C341 138 359 183 376 228 C369 144 345 -134 339 -218 L339 -218 Z M217 575 C207 562 160 525 192 510 C205 504 214 513 222 521 C232 532 241 543 250 555 C261 569 298 612 264 621 C250 625 243 614 237 604 C231 594 224 585 217 575 L217 575 Z " />
<glyph glyph-name="thorn" unicode="&#xfe;" horiz-adv-x="559" d="M516 394 C490 473 415 515 339 530 C249 548 154 538 66 515 C65 548 64 582 64 616 C63 630 66 647 62 661 C59 673 45 680 34 673 C22 667 24 655 24 643 C24 626 25 608 25 591 C25 561 26 533 27 506 C25 502 23 502 20 498 C12 490 12 478 21 470 C22 470 27 468 27 467 C29 464 28 456 28 453 C28 443 28 433 28 423 C29 391 29 358 29 325 C31 222 23 125 23 28 C23 27 12 29 11 29 C-2 29 -16 21 -12 6 C-9 -11 8 -10 21 -11 C20 -47 18 -83 15 -118 C14 -131 14 -145 30 -148 C43 -151 51 -141 53 -129 C59 -94 58 -57 60 -22 C60 -20 60 -12 61 -11 C61 -10 70 -11 71 -11 C80 -10 89 -10 98 -9 C117 -8 135 -6 152 -4 C279 14 410 71 481 182 C520 243 540 324 516 394 L516 394 Z M486 308 C471 179 346 92 242 57 C184 38 123 29 62 28 C68 159 69 290 67 422 C67 436 67 460 67 474 C102 485 147 493 186 497 C244 503 304 501 360 484 C453 457 492 397 486 308 L486 308 Z " />
<glyph glyph-name="ydieresis" unicode="&#xff;" horiz-adv-x="452" d="M339 -218 C336 -248 335 -279 323 -307 C319 -317 312 -326 318 -337 C324 -348 341 -350 350 -340 C360 -329 365 -308 368 -294 C372 -277 374 -260 376 -244 C379 -206 398 25 401 62 C407 135 413 207 419 280 C422 319 425 357 428 396 C429 408 434 424 422 433 C411 442 396 436 391 423 C385 405 382 384 377 365 C371 345 366 324 359 303 C343 247 324 194 298 148 C273 104 229 47 178 53 C102 62 95 172 93 235 C92 277 94 320 99 362 C101 375 108 394 103 406 C96 421 74 421 68 407 C63 398 63 386 62 377 C60 366 59 355 58 345 C52 285 51 211 64 148 C71 110 85 70 114 43 C142 16 180 8 217 18 C259 30 290 63 314 98 C341 138 359 183 376 228 C369 144 345 -134 339 -218 L339 -218 Z M214 536 C207 560 168 550 175 525 C182 500 217 511 214 536 L214 536 Z M279 517 C304 525 286 563 263 553 C238 543 257 505 279 517 L279 517 Z " />
<glyph glyph-name="Lslash" unicode="&#x141;" horiz-adv-x="486" d="M472 -85 C471 -72 461 -65 449 -65 C432 -66 415 -68 397 -69 C363 -71 328 -73 293 -74 C226 -75 158 -76 91 -75 C93 21 95 117 96 213 C96 236 96 260 96 283 C96 291 96 293 99 298 C103 304 109 309 114 314 C121 321 128 329 136 337 C146 347 163 366 144 378 C125 390 107 363 95 351 C94 415 93 480 89 544 C87 576 85 608 82 639 C81 656 80 698 52 685 C39 679 40 669 42 656 C43 640 45 623 46 607 C54 516 55 409 57 314 C55 300 35 284 25 273 C17 262 1 248 0 234 C-1 222 11 213 23 215 C37 217 48 239 57 249 C56 135 57 39 52 -56 C52 -60 53 -65 52 -70 C50 -77 50 -75 42 -75 C33 -75 24 -74 16 -75 C1 -77 -7 -93 2 -105 C11 -119 36 -114 51 -114 C50 -129 57 -150 77 -142 C83 -140 88 -134 89 -128 C90 -125 88 -116 90 -114 C183 -116 275 -114 367 -110 C389 -109 411 -107 433 -106 C447 -105 473 -106 472 -85 L472 -85 Z " />
<glyph glyph-name="lslash" unicode="&#x142;" horiz-adv-x="185" d="M155 298 C134 317 108 278 96 265 C95 286 93 311 96 331 C100 367 118 407 126 442 C138 501 148 562 145 621 C145 640 144 682 126 692 C101 706 89 666 84 650 C68 591 65 527 61 465 C59 432 58 399 58 366 C57 350 57 337 52 322 C46 307 41 290 32 277 C28 270 21 263 22 254 C24 236 45 231 57 244 C57 234 58 226 54 218 C49 211 42 205 36 198 C27 187 11 173 8 159 C5 147 15 137 27 136 C42 136 50 154 58 164 C61 92 64 19 77 -52 C81 -75 86 -115 111 -125 C124 -130 140 -125 145 -112 C147 -106 147 -100 142 -94 C132 -80 128 -97 120 -70 C115 -46 112 -22 109 2 C105 39 101 76 99 113 C99 149 96 174 96 206 C98 210 106 219 109 222 C121 236 134 249 147 262 C157 272 168 285 155 298 L155 298 Z " />
<glyph glyph-name="OE" unicode="&#x152;" horiz-adv-x="888" d="M760 647 C785 648 809 647 833 646 C847 645 865 646 866 664 C868 682 850 686 835 687 C812 688 788 687 764 687 C714 685 664 681 614 677 C589 675 563 672 538 670 C526 668 514 667 502 666 C494 665 481 660 473 662 C466 664 466 678 462 685 C457 692 450 695 442 693 C435 692 428 686 426 680 C423 672 429 664 431 657 C417 655 413 658 402 667 C392 676 380 683 368 689 C345 700 319 707 293 708 C241 711 191 692 154 655 C118 619 94 572 79 523 C71 497 65 470 61 443 C59 430 59 416 56 403 C53 389 48 375 44 361 C17 259 20 147 55 47 C81 -30 131 -112 214 -134 C269 -149 328 -133 371 -96 C415 -59 441 -6 459 48 C459 21 458 -6 458 -33 C458 -40 461 -62 455 -66 C454 -67 446 -67 444 -68 C438 -69 432 -68 426 -69 C411 -72 389 -88 405 -104 C418 -118 440 -105 456 -104 C456 -117 468 -128 481 -124 C487 -123 491 -118 493 -111 C495 -104 493 -103 500 -101 C518 -98 538 -101 556 -101 C579 -100 602 -100 626 -100 C652 -99 867 -100 849 -47 C841 -25 818 -38 803 -43 C793 -47 782 -49 772 -50 C771 -51 759 -51 758 -52 C759 -52 760 -52 761 -52 C718 -59 674 -59 631 -60 C586 -61 541 -61 496 -63 C498 12 499 87 499 162 C499 180 499 199 499 218 C499 226 499 234 499 242 C499 248 496 257 498 262 C502 272 518 270 527 270 C547 272 567 274 586 275 C652 279 718 279 783 285 C795 286 818 289 817 305 C816 336 767 323 749 322 C665 318 582 316 499 307 C500 360 496 413 493 467 C491 519 487 572 478 624 C572 635 666 644 760 647 L760 647 Z M206 -91 C206 -91 206 -91 206 -91 C206 -91 206 -91 206 -91 L206 -91 Z M449 278 C450 272 457 269 458 263 C460 257 458 249 457 244 C455 225 454 207 451 189 C446 155 440 121 430 87 C415 32 390 -34 342 -70 C301 -102 243 -111 197 -86 C149 -60 119 -12 99 37 C73 104 63 177 67 249 C81 192 105 138 137 89 C153 67 171 45 192 27 C205 16 234 -14 251 8 C268 30 230 45 218 56 C196 75 177 98 162 123 C131 173 107 229 99 287 C96 305 95 323 95 341 C94 357 92 374 94 390 C99 420 120 446 137 470 C133 464 141 475 142 477 C146 481 150 485 153 488 C161 497 170 504 179 511 C197 525 217 535 238 542 C256 548 275 552 295 552 C306 552 324 551 332 562 C349 587 312 594 296 594 C272 593 248 587 226 579 C182 564 142 537 113 502 C134 574 179 657 262 669 C261 669 260 669 260 668 C298 675 345 665 375 640 C382 634 383 625 390 619 C397 613 404 610 409 602 C422 584 430 562 437 541 C452 496 456 448 457 401 C458 375 459 349 459 323 C460 317 462 307 460 301 C458 298 454 297 452 294 C448 290 447 283 449 278 L449 278 Z M129 187 C129 187 129 187 129 188 C127 190 128 188 129 187 L129 187 Z M226 49 C226 49 227 48 227 48 C227 48 226 49 226 49 L226 49 Z M372 -40 C373 -38 374 -36 372 -40 L372 -40 L372 -40 Z M260 668 C259 668 259 668 260 668 L260 668 L260 668 Z M338 -73 C339 -73 340 -72 341 -72 C340 -72 339 -72 338 -73 L338 -73 Z M69 153 C69 152 70 152 70 151 C70 150 69 156 69 153 L69 153 Z " />
<glyph glyph-name="oe" unicode="&#x153;" horiz-adv-x="775" d="M532 163 C594 164 655 165 716 166 C727 167 740 164 748 173 C757 182 755 198 755 209 C755 237 754 265 749 293 C740 338 722 387 684 417 C588 492 458 395 434 295 C415 369 372 443 294 463 C214 484 136 442 89 379 C78 365 19 281 66 279 C33 186 28 73 73 -18 C95 -61 129 -101 174 -121 C221 -141 277 -136 321 -110 C371 -80 404 -27 424 27 C436 -19 460 -65 499 -94 C537 -123 589 -129 634 -114 C679 -99 713 -63 733 -19 C737 -9 741 1 744 11 C747 21 752 37 749 47 C741 68 715 61 711 43 C704 12 694 -17 673 -42 C663 -53 652 -62 639 -70 C597 -87 559 -85 526 -66 C501 -49 484 -22 472 5 C460 37 452 71 450 107 C449 118 449 150 449 161 C477 161 504 162 532 163 L532 163 Z M546 386 C573 403 606 410 636 399 C666 389 683 363 696 336 C709 307 722 252 716 206 C715 203 686 205 674 205 C600 203 526 201 452 200 C461 269 485 346 546 386 L546 386 Z M354 378 C356 375 354 378 353 379 C353 378 354 378 354 378 L354 378 Z M233 429 C233 429 233 429 234 429 C233 429 230 428 233 429 L233 429 Z M160 397 C163 399 161 397 160 396 C160 397 160 397 160 397 L160 397 Z M409 142 C409 137 408 132 408 126 C408 125 406 119 408 125 C392 33 350 -87 246 -94 C222 -96 199 -91 179 -80 C134 -52 105 1 91 47 C69 128 87 204 109 282 C123 322 158 364 207 361 C215 360 224 357 233 361 C243 366 245 380 239 389 C231 401 211 400 199 400 C183 400 167 396 152 390 C193 426 250 441 302 420 C301 420 300 421 300 421 C334 409 359 375 375 343 C391 311 403 270 406 235 C408 210 411 173 409 142 L409 142 Z " />
<glyph glyph-name="Scaron" unicode="&#x160;" horiz-adv-x="552" d="M171 254 C206 236 244 223 281 210 C342 188 471 145 488 88 C493 70 493 51 490 33 C481 -17 445 -49 405 -69 C354 -93 290 -95 238 -85 C207 -80 168 -70 145 -50 C121 -29 105 -3 113 30 C117 44 133 64 118 76 C95 95 81 60 77 44 C63 -5 83 -51 122 -81 C163 -113 215 -124 266 -128 C353 -134 455 -112 505 -33 C530 6 539 59 525 103 C509 149 466 175 424 194 C367 222 307 242 247 264 C188 286 136 315 95 359 C56 406 45 467 63 524 C75 559 100 590 128 612 C217 674 337 678 429 614 C461 591 487 538 480 495 C477 480 463 459 481 448 C519 426 522 517 520 535 C510 619 427 674 351 693 C196 731 -3 626 17 447 C27 358 94 292 171 254 L171 254 Z M331 840 C322 836 314 832 305 827 C301 825 298 823 294 821 C286 816 288 815 281 818 C265 825 253 843 237 848 C224 853 210 842 211 829 C212 813 234 804 245 796 C256 788 273 770 288 773 C302 775 318 790 331 796 C342 803 360 807 360 824 C360 839 344 847 331 840 L331 840 Z " />
<glyph glyph-name="scaron" unicode="&#x161;" horiz-adv-x="424" d="M307 -116 C348 -88 372 -44 382 4 C393 54 393 109 357 149 C324 187 275 204 229 219 C181 236 134 248 110 288 C92 314 105 354 115 377 C142 434 218 444 267 432 C317 421 331 387 330 346 C330 350 330 347 330 345 C327 333 320 318 329 308 C343 291 360 306 364 322 C376 364 369 409 336 439 C283 487 188 487 129 450 C63 408 38 293 101 237 C136 206 184 194 228 179 C264 166 306 152 330 122 C359 85 352 32 339 -8 C323 -56 292 -88 244 -102 C206 -110 169 -110 137 -93 C95 -71 77 -29 70 15 C64 47 68 98 95 116 C102 120 109 119 112 128 C116 135 113 145 107 150 C95 161 74 150 64 141 C40 121 33 84 30 54 C23 -33 70 -124 161 -142 C209 -152 266 -144 307 -116 L307 -116 Z M267 615 C258 611 250 607 241 602 C237 600 234 598 230 596 C222 591 224 590 217 593 C201 600 189 618 173 623 C160 628 146 617 147 604 C148 588 170 579 181 571 C192 563 209 545 224 548 C238 550 254 565 267 571 C278 578 296 582 296 599 C296 614 280 622 267 615 L267 615 Z " />
<glyph glyph-name="Ydieresis" unicode="&#x178;" horiz-adv-x="556" d="M268 113 C322 138 356 198 380 250 C409 311 429 376 446 441 C440 341 434 240 427 140 C424 92 421 44 418 -5 C417 -27 415 -49 410 -70 C407 -82 404 -92 400 -103 C399 -106 398 -109 397 -112 C397 -113 394 -119 396 -114 C389 -132 406 -152 424 -141 C432 -136 434 -124 437 -115 C442 -103 445 -89 448 -76 C460 -23 460 33 463 87 C470 198 477 308 484 418 C487 473 491 527 494 582 C496 609 498 635 499 661 C500 677 504 713 475 704 C464 700 462 691 460 680 C458 667 455 653 452 640 C447 613 441 587 435 560 C423 507 410 454 394 401 C379 350 361 298 336 250 C321 221 286 160 248 146 C159 114 122 231 107 296 C84 388 79 485 77 580 C76 605 76 630 76 655 C76 664 78 673 72 680 C66 687 57 689 49 685 C31 677 37 647 37 631 C37 606 38 581 38 556 C41 460 48 361 74 267 C86 222 104 173 137 138 C172 102 222 92 268 113 L268 113 Z M252 777 C245 801 206 791 213 766 C220 741 255 752 252 777 L252 777 Z M317 758 C342 766 324 804 301 794 C276 784 295 746 317 758 L317 758 Z " />
<glyph glyph-name="Zcaron" unicode="&#x17d;" horiz-adv-x="599" d="M54 -126 C180 -114 306 -109 432 -100 C447 -99 461 -98 475 -97 C488 -96 505 -98 517 -92 C525 -87 529 -78 525 -68 C520 -55 508 -55 496 -56 C434 -61 371 -65 309 -69 C238 -73 167 -77 96 -83 C152 -8 205 69 259 146 C313 224 368 301 422 379 C448 417 473 455 497 495 C520 532 543 571 557 613 C564 631 570 653 557 670 C535 699 403 695 367 693 C274 690 181 681 89 676 C72 675 55 662 67 645 C78 629 108 638 123 639 C171 642 218 646 266 649 C313 652 361 654 408 655 C426 656 522 659 525 644 C528 628 487 554 478 539 C455 500 430 462 405 424 C352 345 297 268 243 191 C189 114 137 37 81 -39 C69 -55 56 -72 43 -88 C43 -88 44 -88 44 -87 C39 -94 33 -101 35 -110 C37 -118 45 -126 54 -126 L54 -126 Z M353 846 C344 842 336 838 327 833 C323 831 320 829 316 827 C308 822 310 821 303 824 C287 831 275 849 259 854 C246 859 232 848 233 835 C234 819 256 810 267 802 C278 794 295 776 310 779 C324 781 340 796 353 802 C364 809 382 813 382 830 C382 845 366 853 353 846 L353 846 Z " />
<glyph glyph-name="zcaron" unicode="&#x17e;" horiz-adv-x="461" d="M390 420 C341 425 291 422 242 420 C190 418 138 414 86 411 C70 410 36 414 39 388 C42 364 71 371 88 372 C140 374 191 379 243 381 C272 382 300 383 329 383 C350 383 396 385 402 377 C355 313 285 212 241 165 C225 164 194 162 181 162 C172 161 162 162 155 158 C142 150 142 132 155 124 C162 120 170 122 178 123 C189 123 201 124 212 124 C166 69 121 13 74 -41 C62 -54 51 -67 39 -81 C30 -91 12 -103 17 -119 C22 -135 38 -132 52 -131 C71 -130 91 -129 110 -127 C184 -123 258 -120 331 -116 C348 -115 365 -114 382 -113 C394 -112 410 -110 412 -94 C413 -83 403 -74 392 -73 C373 -72 351 -76 331 -77 C248 -81 165 -85 82 -90 C144 -21 202 53 262 124 C293 126 312 121 332 126 C346 129 353 146 343 158 C333 169 311 165 297 165 C337 213 378 262 412 315 C425 336 446 365 440 391 C436 415 410 418 390 420 L390 420 Z M290 546 C281 542 273 538 264 533 C260 531 257 529 253 527 C245 522 247 521 240 524 C224 531 212 549 196 554 C183 559 169 548 170 535 C171 519 193 510 204 502 C215 494 232 476 247 479 C261 481 277 496 290 502 C301 509 319 513 319 530 C319 545 303 553 290 546 L290 546 Z " />
<glyph glyph-name="circumflex" unicode="&#x2c6;" horiz-adv-x="235" d="M186 744 C170 755 154 766 137 776 C121 787 113 779 99 769 C85 760 67 752 55 741 C45 732 47 715 60 709 C74 702 90 716 101 724 C106 727 118 738 123 739 C128 739 141 727 145 725 C156 717 171 702 186 710 C199 718 198 736 186 744 L186 744 Z " />
<glyph glyph-name="caron" unicode="&#x2c7;" horiz-adv-x="235" d="M165 672 C156 668 148 664 139 659 C135 657 132 655 128 653 C120 648 122 647 115 650 C99 657 87 675 71 680 C58 685 44 674 45 661 C46 645 68 636 79 628 C90 620 107 602 122 605 C136 607 152 622 165 628 C176 635 194 639 194 656 C194 671 178 679 165 672 L165 672 Z " />
<glyph glyph-name="ring" unicode="&#x2da;" horiz-adv-x="163" d="M87 694 C33 694 33 611 87 611 C140 611 140 694 87 694 L87 694 Z M87 643 C74 643 74 662 87 662 C99 662 99 643 87 643 L87 643 Z " />
<glyph glyph-name="tilde" unicode="&#x2dc;" horiz-adv-x="267" d="M212 741 C200 747 193 741 185 734 C184 732 183 731 181 730 C179 729 171 727 176 728 C172 724 161 733 158 735 C149 740 142 746 131 749 C112 754 91 749 76 736 C65 724 54 698 76 691 C84 689 93 692 98 698 C100 701 101 704 103 707 C103 707 108 711 104 708 C104 709 110 712 111 712 C106 710 115 712 117 712 C121 712 123 711 127 709 C142 700 154 688 173 689 C187 689 202 695 212 705 C221 715 228 733 212 741 L212 741 Z M101 705 C101 705 101 705 102 706 C102 705 101 705 101 705 L101 705 Z M122 712 C123 712 123 711 123 711 C123 711 122 712 122 712 L122 712 Z M182 731 C183 731 183 731 184 732 C184 732 183 731 182 731 L182 731 Z " />
<glyph glyph-name="quoteleft" unicode="&#x2018;" horiz-adv-x="155" d="M65 673 C60 659 58 643 55 629 C52 616 46 601 46 588 C45 565 78 558 84 581 C87 595 90 610 94 624 C97 637 103 653 103 667 C102 690 72 693 65 673 L65 673 Z " />
<glyph glyph-name="quoteright" unicode="&#x2019;" horiz-adv-x="134" d="M84 577 C89 591 90 607 93 621 C96 634 102 650 101 663 C102 686 69 692 63 669 C60 655 58 640 54 626 C51 613 46 596 46 582 C47 560 77 557 84 577 L84 577 Z " />
<glyph glyph-name="quotedblleft" unicode="&#x201c;" horiz-adv-x="191" d="M111 549 C142 533 148 583 152 600 C156 617 174 665 142 674 C131 677 123 671 121 662 C117 646 117 629 112 613 C109 598 87 562 111 549 L111 549 L111 549 Z M46 556 C72 550 72 588 75 605 C79 620 94 656 66 665 C39 673 40 633 36 617 C33 602 17 565 46 556 L46 556 Z " />
<glyph glyph-name="quotedblright" unicode="&#x201d;" horiz-adv-x="191" d="M76 664 C45 679 41 628 38 611 C35 594 19 545 51 538 C62 535 70 542 72 551 C75 567 74 584 78 600 C81 615 101 652 76 664 L76 664 L76 664 Z M142 660 C115 665 117 627 115 610 C112 595 98 558 127 550 C154 544 151 584 154 600 C157 615 171 653 142 660 L142 660 Z " />
<glyph glyph-name="dagger" unicode="&#x2020;" horiz-adv-x="381" d="M289 452 C262 452 236 452 209 452 C209 477 210 502 210 527 C210 543 217 576 201 586 C194 591 185 590 178 585 C171 579 171 570 171 562 C171 538 171 514 171 490 C171 483 174 456 170 452 C167 449 145 452 139 452 C127 452 114 452 102 452 C92 452 81 453 75 443 C63 426 81 413 96 413 C121 413 145 413 170 413 C169 341 168 268 168 195 C168 158 168 121 169 84 C169 67 169 51 169 34 C170 20 166 -3 174 -16 C181 -26 195 -27 204 -18 C214 -8 209 12 209 25 C208 61 207 97 207 132 C206 204 207 275 208 347 C208 356 208 365 208 374 C208 383 206 399 209 408 C211 414 204 411 214 413 C219 414 225 413 230 413 C241 413 252 413 262 413 C276 413 298 408 306 423 C313 436 303 452 289 452 L289 452 Z " />
<glyph glyph-name="daggerdbl" unicode="&#x2021;" horiz-adv-x="381" d="M208 413 C229 413 251 413 272 413 C287 413 310 413 307 434 C305 453 287 452 272 452 C251 452 230 452 208 452 C208 477 209 502 209 527 C209 543 216 576 200 586 C193 591 184 590 177 585 C170 579 170 570 170 562 C170 538 170 514 170 490 C170 483 173 456 169 452 C166 449 144 452 138 452 C126 452 113 452 101 452 C91 452 81 453 74 443 C62 426 80 413 96 413 C120 413 144 413 169 413 C168 319 167 226 167 132 C144 132 121 132 98 132 C83 132 61 126 69 106 C76 88 101 93 117 93 C128 93 140 93 152 93 C155 93 166 95 167 93 C169 91 168 79 168 77 C168 55 169 33 169 12 C170 -4 172 -32 196 -23 C214 -16 208 7 208 22 C207 46 207 70 206 93 C228 93 250 93 272 93 C287 93 310 96 304 118 C298 137 274 132 259 132 C248 132 238 132 227 132 C223 132 216 131 212 132 C210 132 208 132 206 132 C206 136 206 139 206 143 C206 233 207 323 208 413 L208 413 Z " />
<glyph glyph-name="ellipsis" unicode="&#x2026;" horiz-adv-x="360" d="M55 -106 C66 -112 80 -103 82 -92 C84 -81 75 -70 65 -66 C38 -54 29 -98 55 -106 L55 -106 Z M175 -106 C186 -112 200 -103 202 -92 C204 -81 195 -70 185 -66 C158 -54 149 -98 175 -106 L175 -106 Z M295 -106 C306 -112 320 -103 322 -92 C324 -81 315 -70 305 -66 C278 -54 269 -98 295 -106 L295 -106 Z " />
<glyph glyph-name="guilsinglleft" unicode="&#x2039;" horiz-adv-x="232" d="M165 18 C151 34 140 51 128 68 C122 78 116 87 109 97 C105 105 103 105 108 113 C112 118 115 123 118 128 C132 148 145 168 158 188 C163 196 170 203 168 212 C166 221 160 227 151 228 C131 231 119 199 110 185 C97 165 83 145 69 125 C64 118 59 111 61 102 C64 92 73 82 79 73 C91 54 103 35 117 17 C125 6 133 -5 142 -15 C148 -23 154 -30 166 -28 C175 -27 181 -19 181 -9 C181 2 171 10 165 18 L165 18 Z " />
<glyph glyph-name="guilsinglright" unicode="&#x203a;" horiz-adv-x="223" d="M110 222 C100 239 74 232 74 211 C75 201 83 192 89 185 C95 174 102 164 109 153 C116 144 122 134 129 125 C131 121 136 116 138 112 C139 106 133 99 129 93 C116 74 104 54 89 35 C80 23 61 9 61 -6 C60 -26 84 -30 96 -18 C127 14 151 56 175 93 C181 102 185 110 179 119 C173 131 164 142 157 153 C141 176 126 199 110 222 L110 222 Z " />
<glyph glyph-name="Euro" unicode="&#x20ac;" horiz-adv-x="450" d="M421 17 C406 25 397 16 391 4 C384 -9 377 -21 368 -32 C349 -55 326 -74 299 -85 C275 -95 248 -97 224 -92 C192 -86 170 -70 149 -46 C123 -12 108 46 108 96 C134 97 159 98 184 98 C199 98 230 94 229 118 C229 141 203 137 188 137 C162 137 136 136 110 136 C110 144 113 165 117 171 C145 176 195 172 220 172 C233 172 253 167 265 174 C276 180 279 194 271 203 C262 214 244 211 231 211 C196 212 161 211 126 211 C145 265 179 316 226 350 C250 366 276 380 304 384 C331 389 361 381 374 357 C379 348 381 338 383 329 C385 321 388 313 396 310 C406 306 420 313 422 323 C426 341 408 382 392 396 C373 415 347 424 320 424 C266 424 213 394 175 358 C131 317 101 265 85 211 C76 212 64 210 56 210 C43 209 21 214 12 200 C5 191 10 176 22 172 C36 166 59 170 75 171 C73 162 72 154 71 145 C71 143 71 136 70 135 C69 133 60 134 58 134 C45 134 29 135 16 131 C-10 121 1 88 32 95 C42 96 59 96 69 96 C71 -3 116 -119 227 -132 C276 -138 326 -122 365 -90 C381 -77 457 -2 421 17 L421 17 Z " />
<glyph glyph-name="trademark" unicode="&#x2122;" horiz-adv-x="496" d="M449 402 C446 467 447 532 447 597 C447 616 447 636 447 655 C447 674 421 682 411 665 C388 625 367 584 347 542 C347 543 346 544 346 544 C340 558 335 572 329 585 C318 612 307 638 293 664 C290 671 279 675 271 673 C268 672 265 670 263 668 C260 673 254 675 248 676 C214 678 180 678 146 675 C143 678 139 679 135 679 C129 679 124 677 121 673 C94 670 67 666 41 661 C31 659 24 646 27 637 C31 626 40 621 51 623 C67 626 84 629 100 632 C101 632 101 632 102 632 C102 632 102 632 103 632 C105 632 107 632 109 633 C111 633 113 633 115 633 C115 573 112 513 110 453 C110 432 109 411 116 392 C119 382 129 375 140 378 C149 381 157 392 154 402 C152 406 151 410 150 414 C150 414 150 417 150 418 C149 418 149 419 149 419 C149 421 149 422 149 423 C149 432 149 440 149 449 C150 466 150 483 151 501 C152 535 153 568 154 602 C154 613 154 625 154 637 C185 639 217 639 248 637 C251 637 254 638 256 639 C254 580 252 520 253 461 C253 443 253 425 254 407 C254 397 263 387 274 388 C284 388 293 396 293 407 C291 462 292 516 293 571 C305 542 317 514 329 486 C335 473 356 474 363 486 C378 516 393 547 408 577 C408 537 407 498 408 458 C408 439 409 421 410 402 C410 392 419 382 429 382 C440 383 449 391 449 402 L449 402 Z " />
</font>
</svg>
