<?xml version="1.0" encoding="UTF-8"?>
<svg xmlns="http://www.w3.org/2000/svg" xmlns:xlink="http://www.w3.org/1999/xlink" version="1.2" >
<font id="Jadeline">
<font-face  font-family="Jadeline" units-per-em="1000" ascent="750" descent="-250" font-style="normal" font-weight="400" font-stretch="normal" cap-height="700" x-height="500" underline-position="-75" underline-thickness="50" />
<missing-glyph  horiz-adv-x="209" d="" />
<glyph glyph-name="NULL" d="" />
<glyph glyph-name="nonmarkingreturn" unicode="&#xd;" horiz-adv-x="209" d="" />
<glyph glyph-name="space" unicode="&#x20;" horiz-adv-x="209" d="" />
<glyph glyph-name="e" unicode="e" horiz-adv-x="212" d="M98 236 Q128 247 160 266 Q192 285 212 300 Q219 297 211 291 Q176 264 136.5 245 Q97 226 63 215 Q54 212 42.5 209.5 Q31 207 20 206 Q9 205 -2 207.5 Q-13 210 -20 217 Q-28 224 -29.5 233.5 Q-31 243 -29 252.5 Q-27 262 -22.5 271 Q-18 280 -13 286 Q-7 293 0 299.5 Q7 306 15 311 Q23 315 34 316.5 Q45 318 50 309 Q55 300 48.5 291 Q42 282 35 277 Q27 271 15 267 Q3 263 -11 265 Q-21 248 -17 232 Q-13 219 3 217 Q19 215 38 218.5 Q57 222 74 227.5 Q91 233 98 236 Z M-5 276 Q3 274 11 277 Q19 280 22 282 Q26 284 33.5 291 Q41 298 39 303 Q37 307 28 303 Q19 299 16 298 Q9 293 3 287 Q-3 281 -5 276 Z " />
<glyph glyph-name="f" unicode="f" horiz-adv-x="152" d="M48 408 Q29 405 11.5 401 Q-6 397 -23 392 Q-41 387 -58 380.5 Q-75 374 -92 366 Q-94 365 -99 362.5 Q-104 360 -106 363 Q-108 365 -103 368 Q-98 371 -96 372 Q-88 377 -79 380.5 Q-70 384 -62 387 Q-33 398 -4.5 405 Q24 412 53 419 Q65 440 77 463.5 Q89 487 101 509 Q116 537 135 571 Q154 605 176 637 Q198 669 223 697 Q248 725 274 742 Q280 745 287.5 748.5 Q295 752 302.5 752.5 Q310 753 315.5 750 Q321 747 323 738 Q325 728 321.5 714.5 Q318 701 311.5 687 Q305 673 298 661 Q291 649 285 643 Q284 641 281 637.5 Q278 634 274.5 630.5 Q271 627 268 624.5 Q265 622 264 623 Q260 625 267 633 Q274 641 280 650 Q294 671 301 688.5 Q308 706 311 714 Q312 718 313.5 728 Q315 738 309 740 Q304 741 293 735 Q282 729 278 726 Q242 698 215 661 Q188 624 164 586 Q139 546 117 506.5 Q95 467 75 425 Q113 431 150.5 435.5 Q188 440 226 445 Q235 446 244.5 447 Q254 448 263 449 Q265 449 271 449 Q277 449 279 447 Q281 443 276.5 442 Q272 441 270 441 Q251 439 232 437 Q213 435 194 433 Q184 431 163.5 427.5 Q143 424 122 421 Q97 417 70 413 Q68 408 64.5 401.5 Q61 395 59 390 Q30 330 6 274.5 Q-18 219 -38.5 166.5 Q-59 114 -77 64 Q-95 14 -112 -36 Q-116 -48 -118.5 -55.5 Q-121 -63 -123 -68.5 Q-125 -74 -126.5 -79 Q-128 -84 -131 -90 Q-133 -95 -134.5 -98.5 Q-136 -102 -138 -105 Q-141 -108 -143.5 -107 Q-146 -106 -146 -102 Q-146 -95 -143 -86 Q-140 -76 -137.5 -68 Q-135 -60 -131 -49 Q-92 69 -52.5 172.5 Q-13 276 33 376 Q37 384 40.5 392 Q44 400 48 408 Z " />
<glyph glyph-name="g" unicode="g" horiz-adv-x="232" d="M86 234 Q102 241 121.5 250 Q141 259 156 267 Q179 278 195.5 285 Q212 292 232 300 Q234 299 236 295.5 Q238 292 230 289 Q214 282 193.5 272 Q173 262 152 251.5 Q131 241 111.5 230.5 Q92 220 77 213 Q76 210 74 207 Q70 201 69 199 Q45 154 13 115 Q-19 76 -53 44 Q-76 20 -101 -2 Q-126 -24 -154 -43 Q-158 -46 -165 -50 Q-172 -54 -179.5 -57 Q-187 -60 -194.5 -61 Q-202 -62 -208 -58 Q-216 -52 -213 -36 Q-210 -20 -200 -4 Q-183 23 -159.5 49 Q-136 75 -110 98 Q-84 121 -57 141.5 Q-30 162 -7 178 Q7 188 22 196.5 Q37 205 51 214 Q55 216 59 218.5 Q63 221 66 223 Q70 225 72 227 Q75 235 78 245.5 Q81 256 83 265 Q84 272 84.5 279 Q85 286 83 294 Q75 289 66 285 Q57 281 49 276 Q32 268 12.5 257.5 Q-7 247 -22 247 Q-30 247 -32.5 253.5 Q-35 260 -32 266 Q-25 281 -9.5 293 Q6 305 18 310 Q33 317 52.5 320 Q72 323 86 310 Q93 304 95 294 Q97 284 96 273.5 Q95 263 92 252.5 Q89 242 86 234 Z M62 206 Q28 186 -2.5 164.5 Q-33 143 -63 120 Q-92 96 -119.5 70.5 Q-147 45 -171 16 Q-174 12 -181 2.5 Q-188 -7 -194 -18 Q-200 -29 -203.5 -38.5 Q-207 -48 -203 -52 Q-199 -55 -192 -53 Q-185 -51 -177 -46.5 Q-169 -42 -162 -36.5 Q-155 -31 -152 -29 Q-123 -7 -95.5 18 Q-68 43 -42 69 Q-27 84 -13.5 99.5 Q0 115 14 132 Q28 149 41 169.5 Q54 190 62 206 Z M77 302 Q66 312 50 309 Q34 306 23 301 Q12 295 0.5 287 Q-11 279 -19 268 Q-20 267 -22 264 Q-24 261 -22 259 Q-19 256 -4 262.5 Q11 269 21 274 Q49 289 77 302 Z " />
<glyph glyph-name="h" unicode="h" horiz-adv-x="204" d="M-23 222 Q-15 232 -5 244.5 Q5 257 15.5 268.5 Q26 280 37 289.5 Q48 299 57 303 Q61 305 65.5 305.5 Q70 306 74 302 Q79 297 78.5 289.5 Q78 282 77 276 Q74 261 71.5 246.5 Q69 232 69 217 Q69 209 72 207 Q75 205 79.5 206 Q84 207 88.5 210.5 Q93 214 96 216 Q117 231 130 242 Q143 253 155 262 Q169 273 181.5 282.5 Q194 292 204 300 Q212 297 210 293 Q208 289 206 287 Q191 275 171.5 260 Q152 245 136 233 Q130 228 118.5 218.5 Q107 209 95 202 Q83 195 72 194 Q61 193 56 206 Q52 216 54.5 232 Q57 248 59 262 Q61 268 62 274.5 Q63 281 64 287 Q64 293 60 291 Q56 289 53 286.5 Q50 284 47 282 Q26 265 7.5 244.5 Q-11 224 -26 205 Q-30 200 -34 194 Q-38 188 -43 183 Q-47 179 -50 182 Q-52 184 -51 187.5 Q-50 191 -49 194 Q-44 207 -38 219.5 Q-32 232 -26 245 Q-13 271 -0.5 298 Q12 325 26 351 Q35 368 54 403.5 Q73 439 96.5 482 Q120 525 145.5 572 Q171 619 193.5 659 Q216 699 232 728 Q248 757 253 766 Q260 779 267 791.5 Q274 804 282 816 Q284 818 286 822 Q288 826 292 824 Q295 822 293 817.5 Q291 813 289 811 Q288 809 285 803.5 Q282 798 278.5 792 Q275 786 272 780.5 Q269 775 268 773 Q261 760 256 750.5 Q251 741 246 732.5 Q241 724 236 714.5 Q231 705 224 692 Q210 666 188.5 628.5 Q167 591 141.5 545.5 Q116 500 88 448.5 Q60 397 33 343 Q13 302 0.5 275 Q-12 248 -23 222 Z " />
<glyph glyph-name="i" unicode="i" horiz-adv-x="175" d="M-20 241 Q-19 257 -13.5 272.5 Q-8 288 0 301 Q3 306 9 304.5 Q15 303 13 298 Q7 281 2 270 Q-3 259 -7 242 Q-9 234 -6 231.5 Q-3 229 5 229 Q19 231 34 237 Q49 243 63 249 Q92 263 120 274.5 Q148 286 175 300 Q180 298 177.5 296 Q175 294 173 292 Q150 281 127.5 271 Q105 261 82 250 Q73 246 60.5 239.5 Q48 233 35.5 228 Q23 223 11 220 Q-1 217 -10 221 Q-16 223 -18 229 Q-20 235 -20 241 Z M31 371 Q33 381 40 394 Q41 396 43.5 402 Q46 408 49 403 Q51 399 47.5 392 Q44 385 42 382 Q40 380 39 377 Q38 374 36 371 Q32 367 31 371 Z " />
<glyph glyph-name="j" unicode="j" horiz-adv-x="208" d="M-103 108 Q-56 137 -11 165.5 Q34 194 80 223 Q112 243 144 262.5 Q176 282 208 300 Q213 298 212.5 295 Q212 292 210 291 Q180 272 151 254 Q122 236 99 222 Q51 191 5 162.5 Q-41 134 -88 105 Q-94 101 -102.5 95.5 Q-111 90 -117 86 Q-126 73 -137.5 58 Q-149 43 -159 29 Q-191 -13 -225.5 -53.5 Q-260 -94 -298 -128 Q-307 -136 -322 -147.5 Q-337 -159 -355 -167.5 Q-373 -176 -390.5 -179 Q-408 -182 -421 -174 Q-425 -171 -429 -165.5 Q-433 -160 -434 -151 Q-435 -142 -430 -130 Q-425 -118 -411 -102 Q-366 -54 -309.5 -18 Q-253 18 -198 51 Q-179 62 -159 75 Q-139 88 -122 97 Q-107 121 -90 149 Q-73 177 -57 204.5 Q-41 232 -26.5 256.5 Q-12 281 -1 298 Q1 302 5 307.5 Q9 313 12 311 Q15 309 11.5 303 Q8 297 4 290 Q-16 255 -36.5 219.5 Q-57 184 -78 149 Q-80 146 -88.5 132 Q-97 118 -103 108 Z M-134 75 Q-138 73 -156 61.5 Q-174 50 -196.5 36.5 Q-219 23 -239.5 10.5 Q-260 -2 -268 -8 Q-300 -29 -331 -52.5 Q-362 -76 -385 -97 Q-408 -118 -418.5 -136 Q-429 -154 -419 -164 Q-411 -172 -393.5 -169 Q-376 -166 -364 -160 Q-332 -143 -303 -116.5 Q-274 -90 -249 -63 Q-219 -30 -190 4.5 Q-161 39 -134 75 Z M70 402 Q76 402 72 396 Q70 394 64 386.5 Q58 379 56 380 Q53 381 54.5 384.5 Q56 388 59 392 Q62 396 65 399 Q68 402 70 402 Z " />
<glyph glyph-name="k" unicode="k" horiz-adv-x="224" d="M-22 241 Q-15 249 -11 253.5 Q-7 258 -2 264 Q4 270 9.5 276 Q15 282 21 288 Q27 293 32.5 298 Q38 303 44 308 Q50 313 57 317 Q64 321 72 321 Q80 322 79 315 Q78 308 76 303 Q70 294 58.5 283 Q47 272 28 259 Q22 255 15 251.5 Q8 248 0 243 Q12 244 30.5 245.5 Q49 247 69 248.5 Q89 250 108 251.5 Q127 253 140 254 Q154 255 169.5 255 Q185 255 190 253 Q196 251 197.5 249.5 Q199 248 194 246 Q193 245 186.5 246 Q180 247 169 246 Q158 245 148 244.5 Q138 244 126 243 Q102 241 78.5 239.5 Q55 238 31 236 Q25 235 15.5 234.5 Q6 234 -3 233 Q-14 232 -25 230 Q-29 224 -33 219 L-43 204 Q-50 194 -55 184.5 Q-60 175 -66 166 Q-69 161 -71 161 Q-75 162 -73 166 Q-72 172 -68 178 Q-64 184 -61 189 Q-38 231 -15.5 272 Q7 313 31 355 Q47 383 70 423.5 Q93 464 118 508.5 Q143 553 168 598.5 Q193 644 214 681.5 Q235 719 249.5 745.5 Q264 772 268 779 Q271 784 274.5 791 Q278 798 281.5 803.5 Q285 809 288 813 Q291 817 292 816 Q296 815 294.5 811 Q293 807 292 805 Q290 800 286.5 794.5 Q283 789 281 784 Q258 742 235 701 Q212 660 189 618 Q141 533 94 449 Q47 365 -1 280 Q-6 272 -22 241 Z M-8 249 Q-5 250 2 254 Q9 258 16.5 262.5 Q24 267 29.5 271 Q35 275 37 277 Q42 281 47 284.5 Q52 288 57 293 Q59 295 66 303.5 Q73 312 71 315 Q69 317 63 314 Q57 311 50.5 306 Q44 301 37.5 295.5 Q31 290 30 289 Q20 280 10.5 270 Q1 260 -8 249 Z " />
<glyph glyph-name="l" unicode="l" horiz-adv-x="261" d="M329 777 Q337 769 339 756.5 Q341 744 341 733 Q340 714 336 695 Q332 676 327 658 Q322 641 314.5 624.5 Q307 608 299 592 Q282 561 262 532 Q242 503 219 475 Q175 422 123 378 Q71 334 12 299 Q10 294 9 289 Q8 284 6 281 Q1 267 -3 252 Q-7 237 -10 227 Q-13 213 -16 199 Q-19 185 -21 171 Q-23 158 -22.5 144 Q-22 130 -17 117 Q-12 103 -1.5 100.5 Q9 98 21 101.5 Q33 105 45 112 Q57 119 65 125 Q88 140 109 157.5 Q130 175 150 193 Q171 212 190.5 231.5 Q210 251 226 266 Q244 284 261 300 Q268 297 263.5 291 Q259 285 242 268 Q230 256 217 243.5 Q204 231 191.5 220 Q179 209 169 200 Q159 191 154 186 Q131 166 108.5 148 Q86 130 63 114 Q54 108 43 101.5 Q32 95 20 92 Q8 89 -3 91 Q-14 93 -22 105 Q-29 115 -30.5 126.5 Q-32 138 -33 150 Q-33 178 -27.5 205.5 Q-22 233 -14 260 Q2 314 25 366 Q47 419 70.5 470 Q94 521 125 569 Q154 617 185.5 663 Q217 709 255 751 Q258 755 261.5 758.5 Q265 762 269 766 Q272 770 280 776 Q288 782 298 784 Q298 784 299 785 Q315 789 327 779 Q327 779 328 778 Q328 777 329 777 Z M333 723 Q334 734 333 749 Q332 764 323 772 Q317 777 310 777 Q303 777 297 774 L296 774 Q290 771 284.5 766 Q279 761 276 758 Q261 743 246 723 Q228 701 211.5 678 Q195 655 179 631 Q147 583 117 533 Q87 483 63 429 Q51 403 41 378 Q31 353 20 326 Q19 323 17.5 318.5 Q16 314 15 310 Q44 327 71 346.5 Q98 366 124 389 Q174 431 216 482 Q258 533 289 590 Q306 621 317.5 654.5 Q329 688 333 723 Z " />
<glyph glyph-name="m" unicode="m" horiz-adv-x="237" d="M-18 255 Q-5 266 8 275 Q21 284 35 292 Q40 295 47 297.5 Q54 300 53 291 Q53 283 49 275.5 Q45 268 43 261 Q51 263 57.5 266 Q64 269 71 272 Q78 275 85 277.5 Q92 280 97 277 Q100 274 100.5 268 Q101 262 101.5 256 Q102 250 104 245.5 Q106 241 112 242 Q125 244 138.5 249.5 Q152 255 166 262 Q183 271 202 281.5 Q221 292 237 300 Q242 297 240.5 295.5 Q239 294 237 293 Q211 279 190.5 266.5 Q170 254 143 242 Q137 239 127.5 236 Q118 233 111 233 Q97 233 94 248 Q92 256 93 265 Q94 274 90 273 Q85 272 76 267.5 Q67 263 62 261 Q60 260 55.5 258 Q51 256 47 255 Q43 254 40 254.5 Q37 255 37 259 Q36 265 40.5 274 Q45 283 47 291 Q32 284 18.5 275 Q5 266 -7 255 Q-9 254 -12 251 Q-15 248 -18.5 245 Q-22 242 -25.5 241 Q-29 240 -31 242 Q-36 246 -30 256 Q-24 266 -22 270 Q-17 277 -12.5 283 Q-8 289 -3 296 Q1 301 7 307 Q13 313 17 309 Q21 305 13.5 296 Q6 287 3 283 Q1 281 -6 272 Q-13 263 -18 255 Z " />
<glyph glyph-name="n" unicode="n" horiz-adv-x="199" d="M-15 249 Q-7 254 0 260 Q7 266 15 271 Q25 278 32.5 282 Q40 286 47 285 Q56 283 58.5 276 Q61 269 61 263 Q61 260 62 254.5 Q63 249 65 247 Q68 244 74 244.5 Q80 245 87 247.5 Q94 250 101 253 Q108 256 114 259 Q139 270 158.5 279.5 Q178 289 199 300 Q209 296 198 290 Q170 276 140.5 261.5 Q111 247 87 239 Q78 236 70 236 Q62 236 57 243 Q51 250 51.5 261.5 Q52 273 48 276 Q43 280 34 274.5 Q25 269 21 267 Q13 262 6 256 Q-1 250 -9 245 Q-11 243 -16 240 Q-21 237 -24 242 Q-26 246 -23 254.5 Q-20 263 -15.5 272 Q-11 281 -6.5 289 Q-2 297 0 300 Q1 302 3 305 Q5 308 8 306 Q11 304 8 298 Q5 292 3 289 Q-2 278 -6.5 269 Q-11 260 -15 249 Z " />
<glyph glyph-name="o" unicode="o" horiz-adv-x="243" d="M23 295 Q26 290 25.5 279.5 Q25 269 20.5 258 Q16 247 9.5 237.5 Q3 228 -6 225 Q-17 221 -21.5 230 Q-26 239 -24 251 Q-22 259 -17 273.5 Q-12 288 2 303 Q15 317 21 314 Q22 313 18 309.5 Q14 306 12 303 Q7 296 -2.5 278.5 Q-12 261 -16 246 Q-17 242 -16.5 237.5 Q-16 233 -12 232 Q-9 231 -4.5 236 Q0 241 2 243 Q7 251 11.5 260.5 Q16 270 17 280 Q17 285 16 289.5 Q15 294 14 299 Q14 307 23 305 Q28 304 33 301.5 Q38 299 43 297 Q54 292 68.5 288 Q83 284 109 283 Q147 281 180.5 287 Q214 293 243 300 Q247 298 245.5 296 Q244 294 238 292 Q203 283 176 279 Q149 275 120 274 Q91 273 64 278.5 Q37 284 23 295 Z " />
<glyph glyph-name="p" unicode="p" horiz-adv-x="284" d="M-47 194 Q-20 221 8 248 Q36 275 70 295 Q73 297 81 301 Q89 305 98 307.5 Q107 310 115 309.5 Q123 309 126 303 Q129 298 123 290 Q117 282 108 274 Q99 266 90.5 260 Q82 254 79 252 Q115 263 150 273 Q185 283 223 290 Q233 292 243.5 293.5 Q254 295 263 297 Q274 299 284 300 Q289 298 288 295 Q287 292 284 291 Q277 290 258.5 287.5 Q240 285 230 283 Q192 274 156.5 265 Q121 256 86 245 Q69 240 51.5 234 Q34 228 17 223 Q9 220 0.5 218 Q-8 216 -15 209 Q-21 203 -27 197 Q-33 191 -39 184 Q-62 159 -83 129 Q-94 114 -102.5 98 Q-111 82 -120 66 L-156 0 Q-158 -2 -160 -4.5 Q-162 -7 -165 -5 Q-169 -3 -168 1.5 Q-167 6 -165 8 Q-160 19 -154.5 30.5 Q-149 42 -144 50 Q-127 84 -111.5 113 Q-96 142 -77 175 Q-59 207 -39 238.5 Q-19 270 1 302 Q11 318 21 333.5 Q31 349 42 364 Q44 367 49 375 Q54 383 59 381 Q64 378 58 368.5 Q52 359 50 355 Q30 322 10.5 290 Q-9 258 -29 225 Q-34 217 -37.5 211 Q-41 205 -47 194 Z M7 230 Q15 232 24 235.5 Q33 239 35 241 Q42 245 48.5 248.5 Q55 252 61 256 Q68 261 74.5 265.5 Q81 270 88 275 Q93 279 101.5 286.5 Q110 294 110 296 Q110 298 106.5 298 Q103 298 99 296 Q90 292 77 284.5 Q64 277 58 272 Q44 262 32 251.5 Q20 241 7 230 Z " />
<glyph glyph-name="q" unicode="q" horiz-adv-x="266" d="M92 291 Q80 283 63 270.5 Q46 258 27.5 247 Q9 236 -8 229.5 Q-25 223 -37 226 Q-46 228 -48 234 Q-50 240 -47.5 247.5 Q-45 255 -40.5 261.5 Q-36 268 -33 272 Q-8 300 26 314 Q33 317 43.5 319.5 Q54 322 64 321.5 Q74 321 82 317 Q90 313 94 303 Q99 308 107.5 314.5 Q116 321 121 318 Q126 314 119.5 305 Q113 296 111 292 L69 235 Q49 206 28 175.5 Q7 145 -10 119 Q9 127 26.5 135 Q44 143 61 152 Q100 173 133.5 195.5 Q167 218 199 242 Q233 267 266 300 Q272 298 269.5 294 Q267 290 265 288 Q244 265 221 246 Q198 227 175 210 Q107 162 37 127 Q25 121 9 113 Q-7 105 -23 100 Q-33 82 -42 66 Q-50 52 -58.5 37.5 Q-67 23 -72 14 Q-74 10 -76.5 5.5 Q-79 1 -82 -4 Q-74 -42 -76 -61 Q-78 -80 -84 -98 Q-90 -116 -99 -132 Q-102 -138 -107.5 -146 Q-113 -154 -119.5 -161.5 Q-126 -169 -134 -173 Q-142 -177 -150 -174 Q-159 -171 -161.5 -162.5 Q-164 -154 -162.5 -144 Q-161 -134 -157.5 -124 Q-154 -114 -152 -108 Q-145 -89 -137 -71 Q-129 -53 -120 -35 Q-115 -24 -108 -11.5 Q-101 1 -96 12 Q-98 17 -101 24 Q-104 31 -106 36 Q-109 44 -113.5 54.5 Q-118 65 -116 73 Q-114 81 -106 85.5 Q-98 90 -90 92 Q-80 96 -66.5 100 Q-53 104 -43 106 Q-41 110 -38 114 Q-33 121 -28 129 Q3 174 33 213.5 Q63 253 92 291 Z M-88 -16 Q-89 -18 -93.5 -26 Q-98 -34 -103 -44 Q-108 -54 -112.5 -63.5 Q-117 -73 -119 -77 Q-130 -100 -138.5 -121.5 Q-147 -143 -145 -157 Q-143 -165 -137 -162 Q-130 -158 -125 -151.5 Q-120 -145 -115 -139 Q-95 -110 -89 -79.5 Q-83 -49 -88 -16 Z M-32 236 Q-21 234 -7 240.5 Q7 247 21 255 Q24 257 31 261.5 Q38 266 45.5 270.5 Q53 275 59 279 Q65 283 67 284 Q69 285 75 289 Q78 291 80 293 Q81 300 77.5 303.5 Q74 307 69 308 Q64 309 58 308.5 Q52 308 48 307 Q34 303 20.5 295.5 Q7 288 -4 279 Q-11 273 -17.5 267.5 Q-24 262 -29 255 Q-30 253 -32 250 Q-34 247 -35.5 244 Q-37 241 -36.5 238.5 Q-36 236 -32 236 Z M-51 92 Q-59 90 -65.5 88.5 Q-72 87 -78 85 Q-84 83 -93.5 79.5 Q-103 76 -105 73 Q-107 69 -105 62.5 Q-103 56 -101 52 Q-98 44 -95.5 37.5 Q-93 31 -90 23 L-51 92 Z " />
<glyph glyph-name="r" unicode="r" horiz-adv-x="210" d="M-10 268 Q-8 267 4 273.5 Q16 280 25 285 Q27 286 31.5 288 Q36 290 40 291 Q44 292 46.5 290.5 Q49 289 48 283 Q47 278 41.5 269 Q36 260 31 253 Q23 242 13.5 226.5 Q4 211 4 205 Q4 198 12 201 Q17 203 28 208 Q39 213 48 218 Q93 241 131 260.5 Q169 280 210 300 Q215 299 214.5 297 Q214 295 211 293 Q170 273 130.5 252.5 Q91 232 51 212 Q47 210 40 206 Q33 202 25.5 199 Q18 196 11.5 194.5 Q5 193 1 195 Q-4 198 -4 203.5 Q-4 209 -2 214 Q1 225 9.5 238.5 Q18 252 29 267 Q32 272 35 276.5 Q38 281 40 284 Q29 279 22 275 Q15 271 4 265 Q-3 261 -11 259.5 Q-19 258 -18 268 Q-16 282 -1.5 298.5 Q13 315 23 325 Q29 331 39 339.5 Q49 348 52 346 Q56 344 53.5 342 Q51 340 49 338 Q37 329 26 316.5 Q15 304 9 297 Q7 294 -1 283 Q-9 272 -10 268 Z " />
<glyph glyph-name="s" unicode="s" horiz-adv-x="224" d="M69 312 Q63 312 53.5 311 Q44 310 34 307 Q24 304 14.5 298 Q5 292 -2 283 Q-7 276 -6 271 Q-5 266 0 260 Q11 249 23 238.5 Q35 228 38 213 Q86 233 132 254 Q178 275 224 300 Q229 299 228 297 Q227 295 225 293 Q179 267 133 246 Q87 225 39 204 Q37 190 25.5 176 Q14 162 8 157 Q0 149 -10.5 142.5 Q-21 136 -32 132 Q-36 130 -42.5 130 Q-49 130 -53 133 Q-58 137 -56.5 142.5 Q-55 148 -53 152 Q-48 162 -37 171.5 Q-26 181 -16 187 Q-9 192 1.5 196.5 Q12 201 27 208 Q25 223 15 232 Q5 241 -5 251 Q-10 256 -13.5 261.5 Q-17 267 -16 275 Q-15 282 -11 287.5 Q-7 293 -2 298 Q12 311 34.5 318 Q57 325 75 322 Q84 321 80 315 Q79 312 75.5 312 Q72 312 69 312 Z M27 198 Q7 189 -5.5 181.5 Q-18 174 -32 162 Q-37 157 -41.5 150.5 Q-46 144 -47 141 Q-37 142 -25.5 148 Q-14 154 -6 160 Q4 168 13 178 Q22 188 27 198 Z " />
<glyph glyph-name="t" unicode="t" horiz-adv-x="129" d="M150 572 Q140 572 119.5 572 Q99 572 76 572 Q53 572 32.5 571.5 Q12 571 3 571 Q-34 571 -70 570 Q-106 569 -143 567 Q-178 565 -214.5 561 Q-251 557 -283 541 Q-290 537 -297 533 Q-304 529 -309 524 Q-311 522 -313.5 518.5 Q-316 515 -315 512 Q-315 511 -314 510.5 Q-313 510 -315 509 Q-316 508 -317 509 Q-318 510 -318 511 Q-321 517 -316 523.5 Q-311 530 -307 533 Q-300 538 -293 542 Q-286 546 -279 550 Q-246 565 -209 568.5 Q-172 572 -137 574 Q-64 578 9 580 Q18 580 40 580.5 Q62 581 85.5 581 Q109 581 129 581.5 Q149 582 155 582 Q155 583 162.5 596 Q170 609 181 628 Q192 647 205.5 669 Q219 691 231 711.5 Q243 732 252.5 747.5 Q262 763 265 768 Q267 770 269.5 774 Q272 778 275 778 Q279 778 277 773 Q248 723 223 679.5 Q198 636 169 584 Q224 584 270 585 Q316 586 364 584 Q370 584 376.5 584 Q383 584 389 583 Q392 583 399 581.5 Q406 580 405 575 Q404 572 398 572 Q392 572 390 573 Q383 573 376.5 573.5 Q370 574 363 574 Q351 574 320 574 Q289 574 255.5 573.5 Q222 573 195 572.5 Q168 572 163 572 Q161 569 152 552.5 Q143 536 130.5 512 Q118 488 102.5 459 Q87 430 72 402 Q57 374 44 350 Q31 326 24 311 Q-22 222 -64.5 133 Q-107 44 -149 -47 Q-154 -58 -158.5 -69 Q-163 -80 -168 -91 Q-170 -94 -173 -100.5 Q-176 -107 -180 -107 Q-185 -105 -184.5 -100 Q-184 -95 -183 -92 Q-180 -80 -175 -68.5 Q-170 -57 -165 -46 Q-160 -35 -155.5 -23.5 Q-151 -12 -146 -1 Q-126 45 -104.5 90 Q-83 135 -61 180 Q-40 225 -16.5 268 Q7 311 30 355 Q42 377 61 412 Q80 447 99 481 Q118 515 132.5 541 Q147 567 150 572 Z " />
<glyph glyph-name="u" unicode="u" horiz-adv-x="270" d="M74 293 L29 263 Q24 259 10.5 250 Q-3 241 -13 239 Q-21 237 -24.5 239.5 Q-28 242 -28 247 Q-28 252 -26.5 258 Q-25 264 -22 269 Q-21 272 -17.5 278 Q-14 284 -9.5 290 Q-5 296 -0.5 300.5 Q4 305 7 304 Q14 302 13.5 298 Q13 294 10 290 Q2 280 -5 270 Q-12 260 -14 251 Q-10 252 -2 256 Q6 260 9 262 Q15 265 25 271.5 Q35 278 45 284 Q55 290 63.5 295 Q72 300 75 301 Q81 303 83.5 299.5 Q86 296 84 291 Q81 283 74.5 270.5 Q68 258 65 246 Q63 237 71.5 235.5 Q80 234 94 236.5 Q108 239 125 244 Q142 249 157.5 255 Q173 261 185 266 Q197 271 201 272 Q207 274 218.5 279 Q230 284 241 289 Q254 294 270 300 Q279 296 262 289 Q255 286 235 277.5 Q215 269 202 264 Q198 262 185.5 257 Q173 252 156.5 245.5 Q140 239 122 233.5 Q104 228 89 226 Q74 224 64 228 Q54 232 54 244 Q54 255 61.5 268.5 Q69 282 74 293 Z " />
<glyph glyph-name="v" unicode="v" horiz-adv-x="261" d="M96 293 Q74 270 56.5 248 Q39 226 20 204 Q15 198 8.5 190 Q2 182 -5 175 Q-12 168 -18.5 163.5 Q-25 159 -30 160 Q-41 162 -39 182 Q-37 202 -29.5 226 Q-22 250 -13.5 271 Q-5 292 -2 297 Q0 300 3.5 306.5 Q7 313 12 308 Q16 305 12.5 297 Q9 289 7 284 Q2 270 -4 256.5 Q-10 243 -15 229 Q-21 211 -25 192 Q-29 173 -27 168 Q-23 169 -13 179 Q-3 189 2 194 Q22 217 38 237 Q54 257 74 281 Q77 284 84.5 293 Q92 302 97 301 Q102 300 103.5 294.5 Q105 289 107 281 Q109 271 113 266 Q117 261 128 259 Q142 257 156.5 261 Q171 265 185 270 Q201 276 211.5 280 Q222 284 230.5 287 Q239 290 245.5 293 Q252 296 261 300 Q265 297 262.5 295.5 Q260 294 252 290 Q248 288 238.5 284 Q229 280 218 275.5 Q207 271 195.5 267 Q184 263 176 260 Q162 255 145.5 252 Q129 249 117 254 Q104 259 101 270 Q98 281 96 293 Z " />
<glyph glyph-name="w" unicode="w" horiz-adv-x="256" d="M-21 238 Q-9 246 7 259.5 Q23 273 37 283 Q40 285 43 286 Q46 287 49 285 Q53 282 52.5 278.5 Q52 275 51 271 Q49 263 44.5 251 Q40 239 41 234 Q42 229 51 235 Q60 241 61 242 Q75 253 92.5 268.5 Q110 284 120 289 Q128 293 135 291 Q142 289 150 287 Q168 284 185 285.5 Q202 287 223 292 Q227 293 233 294 Q239 295 244 297 Q250 299 256 300 Q262 296 252 292 Q226 284 198.5 278.5 Q171 273 145 280 Q136 282 131.5 284.5 Q127 287 120 281 Q112 274 101 264.5 Q90 255 82 249 Q74 243 65 235.5 Q56 228 50 225 Q44 222 37.5 222 Q31 222 29 232 Q28 237 29.5 243 Q31 249 33 254 Q35 261 37 265 Q39 269 41 276 Q28 266 15 254 Q8 248 -2 240 Q-12 232 -19 227 Q-26 222 -32.5 224 Q-39 226 -37 236 Q-32 252 -23.5 266 Q-15 280 -6 293 Q1 304 6 305 Q14 307 14 299 Q14 294 9 287 Q6 283 3.5 279 Q1 275 -4 268 Q-9 260 -13 253 Q-17 246 -21 238 Z " />
<glyph glyph-name="x" unicode="x" horiz-adv-x="82" d="M1 243 Q-21 223 -40.5 203 Q-60 183 -80 163 Q-82 161 -86 157.5 Q-90 154 -92 157 Q-94 160 -90.5 164.5 Q-87 169 -85 171 Q-72 187 -58 201 Q-44 215 -30 229 Q-23 236 -15 244.5 Q-7 253 0 260 Q0 270 -0.5 279 Q-1 288 -1 293 Q-1 298 -1.5 305 Q-2 312 -1 314 Q0 317 4.5 317 Q9 317 10 312 Q11 302 11 292.5 Q11 283 11 270 Q22 279 32 288 Q42 297 51 306 Q54 308 58 311.5 Q62 315 64 313 Q69 309 64 303.5 Q59 298 57 296 Q50 290 37 277.5 Q24 265 12 254 L12 222 Q12 209 12.5 198 Q13 187 13 182 Q13 180 13.5 176 Q14 172 12 170 Q8 168 7 172 Q6 176 5 178 Q4 190 3 209.5 Q2 229 1 243 Z " />
<glyph glyph-name="y" unicode="y" horiz-adv-x="241" d="M84 294 Q67 281 45.5 265.5 Q24 250 10 240 Q4 235 -9 227.5 Q-22 220 -30 223 Q-34 224 -35 228 Q-36 232 -35.5 236.5 Q-35 241 -33.5 246 Q-32 251 -30 254 Q-23 268 -14.5 281.5 Q-6 295 5 306 Q9 312 15 312 Q22 311 20 304 Q18 300 15.5 297 Q13 294 11 292 Q8 288 5 284.5 Q2 281 0 277 Q-15 257 -21 244 Q-27 231 -25 229 Q-23 227 -15.5 231.5 Q-8 236 1 242 Q10 248 18.5 254.5 Q27 261 30 263 Q44 273 57 283 Q70 293 84 302 Q86 304 89.5 305 Q93 306 95 302 Q97 300 95.5 295.5 Q94 291 92 288 Q88 281 83.5 272.5 Q79 264 74 256 Q69 248 60.5 235 Q52 222 36 198 Q68 215 94 228 Q120 241 132 247 Q140 251 152.5 257 Q165 263 177.5 269.5 Q190 276 202.5 281.5 Q215 287 223 291 L241 300 Q247 298 244.5 295.5 Q242 293 239 291 Q231 287 225 284 Q219 281 214 279 Q182 263 150.5 247.5 Q119 232 87 216 Q79 212 69.5 207 Q60 202 51 197 Q47 195 43 192.5 Q39 190 34 188 Q29 185 24 182 Q17 174 12.5 169 Q8 164 3 157 Q-2 150 -8 143 Q-14 136 -19 129 Q-30 115 -51 89 Q-72 63 -98 34.5 Q-124 6 -152 -19.5 Q-180 -45 -204 -57 Q-219 -65 -233 -62.5 Q-247 -60 -250 -46 Q-253 -31 -246.5 -13.5 Q-240 4 -232 16 Q-215 42 -190.5 62 Q-166 82 -140 100 Q-112 120 -83 136.5 Q-54 153 -23 169 Q-14 174 -7 177.5 Q0 181 6 184 Q12 190 16 196 Q20 201 24 206 Q28 211 30 215 Q35 222 43 233.5 Q51 245 59 256.5 Q67 268 74 278.5 Q81 289 84 294 Z M-5 169 Q-11 166 -19 162 Q-27 158 -35.5 153.5 Q-44 149 -51 145 Q-58 141 -62 139 Q-92 122 -122 103 Q-148 85 -175 64 Q-202 43 -222 17 Q-231 5 -238.5 -11.5 Q-246 -28 -244 -40 Q-243 -49 -238 -51.5 Q-233 -54 -227 -53 Q-221 -52 -215 -49 Q-209 -46 -204 -43 Q-180 -27 -150 2.5 Q-120 32 -92 64 Q-64 96 -40.5 125 Q-17 154 -5 169 Z " />
<glyph glyph-name="z" unicode="z" horiz-adv-x="256" d="M45 312 Q34 311 15.5 299.5 Q-3 288 -16 275 Q-23 268 -28.5 261.5 Q-34 255 -39 247 Q-41 245 -42.5 240 Q-44 235 -46 237 Q-48 239 -46 245 Q-44 251 -42 254 Q-31 272 -8 293 Q15 314 40 323 Q47 325 53.5 323 Q60 321 59 312 Q58 302 50.5 293 Q43 284 37 277 Q30 269 22 261 Q14 253 6 245 Q21 249 39.5 251 Q58 253 69 242 Q75 236 75.5 227.5 Q76 219 73 211 Q70 203 65.5 195 Q61 187 58 181 Q112 208 159 234 Q206 260 256 300 Q261 298 258.5 295.5 Q256 293 254 291 Q206 251 152.5 223 Q99 195 47 166 Q44 162 40 157.5 Q36 153 32 148 Q21 135 5.5 117 Q-10 99 -29.5 78 Q-49 57 -71.5 36 Q-94 15 -117 -4 Q-130 -15 -143.5 -24.5 Q-157 -34 -173 -40 Q-189 -46 -199 -42.5 Q-209 -39 -209 -27 Q-209 -9 -196 9.5 Q-183 28 -163 46 Q-143 64 -119 80.5 Q-95 97 -72 110.5 Q-49 124 -30.5 133.5 Q-12 143 -4 148 Q0 150 5 153 Q10 156 15 158 L27 164 Q32 170 36.5 176.5 Q41 183 46 189 Q48 192 52.5 199 Q57 206 60 213.5 Q63 221 63 227.5 Q63 234 57 237 Q53 239 45.5 239.5 Q38 240 29 238 Q15 236 6.5 234.5 Q-2 233 -5 237 Q-11 242 -5.5 249 Q0 256 3 260 Q10 267 16 273 Q22 279 28 286 Q30 289 37 298 Q44 307 45 312 Z M15 151 Q1 144 -22.5 132 Q-46 120 -73 103 Q-100 86 -127.5 65.5 Q-155 45 -176 21 Q-184 12 -192 0 Q-200 -12 -202 -26 Q-203 -33 -198.5 -34.5 Q-194 -36 -188 -34.5 Q-182 -33 -176 -30 Q-170 -27 -167 -25 Q-155 -18 -140.5 -6.5 Q-126 5 -112.5 16.5 Q-99 28 -87.5 39 Q-76 50 -68 58 Q-43 83 -24 105.5 Q-5 128 15 151 Z " />
<glyph glyph-name="d" unicode="d" horiz-adv-x="176" d="M83 316 Q71 300 62.5 289.5 Q54 279 41 263 Q35 256 27.5 247 Q20 238 12 229 Q4 220 -5 212.5 Q-14 205 -23 201 Q-30 198 -36.5 199.5 Q-43 201 -45 208 Q-47 217 -44.5 226.5 Q-42 236 -39 244 Q-32 261 -20.5 276.5 Q-9 292 4 304 Q11 310 19 315.5 Q27 321 37 323 Q42 324 51 322 Q60 320 64 309 Q78 327 90.5 343 Q103 359 117 379 Q131 408 144.5 436.5 Q158 465 179 504 Q189 523 207.5 557.5 Q226 592 249.5 630.5 Q273 669 300 707 Q327 745 356 771 Q359 774 363 777 Q367 780 372 781 Q380 783 382 775 Q384 767 381 760 Q364 725 337 682 Q310 639 281.5 596.5 Q253 554 227 518 Q201 482 187 463 Q177 449 164.5 430 Q152 411 140 391 Q100 310 66 228.5 Q32 147 -1 64 Q-6 53 -9.5 43 Q-13 33 -18 22 Q-20 18 -22 13.5 Q-24 9 -29 12 Q-34 15 -33 20.5 Q-32 26 -30 31 Q-23 52 -15.5 72.5 Q-8 93 0 114 Q20 166 40 215.5 Q60 265 83 316 Z M-32 211 Q-27 211 -20.5 216 Q-14 221 -7 227 Q0 233 5.5 238.5 Q11 244 13 247 Q25 261 35 273 Q45 285 54 297 L54 301 Q54 304 51 307 Q45 312 37 309 Q29 306 22 300 Q15 294 8.5 286.5 Q2 279 -1 275 Q-6 268 -12 258.5 Q-18 249 -23 239 Q-28 229 -31 221.5 Q-34 214 -32 211 Z M360 752 Q348 741 332.5 721 Q317 701 299 675.5 Q281 650 262.5 620.5 Q244 591 227.5 563 Q211 535 197 509 Q183 483 174 465 Q195 495 220.5 531.5 Q246 568 271 606.5 Q296 645 319.5 682.5 Q343 720 360 752 Z " />
<glyph glyph-name="A" unicode="A" horiz-adv-x="1168" d="M1278 750 Q1279 738 1268.5 707.5 Q1258 677 1242 640.5 Q1226 604 1209.5 568.5 Q1193 533 1183 512 Q1159 463 1134.5 414.5 Q1110 366 1085 317 Q1060 267 1036 218 Q1012 169 988 119 Q965 71 942 24.5 Q919 -22 896 -69 Q880 -101 865 -133 Q850 -165 834 -197 Q831 -201 830 -205 L828 -207 Q827 -208 827 -209 Q826 -210 826 -209 Q827 -206 828 -203.5 Q829 -201 830 -198 Q835 -187 840 -175.5 Q845 -164 850 -153 Q868 -115 886 -76 Q904 -37 923 1 Q945 48 967 94 Q989 140 1012 186 Q1033 230 1054.5 272.5 Q1076 315 1097 359 Q1119 404 1140.5 449 Q1162 494 1184 540 Q1189 550 1197.5 568 Q1206 586 1216 608 Q1226 630 1236 653.5 Q1246 677 1254 697 Q1262 717 1266.5 732 Q1271 747 1270 753 Q1269 756 1266 758 Q1263 760 1252 755 Q1244 751 1236 746 Q1228 741 1220 735 Q1189 711 1158 682 Q1113 640 1071.5 598 Q1030 556 988 511 Q979 502 966 488 Q953 474 941 461.5 Q929 449 920.5 439.5 Q912 430 912 430 Q921 431 936.5 432 Q952 433 969 433.5 Q986 434 1001.5 434 Q1017 434 1026 434 Q1044 434 1064 431 Q1084 428 1095 422 Q1100 417 1092 420 Q1078 425 1064.5 427 Q1051 429 1037 429 Q1025 429 1013 429 Q1001 429 988 428 Q979 428 965.5 427.5 Q952 427 939 426 Q926 425 916.5 424.5 Q907 424 907 424 Q886 402 868 381 Q852 363 834.5 344 Q817 325 805 311 Q770 272 735.5 233 Q701 194 666 154 Q639 123 606.5 86 Q574 49 540 12 Q506 -25 472 -58 Q438 -91 408 -115 Q403 -119 391.5 -125.5 Q380 -132 371 -133 Q363 -133 362 -125 Q360 -116 367.5 -97.5 Q375 -79 386 -57 Q397 -35 408.5 -15 Q420 5 427 17 Q440 41 454 64.5 Q468 88 480.5 113 Q493 138 503 165 Q513 192 518 222 Q523 248 517.5 272.5 Q512 297 488 314 Q463 331 430 334 Q397 337 365 335 Q325 333 286.5 325.5 Q248 318 210 310 Q178 302 149.5 295.5 Q121 289 86 281 Q75 278 65.5 275.5 Q56 273 48 271 Q45 271 44 273 Q44 275 49 277 Q91 291 130 302 Q169 313 222 324 Q249 330 280.5 337 Q312 344 341 350 Q370 356 392.5 360.5 Q415 365 426 367 Q543 388 660.5 403 Q778 418 896 429 Q927 460 957 493 Q987 526 1025 564 Q1070 607 1113.5 651.5 Q1157 696 1212 737 Q1220 743 1232.5 752 Q1245 761 1259 764 Q1277 767 1278 750 Z M890 423 Q787 412 686 400.5 Q585 389 484 372 Q439 366 393.5 357 Q348 348 300 337 Q323 340 350.5 343 Q378 346 405.5 345 Q433 344 459 337 Q485 330 506 313 Q532 291 533.5 259.5 Q535 228 526 195 Q516 158 490 112 Q464 66 438 23 Q430 11 424.5 1.5 Q419 -8 413.5 -17 Q408 -26 402.5 -36.5 Q397 -47 390 -60 Q377 -84 371.5 -99 Q366 -114 366 -122 Q366 -130 373 -127 Q389 -122 415.5 -97 Q442 -72 470 -42 Q498 -12 522.5 17 Q547 46 560 60 Q589 92 617.5 123.5 Q646 155 675 187 Q687 201 701 216.5 Q715 232 738.5 257.5 Q762 283 798 322.5 Q834 362 890 423 Z " />
<glyph glyph-name="B" unicode="B" horiz-adv-x="810" d="M1029 719 Q1043 710 1047 696 Q1051 682 1046 665 Q1036 636 1011 608.5 Q986 581 951.5 556 Q917 531 876 508 Q835 485 794.5 465 Q754 445 717.5 428.5 Q681 412 654 399 Q606 376 557.5 355 Q509 334 460 313 Q449 308 436 302 Q423 296 410 289.5 Q397 283 385.5 276.5 Q374 270 367 264 Q358 257 369 252 Q393 245 431 237 Q469 229 507.5 216.5 Q546 204 577.5 185.5 Q609 167 620 139 Q627 119 619 97 Q610 74 590.5 55 Q571 36 543 16 Q515 -4 486 -20.5 Q457 -37 427 -52 Q378 -77 328 -98 Q278 -119 227 -138 Q149 -167 71 -195.5 Q-7 -224 -87 -250 Q-97 -253 -114 -258.5 Q-131 -264 -149.5 -269.5 Q-168 -275 -184.5 -278.5 Q-201 -282 -209 -281 Q-212 -281 -212 -279 Q-212 -277 -210 -275 Q-198 -269 -184.5 -265.5 Q-171 -262 -157 -257 Q-97 -237 -37.5 -216.5 Q22 -196 82 -173 Q194 -133 307 -89 Q348 -73 387.5 -55 Q427 -37 465 -16 Q490 -3 513.5 11.5 Q537 26 560 43 Q577 56 593 73.5 Q609 91 613 114 Q617 139 600.5 158 Q584 177 558.5 189.5 Q533 202 504.5 210 Q476 218 458 223 Q435 228 412 233 Q389 238 365 246 Q351 251 352 258.5 Q353 266 362 274 Q369 281 390 293.5 Q411 306 441.5 322 Q472 338 508.5 356 Q545 374 582.5 392 Q620 410 655.5 427.5 Q691 445 720 459 Q740 469 769 482 Q798 495 830.5 511 Q863 527 896.5 545.5 Q930 564 958 584.5 Q986 605 1006 627.5 Q1026 650 1033 675 Q1037 689 1029.5 699.5 Q1022 710 1009.5 717.5 Q997 725 982 729 Q967 733 957 735 Q916 745 869.5 747 Q823 749 753 749 Q668 744 586.5 736 Q505 728 425.5 716 Q346 704 267 686 Q188 668 107 643 Q65 629 25 614 Q-15 599 -54 579 Q-68 571 -82.5 563.5 Q-97 556 -110 545 Q-116 540 -120 535 Q-123 530 -125 530 Q-129 530 -127 536 Q-126 541 -116 549 Q-93 568 -63.5 583.5 Q-34 599 -3 611.5 Q28 624 57.5 633.5 Q87 643 109 651 Q193 677 278.5 695 Q364 713 455 727 Q488 732 537 738 Q586 744 641 748.5 Q696 753 754 755 Q812 757 865 754.5 Q918 752 961 743.5 Q1004 735 1029 719 Z M363 622 Q364 623 365 625 Q366 627 368 626 Q369 625 366 621 Q363 617 361 613 L212 367 Q173 301 135 235.5 Q97 170 59 104 Q37 66 16 29 Q-5 -8 -26 -46 Q-34 -60 -40.5 -73.5 Q-47 -87 -55 -101 L-58 -107 Q-58 -108 -58.5 -107.5 Q-59 -107 -59 -106 Q-61 -101 -56 -92.5 Q-51 -84 -47 -76 Q-34 -52 -21.5 -28 Q-9 -4 5 20 Q37 77 69.5 133 Q102 189 134 246 Q151 276 168.5 305.5 Q186 335 204 364 Q224 398 250.5 440.5 Q277 483 300 521 Q327 565 354 609 Q356 613 358.5 616 Q361 619 363 622 Z " />
<glyph glyph-name="C" unicode="C" horiz-adv-x="904" d="M-19 28 Q-21 -23 -6 -69 Q1 -88 10.5 -105.5 Q20 -123 34 -138 Q66 -173 115 -187 Q146 -196 177 -196 Q209 -198 240 -194 Q271 -190 302 -182 Q337 -174 371 -162 Q405 -150 438 -135 Q510 -101 576 -57 Q610 -35 643 -13.5 Q676 8 709 31 Q732 46 754.5 62 Q777 78 800 94 Q806 99 812 103.5 Q818 108 824 113 Q828 117 830 115 Q832 113 830 111.5 Q828 110 827 109 Q819 102 811.5 95.5 Q804 89 796 83 Q771 66 747 48.5 Q723 31 697 14 Q659 -12 620.5 -37 Q582 -62 543 -87 Q450 -146 348 -179 Q297 -196 243 -203 Q223 -205 202 -205.5 Q181 -206 161 -204 Q109 -199 67 -175 Q45 -162 29 -144.5 Q13 -127 1 -105 Q-10 -85 -16.5 -63.5 Q-23 -42 -26 -19 Q-30 7 -29.5 32.5 Q-29 58 -26 84 Q-20 133 -6 179 Q8 225 28 270 Q79 386 160 484 Q262 606 399 688 Q487 740 582 766 Q632 780 683.5 783 Q735 786 783 771 Q796 766 808.5 760.5 Q821 755 832 747 Q876 714 877 659 Q877 642 873 625.5 Q869 609 864 593 Q854 567 841 543.5 Q828 520 812 498 Q788 463 761 436 Q757 432 753.5 428 Q750 424 745 420 Q744 419 743.5 420 Q743 421 744 422 Q760 439 774.5 456 Q789 473 803 492 Q816 509 827 527.5 Q838 546 847 566 Q855 581 860.5 596 Q866 611 868 628 Q870 644 870 659.5 Q870 675 865 690 Q854 724 819 746 Q792 762 757 768 Q734 773 711 773 Q688 773 665 771 Q627 767 590.5 757 Q554 747 518 732 Q467 712 420.5 684.5 Q374 657 329 624 Q301 602 274.5 579.5 Q248 557 223 531 Q118 426 53 297 Q35 261 20.5 223.5 Q6 186 -4 147 Q-10 121 -14 95.5 Q-18 70 -19 44 Q-20 40 -19.5 36 Q-19 32 -19 28 Z " />
<glyph glyph-name="D" unicode="D" horiz-adv-x="992" d="M-65 565 Q-7 604 61 635 Q115 659 170 677.5 Q225 696 282 711 Q342 726 398.5 736.5 Q455 747 511 752 Q559 757 605 757.5 Q651 758 697 756 Q739 753 780 746.5 Q821 740 861 727 Q907 713 945 689 Q983 665 1005 627 Q1023 591 1020.5 554.5 Q1018 518 1003.5 483 Q989 448 966 416.5 Q943 385 920 360 Q860 298 795.5 247.5 Q731 197 664.5 153.5 Q598 110 530 72 Q462 34 393 -2 Q312 -45 231 -86.5 Q150 -128 68 -169 Q4 -201 -60.5 -232 Q-125 -263 -191 -290 Q-208 -295 -217.5 -298.5 Q-227 -302 -231 -299 Q-236 -294 -226.5 -289 Q-217 -284 -216 -283 Q-159 -258 -104 -231.5 Q-49 -205 7 -177 Q82 -139 155.5 -100.5 Q229 -62 304 -23 Q449 55 584 135.5 Q719 216 841 314 Q869 337 897 363 Q925 389 949 418.5 Q973 448 989.5 480 Q1006 512 1011 548 Q1020 611 977 657 Q964 671 948.5 681.5 Q933 692 916 701 Q874 721 826 732 Q785 742 739 747 Q704 751 668 752 Q632 753 597 751 Q528 749 461.5 740 Q395 731 332 715 Q212 688 99 643 Q56 626 15 606 Q-26 586 -65 562 Q-67 560 -67 561.5 Q-67 563 -65 565 Z M-24 -83 Q-21 -66 -15 -51 Q-4 -19 9 11 Q22 41 35 71 Q70 149 105 225 Q140 301 176 378 Q195 418 215.5 457 Q236 496 256 535 Q271 564 283 588 Q295 612 308 636 Q309 638 310.5 640 Q312 642 314 641 Q315 640 315 639 Q315 638 314 637 Q308 623 298 603.5 Q288 584 280 567 Q248 503 216 439.5 Q184 376 154 311 Q116 230 79 149 Q42 68 7 -14 Q-1 -31 -8.5 -50.5 Q-16 -70 -22 -84 Q-22 -85 -23 -85 Q-24 -85 -24 -83 Z " />
<glyph glyph-name="E" unicode="E" horiz-adv-x="898" d="M388 677 Q345 659 298.5 633 Q252 607 213.5 579.5 Q175 552 149 525.5 Q123 499 122 479 Q122 467 129.5 459.5 Q137 452 149 447 Q161 442 175.5 439.5 Q190 437 204 434 Q260 426 314.5 420.5 Q369 415 423 405 Q432 403 444 400 Q456 397 466 391.5 Q476 386 481.5 377 Q487 368 482 356 Q476 343 461.5 330 Q447 317 428.5 304.5 Q410 292 390.5 281 Q371 270 355 260 Q297 226 233 188 Q169 150 107.5 108 Q46 66 -9 21.5 Q-64 -23 -104 -70 Q-109 -78 -115.5 -88 Q-122 -98 -125.5 -108.5 Q-129 -119 -127.5 -129.5 Q-126 -140 -115 -147 Q-98 -158 -67 -160 Q-36 -162 -1 -159.5 Q34 -157 69 -152 Q104 -147 130 -143 Q224 -127 313.5 -112 Q403 -97 494 -83 Q524 -79 558 -73.5 Q592 -68 626 -63 Q660 -58 691.5 -53.5 Q723 -49 747 -47 Q753 -47 751 -52 Q750 -54 738 -56.5 Q726 -59 713 -61 Q591 -81 471.5 -100 Q352 -119 233 -141 Q170 -152 111.5 -160 Q53 -168 2 -171 Q-16 -172 -38 -172 Q-60 -172 -79.5 -169 Q-99 -166 -114.5 -158 Q-130 -150 -136 -133 Q-143 -114 -133 -91.5 Q-123 -69 -102 -44.5 Q-81 -20 -52.5 4.5 Q-24 29 6.5 52 Q37 75 66 94.5 Q95 114 116 129 Q189 177 259 216.5 Q329 256 398 298 Q407 303 419.5 311 Q432 319 443.5 328 Q455 337 463.5 345.5 Q472 354 474 361 Q477 371 471 377.5 Q465 384 455 388 Q445 392 434.5 394.5 Q424 397 417 398 Q387 404 343 408.5 Q299 413 255.5 419 Q212 425 176.5 433 Q141 441 128 453 Q111 468 115 490 Q125 524 166 560 Q207 596 262 629 Q317 662 376.5 689.5 Q436 717 483 734 Q533 749 592.5 761.5 Q652 774 711 777 Q770 780 823 770.5 Q876 761 914 732 Q957 697 953 642 Q951 602 931.5 567.5 Q912 533 890 503 Q864 468 839 438.5 Q814 409 789 381 Q787 379 785.5 380 Q784 381 786 383 Q814 417 841 448.5 Q868 480 891 515 Q906 539 919.5 567 Q933 595 938.5 623 Q944 651 938 677 Q932 703 908 724 Q895 735 880.5 741 Q866 747 850 752 Q791 765 731 763.5 Q671 762 612 750.5 Q553 739 496 719 Q439 699 388 677 Z " />
<glyph glyph-name="F" unicode="F" horiz-adv-x="831" d="M1242 844 Q1247 845 1248 843.5 Q1249 842 1245 841 Q1217 836 1190 832 Q1163 828 1136 823 Q1082 814 1029 804 Q976 794 922 782 Q715 735 514 665 Q448 642 384 617.5 Q320 593 255 567 Q207 547 161.5 528 Q116 509 68 489 Q60 486 47 480 Q34 474 21 468 Q57 479 102 490.5 Q147 502 186 513 Q232 525 279 537 Q314 545 345.5 550.5 Q377 556 402 557 Q427 558 442.5 554 Q458 550 462 539 Q465 531 463 518 Q461 505 455 492 Q448 477 441 462.5 Q434 448 426 434 Q408 402 389.5 369.5 Q371 337 353 305 Q344 288 332 265 Q320 242 309 220.5 Q298 199 290 183.5 Q282 168 281 167 Q327 171 372.5 174 Q418 177 458.5 179.5 Q499 182 531.5 183.5 Q564 185 584 185 Q615 185 646 184.5 Q677 184 689 179 Q691 178 694.5 177 Q698 176 696 174 Q695 173 691 174 Q681 177 670.5 178 Q660 179 648 179 Q638 179 614.5 178.5 Q591 178 559.5 176.5 Q528 175 492 173.5 Q456 172 421.5 170 Q387 168 357.5 166 Q328 164 310 163 Q303 162 294 161.5 Q285 161 278 160 Q262 130 248 101 Q236 76 222.5 49 Q209 22 200 3 Q186 -26 173 -55.5 Q160 -85 148 -115 Q143 -128 138 -141 Q133 -154 130 -168 Q129 -172 128.5 -175.5 Q128 -179 124 -177 Q122 -176 121.5 -171.5 Q121 -167 122 -161 Q123 -155 125 -149 Q127 -143 129 -139 Q137 -116 146 -92.5 Q155 -69 166 -46 Q177 -21 193.5 13.5 Q210 48 225.5 80 Q241 112 252 135 Q263 158 264 159 Q173 153 82.5 138.5 Q-8 124 -102 108 Q-116 105 -116 108 Q-114 110 -110 110 Q-65 118 -28.5 125 Q8 132 48.5 138.5 Q89 145 140.5 152 Q192 159 267 166 Q283 198 299 229 Q313 255 327 283 Q341 311 352 331 Q370 365 389 398.5 Q408 432 426 465 Q430 473 436 483.5 Q442 494 446.5 504 Q451 514 453.5 522.5 Q456 531 455 535 Q452 544 437 546.5 Q422 549 399.5 547.5 Q377 546 349 540.5 Q321 535 291 529 Q231 514 173 496.5 Q115 479 56 461 Q25 451 -5 441.5 Q-35 432 -66 422 Q-69 421 -76 419.5 Q-83 418 -85 423 Q-88 428 -79 432 Q-38 450 2.5 467.5 Q43 485 84 503 Q187 548 289.5 588.5 Q392 629 498 666 Q570 691 641.5 713 Q713 735 786 755 Q913 788 1039 812 Q1074 818 1109.5 823.5 Q1145 829 1180 834 Q1196 836 1211 839 Q1226 842 1242 844 Z " />
<glyph glyph-name="G" unicode="G" horiz-adv-x="932" d="M55 269 Q86 332 124.5 388 Q163 444 210 497 Q237 527 265.5 555 Q294 583 325 609 Q425 696 538 752 Q585 775 632 791 Q679 807 727 816 Q768 824 807 822 Q830 821 851.5 817 Q873 813 892 802 Q916 789 931 768 Q946 747 950 717 Q956 683 943 644 Q927 591 893 541 Q889 534 887 536 Q886 537 889 542 Q899 562 911 583 Q919 599 925.5 615 Q932 631 936 648 Q941 670 940.5 693.5 Q940 717 932 738 Q924 759 908.5 775.5 Q893 792 868 802 Q848 810 826 813 Q804 816 781 815 Q737 813 694 801 Q651 789 607 771 Q553 749 502.5 719.5 Q452 690 404 655 Q267 556 163 424 Q138 392 116 358 Q94 324 74 289 Q59 260 46.5 230.5 Q34 201 25 171 Q7 111 8 56 Q9 39 12 22.5 Q15 6 22 -9 Q44 -60 103 -72 Q160 -82 215 -66.5 Q270 -51 318 -30 Q381 -2 440 33 Q483 59 524 87 Q565 115 607 145 L703 214 Q711 219 720.5 225 Q730 231 740 234 Q753 238 755 224 Q756 220 754.5 214.5 Q753 209 751 204 Q745 187 738 171 Q731 155 724 138 Q711 110 699 82 Q687 54 675 25 Q661 -6 649 -36.5 Q637 -67 624 -98 Q620 -109 616.5 -119.5 Q613 -130 608 -141 Q608 -142 606.5 -144.5 Q605 -147 603 -146 Q601 -146 601 -139 Q602 -131 604.5 -122.5 Q607 -114 610 -106 Q627 -60 645 -14.5 Q663 31 683 76 Q700 115 715.5 150 Q731 185 742 217 Q745 227 735 223 Q718 214 700 201 Q682 188 665 176 Q618 141 570.5 108 Q523 75 473 45 Q433 21 393.5 -0.5 Q354 -22 312 -41 Q265 -61 218.5 -76.5 Q172 -92 127 -90 Q103 -89 82 -82.5 Q61 -76 44 -61 Q30 -50 21.5 -36 Q13 -22 7 -5 Q-5 34 -2 79 Q3 134 18.5 179 Q34 224 55 269 Z M900 305 Q900 301 897 304 Q895 307 888 307 Q881 307 874.5 307 Q868 307 861 306 Q825 302 789 296 Q753 290 717 283 Q696 279 675.5 275.5 Q655 272 634 267 Q589 258 545.5 247.5 Q502 237 457 224 Q431 217 405.5 209.5 Q380 202 354 194 Q340 190 326.5 186.5 Q313 183 299 180 Q294 177 295 181 Q295 182 299 184 Q313 188 326 191 Q339 194 353 199 Q398 212 441.5 225 Q485 238 530 249 Q555 255 579.5 261 Q604 267 629 272 Q663 279 696.5 285.5 Q730 292 763 298 Q786 302 808.5 305 Q831 308 854 311 Q862 312 873.5 313 Q885 314 892 312 Q900 309 900 305 Z " />
<glyph glyph-name="H" unicode="H" horiz-adv-x="717" d="M910 806 Q914 806 914 804 Q914 802 913 800 Q849 700 792.5 608 Q736 516 682 419 Q656 374 630.5 326.5 Q605 279 579 233 Q584 232 589 229.5 Q594 227 597 223 Q599 221 599.5 218.5 Q600 216 598 215 Q596 215 596 217 Q592 222 586.5 223.5 Q581 225 576 226 Q571 218 567 210 Q563 202 558 194 Q532 143 505.5 92.5 Q479 42 453 -10 Q441 -36 429 -61.5 Q417 -87 406 -114 Q403 -123 400 -131.5 Q397 -140 394 -149 Q392 -152 390.5 -153 Q389 -154 386 -149 Q381 -140 386 -124 Q391 -108 398 -91 Q407 -68 417.5 -45 Q428 -22 439 1 Q448 20 460 44 Q472 68 485 93.5 Q498 119 510.5 143 Q523 167 533 186 Q543 205 549.5 217 Q556 229 556 229 Q518 232 480 230.5 Q442 229 402 227 Q373 225 344.5 222.5 Q316 220 287 217 Q254 213 221.5 209 Q189 205 155 199 Q128 142 107 93 Q86 44 65 -4 Q46 -45 28 -85.5 Q10 -126 -9 -168 Q-17 -188 -25 -208 Q-33 -228 -43 -248 Q-45 -253 -50 -254 Q-55 -255 -53 -250 Q-51 -242 -47.5 -232.5 Q-44 -223 -42 -216 Q-30 -181 -14.5 -147.5 Q1 -114 16 -79 Q33 -38 51 2.5 Q69 43 87 84 Q93 97 101 116 Q109 135 116.5 152 Q124 169 130 182 Q136 195 136 196 Q72 184 21 174 Q-1 170 -22 166 Q-43 162 -60.5 158.5 Q-78 155 -89.5 152.5 Q-101 150 -103 150 Q-109 149 -114 148.5 Q-119 148 -122 148 L-123 148 Q-124 148 -124 149 Q-124 151 -122 151 Q-117 151 -113 151.5 Q-109 152 -104 153 L140 204 Q141 206 148 221.5 Q155 237 166.5 261 Q178 285 192 315.5 Q206 346 220.5 378 Q235 410 249 440.5 Q263 471 274 495 Q301 554 327.5 612.5 Q354 671 380 731 Q385 742 389 753 Q393 764 398 775 Q399 777 399 785 Q399 791 402 793 Q408 795 407 782 Q404 759 394 738 Q352 650 316 564 Q280 478 239 387 Q229 365 215.5 334 Q202 303 189.5 275 Q177 247 168 227 Q159 207 159 207 Q160 207 173 209 Q186 211 204.5 214 Q223 217 243 219.5 Q263 222 278 224 Q306 227 334 230 Q362 233 390 235 Q432 238 475 240 Q518 242 560 237 Q577 267 593 297 Q607 322 621.5 349.5 Q636 377 647 397 Q684 463 714 513.5 Q744 564 773 609.5 Q802 655 832.5 700 Q863 745 901 800 Q905 806 910 806 Z " />
<glyph glyph-name="I" unicode="I" horiz-adv-x="312" d="M-55 -225 Q-7 -218 49.5 -211 Q106 -204 154 -203 Q171 -203 183 -204 Q195 -205 205 -209 Q207 -210 206.5 -211 Q206 -212 204 -212 Q189 -208 174.5 -207.5 Q160 -207 145 -208 Q94 -210 45 -217 Q-4 -224 -55 -231 Q-79 -235 -103 -239 Q-127 -243 -150 -248 Q-179 -254 -207.5 -261 Q-236 -268 -261 -274 Q-267 -276 -267.5 -274.5 Q-268 -273 -268 -272 Q-268 -270 -265 -270 Q-244 -264 -224.5 -258.5 Q-205 -253 -182 -248 Q-159 -243 -130 -237 Q-101 -231 -59 -225 Q-60 -219 -59 -208.5 Q-58 -198 -54 -186 Q-11 -59 41 61.5 Q93 182 150 299.5 Q207 417 267.5 533 Q328 649 388 766 Q343 763 297 759.5 Q251 756 207 752 Q163 748 122.5 744.5 Q82 741 49 738 Q32 737 13.5 736.5 Q-5 736 -18 736 Q-20 736 -19.5 737 Q-19 738 -18 738 Q1 738 16 739 Q31 740 50 742 Q89 746 125 751 Q161 756 196.5 760 Q232 764 268.5 767.5 Q305 771 344 774 Q407 779 467 781.5 Q527 784 589 782 Q615 781 627.5 780 Q640 779 652 773 Q659 768 658 763 Q657 758 652 763 Q648 767 639 769 Q630 771 624 771 Q580 773 541.5 772.5 Q503 772 464 770 Q447 769 429 768.5 Q411 768 394 766 Q332 636 271 510 Q210 384 152 260.5 Q94 137 41.5 16 Q-11 -105 -55 -225 Z " />
<glyph glyph-name="J" unicode="J" horiz-adv-x="678" d="M767 753 Q727 749 687.5 743.5 Q648 738 608 732 Q595 730 562 723.5 Q529 717 486 707.5 Q443 698 393 687 Q343 676 296 665 Q249 654 208.5 643.5 Q168 633 143 625 L104 613 Q103 613 99 611 Q95 609 94 611 Q93 613 96.5 614 Q100 615 102 616 Q121 623 139 628.5 Q157 634 176 640 Q214 652 252.5 663 Q291 674 330 685 Q368 695 406 704.5 Q444 714 482 723 Q568 743 647 753.5 Q726 764 804 774 Q845 779 884.5 782 Q924 785 966 787 Q976 787 988 787 Q1000 787 1010.5 786.5 Q1021 786 1029 784 Q1037 782 1040 779 Q1046 772 1041 765 Q1040 764 1039 762.5 Q1038 761 1036 762 Q1034 763 1035.5 765.5 Q1037 768 1035 770 Q1033 772 1027.5 772.5 Q1022 773 1019 773 Q962 773 919.5 769.5 Q877 766 836 761 Q831 760 822 759 Q813 758 804 757 Q795 756 787.5 755 Q780 754 778 754 Q738 675 708 616 Q678 557 650.5 505 Q623 453 594.5 401 Q566 349 531 285 Q496 221 450 137.5 Q404 54 342 -62 Q361 -78 358 -100 Q355 -122 342 -142 Q325 -166 307 -185.5 Q289 -205 272 -225 Q270 -227 266.5 -230.5 Q263 -234 259 -233 Q255 -233 253.5 -229.5 Q252 -226 251 -222 Q251 -221 252.5 -216 Q254 -211 256 -205 Q258 -199 260 -193.5 Q262 -188 263 -186 Q274 -156 285.5 -129.5 Q297 -103 308 -76 Q290 -74 264.5 -78.5 Q239 -83 212 -90.5 Q185 -98 159.5 -107 Q134 -116 116 -122 Q92 -130 52.5 -142.5 Q13 -155 -28.5 -166 Q-70 -177 -108.5 -183 Q-147 -189 -169 -183 Q-197 -176 -203 -157.5 Q-209 -139 -206 -119 Q-202 -95 -190.5 -73 Q-179 -51 -164.5 -31 Q-150 -11 -133 7 Q-116 25 -101 42 Q-35 115 42.5 174 Q120 233 200 289 Q233 313 273 340.5 Q313 368 353 393 Q393 418 429.5 438 Q466 458 493 467 Q501 470 514 470 Q527 470 531 461 Q532 459 532.5 453 Q533 447 529 450 Q527 452 526 453.5 Q525 455 523 456 Q520 457 515 457 Q504 455 493 450.5 Q482 446 471 441 Q403 408 343 367 Q283 326 224 285 Q185 258 146.5 230 Q108 202 70 173 Q31 144 -7.5 113.5 Q-46 83 -81 49 Q-99 32 -116.5 13.5 Q-134 -5 -149.5 -25 Q-165 -45 -177 -66.5 Q-189 -88 -196 -110 Q-204 -135 -195.5 -153.5 Q-187 -172 -158 -172 Q-124 -171 -86.5 -162 Q-49 -153 -11.5 -141 Q26 -129 62.5 -116 Q99 -103 130 -92 Q166 -79 201.5 -69 Q237 -59 273 -53 Q285 -51 294 -51 Q303 -51 309 -51 Q316 -51 321 -52 Q398 86 462 202.5 Q526 319 580 418 Q634 517 680 600 Q726 683 767 753 Z M272 -205 Q277 -199 283.5 -191 Q290 -183 295.5 -175 Q301 -167 305 -161 Q309 -155 310 -153 Q314 -147 319 -137.5 Q324 -128 328 -118.5 Q332 -109 333.5 -100 Q335 -91 331 -85 Q325 -95 320 -105 Q315 -113 311.5 -121.5 Q308 -130 306 -134 Q298 -150 288.5 -169.5 Q279 -189 272 -205 Z " />
<glyph glyph-name="K" unicode="K" horiz-adv-x="919" d="M923 -166 Q907 -164 888 -157.5 Q869 -151 854 -146 Q802 -127 752 -106.5 Q702 -86 652 -64 Q612 -47 562.5 -26 Q513 -5 464.5 19.5 Q416 44 374 73.5 Q332 103 307 138 Q305 133 291 101 Q277 69 259 25.5 Q241 -18 221.5 -65 Q202 -112 189 -148 Q183 -165 178 -180.5 Q173 -196 168 -213 Q166 -219 165 -225.5 Q164 -232 164 -238 Q164 -241 162 -241 Q157 -241 155.5 -236.5 Q154 -232 154 -229 Q152 -209 162 -179.5 Q172 -150 180 -128 Q198 -79 217 -31.5 Q236 16 256 64 Q266 87 275 109 Q284 131 295 154 Q291 158 285.5 167 Q280 176 279 178 Q254 165 223.5 152 Q193 139 162 130 Q131 121 101.5 118 Q72 115 50 122 Q16 134 5 160.5 Q-6 187 -3 218.5 Q0 250 11.5 281.5 Q23 313 34 335 Q58 383 88 425.5 Q118 468 156 505 Q172 519 188.5 533.5 Q205 548 225 550 Q237 551 243.5 544 Q250 537 252.5 527 Q255 517 255.5 505.5 Q256 494 256 486 Q253 441 251 402 Q249 363 251 325 Q253 291 259 257 Q265 223 282 197 Q288 200 301 206.5 Q314 213 321 217 Q376 338 431.5 459 Q487 580 553 695 Q575 733 598.5 770.5 Q622 808 645 846 Q647 850 648.5 852 Q650 854 652 858 Q653 860 654.5 857.5 Q656 855 654 852 L642 828 Q619 784 596 741.5 Q573 699 550 655 Q525 610 498 555 Q471 500 445 443.5 Q419 387 394.5 332.5 Q370 278 350 234 Q414 271 475 312 Q536 353 596 395 Q656 438 715.5 481 Q775 524 835 567 Q896 612 957 655.5 Q1018 699 1081 742 Q1093 752 1105 760.5 Q1117 769 1126 776 Q1127 777 1128 776.5 Q1129 776 1128 774 Q1123 769 1118.5 765 Q1114 761 1108 756 Q1088 739 1071.5 726.5 Q1055 714 1036 700 L802 529 Q736 481 671.5 434 Q607 387 541 341 Q489 306 441.5 273.5 Q394 241 339 211 Q334 197 326 180 Q318 163 312 150 Q349 104 403 67.5 Q457 31 516.5 2 Q576 -27 636 -51.5 Q696 -76 747 -98 Q806 -122 846.5 -139 Q887 -156 923 -164 Q924 -164 924 -165 Q924 -166 923 -166 Z M272 192 Q260 215 252.5 248 Q245 281 243 311 Q241 360 245.5 405 Q250 450 252 495 Q252 503 251 513 Q250 523 246.5 531.5 Q243 540 236.5 544.5 Q230 549 220 546 Q199 537 181.5 522 Q164 507 150 490 Q116 452 87.5 411 Q59 370 36 323 Q25 297 15 264.5 Q5 232 5.5 203.5 Q6 175 21.5 155 Q37 135 78 135 Q131 137 179 154.5 Q227 172 272 192 Z M289 183 Q295 174 301 166 Q304 174 307.5 181.5 Q311 189 313 196 Q307 193 301 189.5 Q295 186 289 183 Z " />
<glyph glyph-name="L" unicode="L" horiz-adv-x="329" d="M810 86 Q821 85 835 84.5 Q849 84 863 82.5 Q877 81 889.5 78.5 Q902 76 909 73 Q912 71 910 71 Q908 71 906 71 Q898 72 888 73 Q878 74 869 75 Q778 83 685.5 82 Q593 81 496 80 Q344 78 193 74 Q150 72 108 70 Q66 68 22 66 Q2 31 -16.5 -4.5 Q-35 -40 -52 -73 Q-48 -80 -48 -91 Q-48 -106 -56 -117 Q-59 -122 -65 -126 Q-71 -130 -73 -121 Q-74 -113 -69 -97 Q-67 -90 -64 -84.5 Q-61 -79 -59 -75 Q-63 -64 -74 -57 Q-85 -50 -96 -45 Q-120 -35 -145.5 -29.5 Q-171 -24 -196.5 -20 Q-222 -16 -248 -11 Q-274 -6 -298 2 Q-307 5 -309.5 11 Q-312 17 -304 22 Q-289 31 -257.5 37.5 Q-226 44 -197 49 Q-144 57 -95.5 62.5 Q-47 68 10 71 Q89 228 167 383 Q245 538 329 696 Q336 709 341 718.5 Q346 728 350 736.5 Q354 745 358 753.5 Q362 762 367 771 Q373 782 375.5 787 Q378 792 383 800 Q385 802 387 801 Q389 800 387 797 L344 711 Q272 571 202.5 430.5 Q133 290 59 140 L25 72 Q143 81 269 85 Q395 89 537 91 Q604 91 671.5 91 Q739 91 810 86 Z M-65 -118 Q-60 -111 -56.5 -101 Q-53 -91 -57 -82 Q-62 -91 -66 -101.5 Q-70 -112 -70 -122 Q-68 -121 -65 -118 Z M-57 -69 Q-28 -1 7 65 Q-35 63 -76.5 59 Q-118 55 -160 49 Q-180 46 -199.5 43 Q-219 40 -239 36 Q-242 36 -252 34 Q-262 32 -273.5 29 Q-285 26 -294.5 22.5 Q-304 19 -306 15 Q-308 10 -299.5 7.5 Q-291 5 -287 4 Q-255 -3 -219.5 -7.5 Q-184 -12 -133 -25 Q-112 -30 -90 -41 Q-68 -52 -57 -69 Z " />
<glyph glyph-name="M" unicode="M" horiz-adv-x="985" d="M297 725 Q235 631 183 542.5 Q131 454 84 361 Q48 288 16.5 217 Q-15 146 -42 71 Q-43 68 -47.5 53.5 Q-52 39 -56 22.5 Q-60 6 -61 -7 Q-62 -20 -56 -20 Q-48 -20 -29 0.5 Q-10 21 11 47.5 Q32 74 50 99 Q68 124 75 133 Q107 176 140 217.5 Q173 259 206 301 Q273 383 341 463 Q409 543 484 618 Q502 636 520.5 654 Q539 672 559 688 Q562 690 571 697 Q580 704 590 709.5 Q600 715 608 715.5 Q616 716 616 706 Q616 698 612.5 686 Q609 674 603.5 660.5 Q598 647 591.5 634 Q585 621 581 612 Q547 540 512.5 470 Q478 400 459 325 Q457 317 455 305.5 Q453 294 453 282.5 Q453 271 457 261.5 Q461 252 472 248 Q483 244 502 252 Q521 260 544.5 275 Q568 290 594 309.5 Q620 329 643.5 349 Q667 369 687 386.5 Q707 404 719 415 Q759 450 798.5 486.5 Q838 523 878 559 Q933 608 980 651 Q1027 694 1078 730 Q1083 734 1093 740 Q1103 746 1108 743 Q1113 740 1109 730 Q1105 720 1100 708 Q1075 654 1050 607 Q1025 560 999 511.5 Q973 463 945.5 407.5 Q918 352 888 282 Q867 233 847 185.5 Q827 138 807 89 Q793 54 779 18.5 Q765 -17 753 -50 Q741 -83 732.5 -111.5 Q724 -140 723 -159 Q723 -161 723.5 -167.5 Q724 -174 722 -175 Q720 -176 718.5 -173.5 Q717 -171 716 -167.5 Q715 -164 715 -161 Q715 -158 715 -157 Q717 -131 725 -104.5 Q733 -78 741 -55 Q758 -4 777 43 Q796 90 816 141 Q870 273 927 388.5 Q984 504 1046 620 Q1059 643 1072 667 Q1085 691 1097 715 Q1102 725 1105 734 Q1107 743 1098 738 Q1090 733 1082 727.5 Q1074 722 1066 716 Q1046 700 1026.5 683 Q1007 666 987 649 Q908 579 831.5 509.5 Q755 440 672 369 Q630 334 591.5 302 Q553 270 510 250 Q500 245 487.5 243 Q475 241 465 246 Q454 251 451 260 Q448 269 446 280 Q443 304 454 342 Q465 380 482 421 Q499 462 518 502 Q537 542 551 569 Q570 607 584 636.5 Q598 666 608 694 Q609 696 610.5 702 Q612 708 610 710 Q608 714 599 709 Q586 703 567 687 Q548 671 527.5 651.5 Q507 632 487 611.5 Q467 591 452 574 Q416 535 381 496 Q346 457 311 416 Q242 335 178.5 252 Q115 169 50 84 Q42 74 28.5 56.5 Q15 39 0 21 Q-15 3 -29 -11 Q-43 -25 -52 -27 Q-64 -30 -66.5 -20 Q-69 -10 -68 -2 Q-64 31 -49.5 75 Q-35 119 -14.5 169 Q6 219 31.5 272.5 Q57 326 84 378 Q111 430 138 478.5 Q165 527 189 566 Q217 610 241.5 648.5 Q266 687 292 723 Q295 727 297 725 Z " />
<glyph glyph-name="N" unicode="N" horiz-adv-x="867" d="M24 443 Q22 444 25 448 Q28 452 32.5 457.5 Q37 463 42 468.5 Q47 474 51 478 Q72 501 98 525.5 Q124 550 150 572 Q186 602 228 634 Q270 666 310.5 694 Q351 722 387.5 743.5 Q424 765 451 774 Q460 777 470.5 778 Q481 779 485 772 Q490 764 486.5 754 Q483 744 480 736 Q470 716 458 697 Q446 678 433 658 Q380 577 328.5 497 Q277 417 230 332 Q184 248 142 162 Q122 120 103.5 76.5 Q85 33 73 -12 Q70 -21 67.5 -33.5 Q65 -46 64 -58.5 Q63 -71 63.5 -81.5 Q64 -92 69 -98 Q75 -105 84.5 -102 Q94 -99 104 -92.5 Q114 -86 122.5 -78 Q131 -70 134 -67 Q168 -34 198 3 Q228 40 257 78 Q318 153 378.5 228 Q439 303 503 375 Q566 447 633 516 Q700 585 772 648 Q789 663 815.5 685.5 Q842 708 869.5 728.5 Q897 749 921 764 Q945 779 959 779 Q967 779 972.5 774.5 Q978 770 978 758 Q978 736 963.5 699.5 Q949 663 930 625 Q911 587 892 552.5 Q873 518 864 499 Q795 365 731.5 237.5 Q668 110 617 -24 Q611 -40 604.5 -57 Q598 -74 596 -86 Q595 -90 595.5 -96.5 Q596 -103 594 -104 Q590 -106 588 -101 Q586 -96 586 -94 Q585 -83 592 -62 Q599 -41 604 -26 Q654 117 716 245 Q778 373 846 495 Q869 537 892 579 Q915 621 936 664 Q946 684 955.5 705.5 Q965 727 969 750 Q970 754 970 760.5 Q970 767 968 769 Q965 773 958 772 Q951 771 943 767.5 Q935 764 928 759.5 Q921 755 918 753 Q876 725 841.5 696.5 Q807 668 772 637 Q737 605 703.5 572 Q670 539 637 505 Q570 435 507 363.5 Q444 292 383 217 Q352 179 322 141.5 Q292 104 261 66 Q231 30 201 -7 Q171 -44 136 -76 Q130 -81 121.5 -88.5 Q113 -96 103 -102 Q93 -108 83.5 -110 Q74 -112 67 -106 Q60 -100 58 -89 Q56 -78 57 -65.5 Q58 -53 60 -40.5 Q62 -28 64 -19 Q74 27 91 70.5 Q108 114 128 156 Q168 243 215 324.5 Q262 406 313 486 Q339 526 365.5 565 Q392 604 418 643 Q432 663 445 683 Q458 703 469 723 Q474 732 479 742.5 Q484 753 484 764 Q484 775 474 774 Q464 773 458 771 Q422 758 379.5 733 Q337 708 295 678.5 Q253 649 215.5 619 Q178 589 152 566 Q122 540 98.5 519 Q75 498 52 472 Q45 465 40.5 459.5 Q36 454 30 448 Q29 446 28 445 Q25 442 24 443 Z " />
<glyph glyph-name="O" unicode="O" horiz-adv-x="989" d="M19 53 Q13 52 9.5 57 Q6 62 4.5 69.5 Q3 77 2.5 84.5 Q2 92 2 96 Q2 199 34 300.5 Q66 402 124 487 Q190 584 281 658.5 Q372 733 485 771 Q537 789 595.5 795.5 Q654 802 710.5 792 Q767 782 815.5 754.5 Q864 727 897 676 Q929 626 938.5 568 Q948 510 942 452 Q936 393 918.5 337 Q901 281 875 228 Q822 122 744 30 Q666 -62 567 -128 Q519 -160 467.5 -184 Q416 -208 359 -217 Q305 -227 248 -217 Q191 -207 147 -171 Q125 -153 111 -129.5 Q97 -106 89 -80 Q81 -54 79 -26 Q77 2 79 29 Q84 88 103 145 Q122 202 147 255 Q199 361 275 455 Q311 500 353 540.5 Q395 581 443 614 Q466 631 491.5 644.5 Q517 658 544 666 Q570 674 598 676 Q626 678 651 664 Q677 650 687.5 625.5 Q698 601 699.5 572.5 Q701 544 695.5 515 Q690 486 683 464 Q666 407 641 353 Q616 299 588 246 Q560 192 529 140.5 Q498 89 469 35 Q461 20 452.5 3.5 Q444 -13 437 -27 Q430 -41 424.5 -49.5 Q419 -58 418 -57 Q417 -56 419.5 -49 Q422 -42 426 -33.5 Q430 -25 434 -17.5 Q438 -10 439 -8 Q459 32 480.5 70.5 Q502 109 525 147 Q554 198 582.5 248.5 Q611 299 635 353 Q660 409 676 463 Q684 491 688 519.5 Q692 548 689 577 Q687 601 676.5 623 Q666 645 644 657 Q620 670 591.5 667.5 Q563 665 538 656 Q484 636 438 601.5 Q392 567 351 527 Q310 486 275 441.5 Q240 397 209 348 Q177 298 152.5 245 Q128 192 109 136 Q92 82 86.5 24 Q81 -34 101 -88 Q118 -136 158 -167.5 Q198 -199 249 -208 Q306 -219 362.5 -206.5 Q419 -194 471 -171 Q575 -123 660 -42.5 Q745 38 808 133 Q840 181 865 233 Q890 285 907 340 Q924 396 930.5 455 Q937 514 926 572 Q915 625 887.5 669 Q860 713 814 742 Q766 772 710 781 Q654 790 598 784 Q541 778 487 759.5 Q433 741 382 713 Q280 657 202 571 Q163 527 130 479.5 Q97 432 72 379 Q42 316 24 242.5 Q6 169 6 99 Q6 88 7 74 Q8 60 19 53 Z " />
<glyph glyph-name="P" unicode="P" horiz-adv-x="987" d="M348 309 Q290 194 231.5 69.5 Q173 -55 121 -174 Q118 -182 114 -191.5 Q110 -201 107 -201 Q102 -201 104 -192 Q106 -184 110 -174 Q114 -164 117 -156 Q168 -34 226 87.5 Q284 209 341 328 Q332 359 332 397.5 Q332 436 339.5 474 Q347 512 362 546.5 Q377 581 399 604 Q402 607 403 604.5 Q404 602 402 600 Q385 577 371.5 544 Q358 511 350.5 476 Q343 441 342 406.5 Q341 372 350 346 Q353 352 359 363.5 Q365 375 372 388.5 Q379 402 386.5 416 Q394 430 400 441 Q430 496 460 549 Q490 602 522 656 Q526 664 532 673.5 Q538 683 543 692 Q548 701 552 707.5 Q556 714 557 715 Q559 718 561.5 716.5 Q564 715 562 713 Q528 651 493 589.5 Q458 528 426 464 Q417 447 408.5 431 Q400 415 392 399 Q375 364 366 346.5 Q357 329 355 324 Q364 298 384 276 Q411 253 445.5 245.5 Q480 238 518 241 Q556 244 595 255.5 Q634 267 671 282.5 Q708 298 740.5 315.5 Q773 333 797 348 Q837 375 883.5 410 Q930 445 970.5 486.5 Q1011 528 1038 575 Q1065 622 1066 672 Q1064 720 1037 752 Q1010 784 968 801 Q945 811 921 816.5 Q897 822 872 826 Q776 837 686.5 821.5 Q597 806 515 773 Q455 747 397.5 716.5 Q340 686 287 650 Q234 614 187.5 571.5 Q141 529 103 480 Q70 436 57 396 Q55 391 53 392.5 Q51 394 52 398 Q57 420 73.5 446.5 Q90 473 107 496 Q149 551 201 597.5 Q253 644 311.5 681.5 Q370 719 433 748 Q496 777 559 798 Q610 813 661.5 824 Q713 835 764 838.5 Q815 842 864.5 837.5 Q914 833 960 817 Q1006 798 1035.5 767.5 Q1065 737 1073 692 Q1079 655 1068 617 Q1057 579 1034 542.5 Q1011 506 979.5 472 Q948 438 913 408 Q878 378 842.5 353 Q807 328 777 310 Q716 275 659 253.5 Q602 232 538 222 Q509 219 479.5 221 Q450 223 424.5 232.5 Q399 242 378.5 260.5 Q358 279 348 309 Z " />
<glyph glyph-name="Q" unicode="Q" horiz-adv-x="919" d="M1034 -195 Q1036 -202 1026 -204.5 Q1016 -207 1003 -207.5 Q990 -208 978 -207.5 Q966 -207 964 -207 Q887 -202 830 -179 Q773 -156 724 -113 Q698 -90 677 -64.5 Q656 -39 636 -11 Q582 -72 519.5 -124 Q457 -176 382 -208 Q341 -226 300.5 -233 Q260 -240 221 -235 Q182 -230 146.5 -213 Q111 -196 82 -166 Q27 -109 5 -33 Q-17 43 -18 120 Q-19 206 4 292 Q27 378 75 450 Q97 483 125.5 513.5 Q154 544 190 562 Q225 581 262 581 Q290 581 315.5 569.5 Q341 558 362 540 Q376 560 389.5 580 Q403 600 418 620 Q444 653 479 691 Q514 729 554.5 761 Q595 793 638 814 Q681 835 723 834 Q743 834 761.5 827.5 Q780 821 796 810 Q814 797 826.5 778.5 Q839 760 847.5 739.5 Q856 719 861 697 Q866 675 869 654 Q879 578 871 502.5 Q863 427 841 354.5 Q819 282 785.5 215 Q752 148 712 89 Q704 78 693.5 63 Q683 48 672 34 Q660 17 647 1 Q677 -46 721 -90 Q765 -134 829 -163 Q867 -180 915 -188.5 Q963 -197 1011 -197 Q1016 -197 1022.5 -195 Q1029 -193 1034 -195 Z M1 195 Q-2 156 -1 115.5 Q0 75 6 35 Q12 -5 25 -42.5 Q38 -80 61 -114 Q81 -143 108 -165 Q135 -187 168 -200 Q203 -213 240 -213.5 Q277 -214 313 -205 Q352 -196 389 -179 Q426 -162 459.5 -139.5 Q493 -117 524 -90.5 Q555 -64 583 -36 Q586 -33 591 -27.5 Q596 -22 602 -15.5 Q608 -9 613.5 -2.5 Q619 4 622 8 Q595 56 571.5 106 Q548 156 528 207 Q513 246 498 285.5 Q483 325 466 363 Q449 399 430.5 435 Q412 471 387 502 Q382 509 375.5 516 Q369 523 363 528 Q352 511 341.5 493.5 Q331 476 322 459 Q298 414 278 360 Q258 306 246 252 Q245 246 243 246 Q241 246 243 257 Q254 303 267 343 Q280 383 298 421 Q303 432 311 448 Q319 464 328 480.5 Q337 497 345 511 Q353 525 358 533 Q350 541 338 549.5 Q326 558 318 562 Q298 572 277.5 574 Q257 576 236.5 571.5 Q216 567 197 558 Q178 549 162 536 Q127 510 102 474 Q77 438 59 400 Q36 352 22 300.5 Q8 249 1 195 Z M860 517 Q862 555 862.5 593.5 Q863 632 857 670 Q851 703 839.5 736.5 Q828 770 803 795 Q776 822 743.5 826.5 Q711 831 678 822 Q645 813 614 794.5 Q583 776 559 757 Q505 714 455.5 656 Q406 598 367 536 Q419 483 450 422 Q481 361 506 299 Q535 227 563.5 155 Q592 83 634 20 Q648 37 662 54.5 Q676 72 689 91 Q758 189 802 296 Q846 403 860 517 Z " />
<glyph glyph-name="R" unicode="R" horiz-adv-x="992" d="M299 286 Q327 283 354 276 Q381 269 407 261 Q433 252 459 241.5 Q485 231 505 223 Q514 225 525.5 227.5 Q537 230 546 232 Q631 255 705 290 Q805 335 895 397 Q936 425 973 458 Q1010 491 1035 535 Q1048 557 1055 581 Q1062 605 1060 631 Q1054 681 1021 720 Q991 755 950 777 Q909 799 865 811 Q811 827 755.5 831.5 Q700 836 644.5 831.5 Q589 827 535 815 Q481 803 431 786 Q330 751 241 691 Q200 662 164.5 627.5 Q129 593 102 551 Q91 531 80.5 506 Q70 481 79 458 Q81 455 81 450.5 Q81 446 75 449 Q71 451 69 457 Q67 463 67 468 Q66 479 68.5 490 Q71 501 74 512 Q82 536 96.5 557.5 Q111 579 127 599 Q160 638 202 672 Q280 736 373 775 Q466 814 565 831 Q620 841 676 843 Q732 845 788 837 Q839 831 887.5 816 Q936 801 978 772 Q1014 747 1041 710.5 Q1068 674 1071 629 Q1075 581 1051 537 Q1027 493 989.5 455 Q952 417 909.5 386.5 Q867 356 833 336 Q759 292 683 263 Q607 234 528 214 Q678 146 823 70.5 Q968 -5 1110 -89 Q1123 -97 1135.5 -105 Q1148 -113 1153 -117 Q1155 -119 1154 -121.5 Q1153 -124 1150 -122 Q1129 -111 1109.5 -101 Q1090 -91 1071 -80 Q952 -13 831 50.5 Q710 114 586 173 Q565 183 544.5 191.5 Q524 200 504 210 Q498 209 489.5 207 Q481 205 473 204 Q448 199 421.5 197.5 Q395 196 368.5 198 Q342 200 317.5 207 Q293 214 272 228 Q227 133 185 40.5 Q143 -52 105 -150 Q104 -153 102 -159 Q100 -165 97.5 -170.5 Q95 -176 93 -180 Q91 -184 89 -184 Q85 -183 84.5 -179 Q84 -175 85 -169.5 Q86 -164 88 -159.5 Q90 -155 90 -153 Q127 -51 171.5 44.5 Q216 140 258 239 Q253 244 249.5 250 Q246 256 248 264 Q251 278 261 281 Q271 284 280 286 Q310 349 342 410 Q374 471 409 531 Q426 562 445.5 596 Q465 630 483 657 Q485 659 486.5 656.5 Q488 654 486 652 Q466 616 446.5 579 Q427 542 407 504 Q380 450 353 395.5 Q326 341 299 286 Z M484 219 Q476 224 466 228 Q456 232 447 236 Q434 241 421.5 246 Q409 251 395 256 Q369 265 344 271.5 Q319 278 296 280 Q292 273 285 257.5 Q278 242 275 235 Q295 224 316 219.5 Q337 215 359 213 Q391 211 422 213 Q453 215 484 219 Z M277 280 Q271 281 264 278 Q257 275 254 269 Q251 263 253 256 Q255 249 261 245 Q265 254 269 263 Q273 272 277 280 Z " />
<glyph glyph-name="S" unicode="S" horiz-adv-x="719" d="M659 793 Q681 793 707 791 Q733 789 757.5 781.5 Q782 774 801.5 760 Q821 746 832 723 Q844 697 840 670.5 Q836 644 823.5 618.5 Q811 593 794 570.5 Q777 548 762 531 Q737 502 713 476 Q689 450 665 426 Q663 424 658 419 Q653 414 651 416 Q649 418 655 423.5 Q661 429 663 431 Q687 458 712 483 Q737 508 760 535 Q776 555 792.5 578.5 Q809 602 820 627 Q831 652 833.5 677.5 Q836 703 823 726 Q810 749 787.5 762 Q765 775 740 781 Q683 794 625.5 786 Q568 778 515 762 Q461 745 410 721 Q359 697 311 666 Q264 636 222 600 Q180 564 145 520 Q129 500 114.5 476.5 Q100 453 92 427.5 Q84 402 84 376 Q84 350 97 325 Q109 301 129.5 283.5 Q150 266 172 252 Q197 237 222 224 Q247 211 273 198 Q299 185 323.5 171.5 Q348 158 371 141 Q392 126 407.5 106 Q423 86 424 59 Q425 32 413 8 Q401 -16 385 -37 Q355 -77 314 -123.5 Q273 -170 229 -206 Q219 -214 207 -222 Q195 -230 187 -233 Q178 -237 175 -233 Q173 -231 174.5 -229.5 Q176 -228 178 -227 Q189 -219 199.5 -211.5 Q210 -204 221 -195 Q256 -166 284.5 -134.5 Q313 -103 339 -71 Q354 -52 370.5 -30 Q387 -8 396.5 15.5 Q406 39 405 63 Q404 87 385 111 Q368 131 345.5 145.5 Q323 160 300 172 Q275 186 249 198 Q223 210 198 224 Q176 236 154 251.5 Q132 267 114.5 285.5 Q97 304 86 327 Q75 350 75 378 Q75 405 83 431.5 Q91 458 105 482.5 Q119 507 136.5 529 Q154 551 172 570 Q210 610 254.5 643 Q299 676 347 702 Q423 744 498 766.5 Q573 789 659 793 Z " />
<glyph glyph-name="T" unicode="T" horiz-adv-x="264" d="M363 760 Q279 737 186.5 712.5 Q94 688 7 666 Q-80 644 -156 628.5 Q-232 613 -284 610 Q-288 610 -296 609 Q-304 608 -311.5 608.5 Q-319 609 -325 610.5 Q-331 612 -331 616 Q-332 622 -320.5 628 Q-309 634 -292 640 Q-158 688 -14 717 Q130 746 270 766 Q328 774 385.5 780.5 Q443 787 501 792 Q543 795 576.5 796.5 Q610 798 644.5 799.5 Q679 801 719.5 801.5 Q760 802 816 803 Q824 803 833 803 Q842 803 849 801 Q851 800 852.5 798 Q854 796 849 795 Q843 794 838.5 794.5 Q834 795 826 795 Q734 795 650 788.5 Q566 782 483 775 Q475 774 459.5 772.5 Q444 771 427 769 Q410 767 395.5 765 Q381 763 376 762 Q372 749 366.5 739 Q361 729 355 719 Q303 631 254.5 545 Q206 459 160 368 Q106 256 59.5 154 Q13 52 -22 -39 Q-33 -66 -42.5 -98 Q-52 -130 -60 -158 Q-61 -163 -62 -170.5 Q-63 -178 -64 -184.5 Q-65 -191 -66.5 -195.5 Q-68 -200 -71 -200 Q-76 -200 -78 -194 Q-80 -188 -80 -180.5 Q-80 -173 -79 -165.5 Q-78 -158 -77 -153 Q-73 -132 -65 -104.5 Q-57 -77 -47 -47.5 Q-37 -18 -26 10 Q-15 38 -6 60 Q64 223 137.5 376 Q211 529 303 672 Q320 698 334 716.5 Q348 735 363 760 Z M303 753 Q179 736 65 712 Q-49 688 -163 661 Q-198 653 -232 643.5 Q-266 634 -300 622 Q-276 623 -245 628 Q-214 633 -182 639 Q-49 663 69 691.5 Q187 720 303 753 Z " />
<glyph glyph-name="U" unicode="U" horiz-adv-x="960" d="M1067 662 Q1010 601 952.5 541.5 Q895 482 835 422 Q776 363 716 306.5 Q656 250 593 196 Q532 143 468.5 93 Q405 43 333 5 Q305 -10 270.5 -24 Q236 -38 200 -43.5 Q164 -49 130.5 -43 Q97 -37 70 -11 Q44 14 33.5 48 Q23 82 21 116 Q19 158 24.5 198.5 Q30 239 41 278 Q72 399 134 520.5 Q196 642 298 772 Q303 778 310 784.5 Q317 791 322 794 Q324 796 326.5 794.5 Q329 793 326 791 Q322 788 319 784.5 Q316 781 312 777 Q261 717 220.5 649 Q180 581 148 517 Q124 467 99 407 Q74 347 56 285 Q38 223 32.5 162.5 Q27 102 43 53 Q54 18 79 -5.5 Q104 -29 139 -34 Q176 -40 216 -31 Q256 -22 294 -4.5 Q332 13 366 35 Q400 57 427 76 Q495 123 558 175.5 Q621 228 681 285 Q742 342 800.5 400.5 Q859 459 918 519 Q966 566 1005.5 611.5 Q1045 657 1086 702 Q1094 710 1100.5 718 Q1107 726 1115 734 Q1121 740 1125 736 Q1127 734 1125.5 729.5 Q1124 725 1122 722 Q1075 653 1031.5 582.5 Q988 512 946 440 Q863 297 786 148.5 Q709 0 652 -155 Q646 -172 643 -187 Q640 -202 638 -216 Q636 -222 631.5 -222.5 Q627 -223 626 -218 Q624 -210 627.5 -189.5 Q631 -169 638 -149 Q714 71 825.5 273.5 Q937 476 1067 662 Z " />
<glyph glyph-name="V" unicode="V" horiz-adv-x="818" d="M115 -137 Q117 -71 136.5 -8.5 Q156 54 177 114 Q220 224 258.5 314 Q297 404 332 490 Q339 507 349 532.5 Q359 558 366 584 Q373 610 374 634 Q375 658 364 673 Q356 684 343 685 Q330 686 317 684 Q288 679 261.5 663.5 Q235 648 211 631 Q179 607 151.5 579.5 Q124 552 108 520 Q107 518 106.5 515 Q106 512 105 512 Q103 512 103.5 514.5 Q104 517 105 519 Q122 558 156 589.5 Q190 621 223 644 Q246 661 275 675.5 Q304 690 334 690 Q346 690 357 685 Q368 680 374 668 Q383 650 381 624 Q379 598 372 571.5 Q365 545 356.5 521 Q348 497 342 481 Q319 417 293 354.5 Q267 292 241 229 Q225 189 206 140 Q187 91 169.5 40 Q152 -11 140.5 -59.5 Q129 -108 128 -146 Q128 -158 131 -173.5 Q134 -189 148 -194 Q164 -199 185 -189 Q206 -179 228.5 -160 Q251 -141 274 -116.5 Q297 -92 317 -68 Q337 -44 352.5 -24 Q368 -4 376 5 Q419 57 460 109.5 Q501 162 543 216 Q626 323 708 429.5 Q790 536 873 644 Q902 683 931.5 720.5 Q961 758 993 798 Q995 800 999 805 Q1003 810 1006 808 Q1010 806 1007.5 801.5 Q1005 797 1003 795 Q985 767 965.5 740.5 Q946 714 926 688 Q906 661 885.5 634 Q865 607 844 580 Q762 471 681 364 Q600 257 515 151 Q473 98 432 46 Q391 -6 348 -57 Q334 -74 310 -101 Q286 -128 258 -153 Q230 -178 202 -194.5 Q174 -211 152 -208 Q140 -206 132.5 -198.5 Q125 -191 121.5 -180.5 Q118 -170 116.5 -158.5 Q115 -147 115 -137 Z " />
<glyph glyph-name="W" unicode="W" horiz-adv-x="1135" d="M897 780 Q903 788 913 783.5 Q923 779 934.5 766.5 Q946 754 958.5 737 Q971 720 982 703.5 Q993 687 1000.5 674 Q1008 661 1011 657 Q1023 637 1032.5 616.5 Q1042 596 1049 573 Q1056 550 1059.5 526 Q1063 502 1065 479 Q1069 431 1063 383 Q1057 335 1043 289 Q1029 243 1008.5 199.5 Q988 156 963 116 Q914 38 847.5 -29 Q781 -96 698 -138 Q656 -159 610 -170.5 Q564 -182 517 -177 Q472 -171 437 -145.5 Q402 -120 381 -81 Q370 -61 363.5 -40 Q357 -19 353 2 Q348 26 345.5 51 Q343 76 335 99 Q332 108 326 116 Q320 124 310 126 Q299 129 288 126.5 Q277 124 267 120 Q245 111 225.5 99 Q206 87 186 74 Q144 47 104.5 17.5 Q65 -12 24 -41 Q4 -56 -15 -70.5 Q-34 -85 -55 -99 Q-63 -104 -72.5 -109.5 Q-82 -115 -92 -120 Q-99 -122 -108 -124 Q-117 -126 -122 -118 Q-129 -110 -126.5 -97 Q-124 -84 -121 -75 Q-117 -63 -113 -52 Q-109 -41 -104 -30 Q-94 -8 -83.5 13.5 Q-73 35 -61 55 Q-13 142 41 226 Q95 310 151 391 Q207 472 260 557 Q273 577 285.5 597.5 Q298 618 309 640 Q320 660 330 682 Q340 704 344 727 Q346 737 345 746.5 Q344 756 338 764 Q331 772 321 775.5 Q311 779 301 780 Q277 782 253 777.5 Q229 773 206 767 Q160 753 116.5 733.5 Q73 714 31 691 Q-11 668 -50.5 642 Q-90 616 -128 587 Q-146 573 -164 557 Q-171 551 -180 543.5 Q-189 536 -191 526 Q-192 525 -192 522 Q-192 519 -194 521 Q-196 521 -196 523 Q-196 525 -196 527 Q-195 532 -191.5 536 Q-188 540 -185 544 Q-177 553 -168 560.5 Q-159 568 -150 576 Q-78 636 6 685 Q88 734 179 764 Q202 772 225.5 777.5 Q249 783 273 786 Q292 788 313.5 786.5 Q335 785 348 768 Q354 759 355.5 748.5 Q357 738 355.5 726.5 Q354 715 350.5 704 Q347 693 344 684 Q335 662 324 641 Q313 620 301 599 Q276 556 249 514.5 Q222 473 195 431 Q141 346 87 262 Q33 178 -19 91 Q-32 70 -45 49 Q-58 28 -69 7 Q-81 -13 -91.5 -34.5 Q-102 -56 -109 -79 Q-110 -82 -112 -87 Q-114 -92 -115 -98 Q-116 -104 -115.5 -108.5 Q-115 -113 -110 -114 Q-105 -116 -100.5 -113.5 Q-96 -111 -91 -109 Q-86 -106 -80 -103.5 Q-74 -101 -69 -97 Q-49 -85 -29.5 -70 Q-10 -55 9 -41 Q50 -12 90 18 Q130 48 173 75 Q213 103 256 122 Q265 126 276 129.5 Q287 133 298 133.5 Q309 134 318.5 130.5 Q328 127 336 117 Q342 109 345.5 98.5 Q349 88 351 77 Q353 65 355 53.5 Q357 42 359 30 Q363 6 368.5 -17 Q374 -40 383 -62 Q400 -99 428.5 -125.5 Q457 -152 497 -161 Q544 -172 591 -162.5 Q638 -153 680 -133 Q721 -114 757.5 -87.5 Q794 -61 826 -31 Q894 36 944 114 Q970 155 990.5 197.5 Q1011 240 1025 285 Q1038 329 1045 376 Q1052 423 1050 470.5 Q1048 518 1037 564 Q1026 610 1004 651 Q993 671 981 691 Q969 711 956 729 Q949 739 942.5 747.5 Q936 756 928 764 Q919 775 910 779 Q908 780 902 780 Q901 780 898 779 Q895 778 897 780 Z " />
<glyph glyph-name="X" unicode="X" horiz-adv-x="1040" d="M947 229 Q949 227 946 223.5 Q943 220 941 218 Q923 200 909 186 Q895 172 881 159 Q861 139 839.5 119.5 Q818 100 797 81 Q766 52 733 21.5 Q700 -9 666.5 -37.5 Q633 -66 600 -89.5 Q567 -113 537 -127 Q514 -138 488 -143 Q462 -148 439 -137 Q415 -126 403 -103.5 Q391 -81 385 -57 Q379 -29 377.5 -0.5 Q376 28 378 57 Q383 124 397.5 186 Q412 248 426 311 Q375 264 326 217.5 Q277 171 227 124 Q197 96 167.5 67.5 Q138 39 108 10 Q79 -19 50.5 -47 Q22 -75 -5 -106 Q-11 -114 -17.5 -121 Q-24 -128 -29 -136 Q-31 -139 -34.5 -144.5 Q-38 -150 -40 -149 Q-42 -148 -43 -147 Q-44 -146 -42 -141 Q-34 -127 -21 -110.5 Q-8 -94 5 -80 Q32 -50 60.5 -22 Q89 6 118 35 Q196 113 274.5 186 Q353 259 433 333 Q446 385 460.5 441 Q475 497 485 545 Q494 584 500.5 624.5 Q507 665 503 705 Q501 722 496 739.5 Q491 757 477 769 Q464 781 447.5 784.5 Q431 788 414 786 Q376 783 340.5 765.5 Q305 748 274 727 Q254 714 233.5 697 Q213 680 195.5 662.5 Q178 645 164.5 628.5 Q151 612 147 600 Q146 598 144.5 598 Q143 598 143 600 Q144 608 159 628 Q174 648 200 673 Q256 726 321 760 Q336 768 353.5 775.5 Q371 783 389.5 787 Q408 791 426.5 791 Q445 791 462 785 Q483 777 494.5 756.5 Q506 736 509.5 709 Q513 682 511.5 650.5 Q510 619 505.5 589.5 Q501 560 495 534.5 Q489 509 486 494 Q478 459 469 423 Q460 387 452 351 Q475 371 497 390 Q519 409 541 429 Q640 516 737.5 599 Q835 682 941 756 Q951 763 960 770.5 Q969 778 980 784 Q982 785 985 786.5 Q988 788 989 785 Q990 783 987.5 781.5 Q985 780 983 779 Q977 774 970.5 770 Q964 766 958 761 Q821 665 702.5 561 Q584 457 469 350 Q464 345 457.5 339 Q451 333 445 328 Q441 314 434 284.5 Q427 255 419.5 216 Q412 177 405.5 132.5 Q399 88 397.5 45.5 Q396 3 399.5 -34.5 Q403 -72 416.5 -96.5 Q430 -121 453.5 -130 Q477 -139 515 -124 Q540 -114 566 -98 Q592 -82 618 -62.5 Q644 -43 668.5 -22 Q693 -1 715 18 Q775 71 828.5 119.5 Q882 168 929 215 Q932 218 938.5 224.5 Q945 231 947 229 Z " />
<glyph glyph-name="Y" unicode="Y" horiz-adv-x="987" d="M727 -40 Q718 -34 711.5 -29.5 Q705 -25 694 -18 Q668 -47 646.5 -68.5 Q625 -90 596 -115 Q542 -163 473.5 -197.5 Q405 -232 331 -233 Q299 -234 266 -223.5 Q233 -213 216 -183 Q198 -153 205.5 -118.5 Q213 -84 233 -57 Q255 -28 284.5 -7.5 Q314 13 348 26 Q382 39 418 45 Q454 51 489 51 Q527 52 563.5 45 Q600 38 635 22 Q649 16 660.5 9.5 Q672 3 686 -6 Q700 11 714 28.5 Q728 46 742 65 Q839 197 907 338 Q975 479 1031 620 Q1033 624 1039 640 Q1045 656 1051 673.5 Q1057 691 1061 706 Q1065 721 1062 723 Q1059 726 1042.5 714 Q1026 702 1007 686 Q988 670 970.5 655 Q953 640 949 636 Q890 584 829 534.5 Q768 485 704 438 Q662 406 612 371.5 Q562 337 508.5 309 Q455 281 400 264.5 Q345 248 291 253 Q256 257 227 275 Q198 293 180 324 Q162 356 157 393 Q152 430 155 466 Q158 504 167 541 Q176 578 190 613 Q216 684 257 746 Q263 755 270 764 Q277 773 279 773 Q281 773 280 771 Q279 769 278 767 Q275 762 272 758.5 Q269 755 266 750 Q245 717 231 685 Q214 650 201 615 Q188 580 180 543 Q172 509 168 471.5 Q164 434 168.5 398.5 Q173 363 188.5 332 Q204 301 235 282 Q267 262 306 262 Q345 262 380 271 Q456 290 522 331.5 Q588 373 648 416 Q712 462 773 511 Q834 560 895 611 Q933 643 968.5 674 Q1004 705 1044 729 Q1050 732 1057.5 734 Q1065 736 1071 731 Q1076 726 1076 717 Q1076 708 1073.5 698 Q1071 688 1067.5 678.5 Q1064 669 1063 664 Q1012 509 943 367.5 Q874 226 787 101 Q766 71 743.5 43 Q721 15 698 -14 Q726 -32 748.5 -49 Q771 -66 791 -84 Q791 -84 795 -87.5 Q799 -91 802.5 -95.5 Q806 -100 808 -103.5 Q810 -107 807 -107 Q787 -87 765 -69 Q743 -51 727 -40 Z M324 -223 Q366 -223 407 -209.5 Q448 -196 485 -176 Q521 -156 554 -131.5 Q587 -107 617 -78 Q634 -61 650 -44 Q666 -27 683 -10 Q620 32 544 43 Q468 54 396 36 Q362 28 330 12.5 Q298 -3 271 -26 Q246 -48 227 -79.5 Q208 -111 212 -146 Q214 -167 225 -182 Q236 -197 251.5 -206 Q267 -215 286 -219 Q305 -223 324 -223 Z " />
<glyph glyph-name="Z" unicode="Z" horiz-adv-x="893" d="M469 214 Q411 205 358 192 Q305 179 252 165 Q240 162 227.5 158.5 Q215 155 203 153 Q198 153 198 155 Q198 157 200.5 157.5 Q203 158 204 159 Q210 160 215.5 161 Q221 162 227 164 Q294 183 353 197 Q412 211 473 219 Q484 227 498.5 238 Q513 249 524 258 Q569 293 611.5 327.5 Q654 362 698 397 Q740 432 781.5 467.5 Q823 503 863 541 Q880 556 899 575.5 Q918 595 935 616 Q952 637 964 658.5 Q976 680 979 699 Q982 720 968 735 Q954 750 937 758 Q908 771 867.5 776.5 Q827 782 783.5 782 Q740 782 697.5 778.5 Q655 775 621 770 Q515 755 412 726.5 Q309 698 209 656 Q160 636 113 612.5 Q66 589 21 561 Q-3 546 -24 531 Q-38 520 -47 513.5 Q-56 507 -61 501 Q-62 499 -65 496.5 Q-68 494 -70 496 Q-72 498 -67 503 Q-62 508 -60 510 Q-39 528 -20 540 Q24 570 70 594.5 Q116 619 164 640 Q214 663 264 682 Q314 701 366 717 Q418 734 470.5 747 Q523 760 577 769 Q601 773 635 778 Q669 783 707.5 786.5 Q746 790 786 790.5 Q826 791 862.5 787 Q899 783 928.5 772.5 Q958 762 976 743 Q993 724 990.5 701 Q988 678 976 655.5 Q964 633 947.5 613 Q931 593 919 580 Q882 540 842.5 503 Q803 466 761 431 Q719 395 677 359.5 Q635 324 592 289 Q572 272 551.5 256.5 Q531 241 512 224 Q544 229 582 232.5 Q620 236 656 238 Q672 239 687 239.5 Q702 240 718 238 Q728 237 739 234.5 Q750 232 755 221 Q754 219 752 222 Q750 225 749 226 Q744 231 734 233 Q725 235 715 235.5 Q705 236 695 236 Q675 236 655.5 235 Q636 234 616 232 Q606 231 590.5 229.5 Q575 228 559 225.5 Q543 223 528.5 221.5 Q514 220 506 219 Q501 215 493 209 Q485 203 479 198 Q417 147 355 98.5 Q293 50 228 2 Q193 -24 158 -49 Q123 -74 89 -102 Q119 -92 148 -83 Q177 -74 207 -66 Q236 -58 266 -51 Q296 -44 327 -38 Q445 -16 567 -17 Q603 -17 644.5 -20 Q686 -23 727.5 -28.5 Q769 -34 807 -42.5 Q845 -51 874 -63 Q882 -66 890.5 -73 Q899 -80 896 -90 Q896 -92 894.5 -95 Q893 -98 891 -97 Q888 -96 888.5 -91.5 Q889 -87 888 -85 Q884 -74 868.5 -69 Q853 -64 843 -61 Q757 -36 669 -31 Q581 -26 496 -29 Q408 -33 326 -49 Q244 -65 163 -88 Q148 -93 133.5 -97 Q119 -101 105 -106 Q100 -108 93.5 -110 Q87 -112 82 -113 Q75 -114 73.5 -109.5 Q72 -105 76 -100 Q84 -89 108 -68 Q132 -47 160.5 -24 Q189 -1 216.5 19.5 Q244 40 258 51 Q311 92 363.5 132 Q416 172 469 214 Z " />
<glyph glyph-name="exclam" unicode="&#x21;" horiz-adv-x="287" d="M300 593 Q301 594 305 600.5 Q309 607 311 606 Q313 605 311 601 Q309 597 308 595 Q304 589 301.5 584.5 Q299 580 295 574 Q263 519 234.5 472.5 Q206 426 178 375 Q147 318 116 263 Q85 208 56 151 Q51 142 46.5 132.5 Q42 123 37 113 Q35 108 32.5 105 Q30 102 28 104 Q26 105 30.5 115.5 Q35 126 40 135 Q69 197 102 256.5 Q135 316 169 375 Q201 432 232.5 485.5 Q264 539 300 593 Z M5 46 Q7 48 9 48 Q11 48 9 44 Q6 39 3 34 Q0 29 -4 24 Q-6 22 -7 23.5 Q-8 25 -6 27 Q-3 32 -0.5 36.5 Q2 41 5 46 Z " />
<glyph glyph-name="quotedbl" unicode="&#x22;" horiz-adv-x="342" d="M302 734 Q307 732 304 726 Q297 712 290 699.5 Q283 687 275 674 Q271 667 267 671 Q265 673 269 681.5 Q273 690 276 696 Q281 704 284.5 712 Q288 720 293 729 Q295 732 297 734 Q299 736 302 734 Z M332 729 Q334 728 332 723 Q324 708 315 693 Q314 691 311.5 687 Q309 683 307 685 Q305 686 307 691 Q315 708 326 725 Q327 726 328.5 728 Q330 730 332 729 Z " />
<glyph glyph-name="numbersign" unicode="&#x23;" horiz-adv-x="320" d="M300 351 Q299 347 295 347 Q291 347 286 347 Q278 347 270.5 347.5 Q263 348 256 348 Q252 348 242 348.5 Q232 349 221 349.5 Q210 350 200.5 350 Q191 350 187 350 Q176 333 164.5 315 Q153 297 142 279 Q156 278 167 278 Q178 278 193 277 Q198 277 205.5 276 Q213 275 213 270 Q213 266 205 266 Q197 266 194 266 Q185 266 167 266.5 Q149 267 136 268 Q116 238 97.5 209.5 Q79 181 59 152 Q54 144 51 148 Q48 152 50 155 Q61 173 70 188 Q79 203 87.5 216 Q96 229 104 241.5 Q112 254 120 269 Q113 269 98 269 Q83 269 73 268 Q59 248 47 228.5 Q35 209 23 189 Q18 180 11 169 Q4 158 -1 148 Q-2 146 -4.5 147 Q-7 148 -7 150 Q-7 154 -5.5 157.5 Q-4 161 -2 164 Q5 176 11 186.5 Q17 197 24 208 Q33 223 42 237.5 Q51 252 59 267 Q53 266 46.5 266 Q40 266 33 265 Q27 264 17.5 265 Q8 266 9 269 Q10 275 28 276.5 Q46 278 67 280 Q78 299 89.5 316 Q101 333 114 350 Q104 348 97 347.5 Q90 347 82 346 Q72 345 62.5 344 Q53 343 54 348 Q54 352 62.5 353 Q71 354 76 355 Q88 357 99.5 358 Q111 359 122 361 Q130 371 136 381 Q142 391 150 401 Q157 410 160 409 Q163 408 160 403 Q148 382 133 361 Q144 362 156 361.5 Q168 361 180 361 Q182 364 183.5 367 Q185 370 189 375 Q191 379 194 383.5 Q197 388 201 387 Q205 386 199 374 Q197 371 195.5 368 Q194 365 192 361 Q217 359 238.5 358.5 Q260 358 288 356 Q290 356 295.5 355 Q301 354 300 351 Z M173 350 Q160 351 148.5 350.5 Q137 350 126 350 Q113 333 102 315.5 Q91 298 80 280 Q82 280 88 280 Q94 280 101.5 280 Q109 280 116 280.5 Q123 281 128 281 L173 350 Z " />
<glyph glyph-name="dollar" unicode="&#x24;" horiz-adv-x="348" d="M346 491 Q348 488 337 484.5 Q326 481 309 476 Q291 471 284 468 Q265 433 247 400.5 Q229 368 221 350 Q232 344 241 337 Q250 330 255 318 Q262 301 255.5 283.5 Q249 266 235.5 250 Q222 234 206 220 Q190 206 179 196 Q168 187 153 177.5 Q138 168 126 160 Q105 125 88 89.5 Q71 54 53 18 Q51 15 49 10 Q47 5 43 4 Q38 3 39 9 Q40 15 41 17 Q55 49 70.5 80.5 Q86 112 102 145 Q79 134 54 125.5 Q29 117 3 115 Q-11 115 -25.5 120 Q-40 125 -44 140 Q-48 160 -30.5 182 Q-13 204 12.5 223.5 Q38 243 64 258.5 Q90 274 104 281 Q107 283 111 284 Q115 285 118 282 Q120 279 117.5 278 Q115 277 113 276 Q96 268 76 255.5 Q56 243 36.5 228 Q17 213 0 196.5 Q-17 180 -26 164 Q-29 159 -31.5 151.5 Q-34 144 -31 138 Q-27 129 -15 127.5 Q-3 126 11.5 127.5 Q26 129 39.5 132.5 Q53 136 59 139 Q75 145 87.5 152.5 Q100 160 115 169 Q138 212 159 257.5 Q180 303 203 346 Q195 351 182 356 Q169 361 157 367 Q145 373 137 381 Q129 389 131 401 Q132 406 141.5 415.5 Q151 425 174 436 Q188 442 199.5 447 Q211 452 222.5 456.5 Q234 461 247 465 Q260 469 276 474 Q289 494 299 510.5 Q309 527 323 547 Q326 552 329 551 Q333 550 326 539 Q316 524 309 511.5 Q302 499 289 477 Q291 478 300 480.5 Q309 483 319 486 Q329 489 337 490.5 Q345 492 346 491 Z M239 322 Q237 325 231.5 330 Q226 335 216 340 Q208 325 200.5 310.5 Q193 296 185 281 Q173 257 160.5 231.5 Q148 206 137 183 Q142 185 153.5 193.5 Q165 202 179 214 Q193 226 207 240 Q221 254 231 269 Q241 284 244 297.5 Q247 311 239 322 Z M271 464 Q259 461 239 453.5 Q219 446 199.5 437.5 Q180 429 163.5 420.5 Q147 412 143 405 Q138 397 140 392.5 Q142 388 149 383 Q162 375 179 369 Q196 363 208 356 L271 464 Z " />
<glyph glyph-name="percent" unicode="&#x25;" horiz-adv-x="303" d="M342 507 Q350 503 350 497.5 Q350 492 345 485 Q327 458 295 425.5 Q263 393 231 360 Q172 298 113 233 Q84 201 55 168.5 Q26 136 -3 104 Q-18 88 -29 76 Q-40 64 -54 47 Q-57 43 -64.5 34.5 Q-72 26 -74 24 Q-82 20 -80 29 Q-78 35 -71.5 42.5 Q-65 50 -57 60 Q56 193 173 317 Q210 355 247.5 392.5 Q285 430 323 468 Q327 472 335.5 483 Q344 494 343 499 Q342 501 338 502 Q334 503 328.5 503.5 Q323 504 318 504 Q313 504 310 504 Q289 504 268 503 Q247 502 226 501 Q221 501 218.5 500.5 Q216 500 217 495 Q221 475 209.5 454.5 Q198 434 175 431 Q167 430 161 433 Q155 436 154 444 Q152 460 165 476 Q178 492 189 501 Q194 505 202.5 511 Q211 517 216 512 Q200 506 187 492 Q174 478 166 464 Q164 459 161 451.5 Q158 444 165 439 Q171 435 179.5 438 Q188 441 193 445 Q206 455 210 467 Q214 479 212 496 Q210 505 218.5 505.5 Q227 506 233 506 Q252 508 264.5 508 Q277 508 298 509 Q307 509 322 509 Q337 509 342 507 Z M106 121 Q117 116 122 105 Q127 94 123 83 Q120 74 111.5 65 Q103 56 92.5 50 Q82 44 71 42.5 Q60 41 51 47 Q45 51 45 58 Q45 65 47.5 71.5 Q50 78 54.5 84.5 Q59 91 63 94 Q65 96 69.5 99.5 Q74 103 78 103 Q86 101 80 99 Q77 98 69.5 91.5 Q62 85 56.5 77 Q51 69 50 61 Q49 53 58 50 Q66 47 76.5 50.5 Q87 54 96.5 61 Q106 68 112 77.5 Q118 87 117 97 Q115 107 106 113 Q102 116 97.5 113 Q93 110 91 113 Q88 116 94.5 119.5 Q101 123 106 121 Z " />
<glyph glyph-name="ampersand" unicode="&#x26;" horiz-adv-x="415" d="M380 494 Q381 483 379 472.5 Q377 462 374 452 Q367 431 357 412 Q347 393 334 374 Q331 370 328 365.5 Q325 361 323 361 Q320 361 323.5 366 Q327 371 328 373 Q334 381 339 390.5 Q344 400 349 408 Q356 421 363.5 440.5 Q371 460 372.5 479.5 Q374 499 367 515 Q360 531 339 537 Q314 544 282.5 535 Q251 526 221 508 Q191 490 166 466.5 Q141 443 129 421 Q119 402 123 385 Q125 376 131.5 369.5 Q138 363 146 358 Q163 347 185.5 342 Q208 337 227 333 Q230 332 235.5 331 Q241 330 244.5 327.5 Q248 325 249 322 Q250 319 246 314 Q244 312 229 303.5 Q214 295 190 279.5 Q166 264 134.5 241.5 Q103 219 68 189 Q61 183 48 170 Q35 157 23.5 142 Q12 127 5 112 Q-2 97 3 86 Q6 77 23 81.5 Q40 86 60 95.5 Q80 105 97.5 115 Q115 125 119 127 Q159 151 198 175 Q237 199 276 224 Q293 235 299 239 Q305 243 309 241 Q315 239 312.5 231.5 Q310 224 306 216 Q292 187 276 156.5 Q260 126 251 96 Q249 91 248 86 Q247 81 247 76 Q247 72 249 71 Q251 70 249 68 Q247 66 244.5 67.5 Q242 69 241 73 Q239 81 240.5 87 Q242 93 244 99 Q254 131 267 161 Q280 191 299 228 Q267 209 239 190 Q211 171 179 151 Q173 147 158.5 137.5 Q144 128 126 117 Q108 106 87.5 95.5 Q67 85 48.5 78 Q30 71 15.5 69.5 Q1 68 -5 76 Q-17 91 -9.5 112 Q-2 133 14 153.5 Q30 174 48 191 Q66 208 74 215 Q109 245 144.5 267.5 Q180 290 223 312 Q226 314 232.5 317 Q239 320 235 322 Q230 324 224.5 325 Q219 326 210 328 Q194 332 175 337.5 Q156 343 140.5 352.5 Q125 362 117 376.5 Q109 391 115 412 Q122 437 151.5 465.5 Q181 494 218 516 Q255 538 293 546.5 Q331 555 357 539 Q368 531 373.5 519.5 Q379 508 380 494 Z " />
<glyph glyph-name="quotesingle" unicode="&#x27;" horiz-adv-x="320" d="M289 667 Q293 681 298.5 695.5 Q304 710 312 723 Q315 728 317 726.5 Q319 725 318 723 L304 692 L293 666 Q292 664 290 664.5 Q288 665 289 667 Z " />
<glyph glyph-name="parenleft" unicode="&#x28;" horiz-adv-x="284" d="M428 707 Q429 705 428.5 702.5 Q428 700 426 700 Q424 700 424 701.5 Q424 703 423 703 Q419 702 410.5 698.5 Q402 695 397 692 Q363 674 333 649.5 Q303 625 277 596 Q245 562 216.5 524.5 Q188 487 163 447 Q133 402 103.5 340.5 Q74 279 52 211.5 Q30 144 19 75.5 Q8 7 16 -53 Q17 -58 18 -63 Q19 -68 21 -73 Q23 -78 26.5 -79.5 Q30 -81 32 -85 Q27 -87 22.5 -84.5 Q18 -82 15 -77.5 Q12 -73 10.5 -67.5 Q9 -62 8 -58 Q-2 3 7 72.5 Q16 142 38.5 212 Q61 282 93 347.5 Q125 413 160 466 Q210 544 279 613 Q299 633 323.5 652 Q348 671 369.5 684.5 Q391 698 407.5 704.5 Q424 711 428 707 Z " />
<glyph glyph-name="parenright" unicode="&#x29;" horiz-adv-x="325" d="M316 663 Q316 568 283.5 479 Q251 390 206 302 Q179 250 149 195 Q119 140 86.5 87.5 Q54 35 20 -11 Q-14 -57 -48 -91 Q-60 -103 -61 -98 Q-62 -96 -57.5 -93 Q-53 -90 -46 -82 Q38 19 103 131.5 Q168 244 225 357 Q244 395 260 434 Q276 473 289 515 Q301 550 305.5 591.5 Q310 633 312 663 Q312 667 311.5 673 Q311 679 313 680 Q315 681 315.5 674 Q316 667 316 663 Z " />
<glyph glyph-name="asterisk" unicode="&#x2a;" horiz-adv-x="252" d="M214 372 Q214 371 209 371 Q206 371 204 372 Q174 378 148 381 Q153 374 155.5 370 Q158 366 161 361 Q164 356 168 350.5 Q172 345 168 343 Q165 341 160.5 348.5 Q156 356 154 358 Q151 363 148 367 Q145 371 141 376 Q133 362 127 348 Q121 334 113 318 Q111 315 108.5 309.5 Q106 304 104 305 Q102 306 105 314 Q108 322 113 333 Q118 344 124 355 Q130 366 133 373 Q127 368 117.5 362 Q108 356 99 350.5 Q90 345 83 342 Q76 339 75 341 Q73 345 83 351.5 Q93 358 101 363 Q102 364 106.5 366.5 Q111 369 116.5 372 Q122 375 127.5 378 Q133 381 135 383 L100 383 Q93 383 82 382.5 Q71 382 70 386 Q69 391 77.5 391 Q86 391 97 391 Q105 391 113.5 390.5 Q122 390 130 390 Q127 395 123.5 400.5 Q120 406 116 411 Q115 413 111.5 418.5 Q108 424 113 426 Q115 427 117.5 424 Q120 421 122 418 Q126 413 131.5 403.5 Q137 394 141 389 Q145 397 150 408 Q155 419 160 428 Q162 431 164.5 435.5 Q167 440 169 439 Q172 438 170 433.5 Q168 429 166 426 Q163 420 157.5 408.5 Q152 397 149 391 Q157 395 163.5 398.5 Q170 402 177 406 Q182 408 192 413.5 Q202 419 204 416 Q205 414 202.5 412 Q200 410 197 408 Q194 406 191 404 Q188 402 187 402 Q185 400 176.5 396 Q168 392 160 387 Q168 385 175 384.5 Q182 384 189 382 Q196 380 205 378.5 Q214 377 214 372 Z " />
<glyph glyph-name="comma" unicode="&#x2c;" horiz-adv-x="129" d="M49 225 Q49 223 48 221 Q43 212 39 204 Q35 196 29 185 Q24 177 22 178 Q21 178 21 182 Q26 194 30.5 203.5 Q35 213 40 224 Q41 227 44 228 Q49 230 49 225 Z " />
<glyph glyph-name="plus" unicode="&#x2b;" horiz-adv-x="230" d="M98 269 Q106 270 113.5 270 Q121 270 129 270 Q131 270 135 270 Q139 270 143.5 269.5 Q148 269 151 267.5 Q154 266 154 264 Q153 261 150 261 Q147 261 145 262 Q141 263 137 263 Q133 263 129 263 Q120 263 111.5 262.5 Q103 262 94 262 L62 190 Q60 186 58 181 Q56 176 54 173 Q52 170 50.5 172.5 Q49 175 50 177 Q52 183 53.5 186.5 Q55 190 57 194 Q65 211 72 228 Q79 245 86 262 Q78 261 70.5 260.5 Q63 260 55 259 Q48 258 42.5 257.5 Q37 257 28 256 Q26 256 24.5 258 Q23 260 25 262 Q27 264 31 264 Q35 264 41 265 Q54 267 65.5 267.5 Q77 268 89 269 Q97 287 105 304.5 Q113 322 123 339 Q124 341 126 344.5 Q128 348 131 347 Q134 346 132.5 342.5 Q131 339 130 337 Q122 320 114.5 304.5 Q107 289 98 269 Z " />
<glyph glyph-name="hyphen" unicode="&#x2d;" horiz-adv-x="180" d="M37 271 Q22 269 22 273 Q22 276 28 276.5 Q34 277 42 278 Q54 280 68.5 280.5 Q83 281 94 282 Q105 283 109 283 Q113 283 114 280 Q115 278 109.5 277.5 Q104 277 99 276 Q83 274 68 273.5 Q53 273 37 271 Z " />
<glyph glyph-name="slash" unicode="&#x2f;" horiz-adv-x="477" d="M569 615 Q571 613 566.5 608 Q562 603 557 597 Q528 564 494.5 532 Q461 500 425.5 469 Q390 438 354.5 407.5 Q319 377 287 347 Q223 287 158.5 228 Q94 169 31 108 Q3 81 -17.5 62 Q-38 43 -62 19 Q-73 8 -76 13 Q-78 15 -75 20 Q-72 25 -68 29 Q-36 61 -6 89.5 Q24 118 56 150 Q152 241 247 330 Q342 419 442 505 Q450 512 465 525.5 Q480 539 496.5 554 Q513 569 528 582 Q543 595 551 603 Q567 617 569 615 Z " />
<glyph glyph-name="period" unicode="&#x2e;" horiz-adv-x="152" d="M26 212 Q19 212 19 218 Q19 225 26 225 Q32 225 32 218 Q32 212 26 212 Z " />
<glyph glyph-name="zero" unicode="0" horiz-adv-x="382" d="M345 485 Q346 478 347 471.5 Q348 465 346 459 Q345 456 344 454 Q343 452 341 455 Q339 458 339 462.5 Q339 467 338 470 Q336 482 331 493 Q326 504 313 509 Q298 514 282.5 508 Q267 502 254 494 Q227 477 205.5 454 Q184 431 166 406 Q146 378 128.5 348.5 Q111 319 94 289 Q78 258 64 227 Q50 196 39 163 Q30 135 24 103 Q18 71 32 43 Q43 22 64.5 23.5 Q86 25 104 33 Q130 45 152 63.5 Q174 82 194 102 Q217 126 237 153 Q257 180 274 209 Q290 239 302 271.5 Q314 304 319 337 Q321 354 321 371 Q321 388 317 405 Q314 421 308 438 Q308 439 306.5 442 Q305 445 304.5 448 Q304 451 304.5 453 Q305 455 309 453 Q314 451 315.5 446.5 Q317 442 319 437 Q322 426 327 412 Q336 377 333 343 Q328 309 316 276.5 Q304 244 287 215 Q255 155 211 107 Q190 84 166.5 62 Q143 40 115 26 Q102 18 87.5 13.5 Q73 9 58 11 Q43 13 32.5 22 Q22 31 17 45 Q6 75 11 109 Q16 143 27 172 Q38 205 54 236 Q70 267 87 298 Q104 327 122.5 356.5 Q141 386 161 414 Q180 440 202 462.5 Q224 485 251 502 Q264 510 279.5 516.5 Q295 523 311 519 Q324 517 333.5 507.5 Q343 498 345 485 Z " />
<glyph glyph-name="one" unicode="1" horiz-adv-x="225" d="M246 573 Q247 573 241.5 560 Q236 547 228.5 532 Q221 517 214.5 503.5 Q208 490 208 489 Q193 457 178 425 Q163 393 148 361 Q120 303 92.5 246.5 Q65 190 38 132 Q31 118 24.5 103 Q18 88 11 73 Q7 65 4 58 Q1 51 -3 43 Q-4 40 -7 31 Q-10 22 -15 22 Q-19 22 -18 29 Q-17 36 -14 44 Q-11 52 -8 59 Q-5 66 -4 68 Q2 82 8 95 Q14 108 21 122 Q47 180 72.5 236.5 Q98 293 127 349 Q141 377 156 404.5 Q171 432 186 460 Q201 489 215.5 517 Q230 545 246 573 Z " />
<glyph glyph-name="two" unicode="2" horiz-adv-x="367" d="M358 477 Q362 449 348.5 422 Q335 395 321 372 Q304 347 282.5 317 Q261 287 235.5 254.5 Q210 222 181 190 Q152 158 121 128 Q107 114 87 97.5 Q67 81 47 65 Q99 66 141 63.5 Q183 61 231 56 Q236 55 239.5 54.5 Q243 54 245 52 Q247 50 247 47 Q247 44 244 44 Q212 44 178.5 47 Q145 50 108 52 Q88 53 67 52 Q46 51 26 47 Q13 45 2 39 Q-9 33 -20 28 Q-28 24 -38 19.5 Q-48 15 -58 15 Q-66 15 -67 21 Q-68 27 -62.5 31 Q-57 35 -53 37 Q-37 45 -21 49 Q-5 53 11 60 Q26 65 40.5 77 Q55 89 75 105 Q133 156 184.5 216 Q236 276 287 345 Q298 361 309.5 377.5 Q321 394 330 412 Q338 428 344.5 446 Q351 464 347 483 Q344 498 332.5 507 Q321 516 306 517 Q284 517 265 513 Q259 511 254 509.5 Q249 508 249 510 Q249 512 254 513 Q266 517 283.5 521.5 Q301 526 322 521 Q338 517 347 504.5 Q356 492 358 477 Z " />
<glyph glyph-name="three" unicode="3" horiz-adv-x="382" d="M186 357 Q174 350 169 345 Q169 345 175 344 Q181 343 188.5 341.5 Q196 340 203 339 Q210 338 212 338 Q237 334 262 325.5 Q287 317 302 295 Q317 275 314.5 249.5 Q312 224 303 202 Q281 154 241.5 117.5 Q202 81 154 60 Q111 42 70.5 41 Q30 40 -15 59 Q-17 60 -24 63.5 Q-31 67 -37.5 71.5 Q-44 76 -47.5 81 Q-51 86 -47 90 Q-45 92 -41 87 Q-38 83 -32 79 Q-16 69 0 62 Q16 55 49 53 Q78 51 106 58.5 Q134 66 160 80 Q186 94 209 113 Q232 132 250 155 Q267 174 281.5 197 Q296 220 298 246 Q300 272 287 290.5 Q274 309 249 319 Q239 323 226.5 325 Q214 327 201.5 329 Q189 331 178 332.5 Q167 334 160 337 Q154 339 155.5 343.5 Q157 348 162 352.5 Q167 357 173 361 Q179 365 181 367 Q195 376 208 385 Q221 394 234 403 Q247 412 259 420 Q271 428 282 437 Q292 445 304 456 Q316 467 318 480 Q319 487 315 491.5 Q311 496 305 499.5 Q299 503 292 504.5 Q285 506 280 507 Q251 511 222.5 506.5 Q194 502 163 491 Q157 489 148 485.5 Q139 482 134 483 Q131 483 131 486 Q131 488 134 489 Q137 490 139 491 Q196 517 256 517 Q264 517 276.5 516 Q289 515 300.5 511 Q312 507 320 500 Q328 493 328 480 Q328 467 311 449.5 Q294 432 271 414 Q248 396 224 381 Q200 366 186 357 Z " />
<glyph glyph-name="four" unicode="4" horiz-adv-x="303" d="M341 513 Q345 511 340 502.5 Q335 494 332 489 Q320 467 309 446 Q298 425 287 402 Q271 373 256 343 Q241 313 227 283 Q229 283 234.5 282.5 Q240 282 235 278 Q233 276 230 276.5 Q227 277 225 275 Q222 273 221 270.5 Q220 268 218 265 Q203 234 192.5 212.5 Q182 191 173 173 Q164 155 155.5 136.5 Q147 118 135 93 Q128 79 117 55 Q106 31 98 17 Q95 11 92.5 6.5 Q90 2 85 4 Q80 6 84 14.5 Q88 23 90 27 Q117 89 147 149 Q177 209 206 271 Q187 268 169 263.5 Q151 259 132 254 Q111 249 88 242.5 Q65 236 43 234 Q36 233 28.5 233.5 Q21 234 14 237 Q6 242 6.5 249.5 Q7 257 9 264 Q14 279 22.5 292.5 Q31 306 39 320 Q57 349 77 375.5 Q97 402 118 429 Q133 450 149 470 Q165 490 182 511 Q193 525 198 523 Q200 522 195.5 517.5 Q191 513 187 508 Q166 482 144 453 Q118 418 93.5 382.5 Q69 347 44 309 Q39 301 34 292.5 Q29 284 24 275 Q22 271 18 262 Q14 253 17 248 Q21 244 31 244 Q41 244 52.5 246 Q64 248 74.5 250.5 Q85 253 90 254 Q126 263 152.5 269.5 Q179 276 209 282 Q224 309 236.5 334.5 Q249 360 263 385 Q279 414 294 440 Q309 466 324 493 Q329 501 333.5 508 Q338 515 341 513 Z " />
<glyph glyph-name="five" unicode="5" horiz-adv-x="393" d="M352 473 Q355 472 354.5 469.5 Q354 467 352 465 Q350 463 346 463 Q342 463 339 463 Q322 463 305 462.5 Q288 462 271 462 Q255 462 238.5 462.5 Q222 463 208 456 Q194 451 184 441 Q174 431 164 420 Q153 407 143 394.5 Q133 382 123 369 Q102 341 81 314 Q60 287 40 259 Q36 253 39.5 254 Q43 255 46 257 L76 270 Q120 289 166.5 306 Q213 323 267 321 Q280 320 293 315.5 Q306 311 314 300 Q323 285 320.5 264.5 Q318 244 308.5 223 Q299 202 285.5 182 Q272 162 259 147 Q243 128 218.5 107 Q194 86 165.5 69.5 Q137 53 106.5 44.5 Q76 36 48 41 Q31 44 21 52 Q11 60 1 71 Q-1 73 -5.5 82 Q-10 91 -5 99 Q-6 93 -2 86.5 Q2 80 7.5 74.5 Q13 69 19.5 65 Q26 61 29 59 Q45 50 62.5 49.5 Q80 49 97 54 Q125 61 153 76.5 Q181 92 206 113 Q231 134 252 159 Q273 184 288 211 Q301 234 306.5 254 Q312 274 306.5 288.5 Q301 303 283.5 309.5 Q266 316 234 312 Q184 305 139.5 287 Q95 269 46 250 Q42 248 38 246.5 Q34 245 31 247 Q27 251 30 258.5 Q33 266 35 268 Q43 282 52 294.5 Q61 307 69 318 Q88 344 107.5 368.5 Q127 393 147 418 Q163 437 182 453.5 Q201 470 227 473 Q243 474 264 474 Q285 474 327 474 Q347 474 352 473 Z " />
<glyph glyph-name="six" unicode="6" horiz-adv-x="376" d="M321 504 Q322 502 317.5 498.5 Q313 495 307 490.5 Q301 486 295.5 482 Q290 478 288 477 Q235 439 188.5 393.5 Q142 348 99 293 Q86 276 73 258 Q60 240 50 220 Q65 235 87 251 Q109 267 135 279.5 Q161 292 189 298 Q217 304 243 299 Q266 294 274 273 Q282 252 270 221 Q265 208 256 193.5 Q247 179 236 165.5 Q225 152 214 140.5 Q203 129 194 122 Q169 101 139 84.5 Q109 68 76 64 Q62 62 47 63.5 Q32 65 20 73 Q1 87 -1.5 109 Q-4 131 5 157.5 Q14 184 30.5 212 Q47 240 65.5 264.5 Q84 289 100 308.5 Q116 328 125 338 Q159 376 201 414.5 Q243 453 289 487 Q290 488 295 491.5 Q300 495 305.5 498.5 Q311 502 315.5 504 Q320 506 321 504 Z M132 268 Q93 249 61 218 Q54 211 46 204 Q38 197 34 188 Q30 179 25 167 Q20 155 17 141.5 Q14 128 14 115.5 Q14 103 20 93 Q24 85 32 81.5 Q40 78 49 76.5 Q58 75 67 75.5 Q76 76 83 77 Q109 82 134 95 Q159 108 180.5 126.5 Q202 145 220.5 167.5 Q239 190 252 214 Q272 249 260 270 Q248 291 206 289 Q186 287 167.5 281.5 Q149 276 132 268 Z " />
<glyph glyph-name="seven" unicode="7" horiz-adv-x="303" d="M302 485 Q307 478 305.5 471 Q304 464 298 453 Q277 417 251.5 383 Q226 349 201 314 Q213 313 226.5 312 Q240 311 252 307 Q254 306 258.5 304 Q263 302 262 299 Q260 294 254.5 297 Q249 300 247 301 Q235 304 222 304.5 Q209 305 195 306 Q176 278 155 246.5 Q134 215 113 185 Q92 155 73.5 127.5 Q55 100 40 79 L-1 21 L-26 -16 Q-29 -21 -33.5 -20.5 Q-38 -20 -37 -16 Q-35 -10 -29.5 0 Q-24 10 -19 17 Q-2 44 10 62.5 Q22 81 31.5 95 Q41 109 48.5 119.5 Q56 130 63 141 Q92 183 120.5 224.5 Q149 266 178 308 Q154 310 129.5 308 Q105 306 81 304 Q79 304 71.5 302.5 Q64 301 63 304 Q62 306 64 307.5 Q66 309 68 309 Q85 313 103 314.5 Q121 316 150 316 Q161 316 168.5 316 Q176 316 183 315 Q196 333 205 344.5 Q214 356 219.5 363.5 Q225 371 229 376 Q233 381 236 385 Q257 414 270 431 Q283 448 289.5 457.5 Q296 467 297 471.5 Q298 476 296 479 Q291 486 272.5 487.5 Q254 489 231 488.5 Q208 488 186 486.5 Q164 485 153 486 Q151 486 147 486.5 Q143 487 143 490 Q143 493 149 493 Q158 491 166.5 492 Q175 493 185 493 Q198 494 216.5 495 Q235 496 252.5 495 Q270 494 284 492 Q298 490 302 485 Z " />
<glyph glyph-name="eight" unicode="8" horiz-adv-x="250" d="M245 417 Q247 413 240.5 409.5 Q234 406 232 404 L107 320 Q124 303 136 275.5 Q148 248 149 228 Q150 207 144.5 185 Q139 163 128 145 Q120 131 108 117 Q96 103 81.5 92 Q67 81 51 74.5 Q35 68 20 70 Q-3 72 -16 83 Q-29 94 -33.5 109.5 Q-38 125 -35.5 143.5 Q-33 162 -27 180 Q-13 217 13 246.5 Q39 276 68 301 Q77 308 80.5 311 Q84 314 85 315 Q86 316 87 316.5 Q88 317 91 320 Q85 328 76.5 338 Q68 348 66 359 Q62 378 73.5 394 Q85 410 102.5 422.5 Q120 435 140 443.5 Q160 452 174 456 Q191 461 207.5 460 Q224 459 235 451 Q240 448 237 443 Q234 439 230.5 440 Q227 441 224 443 Q215 448 205.5 448 Q196 448 186 446 Q175 444 154 436 Q133 428 114 416 Q95 404 83.5 388.5 Q72 373 80 355 Q82 352 87 344 Q92 336 100 328 Q113 335 128 345 Q143 355 158.5 365.5 Q174 376 189.5 386.5 Q205 397 218 406 Q219 407 223.5 410 Q228 413 232.5 415.5 Q237 418 240.5 419 Q244 420 245 417 Z M135 240 Q133 251 124.5 270.5 Q116 290 98 311 Q74 294 52 274 Q29 253 10.5 228 Q-8 203 -18 173 Q-21 163 -23.5 151.5 Q-26 140 -25.5 129 Q-25 118 -20.5 107.5 Q-16 97 -7 90 Q6 80 20 80 Q34 80 47.5 85.5 Q61 91 72.5 100.5 Q84 110 93 120 Q113 144 127.5 176 Q142 208 135 240 Z " />
<glyph glyph-name="nine" unicode="9" horiz-adv-x="330" d="M315 452 Q321 452 322 447.5 Q323 443 321 438 Q313 417 304 400 Q295 383 284 361 Q268 332 249.5 303 Q231 274 213 247 Q182 201 147 161 Q112 121 65 83 Q54 74 44 65.5 Q34 57 23 48 Q8 36 5 39 Q2 42 3.5 44.5 Q5 47 7 49 Q17 57 26 65.5 Q35 74 45 82 Q97 127 142 176.5 Q187 226 228 292 Q244 316 257.5 340.5 Q271 365 285 390 Q286 392 289.5 399.5 Q293 407 297 415 Q301 423 304.5 430 Q308 437 308 437 Q284 414 258.5 390.5 Q233 367 201 343 Q189 333 172 321.5 Q155 310 137 300 Q119 290 102 283.5 Q85 277 73 277 Q59 277 47 282.5 Q35 288 32 304 Q29 318 34.5 332.5 Q40 347 48 359 Q60 378 80.5 398 Q101 418 126.5 434 Q152 450 179 459.5 Q206 469 232 466 Q236 465 243.5 463.5 Q251 462 258.5 458 Q266 454 272 446.5 Q278 439 281 427 Q288 435 299.5 443.5 Q311 452 315 452 Z M269 417 Q268 432 259 441.5 Q250 451 238 454 Q218 459 195 453 Q172 447 150.5 435 Q129 423 109.5 406.5 Q90 390 76 374 Q66 363 57 350 Q48 337 44 323 Q41 312 44 301 Q47 290 58 288 Q70 285 85 289 Q100 293 115.5 300.5 Q131 308 146 317 Q161 326 173 335 Q187 345 203 357.5 Q219 370 251 398 Q257 403 261.5 408 Q266 413 269 417 Z " />
<glyph glyph-name="colon" unicode="&#x3a;" horiz-adv-x="78" d="M14 277 Q24 275 20 265 Q18 255 8 259 Q-2 261 2 271 Q4 281 14 277 Z M43 329 Q50 325 47 317 Q45 310 38 312 Q30 316 33 323 Q35 331 43 329 Z " />
<glyph glyph-name="semicolon" unicode="&#x3b;" horiz-adv-x="135" d="M31 277 Q32 279 34 281 Q36 283 40 280 Q43 277 41.5 274.5 Q40 272 38 270 Q30 259 21 248.5 Q12 238 4 227 Q3 225 0 222.5 Q-3 220 -4 223 Q-4 227 2 235 Q9 246 16 256 Q23 266 31 277 Z M59 333 Q66 332 66 324 Q64 315 56 317 Q52 317 50 320 Q48 323 49 326 Q51 335 59 333 Z " />
<glyph glyph-name="less" unicode="&#x3c;" horiz-adv-x="241" d="M185 328 Q188 324 186.5 323 Q185 322 180 320 Q152 312 130 305.5 Q108 299 82 291 Q80 290 72 287.5 Q64 285 55.5 282 Q47 279 40.5 276 Q34 273 34 270 Q34 269 40.5 265 Q47 261 55.5 256 Q64 251 72 246.5 Q80 242 84 240 Q101 231 110.5 225.5 Q120 220 133 212 Q137 209 141.5 206.5 Q146 204 143 200 Q131 206 122 211 Q113 216 103.5 221.5 Q94 227 81.5 233.5 Q69 240 50 249 Q44 252 36.5 255.5 Q29 259 24 264 Q18 270 21 275.5 Q24 281 30.5 285.5 Q37 290 45 293 Q53 296 57 298 Q86 309 122.5 317.5 Q159 326 185 328 Z " />
<glyph glyph-name="equal" unicode="&#x3d;" horiz-adv-x="202" d="M114 258 Q126 258 126 253 Q126 250 121.5 250 Q117 250 111 250 Q93 250 74.5 249.5 Q56 249 39 249 Q36 249 27.5 249 Q19 249 17 253 Q15 257 22.5 257.5 Q30 258 39 258 L114 258 Z M41 288 Q41 291 46 291.5 Q51 292 54 292 L82 292 L122 292 Q124 292 128.5 292 Q133 292 134 290 Q135 287 129.5 286.5 Q124 286 120 286 Q107 286 94 286 Q81 286 67 285 Q41 283 41 288 Z " />
<glyph glyph-name="greater" unicode="&#x3e;" horiz-adv-x="248" d="M190 291 Q193 285 188 279 Q183 273 175 268.5 Q167 264 159 260.5 Q151 257 148 256 Q116 245 84.5 233.5 Q53 222 21 211 Q10 207 10 211 Q10 213 12.5 215 Q15 217 16 218 Q32 226 57.5 235 Q83 244 106 252 Q118 256 131.5 260.5 Q145 265 156.5 270 Q168 275 175.5 280 Q183 285 182 288 Q180 294 170.5 300.5 Q161 307 148.5 313 Q136 319 124 324.5 Q112 330 107 333 Q105 334 102 336.5 Q99 339 101 341 Q103 343 106.5 341.5 Q110 340 112 339 Q132 330 157 319 Q182 308 190 291 Z " />
<glyph glyph-name="question" unicode="&#x3f;" horiz-adv-x="573" d="M585 677 Q603 665 603 640 Q603 629 597.5 616.5 Q592 604 583.5 592 Q575 580 565.5 568 Q556 556 547 547 Q490 479 429.5 413 Q369 347 307 271 Q278 235 245 193.5 Q212 152 167 99 Q159 90 157 92 Q154 95 163 106 Q198 153 232.5 195.5 Q267 238 303 283 Q359 352 418.5 418.5 Q478 485 542 559 Q549 567 559 578 Q569 589 578 601.5 Q587 614 592 627 Q597 640 594 653 Q591 665 581 671.5 Q571 678 557.5 681 Q544 684 528.5 685 Q513 686 500 686 Q471 684 442.5 676.5 Q414 669 387 658 Q351 643 316 620 Q281 597 256 565 Q250 557 245.5 549 Q241 541 239 530 Q239 528 240 524.5 Q241 521 239 519 Q234 514 233.5 521.5 Q233 529 233 531 Q234 543 241 555 Q260 588 295 614 Q330 640 367 657 Q388 667 416 676.5 Q444 686 474 690.5 Q504 695 533 692.5 Q562 690 585 677 Z M104 4 Q109 2 107 -2.5 Q105 -7 102 -6 Q98 -5 98.5 0 Q99 5 104 4 Z " />
<glyph glyph-name="at" unicode="&#x40;" horiz-adv-x="321" d="M116 251 Q117 257 118 262.5 Q119 268 123 277 L119 275 Q115 273 113 271 Q105 266 93 259.5 Q81 253 73 254 Q65 255 65.5 260.5 Q66 266 70 273 Q74 280 81 288.5 Q88 297 97 303.5 Q106 310 115.5 314 Q125 318 134 317 Q142 316 145.5 310 Q149 304 148 297 Q148 295 147 294 Q146 293 144 292.5 Q142 292 141 295 Q140 300 138 305.5 Q136 311 127 309 Q117 306 105 298 Q97 292 87 281.5 Q77 271 74 262 Q79 262 87.5 266.5 Q96 271 104 276 Q109 279 115 283 Q121 287 128 294 Q131 296 134 294.5 Q137 293 137 288 Q135 280 131 269 Q127 258 126 250 Q126 242 132 241.5 Q138 241 146 243.5 Q154 246 162 250.5 Q170 255 174 257 Q200 276 221.5 304.5 Q243 333 256 365 Q262 379 266 399 Q270 419 265 432 Q258 449 240 450.5 Q222 452 207 447 Q169 433 136.5 406.5 Q104 380 77 345 Q53 314 35.5 272 Q18 230 23 188 Q25 176 32.5 167 Q40 158 55 156 Q79 154 104 165.5 Q129 177 149 194 Q178 218 203.5 241 Q229 264 255 289 Q259 293 261 292 Q263 290 259 286 Q242 269 225 253 Q208 237 188 217 Q176 205 159.5 190.5 Q143 176 124.5 164 Q106 152 85.5 145.5 Q65 139 44 144 Q21 150 13 174 Q5 204 12.5 237 Q20 270 37 302 Q54 334 78 362.5 Q102 391 126 411 Q142 424 159.5 434.5 Q177 445 197 453 Q207 456 219 458 Q231 460 242 457.5 Q253 455 262 448 Q271 441 275 427 Q280 410 274.5 389 Q269 368 258 346.5 Q247 325 232.5 305.5 Q218 286 206 274 Q194 261 174 247.5 Q154 234 134 233 Q124 232 119.5 237.5 Q115 243 116 251 Z " />
<glyph glyph-name="bracketleft" unicode="&#x5b;" horiz-adv-x="293" d="M366 658 Q371 657 369 654.5 Q367 652 364 652 L345 652 Q337 652 330 648 Q323 644 318 636 Q310 621 303 608 Q296 595 289 581.5 Q282 568 273.5 552 Q265 536 255 515 Q229 462 205.5 412 Q182 362 157 308 Q143 277 129 247 Q115 217 101 186 Q86 154 71 123.5 Q56 93 41 62 Q36 50 31.5 39 Q27 28 23 16 Q21 8 19 1.5 Q17 -5 16 -11 Q15 -22 26 -28 Q34 -33 42.5 -37 Q51 -41 62 -43 Q65 -43 64 -44.5 Q63 -46 61 -47 Q59 -48 57 -48.5 Q55 -49 50 -47 Q33 -41 19 -33 Q4 -26 7 -9 Q9 1 11 9.5 Q13 18 18 30 Q35 74 54 116 Q73 158 93 201 Q118 253 143 305 Q168 357 193 410 Q215 453 236 496 Q257 539 279 583 Q287 598 294.5 613 Q302 628 311 642 Q316 650 323 655 Q330 660 340 660 Q349 660 355 659.5 Q361 659 366 658 Z " />
<glyph glyph-name="backslash" unicode="&#x5c;" horiz-adv-x="343" d="M273 731 Q275 731 273 717 Q272 707 268.5 683.5 Q265 660 261 634 Q257 608 253.5 584.5 Q250 561 248 550 Q229 428 212 307.5 Q195 187 177 65 Q173 33 169.5 2.5 Q166 -28 161 -59 Q159 -69 158 -80 Q157 -91 154 -91 Q149 -91 150.5 -76 Q152 -61 154 -47 Q158 -12 162 21.5 Q166 55 171 90 Q182 168 191 229 Q200 290 208 345 Q216 400 224.5 454.5 Q233 509 243 574 Q247 600 254.5 639 Q262 678 268 716 Q269 720 270 726 Q271 732 273 731 Z " />
<glyph glyph-name="bracketright" unicode="&#x5d;" horiz-adv-x="314" d="M292 687 Q291 687 284 686.5 Q277 686 268.5 685.5 Q260 685 252 684.5 Q244 684 241 683 Q237 682 238 685 Q239 688 241 689 Q243 690 250 691 Q257 692 265.5 692.5 Q274 693 283.5 693.5 Q293 694 300 694 Q309 694 317 693 Q325 692 332 689 Q340 685 343 680 Q346 675 346 664 Q346 659 342 644.5 Q338 630 333 619 Q300 544 261 472.5 Q222 401 187 326 Q164 281 143.5 235.5 Q123 190 102 144 Q82 101 66.5 64.5 Q51 28 34 -7 Q24 -28 0 -39 Q-13 -45 -26 -50 Q-39 -55 -52 -60 Q-58 -62 -63 -62 Q-68 -62 -68 -57 Q-68 -55 -66.5 -54.5 Q-65 -54 -63 -53 Q-47 -48 -32 -41.5 Q-17 -35 -1 -28 Q20 -19 30 2 Q47 40 62 78.5 Q77 117 94 155 Q119 215 150 276 Q167 310 184 344 Q201 378 218 412 Q244 465 273.5 516.5 Q303 568 327 622 Q332 633 336 647 Q340 661 340 669 Q340 679 330 684 Q323 686 313 687 Q303 688 292 687 Z " />
<glyph glyph-name="asciicircum" unicode="&#x5e;" horiz-adv-x="376" d="M349 731 Q358 736 359.5 730.5 Q361 725 360 717 Q360 712 357 700 Q354 688 351 674 Q348 660 344.5 646 Q341 632 339 624 Q338 620 335 620 Q334 620 335 627 Q340 649 344.5 667.5 Q349 686 354 709 Q355 713 356.5 720 Q358 727 356 728 Q354 729 346.5 723 Q339 717 328 707 Q323 702 305 683 Q287 664 265 639 Q263 637 256.5 630 Q250 623 248 626 Q247 628 249 630.5 Q251 633 253 635 Q259 642 264.5 648 Q270 654 275 659 Q292 676 310.5 697 Q329 718 349 731 Z " />
<glyph glyph-name="underscore" unicode="&#x5f;" horiz-adv-x="230" d="M160 207 Q160 206 157 206 Q121 204 85 201.5 Q49 199 14 197 Q13 197 10.5 196.5 Q8 196 7 198 Q7 198 11 200 Q13 200 16 201 Q48 203 84 206 Q120 209 153 209 Q160 209 160 207 Z " />
<glyph glyph-name="grave" unicode="&#x60;" horiz-adv-x="343" d="M292 707 Q288 724 286.5 735 Q285 746 287 747 Q289 748 290.5 742 Q292 736 293 731 Q293 728 295 718 Q297 708 299.5 697 Q302 686 303 677 Q304 668 303 668 Q301 668 300 672 Q299 676 297.5 682 Q296 688 294.5 695 Q293 702 292 707 Z " />
<glyph glyph-name="braceleft" unicode="&#x7b;" horiz-adv-x="309" d="M386 710 Q397 712 401 707.5 Q405 703 404.5 696 Q404 689 400.5 683.5 Q397 678 394 679 Q392 680 393.5 683.5 Q395 687 396.5 690.5 Q398 694 398.5 697.5 Q399 701 396 703 Q392 705 386 703 Q380 701 373 696 Q366 691 359.5 684.5 Q353 678 347 671 Q323 642 304 608.5 Q285 575 268 540 Q243 493 218.5 445.5 Q194 398 158 359 Q148 348 135 337 Q122 326 108 315 Q94 304 80 294 Q66 284 54 277 Q55 275 62.5 275 Q70 275 80 275 Q90 275 101 274.5 Q112 274 120 270 Q131 265 133.5 256 Q136 247 134 236 Q128 203 112 161 Q96 119 84 80 Q73 42 64.5 -2.5 Q56 -47 57 -78 Q57 -83 57.5 -88.5 Q58 -94 63 -97 Q68 -100 64 -102 Q61 -104 56 -102 Q50 -99 48 -91 Q46 -83 45 -78 Q43 -54 50 -3.5 Q57 47 74 107 Q82 135 91.5 158 Q101 181 108.5 199.5 Q116 218 120.5 231 Q125 244 124 253 Q123 259 118.5 262.5 Q114 266 108 267.5 Q102 269 96 269 Q90 269 85 269 Q81 269 74 268.5 Q67 268 61 268.5 Q55 269 50.5 271 Q46 273 46 278 Q46 282 54.5 287.5 Q63 293 77 303.5 Q91 314 111.5 330.5 Q132 347 156 374 Q192 414 216 462 Q240 510 265 557 Q272 572 285 596 Q298 620 313.5 644 Q329 668 347.5 687 Q366 706 386 710 Z " />
<glyph glyph-name="bar" unicode="&#x7c;" horiz-adv-x="348" d="M383 687 Q385 689 387.5 688 Q390 687 388 684 L377 662 Q371 652 348 605.5 Q325 559 291.5 492.5 Q258 426 219 346.5 Q180 267 142 191 Q104 115 71.5 49.5 Q39 -16 20 -55 Q16 -63 14 -66 Q12 -69 10 -74 Q8 -78 6 -77 Q4 -76 5 -74 Q8 -64 11.5 -57 Q15 -50 17 -46 Q21 -38 36 -7.5 Q51 23 73.5 68 Q96 113 124 169.5 Q152 226 182 286 Q212 346 242 406 Q272 466 298.5 519 Q325 572 346 614 Q367 656 379 680 Q380 682 381 684 Q382 686 383 687 Z " />
<glyph glyph-name="braceright" unicode="&#x7d;" horiz-adv-x="320" d="M320 708 Q323 684 313.5 657 Q304 630 289 602.5 Q274 575 256 548.5 Q238 522 225 501 Q211 481 197.5 460 Q184 439 171 418 Q160 401 151 378.5 Q142 356 154 337 Q159 328 168 321.5 Q177 315 181 305 Q184 295 177 286.5 Q170 278 164 271 Q133 239 116 200 Q106 177 96.5 154.5 Q87 132 77 109 Q60 67 36.5 25 Q13 -17 -14 -65 Q-20 -76 -27.5 -87 Q-35 -98 -42 -99 Q-48 -100 -46.5 -96 Q-45 -92 -43 -89 Q-40 -84 -37 -79.5 Q-34 -75 -31 -70 Q-6 -28 15.5 15 Q37 58 57 103 Q67 126 76.5 148 Q86 170 97 192 Q118 236 146 269 Q149 272 153.5 276 Q158 280 162.5 284.5 Q167 289 170.5 293 Q174 297 175 300 Q176 305 173 309.5 Q170 314 165.5 318 Q161 322 156 325.5 Q151 329 148 333 Q141 343 140.5 354 Q140 365 143 376 Q146 387 151 397.5 Q156 408 161 417 Q175 442 201.5 480 Q228 518 254 558.5 Q280 599 298.5 638 Q317 677 315 705 Q315 711 311 713 Q307 715 302.5 715.5 Q298 716 294.5 716.5 Q291 717 291 719 Q291 722 298 722 Q305 722 310 720 Q319 716 320 708 Z " />
<glyph glyph-name="asciitilde" unicode="&#x7e;" horiz-adv-x="214" d="M131 270 Q133 268 126 264 Q115 259 107.5 254.5 Q100 250 92 246 Q82 241 73.5 238.5 Q65 236 57 244 Q52 252 48 265 Q46 270 44 273 Q42 276 37 274 Q26 269 21 262 Q17 257 13.5 252 Q10 247 8 249 Q6 250 9.5 255.5 Q13 261 16 264 Q21 269 24 272 Q27 275 32 277 Q42 282 47 277.5 Q52 273 56 264 Q58 260 60 254.5 Q62 249 67 247 Q72 245 78 247.5 Q84 250 88 252 Q96 256 103 259.5 Q110 263 120 268 Q130 272 131 270 Z " />
<glyph glyph-name="b" unicode="b" horiz-adv-x="250" d="M-21 242 Q2 265 26 286 Q50 307 83 315 Q89 317 95.5 316 Q102 315 106 312 Q111 309 112 303.5 Q113 298 112 292 Q110 278 100 263 Q90 248 79 240 Q105 245 130 251 Q155 257 180 268 Q192 274 204.5 279.5 Q217 285 230 291 Q232 291 234.5 292.5 Q237 294 241 296 Q245 298 250 300 Q255 298 253 294.5 Q251 291 249 290 Q223 278 192 264.5 Q161 251 135 244 Q121 240 107.5 237.5 Q94 235 80 233 Q68 230 58 224 Q48 216 37.5 211 Q27 206 14 204 Q9 203 0.5 202.5 Q-8 202 -10 207 Q-12 213 -6.5 217.5 Q-1 222 8 226 Q17 230 27 232 Q37 234 45 235 Q58 236 67 245 Q75 253 83 262 Q91 271 96 282 Q98 286 100 291 Q102 296 101 300 Q99 305 95 306 Q91 307 86 306 Q74 304 62 298 Q50 292 39 285 Q19 271 1 253 Q-8 244 -13 238.5 Q-18 233 -24 227 Q-26 225 -29.5 220.5 Q-33 216 -36 217 Q-40 218 -39 222.5 Q-38 227 -37 229 Q-29 249 -18.5 267 Q-8 285 1 303 Q15 328 28.5 352.5 Q42 377 56 403 Q84 453 112.5 502 Q141 551 169 602 Q196 653 228 705 Q260 757 301 825 Q303 829 305.5 827 Q308 825 307 823 Q286 786 264.5 750.5 Q243 715 222 679 Q167 580 112.5 482.5 Q58 385 3 285 Q-3 274 -8.5 264 Q-14 254 -21 242 Z M38 225 Q27 223 17.5 220 Q8 217 -2 211 Q9 212 19 216 Q29 220 38 225 Z " />
<glyph glyph-name="c" unicode="c" horiz-adv-x="236" d="M-6 203 Q-11 203 -20.5 206.5 Q-30 210 -33 219 Q-37 232 -31.5 250.5 Q-26 269 -8 291 Q-2 299 6.5 306 Q15 313 24 314 Q32 316 37 309 Q39 306 39.5 300 Q40 294 35 292 Q30 290 29.5 294.5 Q29 299 27 301 Q24 303 19.5 299 Q15 295 13 293 Q-11 266 -17 248.5 Q-23 231 -20 223 Q-17 215 -8.5 214 Q0 213 8 214 Q19 216 31.5 219 Q44 222 55 225 Q76 231 97 239 Q118 247 139 256 Q150 261 166 267.5 Q182 274 198 282 Q216 290 236 300 Q242 297 239.5 294.5 Q237 292 235 291 Q224 286 212 280.5 Q200 275 189 270 Q177 265 152 253.5 Q127 242 98 230.5 Q69 219 41 210.5 Q13 202 -6 203 Z " />
<glyph glyph-name="a" unicode="a" horiz-adv-x="264" d="M40 272 Q47 277 53 283 Q59 289 66 294 Q67 295 70.5 298.5 Q74 302 78.5 304.5 Q83 307 86.5 308 Q90 309 91 305 Q93 302 90.5 297.5 Q88 293 86 290 Q84 285 76 270.5 Q68 256 65 245 Q63 238 62.5 227.5 Q62 217 70 214 Q78 210 88.5 211.5 Q99 213 107 215 Q124 220 142 228.5 Q160 237 176.5 246 Q193 255 206.5 263.5 Q220 272 228 277 Q232 279 238 283 Q244 287 250 291 Q257 295 264 300 Q270 298 264 294 L255 288 Q247 283 228.5 271 Q210 259 187 245.5 Q164 232 140.5 221 Q117 210 100 207 Q89 205 79 205.5 Q69 206 62 211 Q56 216 54 223.5 Q52 231 53 239 Q55 250 58 257.5 Q61 265 64 274 Q48 260 35.5 250 Q23 240 6 225 Q1 221 -8.5 215 Q-18 209 -28 204.5 Q-38 200 -46.5 199.5 Q-55 199 -57 208 Q-60 224 -49.5 242.5 Q-39 261 -30 272 Q-19 284 -5.5 296 Q8 308 24 312 Q32 314 39 312 Q46 310 48 302 Q50 293 47.5 285.5 Q45 278 40 272 Z M42 293 Q41 307 28 302 Q20 300 11.5 294 Q3 288 -2 282 Q-13 270 -22.5 259.5 Q-32 249 -40 232 Q-43 226 -44 219.5 Q-45 213 -42 212 Q-39 212 -32 215 Q-25 218 -18 223 Q-11 228 -4 232.5 Q3 237 6 240 Q9 243 12.5 245.5 Q16 248 19 251 Q22 253 23.5 258 Q25 263 27 265 Q32 271 37 278 Q42 285 42 293 Z " />
<glyph glyph-name="quotedblright" unicode="&#x201d;" horiz-adv-x="343" d="M302 734 Q307 732 304 726 Q297 712 290 699.5 Q283 687 275 674 Q271 667 267 671 Q265 673 269 681.5 Q273 690 276 696 L293 729 Q295 732 297 734 Q299 736 302 734 Z M332 729 Q334 728 332 723 Q324 708 315 693 Q314 691 311.5 687 Q309 683 307 685 Q305 686 307 691 Q315 708 326 725 Q327 726 328.5 728 Q330 730 332 729 Z " />
<glyph glyph-name="quotedblleft" unicode="&#x201c;" horiz-adv-x="345" d="M302 734 Q307 732 304 726 Q297 712 290 699.5 Q283 687 275 674 Q271 667 267 671 Q265 673 269 681.5 Q273 690 276 696 L293 729 Q295 732 297 734 Q299 736 302 734 Z M332 729 Q334 728 332 723 Q324 708 315 693 Q314 691 311.5 687 Q309 683 307 685 Q305 686 307 691 Q315 708 326 725 Q327 726 328.5 728 Q330 730 332 729 Z " />
<glyph glyph-name="quoteright" unicode="&#x2019;" horiz-adv-x="327" d="M289 667 Q293 681 298.5 695.5 Q304 710 312 723 Q315 728 317 726.5 Q319 725 318 723 L304 692 L293 666 Q292 664 290 664.5 Q288 665 289 667 Z " />
<glyph glyph-name="quoteleft" unicode="&#x2018;" horiz-adv-x="327" d="M289 667 Q293 681 298.5 695.5 Q304 710 312 723 Q315 728 317 726.5 Q319 725 318 723 L304 692 L293 666 Q292 664 290 664.5 Q288 665 289 667 Z " />
</font>
</svg>
