<?xml version="1.0" encoding="UTF-8"?>
<svg xmlns="http://www.w3.org/2000/svg" xmlns:xlink="http://www.w3.org/1999/xlink" version="1.2" >
<font id="Gold Port Sans">
<font-face  font-family="Gold Port Sans" units-per-em="1000" ascent="750" descent="-250" font-style="normal" font-weight="400" font-stretch="normal" cap-height="700" x-height="500" underline-position="-75" underline-thickness="50" />
<missing-glyph  horiz-adv-x="201" d="" />
<glyph glyph-name="NULL" d="" />
<glyph glyph-name="nonmarkingreturn" unicode="&#xd;" horiz-adv-x="201" d="" />
<glyph glyph-name="space" unicode="&#x20;" horiz-adv-x="201" d="" />
<glyph glyph-name="F" unicode="F" horiz-adv-x="545" d="M60 314 Q60 386 58 458 Q56 530 56 602 Q56 605 58 608 Q60 611 60 614 Q60 618 61 620 Q62 624 66 625 Q68 626 69 627.5 Q70 629 72 629 Q78 631 82 631 L488 631 Q491 631 493.5 630 Q496 629 499 629 Q501 629 502 628 Q503 627 505 627 Q512 625 513 621 Q513 619 513.5 618 Q514 617 514 616 Q514 614 513 612.5 Q512 611 512 609 Q512 586 513 564 Q514 542 514 520 L514 513 Q514 512 513 511 Q512 510 512 509 Q510 502 505 502 Q503 501 500.5 502 Q498 503 496 503 Q494 503 491 502.5 Q488 502 485 502 Q419 502 354 501 Q289 500 223 500 Q220 500 217 499.5 Q214 499 212 499 Q210 499 209 499.5 Q208 500 207 500 Q205 499 203 494 Q203 493 202 492.5 Q201 492 201 490 Q201 488 200 486.5 Q199 485 199 483 Q199 463 200 444.5 Q201 426 201 407 Q201 399 202 396 Q204 389 207 389 Q208 388 209 390 Q210 392 211 392 Q213 392 215.5 391 Q218 390 220 390 Q231 390 242.5 389.5 Q254 389 266 389 Q298 389 329 388 Q360 387 392 387 Q395 387 397.5 388.5 Q400 390 402 390 Q416 390 416 376 Q416 374 415 372 Q414 370 414 368 Q414 347 416.5 326.5 Q419 306 418 285 Q418 281 417 278 Q416 275 416 271 Q415 267 412.5 266.5 Q410 266 407 265 Q405 265 404 263 Q403 261 401 261 Q399 261 396 262.5 Q393 264 391 264 Q348 264 305.5 262 Q263 260 220 260 L209 260 Q201 260 200 255 Q200 253 201 252 Q202 251 202 249 Q202 247 201.5 244.5 Q201 242 201 239 Q201 185 202 131 Q203 77 203 22 Q203 20 201.5 17 Q200 14 200 11 L200 5 Q199 -1 193 -2 Q187 -4 185 -4 Q180 -4 175.5 -2.5 Q171 -1 166 -1 Q145 -1 123.5 -2.5 Q102 -4 81 -4 Q78 -4 75.5 -3 Q73 -2 71 -2 Q70 -2 69 -2.5 Q68 -3 66 -2 Q64 -1 61 0.5 Q58 2 57 4 Q56 6 56.5 8 Q57 10 57 12 L57 24 Q57 97 58.5 169 Q60 241 60 314 Z " />
<glyph glyph-name="E" unicode="E" horiz-adv-x="616" d="M60 313 L60 604 Q60 607 60.5 610 Q61 613 61 616 Q61 618 60 619 Q59 620 59 622 Q60 626 67 628 Q69 629 74 629 Q76 629 78.5 630 Q81 631 83 631 L559 631 Q562 631 565 630.5 Q568 630 571 630 Q582 628 582 618 Q583 615 583 610 Q583 587 582.5 565.5 Q582 544 582 521 Q582 519 583 516 Q584 513 584 511 Q583 505 573 503 Q571 503 569.5 501.5 Q568 500 566 500 Q564 500 561 500.5 Q558 501 556 501 L225 501 Q223 501 220 501.5 Q217 502 214 502 L208 502 Q206 501 204 500 Q202 499 201 497 Q201 495 202 494 Q203 493 203 492 Q203 490 202 488 Q201 486 201 484 Q201 465 201.5 446 Q202 427 202 408 L202 398 Q204 391 210 389 Q212 389 214.5 389.5 Q217 390 219 390 Q226 389 233 390 Q240 391 248 391 Q290 391 330.5 390 Q371 389 413 389 Q415 389 417.5 390 Q420 391 422 391 Q424 391 424.5 390.5 Q425 390 427 390 Q431 389 433 382 Q435 376 435 373 Q435 365 434.5 358 Q434 351 434 343 Q434 329 436 314.5 Q438 300 438 286 Q438 284 436.5 282 Q435 280 435 278 Q434 276 436 274.5 Q438 273 438 271 Q436 265 427 263 Q425 263 424 264 Q423 265 421 265 Q419 265 416 263 Q413 261 410 261 Q364 261 317.5 263.5 Q271 266 224 266 Q221 266 218.5 265 Q216 264 213 264 Q212 264 209 261 Q207 260 204.5 260 Q202 260 201 258 Q201 257 201.5 256 Q202 255 202 254 Q202 252 203 249.5 Q204 247 204 245 Q204 219 203 194.5 Q202 170 202 144 Q202 137 203 134 Q203 125 211 125 Q213 125 214 125.5 Q215 126 216 126 Q219 126 222 125.5 Q225 125 228 125 Q311 125 393 126.5 Q475 128 558 128 Q563 128 571 126 Q583 126 583 114 Q583 112 582.5 110.5 Q582 109 582 107 L582 17 Q582 15 582.5 12.5 Q583 10 582 8 Q582 1 572 -1 Q571 -1 570 -1.5 Q569 -2 568 -2 Q566 -2 563 -3 Q560 -4 558 -4 Q439 -4 321 -3 Q203 -2 84 -2 Q82 -2 79.5 -1 Q77 0 74 0 Q73 0 72 -1 Q71 -2 70 -1 Q60 -1 60 8 Q60 10 61 11 Q62 12 62 14 Q61 16 60 19 Q59 22 59 24 Q59 97 59.5 169 Q60 241 60 313 Z " />
<glyph glyph-name="G" unicode="G" horiz-adv-x="673" d="M624 186 L624 45 Q624 42 623 39 Q622 36 622 33 Q621 25 613 22 Q611 21 609 19.5 Q607 18 605 17 Q561 3 517 -4 Q503 -6 490 -5.5 Q477 -5 464 -7 Q440 -9 416.5 -9.5 Q393 -10 370 -8 Q338 -6 307.5 -2.5 Q277 1 248 12 Q228 20 209.5 30.5 Q191 41 173 53 Q157 64 144 76.5 Q131 89 119 103 Q111 112 102.5 119.5 Q94 127 88 137 Q80 149 75.5 162.5 Q71 176 66 189 Q53 220 48 249 Q46 262 43.5 274.5 Q41 287 40 300 Q40 314 42 328 Q44 342 46 356 Q48 369 49.5 382 Q51 395 55 409 Q68 457 97 499 Q102 507 109 513 Q116 519 122 526 Q138 547 159 563 Q165 568 171.5 572.5 Q178 577 186 582 Q200 590 215 596.5 Q230 603 245 608 Q269 617 293 624 Q317 631 342 634 Q361 636 380 636.5 Q399 637 418 637 Q433 636 447.5 634.5 Q462 633 476 631 Q493 629 510 628.5 Q527 628 544 624 Q560 621 575 617 Q590 613 605 608 Q607 607 608.5 606 Q610 605 612 604 Q617 602 618 599.5 Q619 597 620 592 Q620 590 622 589 Q624 588 624 586 Q624 563 623.5 541.5 Q623 520 623 497 Q623 494 621 488 Q621 485 618 483.5 Q615 482 612 482 Q611 482 611 483 Q611 484 610 484 Q608 484 607 483.5 Q606 483 605 483 Q591 488 576.5 492.5 Q562 497 547 499 Q530 502 513.5 502.5 Q497 503 480 505 Q459 507 437.5 508.5 Q416 510 395 510 Q378 509 360 508.5 Q342 508 325 503 Q312 500 300 495 Q288 490 276 484 Q237 464 214 428 Q205 414 200 398.5 Q195 383 191 366 Q189 354 186 341.5 Q183 329 183 316 Q183 303 185.5 291 Q188 279 190 266 Q197 221 224 186 Q249 156 285 139 Q299 133 313.5 127.5 Q328 122 343 119 Q355 117 367.5 117.5 Q380 118 392 118 Q405 118 417.5 117 Q430 116 444 116 L469 116 Q475 117 477.5 121 Q480 125 480 130 L480 136 Q480 161 478.5 185 Q477 209 477 234 Q477 236 478 237.5 Q479 239 479 241 Q479 243 480 244 Q481 245 480 246 Q478 250 474 252 L467 252 Q461 252 455.5 252.5 Q450 253 444 253 L401 253 Q399 253 397 251 Q395 249 393 250 Q386 250 384 261 Q384 263 383 265 Q382 267 382 269 Q381 275 381.5 280.5 Q382 286 382 292 Q382 303 381.5 312.5 Q381 322 381 332 Q381 335 382.5 337.5 Q384 340 385 343 Q387 351 392 352 Q393 352 394 351.5 Q395 351 397 351 Q399 351 402 351.5 Q405 352 407 352 Q455 352 501.5 351 Q548 350 596 350 Q600 350 603 350.5 Q606 351 610 350 Q620 350 620 340 Q621 337 622 333.5 Q623 330 623 327 Q623 292 623.5 256.5 Q624 221 624 186 Z " />
<glyph glyph-name="I" unicode="I" horiz-adv-x="260" d="M200 314 Q200 242 201.5 170 Q203 98 203 26 Q203 22 202.5 19 Q202 16 201 12 Q201 -2 190 -3 Q188 -3 186.5 -2.5 Q185 -2 183 -2 L79 -2 Q77 -2 75 -0.5 Q73 1 71 1 Q67 1 67 1 Q63 2 62 6 Q60 12 60 13 L60 27 L60 283 Q60 363 59 442 Q58 521 58 601 Q58 606 60 609.5 Q62 613 62 618 Q63 624 64.5 625.5 Q66 627 72 628 Q74 628 76 629 Q78 630 80 630 Q106 630 131.5 629 Q157 628 183 628 Q185 628 188 628.5 Q191 629 193 628 Q202 626 203 621 Q203 619 202 618 Q201 617 201 615 Q201 611 202.5 608 Q204 605 204 602 Q204 530 202 458 Q200 386 200 314 Z " />
<glyph glyph-name="J" unicode="J" horiz-adv-x="332" d="M282 377 Q282 321 282.5 266.5 Q283 212 283 156 Q283 149 283.5 142.5 Q284 136 283 128 Q281 111 276 95 Q271 79 262 65 Q242 31 204 12 Q189 4 174 -1.5 Q159 -7 143 -9 Q129 -11 114 -10.5 Q99 -10 84 -9 Q70 -7 56.5 -4 Q43 -1 29 4 Q27 4 25.5 2.5 Q24 1 22 2 Q19 4 19 7 Q19 10 18 12 Q18 14 17.5 15 Q17 16 17 18 Q17 20 15 22.5 Q13 25 13 27 Q13 47 15 68 Q17 89 17 110 Q17 112 16 114 Q15 116 15 118 Q15 119 18 122 Q20 131 26 130 Q28 130 30.5 128 Q33 126 35 126 Q46 123 57 122.5 Q68 122 79 120 Q97 117 112 118 Q115 118 118 117 Q121 116 124 117 Q135 120 139 133 Q140 135 140 137.5 Q140 140 141 142 Q141 146 142 149.5 Q143 153 143 157 Q143 160 141.5 163 Q140 166 140 170 Q140 279 140.5 385.5 Q141 492 141 601 Q141 605 140 608.5 Q139 612 139 615 Q139 617 140 618 Q141 619 141 621 Q143 627 148 628 Q150 629 151 630 Q152 631 154 631 Q156 631 158 629.5 Q160 628 162 628 Q187 628 211.5 628.5 Q236 629 260 629 Q262 629 264.5 629.5 Q267 630 269 630 Q273 630 275 629 Q283 629 283 620 Q284 618 282 617 Q280 616 281 614 Q281 611 283 608 Q285 605 285 603 Q285 546 283.5 490 Q282 434 282 377 Z " />
<glyph glyph-name="H" unicode="H" horiz-adv-x="666" d="M60 314 Q60 386 59.5 458 Q59 530 59 602 Q59 612 60 616 Q60 628 71 629 Q73 629 75 629.5 Q77 630 79 630 Q104 630 128.5 629 Q153 628 178 628 L186 628 Q188 628 189 629.5 Q190 631 192 631 Q197 630 199 620 Q199 618 200 615 Q201 612 201 610 Q202 607 201.5 604 Q201 601 201 598 Q201 551 200 504.5 Q199 458 199 411 Q199 408 200.5 405.5 Q202 403 202 400 L202 396 Q203 394 207 392 L210 392 Q212 392 214.5 390 Q217 388 219 388 Q276 388 332 388.5 Q388 389 445 389 Q448 389 450.5 388.5 Q453 388 456 388 Q459 389 462 391.5 Q465 394 465 398 Q466 399 465 400.5 Q464 402 464 403 L464 414 L464 603 Q464 606 465 608.5 Q466 611 466 614 Q466 617 467 619 Q467 628 473 629 Q474 629 475 628.5 Q476 628 478 628 Q480 628 481 629 Q482 630 484 630 Q510 630 535 629 Q560 628 586 628 Q588 628 589 628.5 Q590 629 592 629 Q594 629 595 630 Q596 631 597 630 Q603 629 605 620 Q605 618 604.5 617 Q604 616 604 614 Q604 611 604.5 607.5 Q605 604 605 601 Q605 456 606.5 313 Q608 170 608 25 Q608 21 606 13 Q606 11 604.5 9.5 Q603 8 603 6 Q601 1 597 0 L593 0 Q591 0 589 -2 Q587 -4 585 -4 Q559 -4 534.5 -3.5 Q510 -3 484 -3 Q482 -3 480 -3.5 Q478 -4 476 -4 Q474 -4 473.5 -2 Q473 0 471 0 Q465 2 464 6 Q462 10 462 12 L462 24 Q462 78 463.5 132.5 Q465 187 465 241 Q465 244 465.5 246.5 Q466 249 466 252 Q466 254 464.5 254.5 Q463 255 462 257 Q461 259 460.5 261 Q460 263 457 264 Q456 264 455 263.5 Q454 263 452 263 Q450 263 448 264 Q446 265 444 265 L220 265 Q217 265 214 263.5 Q211 262 208 262 Q204 262 203 256 Q203 255 201 255 Q199 255 199 254 Q199 252 201 251.5 Q203 251 203 249 Q203 247 201 244.5 Q199 242 199 239 Q199 186 199.5 133.5 Q200 81 200 27 Q200 24 200.5 21 Q201 18 200 15 Q200 13 199 11.5 Q198 10 197 8 Q197 -2 191 -3 L184 -3 Q180 -3 176 -2 Q172 -1 168 -1 Q146 -1 124.5 -1.5 Q103 -2 80 -2 Q78 -2 76 -3 Q74 -4 72 -4 Q70 -4 69.5 -2 Q69 0 67 1 Q64 1 61 2 Q58 3 57 7 Q57 9 58.5 10.5 Q60 12 60 14 Q60 17 58 20.5 Q56 24 56 27 Q56 99 58 170.5 Q60 242 60 314 Z " />
<glyph glyph-name="K" unicode="K" horiz-adv-x="642" d="M60 315 Q60 387 61 459.5 Q62 532 62 604 Q62 607 61.5 610 Q61 613 61 617 L61 622 Q62 625 64 625.5 Q66 626 69 627 Q70 628 73 628 Q75 628 76.5 628.5 Q78 629 80 629 Q106 629 132 630 Q158 631 184 631 L193 631 Q194 631 195 630.5 Q196 630 197 630 Q201 629 201 623 Q202 621 203 620 Q204 619 205 617 Q205 614 205.5 611 Q206 608 206 605 Q206 547 205.5 490 Q205 433 205 375 Q205 372 204 369 Q203 366 204 363 Q204 362 203 361 Q202 360 203 359 Q203 357 205.5 356.5 Q208 356 210 357 Q211 357 210.5 358.5 Q210 360 211 361 Q219 369 227 377 Q235 385 243 393 Q244 395 245.5 395 Q247 395 248 397 Q257 407 267 416 Q277 425 286 436 Q296 447 306 458 Q316 469 327 480 Q328 481 327.5 481.5 Q327 482 328 483 Q338 494 348 503.5 Q358 513 368 523 Q382 538 395 553.5 Q408 569 422 584 Q430 592 439 600 Q448 608 456 617 Q457 619 456 621 Q455 623 457 625 Q463 631 472 631 Q474 631 476.5 630 Q479 629 481 629 Q512 629 543 628.5 Q574 628 606 628 Q608 628 610 628.5 Q612 629 614 629 Q616 629 616.5 628.5 Q617 628 618 628 Q621 627 623.5 624.5 Q626 622 624 620 Q622 618 619 617 Q616 616 614 614 Q609 609 605 602.5 Q601 596 596 591 Q585 580 574.5 568.5 Q564 557 553 546 Q545 538 538 531 Q531 524 524 516 Q513 504 501 492.5 Q489 481 478 470 Q469 460 461 449.5 Q453 439 444 430 Q433 419 422.5 409 Q412 399 401 388 Q394 381 387 374.5 Q380 368 373 360 Q371 358 371.5 356.5 Q372 355 370 353 Q366 347 370 342 Q371 340 370.5 337.5 Q370 335 372 333 Q383 319 395.5 305.5 Q408 292 419 278 Q437 255 454.5 232.5 Q472 210 490 187 Q508 164 526.5 141.5 Q545 119 563 96 Q579 76 595 56.5 Q611 37 627 17 Q629 15 631 9 Q634 6 634 7 Q635 5 632 2 Q630 1 627 1 Q625 1 622.5 -0.5 Q620 -2 618 -2 Q586 -2 553.5 -0.5 Q521 1 489 1 L480 1 Q474 1 471 4 Q469 6 467 7 Q465 8 463 10 Q438 44 414 74 Q393 102 373.5 130.5 Q354 159 333 187 Q322 201 310 215 Q298 229 287 243 L281 249 Q276 253 271 249 Q270 248 268.5 248 Q267 248 266 247 Q261 242 257 238.5 Q253 235 249 230 L225 203 Q220 199 217.5 194 Q215 189 210 184 Q208 181 206 178.5 Q204 176 204 171 Q204 169 204.5 166 Q205 163 205 161 Q205 126 205.5 92.5 Q206 59 206 24 Q206 21 205.5 18.5 Q205 16 205 13 Q205 11 204 10 Q203 9 203 7 Q201 -1 196 -2 Q195 -2 194 -0.5 Q193 1 191 1 Q189 1 187 0.5 Q185 0 183 0 Q157 0 132.5 -1.5 Q108 -3 82 -3 Q79 -3 76 -2 Q73 -1 71 -1 Q66 0 64 9 Q64 11 62 12 Q60 13 60 15 Q60 18 59.5 21 Q59 24 59 27 Q59 99 59.5 171 Q60 243 60 315 Z " />
<glyph glyph-name="L" unicode="L" horiz-adv-x="583" d="M40 317 Q40 389 41.5 461 Q43 533 43 605 Q43 610 45 618 Q45 620 44.5 621.5 Q44 623 44 625 Q45 628 50 630 Q52 631 52.5 630.5 Q53 630 55 630 L65 630 Q90 630 114.5 630.5 Q139 631 164 631 Q166 631 168 632.5 Q170 634 172 634 Q174 634 178 632 Q183 630 185 624 Q185 622 185.5 621 Q186 620 186 618 Q186 614 185 610.5 Q184 607 184 603 Q184 490 185 377.5 Q186 265 186 152 Q186 149 185 146 Q184 143 184 141 Q184 139 185.5 138 Q187 137 188 135 Q190 130 192 129 L198 129 Q200 129 203 128.5 Q206 128 209 128 Q293 128 375 129 Q457 130 540 130 Q543 130 546 128.5 Q549 127 552 126 L557 126 Q563 124 564 121 L564 117 Q564 116 565.5 115 Q567 114 567 113 Q567 89 565 65 Q563 41 563 18 Q563 16 565 14.5 Q567 13 566 11 Q566 6 562.5 4.5 Q559 3 555 3 Q553 3 552 2.5 Q551 2 549 2 Q547 2 544.5 1 Q542 0 540 0 L68 0 Q64 0 61 1.5 Q58 3 55 3 Q50 3 46 4.5 Q42 6 42 14 Q41 16 42.5 18 Q44 20 44 22 Q44 31 44.5 40 Q45 49 45 58 Q45 123 42.5 187.5 Q40 252 40 317 Z " />
<glyph glyph-name="M" unicode="M" horiz-adv-x="757" d="M697 313 Q697 240 696.5 167.5 Q696 95 696 23 L696 10 Q696 8 696.5 7 Q697 6 697 4 Q695 -3 691 -4 Q689 -4 688 -2.5 Q687 -1 685 -1 Q683 -1 681 -3 Q679 -5 677 -5 Q651 -5 626.5 -4 Q602 -3 577 -3 Q571 -3 568 -2 Q567 -2 566 -1.5 Q565 -1 564 -1 Q559 0 557 5 Q556 7 555 8 Q554 9 554 11 Q554 14 554.5 17 Q555 20 555 22 Q555 74 555.5 125 Q556 176 556 228 Q556 233 554.5 236.5 Q553 240 553 245 Q553 247 554 247.5 Q555 248 555 250 Q554 251 551 251 Q550 250 548.5 250 Q547 250 547 249 Q545 245 545.5 241 Q546 237 544 233 Q527 188 508.5 145 Q490 102 473 58 Q468 46 463.5 34.5 Q459 23 454 12 Q453 9 451 5 Q449 2 446.5 1.5 Q444 1 441 0 Q439 0 436.5 -1 Q434 -2 431 -2 L384 -2 Q370 -2 355 -3.5 Q340 -5 326 -5 Q324 -5 321.5 -3 Q319 -1 316 -1 Q310 -1 307 5 Q305 7 305 9.5 Q305 12 303 14 Q299 25 293 34.5 Q287 44 282 55 Q267 94 252.5 133 Q238 172 223 211 Q220 219 216.5 225.5 Q213 232 210 239 Q209 243 206 247 Q205 249 205 251 Q205 253 203 252 Q200 252 200 247 Q200 245 201 242.5 Q202 240 202 238 L202 227 Q202 176 200 125 Q198 74 198 22 Q198 20 199 17 Q200 14 200 11 Q200 9 199 8 Q198 7 198 6 Q197 1 192 0 Q188 -2 185 -2 Q180 -2 174.5 -3.5 Q169 -5 164 -5 Q143 -5 122 -3.5 Q101 -2 81 -2 Q78 -2 75.5 -2.5 Q73 -3 71 -3 Q69 -3 68.5 -1.5 Q68 0 66 1 Q63 2 62 5 Q61 7 59 7.5 Q57 8 57 10 Q57 13 58.5 16 Q60 19 60 21 Q60 168 59.5 313 Q59 458 59 604 Q59 607 59.5 610 Q60 613 60 617 Q61 627 70 627 Q72 628 74.5 627.5 Q77 627 79 627 Q105 628 130 627.5 Q155 627 181 627 Q183 627 185.5 627.5 Q188 628 190 628 Q200 627 204 619 Q205 617 206 615 Q207 613 208 611 Q230 557 250 502.5 Q270 448 292 393 Q303 366 314 339.5 Q325 313 336 286 Q345 264 354.5 242.5 Q364 221 372 199 Q374 196 374 193 Q374 190 376 188 Q379 185 381 187 Q382 188 381 189 Q380 190 380 191 Q382 193 383.5 194.5 Q385 196 386 198 Q388 203 388.5 208 Q389 213 391 218 Q408 260 424.5 301.5 Q441 343 458 385 Q469 413 481.5 440 Q494 467 505 496 L550 610 Q552 612 552 615 Q552 618 554 621 Q556 625 564 627 Q566 627 568.5 629 Q571 631 573 631 Q599 631 626 630 Q653 629 679 628 Q681 628 684 629 Q687 630 690 630 Q693 629 694 625.5 Q695 622 696 619 Q696 617 696.5 616 Q697 615 697 613 Q697 610 697.5 607 Q698 604 698 601 Q698 529 697.5 457 Q697 385 697 313 Z " />
<glyph glyph-name="N" unicode="N" horiz-adv-x="670" d="M610 313 Q610 241 609 170 Q608 99 608 27 Q608 23 609 19.5 Q610 16 609 12 Q609 7 608 5 Q606 -1 601 -1 Q600 -2 596 -2 Q594 -2 592.5 -1 Q591 0 589 0 Q562 0 535.5 -1.5 Q509 -3 483 -3 Q481 -3 478.5 -2 Q476 -1 474 -1 Q467 1 465 4 Q460 7 459 11 Q452 21 445 29.5 Q438 38 431 48 Q418 68 405 86.5 Q392 105 379 125 Q360 153 342 180.5 Q324 208 305 235 Q289 258 275 282 Q261 306 245 329 Q237 340 229 351.5 Q221 363 213 374 Q211 377 207 381 Q207 385 204 385 Q203 384 203 382.5 Q203 381 202 380 L202 374 Q202 370 200.5 367 Q199 364 199 360 Q199 276 200.5 193.5 Q202 111 201 27 L201 12 Q201 10 201.5 8.5 Q202 7 201 5 Q201 1 194 -1 Q193 -2 189 -2 L181 -2 Q155 -2 130 -3 Q105 -4 79 -4 Q77 -4 74.5 -2.5 Q72 -1 70 0 Q68 0 66 1 Q62 2 62 6 Q60 10 60 13 Q59 17 58 20.5 Q57 24 57 27 Q57 124 58.5 220.5 Q60 317 60 414 Q60 461 59.5 507 Q59 553 59 600 Q59 605 58 609 Q57 613 57 618 Q59 629 70 631 Q72 631 74.5 630 Q77 629 79 629 Q105 629 131 629.5 Q157 630 183 630 Q186 630 188.5 629.5 Q191 629 193 629 Q200 629 205 623 Q209 619 210 617 Q224 597 236.5 575.5 Q249 554 263 533 Q277 511 293 489.5 Q309 468 324 446 Q337 426 349.5 406 Q362 386 375 366 Q390 344 405.5 323.5 Q421 303 435 281 Q440 274 444.5 267 Q449 260 454 252 Q455 250 457 249.5 Q459 249 461 247 Q463 246 464 247 Q464 249 465.5 249.5 Q467 250 467 252 Q467 255 466.5 258.5 Q466 262 466 265 Q466 350 464.5 433.5 Q463 517 463 602 Q463 606 464.5 609.5 Q466 613 467 616 Q467 623 469 624.5 Q471 626 478 627 Q480 627 482.5 629 Q485 631 487 631 L586 631 Q588 631 589 630.5 Q590 630 592 630 Q594 630 595 629 Q596 628 598 628 Q605 627 606 619 Q606 616 607 613.5 Q608 611 608 608 Q609 605 608 602.5 Q607 600 607 597 Q607 526 608.5 455.5 Q610 385 610 313 Z " />
<glyph glyph-name="O" unicode="O" horiz-adv-x="750" d="M377 -11 Q347 -11 318.5 -8 Q290 -5 264 3 Q253 6 244 10.5 Q235 15 226 19 Q204 29 184 40 Q164 51 146 66 Q138 73 130.5 81 Q123 89 115 97 Q106 107 98.5 118.5 Q91 130 84 142 Q74 159 65 176.5 Q56 194 51 213 Q45 231 44 250 Q43 269 42 288 Q40 302 38.5 317 Q37 332 39 347 Q40 357 42 366.5 Q44 376 46 386 Q54 424 69.5 459 Q85 494 110 524 Q126 544 145 559.5 Q164 575 186 588 Q217 606 249.5 618 Q282 630 317 635 Q337 638 357 638 Q377 638 397 637 Q429 635 460.5 629 Q492 623 522 610 Q540 602 557 592.5 Q574 583 589 572 Q594 568 596.5 564 Q599 560 604 556 Q642 521 666 476 Q681 449 691 420.5 Q701 392 705 361 Q707 346 709 331.5 Q711 317 710 302 Q707 241 683 184 Q673 161 661.5 140 Q650 119 633 99 Q617 81 599.5 65 Q582 49 562 37 Q537 22 510.5 13.5 Q484 5 456 0 Q441 -3 426.5 -5.5 Q412 -8 398 -9 Q392 -9 386.5 -10 Q381 -11 377 -11 Z M375 116 Q379 116 383 117 Q387 118 391 118 Q405 119 418 120 Q431 121 444 125 Q470 133 490.5 149 Q511 165 528 187 Q546 213 554 239 Q566 273 566 309 Q567 316 565.5 322.5 Q564 329 563 336 Q562 350 561.5 364.5 Q561 379 556 393 Q549 413 537 429 Q525 445 510 459 Q486 485 458 496 Q441 504 423 506 Q405 508 387 509 Q376 510 365 510.5 Q354 511 343 509 Q330 507 318.5 504 Q307 501 296 497 Q279 490 263 481.5 Q247 473 234 459 Q229 454 224.5 447 Q220 440 215 434 Q204 417 197.5 398 Q191 379 187 359 Q185 347 182.5 335.5 Q180 324 180 311 Q180 297 181 284.5 Q182 272 185 258 Q192 229 210 200 Q225 175 250 156 Q266 143 283.5 134 Q301 125 321 120 Q334 118 347.5 117.5 Q361 117 375 116 Z " />
<glyph glyph-name="P" unicode="P" horiz-adv-x="605" d="M50 314 Q50 386 50.5 458 Q51 530 51 602 Q51 605 52.5 608 Q54 611 54 614 Q54 616 52 617.5 Q50 619 50 621 Q52 627 59 629 Q61 629 62.5 628.5 Q64 628 66 629 Q68 629 71 628.5 Q74 628 76 628 Q147 628 216.5 628.5 Q286 629 357 629 Q366 629 375 628.5 Q384 628 394 627 Q419 624 441.5 617.5 Q464 611 485 597 Q524 571 548 531 Q556 517 563.5 502.5 Q571 488 573 472 Q575 461 574 450.5 Q573 440 573 429 Q572 399 564.5 372 Q557 345 538 321 Q527 306 512.5 294.5 Q498 283 481 273 Q460 260 438 251.5 Q416 243 391 241 Q382 240 373 241 Q364 242 355 242 Q320 242 285 240 Q250 238 215 238 Q213 238 210.5 239.5 Q208 241 206 241 Q205 241 204 240 Q203 239 202 239 Q197 239 196 232 Q196 230 194 229.5 Q192 229 192 227 Q192 225 193.5 222.5 Q195 220 195 218 Q195 169 194.5 121 Q194 73 194 24 Q194 21 193.5 18 Q193 15 193 12 Q193 10 194 9 Q195 8 195 6 Q194 3 191 2 Q188 1 185 0 Q184 0 183 -1.5 Q182 -3 181 -3 Q179 -3 177 -2 Q175 -1 173 -1 Q147 -1 122.5 -2.5 Q98 -4 72 -4 Q68 -4 62 -2 Q52 -2 50 7 Q50 9 51.5 10.5 Q53 12 53 14 Q53 18 52.5 21 Q52 24 52 27 Q52 99 51 170.5 Q50 242 50 314 Z M289 501 L212 501 Q209 501 206 502.5 Q203 504 201 504 Q199 503 199 501 Q199 499 198 498 Q195 495 195 494 Q193 490 193 487 L193 382 Q193 380 193.5 379.5 Q194 379 194 377 Q194 374 194 374 Q194 370 200 368 Q202 368 202.5 367 Q203 366 205 366 Q207 366 209 367.5 Q211 369 213 369 Q249 369 285.5 367 Q322 365 359 365 Q364 365 369 366.5 Q374 368 379 369 Q408 374 422 393 Q435 410 433.5 432 Q432 454 423 470 Q414 484 402 493 Q390 502 373 503 Q369 504 365 502 Q361 500 357 500 Q340 500 323 500.5 Q306 501 289 501 Z " />
<glyph glyph-name="Q" unicode="Q" horiz-adv-x="752" d="M712 315 Q712 270 700 228 Q696 214 691 201 Q686 188 680 174 Q672 156 663 139 Q654 122 642 107 Q629 91 611 75 Q609 73 607.5 71.5 Q606 70 604 68 Q601 65 604 58 Q605 56 603.5 54 Q602 52 604 50 Q608 43 614.5 39 Q621 35 628 30 Q633 27 638.5 23 Q644 19 650 17 Q658 14 666 12.5 Q674 11 682 9 Q685 9 688.5 9 Q692 9 695 8 Q697 8 697.5 7.5 Q698 7 700 7 Q705 5 703 0 Q702 -3 702 -6 Q702 -9 700 -11 Q696 -18 692.5 -24 Q689 -30 685 -36 Q677 -50 668.5 -63 Q660 -76 652 -90 Q650 -92 649.5 -94 Q649 -96 647 -98 Q643 -103 635 -103 Q633 -104 633 -104 Q609 -102 586.5 -98 Q564 -94 542 -83 Q532 -78 524 -71.5 Q516 -65 508 -58 Q499 -50 491 -43.5 Q483 -37 476 -28 L467 -16 Q466 -14 464 -12 Q461 -7 459.5 -6 Q458 -5 452 -6 Q449 -7 446 -6 Q443 -5 440 -5 Q419 -10 400 -11 Q393 -11 386 -10.5 Q379 -10 372 -10 Q347 -9 323 -8 Q299 -7 275 -1 Q248 7 223 19.5 Q198 32 175 48 Q165 55 155.5 61.5 Q146 68 137 76 Q128 84 120 94 Q112 104 104 114 Q96 125 90 136.5 Q84 148 78 160 Q72 173 66 185 Q60 197 55 211 Q52 223 49 235 Q46 247 44 259 Q42 267 41 276 Q40 285 40 293 Q40 304 40 315 Q40 326 41 337 Q41 343 42 349 Q43 355 44 360 Q48 389 55.5 416 Q63 443 76 469 Q84 485 94.5 499 Q105 513 117 527 Q134 547 154.5 562.5 Q175 578 198 591 Q215 601 233 608 Q251 615 271 620 Q288 625 305 628.5 Q322 632 339 634 Q354 636 368.5 637.5 Q383 639 398 638 Q433 636 466 627.5 Q499 619 531 605 Q547 597 561.5 588 Q576 579 590 568 Q602 558 613 547.5 Q624 537 634 525 Q669 485 687 438 Q695 418 700 397.5 Q705 377 707 356 Q708 350 708.5 344.5 Q709 339 709 334 Q709 329 710.5 324.5 Q712 320 712 315 Z M377 115 Q382 116 386 115.5 Q390 115 395 115 Q404 116 413 116.5 Q422 117 431 119 Q458 125 480 139 Q502 153 521 174 Q543 199 555 231 Q568 265 569 299 Q569 306 568 312.5 Q567 319 567 326 Q567 336 567.5 346 Q568 356 566 365 Q561 388 550 408 Q539 428 525 446 Q519 453 514 460.5 Q509 468 502 473 Q472 496 433 505 Q418 509 402.5 510 Q387 511 372 511 Q358 510 345.5 509 Q333 508 320 505 Q295 499 273 487 Q254 476 240 460.5 Q226 445 215 427 Q193 390 187 348 Q186 338 184.5 328.5 Q183 319 183 309 Q183 298 184.5 287 Q186 276 188 265 Q194 235 206.5 209 Q219 183 241 162 Q247 156 253.5 151.5 Q260 147 268 142 Q293 127 324 121 Q337 118 350 117 Q363 116 377 115 Z " />
<glyph glyph-name="R" unicode="R" horiz-adv-x="614" d="M55 313 Q55 385 55.5 456 Q56 527 56 599 Q56 602 56.5 605.5 Q57 609 57 612 Q57 614 59 620 Q59 626 67 626 Q73 628 76 628 L111 628 Q174 628 236.5 628.5 Q299 629 362 629 Q367 629 372.5 627.5 Q378 626 383 626 Q425 626 464 608 Q476 603 487 596.5 Q498 590 509 582 Q517 575 524.5 569 Q532 563 539 555 Q562 526 573 487 Q578 470 581 452.5 Q584 435 582 418 Q580 403 576.5 388 Q573 373 567 359 Q564 353 559.5 348.5 Q555 344 550 339 Q548 337 546 334 Q544 331 542 329 Q541 327 539 327.5 Q537 328 536 326 Q535 324 536.5 322.5 Q538 321 539 319 Q541 317 541.5 315.5 Q542 314 544 312 Q548 307 552 302 Q556 297 559 292 Q566 283 569 275 Q573 264 574.5 253.5 Q576 243 577 232 Q578 214 577 198 Q576 196 577.5 193.5 Q579 191 579 189 L579 107 Q579 97 579 88 Q579 79 580 69 Q581 55 582.5 42 Q584 29 589 15 Q590 13 591.5 11.5 Q593 10 594 8 Q595 5 593.5 1.5 Q592 -2 588 -3 Q586 -4 584 -2 Q582 0 580 0 Q575 -1 569.5 -2 Q564 -3 558 -3 Q537 -3 516 -2 Q495 -1 475 -1 L465 -1 Q455 -1 452 6 Q450 8 450.5 10.5 Q451 13 450 15 Q445 29 442.5 43 Q440 57 439 71 Q437 82 437 94 Q437 106 438 117 Q438 137 436.5 157 Q435 177 435 197 Q435 200 434.5 203 Q434 206 434 209 Q434 225 426 234 Q421 239 414.5 242.5 Q408 246 401 248 Q393 251 386.5 251.5 Q380 252 372 253 L359 253 L219 253 Q216 253 213 253.5 Q210 254 207 253 Q201 253 199 246 Q199 245 200 244.5 Q201 244 201 243 Q201 241 201.5 240.5 Q202 240 202 238 Q202 236 201.5 234 Q201 232 201 230 Q201 179 201.5 128 Q202 77 202 26 Q202 16 201 12 Q201 10 199.5 8.5 Q198 7 198 5 Q196 -1 193 -2 Q192 -3 191 -2 Q190 -1 189 -1 Q187 -1 186 -2 Q185 -3 183 -3 Q156 -3 129 -2.5 Q102 -2 75 -2 L69 -2 Q69 -2 65 0 Q60 2 59 6 Q59 8 58 9.5 Q57 11 57 13 Q57 17 56 20.5 Q55 24 55 28 L55 313 Z M295 499 L295 500 Q276 500 257 500.5 Q238 501 218 501 Q215 501 212.5 501.5 Q210 502 207 501 Q199 501 199 494 Q199 492 199.5 490.5 Q200 489 200 487 Q200 461 199.5 435 Q199 409 199 383 Q199 381 200 380 Q201 379 201 377 Q201 376 200 375 Q199 374 199 373 Q201 367 206 365 Q207 365 208.5 365.5 Q210 366 211 366 Q213 366 215.5 366.5 Q218 367 220 367 Q248 367 276 366.5 Q304 366 332 366 Q342 366 351 367.5 Q360 369 370 369 Q375 369 385 371 Q404 374 418 385 Q432 396 437 414 Q439 421 438.5 427 Q438 433 437 440 Q436 453 433 465 Q430 477 420 486 Q412 494 402 496.5 Q392 499 381 500 Q371 502 366 502 Q348 502 330.5 500.5 Q313 499 295 499 Z " />
<glyph glyph-name="S" unicode="S" horiz-adv-x="556" d="M27 99 Q27 109 27.5 119 Q28 129 28 139 Q28 143 30 149 Q30 150 28.5 151.5 Q27 153 27 154 Q28 156 30.5 157.5 Q33 159 35 159 Q37 159 43 157 Q48 155 53.5 152.5 Q59 150 64 148 Q86 141 108.5 137 Q131 133 153 128 Q166 126 178 123.5 Q190 121 203 119 Q226 117 249.5 117.5 Q273 118 296 119 Q308 119 319.5 120 Q331 121 343 123 Q358 128 371 136 Q389 147 393 165 Q395 169 396.5 173 Q398 177 398 182 Q398 186 396.5 190 Q395 194 393 198 Q391 208 386.5 216 Q382 224 374 230 Q370 232 366 232.5 Q362 233 357 235 Q349 239 340.5 242.5 Q332 246 324 248 Q308 253 293 255.5 Q278 258 262 261 Q245 264 226.5 267 Q208 270 191 275 Q185 277 179.5 279 Q174 281 169 283 Q152 288 137 295 Q122 302 108 310 Q103 313 99 316 Q95 319 90 323 Q82 329 75 334.5 Q68 340 61 347 Q53 355 48 365 Q43 375 39 386 Q33 402 30.5 418 Q28 434 28 451 Q27 468 30 490 Q37 531 65 563 Q73 571 80 579.5 Q87 588 96 594 Q112 604 129.5 610.5 Q147 617 164 622 Q179 627 193.5 629 Q208 631 223 633 Q233 634 242.5 636.5 Q252 639 262 639 Q273 639 284 639 Q295 639 306 638 Q317 638 328 635.5 Q339 633 350 632 Q362 631 374 631.5 Q386 632 397 630 Q417 626 436 621 Q455 616 475 611 Q478 609 481 608.5 Q484 608 487 606 Q489 606 492 603 Q498 600 500 594 L500 589 Q500 587 499.5 585.5 Q499 584 499 582 Q499 562 501 541.5 Q503 521 503 500 Q503 498 501 496 Q499 494 499 492 Q499 490 499.5 489 Q500 488 499 486 Q498 482 491 482 Q488 483 483 483 Q478 485 473 486.5 Q468 488 463 490 Q449 493 435 495.5 Q421 498 407 501 Q393 503 378 502.5 Q363 502 349 504 Q336 506 324 506 Q312 506 299 507 Q288 508 277.5 510 Q267 512 256 511 Q248 511 239.5 509.5 Q231 508 223 506 Q217 505 211 504 Q205 503 200 501 Q187 496 181 488 Q170 477 168 459.5 Q166 442 175 428 Q178 424 181 420.5 Q184 417 189 415 Q194 412 199.5 411 Q205 410 210 408 Q219 405 227.5 401 Q236 397 245 395 Q260 391 275.5 390 Q291 389 305 386 Q324 383 342 377.5 Q360 372 378 367 Q402 359 426 349 Q434 345 441.5 342.5 Q449 340 456 335 Q462 331 468.5 327 Q475 323 480 318 Q484 314 488 311.5 Q492 309 496 305 Q519 284 530 250 Q535 233 538 214.5 Q541 196 540 178 Q539 142 523 106 Q518 93 511 81.5 Q504 70 494 59 Q482 47 468 38 Q454 29 439 21 Q427 14 415 8 Q403 2 390 -1 Q376 -5 361.5 -6 Q347 -7 333 -9 Q322 -11 310.5 -12 Q299 -13 288 -13 Q279 -13 270 -12 Q261 -11 252 -11 Q175 -9 105 11 Q89 16 73.5 22 Q58 28 42 34 Q40 35 38 33.5 Q36 32 34 34 Q28 37 26 45 Q26 47 27 48 Q28 49 28 51 Q28 53 26.5 55.5 Q25 58 25 60 Q25 70 27 79.5 Q29 89 29 99 L27 99 Z " />
<glyph glyph-name="T" unicode="T" horiz-adv-x="569" d="M285 631 Q348 631 409 629.5 Q470 628 533 628 Q536 628 539 628.5 Q542 629 545 629 Q553 628 554.5 625 Q556 622 556 615 Q557 611 557 603 Q557 583 557.5 564.5 Q558 546 558 526 Q558 523 559.5 520 Q561 517 560 514 Q560 513 557 510 Q555 501 550 500 Q548 499 546.5 501 Q545 503 543 503 Q541 503 538 502 Q535 501 533 501 L375 501 Q372 501 369 502 Q366 503 364 502 Q358 502 356 494 L356 488 Q356 485 357 482 Q358 479 358 475 Q358 362 358.5 250 Q359 138 359 24 Q359 22 357.5 19 Q356 16 356 13 Q356 11 355.5 10 Q355 9 355 7 Q353 -2 347 -2 Q345 -3 343.5 -1.5 Q342 0 340 0 Q313 0 285.5 -2.5 Q258 -5 231 -5 Q229 -5 227 -3.5 Q225 -2 223 -2 Q220 -1 217 0.5 Q214 2 214 6 Q213 8 214 9 Q215 10 215 12 L215 26 Q215 140 215.5 252 Q216 364 216 478 Q216 481 214.5 484 Q213 487 213 490 Q213 490 211 494 Q211 499 208 500 Q206 500 205.5 499.5 Q205 499 203 499 Q200 499 197.5 501 Q195 503 192 503 Q154 503 115 502 Q76 501 37 501 L27 501 Q23 501 21 502 Q14 503 13 510 Q13 512 11.5 514.5 Q10 517 10 519 Q10 524 10.5 530 Q11 536 11 542 Q11 558 10.5 573.5 Q10 589 10 605 Q10 607 11 610 Q12 613 12 615 Q12 619 13 621 Q14 625 19 627 Q21 628 22 629 Q23 630 25 630 Q28 630 31 629.5 Q34 629 37 629 Q100 629 161 630 Q222 631 285 631 Z " />
<glyph glyph-name="U" unicode="U" horiz-adv-x="724" d="M664 416 L664 248 Q664 243 663.5 238.5 Q663 234 663 229 Q662 208 658.5 188 Q655 168 647 149 Q625 98 581 60 Q570 50 557 43 Q544 36 530 28 Q504 15 477 7.5 Q450 0 421 -4 Q406 -6 391 -9.5 Q376 -13 361 -12 Q356 -12 350 -11 Q344 -10 339 -9 Q298 -8 254 5 Q236 10 219.5 17.5 Q203 25 186 34 Q169 43 154.5 53.5 Q140 64 126 78 Q109 95 95.5 114.5 Q82 134 73 157 Q68 171 65.5 184.5 Q63 198 61 213 Q60 221 60 228 Q60 235 60 243 Q60 334 58.5 425 Q57 516 57 607 L57 617 Q58 618 60 622 Q62 628 65 629 Q67 629 68 628.5 Q69 628 71 628 Q74 628 76.5 628.5 Q79 629 82 629 L178 629 Q181 629 183.5 628.5 Q186 628 188 628 Q190 628 190.5 627 Q191 626 193 626 Q195 625 198 624.5 Q201 624 202 621 Q202 620 201.5 618.5 Q201 617 201 615 Q201 612 202 608.5 Q203 605 203 602 Q203 514 201 427.5 Q199 341 199 253 Q199 247 199 241 Q199 235 200 229 Q205 198 224 176 Q231 168 239 161 Q247 154 255 148 Q263 141 272 135.5 Q281 130 291 126 Q305 121 320 119.5 Q335 118 350 117 Q356 117 362 117.5 Q368 118 374 119 Q395 120 414.5 124 Q434 128 452 138 Q466 146 478.5 156 Q491 166 501 180 Q509 190 513.5 201.5 Q518 213 520 225 Q521 229 520 232 Q519 235 519 239 L519 253 L519 601 Q519 605 519.5 608 Q520 611 520 614 Q520 616 521 617 Q522 618 522 620 Q524 630 530 630 Q534 631 542 631 Q550 631 557 629.5 Q564 628 572 628 L641 628 Q643 628 645.5 627.5 Q648 627 650 627 Q655 627 655 627 Q660 626 660 620 Q661 618 662.5 617.5 Q664 617 664 615 Q664 612 663 609 Q662 606 662 604 Q662 556 663 510 Q664 464 664 416 Z " />
<glyph glyph-name="W" unicode="W" horiz-adv-x="900" d="M623 -1 Q606 -1 589.5 -3 Q573 -5 556 -5 Q554 -5 551.5 -3.5 Q549 -2 547 -1 Q537 -1 535 4 Q534 6 535.5 8 Q537 10 536 12 Q534 18 533.5 24.5 Q533 31 531 37 Q524 64 517 90.5 Q510 117 503 145 Q493 185 483.5 225.5 Q474 266 463 307 Q461 316 458 324.5 Q455 333 453 343 Q452 345 452.5 347 Q453 349 451 351 Q449 352 448 351 Q447 350 445.5 349.5 Q444 349 443 348 Q442 346 443.5 342.5 Q445 339 445 337 L406 187 Q401 168 396.5 149.5 Q392 131 387 112 Q382 89 375 65.5 Q368 42 362 19 Q362 13 361 10 Q361 8 359 6 Q357 3 356 0 Q355 -3 352 -4 Q350 -4 348 -4.5 Q346 -5 344 -5 Q339 -5 334 -3 Q329 -1 324 -1 Q295 -1 267 -3 Q239 -5 210 -5 Q207 -5 204.5 -4 Q202 -3 199 -3 Q190 -3 187 5 Q186 7 186.5 10 Q187 13 186 15 Q180 35 174 54 Q168 73 163 93 Q155 120 148.5 147.5 Q142 175 134 202 Q126 230 117.5 258 Q109 286 101 314 Q94 337 87 359.5 Q80 382 74 405 Q66 431 58 455.5 Q50 480 42 506 Q35 530 29.5 554.5 Q24 579 17 602 Q15 607 13 615 Q11 625 22 626 L30 626 L135 626 Q138 626 140.5 627.5 Q143 629 146 628 Q151 627 153 619 Q154 617 156 616 Q158 615 159 613 Q161 603 163 593 Q165 583 168 573 Q176 543 183 513.5 Q190 484 198 455 Q208 419 217.5 383.5 Q227 348 236 312 Q244 285 251 258.5 Q258 232 266 205 Q267 202 266 198.5 Q265 195 266 192 Q267 190 268.5 189.5 Q270 189 270 188 Q273 185 276 188 L276 192 Q277 194 276.5 196 Q276 198 277 200 Q285 232 294.5 264.5 Q304 297 312 329 Q314 337 314.5 345 Q315 353 317 361 Q325 390 331.5 419.5 Q338 449 345 478 Q353 511 363.5 543.5 Q374 576 382 608 Q382 611 381.5 613.5 Q381 616 382 618 Q383 625 393 627 Q395 627 397 627.5 Q399 628 401 628 L497 628 Q500 628 502 627 Q504 626 507 626 Q515 624 517 619 Q518 616 518.5 613.5 Q519 611 520 608 Q528 576 536.5 544.5 Q545 513 553 481 Q563 442 571 402.5 Q579 363 589 323 Q596 293 604 263.5 Q612 234 620 205 Q621 202 620 198.5 Q619 195 620 192 Q620 192 623 189 Q624 188 626 187.5 Q628 187 629 189 Q630 190 632 194 Q634 199 634.5 203 Q635 207 636 212 Q646 249 655.5 285.5 Q665 322 675 358 Q684 393 691.5 427.5 Q699 462 708 497 Q716 526 724.5 554 Q733 582 741 611 Q742 613 743 615 Q744 617 745 619 Q747 622 748 624.5 Q749 627 753 627 Q755 628 757.5 627.5 Q760 627 762 627 Q769 627 775 628 Q781 629 788 629 Q808 629 826.5 627.5 Q845 626 864 626 Q866 626 868.5 626.5 Q871 627 874 627 Q875 627 876.5 627.5 Q878 628 879 628 Q887 626 885 618 Q885 616 884 614 Q883 612 882 610 Q876 587 871 564.5 Q866 542 860 519 Q851 489 842.5 458.5 Q834 428 825 397 Q815 361 803.5 326 Q792 291 781 255 Q771 220 761 185 Q751 150 740 115 Q733 91 728 66 Q723 41 716 16 Q715 13 714 10.5 Q713 8 712 6 Q710 -1 699 -3 L690 -3 Q673 -3 656.5 -2 Q640 -1 623 -1 Z " />
<glyph glyph-name="V" unicode="V" horiz-adv-x="642" d="M322 -4 Q308 -4 295 -4.5 Q282 -5 268 -5 Q266 -5 263 -3.5 Q260 -2 258 -2 Q252 -2 249 5 Q247 7 245 9 Q243 11 241 13 Q228 47 217 81 Q206 115 193 148 Q185 170 177 191.5 Q169 213 161 234 Q153 254 145.5 274 Q138 294 130 314 Q122 335 113 356 Q104 377 96 398 Q87 421 78 444.5 Q69 468 60 492 Q52 511 47.5 530 Q43 549 36 568 Q31 579 26.5 589.5 Q22 600 17 611 Q16 613 16.5 615.5 Q17 618 17 620 Q15 627 19 628 Q20 629 21.5 628 Q23 627 24 627 Q30 629 34 629 Q60 629 86 628 Q112 627 138 627 Q140 627 143 628.5 Q146 630 148 629 Q153 629 154 626 Q155 623 157 618 Q159 616 160.5 613.5 Q162 611 163 608 Q174 579 184.5 550 Q195 521 206 492 Q216 465 226.5 438 Q237 411 247 383 Q255 360 263 336 Q271 312 280 289 Q288 266 296 244 Q304 222 312 200 Q313 197 314.5 194 Q316 191 318 189 Q318 187 317.5 185.5 Q317 184 318 183 Q319 182 320.5 183 Q322 184 323 185 Q324 186 325 186 Q326 186 327 187 Q328 189 327.5 191 Q327 193 328 195 Q336 217 344.5 238.5 Q353 260 361 283 Q369 305 376.5 327 Q384 349 392 371 Q400 393 410 414.5 Q420 436 428 459 Q436 481 442.5 503.5 Q449 526 457 548 Q462 561 466.5 574 Q471 587 476 600 Q478 604 480.5 607 Q483 610 485 614 Q486 616 486 616.5 Q486 617 487 619 Q489 622 490.5 625.5 Q492 629 496 630 Q498 630 500.5 629 Q503 628 505 628 Q532 628 559.5 628.5 Q587 629 614 628 Q616 628 618 628.5 Q620 629 622 628 Q624 628 626 626 Q631 624 629 620 Q629 618 628 616 Q627 614 626 612 Q623 604 619.5 596 Q616 588 613 580 Q603 553 594 526 Q585 499 575 473 Q568 456 563 438.5 Q558 421 551 404 Q543 384 534 365.5 Q525 347 517 327 Q509 304 501 282 Q493 260 484 237 Q477 217 470 197.5 Q463 178 455 158 Q447 140 441 121.5 Q435 103 427 84 Q421 68 416 51.5 Q411 35 405 18 Q403 16 402.5 13.5 Q402 11 400 8 Q400 7 398 3 Q393 -4 386 -4 L376 -4 L322 -4 Z " />
<glyph glyph-name="X" unicode="X" horiz-adv-x="675" d="M95 -5 Q80 -5 64.5 -3 Q49 -1 34 -1 Q32 -1 29.5 -2.5 Q27 -4 25 -4 Q23 -3 21 -1 Q15 0 17 6 Q18 8 18 9 Q18 10 19 12 Q21 15 23 18.5 Q25 22 27 25 Q49 54 72 81 Q95 108 118 137 L199 239 L244 296 Q246 298 245.5 302 Q245 306 247 308 Q249 311 250.5 313.5 Q252 316 250 319 Q249 321 247 321.5 Q245 322 243 324 Q235 335 228.5 345.5 Q222 356 214 366 Q203 380 191 394 Q179 408 168 422 Q146 450 124 477 Q102 504 80 533 Q68 548 57.5 564.5 Q47 581 35 596 Q32 601 27.5 603.5 Q23 606 20 610 Q18 612 17 613.5 Q16 615 14 617 Q13 623 21 625 Q24 628 26 628 Q28 628 31 629 Q34 630 36 630 Q66 630 95.5 628.5 Q125 627 154 627 Q157 627 160 626.5 Q163 626 166 626 Q176 626 181 620 Q184 617 185 615 Q195 602 204 589 Q213 576 223 563 Q243 535 264 508 Q285 481 306 453 Q311 447 315 440.5 Q319 434 324 428 Q329 423 331 420 Q332 419 333 419.5 Q334 420 335 419 Q337 418 338.5 416 Q340 414 341 416 Q343 418 342.5 420 Q342 422 343 424 Q346 428 349.5 431 Q353 434 355 438 Q385 478 415 517 Q445 556 475 596 Q479 601 482.5 607 Q486 613 490 619 Q496 626 510 626 Q512 626 514 626.5 Q516 627 518 627 Q549 627 579 627.5 Q609 628 639 628 Q641 628 643 628.5 Q645 629 647 629 L652 629 Q662 627 655 617 Q654 615 653.5 613 Q653 611 651 609 Q636 589 620.5 570.5 Q605 552 590 532 Q566 502 542.5 471.5 Q519 441 495 410 Q478 389 462 368.5 Q446 348 429 327 Q427 325 426.5 322 Q426 319 424 317 Q422 314 424 308 Q426 306 426.5 304.5 Q427 303 429 301 Q446 280 462.5 259.5 Q479 239 495 219 Q517 191 537.5 163 Q558 135 580 107 Q594 89 607.5 70.5 Q621 52 635 34 Q639 29 643.5 24 Q648 19 653 14 Q654 12 655.5 10.5 Q657 9 658 7 Q660 5 658 2 Q656 -1 653 -2 Q652 -3 651.5 -2 Q651 -1 650 -1 Q648 -1 645.5 -2 Q643 -3 641 -3 Q609 -3 578 -1.5 Q547 0 515 0 Q513 0 511.5 -1 Q510 -2 508 -2 Q500 -1 495 6 Q493 8 492.5 9 Q492 10 490 12 Q473 36 454 59 Q435 82 417 106 L348 199 Q346 201 345.5 202.5 Q345 204 343 206 Q341 208 339 209 Q336 212 333 209 Q331 208 330.5 206.5 Q330 205 329 204 Q327 202 326.5 198.5 Q326 195 324 193 Q301 163 278 134 Q255 105 233 75 Q221 59 209.5 43.5 Q198 28 186 12 Q184 10 183.5 7.5 Q183 5 181 3 Q179 0 175.5 -0.5 Q172 -1 168 -2 Q166 -2 163.5 -2.5 Q161 -3 158 -3 Q142 -3 126.5 -4 Q111 -5 95 -5 Z " />
<glyph glyph-name="Y" unicode="Y" horiz-adv-x="636" d="M248 151 Q248 183 249 215 Q250 247 250 279 Q250 282 249 284.5 Q248 287 248 290 Q248 292 246.5 294 Q245 296 244 298 Q242 300 241 303.5 Q240 307 238 309 Q215 341 190.5 371 Q166 401 142 433 Q116 469 91 506 Q66 543 40 578 Q34 587 26 594.5 Q18 602 12 610 Q10 612 10 614 Q10 616 8 618 Q6 620 6 622 Q5 624 10 626 Q12 626 12 628.5 Q12 631 13 631 Q15 631 17.5 630 Q20 629 22 629 Q54 629 85 629.5 Q116 630 148 630 Q150 630 152 629 Q154 628 156 628 Q163 626 166 623 Q168 621 169.5 620.5 Q171 620 173 618 Q186 601 197.5 583 Q209 565 222 548 Q234 531 246.5 514 Q259 497 272 480 Q281 467 290 454 Q299 441 309 428 Q310 426 310.5 424.5 Q311 423 313 421 Q314 420 315 420 Q316 420 317 419 Q319 419 320 418 Q321 417 323 418 L329 424 Q333 429 336 435.5 Q339 442 344 447 Q355 464 366 480 Q377 496 389 512 Q407 537 426.5 560.5 Q446 584 464 609 Q466 612 466.5 615.5 Q467 619 469 622 Q474 629 485 627 Q487 627 489 628.5 Q491 630 493 630 L614 630 Q616 630 618.5 629 Q621 628 623 628 Q624 628 624.5 628.5 Q625 629 627 629 Q631 628 629 621 Q628 619 629 617.5 Q630 616 629 614 Q625 606 622 602 Q602 575 579.5 549.5 Q557 524 537 496 Q514 465 492.5 433 Q471 401 448 370 Q437 354 424.5 339 Q412 324 400 308 Q393 299 391 294.5 Q389 290 389 279 Q389 216 390 153 Q391 90 391 27 L391 14 Q390 12 390.5 11 Q391 10 391 8 Q390 2 381 0 Q379 0 377 -0.5 Q375 -1 373 -1 Q346 -1 319.5 -1.5 Q293 -2 266 -2 Q264 -2 261.5 -2.5 Q259 -3 257 -2 Q248 -2 246 8 L246 17 Q246 25 247.5 33.5 Q249 42 249 50 Q249 75 248.5 100 Q248 125 248 151 Z " />
<glyph glyph-name="Z" unicode="Z" horiz-adv-x="565" d="M283 -4 Q223 -4 164.5 -3 Q106 -2 46 -2 Q44 -2 41 -1.5 Q38 -1 36 -1 Q34 -1 32.5 -2.5 Q31 -4 29 -4 Q27 -3 26 0 Q25 3 24 6 L24 8 Q24 10 22.5 10.5 Q21 11 21 13 Q21 33 21.5 52 Q22 71 22 91 Q22 95 23 97 Q23 105 27 109 Q29 111 29.5 113 Q30 115 32 117 Q42 129 52 140 Q62 151 72 163 Q83 175 93 186 Q103 197 114 209 Q122 217 128 227 Q134 237 142 246 Q150 254 157.5 261 Q165 268 172 276 Q180 285 186.5 293.5 Q193 302 201 311 Q211 322 220.5 334 Q230 346 240 357 L270 393 Q278 402 286 410.5 Q294 419 302 428 Q309 436 316 443.5 Q323 451 330 459 Q336 466 341.5 473 Q347 480 353 488 Q354 490 355 491 Q356 492 357 494 Q359 498 354 500 Q352 500 351.5 499.5 Q351 499 349 499 Q346 499 342.5 499.5 Q339 500 336 500 Q264 500 193 500.5 Q122 501 50 501 Q47 501 44.5 500.5 Q42 500 39 500 L33 500 Q28 501 26.5 504 Q25 507 24 512 Q24 514 22 516.5 Q20 519 20 521 Q20 543 21 565 Q22 587 22 609 Q22 611 21.5 614 Q21 617 22 620 Q22 623 25 623.5 Q28 624 31 625 Q33 626 34 628 Q35 630 37 631 Q40 631 42.5 630.5 Q45 630 47 630 Q166 630 284 629 Q402 628 520 628 Q524 628 527 628.5 Q530 629 534 628 Q546 628 546 615 Q546 613 545 611.5 Q544 610 544 608 Q544 590 545 572 Q546 554 546 536 Q546 534 546.5 532.5 Q547 531 547 529 Q547 521 542 514 Q541 513 540.5 512 Q540 511 539 510 Q532 502 525.5 495 Q519 488 513 480 Q505 471 496.5 463 Q488 455 480 446 Q472 438 466 428.5 Q460 419 452 410 Q444 402 436.5 394.5 Q429 387 421 379 Q413 371 407 361.5 Q401 352 393 344 Q385 335 378.5 325 Q372 315 364 306 Q357 298 350 290 Q343 282 336 274 Q328 266 321.5 256.5 Q315 247 307 239 Q299 230 291.5 221.5 Q284 213 276 204 Q266 192 254.5 181.5 Q243 171 232 159 Q227 154 224 148 Q221 142 216 137 Q214 135 213.5 134 Q213 133 212 132 Q208 125 215 123 Q217 123 218 124.5 Q219 126 221 126 Q224 125 227 123.5 Q230 122 234 122 Q305 122 376 123.5 Q447 125 519 125 Q521 125 524 125.5 Q527 126 530 126 Q532 126 533 125 Q534 124 536 124 Q542 122 542 116 Q543 114 544 113 Q545 112 545 110 Q545 108 544 105 Q543 102 543 99 Q543 79 544.5 60.5 Q546 42 546 22 Q546 19 545 16 Q544 13 543 10 Q543 8 544 7 Q545 6 544 4 Q543 1 537 -1 Q535 -2 534.5 -2 Q534 -2 532 -3 L520 -3 Q460 -3 401.5 -3.5 Q343 -4 283 -4 Z " />
<glyph glyph-name="a" unicode="a" horiz-adv-x="513" d="M480 147 Q480 116 479.5 85.5 Q479 55 479 24 Q479 22 478.5 19 Q478 16 478 14 Q478 12 476.5 11 Q475 10 475 8 Q473 3 470 2 Q468 2 467.5 1 Q467 0 465 0 Q463 0 461 -1 Q459 -2 457 -2 Q434 -2 410.5 0.5 Q387 3 364 3 Q362 3 359 1 Q356 -1 354 0 Q347 0 345 10 Q344 12 343 13 Q342 14 341 16 Q341 17 342 18.5 Q343 20 343 21 Q341 23 336 21 Q334 21 332.5 21.5 Q331 22 329 22 Q326 20 323 19.5 Q320 19 317 17 Q298 9 279 2 Q260 -5 240 -7 Q226 -9 212 -10 Q198 -11 184 -9 Q170 -8 157 -4.5 Q144 -1 131 4 Q114 10 97.5 18.5 Q81 27 68 41 Q63 46 60.5 52 Q58 58 54 63 Q43 77 35.5 91.5 Q28 106 26 123 Q24 137 27 151 Q30 165 34 179 Q37 190 40.5 200.5 Q44 211 50 220 Q86 269 146 286 Q157 289 168 290 Q179 291 190 291 Q200 292 209 294 Q218 296 228 296 Q250 296 271.5 295 Q293 294 315 294 L325 294 Q330 295 330 301 Q331 311 327 321 Q323 331 315 335 Q313 337 309.5 336 Q306 335 303 336 Q298 338 293.5 340.5 Q289 343 284 344 Q268 346 253 346 Q238 346 223 345 Q203 343 182.5 341 Q162 339 142 335 Q126 333 110.5 330 Q95 327 79 324 Q77 324 74.5 325 Q72 326 70 326 Q63 326 62 330 Q62 332 62.5 333 Q63 334 63 336 Q63 341 62.5 344.5 Q62 348 62 353 Q62 370 60.5 386.5 Q59 403 59 420 Q59 422 61 424.5 Q63 427 63 429 Q63 434 64 438 Q65 442 70 444 Q72 445 73 444.5 Q74 444 76 444 Q94 449 112 451.5 Q130 454 148 457 Q158 459 167 460 Q176 461 185 462 Q194 464 202.5 464 Q211 464 220 465 Q231 466 242 465 Q253 464 264 464 Q292 464 319 461 Q336 459 351.5 455.5 Q367 452 382 444 Q422 427 444 392 Q452 379 456.5 366 Q461 353 465 339 Q468 328 469.5 317.5 Q471 307 473 296 Q476 264 476 232 Q476 211 478 189.5 Q480 168 480 147 Z M265 173 Q252 173 239.5 174 Q227 175 213 175 Q211 175 208 176 Q205 177 203 176 Q187 175 176 162 Q166 151 169.5 137 Q173 123 185 117 Q192 112 205 112 Q209 112 213 109.5 Q217 107 221 108 Q229 109 236 111 Q243 113 251 115 Q268 117 284.5 120.5 Q301 124 317 131 Q320 133 322.5 135 Q325 137 328 139 Q336 143 337 147 L335 147 Q334 147 334 148 Q335 153 336 157.5 Q337 162 337 167 L337 170 Q336 172 333 172.5 Q330 173 328 174 Q326 174 323.5 173.5 Q321 173 319 173 L265 173 Z " />
<glyph glyph-name="b" unicode="b" horiz-adv-x="561" d="M55 312 Q55 384 54.5 455.5 Q54 527 55 599 Q55 608 56 613 Q56 615 55.5 616.5 Q55 618 56 620 Q57 623 59 623.5 Q61 624 64 625 L69 625 Q71 626 73 628 Q75 630 77 630 Q102 630 126.5 628 Q151 626 176 626 Q178 626 180.5 627.5 Q183 629 185 629 Q187 629 187.5 627 Q188 625 190 625 Q197 623 197 620 Q198 618 198 615 Q199 611 197.5 607 Q196 603 196 599 Q196 561 196.5 524.5 Q197 488 197 451 Q197 448 196.5 445 Q196 442 196 439 Q196 438 197.5 437.5 Q199 437 199 436 Q200 434 201.5 432.5 Q203 431 205 432 Q207 433 208 435 Q209 437 211 438 Q216 441 220 443.5 Q224 446 229 448 Q257 460 288 463 Q326 467 367 458 Q411 449 449 419 Q460 411 468 400 Q476 389 484 378 Q496 361 504.5 343 Q513 325 519 305 Q523 291 525.5 277 Q528 263 529 249 Q531 235 531.5 220 Q532 205 530 191 Q528 174 523.5 159 Q519 144 514 128 Q507 109 498 91.5 Q489 74 476 59 Q451 31 421 14 Q403 4 383 -1.5 Q363 -7 343 -9 Q331 -11 319 -11 Q307 -11 295 -10 Q283 -8 271.5 -6 Q260 -4 249 1 Q237 6 227 11.5 Q217 17 206 25 Q204 27 200.5 26.5 Q197 26 195 28 Q194 28 194.5 29.5 Q195 31 193 32 Q191 33 188.5 32 Q186 31 185 29 Q184 27 184 23 Q183 19 183.5 16 Q184 13 183 9 Q183 8 184 6.5 Q185 5 185 4 Q183 -3 176 -5 Q175 -5 174 -5.5 Q173 -6 171 -6 Q169 -6 166.5 -5.5 Q164 -5 162 -5 L76 -5 L67 -5 Q66 -5 65.5 -3.5 Q65 -2 63 -1 Q57 1 56 3 Q55 5 56 7 Q57 9 57 11 Q57 14 56.5 17 Q56 20 56 23 Q56 95 55.5 167.5 Q55 240 55 312 Z M389 225 Q389 233 388 239.5 Q387 246 386 253 Q383 276 373 293 Q364 311 344 322 Q336 327 328 330.5 Q320 334 311 336 Q302 337 293 337.5 Q284 338 275 336 Q253 333 238 320.5 Q223 308 213 288 Q209 281 205 275 Q201 269 199 261 Q195 242 196.5 224 Q198 206 203 188 Q204 182 204.5 175.5 Q205 169 207 164 Q218 144 241 129 Q254 121 268 118 Q276 116 284.5 114.5 Q293 113 301 113 Q309 113 317 115.5 Q325 118 332 121 Q355 129 369 147 Q374 152 376 159 Q378 166 380 172 Q389 197 389 225 Z " />
<glyph glyph-name="c" unicode="c" horiz-adv-x="499" d="M469 75 Q469 64 469.5 53.5 Q470 43 470 32 Q470 30 468.5 28 Q467 26 467 24 Q467 16 460 14 Q457 12 454 10 Q451 8 447 7 Q436 3 423.5 2.5 Q411 2 400 0 Q380 -3 361.5 -5.5 Q343 -8 323 -8 Q316 -8 309 -8.5 Q302 -9 295 -9 Q272 -8 249 -4 Q226 0 203 6 Q171 14 146 28 Q117 42 96.5 63 Q76 84 60 112 Q49 130 41.5 149 Q34 168 31 189 Q29 205 30 221 Q31 237 33 254 Q36 301 56 339 Q68 364 91 388 Q123 421 164 439 Q205 456 245 462 Q266 465 286 465 Q297 466 306.5 466.5 Q316 467 327 467 Q338 466 349.5 466 Q361 466 372 465 Q388 463 403 459 Q418 455 434 451 Q439 450 445 451 Q451 452 457 450 Q459 449 459.5 446.5 Q460 444 462 443 Q467 440 468 436 Q468 434 469.5 431.5 Q471 429 471 427 Q471 405 471.5 383.5 Q472 362 472 340 Q472 338 470 337 Q468 336 468 335 Q468 333 467.5 332.5 Q467 332 467 331 Q467 324 460 325 Q458 325 456.5 324.5 Q455 324 453 324 Q438 328 422 330.5 Q406 333 390 335 Q381 336 372 336.5 Q363 337 355 337 Q344 338 333.5 339.5 Q323 341 312 340 Q299 339 286.5 338 Q274 337 260 334 Q246 331 233 325 Q187 307 175 258 Q174 253 173.5 248 Q173 243 173 238 Q173 233 173.5 227.5 Q174 222 175 217 Q175 208 176 199 Q177 190 181 182 Q196 144 235 130 Q246 126 256 124.5 Q266 123 277 121 Q288 119 298.5 120 Q309 121 320 121 Q337 121 353.5 121.5 Q370 122 387 124 Q402 126 416.5 128.5 Q431 131 446 134 L458 134 Q467 135 469 126 Q469 124 468.5 121.5 Q468 119 468 117 Q468 106 468.5 96 Q469 86 469 75 Z " />
<glyph glyph-name="d" unicode="d" horiz-adv-x="561" d="M506 313 Q506 241 508 170.5 Q510 100 510 28 Q510 25 508.5 22 Q507 19 507 17 Q506 14 507.5 11.5 Q509 9 508 7 Q507 1 498 -1 Q494 -1 494 -1 Q492 -1 490.5 -2.5 Q489 -4 487 -4 L401 -4 Q399 -4 397.5 -2 Q396 0 394 0 Q392 0 391 -2 Q390 -4 389 -3 Q385 -3 383.5 0.5 Q382 4 381 8 Q380 12 380 19 Q379 21 377.5 22 Q376 23 376 25 Q376 27 377.5 28 Q379 29 378 31 Q376 37 370 33 Q368 32 366.5 32 Q365 32 363 30 Q357 26 351.5 22 Q346 18 340 14 Q319 1 291 -5 Q278 -9 259 -9 Q245 -9 232 -7.5 Q219 -6 205 -4 Q156 6 115 38 Q94 55 78 74 Q62 93 51 118 Q43 138 39 158 Q35 178 33 199 Q31 225 32.5 251 Q34 277 41 303 Q46 320 52.5 336.5 Q59 353 69 368 Q75 377 81 386 Q87 395 95 403 Q104 413 115.5 420.5 Q127 428 138 435 Q159 447 181.5 455 Q204 463 228 465 Q234 466 239.5 465.5 Q245 465 251 465 Q291 465 324 452 Q340 445 352 439 Q354 438 355 436 Q356 434 358 433 Q360 432 361.5 434 Q363 436 363 438 Q366 441 366 441 L366 452 Q366 490 365 527 Q364 564 364 602 Q364 604 365 607 Q366 610 366 612 Q366 614 365 615 Q364 616 365 618 Q366 628 376 629 L384 629 L490 629 Q492 629 500 627 Q502 625 504 624.5 Q506 624 506 621 Q507 618 508 615 Q509 612 509 609 Q509 606 508 603 Q507 600 507 597 Q507 525 506.5 455 Q506 385 506 313 Z M368 227 Q368 232 366 236 Q364 240 363 245 Q363 253 362.5 260.5 Q362 268 360 275 Q358 283 354 289 Q350 295 345 302 Q338 311 330 318.5 Q322 326 311 331 Q299 335 287 337 Q278 339 268.5 337 Q259 335 250 333 Q245 333 237 331 Q223 326 210.5 319 Q198 312 190 298 Q185 290 184 281.5 Q183 273 181 265 Q177 248 175.5 230.5 Q174 213 177 196 Q179 181 184 169 Q187 161 192.5 155.5 Q198 150 203 144 Q212 135 221.5 128 Q231 121 244 118 Q255 116 266 116 Q277 116 288 118 Q292 119 296 119 Q300 119 304 120 Q333 130 351 159 Q356 167 358.5 175 Q361 183 363 191 Q365 200 366 209 Q367 218 368 227 Z " />
<glyph glyph-name="e" unicode="e" horiz-adv-x="529" d="M328 195 Q294 195 260.5 196 Q227 197 193 197 Q191 197 188 196 Q185 195 183 195 Q181 195 180 196 Q179 197 178 196 Q173 196 173 189 Q173 187 173.5 185.5 Q174 184 174 182 Q176 177 177 171 Q178 165 181 160 Q189 147 200 139.5 Q211 132 225 127 Q230 125 235 123 Q240 121 245 120 Q254 118 263 117 Q272 116 281 116 Q293 116 305 116 Q317 116 329 117 Q340 118 349.5 117.5 Q359 117 370 118 Q403 122 440 132 Q445 134 448.5 136.5 Q452 139 457 141 Q459 141 460.5 140 Q462 139 464 140 Q474 140 475 134 Q476 132 476 129 Q476 127 476.5 125.5 Q477 124 477 122 Q477 102 474.5 81.5 Q472 61 472 40 Q472 34 471 30 Q471 26 471 22.5 Q471 19 467 17 Q465 16 463 17.5 Q461 19 459 19 Q438 11 417 4.5 Q396 -2 374 -5 Q363 -7 352 -6.5 Q341 -6 330 -8 Q327 -8 324.5 -8.5 Q322 -9 319 -9 Q308 -10 298 -9.5 Q288 -9 278 -9 Q252 -8 226.5 -6 Q201 -4 177 4 Q160 9 145.5 17.5 Q131 26 117 36 Q90 55 71 82 Q55 104 44.5 127.5 Q34 151 29 177 Q27 193 27.5 208 Q28 223 29 239 Q32 289 53 334 Q63 355 76 373.5 Q89 392 106 407 Q120 418 137 429 Q160 442 184 450.5 Q208 459 234 462 Q257 465 276 464 Q296 463 315 461 Q334 459 353 453 Q371 448 388.5 440 Q406 432 421 421 Q462 390 481 339 Q487 322 488.5 304.5 Q490 287 491 270 Q491 259 491.5 249 Q492 239 491 229 Q491 224 491.5 218.5 Q492 213 491 208 Q491 206 489.5 205 Q488 204 487 202 Q485 195 482 194 Q480 194 478.5 195.5 Q477 197 476 197 Q473 197 470.5 196 Q468 195 466 195 L328 195 Z M269 291 L269 288 Q281 288 293 289 Q305 290 317 290 Q321 290 325 289.5 Q329 289 334 289 Q336 289 340 291 Q345 291 343 298 L343 299 Q343 300 343.5 300 Q344 300 344 301 Q343 303 341 303.5 Q339 304 337 306 Q322 331 294 338 Q269 344 245 338 Q236 336 228.5 331.5 Q221 327 214 322 Q209 318 204 314 Q199 310 196 305 Q195 303 195 302 Q195 301 194 299 Q193 297 195.5 295 Q198 293 201 293 Q203 293 205.5 291 Q208 289 210 289 Q225 289 239.5 290 Q254 291 269 291 Z " />
<glyph glyph-name="f" unicode="f" horiz-adv-x="379" d="M233 167 Q233 132 235.5 96.5 Q238 61 238 26 L238 15 Q238 14 235.5 13 Q233 12 233 11 Q232 3 225 2 Q223 2 221 0.5 Q219 -1 217 -1 Q191 -1 164 -0.5 Q137 0 111 0 Q109 0 106.5 -1 Q104 -2 102 -1 Q95 -1 93 9 Q93 11 93.5 14 Q94 17 94 20 Q94 22 92.5 25 Q91 28 91 31 Q91 101 91.5 170.5 Q92 240 92 310 Q92 313 93.5 315.5 Q95 318 95 321 Q95 323 93 323 Q91 323 90 325 Q88 328 87 328 Q85 329 83 330.5 Q81 332 79 332 Q70 332 61 332.5 Q52 333 43 333 L35 333 Q33 333 32 331.5 Q31 330 29 330 Q23 332 21 341 Q21 343 21.5 344.5 Q22 346 22 348 Q22 371 22.5 393.5 Q23 416 23 439 L23 448 Q25 456 30 457 Q36 457 39 458 Q49 458 58 457.5 Q67 457 77 457 Q83 457 86 458 Q91 458 91 464 Q92 466 93 466.5 Q94 467 94 469 Q94 474 93.5 477.5 Q93 481 94 486 Q95 503 99 518 Q103 533 110 549 Q125 583 152 604 Q159 610 167 615.5 Q175 621 184 625 Q195 630 206 633.5 Q217 637 228 639 Q241 641 254 641 Q267 641 280 640 Q288 639 295 637.5 Q302 636 310 634 Q318 632 326.5 632 Q335 632 343 630 Q345 629 348 628.5 Q351 628 353 627 Q356 625 356.5 622 Q357 619 358 616 L358 612 Q358 611 359 610 Q360 609 360 608 Q360 586 361 564 Q362 542 362 520 Q362 518 360.5 517 Q359 516 358 514 Q358 511 357 510 Q355 503 353 503 Q351 503 349 504.5 Q347 506 345 506 Q337 508 329 508.5 Q321 509 313 510 Q303 512 293.5 511.5 Q284 511 274 511 Q270 511 266.5 511.5 Q263 512 259 510 Q251 508 245 504 Q239 500 237 492 Q236 489 235 486 Q234 483 234 480 L234 465 Q234 459 244 457 Q246 457 248.5 458 Q251 459 253 459 Q269 459 284.5 457.5 Q300 456 316 456 L325 456 Q327 456 328 457 Q329 458 330 457 Q334 455 336 451 Q336 449 335.5 448.5 Q335 448 335 446 Q335 444 336.5 441.5 Q338 439 338 437 Q338 415 337.5 393.5 Q337 372 337 350 Q337 348 337.5 345.5 Q338 343 337 340 Q337 334 327 332 Q325 332 322.5 332.5 Q320 333 318 333 Q307 333 295.5 331.5 Q284 330 273 330 Q268 330 262 329.5 Q256 329 250 329 Q248 329 246 330.5 Q244 332 242 332 Q240 331 237 329 Q234 327 234 325 Q234 323 235 322 Q236 321 235 320 Q235 317 234.5 314.5 Q234 312 234 310 Q234 274 233.5 238.5 Q233 203 233 167 Z " />
<glyph glyph-name="g" unicode="g" horiz-adv-x="548" d="M516 392 Q516 382 514.5 373 Q513 364 513 354 Q513 351 514.5 347.5 Q516 344 516 341 Q516 339 515.5 338.5 Q515 338 515 336 Q514 334 507 332 Q505 331 503 329.5 Q501 328 499 328 Q494 328 488.5 329 Q483 330 477 330 Q475 330 473 329 Q471 328 469 328 Q459 328 461 320 Q461 318 461.5 316.5 Q462 315 462 313 Q464 300 463 287.5 Q462 275 459 262 Q456 251 453 240.5 Q450 230 443 221 Q424 193 392 174 Q364 157 334 148 Q323 145 311.5 145 Q300 145 289 143 Q281 142 272.5 141 Q264 140 256 140 Q233 140 216 144 Q214 144 212.5 145 Q211 146 209 146 Q199 148 197 137 Q195 125 209 118 Q210 117 211 117 Q212 117 214 116 Q217 115 219.5 113.5 Q222 112 224 111 Q230 110 235.5 109.5 Q241 109 246 108 Q253 107 259.5 108 Q266 109 272 108 Q284 107 296 105 Q308 103 319 102 Q343 100 366.5 97.5 Q390 95 413 87 Q437 77 454 66 Q478 49 492 25 Q509 -4 510 -36 Q510 -44 509.5 -52.5 Q509 -61 507 -69 Q501 -101 476 -128 Q467 -137 456 -144.5 Q445 -152 434 -158 Q417 -168 398.5 -175 Q380 -182 360 -186 Q349 -188 338 -188.5 Q327 -189 316 -191 Q296 -193 276 -193.5 Q256 -194 236 -192 Q213 -191 192 -187 Q171 -183 150 -177 Q135 -172 120.5 -166.5 Q106 -161 92 -153 Q72 -140 55 -120 Q36 -98 31 -67 Q30 -61 29.5 -55.5 Q29 -50 29 -44 Q30 -7 57 23 Q62 28 65 33 Q68 38 73 42 Q74 43 75.5 42.5 Q77 42 78 43 Q85 50 81 56 Q81 58 79.5 58 Q78 58 77 60 Q68 74 62 89.5 Q56 105 55 122 Q55 154 68 180 Q70 184 72 187 Q74 190 76 194 Q81 204 75 210 Q71 215 66.5 218.5 Q62 222 59 227 Q51 239 47.5 253.5 Q44 268 42 283 Q39 307 42 330 Q45 353 58 374 Q62 380 66 385.5 Q70 391 75 396 Q87 409 100 420 Q113 431 129 439 Q137 444 146 445 Q155 446 163 449 Q193 458 225 461 Q231 462 237 462.5 Q243 463 249 463 Q265 463 280.5 463.5 Q296 464 311 460 Q319 458 325.5 457 Q332 456 340 456 Q378 456 416.5 456.5 Q455 457 493 457 Q496 457 499 456 Q502 455 505 454 Q514 454 514 447 Q516 437 516 432 L516 392 Z M284 -73 L284 -76 Q295 -75 304 -73.5 Q313 -72 323 -71 Q329 -70 334.5 -69.5 Q340 -69 346 -67 Q350 -65 354 -65 Q358 -65 361 -62 Q369 -55 366.5 -46 Q364 -37 356 -32 Q354 -30 351 -28.5 Q348 -27 346 -26 Q343 -25 340 -25 Q337 -25 335 -24 Q328 -23 321.5 -21 Q315 -19 308 -18 Q278 -15 246 -15 Q238 -15 229 -14 Q220 -13 212 -13 Q209 -13 206.5 -14.5 Q204 -16 201 -16 Q198 -17 192 -17 Q175 -23 175 -40 Q173 -54 180 -60 Q182 -62 186 -63 Q190 -64 193 -66 Q198 -68 204 -68.5 Q210 -69 215 -71 Q226 -73 236 -74 Q246 -75 257 -75 Q264 -76 270.5 -74.5 Q277 -73 284 -73 Z M249 264 Q261 264 267 263 Q273 262 281 264 Q288 265 293.5 268.5 Q299 272 305 276 Q309 279 314 284 Q321 292 322 304 Q323 316 315 324 Q313 327 308.5 328.5 Q304 330 300 332 Q295 334 290 336.5 Q285 339 279 341 Q265 343 251 342 Q237 341 223 339 Q211 337 201 333 Q192 328 188 321 Q175 306 183 289 Q185 285 188.5 282.5 Q192 280 196 277 Q202 273 208 270.5 Q214 268 222 266 Q229 264 236 264 Q243 264 249 264 Z " />
<glyph glyph-name="h" unicode="h" horiz-adv-x="562" d="M50 314 Q50 386 51 458.5 Q52 531 52 603 Q52 606 51.5 609 Q51 612 51 615 Q51 616 52 617 Q53 618 53 620 Q54 623 55 626 Q56 629 59 630 Q61 631 62 629 Q63 627 64 627 Q66 627 68 629 Q70 631 72 631 L173 631 Q175 631 177 629.5 Q179 628 181 628 Q184 628 186 627 Q191 625 192 623 Q193 621 193 617 L193 605 Q193 566 193.5 526.5 Q194 487 194 448 L194 436 Q194 434 195 433 Q195 429 198 432 Q199 432 200 430.5 Q201 429 203 429 Q204 430 204.5 432 Q205 434 206 435 Q219 442 232.5 446.5 Q246 451 260 455 Q272 458 284 460 Q296 462 309 462 L318 462 Q328 464 333 463 Q337 463 340 462.5 Q343 462 347 462 Q392 459 430 440 Q441 434 452 427 Q463 420 472 411 Q478 404 482.5 396.5 Q487 389 492 381 Q509 355 517 323 Q524 295 524 262 Q524 229 525 195.5 Q526 162 526 129 L526 20 Q526 17 524.5 14.5 Q523 12 523 9 Q522 0 516 -1 L508 -1 L401 -1 Q399 -1 397 -1.5 Q395 -2 393 -1 Q384 -1 382 9 Q382 11 382.5 14 Q383 17 383 20 L383 164 Q383 185 382.5 206 Q382 227 382 249 Q382 254 384 260 Q386 266 384 272 Q382 283 376 291 Q370 299 363 307 Q358 313 353 318.5 Q348 324 340 328 Q322 336 305 336 Q297 337 288.5 336.5 Q280 336 272 336 Q264 335 257.5 332.5 Q251 330 244 328 Q214 317 202 290 Q194 274 194 259 L194 239 Q194 185 192.5 131 Q191 77 191 23 Q191 20 192 17 Q193 14 192 11 Q192 4 189.5 2.5 Q187 1 180 0 Q178 0 176 -1.5 Q174 -3 172 -3 L73 -3 L64 -3 Q60 -3 58 -2 Q54 -1 52 7 Q52 9 52.5 10 Q53 11 53 13 L53 25 Q53 97 51.5 169.5 Q50 242 50 314 Z " />
<glyph glyph-name="i" unicode="i" horiz-adv-x="258" d="M58 225 L58 428 Q58 436 59 440 Q59 444 60 446 Q61 448 61.5 449.5 Q62 451 65 451 Q67 452 68 453 Q69 454 71 454 L86 454 Q109 454 131.5 454.5 Q154 455 177 455 Q179 455 181.5 454 Q184 453 186 453 Q193 453 194 450.5 Q195 448 196 442 Q198 436 198 433 Q198 431 199 428.5 Q200 426 200 424 L200 25 L200 13 Q200 11 199 9 Q198 7 198 5 Q197 -2 190 -4 Q188 -4 186 -6 Q184 -6 182.5 -3.5 Q181 -1 179 -1 Q153 -1 127.5 -2 Q102 -3 76 -3 L69 -3 Q67 -3 66.5 -2.5 Q66 -2 64 -2 Q58 0 57 3 Q55 9 55 11 Q55 14 56.5 17.5 Q58 21 58 24 L58 225 Z M127 502 L75 502 Q73 502 70.5 500.5 Q68 499 65 499 Q58 501 56 509 Q56 510 56.5 511 Q57 512 57 514 Q56 516 56.5 518 Q57 520 57 522 Q57 543 56 563.5 Q55 584 55 605 Q55 607 55.5 609 Q56 611 56 613 L56 618 Q57 624 66 626 Q72 628 75 628 L108 628 Q125 628 142 627 Q159 626 176 626 Q178 626 180.5 627.5 Q183 629 185 629 Q187 629 187.5 627.5 Q188 626 190 626 Q197 624 198 619 L198 615 Q198 612 199.5 608.5 Q201 605 201 602 Q201 582 201.5 563.5 Q202 545 202 525 Q202 522 201 519.5 Q200 517 200 514 Q199 513 197.5 512.5 Q196 512 196 510 Q195 506 194 504 Q193 502 188 502 L180 502 L127 502 Z " />
<glyph glyph-name="j" unicode="j" horiz-adv-x="334" d="M284 206 Q284 155 285 105.5 Q286 56 285 5 Q285 -1 283 -7 Q281 -13 281 -18 Q280 -35 278 -50.5 Q276 -66 271 -81 Q267 -95 260.5 -106 Q254 -117 246 -128 Q241 -133 238 -139 Q235 -145 230 -149 Q218 -160 203.5 -166 Q189 -172 173 -177 Q163 -179 153 -179.5 Q143 -180 133 -181 Q130 -181 127.5 -182.5 Q125 -184 122 -184 Q118 -185 110 -185 Q104 -184 97.5 -183.5 Q91 -183 85 -182 Q71 -181 57.5 -180 Q44 -179 30 -175 Q28 -174 27.5 -172 Q27 -170 25 -169 Q17 -167 16 -160 Q16 -159 17 -158 Q18 -157 18 -156 Q18 -133 16.5 -109 Q15 -85 15 -62 Q15 -61 14.5 -60.5 Q14 -60 14 -58 Q14 -47 27 -49 Q29 -49 30 -48.5 Q31 -48 33 -49 Q35 -49 37.5 -51 Q40 -53 43 -54 Q51 -56 59.5 -56.5 Q68 -57 76 -58 Q84 -59 91 -58 Q98 -57 106 -55 Q109 -54 111.5 -52 Q114 -50 117 -49 Q131 -42 136 -32 Q138 -27 139 -22.5 Q140 -18 140 -13 Q141 -11 140.5 -8.5 Q140 -6 140 -3 Q140 1 141.5 5 Q143 9 143 14 Q143 117 141.5 219.5 Q140 322 140 426 Q140 429 140.5 432.5 Q141 436 141 439 Q141 441 141.5 442.5 Q142 444 142 446 Q144 454 150 455 Q151 455 151.5 453 Q152 451 154 452 Q156 452 157.5 453 Q159 454 161 454 Q187 454 212 453.5 Q237 453 263 453 Q266 453 268.5 454 Q271 455 274 455 Q281 454 283 444 Q283 443 282.5 442 Q282 441 282 439 Q283 435 282.5 432 Q282 429 282 425 Q282 370 283.5 315.5 Q285 261 285 206 L284 206 Z M211 502 Q198 502 185.5 501 Q173 500 160 500 Q158 500 155 499.5 Q152 499 150 499 Q142 501 140 508 Q139 510 141.5 511.5 Q144 513 144 515 Q144 518 143.5 521 Q143 524 143 526 Q143 545 141 563.5 Q139 582 139 600 Q139 604 141 607.5 Q143 611 144 616 Q144 618 145 620 Q146 622 145.5 624 Q145 626 147 627 Q149 628 150 626.5 Q151 625 153 625 Q155 625 157.5 626 Q160 627 163 627 L262 627 Q264 627 266 628 Q268 629 270 629 Q272 629 272.5 627.5 Q273 626 275 625 Q283 623 284 619 Q284 617 283.5 615 Q283 613 283 611 Q284 605 284.5 599 Q285 593 285 586 Q285 569 283.5 552.5 Q282 536 282 519 Q282 517 283 514 Q284 511 284 508 Q282 501 275 501 Q273 500 270 501 Q267 502 265 502 L211 502 Z " />
<glyph glyph-name="k" unicode="k" horiz-adv-x="532" d="M40 315 L40 601 Q40 604 41 607 Q42 610 42 613 Q42 618 43 620 Q44 624 44.5 627.5 Q45 631 49 631 Q51 632 54 630 Q57 628 59 628 Q68 628 76.5 629.5 Q85 631 94 631 Q111 631 127 630 Q143 629 160 629 Q162 629 164.5 629.5 Q167 630 169 630 Q171 630 171.5 628.5 Q172 627 174 626 Q181 624 181 622 Q182 620 182 617 Q182 612 181.5 608.5 Q181 605 181 600 Q181 532 182 464.5 Q183 397 183 329 Q183 323 181.5 317.5 Q180 312 180 306 Q180 303 182 299 Q182 297 185 296.5 Q188 296 189 297 Q190 297 192 299 L198 305 Q209 316 219 328 Q229 340 240 351 Q263 374 287 396.5 Q311 419 334 442 Q336 444 337.5 444.5 Q339 445 340 447 Q344 451 347 453.5 Q350 456 355 456 Q357 456 358.5 455 Q360 454 362 454 Q393 454 424 455.5 Q455 457 487 457 Q490 457 496 455 Q498 455 498.5 454.5 Q499 454 501 454 Q503 453 501 448 Q500 447 501.5 445 Q503 443 502 442 Q498 437 494 434 Q490 431 487 427 Q467 407 447.5 388.5 Q428 370 408 350 Q387 327 366 304.5 Q345 282 323 259 Q321 257 319.5 256 Q318 255 317 253 Q314 250 317 244 Q319 242 319.5 239.5 Q320 237 322 235 Q341 212 359 189.5 Q377 167 395 144 Q406 130 419.5 117 Q433 104 444 90 Q458 73 472.5 55 Q487 37 501 20 Q503 18 503 15.5 Q503 13 504 11 Q505 9 507 9 Q509 9 509 7 Q511 2 504 0 Q502 -2 500 -3 L493 -3 Q460 -3 427.5 -2 Q395 -1 363 -1 Q358 -1 355 0 Q349 0 344 5 Q342 7 339.5 8.5 Q337 10 335 12 Q318 32 301 53 Q284 74 267 94 Q258 106 249.5 118.5 Q241 131 231 142 Q227 148 225 150 Q223 153 220 151 Q217 149 214 147 Q213 147 211.5 147.5 Q210 148 209 147 Q204 142 199 137 Q194 132 189 127 L187 125 Q181 117 181 110 Q181 108 182.5 105.5 Q184 103 184 101 Q184 81 184.5 62 Q185 43 185 23 Q185 19 184.5 15.5 Q184 12 184 8 Q183 0 172 -2 L167 -2 Q139 -2 111.5 -3 Q84 -4 56 -4 Q54 -4 52.5 -3 Q51 -2 49 -1 Q42 -1 40 7 Q40 9 40.5 11 Q41 13 41 15 Q41 18 41.5 21 Q42 24 42 27 Q42 99 41 171 Q40 243 40 315 Z " />
<glyph glyph-name="l" unicode="l" horiz-adv-x="260" d="M201 313 Q201 241 202 168.5 Q203 96 203 24 Q203 21 202 18 Q201 15 201 12 Q201 10 202.5 9 Q204 8 204 6 Q203 3 200 2.5 Q197 2 194 1 Q192 -1 190 -1 Q188 -2 186 -3 Q184 -4 182 -4 Q156 -4 131.5 -4.5 Q107 -5 81 -5 Q79 -5 76.5 -3 Q74 -1 72 -1 Q71 -1 70 -1.5 Q69 -2 68 -2 Q65 -1 64.5 1 Q64 3 63 6 Q63 8 61 8.5 Q59 9 59 11 Q59 13 59.5 16 Q60 19 60 21 L60 605 L60 615 Q60 617 61.5 617.5 Q63 618 63 620 Q64 626 69 627 Q70 627 71 627.5 Q72 628 73 628 Q76 629 81 629 Q106 629 131 629.5 Q156 630 182 630 Q184 630 186 628.5 Q188 627 190 626 Q194 626 194 626 Q198 625 200 620 L200 614 Q200 611 202 607.5 Q204 604 204 601 Q204 529 202.5 457 Q201 385 201 313 Z " />
<glyph glyph-name="m" unicode="m" horiz-adv-x="806" d="M50 229 Q50 280 49 329.5 Q48 379 48 430 Q48 434 49 437 Q50 440 51 443 Q51 446 52 448 Q52 454 58 456 Q59 457 63 457 Q65 458 70 458 Q92 458 114 457 Q136 456 158 456 Q160 456 163 456.5 Q166 457 168 456 Q175 456 177 448 Q178 446 177 444.5 Q176 443 177 441 Q177 439 179 436.5 Q181 434 182 432 Q182 430 180.5 429.5 Q179 429 180 427 Q182 422 188 426 Q188 426 191 429 Q195 433 197 434 Q214 446 232.5 452.5 Q251 459 271 463 Q291 466 309 464 Q327 462 346 457 Q384 445 410 419 Q414 417 415 415 Q421 409 431 417 L436 422 Q454 437 475.5 445.5 Q497 454 520 459 Q535 462 548 462 Q571 465 590 464 Q613 462 636 456.5 Q659 451 679 440 Q688 435 696 429.5 Q704 424 712 417 Q727 403 735.5 385 Q744 367 752 347 Q764 321 767 293 Q768 285 769 277.5 Q770 270 770 262 Q770 201 769.5 140.5 Q769 80 769 19 L769 10 Q769 2 761 0 Q759 -1 758 -0.5 Q757 0 756 0 Q754 0 752.5 -0.5 Q751 -1 749 -1 Q724 -1 699.5 -0.5 Q675 0 649 0 Q647 0 644.5 -1.5 Q642 -3 640 -3 Q639 -2 635 -2 Q633 -1 632.5 2 Q632 5 631 8 Q630 10 630 13 Q630 16 628.5 19 Q627 22 627 26 Q627 80 626.5 134 Q626 188 626 242 Q626 246 628 250 Q630 254 630 259 Q629 267 626 274.5 Q623 282 620 290 Q618 296 617 302.5 Q616 309 612 314 Q607 322 600 325.5 Q593 329 585 332 Q580 334 575 336.5 Q570 339 565 339 Q560 339 555 338.5 Q550 338 545 338 Q540 338 537 336 Q534 334 530 332 Q519 329 509.5 324.5 Q500 320 494 310 Q481 288 480 265 Q480 260 481 256 Q482 252 482 247 L482 28 Q482 25 482.5 22 Q483 19 483 16 Q483 14 482.5 13 Q482 12 482 10 Q481 1 471 1 Q469 0 468.5 -1 Q468 -2 467 -2 L460 -2 Q435 -2 410 -2.5 Q385 -3 360 -3 Q358 -3 355.5 -1.5 Q353 0 351 0 Q348 0 346 1 Q342 1 340 7 Q340 11 338 15 L338 28 Q338 82 337.5 135 Q337 188 337 242 Q337 248 338.5 253.5 Q340 259 340 265 Q339 277 334.5 288.5 Q330 300 324 311 Q313 326 297 332 Q292 334 286.5 334.5 Q281 335 276 336 L254 336 Q248 335 242 335 Q236 335 231 333 Q223 329 216.5 322.5 Q210 316 205 308 Q200 300 198 292 Q196 284 194 276 Q191 264 191 254 L191 239 L191 25 Q191 22 192 19 Q193 16 193 14 Q193 12 192.5 11 Q192 10 192 8 Q191 3 185 1 Q183 0 182 0 Q181 0 179 -1 Q177 -1 175 -0.5 Q173 0 171 0 Q146 0 121.5 -0.5 Q97 -1 72 -1 L64 -1 L59 -1 Q53 0 51 9 L51 15 Q51 18 50 20.5 Q49 23 49 26 Q49 77 49.5 127.5 Q50 178 50 229 Z " />
<glyph glyph-name="n" unicode="n" horiz-adv-x="565" d="M50 230 Q50 280 51.5 329.5 Q53 379 53 429 Q53 433 52.5 436.5 Q52 440 52 444 Q53 451 55.5 454.5 Q58 458 66 457 Q68 457 69 458.5 Q70 460 72 460 Q94 460 116 458.5 Q138 457 160 457 Q163 457 165.5 456.5 Q168 456 171 456 Q177 455 178 449 Q179 447 181 445 Q183 443 183 441 Q183 439 183.5 436.5 Q184 434 184 432 Q185 430 183 428.5 Q181 427 181 425 Q182 422 186 420.5 Q190 419 192 421 Q194 422 194 424 Q194 426 196 427 Q218 444 243 452 Q268 460 294 463 Q304 465 313 466 Q322 467 331 466 Q349 465 365.5 462.5 Q382 460 399 454 Q416 449 431 442.5 Q446 436 459 425 Q468 417 474 407.5 Q480 398 487 389 Q501 369 510 348.5 Q519 328 524 304 Q526 293 527 281 Q528 269 528 257 Q528 218 526.5 179.5 Q525 141 525 102 Q525 82 527.5 63 Q530 44 530 24 Q530 22 529 19.5 Q528 17 528 15 Q528 13 526 9 Q525 3 519 2 Q517 2 516.5 1.5 Q516 1 514 1 Q512 1 510 0.5 Q508 0 506 0 Q481 0 456.5 -0.5 Q432 -1 407 -1 L398 -1 Q396 -1 395 0 Q394 1 392 1 Q388 2 386 9 Q386 11 384.5 12 Q383 13 383 15 Q383 17 383.5 20 Q384 23 384 26 L384 252 Q384 258 385.5 264 Q387 270 385 276 Q383 284 380.5 291.5 Q378 299 373 305 Q365 319 348 327 Q339 332 329 334 Q319 336 308 337 Q299 338 290 338.5 Q281 339 272 338 Q264 338 256.5 337 Q249 336 242 333 Q225 327 215 314.5 Q205 302 200 285 Q198 280 196.5 275.5 Q195 271 194 266 Q194 261 195.5 257 Q197 253 197 249 Q197 193 196 138.5 Q195 84 195 29 Q195 26 195.5 22.5 Q196 19 196 16 Q196 12 195 9 Q194 2 185 0 Q184 -1 183 0 Q182 1 180 1 Q178 1 176.5 0 Q175 -1 173 -1 Q148 -1 123 -0.5 Q98 0 73 0 Q71 0 68.5 1.5 Q66 3 64 3 L60 3 Q55 5 54 8 Q54 10 52 12 Q50 14 50 16 Q49 19 50.5 22.5 Q52 26 52 29 Q52 80 51 129.5 Q50 179 50 230 Z " />
<glyph glyph-name="o" unicode="o" horiz-adv-x="551" d="M274 -9 Q253 -9 233.5 -5.5 Q214 -2 195 3 Q169 10 145.5 20 Q122 30 102 47 Q86 61 74.5 78.5 Q63 96 53 115 Q50 120 47.5 126 Q45 132 43 138 Q38 152 34 165 Q30 178 28 192 Q23 219 25 248 Q28 287 43 325 Q51 344 61 361 Q71 378 85 393 Q93 401 102 406.5 Q111 412 119 418 Q134 429 150.5 437 Q167 445 184 451 Q200 456 215.5 459 Q231 462 247 464 Q256 465 264.5 466.5 Q273 468 282 467 Q321 465 360 452 Q383 445 403.5 435 Q424 425 442 410 Q459 395 471.5 376 Q484 357 495 337 Q502 323 508 308 Q514 293 517 277 Q523 243 522 212 Q520 192 515 172 Q510 152 502 132 Q497 122 493 112 Q489 102 483 93 Q466 67 442 49.5 Q418 32 390 18 Q360 3 326 -3 Q312 -5 299 -7 Q286 -9 274 -9 Z M168 229 Q168 219 167 214 Q166 209 168 201 Q170 191 175.5 182 Q181 173 186 164 Q191 157 194.5 150 Q198 143 205 138 Q225 123 245 119 Q253 117 262 117.5 Q271 118 280 118 Q295 119 310 124 Q335 132 351 149 Q359 159 363.5 170 Q368 181 371 193 Q375 210 377 226 Q379 242 376 259 Q374 268 371 277 Q368 286 363 294 Q350 315 325 328 Q320 330 314 330.5 Q308 331 303 333 Q298 335 293.5 336.5 Q289 338 284 338 Q271 340 258.5 337.5 Q246 335 233 330 Q213 323 198.5 311 Q184 299 176 280 Q171 268 169.5 255 Q168 242 168 229 Z " />
<glyph glyph-name="p" unicode="p" horiz-adv-x="564" d="M59 139 Q59 211 57.5 282.5 Q56 354 56 426 Q56 433 58 443 Q59 454 70 454 L78 454 Q101 454 122.5 453 Q144 452 166 452 Q168 452 169 453.5 Q170 455 172 455 Q176 455 176 455 Q183 455 186 445 Q186 442 187 439 Q188 436 188 433 Q189 431 188.5 429 Q188 427 189 425 Q189 424 188.5 422.5 Q188 421 189 420 Q189 418 191 419 Q193 420 194 421 Q196 422 197 422 Q198 422 200 423 Q203 425 206 427.5 Q209 430 212 432 Q238 450 265 457 Q273 459 281 461 Q289 463 297 464 Q305 465 312 463.5 Q319 462 326 461 Q346 460 365 458.5 Q384 457 403 449 Q418 442 432 433.5 Q446 425 459 414 Q469 405 478 395 Q487 385 494 374 Q510 351 517 324.5 Q524 298 529 270 Q533 235 532 201 Q530 178 525 156 Q520 134 511 114 Q497 83 476 59 Q465 45 453 33 Q441 21 425 13 Q406 2 385.5 -2.5 Q365 -7 343 -9 Q325 -11 306.5 -11 Q288 -11 271 -6 Q256 -2 243.5 5.5 Q231 13 218 21 Q216 22 214.5 21.5 Q213 21 211 22 Q210 22 209.5 23 Q209 24 207 24 Q203 26 200 21 Q200 20 201 19 Q202 18 202 17 L202 6 Q202 -33 201 -72 Q200 -111 200 -150 Q200 -153 199.5 -155.5 Q199 -158 199 -161 Q199 -162 201 -163.5 Q203 -165 203 -167 Q202 -171 198.5 -172 Q195 -173 191 -174 Q189 -174 187 -175 Q185 -176 183 -176 Q156 -176 129.5 -176.5 Q103 -177 76 -177 Q74 -177 71.5 -177.5 Q69 -178 67 -177 Q64 -177 61.5 -174 Q59 -171 58 -168 Q58 -166 58.5 -163 Q59 -160 59 -157 Q59 -155 58 -152 Q57 -149 57 -146 Q57 -74 58 -3.5 Q59 67 59 139 Z M392 227 Q392 236 390 245.5 Q388 255 386 264 Q382 283 371 301 Q366 307 361.5 312 Q357 317 350 322 Q332 334 315 335 Q313 336 310.5 337 Q308 338 306 338 Q293 340 281 337 Q269 334 257 329 Q235 320 222 301 Q210 284 205 270 Q202 258 201.5 246 Q201 234 201 222 Q201 220 200.5 219.5 Q200 219 201 217 Q201 214 200 211 Q199 208 199 206 Q201 194 205.5 184 Q210 174 215 164 Q229 136 253 125 Q258 123 262 122.5 Q266 122 271 120 Q279 118 287 118 Q295 118 303 118 Q311 118 318 120 Q325 122 333 124 Q346 129 357 135.5 Q368 142 376 153 Q380 160 381.5 167 Q383 174 385 181 Q388 192 390 203.5 Q392 215 392 227 Z " />
<glyph glyph-name="q" unicode="q" horiz-adv-x="563" d="M507 140 Q507 68 506 -3.5 Q505 -75 505 -147 Q505 -151 505.5 -154 Q506 -157 506 -161 L506 -167 Q504 -175 500 -176 Q498 -176 497 -176.5 Q496 -177 495 -177 Q493 -177 491 -176 Q489 -175 487 -175 Q461 -175 436 -174.5 Q411 -174 385 -174 Q383 -174 380.5 -175 Q378 -176 376 -176 Q373 -176 372 -175 Q365 -173 365 -169 Q364 -167 365.5 -166 Q367 -165 367 -163 Q365 -155 365 -151 Q365 -112 365.5 -73 Q366 -34 366 5 Q366 7 365 10 Q364 13 364 15 Q364 17 363.5 17.5 Q363 18 363 20 Q362 22 359 21 Q357 20 356 20.5 Q355 21 353 20 Q350 18 347 18 Q344 18 342 16 Q313 -1 278 -6 Q270 -8 262.5 -9.5 Q255 -11 247 -11 Q218 -11 186 -3 Q165 3 145.5 11.5 Q126 20 109 34 Q102 39 96.5 46 Q91 53 86 59 Q54 102 41 151 Q35 172 32 197 Q31 208 31.5 218 Q32 228 32 238 Q34 267 39 293.5 Q44 320 55 346 Q61 360 69.5 371.5 Q78 383 87 394 Q99 408 114 419 Q129 430 146 438 Q165 448 184.5 454.5 Q204 461 225 463 Q229 463 233 462.5 Q237 462 242 462 Q271 463 299 456.5 Q327 450 352 434 Q356 431 360 428.5 Q364 426 368 423 Q370 421 372 421 Q374 421 375.5 420 Q377 419 377 421 Q378 422 376.5 423.5 Q375 425 375 426 Q376 430 377.5 433.5 Q379 437 380 441 Q381 443 380 444.5 Q379 446 380 448 Q382 455 388 455 Q391 456 397 456 Q407 456 417 454.5 Q427 453 437 453 Q450 453 463 453.5 Q476 454 489 454 Q491 454 493.5 454.5 Q496 455 499 454 Q504 453 506 446 Q506 444 508 440 Q508 437 507 433.5 Q506 430 506 427 Q506 355 506.5 283.5 Q507 212 507 140 Z M174 227 Q174 222 173.5 218 Q173 214 173 209 Q174 194 179 179 Q186 154 207 135 Q209 133 212.5 132 Q216 131 218 129 Q225 125 231.5 123.5 Q238 122 246 120 Q254 118 261 117 Q268 116 276 116 Q283 116 290 116.5 Q297 117 304 119 Q309 121 313.5 124 Q318 127 322 129 Q340 140 351 160 Q356 169 358 178.5 Q360 188 362 199 Q364 213 365.5 226.5 Q367 240 365 254 Q361 278 348 298 Q329 327 299 334 Q287 337 274.5 336 Q262 335 250 333 Q234 331 221 323 Q209 316 201.5 307 Q194 298 188 286 Q185 279 182.5 273 Q180 267 178 260 Q176 252 175.5 243.5 Q175 235 174 227 Z " />
<glyph glyph-name="r" unicode="r" horiz-adv-x="354" d="M46 227 Q46 277 47 326 Q48 375 48 426 Q48 430 47.5 433.5 Q47 437 47 442 Q47 443 46.5 444 Q46 445 47 447 Q47 452 57 454 Q59 454 60.5 455.5 Q62 457 64 457 Q87 457 110.5 457.5 Q134 458 157 458 Q159 458 161.5 457 Q164 456 166 456 Q170 455 172 448 Q173 445 175.5 442.5 Q178 440 178 438 Q179 436 177 433 Q175 430 175 428 Q176 426 176.5 425.5 Q177 425 178 423 Q180 419 185 421 Q186 421 188 423 Q190 424 192 424 Q194 424 196 425 Q211 434 227 440.5 Q243 447 260 450 Q274 452 288 454.5 Q302 457 316 457 L325 457 Q332 455 335 448 Q335 447 334.5 446 Q334 445 334 443 Q334 441 333.5 439 Q333 437 333 435 Q333 413 332 392 Q331 371 331 349 Q331 347 333 345.5 Q335 344 334 342 L334 337 Q332 329 323 329 Q318 328 313 327.5 Q308 327 303 327 Q298 326 294 327.5 Q290 329 286 329 Q274 328 262 325 Q250 322 239 319 Q228 317 218.5 316 Q209 315 199 311 Q189 308 189 294 L189 284 Q189 220 188.5 156 Q188 92 188 27 Q188 24 188.5 21 Q189 18 189 15 Q189 13 187 7 Q186 2 179 1 L175 1 Q173 1 171.5 0 Q170 -1 168 -1 Q143 -1 118 -0.5 Q93 0 67 0 L59 0 L54 0 Q52 1 50 7 Q47 10 47 11 Q47 16 46 19.5 Q45 23 45 28 Q45 78 45.5 127.5 Q46 177 46 227 Z " />
<glyph glyph-name="s" unicode="s" horiz-adv-x="470" d="M416 377 L416 336 Q416 334 417 332 Q418 330 418 328 Q418 327 418.5 326 Q419 325 419 323 Q418 321 415 318 Q412 315 409 316 Q407 316 404 318 Q401 320 399 320 Q388 322 378.5 324 Q369 326 358 328 Q344 331 331 330.5 Q318 330 304 332 Q285 334 266.5 335 Q248 336 228 336 Q221 336 215 336 Q209 336 202 335 Q198 335 190 333 Q187 332 182 327 Q175 318 180 311 Q182 309 185 308.5 Q188 308 190 306 Q194 304 198 303 Q202 302 207 301 Q216 298 225 296.5 Q234 295 244 293 Q255 291 266 286.5 Q277 282 289 280 Q315 275 338 268 Q354 263 370 257 Q386 251 400 242 Q409 235 419 224 Q439 206 448 176 Q457 145 453 116 Q452 111 452.5 106 Q453 101 451 96 Q443 64 420 41 Q415 36 408 31.5 Q401 27 394 22 Q380 14 366.5 7.5 Q353 1 338 -4 Q324 -7 310.5 -8.5 Q297 -10 283 -12 Q273 -14 263.5 -13 Q254 -12 244 -12 Q237 -13 230.5 -12.5 Q224 -12 216 -12 Q202 -12 187.5 -12 Q173 -12 159 -10 Q142 -8 125 -6.5 Q108 -5 91 -2 Q80 0 70.5 4 Q61 8 50 10 Q48 11 42 13 Q34 17 33 22 Q33 24 34.5 26 Q36 28 36 30 Q36 52 35.5 73.5 Q35 95 35 117 L35 125 Q35 126 34.5 127.5 Q34 129 35 130 Q36 132 42 132 Q44 132 45.5 133 Q47 134 49 133 Q57 131 65 129.5 Q73 128 81 126 Q97 123 112.5 119.5 Q128 116 144 114 Q157 112 170 112 Q183 112 197 111 Q204 111 210 109 Q216 107 222 106 Q229 106 235 107 Q241 108 248 109 Q253 109 258 109.5 Q263 110 268 111 Q274 111 279.5 112 Q285 113 291 115 Q294 116 297.5 115.5 Q301 115 304 117 Q306 118 306 119.5 Q306 121 308 122 Q319 133 308 145 Q303 151 298 154 Q295 156 292 158 Q289 160 285 162 Q273 165 260.5 165.5 Q248 166 236 168 Q222 170 209 171.5 Q196 173 182 176 Q161 180 141.5 187.5 Q122 195 103 206 Q93 211 84.5 215.5 Q76 220 68 228 Q66 231 63.5 234.5 Q61 238 58 241 Q49 255 42 269 Q35 283 33 300 Q32 307 33 313.5 Q34 320 34 328 Q34 340 37 351.5 Q40 363 45 374 Q50 383 55 391.5 Q60 400 68 407 Q78 417 88.5 425 Q99 433 112 438 Q130 447 150 450.5 Q170 454 190 456 Q206 458 221 460.5 Q236 463 251 462 Q264 461 276.5 460 Q289 459 302 458 Q321 456 339 454 Q357 452 375 449 Q382 447 388.5 445 Q395 443 403 441 Q408 441 410 440 Q414 438 414.5 435.5 Q415 433 416 429 L416 420 Q417 409 416.5 398.5 Q416 388 416 377 Z " />
<glyph glyph-name="t" unicode="t" horiz-adv-x="365" d="M83 222 Q83 245 84 266.5 Q85 288 85 311 Q85 313 84.5 316 Q84 319 84 321 Q84 325 76 327 Q74 327 71.5 328 Q69 329 67 329 Q58 329 49.5 328 Q41 327 32 327 Q30 327 27.5 328 Q25 329 23 329 L18 329 Q16 330 14 336 L14 341 Q14 343 12.5 344.5 Q11 346 11 348 Q11 371 11.5 392.5 Q12 414 12 436 Q12 441 13 444 L13 449 Q15 455 19 456 Q21 457 23.5 456.5 Q26 456 28 456 Q37 456 46.5 456.5 Q56 457 65 457 L74 457 Q84 457 84 465 Q84 467 83 469.5 Q82 472 82 474 Q82 488 82.5 502 Q83 516 83 530 L83 614 Q83 616 84 619 Q85 622 86 624 Q86 626 84 627.5 Q82 629 83 631 Q84 633 92 635 Q93 636 93.5 637.5 Q94 639 96 639 Q98 639 99.5 637.5 Q101 636 103 636 Q129 636 154.5 638 Q180 640 206 640 Q208 640 209 638 Q210 636 212 636 Q214 636 215 637.5 Q216 639 217 639 Q221 638 222 634.5 Q223 631 224 628 L224 622 L224 612 Q224 578 225 544.5 Q226 511 226 477 L226 467 Q227 461 229 459.5 Q231 458 237 457 L246 457 Q262 457 277 456 Q292 455 307 455 Q310 455 312.5 454.5 Q315 454 317 454 Q327 452 328 447 L328 442 Q328 440 328.5 437.5 Q329 435 329 433 Q329 413 327.5 392.5 Q326 372 326 352 Q326 349 325.5 346 Q325 343 325 340 Q324 330 315 329 L305 329 Q289 329 273.5 330 Q258 331 243 331 Q241 331 238.5 329 Q236 327 233 326 Q231 326 228 325.5 Q225 325 225 323 Q224 321 225.5 320 Q227 319 227 317 Q227 315 226 313.5 Q225 312 225 310 Q225 272 226.5 234.5 Q228 197 228 159 Q228 157 225.5 154.5 Q223 152 224 150 Q224 147 226 144 Q228 141 229 137 Q231 131 233.5 125.5 Q236 120 243 118 Q246 117 249.5 118 Q253 119 256 119 Q266 118 275 117.5 Q284 117 294 119 Q304 120 314 121 Q324 122 334 124 Q336 124 338 125.5 Q340 127 342 127 Q350 127 352 120 Q352 118 351.5 117.5 Q351 117 351 115 Q351 112 350.5 109 Q350 106 350 102 Q350 84 351 66.5 Q352 49 352 31 Q352 26 351 22.5 Q350 19 350 15 Q349 8 342 5 Q340 4 339.5 3 Q339 2 337 1 Q323 -3 308 -4 Q293 -5 279 -6 Q276 -7 273 -8 Q270 -9 268 -9 L239 -9 Q212 -8 185 0 Q171 4 157.5 8.5 Q144 13 132 22 Q113 38 102 56 Q94 69 90.5 83.5 Q87 98 85 113 Q84 121 83.5 128 Q83 135 83 143 Q83 163 82.5 182.5 Q82 202 82 222 L83 222 Z " />
<glyph glyph-name="u" unicode="u" horiz-adv-x="589" d="M534 229 L534 26 Q534 23 534.5 20.5 Q535 18 535 15 L535 9 Q534 3 524 1 Q523 1 522 0.5 Q521 0 520 0 L513 0 Q491 0 469.5 1 Q448 2 426 2 Q424 2 421.5 1.5 Q419 1 417 1 Q415 1 414 1.5 Q413 2 412 2 Q405 4 405 6 Q404 8 404 14 Q404 16 404.5 18.5 Q405 21 404 23 Q404 25 403 27 Q402 29 401 32 Q400 37 395 33 Q394 32 392.5 33.5 Q391 35 389 34 Q385 32 381.5 29 Q378 26 373 24 Q353 11 332 2 Q311 -7 287 -10 L276 -10 Q258 -12 240 -10 Q217 -8 195 -1 Q173 6 152 17 Q143 22 134 26.5 Q125 31 117 38 Q95 59 83 84.5 Q71 110 65 139 Q62 153 60.5 165.5 Q59 178 58 192 Q58 197 59 202.5 Q60 208 60 213 Q60 268 59 322.5 Q58 377 58 431 Q58 434 57 436.5 Q56 439 57 442 Q57 446 58 448 Q58 454 68 454 L75 454 Q102 454 129.5 454.5 Q157 455 184 455 Q188 455 191 454 Q199 454 200 447 L200 442 Q202 434 202 431 L202 217 L202 199 Q202 194 202.5 189 Q203 184 204 179 Q206 171 206.5 164 Q207 157 211 151 Q217 142 226 137.5 Q235 133 245 129 Q256 124 266 123 Q273 121 279.5 119.5 Q286 118 293 117 Q303 117 312.5 117.5 Q322 118 332 120 Q336 121 340 122.5 Q344 124 348 126 Q372 137 384 160 Q388 168 387.5 176 Q387 184 388 193 Q388 197 388.5 200 Q389 203 389 207 Q389 262 390.5 316.5 Q392 371 392 426 Q392 429 390.5 432 Q389 435 389 437 Q389 439 389.5 440 Q390 441 390 443 Q390 456 404 456 Q405 456 406 457.5 Q407 459 408 459 L515 459 Q517 459 518 457 Q519 455 521 455 Q523 454 525 454 Q532 452 533 449 L533 443 Q533 440 532 437 Q531 434 531 430 Q531 379 532.5 329.5 Q534 280 534 229 Z " />
<glyph glyph-name="w" unicode="w" horiz-adv-x="712" d="M81 456 Q95 456 108 454.5 Q121 453 134 453 Q136 453 138.5 452.5 Q141 452 143 452 Q147 451 149.5 451 Q152 451 154 448 Q155 446 154 443.5 Q153 441 153 439 Q157 426 161 414 Q165 402 168 389 Q176 360 185.5 330.5 Q195 301 203 272 Q207 260 209 247.5 Q211 235 215 223 Q216 221 217 218.5 Q218 216 219 214 Q219 215 222 212 Q223 211 223 212 Q225 214 225.5 215.5 Q226 217 227 219 Q229 224 230 229 Q231 234 233 239 Q247 289 259.5 338 Q272 387 286 437 Q288 441 290 447 Q291 451 294.5 453 Q298 455 302 456 Q304 456 305 455.5 Q306 455 308 455 Q333 455 357 454.5 Q381 454 406 454 Q408 454 409.5 455.5 Q411 457 413 456 Q420 456 424 449 Q425 447 424 444.5 Q423 442 424 440 Q426 431 429 422 Q432 413 434 404 Q442 378 448 352 Q454 326 462 300 Q467 283 471.5 266 Q476 249 481 232 Q482 228 482.5 224 Q483 220 484 215 Q485 214 487 213.5 Q489 213 490 212 Q491 209 493 212 Q494 214 495 215.5 Q496 217 497 219 Q499 228 501.5 236.5 Q504 245 507 254 Q518 293 528 332.5 Q538 372 549 412 Q551 419 552 425 Q553 431 555 437 Q556 439 558.5 441 Q561 443 562 445 Q564 449 565.5 452 Q567 455 572 455 Q574 456 575.5 454.5 Q577 453 579 453 Q606 453 633.5 453.5 Q661 454 688 454 Q691 454 697 452 Q705 452 705 445 Q703 439 702 437 Q697 423 694 409 Q691 395 686 381 Q675 349 664 317.5 Q653 286 643 254 Q637 237 631.5 219.5 Q626 202 620 185 Q610 153 599.5 120.5 Q589 88 578 56 Q575 45 573.5 33.5 Q572 22 568 11 Q568 9 566.5 7.5 Q565 6 563 4 Q562 0 556 0 Q554 -1 550 -1 Q548 -1 546 -2.5 Q544 -4 542 -4 Q516 -4 491.5 -3 Q467 -2 442 -2 Q440 -2 438 -1 Q436 0 434 0 Q433 0 432 -1.5 Q431 -3 429 -2 Q424 -1 421 7 Q420 9 418 11.5 Q416 14 415 16 Q412 27 410.5 38 Q409 49 405 60 Q399 81 391.5 101.5 Q384 122 379 142 Q374 156 372.5 169 Q371 182 367 196 Q365 204 363 208 Q363 208 360 211 Q357 214 354 211 Q353 210 353 207 Q351 205 351 202.5 Q351 200 350 198 L308 54 Q305 44 302.5 34.5 Q300 25 297 15 Q295 9 294 7 Q290 -3 284 -4 Q282 -5 280 -4.5 Q278 -4 276 -4 Q249 -4 222 -2 Q195 0 168 0 Q166 0 164 -0.5 Q162 -1 160 -1 Q157 -1 154 0 Q151 1 149 4 Q148 6 149 8 Q150 10 149 12 Q147 15 147.5 18 Q148 21 147 24 Q135 61 123 97 Q111 133 99 169 Q92 191 84 211.5 Q76 232 68 254 Q57 289 48.5 323 Q40 357 29 392 Q26 402 22.5 411.5 Q19 421 16 432 Q15 434 12.5 436 Q10 438 9 441 Q9 442 10.5 443.5 Q12 445 12 446 Q12 452 16 453 Q17 453 18 454 Q19 455 20 455 L29 455 Q42 455 55 455.5 Q68 456 81 456 Z " />
<glyph glyph-name="v" unicode="v" horiz-adv-x="521" d="M79 457 Q93 457 106 457.5 Q119 458 133 458 Q135 458 137.5 456.5 Q140 455 143 454 Q146 454 149 453.5 Q152 453 154 451 Q156 449 155.5 446.5 Q155 444 156 442 Q160 431 163 420.5 Q166 410 170 399 Q176 384 183 369.5 Q190 355 196 340 L247 211 Q250 202 255 192 Q256 190 255 188.5 Q254 187 255 185 Q256 184 259.5 184 Q263 184 264 185 Q265 188 265 193 Q267 199 268.5 205 Q270 211 272 217 Q280 237 289 255 Q298 273 306 293 Q319 326 329.5 360 Q340 394 353 427 Q355 432 358 435.5 Q361 439 363 444 L366 450 Q370 456 374 456 Q376 456 378 457 Q380 458 382 458 Q410 458 437.5 457.5 Q465 457 493 457 Q495 457 495.5 455.5 Q496 454 498 454 Q499 454 499.5 455.5 Q500 457 501 457 Q511 455 509 445 Q508 443 506.5 442 Q505 441 504 439 Q496 420 489.5 401.5 Q483 383 475 365 Q470 354 466.5 342 Q463 330 458 319 Q442 278 426.5 238.5 Q411 199 394 159 Q384 133 373.5 108.5 Q363 84 352 58 Q347 47 343 36.5 Q339 26 334 15 Q333 13 331.5 10.5 Q330 8 329 6 Q326 0 321 -2 Q319 -2 318 -0.5 Q317 1 315 1 Q313 1 311 0.5 Q309 0 307 0 Q282 0 258 -0.5 Q234 -1 209 -1 Q207 -1 204.5 -1.5 Q202 -2 200 -2 Q191 -2 187 7 Q183 13 182 16 Q170 45 159.5 74.5 Q149 104 137 133 Q120 175 103.5 216.5 Q87 258 70 300 Q59 326 48.5 350.5 Q38 375 27 401 Q23 410 20.5 419.5 Q18 429 14 439 Q12 441 10 442.5 Q8 444 7 446 Q5 453 15 455 Q18 456 25 456 Q39 456 52 456.5 Q65 457 79 457 Z " />
<glyph glyph-name="x" unicode="x" horiz-adv-x="540" d="M95 454 L157 454 Q159 454 162 455.5 Q165 457 167 457 Q174 455 178 451 Q180 449 181 448.5 Q182 448 184 446 Q204 422 222.5 397.5 Q241 373 261 348 Q263 346 264.5 345 Q266 344 268 342 Q269 341 268.5 339.5 Q268 338 269 337 Q270 336 272.5 335.5 Q275 335 277 337 Q279 338 279 340.5 Q279 343 281 345 Q283 348 286 351 Q289 354 291 357 Q308 379 327 400 Q346 421 363 444 Q364 446 364 447.5 Q364 449 366 451 Q370 456 378 456 Q380 457 382 456.5 Q384 456 386 456 Q418 456 450.5 456.5 Q483 457 515 457 Q517 457 519 455 Q521 453 523 453 Q524 453 525 454.5 Q526 456 527 455 Q529 454 529 449 Q528 447 528.5 445.5 Q529 444 528 443 Q526 441 523.5 439 Q521 437 519 435 Q500 412 482 388.5 Q464 365 446 342 Q426 316 406.5 290.5 Q387 265 367 240 Q365 238 365 236 Q365 234 363 232 Q361 227 363 223 Q364 221 364.5 220.5 Q365 220 366 218 Q383 196 401 174.5 Q419 153 436 131 Q453 109 471 87 Q489 65 506 42 Q511 37 513.5 29.5 Q516 22 521 16 Q523 14 525.5 13.5 Q528 13 530 11 Q530 11 530 7 Q531 3 527 1 Q525 0 524.5 0.5 Q524 1 522 1 Q520 0 518.5 -1.5 Q517 -3 515 -3 L386 -3 Q385 -3 384 -2 Q383 -1 382 -1 Q371 -3 364 6 Q360 11 358 16 Q356 21 352 26 Q335 47 318 68.5 Q301 90 284 112 Q282 114 279.5 113 Q277 112 276 114 Q272 117 269 114 L263 108 Q255 97 246 86.5 Q237 76 228 65 Q217 51 205 37 Q193 23 182 9 Q174 0 160 0 Q143 0 126 -2 Q109 -4 92 -4 Q78 -4 63 -3.5 Q48 -3 34 -3 Q28 -3 25 -2 Q24 -2 23 -2.5 Q22 -3 20 -3 Q15 -2 14 2 Q13 6 16 10 Q18 15 21 20 Q28 28 35.5 34.5 Q43 41 49 49 Q61 65 73.5 80 Q86 95 98 110 Q112 128 126 147 Q140 166 154 184 Q160 192 167 199 Q174 206 181 214 Q182 216 186 220 Q188 224 186.5 227 Q185 230 183 234 Q182 235 182.5 236.5 Q183 238 182 239 Q162 263 142 286.5 Q122 310 102 334 Q83 357 65.5 380 Q48 403 29 426 Q27 430 23.5 433 Q20 436 17 440 Q16 442 14.5 443.5 Q13 445 12 447 Q12 449 13.5 452.5 Q15 456 17 457 L23 457 Q25 458 27.5 457.5 Q30 457 32 457 Q48 457 63.5 455.5 Q79 454 95 454 Z " />
<glyph glyph-name="y" unicode="y" horiz-adv-x="517" d="M79 450 Q93 450 105.5 452.5 Q118 455 132 455 Q134 455 136 454.5 Q138 454 140 454 Q152 452 155 445 Q157 443 155.5 439.5 Q154 436 155 434 Q160 423 165.5 412 Q171 401 176 390 Q182 375 188 359.5 Q194 344 199 329 Q212 297 225 264.5 Q238 232 251 200 Q252 197 251.5 193.5 Q251 190 252 187 Q253 186 255 186 Q257 186 258 185 Q260 181 261 184 Q263 186 264 188 Q265 191 267 199 Q284 241 301 281 Q318 321 334 363 Q342 382 349 400 Q356 418 363 437 Q364 439 363.5 441.5 Q363 444 364 446 Q367 453 375 453 L382 453 Q410 454 437 454.5 Q464 455 492 455 Q494 455 495.5 452.5 Q497 450 499 450 Q500 450 501 451.5 Q502 453 504 453 Q509 450 509 445 Q509 442 507 439.5 Q505 437 504 435 Q501 427 499.5 419.5 Q498 412 495 404 Q484 378 472.5 354.5 Q461 331 450 306 Q434 266 419 226 Q404 186 388 146 Q377 120 367 95.5 Q357 71 346 45 L316 -30 Q309 -45 302 -60 Q295 -75 287 -89 Q278 -103 267.5 -116 Q257 -129 245 -140 Q242 -142 239.5 -144 Q237 -146 235 -148 Q222 -158 207 -163.5 Q192 -169 177 -174 Q164 -177 152 -179.5 Q140 -182 126 -183 Q120 -184 114 -183.5 Q108 -183 101 -182 Q89 -181 77 -180 Q65 -179 52 -176 Q48 -175 45 -174 Q42 -173 38 -172 Q36 -172 34.5 -172.5 Q33 -173 32 -172 Q20 -169 19 -161 Q19 -157 21 -153.5 Q23 -150 23 -146 Q23 -127 21.5 -108.5 Q20 -90 21 -70 Q21 -66 20.5 -63 Q20 -60 21 -56 Q21 -55 20 -54 Q19 -53 20 -52 Q20 -49 23.5 -47 Q27 -45 29 -45 Q31 -45 31.5 -47 Q32 -49 33 -49 Q35 -50 37 -48 Q39 -46 41 -46 Q47 -48 52.5 -49.5 Q58 -51 64 -52 Q91 -58 119 -55 Q128 -55 139 -52 Q150 -50 157 -43.5 Q164 -37 171 -29 Q174 -25 178.5 -22 Q183 -19 186 -14 Q188 -9 186.5 -3.5 Q185 2 183 7 L183 10 Q173 34 164.5 58.5 Q156 83 146 108 Q141 119 135.5 128 Q130 137 126 148 Q109 188 94 228 Q79 268 62 308 Q52 333 42 358 Q32 383 21 408 Q19 416 17 422.5 Q15 429 12 437 Q11 439 10 440 Q9 441 9 443 Q7 451 15 453 L24 453 Q38 453 51.5 453.5 Q65 454 79 454 L79 450 Z " />
<glyph glyph-name="z" unicode="z" horiz-adv-x="515" d="M258 458 Q309 458 359.5 456.5 Q410 455 461 455 Q464 455 467 456.5 Q470 458 472 458 Q477 458 477 458 Q485 458 487 448 Q487 446 486 444 Q485 442 485 440 Q485 433 486 426.5 Q487 420 487 413 Q487 400 485.5 387 Q484 374 484 361 Q484 358 485.5 355.5 Q487 353 487 351 Q487 347 484 344.5 Q481 342 478 339 Q476 337 476 335 Q476 333 474 332 Q463 322 452.5 312.5 Q442 303 431 293 Q420 283 408 274.5 Q396 266 385 256 Q371 244 357.5 231.5 Q344 219 330 208 Q322 200 312.5 195.5 Q303 191 295 184 Q287 177 281.5 169 Q276 161 268 155 Q263 150 258 146.5 Q253 143 248 138 Q246 136 244.5 135 Q243 134 241 132 Q237 130 242 128 Q244 128 244.5 127.5 Q245 127 247 127 Q250 127 253 126 Q256 125 259 125 Q309 125 358.5 126.5 Q408 128 459 128 Q461 128 464 127.5 Q467 127 470 127 Q471 127 472 126.5 Q473 126 474 126 Q486 126 486 115 L486 111 Q486 109 486.5 108.5 Q487 108 487 106 Q487 85 487.5 63.5 Q488 42 488 21 Q488 19 486 16.5 Q484 14 483 12 Q483 11 485 9.5 Q487 8 487 7 Q485 -1 479 -1 Q477 -2 476 -1.5 Q475 -1 473 -1 Q470 -1 467.5 -1.5 Q465 -2 462 -2 Q359 -2 258 -1.5 Q157 -1 54 -1 Q52 -1 49 0 Q46 1 44 1 Q42 1 40.5 0 Q39 -1 37 -1 Q35 1 34.5 3.5 Q34 6 33 9 Q33 11 32 12.5 Q31 14 31 16 Q31 21 31.5 25.5 Q32 30 32 35 Q32 50 30 65.5 Q28 81 28 96 Q28 99 28.5 101.5 Q29 104 29 107 Q29 110 31.5 112.5 Q34 115 36 118 Q37 118 39 123 Q46 128 53 133 Q60 138 67 143 Q75 151 84 157.5 Q93 164 101 172 Q112 182 122.5 192.5 Q133 203 145 213 Q156 223 168 232 Q180 241 191 251 Q198 257 205 263 Q212 269 220 275 Q228 283 237 289.5 Q246 296 255 304 Q260 308 263 312 Q266 316 271 321 Q273 322 273 323 Q273 324 275 325 Q276 328 274 328 Q272 328 271.5 330 Q271 332 269 332 Q266 332 263.5 330 Q261 328 258 328 L53 328 Q51 328 48 328.5 Q45 329 43 329 Q31 330 31 343 L31 347 Q31 370 30.5 393 Q30 416 30 439 Q30 442 32 446 Q32 447 31.5 448 Q31 449 31 450 Q33 456 37 457 Q39 457 40 458 Q41 459 43 459 Q45 459 48 457.5 Q51 456 53 456 Q105 456 156 457 Q207 458 258 458 Z " />
<glyph glyph-name="exclam" unicode="&#x21;" horiz-adv-x="262" d="M59 400 Q59 451 60.5 501.5 Q62 552 62 603 L62 613 Q62 615 60.5 616 Q59 617 59 619 Q60 626 68 628 Q70 628 70.5 627.5 Q71 627 73 628 Q75 628 77 629 Q79 630 81 630 Q106 630 131 629.5 Q156 629 181 629 Q183 629 185 627.5 Q187 626 189 626 Q190 626 191 626.5 Q192 627 194 627 Q198 626 199 620 Q200 618 201 617.5 Q202 617 202 615 Q202 612 202.5 609.5 Q203 607 203 604 Q203 501 202.5 399.5 Q202 298 202 195 Q202 193 201 190.5 Q200 188 200 186 Q200 184 202 183 Q204 182 204 180 Q203 176 199.5 175 Q196 174 192 174 Q190 173 189.5 172 Q189 171 187 171 Q159 171 131 171.5 Q103 172 75 172 Q73 172 71.5 171 Q70 170 68 170 Q64 171 63.5 174 Q63 177 62 180 Q62 182 61.5 182.5 Q61 183 61 185 L61 197 Q61 248 60 298.5 Q59 349 59 400 Z M131 126 Q144 126 156.5 125.5 Q169 125 182 125 Q184 125 186 123.5 Q188 122 190 122 Q200 121 200 113 Q200 111 200.5 109.5 Q201 108 201 106 L201 15 Q201 13 199 7 Q197 -1 193 -2 Q190 -3 187.5 -2.5 Q185 -2 182 -2 Q156 -2 130.5 -2.5 Q105 -3 79 -3 Q77 -3 76 -2.5 Q75 -2 73 -2 Q71 -1 70.5 -1.5 Q70 -2 68 -2 Q60 0 59 7 Q59 9 58.5 12 Q58 15 58 17 L58 104 Q58 106 60 108 Q62 110 62 112 Q62 114 61 114.5 Q60 115 60 117 Q61 120 67 122 Q69 122 69.5 123.5 Q70 125 72 125 Q74 125 76 124 Q78 123 80 123 Q93 123 105.5 124.5 Q118 126 131 126 Z " />
<glyph glyph-name="D" unicode="D" horiz-adv-x="718" d="M60 313 L60 603 Q60 606 61 609 Q62 612 62 615 Q62 617 61 618 Q60 619 60 621 Q61 625 67 627 Q69 627 70.5 627.5 Q72 628 74 628 Q76 628 78.5 628.5 Q81 629 83 629 Q146 629 209 628.5 Q272 628 335 628 Q346 628 357.5 629 Q369 630 380 629 Q407 627 433 621.5 Q459 616 484 606 Q508 597 529.5 583 Q551 569 571 553 Q591 536 607.5 518 Q624 500 638 477 Q649 460 656 441 Q663 422 668 402 Q672 387 675.5 372 Q679 357 680 342 Q681 332 680 323 Q679 314 678 304 Q677 269 670.5 236 Q664 203 648 171 Q640 157 633 142.5 Q626 128 616 115 Q606 103 595.5 92 Q585 81 573 71 Q559 60 544.5 53 Q530 46 515 38 Q479 20 440 11 Q413 5 390 2 Q381 1 372.5 0 Q364 -1 356 -1 L332 -1 Q269 -1 207.5 -1.5 Q146 -2 83 -2 Q81 -2 78 -1 Q75 0 73 0 Q71 1 70 0.5 Q69 0 67 0 Q60 2 59 6 Q59 8 58.5 9 Q58 10 58 12 Q58 15 58.5 18 Q59 21 59 24 Q59 96 59.5 168.5 Q60 241 60 313 Z M203 315 L203 145 Q203 142 201.5 139.5 Q200 137 200 134 Q201 127 212 125 Q214 125 217 124.5 Q220 124 222 124 L333 124 Q343 124 352.5 124.5 Q362 125 372 126 Q389 128 405.5 131 Q422 134 438 142 Q457 150 471 163 Q485 176 498 192 Q509 205 516 219 Q523 233 528 250 Q533 264 536 278.5 Q539 293 540 308 Q540 316 539 323 Q538 330 537 338 Q535 358 530.5 376 Q526 394 517 411 Q509 425 499 436.5 Q489 448 477 458 Q463 471 447 481 Q431 491 413 496 Q386 502 358 502 Q353 502 349 501 Q345 500 340 500 L220 500 Q218 500 216 501 Q214 502 212 502 Q210 502 209 502.5 Q208 503 206 502 Q202 502 202 497 Q202 497 202 492 Q202 490 201.5 487 Q201 484 201 482 Q201 440 202 398.5 Q203 357 203 315 Z " />
<glyph glyph-name="numbersign" unicode="&#x23;" horiz-adv-x="636" d="M105 305 Q113 305 122 304 Q131 303 139 303 Q141 303 143 304.5 Q145 306 147 306 Q149 307 152 307 Q155 307 156 309 Q157 312 157 317 Q157 325 156.5 331.5 Q156 338 156 345 L157 346 Q155 355 150 356 Q148 356 145.5 355 Q143 354 141 354 Q125 355 110 354.5 Q95 354 80 354 Q78 354 75.5 353 Q73 352 70 353 Q69 353 68 353.5 Q67 354 65 354 Q61 356 59 361 Q59 362 59.5 363 Q60 364 60 366 Q60 370 59 373.5 Q58 377 58 380 Q59 384 60.5 387.5 Q62 391 63 395 Q64 406 64.5 415.5 Q65 425 66 435 Q66 438 65 441 Q64 444 65 446 Q66 452 75 454 Q77 454 79.5 453.5 Q82 453 85 453 L145 453 Q147 453 149.5 453.5 Q152 454 154 454 Q155 454 156 453.5 Q157 453 159 454 Q165 454 167 461 Q168 463 167.5 463.5 Q167 464 167 466 Q168 471 167 476.5 Q166 482 167 488 Q168 497 169 506 Q170 515 171 525 Q171 527 171.5 527.5 Q172 528 172 530 Q173 540 172.5 550 Q172 560 172 570 Q174 581 174.5 592.5 Q175 604 176 615 Q176 617 177 618 Q178 619 179 621 Q180 624 181.5 624.5 Q183 625 185 626 Q187 626 187.5 627 Q188 628 190 628 Q192 628 194.5 629.5 Q197 631 199 631 L285 631 L294 631 Q296 631 297 629.5 Q298 628 299 628 Q306 625 307 621 Q307 620 306 619 Q305 618 305 617 Q305 615 305.5 613.5 Q306 612 306 610 Q305 600 303.5 590 Q302 580 301 569 Q300 561 300.5 552.5 Q301 544 300 536 Q300 531 298.5 527 Q297 523 296 518 Q295 504 294.5 491.5 Q294 479 293 466 Q293 461 295.5 457.5 Q298 454 304 453 Q306 453 306.5 453.5 Q307 454 308 454 Q318 454 327 454.5 Q336 455 346 455 Q348 455 349.5 454 Q351 453 353 454 Q359 454 361 461 L361 465 Q362 468 360.5 471 Q359 474 360 476 Q360 482 361 488 Q362 494 363 500 Q364 509 365 518.5 Q366 528 367 537 Q367 546 368 555 Q369 564 370 573 Q370 576 369 579 Q368 582 369 584 Q369 592 368.5 599.5 Q368 607 369 615 Q369 617 371 623 Q372 627 378 629 Q380 630 381 629.5 Q382 629 384 630 Q386 630 389 630.5 Q392 631 394 631 Q415 631 436 629 Q457 627 478 627 Q480 627 482.5 629 Q485 631 487 631 Q492 631 493 630 Q499 628 499 620 Q499 618 500 615 Q501 612 500 609 Q499 597 497 585 Q495 573 493 561 Q492 551 491.5 542 Q491 533 490 523 Q489 515 491 506 Q493 497 493 489 Q492 484 490 480.5 Q488 477 488 472 Q488 470 488.5 467 Q489 464 489 462 Q489 455 494 455 Q496 455 496.5 455.5 Q497 456 499 456 Q501 455 504 456 Q507 457 509 457 Q523 457 537 456.5 Q551 456 565 456 L575 456 Q581 454 581 446 Q582 444 582 439 Q581 427 580.5 415.5 Q580 404 579 392 Q578 386 577 379.5 Q576 373 576 367 L579 366 Q577 355 567 354 Q565 354 562 355 Q559 356 557 356 Q542 356 527 354.5 Q512 353 498 353 Q495 353 492.5 354 Q490 355 488 354 Q481 354 479 347 Q479 345 478 343 Q477 341 477 339 Q476 333 478 326.5 Q480 320 480 314 Q480 313 479 312.5 Q478 312 478 311 Q478 306 483 304 Q484 304 485 304.5 Q486 305 488 305 Q490 305 492.5 303.5 Q495 302 497 302 Q511 302 525.5 302.5 Q540 303 555 303 Q557 303 559.5 304.5 Q562 306 564 306 Q568 305 569.5 301.5 Q571 298 571 295 Q571 293 573 292.5 Q575 292 575 290 Q575 287 573 283 Q572 272 572 262 Q572 252 571 241 Q570 237 569 233.5 Q568 230 567 226 Q567 224 566.5 222 Q566 220 566 218 Q565 216 565.5 214.5 Q566 213 566 211 Q563 205 558 204 Q556 204 553.5 203.5 Q551 203 548 203 Q534 203 519 203.5 Q504 204 489 204 Q487 204 484.5 205 Q482 206 480 206 Q479 206 478.5 203.5 Q478 201 476 201 Q474 200 471.5 200 Q469 200 468 198 Q468 196 469 195 Q470 194 469 193 Q469 189 468 186.5 Q467 184 466 180 Q465 171 465 162 Q465 153 464 143 Q463 132 461.5 122 Q460 112 459 101 Q458 94 458 87.5 Q458 81 457 73 Q456 64 456.5 54.5 Q457 45 456 35 Q456 29 455 23.5 Q454 18 453 12 Q453 9 452 7 Q451 2 446 1 Q444 1 444 -1.5 Q444 -4 442 -4 Q440 -4 439.5 -2.5 Q439 -1 437 -1 Q414 -1 391 -2 Q368 -3 345 -3 Q343 -3 341.5 -2 Q340 -1 338 0 Q336 0 335.5 0.5 Q335 1 334 1 Q331 3 329 3.5 Q327 4 326 6 Q326 9 325 11 Q325 12 325.5 13 Q326 14 326 16 Q327 25 326.5 34 Q326 43 327 52 Q328 63 331 72.5 Q334 82 335 93 Q336 103 335 112.5 Q334 122 335 132 L335 136 Q336 146 337.5 155.5 Q339 165 340 175 Q341 178 340 181 Q339 184 339 188 L339 197 Q339 204 334 204 Q332 205 331 204.5 Q330 204 328 204 Q317 204 307.5 203 Q298 202 287 202 Q285 202 284 202.5 Q283 203 281 202 Q278 202 276 198 Q275 196 275 192 Q274 185 273.5 178.5 Q273 172 273 165 Q272 156 272 147 Q272 138 271 129 L271 124 Q270 114 269.5 104 Q269 94 268 84 Q268 74 265.5 65 Q263 56 262 46 Q261 38 261.5 30 Q262 22 261 14 Q261 12 262 10 Q263 8 262 6 Q260 0 253 -2 Q251 -2 250.5 -2.5 Q250 -3 248 -3 Q246 -4 244 -2.5 Q242 -1 240 -1 Q218 -1 196 -2 Q174 -3 152 -3 Q150 -3 148 -2.5 Q146 -2 144 -2 Q143 -2 142 -1.5 Q141 -1 139 -1 Q136 0 134 7 Q134 9 134.5 9.5 Q135 10 135 12 Q135 16 134 19.5 Q133 23 133 28 Q134 39 135.5 50.5 Q137 62 138 73 Q139 82 139.5 91.5 Q140 101 141 110 Q141 113 142 115 Q143 128 141.5 141 Q140 154 142 167 Q142 174 143.5 180 Q145 186 145 192 Q146 194 145 194.5 Q144 195 144 197 Q144 203 140 203 Q138 203 137.5 202.5 Q137 202 135 202 Q133 203 130.5 204 Q128 205 126 205 Q112 205 97 204.5 Q82 204 68 204 Q66 204 58 206 Q51 206 50 214 Q50 216 50.5 219 Q51 222 51 224 Q51 230 49.5 236 Q48 242 48 248 Q49 259 50 269 Q51 279 52 290 Q52 292 54 293 Q56 294 57 296 Q59 303 61 304 Q63 304 65.5 304.5 Q68 305 70 305 Q79 305 87.5 303.5 Q96 302 105 302 L105 305 Z M316 305 L316 303 Q321 303 325 304 Q329 305 334 306 Q336 306 338 304 Q340 302 342 302 Q348 303 350 310 Q351 312 350 314 Q349 316 349 318 Q349 324 349.5 330 Q350 336 351 341 Q351 343 352 344.5 Q353 346 353 348 Q352 350 350 351.5 Q348 353 346 354 L341 354 Q330 354 319 353 Q308 352 297 352 Q296 352 295.5 352.5 Q295 353 294 353 Q289 352 289 348 Q286 345 286 345 Q285 337 286 330.5 Q287 324 287 316 Q287 314 285 313 Q283 312 283 310 Q285 304 289 304 Q291 303 293 303.5 Q295 304 297 304 Q302 304 306.5 304.5 Q311 305 316 305 Z " />
<glyph glyph-name="dollar" unicode="&#x24;" horiz-adv-x="561" d="M236 201 L236 264 Q236 266 235 269 Q234 272 234 274 Q234 278 229 281 Q228 281 227.5 282.5 Q227 284 225 284 Q219 286 215 286 Q194 291 173.5 295.5 Q153 300 133 308 Q116 315 100 325.5 Q84 336 70 349 Q61 357 55.5 367 Q50 377 45 388 Q40 399 36 410 Q32 421 30 434 Q30 437 29 440.5 Q28 444 28 448 Q28 453 28 459 Q28 465 29 470 Q31 525 62 565 Q67 572 73.5 577.5 Q80 583 86 588 Q101 599 117.5 606.5 Q134 614 151 621 Q166 626 181 631 Q196 636 212 638 Q215 639 218 640 Q221 641 224 642 Q226 642 227.5 640.5 Q229 639 230 639 Q235 641 235 646 Q237 650 237 653 Q237 658 236.5 662 Q236 666 236 671 Q237 673 237 678 Q239 686 242 687 L249 687 Q267 687 285 685.5 Q303 684 320 684 Q322 684 323.5 683.5 Q325 683 327 683 Q329 682 332 682 Q335 682 336 679 Q337 676 337 671 Q337 666 335.5 662 Q334 658 334 653 L334 647 Q335 644 336.5 641 Q338 638 341 637 Q342 636 343.5 638 Q345 640 347 640 Q371 637 395 631.5 Q419 626 442 620 Q453 617 464.5 613 Q476 609 487 605 Q493 605 496 604 Q501 601 501 594 Q502 592 502 587 Q502 565 502.5 543 Q503 521 503 499 Q503 497 503.5 496 Q504 495 504 493 Q502 480 489 482 Q487 484 484 484 Q479 486 475 487.5 Q471 489 467 491 Q446 496 424.5 500 Q403 504 382 508 Q375 510 368.5 510.5 Q362 511 355 513 Q351 513 348 515 Q345 517 341 516 Q335 516 335 510 Q333 508 333 506 Q333 504 334 501.5 Q335 499 335 497 Q335 484 334 471.5 Q333 459 333 445 Q333 434 332.5 422 Q332 410 332 398 Q332 396 334.5 393.5 Q337 391 337 389 Q338 384 342 382 Q344 381 346 380 Q348 379 351 379 Q365 375 379.5 370.5 Q394 366 408 361 Q416 358 425 356 Q434 354 442 350 Q475 334 500 307 Q509 297 516 285.5 Q523 274 528 261 Q534 246 536 231 Q538 216 538 200 Q538 192 539 185.5 Q540 179 539 172 Q535 120 503 78 Q493 66 482 55 Q471 44 457 36 Q429 18 395 9 Q372 3 350 0 Q347 0 341 -2 Q333 -4 333 -9 L333 -17 Q333 -22 334 -27 Q335 -32 335 -37 Q335 -39 334 -40 Q333 -41 332 -43 Q332 -46 327 -48 L324 -48 Q322 -48 320.5 -50.5 Q319 -53 317 -53 Q301 -53 285 -51 Q269 -49 252 -49 Q250 -49 247.5 -51 Q245 -53 243 -52 Q235 -52 233 -42 Q233 -40 234 -38 Q235 -36 235 -34 Q235 -29 235.5 -25 Q236 -21 236 -16 Q236 -14 234.5 -12.5 Q233 -11 233 -9 Q232 -5 229 -3 Q227 -3 225.5 -3.5 Q224 -4 222 -3 Q215 -2 208.5 0.5 Q202 3 195 4 Q170 8 146 12 Q122 16 98 23 Q87 26 75 29 Q63 32 52 35 Q42 39 38 41 Q27 45 27 53 Q27 55 28 57 Q29 59 29 61 Q29 83 29.5 105 Q30 127 30 150 Q30 152 29.5 153.5 Q29 155 29 157 Q29 158 29.5 158.5 Q30 159 30 160 Q31 163 33 166 Q35 169 38 168 Q40 168 41 167.5 Q42 167 43 167 Q45 166 47 164 Q49 162 51 161 L105 143 Q121 138 137.5 136 Q154 134 171 131 Q183 128 194 127 Q205 126 217 124 Q219 123 222 121 Q225 119 227 119 Q230 119 232.5 122 Q235 125 235 128 Q235 130 234.5 132.5 Q234 135 234 137 Q234 153 235 169 Q236 185 236 201 Z M333 184 L333 135 Q333 133 334 130.5 Q335 128 335 126 L335 121 Q336 119 337 117 Q338 115 340 116 Q342 116 344 115.5 Q346 115 348 116 Q356 118 362.5 123.5 Q369 129 376 134 Q382 138 386 144 Q391 151 394.5 158.5 Q398 166 399 175 Q399 180 398.5 183.5 Q398 187 398 191 Q398 197 396.5 202 Q395 207 393 212 Q390 218 386.5 223 Q383 228 377 233 Q371 238 363.5 241.5 Q356 245 348 248 Q346 249 345.5 249.5 Q345 250 343 251 Q340 252 336.5 250.5 Q333 249 333 246 Q333 244 334 241.5 Q335 239 335 237 Q335 224 334 211 Q333 198 333 184 Z M236 466 Q236 476 235.5 486 Q235 496 235 507 L235 516 Q233 527 224 525 Q217 523 210.5 521.5 Q204 520 198 517 Q184 510 179 498 Q174 486 173 472 Q173 469 172.5 466.5 Q172 464 173 461 Q174 452 176 443.5 Q178 435 185 429 Q188 427 191 425 Q194 423 198 421 Q203 418 209.5 415.5 Q216 413 222 411 Q224 411 225 410.5 Q226 410 228 410 Q232 409 232 414 Q234 420 234 423 Q234 434 235 444.5 Q236 455 236 466 Z " />
<glyph glyph-name="percent" unicode="&#x25;" horiz-adv-x="988" d="M962 194 Q961 180 960 166.5 Q959 153 957 140 Q951 111 939 86 Q931 69 920.5 55.5 Q910 42 896 30 Q891 26 887 22.5 Q883 19 878 16 Q863 7 847.5 2.5 Q832 -2 815 -5 Q802 -7 789.5 -8.5 Q777 -10 764 -9 Q742 -7 721.5 0 Q701 7 683 20 Q674 25 666 31.5 Q658 38 652 46 Q635 66 626.5 90.5 Q618 115 613 141 Q609 161 607.5 179.5 Q606 198 608 218 Q610 243 616 266.5 Q622 290 633 312 Q636 317 638.5 321 Q641 325 643 330 Q655 348 671.5 361.5 Q688 375 708 384 Q723 391 739.5 392.5 Q756 394 773 395 Q778 395 783 396 Q788 397 793 396 Q824 396 857 382 Q877 374 892.5 360 Q908 346 921 327 Q939 300 948 269 Q953 254 954.5 239 Q956 224 957 209 Q957 204 959.5 200.5 Q962 197 962 194 Z M835 192 L835 208 Q833 232 825 253 Q823 255 823 258.5 Q823 262 821 264 Q806 282 786 282 Q784 282 783 283 Q782 284 780 284 Q771 284 764 279 Q757 274 751 267 Q742 257 738 245 Q736 240 736 234.5 Q736 229 735 223 Q733 213 731 203.5 Q729 194 730 184 Q730 175 732 166.5 Q734 158 736 150 Q738 142 741.5 136 Q745 130 750 124 Q754 118 762 113 Q783 102 804 112 Q809 114 813.5 116 Q818 118 821 123 Q827 131 829.5 140.5 Q832 150 834 160 Q836 168 835.5 176 Q835 184 835 192 Z M382 439 Q382 413 377.5 390 Q373 367 365 344 Q359 330 353.5 315.5 Q348 301 338 289 Q327 275 312.5 265.5 Q298 256 282 248 Q251 234 215 234 L191 234 Q167 236 145.5 242 Q124 248 104 262 Q92 270 84 280.5 Q76 291 68 302 Q39 345 32 395 Q30 404 29.5 413.5 Q29 423 28 432 Q28 434 27 434.5 Q26 435 26 436 Q27 456 29.5 475 Q32 494 38 512 Q50 553 77 586 Q99 612 129 626 Q146 634 164.5 637 Q183 640 202 640 Q227 640 247 636 Q282 628 314 602 Q331 590 343 573 Q358 552 365.5 528.5 Q373 505 378 479 Q380 468 380.5 457.5 Q381 447 382 439 Z M152 436 Q152 434 151.5 431.5 Q151 429 151 427 Q151 417 154.5 408 Q158 399 161 390 Q163 383 164 377 Q165 371 169 365 Q173 360 178 355.5 Q183 351 190 349 Q197 346 205 346 Q231 346 245 370 Q246 372 247.5 373.5 Q249 375 250 377 Q255 388 256.5 399.5 Q258 411 259 422 Q259 429 258.5 436 Q258 443 258 450 Q257 458 255.5 464 Q254 470 252 478 Q250 485 247.5 491.5 Q245 498 240 504 Q228 523 203 523 Q189 522 177 511 Q171 505 167 498 Q158 483 156 469 Q154 461 153 453 Q152 445 152 436 Z M257 -1 L200 -1 Q193 -1 189 0 Q181 1 185 10 Q187 12 186.5 14.5 Q186 17 188 19 Q201 36 215 51.5 Q229 67 242 84 Q256 102 269.5 120 Q283 138 297 156 Q317 182 336 210 Q355 238 375 264 Q395 290 415 317 Q435 344 455 370 Q470 390 486 409.5 Q502 429 517 449 Q539 478 561.5 505 Q584 532 606 561 Q617 575 626 590 Q635 605 646 619 Q647 621 649 621 Q651 621 652 623 Q657 628 666 628 Q668 628 670 629.5 Q672 631 674 631 Q685 631 695 630 Q705 629 716 629 Q734 629 752 630.5 Q770 632 787 632 Q790 632 793 631 Q796 630 798 630 Q800 630 800.5 629 Q801 628 803 628 Q806 627 806 622 Q804 618 803 617 Q801 613 799 610 Q797 607 794 603 Q787 594 779.5 586 Q772 578 765 569 Q742 538 719 507 Q696 476 673 445 Q659 428 646 411.5 Q633 395 620 378 Q600 351 579 324.5 Q558 298 538 271 Q518 245 498 219 Q478 193 458 167 Q435 136 413 105 Q391 74 368 43 Q362 35 356 27 Q350 19 344 11 Q342 9 339.5 8.5 Q337 8 335 6 Q333 4 331 2 Q329 0 325 -1 L315 -1 L257 -1 Z " />
<glyph glyph-name="quotedbl" unicode="&#x22;" horiz-adv-x="354" d="M78 431 L51 431 Q49 431 47.5 431.5 Q46 432 44 432 Q42 433 39 434 Q36 435 35 438 Q35 440 36.5 442 Q38 444 39 446 Q40 454 39 461.5 Q38 469 39 477 Q41 495 46 512.5 Q51 530 53 547 Q55 563 55.5 578.5 Q56 594 58 610 Q59 613 60.5 615 Q62 617 63 619 Q64 621 64.5 622.5 Q65 624 68 625 Q70 625 71.5 624.5 Q73 624 75 624 Q82 624 88 626 Q94 628 100 628 L153 628 L163 628 Q171 627 169 615 Q169 614 170 613 Q171 612 171 610 Q170 607 168.5 604.5 Q167 602 167 599 Q159 572 150.5 545 Q142 518 134 490 Q131 479 130 467 Q129 455 126 444 Q126 441 124 437 Q122 434 119 434 Q116 434 113 433 Q111 433 109 432.5 Q107 432 105 432 Q98 432 91.5 431 Q85 430 78 430 L78 431 Z M272 627 L311 627 Q314 627 320 625 Q325 624 324 617 Q324 615 325.5 613 Q327 611 327 609 Q323 598 318 587 Q313 576 310 564 Q303 541 298 518.5 Q293 496 287 473 Q285 465 283.5 458.5 Q282 452 280 444 Q279 442 278 440.5 Q277 439 276 437 Q273 430 267 429 Q265 429 264 428.5 Q263 428 262 428 Q248 428 234 428.5 Q220 429 206 429 L201 429 Q192 430 192 441 Q192 443 193 444.5 Q194 446 195 448 Q197 464 199 479.5 Q201 495 203 511 Q205 531 206.5 550 Q208 569 211 589 Q212 594 212.5 599.5 Q213 605 214 611 Q215 613 216.5 614 Q218 615 218 617 Q220 621 220.5 623 Q221 625 225 626 Q227 626 229.5 625.5 Q232 625 234 625 L272 625 L272 627 Z " />
<glyph glyph-name="ampersand" unicode="&#x26;" horiz-adv-x="669" d="M638 63 Q638 52 637 42 Q636 32 636 21 Q636 19 636.5 16 Q637 13 637 11 Q637 7 629 3 Q627 2 626 0 Q625 -2 623 -3 Q613 -6 603.5 -8.5 Q594 -11 583 -12 Q569 -12 556 -9.5 Q543 -7 529 -5 Q514 -3 499 -1 Q484 1 470 9 Q461 13 453 20 Q451 21 449.5 21.5 Q448 22 446 24 Q443 26 440 28 Q437 30 434 28 Q432 26 430.5 24 Q429 22 427 20 Q416 15 404.5 10 Q393 5 381 1 Q368 -3 355 -5 Q342 -7 329 -9 Q311 -11 293 -10 Q275 -9 258 -7 Q233 -6 208 -3 Q183 0 160 9 Q123 25 96 48 Q82 60 71 74.5 Q60 89 52 106 Q45 119 41 132.5 Q37 146 35 160 Q34 167 34 173.5 Q34 180 34 188 Q34 205 36.5 220 Q39 235 47 250 Q52 264 59 276 Q66 288 77 298 Q84 306 91 312.5 Q98 319 106 324 Q108 325 109.5 325 Q111 325 113 327 Q119 330 114 337 Q113 338 111.5 338 Q110 338 108 339 Q106 341 105 343 Q104 345 102 347 Q94 354 86 361.5 Q78 369 72 378 Q64 389 61 402 Q58 415 56 429 Q48 483 72 532 Q80 546 89.5 556.5 Q99 567 111 578 Q123 589 136.5 597 Q150 605 164 612 Q180 619 196 625.5 Q212 632 229 635 Q243 637 257.5 638 Q272 639 286 639 Q316 640 345.5 635 Q375 630 404 623 Q424 618 443 612 Q462 606 481 598 Q483 597 485.5 595.5 Q488 594 490 593 Q492 591 494 590 Q496 589 498 587 Q504 584 504 578 Q505 574 506 570.5 Q507 567 507 563 Q507 543 505.5 523 Q504 503 503 483 L503 471 Q503 471 503 468 Q502 465 497 465 Q495 465 494 463 Q493 461 492 462 Q490 462 487.5 464 Q485 466 483 467 Q463 475 443 483 Q423 491 402 497 Q385 502 368.5 504.5 Q352 507 335 509 Q319 511 303.5 510 Q288 509 273 508 Q263 508 253.5 508 Q244 508 235 506 Q231 504 227 503 Q223 502 220 500 Q199 488 194 464 Q193 456 192.5 449 Q192 442 194 434 Q199 419 217 408 Q222 405 227.5 403.5 Q233 402 238 400 Q246 398 252.5 396.5 Q259 395 266 394 Q280 392 294 390.5 Q308 389 322 389 Q337 389 352.5 389.5 Q368 390 384 390 L393 390 Q398 392 399 396 Q399 398 399.5 399.5 Q400 401 400 403 L400 422 Q400 424 399 426.5 Q398 429 399 431 Q399 435 406 437 Q408 437 409 436.5 Q410 436 412 436 Q414 436 416 437.5 Q418 439 420 439 Q446 439 470.5 438 Q495 437 520 437 Q522 437 524 438 Q526 439 528 439 Q530 439 530.5 437.5 Q531 436 533 435 Q537 434 539 429 L539 423 Q539 419 540 415.5 Q541 412 541 408 Q541 405 540 402.5 Q539 400 540 397 Q540 394 543 391.5 Q546 389 549 388 Q551 388 553.5 388.5 Q556 389 558 389 L595 389 Q597 389 599.5 388.5 Q602 388 604 388 Q606 388 606.5 388.5 Q607 389 609 388 Q610 388 612 383 Q613 381 613 378 Q615 370 615 365 Q615 345 614.5 325 Q614 305 614 285 L614 274 Q614 273 611 270 Q610 266 607 265 Q605 265 602.5 264.5 Q600 264 598 264 Q590 264 581 263.5 Q572 263 564 263 Q561 263 558 262 Q555 261 552 261 Q551 260 550 261 Q549 262 548 261 Q544 261 542 257 Q541 255 541 253 Q540 251 540.5 249 Q541 247 541 245 L541 156 Q541 153 542 150 Q543 147 543 143 Q544 140 543 137 Q542 134 544 131 Q547 123 555 120 Q559 118 563 118 Q567 118 571 118 Q583 117 595 116.5 Q607 116 618 119 Q620 120 624 120 Q626 121 629 121 Q636 121 637 117 L637 109 L637 90 Q637 83 636.5 76.5 Q636 70 636 63 L638 63 Z M326 262 Q318 262 307 262.5 Q296 263 284 262 Q271 261 259 259 Q247 257 235 254 Q230 253 225.5 253.5 Q221 254 216 252 Q212 250 209 247 Q206 244 202 242 Q179 225 178 198 Q177 194 175 190.5 Q173 187 173 184 Q174 174 178.5 166 Q183 158 189 151 Q197 140 207 134 Q214 129 226 126 Q235 122 244 118.5 Q253 115 263 115 Q271 114 279 116 Q287 118 295 118 Q308 118 320 121 Q337 124 351 130.5 Q365 137 376 150 Q383 157 388.5 164.5 Q394 172 396 182 Q398 187 396.5 192 Q395 197 395 202 L395 249 Q395 251 396.5 252 Q398 253 398 255 Q396 262 389 264 Q387 264 384.5 264.5 Q382 265 380 265 Q368 265 355.5 263.5 Q343 262 326 262 Z " />
<glyph glyph-name="quotesingle" unicode="&#x27;" horiz-adv-x="198" d="M114 627 Q123 627 132.5 627.5 Q142 628 151 628 Q153 628 155 628.5 Q157 629 159 629 Q164 628 165 626 Q166 624 165 619 Q165 617 165.5 615.5 Q166 614 166 612 Q164 607 164 601 Q164 595 162 589 Q154 563 147 537.5 Q140 512 133 486 L121 447 Q120 445 121 443 Q122 441 121 439 Q119 436 115.5 436 Q112 436 109 435 Q107 435 106 434 Q105 433 103 433 L49 433 Q47 433 45 433.5 Q43 434 41 434 Q39 435 36 436.5 Q33 438 32 441 Q32 444 34.5 447 Q37 450 37 452 Q37 457 36 461 Q35 465 36 469 Q38 485 41 500.5 Q44 516 46 532 Q48 549 51 565 Q54 581 56 598 Q57 602 55.5 606 Q54 610 55 614 Q55 616 56.5 617.5 Q58 619 59 621 Q61 628 67 629 Q69 629 71.5 630 Q74 631 76 631 Q86 631 95 629 Q104 627 114 627 Z " />
<glyph glyph-name="parenleft" unicode="&#x28;" horiz-adv-x="363" d="M48 287 Q48 292 49.5 297.5 Q51 303 51 309 Q52 324 52 339 Q52 354 53 369 Q55 390 59 411 Q63 432 67 452 Q72 475 78 498 Q84 521 92 544 Q98 562 104.5 579.5 Q111 597 119 614 Q132 643 147 670 Q162 697 179 723 L191 741 Q197 750 208 747 L214 744 Q237 737 259 731 Q281 725 303 718 Q305 717 306 715.5 Q307 714 309 713 Q311 712 312.5 713.5 Q314 715 316 714 Q320 710 318 704 Q316 702 314.5 700 Q313 698 311 696 Q305 686 299.5 676.5 Q294 667 288 657 Q247 585 223 508 Q215 482 210 456 Q205 430 201 403 Q199 387 196 371 Q193 355 191 338 L191 327 Q190 306 191 284.5 Q192 263 193 241 Q193 230 194.5 220.5 Q196 211 197 201 Q198 191 196.5 181 Q195 171 197 161 Q201 136 207.5 111.5 Q214 87 222 63 Q227 43 233 24 Q239 5 247 -13 Q255 -31 265 -48.5 Q275 -66 286 -83 Q297 -102 312 -121 Q314 -123 316 -127 Q316 -129 317 -129.5 Q318 -130 319 -132 Q319 -137 315 -139 Q313 -141 312 -140.5 Q311 -140 309 -141 Q306 -142 303.5 -144.5 Q301 -147 298 -148 Q282 -154 265.5 -159 Q249 -164 233 -169 Q228 -171 222.5 -171.5 Q217 -172 212 -174 Q210 -175 208.5 -176 Q207 -177 205 -177 Q199 -178 196 -175 Q194 -173 194 -171.5 Q194 -170 192 -168 Q187 -160 179.5 -153 Q172 -146 167 -138 Q157 -122 148 -105.5 Q139 -89 130 -72 Q121 -54 113 -35 Q105 -16 97 3 Q89 26 83.5 49 Q78 72 72 95 Q67 117 63 139 Q59 161 56 184 Q54 195 53.5 205 Q53 215 52 226 Q50 241 49 256 Q48 271 48 287 Z " />
<glyph glyph-name="parenright" unicode="&#x29;" horiz-adv-x="363" d="M172 290 Q171 304 169.5 317.5 Q168 331 167 345 Q164 383 160 420.5 Q156 458 146 495 Q140 517 131 537.5 Q122 558 113 579 Q109 587 107 594.5 Q105 602 101 610 Q96 621 90 630 Q84 639 79 648 Q72 660 65.5 672 Q59 684 51 695 Q49 698 45 702 L45 707 Q44 709 44.5 712.5 Q45 716 48 718 Q50 719 51.5 718.5 Q53 718 55 719 Q60 721 63.5 722.5 Q67 724 71 725 Q89 731 106.5 736.5 Q124 742 142 747 Q144 748 147 748.5 Q150 749 152 750 Q153 750 157 752 Q161 752 167 746 Q168 744 168.5 743.5 Q169 743 170 741 Q181 726 191 710 Q201 694 211 677 Q217 666 223.5 654.5 Q230 643 236 632 Q250 601 263.5 570 Q277 539 286 507 Q293 481 296.5 454.5 Q300 428 304 401 Q306 390 308 378.5 Q310 367 312 355 Q313 344 313 332 Q313 320 313 309 L313 299 Q314 294 314.5 290 Q315 286 315 281 Q314 273 314 266 Q314 259 314 251 Q313 240 311.5 228 Q310 216 309 204 Q307 189 305 174 Q303 159 301 144 Q298 128 293.5 113 Q289 98 285 82 Q281 69 278 56.5 Q275 44 271 31 Q265 13 258 -4.5 Q251 -22 243 -39 Q233 -62 221 -83.5 Q209 -105 196 -126 Q190 -136 184 -145.5 Q178 -155 171 -165 Q169 -167 169.5 -169.5 Q170 -172 168 -174 Q166 -176 163 -176 Q160 -176 157 -176 Q155 -175 153 -175.5 Q151 -176 149 -175 Q126 -167 103.5 -157 Q81 -147 58 -139 Q56 -138 53 -139 Q50 -140 48 -138 Q40 -134 44 -126 Q45 -124 46.5 -122 Q48 -120 50 -118 Q58 -107 65.5 -96 Q73 -85 79 -73 Q89 -57 97.5 -41.5 Q106 -26 114 -9 Q122 11 129 30.5 Q136 50 142 70 Q149 91 152.5 112 Q156 133 160 155 Q162 169 164 182 Q166 195 168 209 Q169 220 170 229.5 Q171 239 171 250 Q172 260 171.5 269.5 Q171 279 172 290 Z " />
<glyph glyph-name="asterisk" unicode="&#x2a;" horiz-adv-x="454" d="M115 591 Q116 591 117.5 593 Q119 595 121 594 Q127 592 129 590 Q135 587 140.5 583 Q146 579 152 576 Q154 574 155 572.5 Q156 571 158 570 Q160 568 161.5 570.5 Q163 573 164 576 Q164 578 166.5 579.5 Q169 581 169 583 Q169 589 168 595 Q167 601 167 607 L167 615 Q169 626 176 627 Q178 627 179.5 625 Q181 623 183 624 Q185 624 187.5 625 Q190 626 192 626 L273 626 Q275 626 277.5 627 Q280 628 282 628 Q284 628 285 626.5 Q286 625 287 625 Q292 624 292 617 Q294 611 294 609 Q294 604 295.5 598.5 Q297 593 297 587 Q297 585 296.5 583.5 Q296 582 296 580 Q296 578 297 577.5 Q298 577 298 576 Q300 570 303 571 Q305 572 306.5 571.5 Q308 571 310 572 Q317 576 323 579.5 Q329 583 336 587 Q338 589 341 590 Q344 591 346 593 Q351 595 355 591 Q357 589 359 583 Q364 575 369.5 568.5 Q375 562 380 554 L398 521 Q399 519 398.5 517 Q398 515 400 513 Q400 511 402 511 Q404 511 404 509 Q406 503 400 499 Q398 497 396 497 Q394 497 392 495 Q387 492 382 488.5 Q377 485 372 482 Q368 480 364 477.5 Q360 475 355 473 Q354 472 352.5 472.5 Q351 473 349 471 Q348 470 349 468.5 Q350 467 351 466 Q352 465 352.5 465 Q353 465 354 464 Q358 460 361 459 Q369 454 376 449.5 Q383 445 391 440 Q395 438 399 435 Q408 430 403 422 L400 413 Q391 398 380 384 Q369 370 360 355 Q357 348 353 346 Q349 338 344 339 Q342 341 341 343 Q340 345 338 346 L311 361 Q309 362 308.5 363 Q308 364 306 364 Q305 365 304 363 Q303 361 302 361 Q296 363 295 360 Q295 359 295.5 358 Q296 357 296 356 Q296 354 295 352 Q294 350 294 348 L294 325 Q294 320 293 318 Q293 313 287 310 Q285 310 284.5 309.5 Q284 309 282 309 Q280 309 278.5 309.5 Q277 310 275 310 Q253 310 231.5 309 Q210 308 188 308 Q186 308 185 308.5 Q184 309 182 309 Q180 309 179 309.5 Q178 310 176 310 Q167 313 167 318 Q167 320 167.5 322.5 Q168 325 168 327 Q168 333 166 339 Q164 345 164 351 Q164 353 165 355 Q166 357 166 359 Q164 364 160 362 Q158 361 157 361 Q156 361 154 360 Q146 355 140 351 Q134 347 127 343 Q125 342 123 340.5 Q121 339 119 338 Q115 336 109 344 Q107 346 105.5 347 Q104 348 103 350 Q95 362 87.5 374 Q80 386 72 398 Q70 403 67 407.5 Q64 412 62 417 Q61 419 60 420.5 Q59 422 59 424 Q58 429 63 434 Q67 436 69 438 Q78 443 85.5 449 Q93 455 101 460 Q104 461 110 465 Q112 467 112 467.5 Q112 468 110 470 Q108 471 108 473.5 Q108 476 107 477 Q103 479 99.5 480.5 Q96 482 93 484 Q88 487 81.5 488 Q75 489 70 493 Q68 494 66 495.5 Q64 497 62 499 Q57 503 62 511 Q63 515 67 521 Q71 528 73.5 535 Q76 542 80 549 Q85 557 90.5 565.5 Q96 574 101 583 Q102 585 104.5 586 Q107 587 109 589 Q111 591 115 591 Z " />
<glyph glyph-name="plus" unicode="&#x2b;" horiz-adv-x="611" d="M153 322 L225 322 Q228 322 230.5 323.5 Q233 325 235 326 Q242 326 242 331 Q242 333 243 335.5 Q244 338 244 340 Q244 348 242.5 356.5 Q241 365 241 373 Q241 400 241.5 426.5 Q242 453 242 479 Q242 482 241.5 485 Q241 488 242 490 Q242 492 243.5 493 Q245 494 245 495 Q246 497 249 499 Q253 501 254 501 Q256 501 258.5 501.5 Q261 502 263 502 Q285 502 306.5 501.5 Q328 501 350 501 Q353 501 356 502.5 Q359 504 361 503 Q369 503 369 492 Q370 489 369.5 486 Q369 483 369 480 L369 345 Q369 343 370 340.5 Q371 338 371 336 Q371 334 372 333.5 Q373 333 373 331 Q374 329 374.5 326 Q375 323 378 322 L382 322 L392 322 Q427 322 461 322.5 Q495 323 530 323 Q533 323 535.5 322.5 Q538 322 541 321 L546 321 Q552 319 552 316 Q553 315 553 311 Q553 309 554 308 Q555 307 555 305 Q555 288 553.5 272 Q552 256 552 240 Q552 237 553 234.5 Q554 232 554 230 Q554 224 545 222 Q544 222 543 221.5 Q542 221 540 221 Q538 221 535 219.5 Q532 218 530 218 Q496 218 462 220 Q428 222 393 222 Q390 222 387.5 220 Q385 218 382 218 L378 218 Q376 217 374 217 Q372 217 371 215 Q370 213 370.5 212 Q371 211 371 210 Q371 207 370 204.5 Q369 202 369 199 Q369 166 371 132.5 Q373 99 373 66 Q373 63 372 60 Q371 57 371 55 Q370 53 370 52 Q370 51 369 50 Q368 48 363 46 Q362 46 361.5 45.5 Q361 45 359 45 Q357 45 355.5 44.5 Q354 44 352 44 Q329 44 307 44.5 Q285 45 262 45 Q260 45 258.5 43 Q257 41 255 41 Q254 41 253 41.5 Q252 42 251 42 Q244 43 244 51 Q243 53 243 57 L243 68 Q243 101 244 133.5 Q245 166 245 199 Q245 201 244 203.5 Q243 206 243 208 Q243 210 242 210.5 Q241 211 240 213 Q240 219 235 220 Q233 220 232.5 221.5 Q232 223 230 223 Q228 223 225 220.5 Q222 218 220 218 Q185 218 151.5 219.5 Q118 221 83 221 Q81 221 78.5 222 Q76 223 74 223 L69 223 Q63 224 62 230 Q62 233 61.5 235.5 Q61 238 61 241 Q61 257 60.5 272.5 Q60 288 60 304 L60 311 Q60 312 59.5 313 Q59 314 59 316 Q60 321 68 321 Q70 322 72 323.5 Q74 325 76 325 Q81 325 85.5 324.5 Q90 324 95 324 Q109 324 123.5 325 Q138 326 153 326 L153 322 Z " />
<glyph glyph-name="comma" unicode="&#x2c;" horiz-adv-x="249" d="M97 -74 Q87 -74 77 -75.5 Q67 -77 57 -77 Q55 -77 51 -75 Q44 -73 44 -67 Q44 -65 43.5 -63 Q43 -61 44 -59 Q45 -55 46 -52 Q47 -49 48 -45 Q55 -10 63 25.5 Q71 61 78 96 Q79 98 78 101 Q77 104 78 107 Q80 115 88 115 Q90 116 91 115.5 Q92 115 94 115 Q122 115 150 114 Q178 113 206 113 L211 113 Q212 113 213 114.5 Q214 116 215 116 Q217 115 218 112 Q219 109 218 107 Q218 105 215 102 Q214 99 214 95.5 Q214 92 213 89 Q198 52 183 15 Q168 -22 154 -60 Q153 -62 154 -64.5 Q155 -67 153 -69 Q150 -75 141 -75 Q136 -76 130.5 -77 Q125 -78 120 -78 Q115 -78 109 -77.5 Q103 -77 97 -77 L97 -74 Z " />
<glyph glyph-name="hyphen" unicode="&#x2d;" horiz-adv-x="438" d="M221 328 Q253 328 284.5 329 Q316 330 348 330 Q354 330 359.5 330.5 Q365 331 371 330 Q376 330 377.5 327.5 Q379 325 380 320 L380 311 Q380 295 381.5 279 Q383 263 383 246 Q383 244 382 243 Q381 242 381 240 Q381 238 380.5 237.5 Q380 237 380 235 Q379 230 374 228 Q372 228 371 229 Q370 230 369 230 Q367 230 365 228 Q363 226 361 226 L81 226 Q79 226 77 225.5 Q75 225 73 225 Q72 225 71 225.5 Q70 226 68 226 Q61 228 59 236 Q59 238 59.5 240 Q60 242 60 244 Q60 253 60.5 262 Q61 271 61 280 Q61 288 60 296.5 Q59 305 59 313 Q61 319 61 321 Q63 331 70 331 Q76 332 82 331 Q88 330 95 330 Q127 330 158 329 Q189 328 221 328 Z " />
<glyph glyph-name="period" unicode="&#x2e;" horiz-adv-x="268" d="M135 0 L83 0 Q80 0 77.5 -0.5 Q75 -1 73 -1 Q68 0 66 7 Q65 9 63.5 9.5 Q62 10 62 11 L62 19 Q62 41 64 62 Q66 83 66 105 Q66 107 64.5 108 Q63 109 63 111 Q63 113 62.5 113.5 Q62 114 62 116 Q64 126 75 128 L82 128 Q86 128 90 125.5 Q94 123 98 123 Q120 123 141.5 123.5 Q163 124 184 124 Q187 124 189.5 123.5 Q192 123 194 123 Q196 123 197 125 Q198 127 200 126 Q203 125 205 119 Q207 115 207 114 Q208 110 207 107 Q206 104 206 100 Q206 81 206.5 62 Q207 43 207 24 Q207 20 207.5 17 Q208 14 208 10 Q208 8 206 6 Q204 -1 199 -1 Q197 -2 196.5 -1.5 Q196 -1 194 -1 L185 -1 Q173 -1 160.5 0 Q148 1 135 1 L135 0 Z " />
<glyph glyph-name="slash" unicode="&#x2f;" horiz-adv-x="695" d="M99 -4 Q85 -4 70.5 -3.5 Q56 -3 42 -3 Q40 -3 37.5 -2.5 Q35 -2 32 -2 Q31 -2 30 -3 Q29 -4 28 -4 Q21 -1 23 4 Q24 6 24 7.5 Q24 9 25 10 Q26 12 28 13.5 Q30 15 32 17 Q49 40 64.5 63 Q80 86 97 109 Q117 138 140 164.5 Q163 191 183 220 Q211 258 237 296 Q263 334 291 372 Q314 404 338.5 435.5 Q363 467 387 499 Q407 526 426 553.5 Q445 581 465 607 Q479 627 494 646 Q509 665 523 685 Q525 688 528 690 Q530 693 532 695.5 Q534 698 538 698 Q540 698 541 699 Q542 700 544 700 Q575 700 605.5 699 Q636 698 667 698 L675 698 Q683 696 679 689 Q678 687 678 686 Q678 685 677 684 L668 672 Q645 640 622.5 608.5 Q600 577 577 545 Q560 522 542.5 501 Q525 480 508 457 Q482 420 457 382.5 Q432 345 406 308 Q388 284 370 260 Q352 236 335 212 Q315 184 293.5 157 Q272 130 252 102 Q239 85 227.5 67.5 Q216 50 204 33 Q199 26 193.5 20.5 Q188 15 183 8 Q182 6 181.5 4.5 Q181 3 179 1 Q173 -5 165 -5 Q163 -5 160.5 -4 Q158 -3 156 -3 Q142 -3 127.5 -3.5 Q113 -4 99 -4 Z " />
<glyph glyph-name="zero" unicode="0" horiz-adv-x="657" d="M610 314 Q610 307 609 300.5 Q608 294 608 286 Q606 254 600 222.5 Q594 191 582 161 Q574 141 565.5 123 Q557 105 544 88 Q528 67 505 48 Q497 41 488 36.5 Q479 32 470 27 Q459 21 449 14 Q439 7 427 3 Q414 -2 400 -2.5 Q386 -3 372 -5 Q355 -7 338 -8.5 Q321 -10 304 -9 Q281 -7 258.5 -2.5 Q236 2 215 11 Q198 19 181.5 27.5 Q165 36 151 48 Q146 52 142.5 56 Q139 60 135 65 Q124 77 114.5 90.5 Q105 104 97 118 Q80 147 69 178 Q58 209 53 241 Q51 252 52.5 262 Q54 272 53 282 Q52 293 49.5 303.5 Q47 314 47 325 Q49 389 66 444 Q71 459 78.5 472.5 Q86 486 94 500 Q99 508 101.5 516 Q104 524 109 532 Q127 555 144 572 Q154 581 164.5 587.5 Q175 594 186 600 Q212 615 238.5 624.5 Q265 634 294 637 Q308 639 323 638 Q338 637 353 636 Q376 634 398.5 630.5 Q421 627 443 618 Q460 611 474.5 601 Q489 591 503 580 Q511 573 518.5 567 Q526 561 533 553 Q557 526 571 496 Q579 482 583 466 Q587 450 592 434 Q597 415 602 397 Q607 379 609 359 Q610 355 608.5 351 Q607 347 607 343 Q607 335 608.5 328.5 Q610 322 610 314 Z M467 312 Q468 332 467.5 351.5 Q467 371 462 391 Q459 406 453.5 420.5 Q448 435 440 449 Q436 457 429.5 463 Q423 469 417 476 Q395 498 368 505 Q357 508 345.5 510.5 Q334 513 323 513 Q313 513 304 509 Q295 505 285 502 Q264 494 247 482.5 Q230 471 219 451 Q213 439 209 426.5 Q205 414 201 400 Q196 381 194.5 361.5 Q193 342 193 322 Q192 313 193 304.5 Q194 296 195 287 Q196 273 197 260 Q198 247 202 234 Q205 219 210 204.5 Q215 190 223 176 Q228 165 236.5 157 Q245 149 255 141 Q266 133 276.5 126 Q287 119 300 117 Q314 114 328.5 116.5 Q343 119 357 121 Q410 131 437 179 Q445 193 451.5 207 Q458 221 462 236 Q466 255 467 274 Q468 293 467 312 Z " />
<glyph glyph-name="one" unicode="1" horiz-adv-x="344" d="M284 314 L284 29 Q284 24 282 19.5 Q280 15 279 10 Q278 5 277 3 Q276 1 271 0 Q265 -2 263 -2 Q237 -2 210.5 -1.5 Q184 -1 158 -1 Q155 -1 152 -2 Q149 -3 147 -3 Q144 -2 143.5 1 Q143 4 142 7 Q140 11 140 14 L140 28 L140 442 L140 454 Q140 455 137 458 Q137 460 135 462.5 Q133 465 131 464 Q129 462 127.5 461.5 Q126 461 124 459 Q120 457 117 453.5 Q114 450 111 448 Q96 437 80.5 427.5 Q65 418 50 407 Q45 403 40.5 398.5 Q36 394 31 390 Q29 388 26.5 388.5 Q24 389 22 387 Q15 385 14 390 Q13 391 13 395 Q13 397 14.5 399 Q16 401 16 403 Q16 429 15 455 Q14 481 14 507 Q14 510 15 512.5 Q16 515 16 517 Q16 523 20 527 Q22 529 24 532 Q26 535 28 537 Q38 544 47.5 551 Q57 558 67 565 Q87 579 107.5 593.5 Q128 608 148 622 Q150 623 151 622.5 Q152 622 153 623 Q157 626 160.5 626.5 Q164 627 168 627 Q170 627 170.5 628 Q171 629 173 629 Q196 629 219 628.5 Q242 628 265 628 Q269 628 271 627 Q273 627 275 626 Q277 625 279 625 Q281 625 281 623 Q283 619 283 617 Q283 612 281.5 608 Q280 604 280 600 Q280 528 282 457 Q284 386 284 314 Z " />
<glyph glyph-name="two" unicode="2" horiz-adv-x="538" d="M262 -1 Q208 -1 155.5 -2 Q103 -3 49 -3 Q47 -3 44.5 -2 Q42 -1 40 -1 Q38 -1 37 0 Q36 1 34 1 Q29 2 26 3 Q23 4 23 9 Q22 11 22.5 13 Q23 15 23 17 Q23 34 24.5 50.5 Q26 67 26 84 Q26 86 24 88 Q22 90 22 92 Q22 99 27 104 Q29 106 31 106.5 Q33 107 35 109 Q38 111 41.5 113 Q45 115 47 117 Q61 131 74.5 144.5 Q88 158 102 172 Q111 180 119.5 188.5 Q128 197 137 205 Q155 222 173.5 240 Q192 258 210 275 Q218 283 226.5 291.5 Q235 300 243 308 Q253 317 262 326 Q271 335 281 344 Q289 352 297.5 359 Q306 366 314 374 Q319 379 322.5 384 Q326 389 331 394 Q335 398 340 400.5 Q345 403 348 408 Q358 422 358 437 Q358 452 354 469 Q352 476 349.5 483 Q347 490 342 495 Q339 498 334.5 499.5 Q330 501 326 503 Q315 507 307 508 Q295 511 283 511 Q262 512 241 509.5 Q220 507 199 503 Q175 498 152 492 Q129 486 106 477 Q99 475 92.5 472.5 Q86 470 80 468 Q78 467 76 467 Q74 467 72 466 Q64 464 62 471 Q62 473 63 474.5 Q64 476 64 478 Q63 482 63.5 485.5 Q64 489 64 493 Q64 511 63.5 528.5 Q63 546 63 564 Q63 567 62.5 569.5 Q62 572 62 575 Q63 580 70 585 Q72 586 73.5 586 Q75 586 77 587 Q111 604 145.5 616 Q180 628 218 633 Q238 636 257.5 638 Q277 640 297 638 Q346 636 389 617 Q403 612 414.5 603 Q426 594 437 584 Q445 578 452.5 572 Q460 566 466 558 Q482 538 488.5 516 Q495 494 496 469 Q497 463 498.5 457 Q500 451 500 445 Q500 434 497 424.5 Q494 415 491 405 Q485 382 473 363 Q465 351 455 340.5 Q445 330 434 319 Q428 313 422.5 306.5 Q417 300 411 294 Q408 294 407 293 Q392 279 376 265.5 Q360 252 345 238 Q333 227 322 214.5 Q311 202 299 191 Q285 177 272.5 163.5 Q260 150 246 137 Q244 135 242.5 134 Q241 133 240 131 Q239 130 238 128 Q237 126 239 125 Q240 125 241 126.5 Q242 128 243 128 Q245 127 245.5 125 Q246 123 248 123 Q251 123 254 123.5 Q257 124 260 124 Q314 124 368 124.5 Q422 125 476 125 Q479 125 482 126.5 Q485 128 488 128 Q490 128 491 126 Q492 124 494 124 Q500 122 501 119 Q501 115 501 115 Q501 113 502 112 Q503 111 503 109 L503 16 Q503 14 501 12.5 Q499 11 498 9 Q498 0 492 -1 Q490 -1 489 -0.5 Q488 0 486 0 Q484 -1 481 -0.5 Q478 0 475 0 Q421 0 368.5 -0.5 Q316 -1 262 -1 Z " />
<glyph glyph-name="three" unicode="3" horiz-adv-x="540" d="M246 270 L194 270 Q192 270 189.5 269 Q187 268 185 268 Q177 269 176 278 Q176 280 175.5 281.5 Q175 283 175 285 Q175 308 174.5 330.5 Q174 353 174 376 Q174 378 175.5 379 Q177 380 177 382 Q177 384 176 385 Q175 386 176 387 Q177 390 179 390.5 Q181 391 184 392 Q185 392 186 393 Q187 394 188 394 Q190 394 193 395 Q196 396 198 396 Q217 396 235.5 394.5 Q254 393 274 393 Q280 393 286.5 393.5 Q293 394 300 395 Q317 398 330 407 Q343 416 351 431 Q353 439 353.5 452.5 Q354 466 350 474 Q344 487 331 495 Q320 504 310 508 Q306 509 301.5 509 Q297 509 292 510 Q287 511 282 511.5 Q277 512 272 512 Q261 513 249.5 512.5 Q238 512 226 511 Q215 510 204 509 Q193 508 182 506 Q170 504 158 503 Q146 502 134 500 Q123 498 112.5 493.5 Q102 489 91 485 Q81 482 71 478.5 Q61 475 51 472 Q49 471 47 470 Q45 469 43 468 Q38 467 36.5 470.5 Q35 474 34 479 Q34 480 33 480.5 Q32 481 32 482 Q32 484 32.5 485 Q33 486 33 488 Q33 509 32 530 Q31 551 31 571 Q31 573 32 575.5 Q33 578 34 580 Q34 590 40 594 Q42 596 45.5 596 Q49 596 51 598 Q70 606 89.5 613.5 Q109 621 129 626 Q144 630 159 631 Q174 632 190 634 Q229 638 268 637 Q307 637 349 626 Q371 619 391 610 Q411 601 429 587 Q441 578 450.5 567 Q460 556 468 543 Q484 518 490 488 Q495 468 495 454 Q495 422 484 397 Q478 384 471 373 Q464 362 454 352 Q451 349 448 346.5 Q445 344 443 341 Q441 340 439.5 340 Q438 340 437 339 Q435 336 438 333 Q440 332 440 330 Q440 328 441 327 Q447 322 454 318 Q461 314 467 309 Q486 289 498 264.5 Q510 240 514 212 Q516 195 514 178 Q513 170 512 163.5 Q511 157 509 150 Q499 102 463 65 Q449 50 431.5 39 Q414 28 394 19 Q358 2 318 -5 Q306 -7 293.5 -8 Q281 -9 268 -9 Q257 -9 245.5 -8.5 Q234 -8 222 -8 Q211 -7 199 -4.5 Q187 -2 176 0 Q152 3 128 7.5 Q104 12 81 21 Q73 24 66 26 Q59 28 52 31 Q49 33 46.5 35 Q44 37 41 39 Q31 43 31 52 Q31 54 30.5 55.5 Q30 57 30 59 Q30 81 31 102 Q32 123 32 145 Q32 148 34 152 Q34 154 35 156 Q37 163 40 163 Q42 163 42.5 162 Q43 161 45 161 L54 158 Q66 154 77 149.5 Q88 145 100 141 Q117 136 133.5 132.5 Q150 129 167 126 Q194 122 223 120 Q231 119 239.5 120 Q248 121 256 121 Q264 121 272.5 121.5 Q281 122 290 123 Q298 125 306.5 125.5 Q315 126 323 129 Q328 131 332.5 134.5 Q337 138 342 141 Q352 149 358.5 157.5 Q365 166 367 178 Q372 204 365 224 Q360 239 346 251 Q340 256 334 260 Q328 264 320 266 Q314 268 308 268 Q302 268 296 268 Q283 268 271 267.5 Q259 267 246 267 L246 270 Z " />
<glyph glyph-name="four" unicode="4" horiz-adv-x="575" d="M495 466 L495 323 Q495 320 496 317.5 Q497 315 497 313 Q497 305 498.5 301.5 Q500 298 508 299 Q510 299 512.5 298.5 Q515 298 518 298 L534 298 Q536 298 537.5 299 Q539 300 541 300 Q547 300 549 292 L549 288 Q549 286 550 284.5 Q551 283 551 281 Q551 259 549 237.5 Q547 216 547 193 L547 184 Q546 175 539 174 Q537 174 535 173.5 Q533 173 531 173 Q526 173 520.5 173.5 Q515 174 509 174 Q507 174 505.5 172.5 Q504 171 502 171 Q497 170 497 166 Q496 164 496 161 L496 152 Q496 120 496.5 88.5 Q497 57 497 25 Q497 22 495 19 Q493 16 493 13 Q492 9 491 5.5 Q490 2 486 2 Q485 1 484.5 2.5 Q484 4 483 4 Q482 4 481 3.5 Q480 3 479 3 Q477 3 476.5 1.5 Q476 0 474 0 Q448 0 423 0.5 Q398 1 373 1 Q369 1 361 3 Q354 5 352 11 Q351 12 352.5 13 Q354 14 354 15 Q354 17 353 18 Q352 19 352 20 Q352 23 353.5 26 Q355 29 355 31 Q355 62 354.5 93 Q354 124 354 155 Q354 157 352 160 Q350 163 350 165 Q350 171 345 172 Q343 172 342 172.5 Q341 173 339 173 L328 173 Q259 173 190.5 172 Q122 171 53 171 Q51 171 48 172 Q45 173 43 174 Q41 174 40 173.5 Q39 173 37 173 Q27 175 25 183 Q25 185 27 186 Q29 187 28 188 Q28 190 27.5 192 Q27 194 27 196 Q27 212 26.5 227 Q26 242 26 258 Q26 260 25 262.5 Q24 265 24 267 Q24 277 31 284 L34 287 Q48 302 63 316.5 Q78 331 93 346 Q107 361 122 375 Q137 389 151 403 Q162 415 173 428 Q184 441 196 453 Q210 467 222.5 481 Q235 495 248 509 Q260 522 273 532.5 Q286 543 298 555 Q312 569 324 583.5 Q336 598 350 612 Q353 615 355 619 Q357 623 360 627 Q368 634 382 632 Q384 632 385 633.5 Q386 635 388 635 Q410 635 431 633 Q452 631 474 631 Q476 631 478.5 633.5 Q481 636 483 636 Q484 636 484.5 634 Q485 632 487 632 Q490 631 490.5 629 Q491 627 492 625 Q492 623 494 622 Q496 621 496 619 Q496 617 495 614 Q494 611 494 608 Q494 573 494.5 537 Q495 501 495 466 Z M352 371 L352 425 Q352 427 351 429 Q350 431 350 433 Q350 434 351.5 435 Q353 436 353 437 Q352 439 349 440.5 Q346 442 345 441 Q343 439 342 438.5 Q341 438 339 436 Q334 431 331 425.5 Q328 420 323 415 L236 325 Q233 322 230 319.5 Q227 317 225 315 Q223 313 223 311.5 Q223 310 222 308 Q221 307 219 307.5 Q217 308 217 307 Q216 305 217 302.5 Q218 300 220 300 Q221 299 222 300 Q223 301 224 301 Q227 300 233 300 L335 300 Q337 300 338.5 301 Q340 302 342 303 Q343 303 343.5 302.5 Q344 302 346 303 Q350 303 350 308 Q351 311 351 317 Q351 331 351.5 344 Q352 357 352 371 Z " />
<glyph glyph-name="five" unicode="5" horiz-adv-x="583" d="M290 633 Q341 633 391 632 Q441 631 492 631 L502 631 Q504 630 505 630.5 Q506 631 508 630 Q511 630 514 628.5 Q517 627 518 623 Q518 621 517 618 Q516 615 516 613 Q517 591 516.5 569.5 Q516 548 516 525 Q516 523 517 521.5 Q518 520 518 518 Q518 516 516.5 515.5 Q515 515 515 513 Q513 505 509 505 Q507 504 505.5 504.5 Q504 505 503 505 Q500 505 497 506 Q494 507 491 507 Q425 507 359 506 Q293 505 227 505 Q224 505 221 504 Q218 503 216 503 Q213 503 211 502 Q209 501 207 501.5 Q205 502 204 500 Q204 498 205 497 Q206 496 206 494 Q206 480 205 466 Q204 452 204 438 Q204 436 205 435 Q206 434 206 432 Q206 431 207.5 430.5 Q209 430 210 431 Q213 431 213 431 Q215 431 215 432.5 Q215 434 217 434 Q227 441 238 445 Q249 449 260 452 Q275 456 289.5 457 Q304 458 319 458 Q333 458 347 457.5 Q361 457 375 453 Q423 442 458 413 Q484 391 501 363 Q518 335 527 302 Q530 291 531.5 280 Q533 269 535 258 Q536 249 535.5 240.5 Q535 232 535 224 Q535 214 536 204.5 Q537 195 535 186 Q531 163 523.5 142.5 Q516 122 503 103 Q496 92 488.5 81.5 Q481 71 472 63 Q461 52 449 43.5 Q437 35 424 27 Q402 15 379 8.5 Q356 2 331 -2 Q319 -4 307.5 -4 Q296 -4 284 -4 Q281 -4 278.5 -6 Q276 -8 274 -8 Q249 -8 225 -4 Q201 0 177 5 Q151 11 126 18.5 Q101 26 78 37 Q76 38 74 39.5 Q72 41 70 42 Q64 46 64 53 L64 60 L64 148 Q64 150 63 151 Q62 152 62 154 Q62 155 62.5 156 Q63 157 63 158 Q65 165 72 163 Q74 162 75.5 161 Q77 160 79 160 Q85 157 91 154 Q97 151 104 149 Q132 139 160.5 132 Q189 125 219 121 Q235 119 251 119.5 Q267 120 284 121 Q303 123 321 127 Q330 129 337.5 133 Q345 137 353 142 Q366 150 374 160 Q382 170 387 183 Q390 191 392.5 200 Q395 209 395 217 Q397 244 391 265 Q389 272 385.5 278 Q382 284 378 290 Q370 303 358.5 311 Q347 319 333 324 Q326 326 319.5 330 Q313 334 305 334 Q297 335 290.5 333 Q284 331 276 330 Q271 329 266 329.5 Q261 330 256 328 Q228 320 211 300 Q206 293 201 287 Q196 281 191 273 Q190 271 190 269 Q190 267 189 265 Q183 259 179 259 Q175 257 172 257 Q149 257 125.5 259 Q102 261 79 261 Q77 261 75 260 Q73 259 71 259 Q67 260 65 268 Q65 270 63 270.5 Q61 271 61 273 Q61 275 60.5 278 Q60 281 60 284 Q60 365 61.5 445.5 Q63 526 63 607 L63 618 Q63 620 62.5 620.5 Q62 621 62 623 Q63 630 71 632 Q73 633 74 632.5 Q75 632 77 632 Q80 632 82.5 631.5 Q85 631 87 631 Q138 631 188.5 632 Q239 633 290 633 Z " />
<glyph glyph-name="six" unicode="6" horiz-adv-x="585" d="M52 305 Q52 329 51 353.5 Q50 378 50 402 Q50 416 51 430.5 Q52 445 54 459 Q57 473 61 486 Q65 499 71 512 Q78 528 88.5 541.5 Q99 555 111 567 Q116 572 121.5 577 Q127 582 133 587 Q144 595 154.5 603 Q165 611 177 616 Q195 624 213.5 628.5 Q232 633 252 636 Q273 639 294 639 Q315 639 336 637 Q372 635 406.5 627.5 Q441 620 473 605 Q479 603 485.5 601 Q492 599 498 596 Q500 595 501.5 594.5 Q503 594 505 592 Q507 590 506.5 587 Q506 584 507 581 Q508 578 508 573 Q508 569 509 565.5 Q510 562 510 558 Q510 539 509 521 Q508 503 508 484 Q508 482 509.5 479 Q511 476 511 473 Q511 471 509 469 Q507 464 502 466 Q500 466 497.5 465 Q495 464 493 465 Q487 467 482 472 Q477 477 471 480 Q443 492 413.5 497 Q384 502 354 507 Q321 511 287 510 Q276 509 265.5 509 Q255 509 244 506 Q238 504 232.5 501 Q227 498 222 494 Q207 485 201 466 Q194 451 193 439 Q193 434 192 429 Q191 424 191 419 Q191 411 192.5 404.5 Q194 398 194 391 Q194 389 193.5 387 Q193 385 193 383 Q195 379 199 379 Q201 380 201 381 Q201 382 203 382 Q205 384 207.5 384.5 Q210 385 212 387 Q229 396 247 402.5 Q265 409 284 411 Q296 413 307.5 412 Q319 411 330 409 Q338 408 344.5 408 Q351 408 358 407 Q399 401 433 385 Q465 368 493 339 Q500 331 508 323.5 Q516 316 521 307 Q532 288 537.5 267.5 Q543 247 546 225 Q548 209 548 193 Q548 177 545 161 Q543 149 538 138 Q533 127 528 116 Q520 98 505 80 Q493 65 480 52 Q467 39 450 29 Q411 5 367 -4 Q353 -7 338 -9 Q323 -11 309 -11 Q303 -11 297 -10.5 Q291 -10 284 -10 Q232 -9 181 13 Q167 19 153 26.5 Q139 34 127 44 Q118 51 110 58 Q102 65 94 73 Q81 88 73.5 106 Q66 124 60 143 Q57 153 55.5 162 Q54 171 52 181 Q52 190 50 199 Q48 208 48 217 Q48 239 49 261 Q50 283 50 305 L52 305 Z M298 286 Q291 285 283.5 284.5 Q276 284 268 282 Q264 282 260.5 280.5 Q257 279 253 278 Q242 275 228 267 Q223 264 218 261 Q213 258 209 253 Q193 234 192 212 Q191 207 192.5 201.5 Q194 196 195 191 Q197 169 208.5 153 Q220 137 239 129 Q250 124 261.5 121 Q273 118 285 118 Q292 117 298 117.5 Q304 118 312 118 Q320 119 328 121 Q336 123 344 125 Q356 128 363 133 Q377 141 388 150.5 Q399 160 403 176 Q411 201 403 226 Q396 255 365 271 Q357 275 350 278 Q343 281 335 283 Q327 285 317.5 285 Q308 285 298 286 Z " />
<glyph glyph-name="seven" unicode="7" horiz-adv-x="538" d="M270 630 Q327 630 383 629 Q439 628 496 628 L507 628 Q509 628 509.5 627 Q510 626 512 626 Q522 624 523 619 Q523 617 522.5 614.5 Q522 612 522 610 Q522 599 522.5 588 Q523 577 523 566 L523 539 Q523 533 520.5 528 Q518 523 515 518 Q509 508 503.5 498.5 Q498 489 492 479 Q478 456 463.5 435 Q449 414 435 391 Q424 374 413.5 355.5 Q403 337 392 320 Q378 297 364 275.5 Q350 254 336 231 Q322 210 308.5 189.5 Q295 169 281 148 Q266 123 251 98 Q236 73 221 48 Q215 39 209 31 Q203 23 198 14 Q194 10 193 7 Q187 -1 180 -1 Q178 -1 177.5 -2 Q177 -3 175 -3 Q145 -3 115 -2.5 Q85 -2 55 -2 Q53 -2 51 -3 Q49 -4 47 -4 Q44 -4 42 -2 Q40 -1 39 1.5 Q38 4 39 6 Q39 11 40 13 Q42 17 46 19 Q50 21 52 25 Q66 46 77.5 68 Q89 90 103 111 Q116 132 129.5 152.5 Q143 173 157 195 Q168 213 179 231.5 Q190 250 201 268 Q215 290 228 311 Q241 332 255 354 Q266 371 276 388 Q286 405 297 422 Q307 439 317.5 454 Q328 469 338 485 Q340 487 340 490 Q340 493 342 495 Q343 499 340 501 L335 501 Q332 501 329 502.5 Q326 504 323 504 Q252 504 182 502 Q112 500 41 500 Q33 500 29 501 Q23 501 21.5 504.5 Q20 508 19 514 Q19 515 18 516 Q17 517 17 518 Q17 542 18.5 565.5 Q20 589 20 613 Q20 615 19 616 Q18 617 18 619 Q19 623 21 623.5 Q23 624 27 625 Q29 627 32 627 Q34 627 37 629 Q40 631 42 631 Q99 631 156 630.5 Q213 630 270 630 Z " />
<glyph glyph-name="nine" unicode="9" horiz-adv-x="585" d="M537 328 Q537 302 535 277 Q533 252 533 227 Q533 199 527 171 Q524 157 521 143.5 Q518 130 512 117 Q506 106 498 96 Q490 86 482 76 Q474 66 466 56.5 Q458 47 448 39 Q432 26 416 19 Q402 12 387 8.5 Q372 5 357 2 Q339 -2 321.5 -5 Q304 -8 286 -9 L262 -9 Q242 -9 221.5 -5 Q201 -1 181 4 Q161 9 141 16 Q121 23 101 32 Q97 34 94 36.5 Q91 39 86 41 Q84 43 83 43 Q78 47 78 51 Q78 53 75.5 55 Q73 57 73 59 Q73 82 73.5 106 Q74 130 74 153 Q74 155 73.5 156.5 Q73 158 73 160 Q73 161 75 161.5 Q77 162 77 163 Q78 165 82 165 Q84 165 85.5 166 Q87 167 89 167 Q92 165 95.5 163 Q99 161 102 159 Q111 155 120 151.5 Q129 148 139 144 Q189 127 239 121 Q259 119 278 120.5 Q297 122 317 124 Q325 125 332 125.5 Q339 126 345 128 Q349 130 352.5 131.5 Q356 133 359 135 Q375 143 383 163 Q387 171 388.5 179.5 Q390 188 391 197 Q391 208 392 220 Q393 232 393 244 L393 249 Q393 251 390 251.5 Q387 252 385 251 Q384 251 384 250.5 Q384 250 383 250 Q379 248 379 248 Q358 236 335.5 229.5 Q313 223 290 221 Q279 220 268 220.5 Q257 221 246 222 Q235 223 224 225 Q213 227 202 229 Q182 234 162.5 241 Q143 248 126 260 Q112 268 101 279 Q90 290 80 303 Q66 323 55.5 344 Q45 365 40 389 Q38 396 39.5 403 Q41 410 40 417 Q39 435 40 451 Q42 465 45.5 478 Q49 491 54 505 Q59 517 65.5 527.5 Q72 538 80 549 Q94 567 108.5 582.5 Q123 598 143 609 Q164 620 186.5 627.5 Q209 635 232 639 Q252 642 271.5 642.5 Q291 643 311 641 Q356 638 397 622 Q414 616 429.5 608.5 Q445 601 459 590 Q519 541 532 468 Q535 450 535 432 Q535 406 535.5 380 Q536 354 536 328 L537 328 Z M286 512 Q278 512 270.5 513.5 Q263 515 255 513 Q245 511 235 509 Q225 507 217 502 Q202 493 192 474 Q187 466 183 458 Q179 450 179 441 Q179 436 180.5 432 Q182 428 182 424 Q182 419 183 414.5 Q184 410 186 405 Q191 390 198.5 378.5 Q206 367 220 360 Q226 356 233 355.5 Q240 355 247 353 Q252 351 258 351 Q264 351 270 351 Q284 349 297.5 349 Q311 349 325 351 Q333 353 340 354.5 Q347 356 354 360 Q375 371 385 390 Q392 403 394 421 Q395 432 394 442.5 Q393 453 389 464 Q385 472 378.5 478.5 Q372 485 365 490 Q359 495 353 499.5 Q347 504 339 506 Q334 508 328 508.5 Q322 509 317 510 Q309 511 301.5 511.5 Q294 512 286 512 Z " />
<glyph glyph-name="eight" unicode="8" horiz-adv-x="565" d="M283 -8 Q278 -8 272 -10 Q266 -12 261 -12 Q238 -10 216 -6.5 Q194 -3 173 5 Q130 19 97 45 Q84 55 75 68 Q66 81 57 95 Q49 108 43 121 Q37 134 34 149 Q29 172 29 195 Q29 218 37 241 Q50 284 79 313 Q82 316 85.5 319.5 Q89 323 93 326 Q101 334 96 340 Q94 342 92 343 Q90 344 88 346 Q59 383 53 428 Q48 460 54 490 Q59 513 70.5 531.5 Q82 550 98 567 Q110 580 123 592 Q136 604 152 612 Q161 617 171.5 619 Q182 621 192 624 Q206 628 218.5 632 Q231 636 245 638 Q261 640 276.5 639 Q292 638 309 636 Q326 635 343 633 Q360 631 377 626 Q422 612 457 583 Q471 571 482 558 Q493 545 501 528 Q506 519 509 509 Q512 499 514 489 Q517 469 516 450.5 Q515 432 510 412 Q506 394 499 377 Q492 360 481 346 Q479 345 477.5 345 Q476 345 474 344 Q473 343 474 341 Q475 339 474 338 Q471 333 470.5 331.5 Q470 330 475 326 Q477 321 478 321 L489 310 Q518 281 530 242 Q536 225 537 207 Q538 189 536 171 Q534 145 525 121 Q516 97 499 76 Q493 68 485.5 61 Q478 54 470 47 Q446 28 418.5 16.5 Q391 5 362 -1 Q325 -10 283 -8 Z M281 115 Q286 115 290 117 Q294 119 299 119 Q321 121 339 126 Q350 130 359.5 136.5 Q369 143 377 151 Q382 157 387.5 162 Q393 167 395 175 Q400 194 392.5 214 Q385 234 365 247 Q356 253 346 256 Q336 259 325 261 Q304 264 284 264 Q278 264 271.5 264 Q265 264 259 263 Q251 262 242 262 Q233 262 224 260 Q213 256 199 246 Q190 239 183.5 231.5 Q177 224 174 213 Q167 191 176 167 Q178 162 179.5 156.5 Q181 151 185 146 Q189 141 195.5 138.5 Q202 136 208 132 Q216 127 224.5 123 Q233 119 243 117 Q252 115 261.5 115 Q271 115 281 115 Z M282 390 Q285 390 287.5 392 Q290 394 293 394 Q310 394 325 398 Q331 399 337 401.5 Q343 404 348 407 Q359 414 366.5 423 Q374 432 376 444 Q376 450 374 458 Q373 482 350 497 Q342 502 333.5 504 Q325 506 317 508 Q300 510 283.5 510.5 Q267 511 250 508 Q241 506 231.5 505 Q222 504 214 499 Q207 494 202.5 487.5 Q198 481 195 473 Q190 459 192 446 Q194 423 212 409 Q216 406 219 402.5 Q222 399 227 397 Q232 395 238 395.5 Q244 396 250 395 Q258 394 266 392 Q274 390 282 390 Z " />
<glyph glyph-name="colon" unicode="&#x3a;" horiz-adv-x="293" d="M143 39 Q130 39 117.5 39.5 Q105 40 92 40 Q90 40 87 40.5 Q84 41 82 41 Q78 42 74.5 44 Q71 46 71 50 Q71 50 71 55 Q71 57 71.5 58.5 Q72 60 72 62 Q72 83 72.5 104 Q73 125 73 146 Q73 148 74 150 Q75 152 75 154 Q75 158 76 160 Q77 162 77.5 164 Q78 166 81 167 Q82 167 83 168.5 Q84 170 85 170 L94 170 Q119 170 144 169 Q169 168 194 168 Q196 168 198.5 168.5 Q201 169 203 169 Q204 168 205.5 168.5 Q207 169 209 169 Q214 167 216 161 Q216 160 215 159 Q214 158 214 156 Q215 152 214 148.5 Q213 145 213 142 Q213 122 215.5 103.5 Q218 85 218 66 Q218 63 216.5 60 Q215 57 215 53 Q215 52 214 51.5 Q213 51 213 49 Q211 43 207 43 Q205 42 204 40.5 Q203 39 201 39 L189 39 Q178 39 166.5 39.5 Q155 40 143 40 L143 39 Z M144 373 Q130 373 117.5 372 Q105 371 91 371 Q89 371 86.5 370.5 Q84 370 81 370 Q75 372 73 380 Q73 381 73.5 382 Q74 383 74 384 Q74 386 72 388.5 Q70 391 70 393 Q70 413 71.5 434 Q73 455 73 475 Q73 477 74 478.5 Q75 480 75 482 Q75 484 73 484.5 Q71 485 71 487 Q72 496 83 498 Q84 498 85 497.5 Q86 497 88 497 Q90 497 91 498.5 Q92 500 94 500 L193 500 Q195 500 197.5 498 Q200 496 202 495 Q203 495 204 497 Q205 499 207 498 Q213 496 215 489 Q215 488 216 487 Q217 486 217 485 Q217 481 217.5 478 Q218 475 218 472 Q218 453 217.5 434.5 Q217 416 217 396 Q217 393 215.5 389.5 Q214 386 214 383 Q214 381 214.5 380 Q215 379 215 378 Q213 372 208 370 Q206 369 202 369 Q200 369 198 369.5 Q196 370 194 370 Q181 370 169 370.5 Q157 371 144 371 L144 373 Z " />
<glyph glyph-name="semicolon" unicode="&#x3b;" horiz-adv-x="254" d="M135 144 L186 144 Q188 144 191 146 Q194 148 196 148 Q197 148 198 146.5 Q199 145 200 145 Q204 143 202 138 Q202 136 201.5 134 Q201 132 201 130 Q199 125 198 119 Q197 113 195 107 Q181 73 167.5 39.5 Q154 6 140 -29 Q139 -31 139 -32.5 Q139 -34 138 -36 Q133 -45 126 -46 L106 -46 Q94 -46 82.5 -44.5 Q71 -43 59 -43 Q54 -43 49 -44 Q44 -45 39 -44 Q26 -44 28 -34 Q28 -31 29 -28.5 Q30 -26 30 -24 Q37 7 43.5 37 Q50 67 56 98 Q58 106 57.5 113.5 Q57 121 59 129 Q60 131 62.5 133 Q65 135 66 137 Q68 140 69 142.5 Q70 145 74 146 L83 146 Q96 146 109 145 Q122 144 135 144 Z M136 374 Q122 374 109.5 375 Q97 376 83 376 Q81 376 78.5 376.5 Q76 377 74 377 Q69 378 68 383 Q67 384 65.5 384.5 Q64 385 64 387 Q64 389 63 390.5 Q62 392 62 394 Q62 416 62.5 437.5 Q63 459 63 481 Q63 483 62.5 484 Q62 485 63 487 Q63 489 65 490 Q67 491 68 492 Q69 495 69.5 496.5 Q70 498 73 499 Q74 499 75 500 Q76 501 77 501 Q81 503 83 503 Q109 503 135.5 501.5 Q162 500 188 500 Q190 500 191.5 499.5 Q193 499 195 499 Q196 498 197.5 499.5 Q199 501 200 501 Q207 499 208 493 Q209 492 207.5 491 Q206 490 206 488 L206 475 Q206 456 207.5 437 Q209 418 209 399 Q209 394 207 386 L207 381 Q206 376 199 374 L194 374 Q192 373 190 373.5 Q188 374 186 374 L136 374 Z " />
<glyph glyph-name="less" unicode="&#x3c;" horiz-adv-x="579" d="M533 454 Q533 444 532 435 Q531 426 531 416 L531 406 Q529 400 525 397 Q522 396 518 394 Q494 385 469.5 377.5 Q445 370 421 362 Q383 348 346 335.5 Q309 323 271 310 Q269 308 267.5 306 Q266 304 264 302 Q262 300 264 299 Q266 298 266.5 296.5 Q267 295 269 294 Q274 292 278 291.5 Q282 291 286 289 Q310 281 333.5 272 Q357 263 381 255 Q415 243 448.5 230 Q482 217 516 204 Q518 203 520 203.5 Q522 204 524 203 Q530 200 530 192 Q530 190 532 188.5 Q534 187 534 185 Q534 165 533 146 Q532 127 532 107 Q532 105 533 102.5 Q534 100 533 98 Q533 95 529.5 93.5 Q526 92 524 92 Q522 93 521 92.5 Q520 92 519 92 Q517 93 515.5 94 Q514 95 512 95 Q483 106 454 115.5 Q425 125 396 136 Q364 147 334 159 Q304 171 273 182 Q255 189 237 194.5 Q219 200 202 206 Q175 216 148 224.5 Q121 233 95 243 Q85 246 76 250 Q67 254 57 258 Q51 260 47 262 Q41 263 41 270 Q39 276 39 277 Q39 289 40 300.5 Q41 312 41 323 Q41 325 39.5 326 Q38 327 38 329 Q39 336 48 340 Q50 341 51 342 Q52 343 53 343 Q68 349 83.5 354 Q99 359 114 364 Q140 374 165 383.5 Q190 393 216 402 Q234 409 253 414 Q272 419 290 425 Q316 435 342.5 444 Q369 453 395 463 Q412 469 428 476.5 Q444 484 461 490 Q472 494 484 498 Q496 502 507 506 Q509 507 511.5 507 Q514 507 517 508 Q518 509 519.5 507.5 Q521 506 523 507 Q531 509 531 502 Q532 500 533 497.5 Q534 495 534 493 Q534 483 532.5 473.5 Q531 464 531 454 L533 454 Z " />
<glyph glyph-name="equal" unicode="&#x3d;" horiz-adv-x="583" d="M293 364 Q237 364 182 365 Q127 366 70 366 L61 366 L56 366 Q47 367 46 375 L46 388 Q46 390 45.5 393 Q45 396 45 399 Q45 410 44 421 Q43 432 43 443 Q43 446 43.5 449.5 Q44 453 44 456 Q44 458 46 458 Q48 458 49 460 Q50 462 50 464 Q50 466 52 467 Q54 467 55 467.5 Q56 468 57 468 Q59 468 62 467 Q65 466 67 466 L518 466 Q521 466 524 467.5 Q527 469 530 469 Q534 468 537.5 465.5 Q541 463 541 459 Q542 457 541.5 455 Q541 453 541 451 L541 382 Q541 380 539 378.5 Q537 377 537 375 Q536 370 535 367 Q534 364 529 363 L524 363 Q522 363 519 364 Q516 365 514 365 Q458 365 403.5 364.5 Q349 364 293 364 Z M293 300 L517 300 Q520 300 523.5 300.5 Q527 301 530 301 Q539 301 539 291 Q539 289 540 287 Q541 285 542 283 Q542 266 540.5 249.5 Q539 233 539 216 Q539 214 538.5 212.5 Q538 211 538 209 Q537 201 528 200 Q526 200 525.5 200.5 Q525 201 523 201 Q521 201 519 199.5 Q517 198 515 198 Q403 198 292 197.5 Q181 197 69 197 Q66 197 63.5 197.5 Q61 198 58 198 Q56 198 52 200 Q50 200 48 206 Q47 207 47 209 Q47 212 45 215 Q43 218 43 221 Q43 235 45 249.5 Q47 264 47 278 Q47 285 48 289 Q48 291 47.5 291.5 Q47 292 48 294 Q49 296 49.5 298.5 Q50 301 52 301 Q53 302 54.5 300 Q56 298 58 298 Q61 298 63.5 298.5 Q66 299 69 299 Q126 299 181 299.5 Q236 300 293 300 Z " />
<glyph glyph-name="question" unicode="&#x3f;" horiz-adv-x="482" d="M193 172 L143 172 Q141 172 139 172.5 Q137 173 135 173 Q134 173 133.5 174.5 Q133 176 131 176 Q123 178 122 182 Q122 184 123.5 186 Q125 188 125 190 Q126 198 126 205.5 Q126 213 128 221 Q132 237 138 251.5 Q144 266 154 279 Q161 291 172 300 Q181 310 191 318 Q201 326 211 334 Q221 342 230.5 349 Q240 356 250 363 Q259 369 267.5 375.5 Q276 382 285 388 Q293 393 301.5 399 Q310 405 316 413 Q318 417 318 416 Q327 430 327 444 Q327 458 322 473 Q317 487 301 496 Q296 500 291.5 503 Q287 506 281 508 Q277 509 273.5 510.5 Q270 512 266 513 Q249 515 232 513 L225 513 Q212 513 200 510 Q188 507 175 505 Q131 497 88 484 Q76 480 64 476 Q52 472 40 467 Q38 466 35 467.5 Q32 469 30 468 Q29 467 28.5 465 Q28 463 26 463 Q24 463 23 466 Q22 469 21 471 Q21 472 20 472.5 Q19 473 19 474 Q19 476 18.5 478 Q18 480 18 482 Q18 504 18.5 526 Q19 548 19 570 Q19 572 18 574 Q17 576 17 578 Q17 590 27 593 Q29 594 31 596 Q56 605 80.5 613 Q105 621 130 628 Q146 632 162 633 Q178 634 194 636 Q209 638 223.5 639 Q238 640 253 640 Q270 639 285.5 638.5 Q301 638 318 634 Q338 629 357 620.5 Q376 612 393 600 Q428 575 450 534 Q456 521 459 508 Q462 495 464 481 Q467 462 467.5 443.5 Q468 425 464 407 Q460 379 446 355 Q434 334 414 317 Q401 305 385.5 296 Q370 287 355 277 Q347 272 340 266 Q333 260 325 255 Q321 253 317 250.5 Q313 248 309 246 Q303 241 297.5 237 Q292 233 287 228 Q279 220 273.5 210 Q268 200 266 189 Q265 187 266 185.5 Q267 184 266 182 Q265 175 255 173 L245 173 Q232 173 219 172.5 Q206 172 193 172 Z M193 2 Q180 2 167 1 Q154 0 141 0 Q138 0 135.5 1 Q133 2 131 2 Q124 4 123 8 Q122 10 121 10.5 Q120 11 120 13 L120 22 L120 105 Q120 107 121 108.5 Q122 110 122 112 Q122 114 122.5 115 Q123 116 123 118 Q125 127 132 128 Q134 128 135.5 126.5 Q137 125 139 125 Q166 125 192.5 125.5 Q219 126 246 126 Q248 126 250.5 127.5 Q253 129 255 128 Q259 128 261 124.5 Q263 121 264 117 Q264 115 263 113 Q262 111 262 109 Q262 86 264 63.5 Q266 41 266 18 Q266 14 264 8 Q264 1 256 1 Q253 0 250.5 1 Q248 2 246 2 Q232 2 219.5 0.5 Q207 -1 193 -1 L193 2 Z " />
<glyph glyph-name="at" unicode="&#x40;" horiz-adv-x="920" d="M408 -183 Q388 -183 368.5 -180.5 Q349 -178 329 -175 Q304 -172 280.5 -167 Q257 -162 234 -152 Q214 -144 197 -133 Q180 -122 163 -109 Q108 -65 80 -3 Q71 18 65.5 40 Q60 62 57 85 Q55 100 53 115.5 Q51 131 51 147 Q52 155 52 163.5 Q52 172 53 180 Q53 191 54.5 201 Q56 211 58 222 Q62 247 66.5 271.5 Q71 296 79 319 Q85 335 91 350 Q97 365 105 380 Q130 431 167 475 Q186 497 207 515 Q221 528 234.5 540 Q248 552 264 563 Q270 567 276.5 570 Q283 573 289 577 Q332 601 377 616 Q398 623 419.5 626.5 Q441 630 463 633 Q486 636 508 636.5 Q530 637 553 636 Q582 634 611.5 630.5 Q641 627 669 617 Q708 605 740 584 Q754 576 766 567 Q778 558 789 547 Q812 525 831 497 Q847 473 856.5 446.5 Q866 420 871 392 Q875 357 874 323 Q873 298 871 274 Q869 250 864 226 Q859 199 850.5 173.5 Q842 148 829 123 Q813 94 795 72 Q784 59 771.5 47.5 Q759 36 745 27 Q725 14 704 5.5 Q683 -3 660 -5 Q637 -7 614 -2 Q579 6 559 33 Q551 45 545 56 Q544 58 544.5 61 Q545 64 543 66 Q542 68 540 67 Q538 66 536 65 L530 62 Q524 58 518 56 Q512 54 506 51 Q498 46 489.5 40.5 Q481 35 472 32 Q464 30 455 30 Q446 30 438 28 Q432 27 426.5 26.5 Q421 26 415 26 Q409 26 403 25.5 Q397 25 392 25 Q379 26 366.5 26.5 Q354 27 343 32 Q310 45 289 74 Q273 97 267 120 Q264 131 263.5 141.5 Q263 152 262 163 Q261 174 260.5 184.5 Q260 195 261 206 L264 233 Q270 282 290 326 Q298 342 308 355 Q318 368 330 381 Q335 387 339 393.5 Q343 400 349 405 Q369 420 391.5 427 Q414 434 439 437 Q448 439 457 441 Q466 443 475 442 Q515 439 547 420 Q549 418 549 416 Q549 414 551 413 Q553 412 554 413 Q555 414 557 413 Q562 410 564 414 Q565 416 564.5 417 Q564 418 564 420 Q565 422 565.5 423.5 Q566 425 567 427 Q569 429 571 431.5 Q573 434 576 435 Q578 435 579.5 434 Q581 433 583 433 Q597 433 610.5 434 Q624 435 638 435 Q642 435 644 434 Q652 434 652 423 Q652 420 650 416 Q648 405 647 394.5 Q646 384 644 373 Q639 340 634.5 307 Q630 274 625 241 Q622 224 618.5 206.5 Q615 189 612 171 Q610 159 609.5 147 Q609 135 609 122 Q609 117 609 113 Q609 109 611 104 Q612 102 613.5 101.5 Q615 101 616 99 Q622 78 641 77 Q649 76 656 76 Q663 76 669 79 Q678 82 687 88 Q696 93 704 101 Q712 109 719 117 Q733 133 742 150.5 Q751 168 759 187 Q767 207 772.5 228 Q778 249 781 271 Q784 291 785.5 312 Q787 333 785 354 Q783 381 773.5 405.5 Q764 430 749 453 Q737 472 722.5 488 Q708 504 689 516 Q671 527 652 533.5 Q633 540 613 545 Q574 554 536 554 Q530 554 524 554.5 Q518 555 512 554 Q487 554 462.5 551.5 Q438 549 414 542 Q387 533 362 519.5 Q337 506 313 489 Q299 479 285 469.5 Q271 460 258 447 Q227 415 203 374 Q179 334 164 288 Q158 269 153 250 Q148 231 145 211 Q143 193 142.5 174.5 Q142 156 143 137 Q145 108 149.5 79 Q154 50 168 24 Q179 2 194.5 -15.5 Q210 -33 229 -47 Q268 -77 318 -91 Q331 -95 345 -95.5 Q359 -96 373 -98 Q388 -100 403 -102 Q418 -104 433 -103 Q471 -101 507.5 -94 Q544 -87 580 -76 Q584 -74 588 -74 Q590 -73 591 -73.5 Q592 -74 593 -74 Q597 -74 599 -78 Q599 -80 598 -81 Q597 -82 597 -83 Q598 -86 599 -89 Q600 -92 600 -96 Q601 -104 600.5 -113 Q600 -122 600 -131 Q600 -134 598.5 -137 Q597 -140 597 -143 Q596 -150 590 -152 Q588 -153 586.5 -155 Q585 -157 583 -158 Q544 -170 503 -176 Q491 -178 479.5 -179.5 Q468 -181 457 -183 Q455 -183 454 -181 Q453 -179 452 -179 Q441 -180 430 -181.5 Q419 -183 408 -183 Z M352 195 Q351 185 350 175.5 Q349 166 351 158 Q352 153 354.5 148 Q357 143 359 138 Q368 116 388 109 Q394 106 400 106 Q408 104 416.5 102.5 Q425 101 433 102 Q436 102 438.5 103 Q441 104 444 104 Q455 106 465 108 Q475 110 485 115 Q493 119 500.5 123 Q508 127 513 134 Q515 136 516 139.5 Q517 143 518 146 Q519 149 519.5 151.5 Q520 154 521 157 Q524 179 527 200 Q530 221 534 243 Q537 260 540 277.5 Q543 295 545 313 Q546 315 544.5 317.5 Q543 320 543 322 Q543 328 540 331 Q530 344 513 350 Q496 357 480 359.5 Q464 362 447 359 Q426 356 408 344 Q399 337 393 328 Q387 319 382 310 Q376 299 371 288 Q366 277 363 265 Q355 235 354 204 Q354 201 353 199 Q352 197 352 195 Z " />
<glyph glyph-name="bracketleft" unicode="&#x5b;" horiz-adv-x="339" d="M60 280 Q60 392 60.5 502 Q61 612 61 724 Q61 727 60 730.5 Q59 734 59 737 Q60 739 59 740.5 Q58 742 59 744 Q59 750 67 752 Q68 753 72 753 Q74 753 76.5 751.5 Q79 750 81 750 Q132 750 181.5 752 Q231 754 282 754 Q284 754 286.5 753.5 Q289 753 291 753 Q292 753 293 752.5 Q294 752 296 752 Q301 751 303 743 Q303 741 304.5 740.5 Q306 740 306 739 L306 732 L306 643 L306 637 Q305 636 304.5 635 Q304 634 303 633 Q303 628 295 626 Q293 626 290.5 624.5 Q288 623 285 623 Q273 623 260.5 624 Q248 625 236 625 Q231 625 226.5 626 Q222 627 217 627 Q215 627 213.5 625.5 Q212 624 210 623 Q202 623 201 617 Q200 615 200.5 614 Q201 613 200 611 Q200 609 200.5 606.5 Q201 604 201 602 Q201 440 201.5 279.5 Q202 119 202 -43 Q202 -46 204 -54 Q204 -57 205 -58 Q205 -65 208 -65 Q210 -66 214 -66 Q217 -66 220 -65.5 Q223 -65 227 -65 Q241 -65 256 -63.5 Q271 -62 285 -62 Q287 -62 289.5 -63.5 Q292 -65 295 -65 Q303 -65 305 -73 Q305 -75 303.5 -77 Q302 -79 303 -81 Q303 -86 303.5 -91.5 Q304 -97 304 -102 Q304 -119 303.5 -137 Q303 -155 303 -172 L303 -182 Q301 -191 295 -192 L290 -192 Q288 -192 286.5 -192.5 Q285 -193 283 -193 Q232 -193 182 -192.5 Q132 -192 81 -192 Q78 -192 75 -191.5 Q72 -191 69 -191 Q64 -191 62 -182 Q62 -181 60 -180.5 Q58 -180 58 -179 Q58 -177 59 -176 Q60 -175 60 -174 L60 -164 L60 280 Z " />
<glyph glyph-name="backslash" unicode="&#x5c;" horiz-adv-x="697" d="M84 701 Q98 701 113 700 Q128 699 142 699 L151 699 Q159 697 162 693 Q164 691 165.5 691 Q167 691 168 689 Q188 663 206.5 637.5 Q225 612 244 586 Q270 551 295 517.5 Q320 484 345 449 Q361 427 375.5 404 Q390 381 406 358 Q429 329 451 299.5 Q473 270 495 240 Q512 217 529 192.5 Q546 168 563 145 Q581 120 600 96 Q619 72 637 47 Q642 39 648 32.5 Q654 26 659 18 Q661 16 662.5 14 Q664 12 666 9 Q667 8 666 6.5 Q665 5 665 4 Q665 2 665 0 Q665 -2 664 -3 Q662 -4 661 -3 Q660 -2 658 -2 Q656 -2 654 -1 Q652 0 650 0 Q620 0 590.5 -2.5 Q561 -5 532 -5 Q530 -5 528 -3.5 Q526 -2 524 -2 Q515 -2 511 5 Q508 9 505 12.5 Q502 16 500 20 Q484 41 468 61.5 Q452 82 436 103 Q416 130 397 157.5 Q378 185 358 212 Q346 229 333.5 246.5 Q321 264 309 281 Q289 308 268.5 335.5 Q248 363 228 391 Q215 408 202.5 425 Q190 442 177 459 L90 576 Q77 593 65 610.5 Q53 628 40 645 Q33 655 27 664.5 Q21 674 14 683 Q12 685 12 687.5 Q12 690 11 692 Q9 696 13 697 Q14 698 14.5 699.5 Q15 701 17 701 Q19 702 21.5 701.5 Q24 701 27 701 L84 701 Z " />
<glyph glyph-name="bracketright" unicode="&#x5d;" horiz-adv-x="332" d="M272 277 Q272 165 271 55 Q270 -55 270 -167 Q270 -171 272.5 -174.5 Q275 -178 275 -182 Q274 -194 260 -194 Q258 -195 257 -194.5 Q256 -194 254 -194 Q202 -194 150.5 -193 Q99 -192 47 -192 Q45 -192 43 -193 Q41 -194 39 -194 Q28 -192 27 -184 L27 -178 Q27 -155 28 -131.5 Q29 -108 29 -84 L29 -77 Q31 -67 38 -67 Q41 -66 43.5 -65.5 Q46 -65 49 -65 Q64 -65 79.5 -66.5 Q95 -68 110 -68 Q117 -68 120 -67 L125 -67 Q127 -66 129 -61 Q130 -60 130 -57 L130 -47 L130 601 L130 608 Q130 609 129.5 610 Q129 611 129 612 Q128 619 121 619 Q119 620 116.5 621 Q114 622 112 622 L66 622 L45 622 L37 622 Q29 624 28 629 Q28 631 28.5 632 Q29 633 29 634 Q28 636 27 638 Q26 640 26 642 Q26 663 27.5 684.5 Q29 706 29 727 Q29 729 30 730.5 Q31 732 31 734 Q31 735 29 736 Q27 737 27 738 Q29 748 39 750 Q40 750 41 748 Q42 746 44 746 L51 746 Q102 746 151 747.5 Q200 749 250 749 Q252 749 255 750 Q258 751 260 751 Q262 751 262.5 749 Q263 747 265 746 Q268 745 268.5 743.5 Q269 742 270 739 Q270 738 271.5 737 Q273 736 273 734 L273 720 Q273 608 272.5 498.5 Q272 389 272 277 Z " />
<glyph glyph-name="asciicircum" unicode="&#x5e;" horiz-adv-x="418" d="M329 300 Q319 300 310 300.5 Q301 301 292 301 Q290 301 287.5 301.5 Q285 302 283 302 Q281 303 279.5 305.5 Q278 308 276 310 Q275 312 272.5 313 Q270 314 269 316 Q267 321 267 326 Q267 331 265 336 Q254 362 244 386.5 Q234 411 224 436 Q223 438 220.5 440 Q218 442 217 444 Q215 446 215 447 Q212 450 211 447 Q208 444 208 443 Q206 440 204.5 437.5 Q203 435 202 432 Q190 403 178.5 375 Q167 347 156 318 Q155 316 154.5 314.5 Q154 313 153 311 Q151 307 149 303.5 Q147 300 142 300 Q140 300 139.5 300.5 Q139 301 137 301 L61 301 L52 301 Q46 303 46 311 Q47 313 46.5 314.5 Q46 316 46 318 Q48 321 50 323 Q52 325 53 328 Q67 363 80 399 Q93 435 107 470 Q121 505 137.5 540 Q154 575 168 610 Q169 612 168 615.5 Q167 619 168 621 Q173 627 181 629 Q183 629 184.5 628 Q186 627 188 627 Q201 627 213.5 628.5 Q226 630 239 630 Q241 630 243 629.5 Q245 629 247 629 Q251 628 253 625 Q255 622 257 619 Q258 617 260 616 Q262 615 263 613 Q269 597 274.5 581.5 Q280 566 286 550 Q309 494 330 438 Q351 382 374 326 Q375 324 376 321.5 Q377 319 378 317 Q378 317 381 314 Q383 305 373 303 Q371 303 368.5 303.5 Q366 304 364 304 Q355 304 346 302.5 Q337 301 329 301 L329 300 Z " />
<glyph glyph-name="underscore" unicode="&#x5f;" horiz-adv-x="615" d="M310 3 Q258 3 206 1.5 Q154 0 102 0 Q95 0 89 2 Q83 4 77 5 Q76 5 76 2 Q76 1 75 0 Q66 1 64 12 Q64 14 64.5 15.5 Q65 17 65 19 Q65 33 64 46 Q63 59 63 72 Q63 74 65 76.5 Q67 79 67 81 Q69 91 74 92 Q76 92 77 91 Q78 90 80 90 Q82 90 84.5 89.5 Q87 89 90 89 L533 89 Q536 89 539 90 Q542 91 545 91 Q556 90 557 78 Q557 77 557.5 76 Q558 75 558 73 L558 19 Q558 17 557.5 15.5 Q557 14 557 12 Q557 9 556 8 Q554 1 551 0 Q549 0 548 2 Q547 4 545 4 Q540 4 534 2 Q528 0 523 0 Q469 0 416.5 1.5 Q364 3 310 3 Z " />
<glyph glyph-name="grave" unicode="&#x60;" horiz-adv-x="235" d="M80 626 Q88 626 96.5 626.5 Q105 627 113 627 Q119 627 122 626 Q129 624 132 618 Q134 616 135.5 614.5 Q137 613 138 611 Q140 609 138 607 Q136 605 137 603 Q146 586 156 570.5 Q166 555 175 538 L193 502 Q194 500 193.5 498 Q193 496 194 494 Q195 493 196.5 492.5 Q198 492 198 491 Q199 489 197 486.5 Q195 484 193 483 Q191 483 190 484 Q189 485 188 485 Q173 483 158.5 482.5 Q144 482 130 483 Q125 483 122 485.5 Q119 488 116 492 Q115 493 113 493 Q111 493 110 495 Q92 522 75 550 Q58 578 39 605 Q38 607 36.5 608 Q35 609 34 611 Q32 613 32 615 Q30 623 37 625 Q38 625 39 626 Q40 627 41 627 Q43 627 45 626 Q47 625 49 625 Q57 625 64.5 624 Q72 623 80 623 L80 626 Z " />
<glyph glyph-name="bar" unicode="&#x7c;" horiz-adv-x="220" d="M162 310 Q162 207 161 105 Q160 3 160 -100 L160 -115 Q159 -122 157.5 -124 Q156 -126 149 -126 Q148 -126 147.5 -127 Q147 -128 145 -128 Q128 -128 110.5 -127 Q93 -126 75 -126 Q73 -126 71.5 -127.5 Q70 -129 68 -129 Q62 -128 60 -117 Q60 -115 59 -114 Q58 -113 58 -112 L58 -98 Q58 107 57.5 310.5 Q57 514 57 720 Q57 724 57.5 727.5 Q58 731 58 736 Q58 738 57.5 739.5 Q57 741 58 743 Q59 747 66 749 Q67 748 68 748 Q69 748 69.5 748.5 Q70 749 71 749 Q91 750 110 749.5 Q129 749 149 748 Q151 748 152 748.5 Q153 749 154 749 Q162 747 163 743 Q164 741 161.5 739 Q159 737 159 735 Q160 730 160 720 Q160 617 161 515 Q162 413 162 310 Z " />
<glyph glyph-name="braceleft" unicode="&#x7b;" horiz-adv-x="401" d="M102 92 Q102 113 101 134.5 Q100 156 100 177 Q100 180 100.5 183 Q101 186 101 189 Q101 192 99.5 195 Q98 198 96 201 Q94 206 92 210.5 Q90 215 85 217 Q81 219 73 221 Q68 221 64 219.5 Q60 218 55 219 Q53 219 51.5 221 Q50 223 48 224 Q40 226 39 231 Q39 233 40.5 234 Q42 235 42 237 Q42 259 41 280.5 Q40 302 40 324 Q40 326 40.5 327.5 Q41 329 41 331 Q42 337 48 338 Q50 339 51.5 338.5 Q53 338 55 339 Q61 339 66 341.5 Q71 344 76 346 Q80 347 86 349 Q89 351 92 352.5 Q95 354 97 358 Q99 361 98 365.5 Q97 370 98 374 Q98 377 100 380 Q102 383 102 387 Q102 424 100.5 461 Q99 498 99 535 Q99 542 100 548.5 Q101 555 101 562 Q103 588 107 612 Q109 621 111 629 Q113 637 116 645 Q119 653 121.5 659.5 Q124 666 128 673 Q137 688 149 699 Q161 710 176 719 Q190 727 205.5 733.5 Q221 740 238 744 Q254 747 270.5 747.5 Q287 748 304 749 Q307 749 310 750.5 Q313 752 316 752 Q320 752 323 751.5 Q326 751 330 751 Q332 751 333.5 752 Q335 753 336 753 Q339 752 340 749 Q341 746 342 744 Q342 742 343 742 Q344 742 344 740 Q344 738 342.5 737 Q341 736 341 734 Q341 711 343 688.5 Q345 666 345 643 Q345 641 343.5 639.5 Q342 638 341 636 Q341 627 333 626 Q327 625 320.5 623.5 Q314 622 308 622 Q300 622 293.5 620.5 Q287 619 279 617 Q275 616 267 612 Q262 610 258 607.5 Q254 605 252 600 Q248 593 245.5 586 Q243 579 242 571 Q241 564 242.5 557.5 Q244 551 244 544 Q244 505 243 466 Q242 427 242 389 Q242 384 241 379.5 Q240 375 240 370 Q239 357 237 345 Q235 333 229 322 Q220 306 207 294 Q205 292 203 291 Q201 290 199 288 Q198 287 198 285.5 Q198 284 197 283 Q194 278 195 277 Q197 275 197.5 273.5 Q198 272 200 270 Q205 266 209.5 263 Q214 260 217 255 Q238 228 240 190 Q240 185 240.5 181 Q241 177 241 173 Q241 135 242 97.5 Q243 60 243 22 Q243 14 242.5 7.5 Q242 1 244 -7 Q244 -11 245.5 -15 Q247 -19 248 -23 Q251 -34 256 -42 Q261 -50 271 -55 Q274 -57 277.5 -57 Q281 -57 285 -58 Q296 -62 309 -62 Q314 -62 317.5 -63.5 Q321 -65 325 -65 L336 -65 Q343 -67 343 -73 Q344 -75 343 -77.5 Q342 -80 342 -82 Q342 -90 342.5 -99 Q343 -108 343 -116 Q343 -130 344.5 -144 Q346 -158 345 -172 Q345 -179 344 -182 Q344 -192 334 -192 Q332 -193 328 -193 Q321 -193 314 -192.5 Q307 -192 300 -191 Q282 -190 263.5 -187 Q245 -184 227 -179 Q213 -175 199 -169.5 Q185 -164 172 -156 Q155 -146 139 -127 Q132 -119 127.5 -110 Q123 -101 118 -91 Q115 -83 112 -75.5 Q109 -68 107 -60 Q105 -49 104 -38.5 Q103 -28 101 -17 Q100 -6 100.5 5 Q101 16 101 27 Q101 43 101.5 59 Q102 75 102 92 Z " />
<glyph glyph-name="braceright" unicode="&#x7d;" horiz-adv-x="389" d="M291 480 Q291 457 291.5 434 Q292 411 292 388 Q292 383 291 379 Q290 375 291 370 Q291 368 293 364 Q295 356 308 349 Q313 347 321 345 Q325 344 329 342.5 Q333 341 337 341 Q339 340 340 339 Q341 338 343 337 Q348 337 349 332 Q349 331 351 330.5 Q353 330 353 328 Q353 326 351 323.5 Q349 321 349 319 Q349 300 351 281.5 Q353 263 353 243 Q353 241 351 239 Q349 237 349 235 Q349 233 350 232 Q351 231 351 230 Q350 227 348 226.5 Q346 226 343 225 Q340 224 336 224 Q331 223 327 221.5 Q323 220 319 219 Q317 218 315 218 Q313 218 311 217 Q293 210 290 196 L290 182 Q289 179 289.5 176 Q290 173 290 170 L290 19 L290 -4 Q290 -17 287.5 -30 Q285 -43 283 -56 Q281 -67 277.5 -76 Q274 -85 269 -95 Q249 -136 211 -158 Q194 -167 176.5 -174 Q159 -181 140 -184 Q125 -187 109.5 -188.5 Q94 -190 78 -191 L65 -191 Q63 -191 60.5 -190 Q58 -189 56 -189 Q46 -187 45 -181 Q45 -180 46 -179 Q47 -178 47 -176 L47 -168 Q47 -147 47.5 -126.5 Q48 -106 48 -86 Q48 -84 48.5 -81.5 Q49 -79 49 -77 Q50 -75 49.5 -74 Q49 -73 50 -71 Q52 -66 54 -65 Q56 -65 58.5 -64 Q61 -63 63 -63 Q67 -63 70 -62 Q73 -61 77 -61 Q82 -61 87.5 -60.5 Q93 -60 98 -59 Q103 -58 108.5 -55.5 Q114 -53 119 -51 Q138 -42 144 -22 Q146 -16 146 -10 Q146 -4 146 2 L146 28 Q147 66 148.5 103 Q150 140 150 178 Q150 183 150.5 189 Q151 195 152 200 Q154 223 163 241 Q171 257 189 272 Q191 274 192 274.5 Q193 275 194 277 Q199 281 195 287 Q194 288 192.5 288 Q191 288 189 290 Q163 311 153 340 Q150 348 150.5 357.5 Q151 367 151 376 Q150 380 148 383.5 Q146 387 146 391 Q146 428 147.5 464.5 Q149 501 149 538 Q149 544 149 550 Q149 556 148 561 Q148 567 147 573 Q146 579 144 585 Q142 589 141 593 Q140 597 138 601 Q135 606 131.5 610.5 Q128 615 123 618 Q120 619 116.5 619.5 Q113 620 110 622 Q103 624 96.5 624.5 Q90 625 83 626 Q78 626 72 625.5 Q66 625 61 625 Q60 625 59 626 Q58 627 57 627 Q50 627 48 637 Q48 639 47 640 Q46 641 46 643 Q46 667 45.5 690.5 Q45 714 45 737 Q45 739 46.5 741 Q48 743 48 745 Q50 752 55 753 L59 753 L67 753 Q75 753 84 752 Q93 751 102 750 Q115 749 128 748.5 Q141 748 154 746 Q169 742 183.5 737.5 Q198 733 212 725 Q221 720 229 713 Q237 706 245 698 Q254 689 262 679 Q270 669 275 658 Q280 647 282 634.5 Q284 622 286 610 Q288 596 289 582.5 Q290 569 290 555 Q290 536 291.5 517.5 Q293 499 293 480 L291 480 Z " />
<glyph glyph-name="asciitilde" unicode="&#x7e;" horiz-adv-x="608" d="M399 225 Q372 225 347 231.5 Q322 238 298 249 Q288 253 278.5 256.5 Q269 260 259 263 Q251 266 242 267.5 Q233 269 225 270 Q220 271 210 271 Q208 271 204.5 271 Q201 271 198 269 Q194 267 191.5 263.5 Q189 260 187 255 Q184 251 182.5 247.5 Q181 244 179 240 Q177 238 176.5 236 Q176 234 175 232 Q172 222 162 222 Q160 222 158 224 Q156 226 154 226 Q131 226 107.5 224 Q84 222 61 222 Q59 222 56 222.5 Q53 223 50 223 Q47 224 45.5 227 Q44 230 44 233 Q44 235 45 236.5 Q46 238 46 240 Q55 271 70 300 Q83 323 105 342 Q122 357 139 365 Q151 370 163.5 370.5 Q176 371 188 371 Q208 372 226.5 371 Q245 370 264 364 Q274 361 282.5 357 Q291 353 300 348 Q313 342 326 338.5 Q339 335 353 331 Q371 328 386 329 L396 329 Q402 331 405 334 Q408 337 412 342 Q414 345 416.5 347 Q419 349 420 352 Q422 354 422 356.5 Q422 359 423 361 Q424 363 423.5 364.5 Q423 366 425 368 Q426 371 428.5 371 Q431 371 434 371 Q436 372 438.5 374 Q441 376 443 376 Q460 377 478 375.5 Q496 374 513 374 Q520 374 526.5 374.5 Q533 375 540 375 Q542 375 544.5 374 Q547 373 549 373 Q556 371 555 366 Q555 365 553 359 Q550 345 545.5 331 Q541 317 533 303 Q530 297 526.5 291.5 Q523 286 519 281 Q514 272 506.5 265 Q499 258 491 252 Q480 244 465 237 Q451 232 436.5 228 Q422 224 407 224 Q405 224 403 224.5 Q401 225 399 225 Z " />
<glyph glyph-name="cent" unicode="&#xa2;" horiz-adv-x="538" d="M362 227 L362 139 L362 129 L362 124 Q362 123 369 123 Q371 122 373.5 120.5 Q376 119 378 119 L393 122 Q411 125 428.5 129 Q446 133 463 137 Q465 138 468 137.5 Q471 137 473 137 Q476 137 479 136 Q482 135 483 132 Q483 130 482.5 129 Q482 128 482 127 Q482 125 482.5 123 Q483 121 483 119 Q483 97 484 76 Q485 55 485 34 Q485 31 483.5 28 Q482 25 482 23 Q480 12 474 10 L468 7 Q448 2 428 -1 Q408 -4 388 -7 Q385 -7 382 -8 Q379 -9 377 -9 Q375 -10 373.5 -9.5 Q372 -9 370 -10 Q364 -11 363 -17 Q363 -19 364 -21.5 Q365 -24 365 -26 Q365 -37 363 -48 Q361 -59 361 -70 Q361 -72 362.5 -74.5 Q364 -77 364 -79 Q364 -84 360.5 -86 Q357 -88 352 -89 Q350 -89 348.5 -88 Q347 -87 345 -87 Q341 -87 338 -89 Q335 -91 331 -91 L282 -91 Q280 -91 277.5 -89.5 Q275 -88 272 -88 Q262 -86 261 -78 L261 -70 L261 -23 Q261 -21 262.5 -18.5 Q264 -16 264 -14 Q262 -6 254 -4 Q252 -3 250.5 -4.5 Q249 -6 247 -5 Q242 -4 237 -2 Q232 0 227 1 Q210 5 192.5 10 Q175 15 158 23 Q124 41 97 71 Q85 84 76.5 99 Q68 114 61 131 Q54 148 50.5 164 Q47 180 45 197 Q44 208 43.5 217.5 Q43 227 44 237 Q45 260 48.5 282.5 Q52 305 61 327 Q67 341 75.5 352.5 Q84 364 93 375 Q107 393 124 406 Q141 419 161 429 Q172 435 184.5 439 Q197 443 210 446 Q219 449 228 451.5 Q237 454 247 456 Q249 457 251 458.5 Q253 460 255 461 Q259 461 259 465 Q260 468 261 470.5 Q262 473 263 475 Q263 486 262.5 497.5 Q262 509 262 520 Q262 522 261 524.5 Q260 527 261 529 Q261 530 260.5 531 Q260 532 260 534 Q262 540 269 542 Q270 543 271.5 542.5 Q273 542 274 542 Q276 543 281 543 Q296 543 311.5 541.5 Q327 540 342 540 Q344 540 346 539.5 Q348 539 350 539 Q352 539 353 540 Q354 541 355 541 Q360 540 362 533 Q362 531 363 529.5 Q364 528 364 526 Q364 523 363.5 519.5 Q363 516 363 512 L363 478 Q363 476 365 470 Q365 466 370 465 Q372 464 372.5 462.5 Q373 461 375 461 Q398 459 420.5 453.5 Q443 448 466 443 Q468 442 469.5 442.5 Q471 443 473 443 Q478 441 478.5 438.5 Q479 436 480 431 Q480 429 481 427.5 Q482 426 482 424 Q482 401 482.5 378.5 Q483 356 483 333 Q483 330 481 326 Q481 323 480 322 Q479 318 475 318 Q471 318 468 319 Q463 320 457.5 320.5 Q452 321 447 323 Q430 327 412 329 Q394 331 376 333 Q372 335 370 335 Q363 335 361 328 Q361 327 362 326 Q363 325 363 323 Q363 321 361.5 318.5 Q360 316 360 314 Q360 292 361 270.5 Q362 249 362 227 Z M262 227 L262 306 Q262 309 262.5 312 Q263 315 263 318 Q263 319 261 319.5 Q259 320 259 322 Q257 329 255 328 Q253 328 251 327.5 Q249 327 247 327 Q242 325 237.5 322 Q233 319 228 316 Q218 311 210 304 Q202 297 197 287 Q192 278 191 269 Q190 260 188 250 Q186 239 185 228 Q184 217 186 206 Q187 197 189.5 189 Q192 181 196 173 Q202 157 221 144 Q228 139 234.5 134 Q241 129 249 127 Q250 126 251 127.5 Q252 129 253 128 L255 128 Q261 128 261 131 Q261 133 260.5 136 Q260 139 260 141 Q260 163 261 184 Q262 205 262 227 Z " />
<glyph glyph-name="circumflex" unicode="&#x2c6;" horiz-adv-x="402" d="M203 636 Q212 636 221.5 636 Q231 636 240 635 Q243 635 246 636 Q249 637 252 637 Q259 635 265 630 Q267 627 271 625.5 Q275 624 278 621 Q282 616 285 612 Q288 608 292 603 Q306 589 318 574.5 Q330 560 343 546 Q348 541 353 537.5 Q358 534 363 529 Q365 527 365 525.5 Q365 524 367 522 Q370 517 363 515 Q361 513 360 513 L352 513 Q335 513 319.5 512 Q304 511 287 511 Q285 511 284 513 Q283 515 281 515 Q276 515 271.5 515 Q267 515 263 519 Q258 523 255 528 Q252 533 247 538 Q239 546 229.5 552.5 Q220 559 212 567 Q210 569 209 570.5 Q208 572 206 573 Q203 575 199 571 Q197 570 195.5 570 Q194 570 193 568 Q185 561 177.5 555 Q170 549 162 542 Q157 537 151 532 Q145 527 140 522 Q138 521 138 519 Q138 517 136 516 Q133 514 125 514 Q123 514 121 513 Q119 512 117 512 Q101 512 85 513 Q69 514 53 514 Q51 514 48.5 513.5 Q46 513 44 513 Q43 513 42.5 514 Q42 515 40 516 Q36 518 38 521 Q39 522 39.5 523 Q40 524 41 525 Q44 529 46.5 533 Q49 537 52 541 Q56 546 61 549.5 Q66 553 70 558 Q81 569 91.5 580.5 Q102 592 113 603 Q118 609 124 615 Q130 621 135 627 Q140 632 144 635.5 Q148 639 161 639 Q169 639 178 638.5 Q187 638 195 638 Q197 638 199 637 Q201 636 203 636 Z " />
<glyph glyph-name="ring" unicode="&#x2da;" horiz-adv-x="275" d="M228 599 L228 587 L228 586 Q227 584 227 579 Q226 575 224 565 Q221 555 216 549 Q212 541 204 533 Q198 527 194 524 Q188 518 181 515 Q177 513 174 512 Q171 511 167 509 Q162 507 156.5 506 Q151 505 146 506 Q145 506 145 505.5 Q145 505 144 505 L135 505 Q133 506 131 506 L129 506 Q128 506 127 506.5 Q126 507 124 507 L112 510 Q102 513 96 517 Q87 523 80 530 L71 539 Q65 547 63 551 Q61 554 60.5 557 Q60 560 58 562 Q58 564 57.5 565 Q57 566 57 568 Q57 570 56 571 Q55 573 55 577 L55 579 Q54 581 54 586 Q54 587 53 587 L53 599 Q54 600 54 603 Q54 607 56 613 Q57 618 61 628 Q61 629 61.5 629.5 Q62 630 62 631 L63 632 L63 633 Q64 634 64 635 Q64 636 65 637 Q69 644 76 651 Q78 653 81 656 Q84 659 87 661 Q91 665 99 669 Q105 672 111 674.5 Q117 677 124 678 Q128 679 137 679 Q137 680 138 680 L144 680 L144 679 L152 679 Q154 678 156 678 Q158 678 160 677 Q169 675 178 671 Q187 666 194 661 Q197 659 203 653 Q206 651 210 645 Q212 643 212.5 641 Q213 639 215 637 Q216 637 216 635 Q218 633 219.5 629.5 Q221 626 223 623 L226 611 Q227 608 227 605 Q227 602 228 599 Z M172 574 L172 575 Q170 576 172 578 Q172 580 172.5 580.5 Q173 581 173 582 Q175 587 175 597 Q174 602 170 610 Q168 614 168 614 Q166 615 166 615.5 Q166 616 164 617 Q161 621 153 625 Q149 627 140 627 L136 627 Q134 626 131.5 626 Q129 626 127 624 Q122 622 119 619.5 Q116 617 113 614 Q104 601 107 586 Q108 576 118 566 Q122 564 122 564 Q124 563 124.5 562 Q125 561 127 560 L128 560 L129 560 Q131 560 131.5 559.5 Q132 559 134 559 Q135 558 138 558 L143 558 Q145 558 151 560 Q162 563 168 572 Q169 573 169.5 574 Q170 575 171 576 Q171 575 171.5 575 Q172 575 172 574 Z M174 542 L174 543 Q174 545 174 545 Q174 545 176 543 Q176 542 176.5 541 Q177 540 177 539 Q179 539 179.5 538.5 Q180 538 181 538 L181 539 Q180 540 179 540 Q178 540 178 542 Q177 543 177 544 Q177 545 175 546 L174 546 Q172 544 174 542 Z M153 655 Q155 657 154 658 Q153 659 152 661 L152 660 L152 657 Q152 656 151 656 L149 656 L149 658 Q149 659 147 659 L146 659 Q146 658 146.5 658 Q147 658 147 657 Q148 658 148 658 L148 657 Q149 655 151 655 Q151 655 153 655 Z M147 535 Q147 533 146.5 532.5 Q146 532 146 530 Q144 527 148 527 L148 530 Q147 531 148 532 Q148 533 147.5 533.5 Q147 534 147 535 Z M91 563 Q91 561 90 561 Q89 561 89 560 Q90 560 90 560.5 Q90 561 91 561 Q93 561 94 560 Q95 560 95 561 Q95 562 94.5 562.5 Q94 563 94 564 Q93 563 91 563 Z M80 621 Q79 621 77 620 Q76 619 75 619 Q74 619 72 618 L74 618 Q76 619 76.5 618 Q77 617 79 616 Q79 616 77 620 Q79 620 80 621 Z M165 643 L165 641 Q166 640 166 640 L166 641 L167 642 L167 643 L166 643 Q164 644 162 646 L162 643 L165 643 Z M114 647 Q118 647 120 646 L121 645 Q121 646 122 646 Q121 647 121 647 Q116 649 114 647 Z M131 645 L131 647 L131 651 L131 652 L130 652 Q131 650 129 648 Q129 645 131 645 Z M90 597 L89 597 Q89 595 88 593.5 Q87 592 87 590 Q90 590 90 593 Q89 593 89 593.5 Q89 594 90 594 L90 597 Z M147 648 Q146 649 144 649 L144 647 Q144 646 145 645 Q146 645 146 646 Q147 646 147.5 647 Q148 648 147 648 Z M140 534 L140 531 Q140 530 142 530 Q143 530 143 530.5 Q143 531 144 531 Q142 532 142 532 Q142 532 140 534 Z M93 616 Q92 618 95 620 Q96 620 96 621 Q94 621 92 619 Q91 618 90 618 L90 619 L93 616 Z M156 536 L153 536 Q153 535 154 534 Q155 533 153 532 Q155 531 155 531 Q155 535 156 536 Z M156 637 Q158 635 158 637 L158 643 Q158 642 156 642 Q156 641 157 640 Q158 638 156 637 Z M167 533 Q166 532 166 529 L166 528 Q168 526 168 526 Q168 527 166 529 Q167 530 167 530.5 Q167 531 168 532 L167 533 Z M139 657 Q138 656 138 655 Q136 653 138 650 Q139 650 139 650.5 Q139 651 140 651 Q138 652 138.5 653.5 Q139 655 139 657 Z M88 628 L88 632 L88 634 L86 634 Q88 631 86 629 Q87 629 88 628 Z M77 572 Q75 576 73 572 Q72 571 70 571 Q73 568 73 572 L75 572 L77 572 Z M196 592 Q196 594 195 595 L195 594 Q195 591 197 591 L199 591 Q200 590 200 592 L196 592 Z M87 578 Q88 580 88 580 Q86 583 85 583 Q85 582 84.5 582 Q84 582 84 581 L86 581 Q85 581 87 579 L87 578 Z M80 577 Q82 575 82 575 Q84 577 84 578 L84 579 Q84 579 80 577 Z M87 561 L87 564 Q86 564 86 566 L85 566 L85 564 Q87 562 85 562 Q84 561 84 560 Q85 561 85 562 Q85 563 87 561 Z M193 586 Q192 587 191.5 588 Q191 589 190 590 Q189 587 193 586 Z M184 542 Q184 543 183 543 L183 545 L182 546 Q181 545 181 544 Q182 544 182 542 L184 542 Z M73 606 Q75 605 76 607 L76 609 L74 609 Q74 607 73 606 Z M174 639 L172 639 Q171 641 170.5 640.5 Q170 640 169 641 Q169 640 168.5 639.5 Q168 639 168 638 L170 638 L170 640 Q170 640 172 638 Q173 638 174 639 Z M82 594 L85 594 Q88 594 86 596 Q84 594 83 596 Q83 594 82 594 Z M107 543 Q106 545 106 545 Q106 546 108 548 Q106 546 106 547 Q104 547 106 545 Q106 543 107 543 Z M127 538 Q125 538 124 537 Q125 536 126 536 Q127 536 128 535 L128 537 L127 538 Z M192 567 Q189 568 187 566 Q191 566 192 567 Z M93 629 L94 629 Q94 628 93.5 628 Q93 628 93 627 Q94 627 94.5 626.5 Q95 626 96 626 Q95 627 95 628 Q95 629 94 630 Q93 630 93 629 Z M109 638 Q109 638 107 640 Q108 639 107.5 638 Q107 637 108 637 Q110 635 112 636 Q111 638 110.5 637 Q110 636 109 637 L109 638 Z M84 606 Q84 608 85 607.5 Q86 607 86 608 Q85 608 84 608.5 Q83 609 81 607 Q82 607 82.5 606.5 Q83 606 84 606 Z M73 594 Q73 597 71 598 Q71 595 73 594 Z M114 536 Q116 537 116 537 Q116 538 115.5 538 Q115 538 115 539 Q114 540 112 540 Q113 539 114 538.5 Q115 538 114 536 Z M102 542 Q101 543 103 545 L102 546 Q102 545 100 545 Q101 544 100.5 543 Q100 542 102 542 Z M157 644 Q157 645 156 645 L153 645 Q154 645 154.5 644 Q155 643 157 644 Z M103 644 Q101 644 101 642 L103 642 L103 645 L103 644 Z M147 654 Q146 653 146 653 Q146 653 147 650 Q147 651 148 651 Q147 652 147 652 Q148 653 148 653 Q148 654 147 654 Z M81 597 L80 597 Q79 596 80 593 Q80 594 80.5 595 Q81 596 81 597 Z M180 644 L179 644 Q179 644 177 644 Q177 643 178 643 L178 642 L180 644 Z M206 600 Q202 599 203 596 L204 596 Q203 598 206 600 Z M143 523 Q143 522 144 523 Q146 523 147 522 L149 522 Q147 524 145 523 L143 523 Z M186 635 Q187 635 188 634 Q188 633 189 633 Q190 634 188 636 Q187 636 186 635 Z M89 621 L91 621 L92 622 Q91 624 91 624 Q91 623 89 621 Z M75 580 L74 580 L72 580 L72 579 L73 578 L74 578 Q75 580 75 580 Z M161 540 Q157 541 157 538 Q157 538 161 540 Z M78 603 Q76 604 76 603 Q76 602 75 602 L75 599 Q77 601 78 603 Z M149 667 Q147 667 147 670 Q147 669 146.5 668.5 Q146 668 146 667 Q147 667 147.5 666.5 Q148 666 149 666 L149 667 Z M98 555 Q98 557 95 557 Q95 555 96 555.5 Q97 556 97 555 L97 554 L98 555 Z M170 536 Q169 536 169 534 Q170 535 172 535 Q171 536 170 536 Z M209 584 Q210 584 210 588 Q209 588 208 587 Q209 587 209 584 Z M200 594 Q200 593 201 592 Q202 592 202 593 L202 594 Q200 596 200 594 Z M120 642 Q120 642 120 637 L120 640 L120 642 Z M80 587 L80 589 Q80 592 78 590 Q79 589 79 588.5 Q79 588 80 587 Z M164 545 Q166 543 167 546 Q166 546 165.5 545.5 Q165 545 164 545 Z M116 544 Q118 544 119 548 Q118 546 118 546 L118 545 Q117 545 117 544.5 Q117 544 116 544 Z M191 579 Q192 579 192 578 L192 577 Q193 578 192 581 Q191 580 191 579 Z M199 601 Q201 601 202 600 L202 602 Q201 601 200.5 602 Q200 603 199 601 Z M113 544 Q112 545 111 545 Q109 545 109 544 L113 544 Z M125 532 Q126 534 125 535 Q124 532 125 532 Z M205 565 Q207 565 206 567 L204 567 Q205 567 205 565 Z M193 593 Q193 595 192.5 595.5 Q192 596 192 597 L191 597 Q192 596 192 594 Q193 593 193 593 Z M176 558 L175 558 L171 558 Q173 557 173 557 Q174 557 174.5 557.5 Q175 558 176 558 Z M194 582 Q195 581 195 581 L196 580 L196 581 Q196 582 197 583 Q195 583 194 582 Z M143 653 Q144 653 145 654 Q144 654 143.5 654.5 Q143 655 142 655 Q142 654 142.5 654 Q143 654 143 653 Z M185 560 L185 558 L186 558 Q185 560 185 560 L184 560 L185 560 Z M124 639 Q124 640 123 640 L123 638 L124 637 L124 636 L125 636 Q125 637 124.5 637.5 Q124 638 124 639 Z M161 633 Q164 633 164 637 Q162 635 161 633 Z M80 585 Q81 584 83 587 Q83 588 82 588 Q83 586 80 585 Z M133 539 Q131 538 132 536 Q133 537 133 537 L133 539 Z M81 567 Q82 568 82 570 L80 570 Q80 569 80.5 568.5 Q81 568 81 567 Z M186 552 Q187 553 189 553 Q187 555 186 554 L186 552 Z M99 548 Q102 547 102 549 Q101 548 100 548 L99 549 L99 548 Z M190 603 Q191 602 191 600 L192 600 L192 603 L190 603 Z M85 621 Q83 619 85 618 L85 621 Z M170 544 L169 544 Q169 543 167.5 543 Q166 543 167 541 L170 544 Z M187 631 Q185 629 183 628 L184 628 Q185 629 185.5 629 Q186 629 187 631 Z M170 552 Q171 553 170 554 L169 554 Q169 552 170 552 Z M136 659 Q138 658 139 659 Q138 660 138 660 Q137 660 137 659.5 Q137 659 136 659 Z M129 529 Q130 530 130 530 L130 531 Q129 531 129 532 Q129 533 128 532 Q128 531 128.5 530.5 Q129 530 129 529 Z M122 653 Q124 651 124 651 Q126 655 122 653 Z M197 612 Q200 610 200 613 Q199 613 198.5 612.5 Q198 612 197 612 Z M143 538 Q143 539 142 539 Q141 539 140 540 Q140 539 139 539 Q141 538 141.5 538.5 Q142 539 143 538 Z M197 607 L195 607 L195 606 Q197 606 197 607 Q197 609 196 609 Q195 609 196 608 Q196 607 197 607 Z M129 640 Q128 641 127.5 641 Q127 641 126 642 Q126 638 129 640 Z M86 622 L86 621 L89 621 L89 623 Q88 622 86 622 Z M68 593 L68 592 Q70 591 70 591 L71 591 L70 592 Q69 593 68 593 Z M201 574 L199 574 Q198 574 198 573 L199 573 Q200 573 200 573.5 Q200 574 201 574 Z M85 570 Q86 570 86 570.5 Q86 571 87 571 L85 573 L85 572 L85 570 Z M151 539 Q150 540 149 540 Q149 538 151 538 L151 539 Z M93 553 L95 553 Q94 555 94 555 Q93 555 93 553 Z M159 526 Q159 527 160 529 L158 527 L159 526 Z M96 624 Q98 622 98 621 Q99 624 96 624 Z M89 601 Q91 601 91 602 Q90 602 89 601 Z M181 630 L182 630 Q181 631 181 631.5 Q181 632 180 633 Q180 630 181 630 Z M83 566 Q80 566 80 564 Q81 565 81.5 565 Q82 565 83 566 Z M211 617 L211 616 L213 618 L211 618 L211 617 Z M92 549 L94 551 Q95 552 95 552 Q94 551 94 551 L92 551 L92 549 Z M188 627 Q189 626 192 627 L188 627 Z M209 619 L208 619 Q207 619 206 618 Q207 618 207 617 L209 619 Z M187 544 Q187 544 185 546 L185 545 Q186 544 186 543 Q187 544 187 544 Z M174 551 Q176 553 176 553 L175 554 Q175 553 174.5 553 Q174 553 174 552 L174 551 Z M204 620 L205 620 Q202 620 204 622 Q202 620 203 620 L204 620 Z M187 540 Q189 541 189 541 Q188 542 187 540 Z M89 570 L89 567 Q90 568 90 568 L89 569 L90 569 L90 570 L89 570 Z M187 577 L187 575 Q189 575 190 574 Q190 575 188 575 Q188 576 187 577 Z M75 569 L74 569 Q73 569 73 569.5 Q73 570 72 570 L72 569 L75 569 Z M152 649 L152 647 L153 647 L153 649 L152 649 Z M155 540 Q152 539 154 537 Q154 538 154.5 538.5 Q155 539 155 540 Z M108 549 Q109 550 107 551 L107 550 L108 549 Z M85 641 L85 640 Q87 641 87 641 L85 641 Z M92 609 L92 612 Q90 610 92 609 Z M95 613 Q95 614 98 614 Q96 615 95 613 Z M200 580 Q198 581 197 580 L200 580 Z M78 592 Q77 592 76.5 592.5 Q76 593 75 593 Q75 593 77 591 Q78 592 78 592 Z M106 632 L107 632 L108 633 L107 634 Q107 633 106.5 633 Q106 633 106 632 Z M77 554 Q76 555 74 554 L77 554 Z M152 643 L152 642 Q153 642 153 641.5 Q153 641 154 641 Q154 642 153 643 L152 643 Z M90 640 L90 638 Q91 638 91 639 L90 640 Z M137 643 Q137 641 138 641 Q138 642 137 643 Z M202 614 L202 613 Q203 613 203 612.5 Q203 612 204 612 L204 613 Q203 613 202 614 Z M193 565 L192 565 Q192 564 192.5 564 Q193 564 193 563 L193 564 L193 565 Z M204 609 Q202 607 206 607 L204 609 Z M151 550 Q150 549 149 549 L150 548 Q151 548 151 550 Z M204 606 L204 605 Q205 604 206 606 L204 606 Z M115 636 Q113 634 113 634 L115 636 Z M183 534 L182 534 Q181 533 181 532 L183 534 Z M98 565 L98 563 Q100 565 98 565 Z M101 639 L101 640 Q101 639 99 639 Q100 638 100 638 L101 639 Z M78 566 L79 566 L79 568 L78 568 L78 566 Z M159 652 L157 654 Q155 652 159 652 Z M193 609 Q194 609 195 610 Q193 610 193 609 Z M118 532 Q120 531 120 531 L120 532 Q119 533 118 532 Z M120 542 L123 542 L123 543 Q122 543 121.5 542.5 Q121 542 120 542 Z M119 551 L119 552 L118 552 L118 553 L118 552 L119 551 Z M195 558 Q193 559 193 559 Q193 558 195 558 Z M111 648 Q111 649 111.5 649.5 Q112 650 112 651 Q110 649 111 648 Z M126 540 L128 540 Q126 542 126 540 Z M68 598 Q68 598 70 600 L68 598 Z M96 647 L97 647 L98 648 Q96 648 96 647 Z M98 642 Q98 641 97.5 641 Q97 641 97 640 Q100 640 98 642 Z M168 557 Q167 556 166 556 Q167 555 167 554 Q167 556 168 557 Z M174 653 L174 654 L173 654 Q174 653 174 653 Z " />
<glyph glyph-name="tilde" unicode="&#x2dc;" horiz-adv-x="405" d="M140 678 Q179 680 207 659 Q211 657 214.5 655 Q218 653 222 651 Q225 649 228 646.5 Q231 644 235 642 Q245 637 255.5 640 Q266 643 272 652 Q274 654 274 656.5 Q274 659 276 661 Q278 665 279 668 Q283 673 289 673 Q291 673 292 674.5 Q293 676 294 676 Q308 674 321.5 672.5 Q335 671 349 669 Q351 668 354 667.5 Q357 667 359 666 Q362 665 362 657 Q362 655 363 654.5 Q364 654 363 652 Q358 617 337 593 Q319 572 294 565 Q283 562 273 559.5 Q263 557 252 558 Q237 558 226 562 Q217 565 208.5 568 Q200 571 192 576 Q187 579 184 583 Q181 587 176 590 Q173 592 170.5 593 Q168 594 166 595 Q164 596 163 597 Q162 598 160 598 Q141 605 128 588 Q126 586 124.5 583 Q123 580 122 577 Q121 575 121.5 573 Q122 571 121 569 Q115 563 111 563 L105 563 Q99 564 93 565 Q87 566 81 567 Q73 568 66.5 569.5 Q60 571 52 572 Q49 572 46.5 573 Q44 574 42 575 Q39 576 36 577.5 Q33 579 33 582 Q32 583 35 588 Q38 612 50 633 Q57 644 65.5 651.5 Q74 659 85 666 Q91 670 97 671.5 Q103 673 111 675 Q118 677 125 678 Q132 679 140 678 Z " />
<glyph glyph-name="dieresis" unicode="&#xa8;" horiz-adv-x="383" d="M273 534 Q266 534 259 533.5 Q252 533 245 533 Q243 533 240.5 532.5 Q238 532 236 533 Q231 534 229 542 Q228 544 228 548 Q228 564 227 579.5 Q226 595 226 611 Q226 613 227.5 614 Q229 615 230 617 Q230 624 234 625 Q236 626 239 626 Q241 627 243.5 626.5 Q246 626 248 626 Q261 626 273.5 626.5 Q286 627 298 627 L311 627 Q318 626 320 616 Q320 614 318.5 611.5 Q317 609 317 607 Q318 599 319.5 590.5 Q321 582 321 574 Q321 568 319.5 562.5 Q318 557 318 551 Q318 549 319.5 546.5 Q321 544 321 542 Q320 538 316.5 536.5 Q313 535 310 535 Q308 535 306 533.5 Q304 532 302 532 Q295 532 288 533 Q281 534 273 534 Z M162 579 L162 551 Q162 548 160 542 Q160 539 158.5 536 Q157 533 154 532 Q152 532 150.5 533.5 Q149 535 147 535 Q132 535 116.5 533.5 Q101 532 86 532 Q84 532 83 533 Q82 534 80 534 Q71 536 71 542 Q70 544 70 549 Q70 564 70.5 579 Q71 594 71 609 Q71 611 71.5 612.5 Q72 614 72 616 Q73 623 79 623 Q82 624 85 625 Q88 626 91 626 Q100 626 109 625.5 Q118 625 127 625 Q132 625 135.5 625.5 Q139 626 144 625 Q151 625 154 624 Q158 623 160 616 Q160 614 160.5 611.5 Q161 609 161 607 Q161 600 162.5 593 Q164 586 164 579 L162 579 Z " />
<glyph glyph-name="acute" unicode="&#xb4;" horiz-adv-x="233" d="M63 484 Q58 484 52 485 Q46 486 40 486 Q38 486 35.5 485.5 Q33 485 31 486 Q24 488 27 494 Q27 496 28 497.5 Q29 499 30 501 Q36 513 40.5 525.5 Q45 538 52 550 Q54 554 58 557 Q62 560 64 564 L88 612 Q89 614 89 616.5 Q89 619 91 621 Q93 624 95.5 624.5 Q98 625 102 626 Q104 626 106 625.5 Q108 625 110 625 Q127 625 143 626 Q159 627 176 627 Q179 627 185 625 Q191 624 188 618 Q188 615 188 615 L185 609 Q167 583 149.5 555.5 Q132 528 114 501 Q112 499 111 497 Q110 495 108 493 Q101 484 93 484 Q91 484 88.5 483.5 Q86 483 83 483 Q78 483 73 482.5 Q68 482 63 482 L63 484 Z " />
<glyph glyph-name="copyright" unicode="&#xa9;" horiz-adv-x="788" d="M379 -12 Q375 -12 371.5 -13 Q368 -14 364 -14 Q299 -12 240 11 Q218 20 198 33 Q178 46 160 61 Q137 78 120.5 99.5 Q104 121 90 146 Q73 173 62 206 Q57 225 51 242.5 Q45 260 43 280 Q42 290 44 299.5 Q46 309 46 319 Q47 345 50.5 369.5 Q54 394 62 419 Q71 445 83 469 Q95 493 112 515 Q121 526 132.5 535.5 Q144 545 155 554 Q165 563 175 571.5 Q185 580 197 587 Q224 603 252.5 614 Q281 625 312 630 Q335 634 357.5 636 Q380 638 403 636 Q429 634 453 628 Q477 622 500 614 Q558 595 606 555 Q616 547 626 539.5 Q636 532 644 522 Q658 505 669 486.5 Q680 468 689 448 Q695 435 698.5 421.5 Q702 408 706 394 Q710 373 712 351 Q714 337 716.5 323.5 Q719 310 718 296 Q715 249 700 206 Q695 189 687 173 Q679 157 670 142 Q662 129 653.5 118 Q645 107 635 96 Q617 76 596.5 59 Q576 42 553 29 Q539 21 524.5 16 Q510 11 496 6 Q478 1 460.5 -4 Q443 -9 424 -11 Q410 -13 402 -12.5 Q394 -12 379 -12 Z M122 311 Q121 294 124 278.5 Q127 263 130 247 Q135 230 141 214 Q147 198 156 183 Q164 168 173.5 154 Q183 140 196 128 Q210 115 224 103.5 Q238 92 255 84 Q275 74 296 68.5 Q317 63 339 60 Q351 58 363 60.5 Q375 63 387 63 Q399 63 411 62 Q423 61 435 63 Q490 72 536 104 Q563 124 582.5 149 Q602 174 616 204 Q625 224 631 244.5 Q637 265 639 287 Q641 303 639.5 318.5 Q638 334 636 350 Q633 370 627 388 Q621 406 613 424 Q602 448 585 468 Q568 488 548 505 Q528 520 508 532.5 Q488 545 464 553 Q433 561 396 563 Q373 564 352 560.5 Q331 557 309 552 Q295 548 282.5 544 Q270 540 257 534 Q227 520 204 501 Q180 481 161 453 Q147 433 140 410 Q133 387 129 364 Q127 350 124 337.5 Q121 325 122 311 Z M395 150 Q377 150 359 149.5 Q341 149 324 154 Q313 157 304.5 163 Q296 169 287 174 Q248 198 228 237 Q212 267 211 298 Q211 303 210 309 Q209 315 209 320 Q210 334 214.5 347 Q219 360 224 373 Q233 397 248 415 Q259 428 271.5 438 Q284 448 300 455 Q310 460 320.5 464.5 Q331 469 342 471 Q353 473 364.5 472.5 Q376 472 387 472 Q393 472 398.5 472.5 Q404 473 410 472 Q452 470 489 459 L495 456 Q497 455 499 454 Q501 453 501 450 Q503 444 503 440 Q504 433 503.5 426 Q503 419 503 412 Q503 409 501.5 406.5 Q500 404 499 402 Q499 395 496 394 Q494 394 492.5 395 Q491 396 489 396 Q487 397 484.5 396 Q482 395 479 396 Q465 400 451 404 Q437 408 423 409 Q411 411 399 410.5 Q387 410 375 409 Q365 408 355.5 405.5 Q346 403 336 399 Q307 388 293 357 Q289 348 286.5 339 Q284 330 283 320 Q283 315 284 310.5 Q285 306 286 301 Q286 279 296 260 Q301 249 309 239.5 Q317 230 328 224 Q337 219 347 217 Q357 215 368 213 Q373 212 378.5 212 Q384 212 389 211 Q391 211 394 212.5 Q397 214 400 214 Q421 215 442 216.5 Q463 218 483 223 Q485 223 487 223.5 Q489 224 491 224 L495 224 Q497 223 498 223.5 Q499 224 500 222 Q501 220 500.5 219.5 Q500 219 500 218 Q500 216 501 214.5 Q502 213 502 211 Q502 203 503 195.5 Q504 188 504 180 Q504 178 503.5 176.5 Q503 175 503 173 Q502 169 499 168 Q496 167 494 165 Q492 164 490.5 163 Q489 162 487 161 Q475 158 463 156 Q451 154 438 152 Q427 151 416.5 150.5 Q406 150 395 150 Z " />
<glyph glyph-name="guilsinglleft" unicode="&#x2039;" horiz-adv-x="238" d="M181 445 Q181 434 181.5 422.5 Q182 411 182 400 Q182 391 176 385 Q170 377 163 369.5 Q156 362 150 354 Q148 351 146 347.5 Q144 344 142 341 Q136 334 143 324 Q145 322 147.5 319.5 Q150 317 152 315 Q158 307 162 297.5 Q166 288 172 280 Q173 278 174 277.5 Q175 277 176 275 Q178 273 180 270 Q182 267 182 264 Q182 263 181 262 Q180 261 180 260 L180 179 Q180 177 180.5 175.5 Q181 174 181 172 Q181 170 180 170 Q179 170 178 168 Q177 165 175 167 Q174 167 172.5 166.5 Q171 166 170 167 Q168 169 165.5 171 Q163 173 161 175 Q135 204 108.5 233.5 Q82 263 56 292 Q54 294 54 296.5 Q54 299 52 301 Q46 305 46 313 Q46 323 47 332.5 Q48 342 48 352 Q48 360 52 365 Q62 376 71 385.5 Q80 395 89 406 Q109 427 127.5 448 Q146 469 166 490 Q169 495 170 496 Q171 498 172 498.5 Q173 499 174 500 Q180 502 182 498 Q183 497 182 496 Q181 495 181 493 Q181 491 181.5 489 Q182 487 182 485 Q182 474 180.5 464.5 Q179 455 179 445 L181 445 Z " />
<glyph glyph-name="guilsinglright" unicode="&#x203a;" horiz-adv-x="239" d="M62 223 Q62 231 64 238.5 Q66 246 66 254 Q66 258 64.5 262 Q63 266 64 270 Q64 277 67 282 Q69 284 70.5 286.5 Q72 289 74 291 Q80 299 86.5 307.5 Q93 316 99 324 Q100 326 101 327.5 Q102 329 103 331 Q106 335 102 341 Q101 343 101 344.5 Q101 346 99 348 Q92 357 86 366.5 Q80 376 72 386 Q65 394 65 407 L65 489 Q65 491 64.5 493.5 Q64 496 64 499 Q64 498 67 501 Q68 502 70 501 Q75 501 75 501 Q78 498 82 492 Q108 463 134.5 436 Q161 409 187 380 Q189 378 190.5 376 Q192 374 194 372 Q199 367 199 356 Q199 346 198.5 337 Q198 328 197 319 Q197 311 197 309 Q197 307 192 301 Q187 296 182.5 290 Q178 284 173 279 Q150 253 126 229 Q102 205 79 179 Q78 177 78 175 Q78 173 76 171 Q75 171 73 169 Q65 165 63 173 L63 181 L63 186 Q63 195 62.5 204 Q62 213 62 223 Z " />
<glyph glyph-name="guillemotright" unicode="&#xbb;" horiz-adv-x="579" d="M333 495 Q347 495 360.5 496.5 Q374 498 388 498 Q391 498 393.5 496.5 Q396 495 398 495 Q401 494 405 490 Q410 485 412 482 Q423 469 432.5 455.5 Q442 442 452 428 Q470 405 488 381.5 Q506 358 524 334 Q526 332 527.5 330 Q529 328 531 326 Q532 325 533 324.5 Q534 324 535 322 Q536 317 535 313 Q533 311 531 310 Q529 309 528 307 Q518 295 510 282 Q502 269 493 257 Q476 234 458 212.5 Q440 191 423 168 Q420 163 418 158.5 Q416 154 413 149 L410 146 Q403 139 395 139 L388 139 Q360 139 332.5 139.5 Q305 140 277 140 Q275 140 273 141 Q271 142 269 142 Q266 142 266 142 Q259 142 263 148 Q264 150 264 152.5 Q264 155 266 157 Q270 162 273 167.5 Q276 173 280 178 Q291 193 302 208 Q313 223 324 237 Q338 255 352 271.5 Q366 288 379 305 Q381 307 380.5 309 Q380 311 382 313 Q385 319 381 324 Q380 326 380 328.5 Q380 331 378 333 Q354 365 329 395 Q304 425 280 456 Q276 461 274 467 Q272 473 268 478 Q267 480 264.5 480 Q262 480 261 482 Q261 482 261 486 Q257 494 266 496 Q267 496 268 495 Q269 494 271 494 Q273 494 275 495 Q277 496 279 496 Q293 496 306 496.5 Q319 497 333 497 L333 495 Z M130 493 Q144 493 157.5 494.5 Q171 496 185 496 Q187 496 189.5 496.5 Q192 497 195 497 Q201 495 206 489 Q208 488 212 484 Q225 467 237.5 451.5 Q250 436 262 419 Q279 397 294.5 375 Q310 353 326 331 Q328 329 328.5 327 Q329 325 331 323 Q335 315 332 312 Q331 310 329.5 307.5 Q328 305 326 303 Q309 281 292 259.5 Q275 238 258 215 Q246 200 236 184 Q226 168 215 153 Q213 151 210 150.5 Q207 150 205 148 Q203 145 200.5 141.5 Q198 138 194 138 Q192 137 191 139.5 Q190 142 188 142 L74 142 Q72 142 70 141 Q68 140 66 141 Q65 141 64.5 142 Q64 143 63 143 Q59 144 60 147 Q62 151 64 153 Q66 156 67.5 159.5 Q69 163 71 166 Q88 188 104.5 209 Q121 230 138 252 Q148 265 157.5 278.5 Q167 292 177 306 Q179 308 179 309.5 Q179 311 181 313 Q184 319 180 323 Q178 326 176.5 328 Q175 330 173 332 Q159 351 145.5 369.5 Q132 388 118 406 Q105 423 92.5 439.5 Q80 456 67 473 Q65 476 61 484 Q55 493 66 493 Q68 493 70.5 495 Q73 497 75 497 Q89 497 102.5 495 Q116 493 130 493 Z " />
<glyph glyph-name="guillemotleft" unicode="&#xab;" horiz-adv-x="567" d="M245 501 Q258 501 271 503.5 Q284 506 297 506 Q300 506 302.5 505.5 Q305 505 307 505 Q309 505 309.5 503 Q310 501 311 501 Q316 500 314 495 Q314 494 313.5 493.5 Q313 493 313 492 Q311 490 311.5 488.5 Q312 487 310 486 Q296 466 281 448.5 Q266 431 252 412 Q238 393 224 375.5 Q210 358 196 340 Q195 338 196 335.5 Q197 333 196 331 Q191 324 194 320 Q195 318 195.5 316 Q196 314 198 312 Q218 285 238.5 258.5 Q259 232 279 206 Q287 195 294 185.5 Q301 176 309 165 Q311 163 313 159 Q314 158 315.5 158 Q317 158 318 157 Q320 150 313 148 Q312 147 308 147 Q306 146 303.5 147.5 Q301 149 299 149 L189 149 Q187 149 184.5 148 Q182 147 180 148 Q175 148 169 154 L163 163 Q150 180 137 197.5 Q124 215 111 232 Q95 252 80.5 272.5 Q66 293 51 313 Q49 315 47 316 Q45 317 44 319 Q39 327 43 333 Q45 335 46 335.5 Q47 336 48 338 Q64 358 79.5 378.5 Q95 399 110 419 Q118 429 124.5 439.5 Q131 450 139 460 Q145 468 151 477 Q157 486 163 495 Q164 495 166 494 Q168 493 168 494 Q171 498 174 501.5 Q177 505 182 505 Q184 505 186.5 504.5 Q189 504 191 504 Q205 504 218 502.5 Q231 501 245 501 Z M446 503 Q460 503 473.5 504 Q487 505 501 505 Q503 505 505.5 505.5 Q508 506 510 505 Q511 505 512 504 Q513 503 515 503 Q519 501 517 496 Q517 494 516.5 494 Q516 494 515 492 Q513 490 513 489 Q513 488 511 486 Q501 473 492 460 Q483 447 473 435 Q457 413 441.5 391.5 Q426 370 409 348 Q407 345 403 343 Q399 341 397 338 Q396 337 396 335.5 Q396 334 395 333 Q392 326 397 320 Q398 318 397 316 Q396 314 398 313 Q415 291 431.5 270 Q448 249 465 227 Q476 212 489 198 Q502 184 513 169 Q514 167 514.5 165.5 Q515 164 517 162 Q518 161 516.5 159.5 Q515 158 516 156 Q518 150 514 150 Q512 149 510 149 Q508 149 505.5 148 Q503 147 501 147 Q474 147 446.5 148 Q419 149 392 149 Q390 149 387 147.5 Q384 146 382 147 Q379 147 377 149.5 Q375 152 373 154 Q371 156 369.5 158.5 Q368 161 366 163 Q353 180 339 195.5 Q325 211 312 228 Q297 248 282 268 Q267 288 251 308 Q249 310 247.5 312.5 Q246 315 244 317 Q240 325 247 333 Q251 339 252 340 Q272 367 292 394.5 Q312 422 333 449 Q341 460 348.5 469.5 Q356 479 364 490 Q366 492 367 494 Q368 496 370 498 Q373 502 382 502 Q384 502 386.5 501.5 Q389 501 392 501 Q406 501 419 502 Q432 503 446 503 Z " />
<glyph glyph-name="cedilla" unicode="&#xb8;" horiz-adv-x="295" d="M46 -147 Q46 -141 45.5 -135 Q45 -129 45 -123 Q45 -121 47 -115 Q48 -109 54 -109 Q56 -108 58 -107 Q60 -106 62 -106 Q71 -105 79.5 -104 Q88 -103 96 -101 Q101 -99 107 -99 Q113 -99 118 -97 Q128 -93 136 -83 Q141 -78 144 -74 Q147 -70 148 -64 Q149 -59 147.5 -54.5 Q146 -50 144 -45 Q142 -40 140 -36 Q138 -32 135 -28 Q131 -19 124 -11 Q122 -9 121.5 -7 Q121 -5 119 -3 Q117 -1 117.5 2 Q118 5 121 6 Q123 6 125.5 4.5 Q128 3 130 3 L162 3 Q166 3 170 5 Q174 7 179 7 Q184 7 188 4 Q192 1 196 -2 Q228 -24 238 -60 Q238 -62 238.5 -63 Q239 -64 239 -66 Q240 -76 241.5 -85.5 Q243 -95 241 -104 Q237 -118 228.5 -128 Q220 -138 209 -147 Q200 -154 191 -159.5 Q182 -165 171 -169 Q161 -173 151.5 -176 Q142 -179 131 -181 Q114 -184 96.5 -186 Q79 -188 61 -188 Q59 -188 57.5 -187.5 Q56 -187 54 -187 Q43 -185 42 -177 Q42 -175 43.5 -173.5 Q45 -172 45 -170 Q45 -164 44 -158 Q43 -152 43 -147 L46 -147 Z " />
<glyph glyph-name="yen" unicode="&#xa5;" horiz-adv-x="645" d="M84 625 Q99 625 114.5 626 Q130 627 145 627 Q148 627 150.5 628 Q153 629 155 628 Q163 628 167 624 Q168 622 168 619.5 Q168 617 170 615 Q179 603 188.5 590.5 Q198 578 207 565 Q221 548 233.5 530 Q246 512 259 494 Q271 477 282 460.5 Q293 444 305 427 L312 420 Q313 419 314 419 Q315 419 316 418 Q318 414 323 416 Q325 420 327 422 L336 434 Q353 457 369.5 479 Q386 501 403 524 L466 614 Q468 616 469.5 617 Q471 618 473 620 Q477 626 483 626 L490 626 L616 626 Q619 626 621.5 625.5 Q624 625 626 625 Q634 623 631 618 Q631 614 630 613 Q629 611 627.5 610 Q626 609 625 607 Q617 597 610.5 587.5 Q604 578 596 568 Q570 533 542.5 498.5 Q515 464 489 429 Q477 414 465.5 398 Q454 382 443 367 Q431 351 420.5 335 Q410 319 399 304 Q397 302 396 300.5 Q395 299 393 297 Q393 296 391.5 295.5 Q390 295 390 293 Q389 291 391 289.5 Q393 288 395 288 Q397 286 400 286 Q402 286 405 287 Q408 288 410 288 Q433 288 455 286.5 Q477 285 500 285 Q503 285 506 286.5 Q509 288 511 288 Q514 288 515 284.5 Q516 281 517 278 Q518 275 518 270 L518 253 Q518 241 518.5 229 Q519 217 519 205 Q519 202 520 199.5 Q521 197 520 195 Q520 188 510 188 Q504 186 501 186 Q490 186 478.5 187 Q467 188 456 188 Q443 188 431 187.5 Q419 187 406 187 Q404 187 396 185 Q391 185 389 179 Q389 177 388.5 176 Q388 175 388 174 Q388 169 390 163 Q392 157 392 152 Q392 151 390.5 150 Q389 149 389 148 Q390 145 392 141.5 Q394 138 397 138 Q399 138 402 139 Q405 140 408 140 Q430 140 451.5 139.5 Q473 139 495 139 L505 139 Q506 139 507 138.5 Q508 138 509 138 Q518 137 519 130 L519 124 Q519 107 520 90 Q521 73 521 56 L521 50 Q520 40 509 38 Q507 38 504 39 Q501 40 498 40 L410 40 Q408 40 405.5 39 Q403 38 401 38 Q399 37 398 38.5 Q397 40 396 39 Q389 37 389 33 Q388 31 388.5 29 Q389 27 389 25 Q389 21 389.5 17.5 Q390 14 390 11 Q390 0 377 0 L370 0 Q344 0 319 -1 Q294 -2 268 -2 Q266 -2 264 -1.5 Q262 -1 260 -1 Q259 -1 258 -1.5 Q257 -2 255 -2 Q252 -1 251.5 1.5 Q251 4 250 7 Q250 9 249 10 Q248 11 248 12 Q247 15 248 18 Q249 21 249 24 Q249 26 248.5 27.5 Q248 29 248 31 Q248 37 239 37 Q236 38 233.5 39 Q231 40 228 40 Q206 40 184 39.5 Q162 39 140 39 Q138 39 135.5 39.5 Q133 40 130 40 Q129 40 128 38.5 Q127 37 125 38 Q123 38 121.5 41 Q120 44 119 46 Q118 48 119 50 Q120 52 120 54 Q120 72 119 90 Q118 108 118 126 Q118 128 119 129 Q120 130 121 132 Q122 134 122.5 135.5 Q123 137 126 138 L133 138 Q139 138 145 140 Q151 142 156 142 Q175 142 193 140 Q211 138 229 138 Q232 138 234.5 140 Q237 142 240 143 Q248 143 249 148 Q249 149 248 150 Q247 151 247 153 L247 173 Q247 174 248 174.5 Q249 175 249 177 Q247 186 238 188 Q236 188 233.5 186.5 Q231 185 229 185 Q206 185 184.5 185.5 Q163 186 140 186 Q138 186 135.5 186.5 Q133 187 131 187 Q129 187 128 187.5 Q127 188 126 188 Q121 191 120 193 Q118 199 118 200 L118 272 Q118 273 120 279 Q121 283 126 283 Q128 283 129.5 283.5 Q131 284 133 284 Q138 284 144 284.5 Q150 285 155 285 Q173 285 191 284.5 Q209 284 227 284 Q229 284 232 285 Q235 286 238 286 Q239 286 240 285.5 Q241 285 243 286 Q245 286 246.5 289 Q248 292 247 294 Q247 296 245 296 Q243 296 242 298 Q240 300 239.5 301.5 Q239 303 237 305 Q211 340 185 376 Q159 412 133 447 Q113 474 93.5 501 Q74 528 54 555 Q44 569 33.5 581 Q23 593 13 607 Q11 609 11 611.5 Q11 614 9 616 Q8 617 8.5 618 Q9 619 8 620 Q8 622 8 625 Q8 628 10 629 L15 629 Q17 629 19.5 628.5 Q22 628 24 628 Q39 628 54 626.5 Q69 625 84 625 Z " />
<glyph glyph-name="Ydieresis" unicode="&#x178;" horiz-adv-x="637" d="M248 151 Q248 183 249 215 Q250 247 250 279 Q250 282 249 284.5 Q248 287 248 290 Q248 292 246.5 294 Q245 296 244 298 Q242 300 241 303.5 Q240 307 238 309 Q215 341 190.5 371 Q166 401 142 433 Q116 469 91 506 Q66 543 40 578 Q34 587 26 594.5 Q18 602 12 610 Q10 612 10 614 Q10 616 8 618 Q6 620 6 622 Q5 624 10 626 Q12 626 12 628.5 Q12 631 13 631 Q15 631 17.5 630 Q20 629 22 629 Q54 629 85 629.5 Q116 630 148 630 Q150 630 152 629 Q154 628 156 628 Q163 626 166 623 Q168 621 169.5 620.5 Q171 620 173 618 Q186 601 197.5 583 Q209 565 222 548 Q234 531 246.5 514 Q259 497 272 480 Q281 467 290 454 Q299 441 309 428 Q310 426 310.5 424.5 Q311 423 313 421 Q314 420 315 420 Q316 420 317 419 Q319 419 320 418 Q321 417 323 418 L329 424 Q333 429 336 435.5 Q339 442 344 447 Q355 464 366 480 Q377 496 389 512 Q407 537 426.5 560.5 Q446 584 464 609 Q466 612 466.5 615.5 Q467 619 469 622 Q474 629 485 627 Q487 627 489 628.5 Q491 630 493 630 L614 630 Q616 630 618.5 629 Q621 628 623 628 Q624 628 624.5 628.5 Q625 629 627 629 Q631 628 629 621 Q628 619 629 617.5 Q630 616 629 614 Q625 606 622 602 Q602 575 579.5 549.5 Q557 524 537 496 Q514 465 492.5 433 Q471 401 448 370 Q437 354 424.5 339 Q412 324 400 308 Q393 299 391 294.5 Q389 290 389 279 Q389 216 390 153 Q391 90 391 27 L391 14 Q390 12 390.5 11 Q391 10 391 8 Q390 2 381 0 Q379 0 377 -0.5 Q375 -1 373 -1 Q346 -1 319.5 -1.5 Q293 -2 266 -2 Q264 -2 261.5 -2.5 Q259 -3 257 -2 Q248 -2 246 8 L246 17 Q246 25 247.5 33.5 Q249 42 249 50 Q249 75 248.5 100 Q248 125 248 151 Z M390 734 Q383 734 376 733.5 Q369 733 362 733 Q360 733 357.5 732.5 Q355 732 353 733 Q348 734 346 742 Q345 744 345 748 Q345 764 344 779.5 Q343 795 343 811 Q343 813 344.5 814 Q346 815 347 817 Q347 824 351 825 Q353 826 356 826 Q358 827 360.5 826.5 Q363 826 365 826 Q378 826 390.5 826.5 Q403 827 415 827 L428 827 Q435 826 437 816 Q437 814 435.5 811.5 Q434 809 434 807 Q435 799 436.5 790.5 Q438 782 438 774 Q438 768 436.5 762.5 Q435 757 435 751 Q435 749 436.5 746.5 Q438 744 438 742 Q437 738 433.5 736.5 Q430 735 427 735 Q425 735 423 733.5 Q421 732 419 732 Q412 732 405 733 Q398 734 390 734 Z M279 779 L279 751 Q279 748 277 742 Q277 739 275.5 736 Q274 733 271 732 Q269 732 267.5 733.5 Q266 735 264 735 Q249 735 233.5 733.5 Q218 732 203 732 Q201 732 200 733 Q199 734 197 734 Q188 736 188 742 Q187 744 187 749 Q187 764 187.5 779 Q188 794 188 809 Q188 811 188.5 812.5 Q189 814 189 816 Q190 823 196 823 Q199 824 202 825 Q205 826 208 826 Q217 826 226 825.5 Q235 825 244 825 Q249 825 252.5 825.5 Q256 826 261 825 Q268 825 271 824 Q275 823 277 816 Q277 814 277.5 811.5 Q278 809 278 807 Q278 800 279.5 793 Q281 786 281 779 L279 779 Z " />
</font>
</svg>
