<?xml version="1.0" encoding="UTF-8"?>
<svg xmlns="http://www.w3.org/2000/svg" xmlns:xlink="http://www.w3.org/1999/xlink" version="1.2" >
<font id="Gold Port Script">
<font-face  font-family="Gold Port Script" units-per-em="1000" ascent="750" descent="-250" font-style="normal" font-weight="400" font-stretch="normal" cap-height="900" x-height="500" underline-position="-75" underline-thickness="50" />
<missing-glyph  horiz-adv-x="200" d="" />
<glyph glyph-name="NULL" d="" />
<glyph glyph-name="CR" unicode="&#xd;" horiz-adv-x="200" d="" />
<glyph glyph-name="space" unicode="&#x20;" horiz-adv-x="200" d="" />
<glyph glyph-name="exclam" unicode="&#x21;" horiz-adv-x="383" d="M343 608 C348 624 340 643 326 652 C311 661 289 657 277 645 C270 637 267 628 264 618 C261 605 257 593 253 580 C246 556 238 531 230 506 C200 407 169 307 137 208 C121 159 105 110 89 61 C86 51 81 41 82 30 C82 22 86 13 91 7 C103 -7 123 -10 138 -2 C158 8 162 32 168 51 C176 76 184 100 192 125 C208 175 224 224 239 274 C271 373 301 472 332 571 C335 583 339 595 343 608 L343 608 Z M78 -76 C56 -71 38 -84 30 -105 C25 -118 21 -131 16 -144 C12 -154 11 -164 15 -175 C23 -195 49 -206 69 -195 C78 -191 84 -183 88 -174 C93 -161 97 -149 101 -136 C106 -123 109 -113 104 -99 C100 -89 90 -79 78 -76 L78 -76 Z " />
<glyph glyph-name="quotedbl" unicode="&#x22;" horiz-adv-x="397" d="M233 612 C224 644 179 651 162 621 C153 605 145 587 136 570 C132 563 128 555 123 548 C117 540 110 538 103 533 C78 516 84 475 112 465 C143 455 173 483 189 506 C199 522 208 540 217 557 C225 574 239 592 233 612 L233 612 Z M329 631 C314 639 297 638 284 627 C277 622 274 615 270 608 C266 599 262 591 258 583 C250 568 242 547 228 536 C223 532 216 530 211 525 C206 520 203 514 201 507 C198 493 203 478 214 468 C226 457 244 457 258 464 C287 478 304 503 319 531 C324 540 328 549 333 559 C337 568 343 576 346 586 C351 602 345 623 329 631 L329 631 Z " />
<glyph glyph-name="numbersign" unicode="&#x23;" horiz-adv-x="691" d="M162 35 C146 3 130 -29 114 -61 C107 -75 105 -91 114 -105 C121 -115 133 -121 146 -121 C178 -122 188 -88 200 -64 C208 -48 216 -32 224 -16 C227 -8 231 0 235 8 C239 15 242 25 247 32 C250 36 247 34 251 35 C253 35 256 35 258 35 C263 35 269 35 274 35 C284 35 294 35 304 35 C325 35 345 35 365 35 C355 13 344 -9 333 -31 C323 -50 309 -70 321 -92 C330 -107 348 -114 365 -110 C386 -105 393 -85 401 -68 C413 -47 423 -25 434 -3 C439 8 444 19 450 30 C451 33 451 34 455 35 C457 35 461 35 463 35 C470 35 476 35 483 35 C507 35 532 34 556 35 C573 36 589 49 592 65 C596 84 585 104 568 111 C557 115 545 113 533 113 C519 113 505 113 491 113 C496 124 502 135 507 146 C510 152 512 157 515 163 C516 165 517 169 519 171 C521 173 525 172 528 172 C554 172 579 173 604 173 C622 173 640 180 647 198 C652 214 645 233 632 243 C623 250 613 251 603 251 C588 251 574 251 559 250 C567 266 575 282 583 297 C591 312 600 327 607 342 C618 369 599 398 570 397 C540 396 530 365 519 342 C511 327 503 312 495 296 C491 289 488 282 484 275 C482 271 480 267 479 264 C477 261 474 252 472 250 C469 249 461 250 458 250 C454 250 449 250 444 250 C435 250 425 250 415 250 C395 250 375 250 355 250 C366 271 377 293 389 315 C394 324 401 334 401 346 C402 356 399 366 392 374 C381 387 361 390 346 384 C339 380 333 375 329 368 C323 357 318 346 312 336 C301 314 289 292 278 271 C276 265 273 260 270 255 C269 251 269 251 265 250 C262 249 258 250 254 250 C242 250 230 250 217 250 C205 250 192 250 180 250 C169 250 157 252 147 250 C130 246 117 231 116 214 C116 194 130 177 149 173 C161 171 174 172 187 172 C201 172 215 172 229 172 C223 160 217 148 211 136 C209 130 206 124 203 119 C201 115 201 113 198 113 C194 112 191 113 188 113 C162 113 136 113 110 113 C99 113 89 113 80 107 C72 103 66 95 63 86 C57 70 65 50 80 41 C91 34 103 35 115 35 C131 35 146 35 162 35 L162 35 Z M316 172 C355 172 394 172 433 172 C426 159 419 145 413 131 C411 128 409 124 407 120 C407 119 406 117 405 115 C403 113 404 113 401 113 C394 111 386 113 379 113 C348 113 317 113 287 113 C296 132 306 152 316 172 L316 172 Z " />
<glyph glyph-name="dollar" unicode="&#x24;" horiz-adv-x="484" d="M59 -47 C69 -61 88 -80 98 -86 C98 -86 93 -98 95 -108 C100 -132 128 -149 151 -136 C160 -131 169 -117 171 -111 C213 -111 257 -106 292 -79 C335 -46 358 5 364 59 C368 89 365 120 355 148 C345 176 323 201 306 225 C328 289 355 353 378 417 C384 411 384 401 384 394 C384 386 385 379 389 372 C397 359 412 351 427 353 C464 357 466 398 459 426 C451 455 431 480 407 494 C412 509 408 527 396 537 C376 554 350 548 337 528 C334 524 331 516 329 512 C313 511 291 507 273 499 C209 475 161 408 169 338 C174 294 196 253 219 216 C188 134 150 47 129 -10 C108 12 104 48 110 77 C112 89 118 102 116 114 C115 125 109 135 101 142 C83 156 55 149 44 131 C15 81 27 -3 59 -47 L59 -47 Z M246 362 C252 391 273 414 299 426 C285 388 270 349 256 311 C249 328 245 344 246 362 L246 362 Z M272 140 C293 108 291 68 280 34 C268 0 242 -29 204 -32 L272 140 Z " />
<glyph glyph-name="percent" unicode="&#x25;" horiz-adv-x="593" d="M111 347 C141 292 206 284 258 305 C305 326 338 372 350 422 C353 436 351 451 340 462 C328 474 310 476 295 469 C282 513 228 522 189 511 C118 491 82 410 111 347 L111 347 Z M178 398 C182 418 195 433 216 438 C214 417 230 397 251 395 C240 383 224 372 207 371 C187 371 178 381 178 398 L178 398 Z M574 521 C552 540 527 531 511 513 C453 446 393 383 336 318 C258 231 181 143 104 54 C85 32 66 10 47 -12 C32 -30 13 -48 24 -74 C33 -95 61 -103 81 -91 C102 -74 118 -49 135 -28 C211 60 289 147 366 235 C438 314 501 386 570 461 C586 479 592 503 574 521 L574 521 Z M463 33 C475 50 470 75 454 87 C433 101 400 97 379 91 C312 73 265 -8 288 -71 C315 -148 423 -151 474 -102 C507 -67 519 20 463 33 L463 33 Z M425 -36 C418 -65 355 -67 360 -32 C366 0 393 21 424 16 C418 9 416 -1 417 -10 C418 -19 425 -27 425 -36 L425 -36 Z " />
<glyph glyph-name="ampersand" unicode="&#x26;" horiz-adv-x="625" d="M573 -21 C537 3 504 35 476 68 C461 85 446 101 437 121 C428 143 416 163 401 176 C387 187 366 186 352 175 C334 162 337 137 345 121 C355 100 369 84 374 61 C379 38 371 16 358 -3 C332 -41 283 -52 240 -49 C196 -47 150 -29 126 10 C102 48 99 99 116 141 C133 183 165 215 205 236 C246 256 293 263 338 260 C362 259 385 254 408 247 C425 242 444 249 453 265 C461 279 460 298 449 310 C443 317 435 321 427 326 C418 331 409 338 401 346 C369 375 340 412 331 455 C327 478 332 500 348 516 C363 531 383 541 404 536 C425 532 444 518 451 496 C454 485 453 474 449 463 C446 452 438 444 434 434 C428 416 435 395 452 386 C468 378 487 381 499 394 C512 407 519 426 524 443 C530 461 531 480 529 498 C520 583 424 637 345 607 C308 593 277 561 262 524 C245 483 252 435 270 395 C278 375 290 356 303 338 C236 335 169 314 117 271 C66 229 33 166 28 101 C24 37 45 -30 95 -73 C145 -116 216 -134 281 -126 C350 -119 416 -77 442 -10 C458 -27 475 -43 493 -58 C508 -71 527 -89 545 -93 C564 -97 583 -87 589 -69 C596 -51 588 -32 573 -21 L573 -21 Z " />
<glyph glyph-name="quotesingle" unicode="&#x27;" horiz-adv-x="309" d="M263 624 C248 632 231 631 217 620 C211 615 208 608 204 601 C200 592 196 584 192 576 C184 561 176 540 163 529 C157 525 150 523 145 518 C140 513 137 507 135 500 C132 486 137 471 148 461 C160 450 178 450 192 457 C221 471 238 496 253 524 C258 533 262 543 267 552 C271 561 277 569 280 579 C285 596 279 616 263 624 L263 624 Z " />
<glyph glyph-name="parenleft" unicode="&#x28;" horiz-adv-x="418" d="M269 521 C289 546 311 570 335 591 C347 602 360 612 374 621 C386 629 396 640 396 655 C398 681 370 703 345 694 C332 690 319 678 308 670 C295 660 283 650 271 639 C176 550 111 427 75 302 C36 170 28 25 65 -108 C72 -134 78 -172 111 -175 C124 -177 139 -171 147 -159 C151 -154 153 -147 154 -140 C155 -131 152 -124 149 -116 C127 -50 118 20 120 90 C123 227 165 364 240 479 C249 493 259 507 269 521 L269 521 Z " />
<glyph glyph-name="parenright" unicode="&#x29;" horiz-adv-x="443" d="M378 652 C373 666 368 682 356 690 C344 698 330 700 317 694 C303 687 295 673 295 658 C294 650 298 644 301 637 C304 629 306 620 309 612 C329 543 327 468 317 398 C296 262 246 126 169 11 C150 -17 128 -44 104 -68 C92 -79 80 -91 66 -100 C54 -108 40 -114 32 -126 C18 -148 29 -178 55 -185 C69 -189 80 -183 92 -176 C106 -168 118 -159 130 -150 C180 -109 219 -56 253 -1 C289 57 318 120 342 184 C366 250 384 319 394 389 C404 460 405 532 392 602 C388 619 384 636 378 652 L378 652 Z " />
<glyph glyph-name="asterisk" unicode="&#x2a;" horiz-adv-x="522" d="M414 395 C424 407 428 423 422 438 C419 445 414 450 410 456 C404 463 398 470 392 478 C414 478 435 477 457 478 C473 478 488 489 493 503 C498 517 494 534 483 545 C469 558 450 555 432 555 C440 562 447 568 454 574 C461 579 467 583 470 591 C476 604 475 621 465 632 C455 645 436 650 420 644 C413 641 406 634 400 629 C392 623 383 616 375 609 C379 625 380 641 368 654 C358 664 345 668 332 665 C320 663 310 656 305 646 C301 639 300 631 298 624 C296 615 294 606 292 597 C283 609 274 624 262 633 C250 641 234 641 221 634 C208 627 201 614 201 598 C202 581 216 568 226 556 C216 556 205 556 194 556 C186 556 179 556 171 553 C158 548 147 535 146 521 C145 507 151 493 162 485 C177 475 196 478 213 478 C194 463 175 448 156 433 C148 426 143 421 140 410 C138 401 138 392 142 384 C150 365 173 356 192 364 C202 368 210 376 218 383 C228 390 238 398 247 406 C243 389 236 374 245 357 C252 343 266 335 282 337 C298 338 310 349 316 363 C324 384 328 406 333 427 C340 419 347 410 354 402 C359 395 363 390 371 387 C385 381 403 384 414 395 L414 395 Z " />
<glyph glyph-name="plus" unicode="&#x2b;" horiz-adv-x="537" d="M432 129 C398 129 364 129 330 129 C339 157 348 185 358 214 C362 228 367 242 372 256 C376 268 380 279 375 293 C368 314 342 324 322 314 C313 310 306 302 302 292 C297 279 292 264 288 250 C278 222 269 193 259 164 C257 158 255 151 253 144 C252 141 251 137 250 134 C250 134 248 129 248 129 C247 128 241 129 240 129 C225 129 211 129 196 129 C181 129 166 129 151 129 C136 129 121 130 106 129 C85 127 67 108 69 87 C70 76 76 65 84 59 C95 50 108 51 121 51 C155 51 189 51 224 51 C207 -3 191 -57 175 -110 C172 -121 170 -130 174 -140 C176 -149 182 -157 189 -161 C206 -172 229 -168 241 -153 C249 -143 251 -130 254 -119 C258 -106 262 -93 266 -80 C274 -53 282 -26 290 1 C294 14 298 28 302 42 C303 44 304 49 305 51 C307 52 314 51 316 51 C323 51 330 51 337 51 C365 51 393 51 420 51 C433 51 444 51 455 59 C464 65 470 75 471 87 C472 109 454 129 432 129 L432 129 Z " />
<glyph glyph-name="comma" unicode="&#x2c;" horiz-adv-x="192" d="M143 -5 C128 3 111 2 98 -9 C91 -15 88 -22 85 -29 C80 -37 76 -45 72 -54 C64 -69 57 -90 43 -100 C37 -105 30 -106 25 -112 C21 -117 17 -123 16 -129 C12 -144 17 -159 28 -168 C40 -179 58 -180 72 -173 C101 -159 118 -133 133 -105 C138 -96 143 -87 147 -78 C152 -69 157 -60 160 -51 C165 -34 159 -14 143 -5 L143 -5 Z " />
<glyph glyph-name="hyphen" unicode="&#x2d;" horiz-adv-x="551" d="M425 126 C361 126 298 126 234 126 C202 126 171 126 140 126 C127 126 114 128 102 122 C93 117 85 108 82 98 C76 77 91 53 112 49 C126 46 142 48 156 48 C172 48 188 48 203 48 C266 48 330 48 393 48 C407 48 424 46 438 51 C450 55 459 64 463 76 C470 100 450 126 425 126 L425 126 Z " />
<glyph glyph-name="period" unicode="&#x2e;" horiz-adv-x="178" d="M119 -50 C94 -37 70 -50 60 -73 C55 -85 52 -96 56 -109 C58 -120 67 -129 76 -133 C99 -143 124 -130 130 -108 C132 -104 134 -101 135 -97 C138 -91 139 -84 138 -78 C136 -67 129 -55 119 -50 L119 -50 Z " />
<glyph glyph-name="slash" unicode="&#x2f;" horiz-adv-x="628" d="M436 551 C403 502 371 453 338 403 C307 355 275 306 243 258 C211 208 179 158 147 109 C113 56 80 3 46 -50 C42 -57 37 -64 33 -71 C22 -89 29 -115 47 -125 C66 -135 89 -129 100 -111 C134 -57 168 -3 202 50 C234 100 266 150 299 200 C330 249 362 297 394 346 C426 395 458 444 491 493 C525 545 560 597 594 650 C599 656 603 663 608 670 C613 678 614 691 612 700 C609 709 602 719 594 723 C574 734 552 727 540 709 L436 551 Z " />
<glyph glyph-name="zero" unicode="0" horiz-adv-x="603" d="M571 354 C578 368 575 383 567 396 C560 408 551 420 542 431 C524 453 502 471 476 482 C416 508 350 498 295 466 C186 403 119 286 92 166 C78 102 73 35 83 -30 C93 -92 119 -154 175 -187 C231 -221 300 -216 357 -187 C411 -159 454 -113 487 -63 C524 -10 549 50 566 113 C582 175 590 243 581 307 C579 323 575 339 571 354 L571 354 Z M502 194 C490 105 457 16 398 -53 C369 -87 333 -119 288 -130 C267 -135 241 -134 221 -124 C201 -113 187 -96 177 -76 C156 -34 154 18 156 64 C157 70 157 76 158 82 C158 83 157 85 158 86 C159 88 158 87 160 88 C163 89 165 89 168 91 C176 95 185 102 188 112 C191 122 192 134 195 145 C197 156 200 167 203 178 C217 222 237 262 264 300 C288 336 320 368 360 388 C398 407 455 404 480 366 C506 327 508 276 505 231 C505 219 504 207 502 194 L502 194 Z " />
<glyph glyph-name="one" unicode="1" horiz-adv-x="362" d="M316 487 C307 492 297 493 287 491 C276 488 269 481 262 474 C244 457 223 442 202 430 C186 421 176 404 180 386 C185 366 205 353 225 356 C197 268 170 180 143 92 C129 47 115 3 102 -42 C95 -64 88 -86 81 -108 C78 -119 74 -131 71 -142 C68 -150 66 -158 68 -166 C76 -199 121 -207 140 -178 C145 -169 147 -158 150 -148 C154 -137 157 -126 161 -115 C168 -93 174 -71 181 -49 C208 40 235 129 263 217 C277 262 291 306 305 351 C312 373 319 395 326 417 C332 435 340 452 332 470 C328 477 323 483 316 487 L316 487 Z " />
<glyph glyph-name="two" unicode="2" horiz-adv-x="625" d="M429 484 C370 500 303 483 254 449 C230 433 208 413 189 390 C180 379 172 366 166 353 C160 339 156 327 161 313 C174 282 220 282 232 311 C243 337 263 358 284 375 C307 393 335 407 364 411 C378 413 394 412 408 408 C422 404 428 393 430 379 C434 350 425 316 413 290 C400 263 384 236 368 211 C352 184 334 159 316 134 C281 87 241 43 199 3 C156 -39 110 -77 60 -110 C50 -117 41 -125 38 -137 C35 -148 37 -160 44 -170 C50 -178 60 -185 71 -186 C84 -187 99 -181 112 -178 C172 -163 234 -158 297 -160 C328 -161 359 -165 390 -170 C405 -173 420 -177 435 -181 C447 -184 460 -189 472 -188 C494 -186 510 -166 507 -144 C503 -116 475 -110 452 -104 C392 -89 330 -81 268 -81 C253 -82 237 -82 221 -83 C291 -22 353 49 405 125 C432 164 457 203 477 245 C498 286 511 333 508 379 C504 427 477 470 429 484 L429 484 Z " />
<glyph glyph-name="three" unicode="3" horiz-adv-x="586" d="M491 132 C476 154 455 173 431 185 C472 216 506 262 514 314 C522 358 508 402 476 434 C440 469 386 479 338 470 C287 461 245 431 220 386 C208 366 197 337 213 316 C229 297 257 297 273 315 C282 324 281 336 287 346 C293 358 301 368 311 376 C332 392 360 398 386 395 C413 391 436 371 438 344 C441 317 426 289 409 270 C391 250 370 236 346 225 C333 220 320 216 307 212 C297 209 286 208 277 200 C263 185 261 162 274 147 C290 127 317 133 340 131 C365 128 393 121 412 104 C434 86 443 60 443 33 C443 -22 411 -71 365 -100 C320 -128 260 -136 211 -114 C187 -103 167 -85 159 -59 C151 -34 151 -4 164 20 C169 31 179 39 183 50 C187 60 186 72 181 82 C172 100 148 108 129 99 C119 94 112 84 106 75 C99 65 93 55 89 43 C79 20 75 -7 76 -32 C77 -80 98 -126 135 -157 C205 -218 315 -217 393 -174 C476 -128 533 -34 519 62 C515 86 506 112 491 132 L491 132 Z " />
<glyph glyph-name="four" unicode="4" horiz-adv-x="549" d="M503 112 C502 134 485 150 463 151 C482 213 501 276 519 339 C529 370 538 401 546 432 C553 458 536 486 507 484 C496 483 486 478 479 470 C470 459 469 444 465 432 C457 401 447 370 438 340 C429 308 419 276 410 245 C405 230 400 214 396 198 C393 191 391 184 389 176 C388 173 387 169 386 166 C385 163 384 154 381 152 C380 151 370 152 368 152 C363 152 358 152 354 152 C345 152 335 152 326 152 C308 152 289 152 271 152 C235 151 199 150 163 149 C215 219 267 288 323 355 C336 372 350 388 365 404 C377 418 393 432 392 452 C391 469 379 484 362 488 C354 490 345 489 337 486 C328 482 323 475 317 468 C260 404 207 337 155 269 C129 234 103 200 78 165 C71 157 65 148 58 139 C53 132 46 125 45 116 C42 99 50 83 64 75 C73 69 83 69 93 70 C106 70 118 70 131 71 C156 71 181 72 207 73 C257 74 307 75 357 75 C343 27 327 -20 312 -67 C304 -90 297 -114 288 -137 C284 -148 280 -157 282 -168 C283 -178 289 -187 297 -193 C313 -205 339 -202 351 -185 C358 -177 361 -164 365 -154 C369 -143 373 -131 377 -119 C392 -72 408 -24 423 23 C427 36 431 49 435 62 C436 64 437 70 438 72 C440 74 444 73 447 73 C454 73 460 72 466 73 C486 73 504 92 503 112 L503 112 Z " />
<glyph glyph-name="five" unicode="5" horiz-adv-x="677" d="M368 385 C429 385 491 382 553 383 C568 384 582 384 597 385 C610 386 622 388 631 398 C648 417 643 447 620 459 C608 466 594 463 580 462 C565 462 550 461 535 461 C504 461 473 461 442 462 C412 463 382 463 352 464 C340 464 329 463 320 455 C310 447 305 434 299 422 C271 369 242 316 214 264 C200 237 185 211 172 184 C161 163 143 138 157 115 C163 105 174 98 186 97 C198 95 208 100 220 106 C245 119 272 130 300 139 C328 147 356 153 385 153 C413 154 444 152 469 139 C481 132 491 125 498 113 C504 100 505 85 505 72 C504 43 495 14 481 -10 C453 -57 406 -91 357 -115 C306 -140 244 -154 189 -135 C162 -126 140 -103 138 -74 C137 -60 139 -46 144 -33 C149 -21 159 -12 160 0 C164 25 144 47 120 45 C94 43 81 18 72 -3 C52 -52 56 -110 87 -153 C156 -246 295 -230 387 -187 C437 -164 485 -130 520 -88 C557 -43 580 10 583 69 C585 120 566 168 523 197 C477 229 413 236 358 230 C330 226 302 221 275 212 C306 270 338 327 368 385 L368 385 Z " />
<glyph glyph-name="six" unicode="6" horiz-adv-x="599" d="M507 215 C456 273 368 271 301 250 C279 243 257 234 237 222 C275 277 326 322 384 356 C413 373 444 388 476 399 C490 405 508 408 520 417 C531 426 537 440 535 454 C532 467 523 478 511 484 C496 490 483 484 469 480 C438 469 407 456 378 441 C319 412 263 372 218 323 C172 273 138 215 111 152 C84 88 64 19 75 -51 C85 -114 123 -171 185 -191 C250 -212 321 -191 377 -157 C432 -123 478 -75 508 -18 C539 39 559 114 532 176 C526 190 517 204 507 215 L507 215 Z M465 94 C452 15 398 -55 330 -94 C297 -113 254 -128 215 -118 C174 -108 153 -68 150 -29 C147 18 159 63 176 106 C185 102 196 100 206 103 C216 107 223 115 232 122 C250 139 270 152 293 163 C335 184 397 199 440 171 C466 154 468 121 465 94 L465 94 Z " />
<glyph glyph-name="seven" unicode="7" horiz-adv-x="544" d="M435 204 C480 262 536 344 555 392 C561 407 560 424 552 439 C528 484 450 471 411 469 C372 466 332 463 292 462 C258 460 215 457 184 471 C154 485 122 459 129 427 C137 395 180 390 206 386 C294 376 383 394 471 392 C430 333 375 259 338 206 C326 205 300 205 293 205 C260 205 240 194 236 174 C230 149 251 127 276 127 C230 69 185 11 141 -48 C119 -78 97 -108 76 -139 C60 -163 59 -191 84 -205 C117 -223 137 -188 151 -167 C171 -137 193 -108 215 -79 C260 -19 306 39 352 97 C357 105 370 120 376 127 C401 133 429 119 450 135 C478 155 467 197 435 204 L435 204 Z " />
<glyph glyph-name="eight" unicode="8" horiz-adv-x="581" d="M527 446 C465 484 383 473 327 441 C270 410 220 343 218 279 C217 238 237 202 263 172 C196 145 125 102 86 39 C46 -25 60 -108 117 -156 C173 -204 255 -210 325 -196 C397 -182 458 -138 485 -69 C500 -29 501 16 483 55 C466 93 435 124 403 151 C448 177 494 207 529 245 C584 303 596 397 527 446 L527 446 Z M413 21 C432 -30 399 -84 355 -107 C309 -130 239 -138 194 -118 C143 -96 126 -38 158 6 C198 62 267 92 327 113 C362 85 394 58 413 21 L413 21 Z M497 341 C486 295 417 249 374 224 C366 219 348 210 340 205 C298 250 291 287 310 321 C340 374 412 405 468 389 C491 382 500 363 497 341 L497 341 Z " />
<glyph glyph-name="nine" unicode="9" horiz-adv-x="566" d="M542 356 C519 428 455 470 382 468 C310 467 241 430 189 381 C113 310 48 181 98 83 C157 -24 302 -2 389 48 C327 -39 241 -97 147 -131 C130 -137 109 -140 98 -155 C76 -184 105 -226 140 -216 C218 -193 289 -155 350 -106 C414 -55 464 11 500 84 C539 166 570 268 542 356 L542 356 Z M474 250 C470 220 460 191 449 163 C439 169 426 169 415 164 C403 159 394 147 384 138 C361 120 334 105 307 96 C264 81 210 75 177 105 C145 140 161 198 177 234 C217 314 292 386 376 390 C411 392 442 381 459 351 C477 321 478 284 474 250 L474 250 Z " />
<glyph glyph-name="colon" unicode="&#x3a;" horiz-adv-x="287" d="M222 276 C210 295 180 296 165 281 C149 266 145 241 158 224 C172 206 199 204 216 220 C230 233 237 260 222 276 L222 276 Z M144 49 C124 67 98 62 82 42 C75 33 67 20 67 7 C68 -5 73 -15 82 -23 C102 -39 131 -31 142 -9 C147 1 154 7 155 19 C155 30 151 42 144 49 L144 49 Z " />
<glyph glyph-name="semicolon" unicode="&#x3b;" horiz-adv-x="288" d="M251 272 C244 294 214 302 195 290 C177 279 168 257 176 237 C185 216 210 207 230 218 C248 227 261 252 251 272 L251 272 Z M175 60 C164 66 151 67 140 62 C127 56 120 44 113 32 C104 19 95 5 86 -7 C77 -20 67 -32 52 -39 C53 -38 54 -38 56 -37 C37 -46 26 -67 34 -87 C43 -109 67 -117 87 -108 C132 -88 157 -42 183 -2 C190 8 195 18 194 31 C193 42 185 54 175 60 L175 60 Z " />
<glyph glyph-name="less" unicode="&#x3c;" horiz-adv-x="464" d="M424 207 C438 231 423 260 397 266 C383 268 368 260 355 254 C341 248 326 242 311 236 C252 211 195 184 138 156 C109 142 80 127 53 111 C29 98 27 64 48 47 C73 27 100 8 126 -12 C139 -21 152 -31 165 -41 C176 -49 185 -57 199 -57 C231 -57 250 -18 229 7 C224 13 216 17 210 22 C203 27 195 33 188 39 C173 50 159 61 144 72 C192 96 240 120 290 142 C314 153 339 164 364 174 C376 179 389 184 401 189 C411 193 419 198 424 207 L424 207 Z " />
<glyph glyph-name="equal" unicode="&#x3d;" horiz-adv-x="544" d="M224 99 C271 99 318 99 365 99 C377 99 388 99 400 99 C408 99 416 101 424 106 C438 114 445 130 441 147 C437 162 425 174 409 177 C399 178 387 177 376 177 C365 177 353 177 341 177 C318 177 295 177 272 177 C260 177 249 177 237 177 C228 177 218 178 210 174 C192 167 182 148 187 130 C191 112 206 99 224 99 L224 99 Z M370 66 C323 66 276 66 229 66 C217 66 206 66 194 66 C186 66 178 64 170 60 C156 51 149 35 153 18 C157 4 169 -9 185 -11 C195 -13 207 -12 218 -12 C229 -12 241 -12 253 -12 C276 -12 299 -12 322 -12 C334 -12 346 -12 357 -12 C367 -12 376 -13 384 -9 C402 -2 412 17 407 35 C403 53 388 66 370 66 L370 66 Z " />
<glyph glyph-name="greater" unicode="&#x3e;" horiz-adv-x="493" d="M417 174 C393 189 369 204 345 220 C332 228 320 236 307 243 C296 250 286 259 274 264 C257 271 235 264 226 248 C216 230 221 208 237 196 C250 186 264 178 278 170 C292 161 306 152 320 143 C266 116 213 89 158 65 C130 53 103 41 75 30 C64 25 51 22 43 12 C35 3 32 -9 34 -19 C36 -31 44 -42 55 -47 C68 -54 79 -52 92 -47 C119 -36 146 -24 174 -13 C228 11 281 36 334 63 C349 71 364 78 379 86 C393 93 409 100 421 109 C444 126 439 159 417 174 L417 174 Z " />
<glyph glyph-name="question" unicode="&#x3f;" horiz-adv-x="641" d="M518 660 C408 744 246 694 167 602 C124 551 100 484 108 420 C110 401 124 384 145 383 C165 383 185 399 185 419 C191 501 202 549 276 594 C335 628 422 641 475 595 C530 543 510 458 480 400 C459 360 426 328 393 298 C324 238 245 188 187 116 C173 99 160 80 151 60 C141 36 142 17 159 4 C175 -9 200 -6 213 10 C227 28 233 50 247 67 C307 141 391 191 461 255 C494 285 526 320 547 360 C600 462 608 590 518 660 L518 660 Z M151 -73 C132 -69 116 -73 108 -90 C98 -110 86 -147 91 -165 C97 -185 121 -194 140 -187 C162 -179 182 -118 176 -97 C173 -86 162 -76 151 -73 L151 -73 Z " />
<glyph glyph-name="at" unicode="&#x40;" horiz-adv-x="721" d="M453 481 C384 494 313 482 251 450 C135 388 48 266 32 135 C16 6 74 -133 202 -169 C267 -188 336 -179 399 -154 C460 -130 519 -92 562 -41 C572 -30 581 -18 580 -2 C579 12 570 24 556 31 C544 36 528 34 518 26 C505 15 494 0 485 -9 C437 -55 371 -91 304 -100 C120 -125 77 57 127 194 C171 319 305 437 445 403 C524 385 555 322 551 247 C546 181 510 104 444 82 C429 77 408 71 393 77 C379 84 386 110 391 125 C396 139 406 157 403 174 C402 179 399 184 397 188 C404 195 415 207 418 211 C437 234 457 269 435 297 C416 319 380 325 352 323 C287 317 234 265 205 209 C189 179 178 144 182 110 C186 80 204 52 233 41 C262 31 290 40 314 57 C345 -27 456 -9 515 31 C579 75 617 150 627 225 C642 352 574 459 453 481 L453 481 Z M302 204 C292 185 304 167 309 161 C303 152 269 119 261 115 C254 141 269 169 283 188 C297 210 316 228 339 240 C322 224 310 217 302 204 L302 204 Z " />
<glyph glyph-name="A" unicode="A" horiz-adv-x="1037" d="M1037 67 C1037 67 1018 25 1006 5 C982 -35 909 -133 859 -114 C826 -101 841 4 844 26 C850 74 863 128 872 182 C891 182 909 197 912 218 C914 233 908 249 891 255 C895 270 903 303 906 312 C926 392 944 461 958 548 C963 582 969 623 953 655 C940 680 913 694 885 690 C851 685 824 662 800 641 C742 590 693 529 645 470 C591 402 531 333 485 263 C455 260 399 256 389 254 C352 249 314 243 280 224 C267 217 254 207 251 191 C249 175 256 160 270 151 C284 142 300 145 314 153 C344 173 387 177 420 179 C371 116 321 52 264 -4 C223 -45 130 -130 67 -102 C32 -85 41 -33 50 -3 C62 31 84 71 118 81 C125 84 133 84 140 81 C149 79 156 72 164 68 C176 60 193 62 204 70 C219 80 225 99 219 115 C202 160 123 167 88 153 C19 126 -21 53 -32 -14 C-46 -91 -12 -165 61 -182 C169 -205 286 -98 349 -28 C411 39 465 111 521 183 C585 189 762 181 794 182 C781 126 770 69 764 11 C759 -39 756 -101 786 -145 C817 -189 876 -194 924 -177 C974 -160 1013 -120 1044 -79 C1062 -54 1078 -28 1090 1 C1095 14 1101 26 1096 41 C1088 64 1059 67 1037 67 L1037 67 Z M812 260 C735 261 631 269 582 263 C619 311 656 359 694 406 C731 453 768 496 811 543 C832 566 857 591 885 607 C885 550 870 496 858 442 L812 260 Z " />
<glyph glyph-name="B" unicode="B" horiz-adv-x="801" d="M673 -74 C735 0 761 94 723 179 C703 222 669 255 628 280 C718 326 802 427 780 530 C756 634 652 681 562 688 C458 695 339 669 264 592 C236 565 216 531 208 497 C205 485 201 471 204 458 C211 434 241 422 262 436 C274 444 278 453 281 466 C284 480 288 492 295 504 C321 553 373 581 424 596 C478 612 540 617 595 605 C645 593 702 559 706 501 C708 446 661 393 623 367 C600 351 576 340 549 333 C525 326 494 330 476 317 C459 305 455 282 465 264 C478 243 510 243 529 238 C580 223 632 194 654 142 C676 88 655 30 621 -14 C553 -102 436 -145 327 -141 C272 -139 211 -126 168 -90 C127 -56 95 5 124 57 C137 80 159 95 184 103 C174 89 165 73 151 61 C139 51 131 41 132 24 C134 9 144 -5 159 -9 C194 -19 219 19 235 41 C252 65 267 86 279 107 C284 115 298 109 305 108 C322 105 340 100 355 111 C369 121 375 140 368 156 C366 164 359 172 352 176 C344 181 333 182 323 184 C350 236 374 289 396 344 C411 381 457 494 457 510 C457 535 434 554 410 549 C382 544 376 511 369 490 C329 382 289 285 237 191 C185 191 122 171 79 127 C4 45 37 -79 111 -143 C267 -282 551 -217 673 -74 L673 -74 Z " />
<glyph glyph-name="C" unicode="C" horiz-adv-x="708" d="M225 -185 C371 -222 511 -166 611 -74 C630 -56 648 -38 663 -17 C668 -11 674 -4 677 4 C687 34 656 66 626 53 C612 47 605 34 596 23 C562 -17 522 -50 477 -75 C417 -109 342 -131 273 -116 C201 -103 144 -57 123 11 C101 81 109 158 127 228 C162 361 242 489 359 564 C409 597 509 640 557 606 C586 587 572 537 560 512 C553 500 542 480 527 485 C518 491 521 495 521 503 C520 512 517 519 511 526 C489 553 451 536 443 508 C435 478 452 445 475 427 C534 379 602 426 630 477 C657 533 664 610 617 658 C569 706 489 699 429 682 C304 646 201 547 134 439 C58 316 14 166 39 26 C58 -77 130 -156 225 -185 L225 -185 Z " />
<glyph glyph-name="D" unicode="D" horiz-adv-x="798" d="M165 -179 C275 -205 440 -158 544 -88 C653 -17 736 90 778 213 C819 335 815 479 730 581 C646 682 500 709 377 680 C317 666 258 638 212 595 C166 554 130 494 144 430 C150 403 167 372 189 355 C209 339 239 346 249 369 C254 381 253 394 247 405 C244 410 239 414 235 419 C229 425 225 432 222 440 C211 471 231 503 252 526 C297 574 361 600 425 611 C491 621 564 609 620 574 C746 499 740 329 695 214 C672 154 636 98 592 52 C546 4 492 -33 433 -61 C353 -99 217 -139 138 -94 C109 -77 94 -47 95 -14 C97 21 117 46 146 56 C143 52 140 48 136 45 C125 36 116 30 113 16 C110 -1 118 -18 134 -26 C175 -47 210 11 229 39 C233 45 235 50 239 56 C257 54 277 45 288 32 C297 21 316 16 331 22 C347 28 356 44 356 61 C355 79 344 90 327 102 C311 113 293 122 275 127 C319 225 357 326 392 427 C401 452 409 477 418 502 C421 512 427 524 427 535 C427 543 424 552 419 559 C408 574 388 578 371 570 C351 560 347 535 340 515 C306 414 272 312 228 215 C217 191 208 168 196 141 C174 142 138 135 123 130 C25 98 -6 -16 36 -96 C60 -143 117 -168 165 -179 L165 -179 Z " />
<glyph glyph-name="E" unicode="E" horiz-adv-x="697" d="M72 -55 C121 -172 232 -215 349 -201 C461 -188 564 -125 642 -44 C659 -26 683 -5 673 22 C664 45 627 55 613 40 C581 6 536 -40 486 -71 C436 -101 379 -123 320 -126 C264 -129 199 -115 165 -66 C95 27 157 181 223 253 C285 319 365 357 449 371 C463 374 478 374 490 384 C499 391 503 404 503 416 C502 428 495 440 485 446 C472 453 461 459 452 470 C434 493 430 525 438 553 C446 579 474 606 500 614 C523 622 559 623 577 605 C587 595 584 574 579 563 C574 552 563 540 551 536 C545 535 542 537 537 539 C518 547 495 539 487 521 C478 503 484 480 502 470 C526 456 556 454 582 465 C631 485 665 544 660 597 C655 657 604 688 552 692 C498 696 442 681 404 642 C370 607 353 558 357 510 C359 484 368 458 382 436 C302 413 227 371 170 310 C84 216 26 64 72 -55 L72 -55 Z " />
<glyph glyph-name="F" unicode="F" horiz-adv-x="649" d="M443 196 C435 175 426 156 437 140 C448 124 471 118 488 129 C508 142 516 178 524 201 C557 204 593 231 591 266 C590 284 580 300 564 308 C529 328 496 302 477 275 C399 275 344 275 290 267 C325 365 364 454 405 544 C411 555 414 567 410 579 C486 576 563 571 640 571 C714 573 789 575 856 601 C882 611 921 627 917 661 C916 676 905 690 891 694 C874 700 863 692 849 684 C786 645 696 649 628 649 C551 650 473 655 396 658 C319 660 239 664 167 646 C108 632 45 591 35 527 C31 495 41 466 64 444 C88 421 124 412 157 415 C190 417 227 436 211 472 C204 487 190 495 173 495 C156 495 133 484 122 497 C98 525 133 554 169 565 C204 576 242 580 280 581 C299 581 318 581 337 581 C305 520 278 456 253 391 C243 371 209 272 199 245 C186 241 160 231 152 226 C140 217 133 200 137 186 C141 170 154 158 170 156 C141 61 106 -30 73 -124 C68 -137 62 -149 66 -163 C70 -175 79 -185 91 -189 C104 -193 118 -191 128 -183 C138 -174 142 -161 147 -148 C184 -46 223 62 261 182 C319 196 386 197 443 196 L443 196 Z " />
<glyph glyph-name="G" unicode="G" horiz-adv-x="693" d="M78 103 C130 42 214 23 291 38 C334 47 374 66 411 90 C389 52 363 13 343 -21 C322 -14 317 -11 299 -6 C250 12 192 18 146 -13 C105 -42 88 -93 103 -140 C119 -190 167 -218 218 -215 C270 -213 314 -184 348 -146 C355 -138 371 -119 377 -112 C418 -120 459 -126 500 -125 C556 -122 609 -104 653 -69 C680 -48 727 -7 739 17 C755 50 723 64 693 67 C671 46 610 -19 552 -37 C510 -51 463 -49 422 -41 C462 24 502 88 538 155 C573 221 604 288 632 357 C639 374 646 391 653 409 C658 423 662 437 653 451 C646 464 629 473 614 470 C595 467 588 454 581 440 C556 385 536 332 509 284 C500 268 488 255 476 242 C427 191 368 144 302 123 C228 96 155 114 118 183 C85 250 91 337 111 404 C133 470 176 535 233 575 C293 617 377 638 436 588 C491 542 475 446 422 404 C408 394 392 389 375 390 C383 408 401 421 388 442 C377 464 351 469 331 457 C290 434 286 367 315 336 C348 302 404 308 444 327 C487 348 517 389 533 433 C572 533 530 638 438 677 C340 718 235 683 162 618 C89 554 38 463 22 367 C8 275 16 175 78 103 L78 103 Z M266 -117 C248 -130 229 -139 206 -137 C158 -135 166 -66 230 -69 C253 -70 275 -80 296 -87 C287 -98 277 -108 266 -117 L266 -117 Z " />
<glyph glyph-name="H" unicode="H" horiz-adv-x="894" d="M900 -32 C911 -21 922 -10 932 2 C940 11 945 23 943 35 C939 60 919 67 894 67 C894 67 845 22 828 5 C798 -25 733 -95 700 -95 C684 -95 700 -7 700 -3 C704 32 731 142 754 195 C772 195 801 200 812 214 C820 226 821 241 815 254 C810 266 795 276 782 276 C811 356 843 435 878 513 C895 552 913 591 932 629 C940 646 948 663 938 681 C929 694 914 701 899 699 C882 697 874 687 867 673 C814 569 776 474 738 380 C727 353 708 302 697 270 C617 274 469 292 399 285 C425 363 449 440 463 518 C473 589 458 669 380 685 C306 701 237 648 219 577 C211 545 211 509 231 481 C249 456 291 427 315 461 C323 472 324 487 320 499 C315 514 299 516 294 528 C279 561 316 606 347 610 C397 610 390 557 385 523 C367 436 343 357 316 282 C289 284 234 266 213 256 C150 227 88 171 69 102 C60 67 62 26 83 -5 C101 -33 144 -25 153 7 C155 13 155 20 153 27 C143 57 136 74 154 104 C172 137 202 162 235 179 C251 188 268 195 286 199 C269 155 251 113 230 71 C210 31 188 -10 159 -45 C145 -62 130 -78 111 -90 C89 -104 73 -98 53 -92 C33 -88 13 -100 7 -119 C1 -139 12 -158 30 -166 C70 -185 115 -180 152 -156 C189 -133 218 -98 242 -63 C299 19 338 114 372 207 C382 207 481 202 490 202 C554 200 612 198 671 192 C656 147 643 102 633 56 C623 12 614 -35 616 -80 C618 -119 633 -160 674 -171 C713 -183 756 -157 787 -135 C828 -105 865 -69 900 -32 L900 -32 Z " />
<glyph glyph-name="I" unicode="I" horiz-adv-x="405" d="M383 323 C415 406 453 490 465 579 C469 609 471 645 451 670 C425 704 377 698 345 676 C308 650 284 609 265 569 C233 502 213 434 201 367 C196 346 192 313 196 301 C206 270 252 271 266 298 C271 307 271 320 273 330 C288 415 327 561 390 612 C383 534 334 411 298 319 C260 221 221 123 173 28 C151 -17 128 -65 94 -101 C90 -105 82 -117 76 -117 C59 -117 48 -126 43 -133 C30 -152 36 -176 54 -189 C73 -202 100 -194 118 -183 C139 -170 155 -152 169 -133 C199 -94 222 -49 244 -5 C299 106 341 215 383 323 L383 323 Z " />
<glyph glyph-name="J" unicode="J" horiz-adv-x="655" d="M740 590 C745 601 749 612 754 623 C758 633 765 643 765 654 C767 675 750 694 729 695 C718 696 707 692 696 691 C684 689 671 688 659 687 C634 685 609 684 584 684 C534 685 484 689 433 689 C386 688 337 685 295 662 C260 641 234 603 231 562 C227 525 242 486 270 461 C284 447 301 436 322 445 C340 453 348 473 343 492 C340 502 334 507 327 514 C318 521 311 530 309 541 C304 563 317 585 335 595 C356 607 382 609 406 610 C430 611 455 611 480 610 C529 608 579 605 629 607 C641 608 653 608 664 609 C625 511 589 412 550 314 C531 266 511 217 490 169 C471 123 450 78 425 34 C401 -9 373 -49 335 -81 C298 -112 249 -129 201 -122 C177 -119 154 -110 137 -93 C120 -76 111 -52 110 -29 C107 21 126 71 160 106 C168 115 177 122 186 128 C195 135 207 138 214 146 C228 161 229 185 215 200 C200 215 180 214 162 205 C144 195 126 182 111 167 C47 106 13 6 42 -80 C55 -121 83 -157 121 -177 C159 -197 204 -204 246 -200 C340 -192 412 -126 464 -51 C521 32 558 129 596 222 C637 320 674 419 712 518 C721 542 731 566 740 590 L740 590 Z " />
<glyph glyph-name="K" unicode="K" horiz-adv-x="750" d="M730 43 C702 65 680 48 660 28 C636 4 611 -19 584 -41 C536 -81 470 -129 407 -127 C345 -124 323 -9 314 35 C306 67 282 197 264 221 C381 314 496 412 615 501 C658 533 699 568 746 588 C759 595 769 603 772 618 C778 650 745 674 716 660 C686 646 658 627 630 608 C488 508 359 393 221 288 C243 355 264 423 279 492 C290 547 312 648 264 682 C240 701 203 697 176 685 C120 661 80 595 71 539 C67 510 73 480 104 475 C126 472 145 491 148 509 C149 516 147 523 149 531 C153 550 162 567 173 583 C183 597 197 612 215 617 C218 566 206 514 193 469 C177 402 154 334 132 269 C130 264 120 261 116 258 C94 245 87 222 88 206 C89 196 93 183 96 178 C59 88 6 -19 -22 -63 C-35 -83 -49 -103 -66 -119 C-70 -122 -74 -125 -79 -125 C-96 -125 -106 -132 -114 -141 C-125 -155 -123 -176 -112 -189 C-99 -204 -77 -206 -58 -202 C-15 -190 15 -147 39 -112 C68 -69 142 92 175 164 C181 170 191 173 198 178 C221 119 228 56 243 -5 C264 -91 297 -191 390 -201 C480 -213 573 -150 637 -98 C664 -76 690 -52 714 -28 C734 -8 755 18 730 43 L730 43 Z " />
<glyph glyph-name="L" unicode="L" horiz-adv-x="421" d="M529 -197 C407 -223 295 -215 194 -165 C161 -149 131 -130 102 -108 C200 76 316 307 359 577 C367 628 356 686 308 694 C225 708 173 613 201 547 C209 526 231 510 252 521 C261 526 269 534 272 544 C280 568 252 596 283 612 C283 552 267 494 249 439 C215 324 142 144 92 40 C72 1 52 -36 30 -75 C-11 -71 -52 -98 -58 -138 C-64 -178 -35 -212 7 -206 C27 -203 43 -188 56 -173 C67 -180 81 -190 92 -197 C136 -225 183 -248 232 -264 C333 -297 440 -298 543 -274 C566 -270 582 -251 578 -229 C575 -206 551 -192 529 -197 L529 -197 Z " />
<glyph glyph-name="M" unicode="M" horiz-adv-x="1234" d="M1234 67 C1209 43 1183 10 1157 -14 C1120 -50 1075 -85 1025 -99 C1013 -102 998 -106 986 -101 C960 -85 974 -4 978 18 C987 73 1003 128 1018 182 C1034 237 1051 292 1066 347 C1080 401 1094 456 1100 512 C1105 559 1105 615 1071 652 C1039 686 990 690 949 672 C862 633 792 522 744 449 C737 437 729 426 722 414 C736 496 752 620 678 676 C641 704 590 700 548 684 C500 666 460 632 424 596 C382 552 346 503 312 453 C328 498 345 544 343 592 C341 635 323 679 283 699 C242 718 193 709 157 685 C123 662 100 628 86 589 C65 531 66 469 88 415 C100 386 137 376 157 402 C173 423 158 446 153 468 C147 492 148 518 153 542 C163 582 197 645 245 630 C287 617 252 518 245 497 C227 448 209 399 192 350 C156 252 119 154 83 56 C64 7 46 -43 28 -92 C20 -112 6 -135 15 -156 C24 -175 48 -184 67 -175 C88 -166 95 -137 102 -119 C134 -42 167 27 200 95 C245 187 293 277 347 364 C373 406 401 447 432 486 C475 541 532 610 600 618 C610 620 624 620 633 613 C659 593 656 535 655 508 C654 482 651 456 647 431 C630 330 601 230 568 134 C548 71 520 13 500 -48 C488 -73 478 -111 511 -124 C531 -132 553 -124 561 -105 C591 -31 618 40 648 109 C691 201 738 291 791 377 C818 420 846 462 877 502 C908 540 938 579 979 600 C989 605 1002 608 1012 601 C1035 581 1023 516 1019 492 C1011 441 997 391 983 342 C955 242 921 142 903 40 C891 -25 878 -116 935 -160 C952 -173 973 -180 995 -181 C1042 -183 1088 -161 1127 -136 C1180 -103 1255 -29 1278 14 C1298 52 1259 64 1234 67 L1234 67 Z " />
<glyph glyph-name="N" unicode="N" horiz-adv-x="893" d="M893 67 C893 67 884 55 875 43 C828 -20 769 -83 692 -99 C683 -101 661 -105 654 -95 C637 -66 649 0 654 29 C663 87 675 144 688 201 C700 257 713 314 722 371 C732 427 740 485 735 542 C730 622 691 684 611 694 C477 709 369 609 297 513 C288 501 280 490 272 478 C281 536 296 638 249 678 C225 698 193 698 164 688 C99 665 64 593 51 533 C43 499 40 462 48 428 C54 402 71 366 103 368 C131 369 148 400 135 425 C127 441 123 451 121 468 C121 519 139 579 177 608 C181 611 188 616 197 617 C208 598 203 559 202 540 C199 504 193 468 186 433 C171 360 152 288 131 217 C126 200 121 184 114 167 C77 76 46 -7 17 -92 C11 -109 3 -126 1 -142 C1 -155 7 -167 17 -175 C27 -183 40 -185 52 -181 C67 -177 73 -167 79 -154 C94 -121 108 -87 121 -53 C148 16 172 86 194 157 C218 228 254 293 287 353 C321 414 360 475 409 526 C456 575 516 618 587 618 C631 618 646 598 655 562 C662 526 659 488 655 452 C648 379 631 306 615 234 C593 126 561 -19 572 -91 C576 -120 591 -151 618 -166 C644 -180 677 -181 706 -176 C739 -170 770 -156 798 -138 C855 -104 901 -54 939 0 C964 39 931 63 893 67 L893 67 Z " />
<glyph glyph-name="O" unicode="O" horiz-adv-x="833" d="M792 516 C797 523 799 533 798 542 C798 565 760 602 745 615 C713 645 675 667 633 681 C547 708 454 690 374 652 C296 616 227 561 172 494 C115 424 73 343 51 255 C28 166 20 71 43 -17 C64 -98 114 -168 192 -201 C274 -235 368 -227 449 -194 C609 -128 724 25 778 179 C808 266 822 361 809 452 C805 474 800 496 792 516 L792 516 Z M732 320 C716 221 682 130 625 51 C571 -24 497 -99 409 -130 C316 -164 202 -151 146 -64 C92 24 102 140 124 228 C148 323 195 409 264 480 C273 488 281 496 290 504 C234 418 217 310 251 213 C269 164 298 121 333 84 C350 68 368 49 393 60 C415 69 424 96 411 116 C405 127 393 134 385 143 C358 173 336 206 323 243 C306 296 308 352 326 405 C361 502 458 585 564 586 C617 587 672 567 702 521 C742 458 736 387 732 320 L732 320 Z " />
<glyph glyph-name="P" unicode="P" horiz-adv-x="798" d="M600 687 C508 705 407 690 323 661 C241 632 162 583 118 506 C96 468 85 425 91 381 C94 363 99 340 118 332 C135 323 158 328 168 345 C181 366 167 383 167 405 C167 475 230 528 284 558 C293 564 303 568 313 573 C294 514 277 455 258 396 C239 336 220 276 200 216 C189 183 177 149 165 116 C162 131 163 153 173 166 C181 176 187 186 186 200 C183 228 149 243 126 228 C113 220 104 204 98 190 C66 117 91 58 129 20 C120 -1 110 -24 103 -40 C89 -72 73 -106 52 -134 C38 -148 25 -149 17 -159 C8 -169 6 -182 10 -195 C19 -224 52 -228 76 -214 C105 -199 125 -166 141 -138 C162 -102 182 -51 197 -17 C260 -30 324 -26 385 -18 C518 3 646 67 733 171 C774 220 807 277 821 340 C858 502 758 659 600 687 L600 687 Z M749 380 C736 293 683 220 617 165 C549 109 465 75 379 60 C327 51 273 47 227 59 C280 199 324 344 368 488 C374 508 380 528 387 548 C390 557 394 566 393 575 C393 584 390 592 385 598 C450 615 525 626 589 610 C654 596 709 556 735 494 C750 458 754 418 749 380 L749 380 Z " />
<glyph glyph-name="Q" unicode="Q" horiz-adv-x="807" d="M782 529 C788 537 790 548 789 558 C787 569 779 578 773 586 C758 605 743 622 725 637 C687 669 643 692 594 701 C496 720 394 688 311 637 C228 586 159 514 109 431 C56 344 27 242 21 141 C15 47 32 -56 97 -128 C105 -136 114 -144 122 -152 C106 -156 91 -161 75 -167 C63 -172 52 -178 47 -191 C37 -218 61 -251 90 -244 C144 -231 191 -197 241 -207 C280 -215 338 -212 390 -198 C397 -196 405 -194 412 -191 C449 -183 509 -189 542 -197 C558 -201 574 -206 579 -211 C580 -212 580 -215 580 -217 C588 -241 616 -252 638 -238 C665 -220 658 -183 640 -161 C618 -134 580 -124 548 -119 C620 -63 680 11 724 91 C770 174 797 269 803 364 C807 419 802 477 782 529 L782 529 Z M685 191 C668 146 644 104 616 65 C589 27 557 -8 521 -39 C494 -64 431 -112 400 -112 C375 -115 350 -115 325 -118 C299 -120 275 -127 250 -127 C238 -127 225 -120 215 -117 C130 -87 101 14 98 92 C96 143 103 193 115 242 C139 337 186 423 254 492 C263 501 271 509 280 517 C224 431 207 323 242 226 C259 177 288 134 324 97 C340 81 358 62 383 73 C405 81 414 109 401 129 C395 140 384 147 375 156 C350 188 326 217 314 256 C296 309 298 365 317 418 C351 515 449 598 555 599 C607 600 663 580 692 534 C723 487 728 430 726 375 C721 310 708 249 685 191 L685 191 Z " />
<glyph glyph-name="R" unicode="R" horiz-adv-x="833" d="M821 456 C799 603 666 690 527 690 C477 691 425 685 376 673 C286 652 195 609 136 535 C96 486 68 396 99 342 C110 324 133 319 151 329 C174 342 171 365 165 385 C159 409 166 434 176 455 C199 498 236 530 278 554 C288 559 299 565 309 569 C284 492 261 413 236 335 C223 293 206 246 196 211 C161 215 128 204 108 178 C85 148 78 106 88 71 C92 57 113 24 124 15 C118 1 114 -11 110 -20 C91 -65 71 -110 41 -145 C26 -163 -2 -156 5 -193 C7 -206 17 -219 30 -224 C45 -229 62 -224 75 -217 C106 -199 126 -163 142 -133 C147 -124 186 -43 194 -19 C208 -25 247 -28 252 -28 C259 -28 262 -40 264 -44 C297 -119 360 -188 441 -207 C513 -223 586 -193 644 -151 C658 -142 675 -133 680 -115 C684 -101 680 -85 668 -75 C655 -64 637 -62 622 -71 C574 -102 526 -140 466 -132 C427 -127 397 -101 373 -73 C361 -58 351 -42 342 -26 C442 -17 539 16 622 72 C752 159 843 303 821 456 L821 456 Z M222 54 C223 56 224 58 225 60 C226 58 227 55 227 53 C226 53 224 54 222 54 L222 54 Z M746 376 C722 227 587 117 450 75 C401 59 355 50 309 50 C302 91 283 132 262 163 C270 191 282 222 286 236 C322 337 349 441 382 541 C385 551 389 560 389 569 C389 578 386 587 381 594 C414 603 448 609 483 611 C517 614 552 614 585 607 C698 583 757 482 746 376 L746 376 Z " />
<glyph glyph-name="S" unicode="S" horiz-adv-x="676" d="M724 675 C685 696 636 698 593 691 C550 684 510 667 474 643 C465 637 444 624 426 608 C407 617 372 628 360 633 C317 650 271 661 225 651 C137 632 74 545 106 460 C119 424 162 391 200 401 C217 405 230 421 230 439 C229 455 219 470 204 475 C184 484 175 479 178 514 C182 556 238 583 280 576 C303 572 324 564 345 555 C356 551 366 547 377 542 C346 489 343 426 363 368 C384 310 423 262 463 216 C504 170 538 110 528 46 C518 -16 473 -65 420 -96 C364 -129 298 -141 233 -134 C170 -128 108 -96 93 -33 C79 29 114 92 164 127 C178 137 200 152 217 152 C224 152 232 149 240 150 C263 156 275 180 267 202 C257 229 224 232 200 228 C171 222 144 208 120 191 C73 157 34 108 19 51 C5 -5 13 -68 46 -117 C79 -165 134 -194 191 -206 C310 -230 441 -198 529 -111 C569 -71 598 -19 606 38 C618 139 565 217 505 286 C464 333 424 390 428 453 C430 476 437 499 451 515 C459 514 471 511 479 509 C540 494 607 486 668 503 C718 517 775 557 768 615 C765 641 746 663 724 675 L724 675 Z M687 600 C668 579 636 574 609 572 C579 570 549 574 519 580 C546 596 574 608 604 614 C630 620 699 616 687 600 L687 600 Z " />
<glyph glyph-name="T" unicode="T" horiz-adv-x="404" d="M820 698 C806 718 785 721 764 711 C742 701 719 694 695 688 C646 677 595 673 545 672 C441 670 338 679 235 678 C191 678 145 675 102 663 C64 653 27 631 10 594 C-8 556 3 511 40 490 C56 480 81 474 99 482 C116 489 126 508 121 526 C117 543 103 556 85 556 C83 556 80 557 81 559 C86 577 117 587 124 589 C173 602 225 601 275 600 C288 599 300 599 313 599 C282 554 260 503 239 453 C171 290 120 127 80 -36 C73 -64 67 -92 63 -120 C59 -143 56 -169 78 -184 C108 -205 138 -176 138 -147 C137 -134 141 -120 144 -107 C181 66 234 231 296 388 C324 458 348 521 388 571 C392 576 396 587 396 596 C462 594 528 592 594 597 C657 601 721 610 780 633 C794 639 810 644 819 657 C826 669 827 686 820 698 L820 698 Z " />
<glyph glyph-name="U" unicode="U" horiz-adv-x="788" d="M788 67 C788 67 711 -28 673 -62 C656 -77 588 -130 565 -107 C547 -89 549 -48 549 -26 C549 47 564 120 580 191 C597 265 618 337 642 409 C655 453 670 490 685 526 C702 566 718 606 734 646 C740 652 739 684 718 694 C705 702 687 701 675 692 C659 680 651 653 644 636 C622 583 608 546 591 502 C563 431 533 367 502 304 C460 218 414 134 359 56 C332 19 302 -17 267 -48 C229 -81 157 -125 112 -85 C64 -37 106 106 121 157 C148 251 183 343 216 435 C232 480 248 526 258 573 C265 610 270 656 231 678 C167 712 77 648 37 606 C7 574 -18 535 -28 492 C-33 470 -34 446 -29 424 C-25 405 -15 387 6 384 C26 381 46 393 50 412 C54 430 42 455 48 477 C58 518 118 584 185 609 C183 587 176 566 170 545 C151 477 125 414 103 351 C72 265 41 178 24 88 C9 9 -2 -95 70 -150 C141 -206 241 -167 301 -121 C369 -68 421 6 467 78 C473 87 478 97 484 106 C475 53 468 -1 472 -55 C474 -98 486 -151 526 -175 C569 -201 625 -187 665 -164 C735 -125 784 -62 831 -2 C859 38 821 61 788 67 L788 67 Z " />
<glyph glyph-name="V" unicode="V" horiz-adv-x="572" d="M899 682 C829 700 751 618 711 575 C656 515 606 451 557 386 C457 255 364 117 257 -8 C234 -35 166 -111 130 -121 C117 -95 126 0 138 58 C159 183 194 303 215 425 C228 500 244 609 204 655 C180 683 140 690 105 679 C2 648 -49 514 -37 418 C-35 402 -27 389 -11 384 C5 378 24 384 34 398 C45 414 39 434 40 453 C40 509 69 575 118 601 C124 604 135 609 142 606 C174 590 112 307 104 271 C85 189 65 108 53 24 C45 -41 25 -149 91 -188 C157 -229 241 -141 279 -100 C333 -42 382 22 430 86 C480 152 530 220 580 287 C629 353 678 419 732 481 C770 526 835 599 876 607 C892 610 901 605 913 615 C936 634 929 675 899 682 L899 682 Z " />
<glyph glyph-name="W" unicode="W" horiz-adv-x="1046" d="M1135 554 C1149 571 1164 590 1183 602 C1201 613 1220 612 1230 633 C1236 651 1229 674 1211 682 C1190 692 1165 682 1146 671 C1071 625 1016 518 980 452 C932 366 888 278 840 191 C795 109 749 23 686 -48 C658 -80 610 -125 575 -122 C534 -118 525 -37 524 -6 C523 92 543 190 568 285 C580 332 594 379 609 425 C616 445 629 470 633 491 C638 510 626 532 608 537 C588 543 569 534 560 516 C550 495 542 473 535 451 C517 406 497 362 476 318 C435 231 389 146 335 65 C309 27 281 -11 248 -45 C233 -60 170 -116 154 -100 C139 -85 151 -32 154 -16 C170 57 195 125 218 192 C252 285 288 377 316 471 C332 524 355 633 314 665 C258 709 177 659 138 625 C105 595 76 559 57 518 C41 485 27 414 57 396 C74 386 96 389 108 404 C123 421 114 449 121 468 C134 510 167 548 200 576 C214 588 237 602 260 606 C261 590 256 549 253 536 C242 489 226 443 210 397 C176 296 139 209 110 118 C95 71 81 25 74 -23 C69 -61 65 -107 87 -141 C108 -174 148 -184 185 -176 C271 -159 333 -71 379 -7 C406 30 431 69 454 109 C448 63 445 17 447 -29 C450 -71 457 -115 480 -150 C502 -184 539 -201 579 -200 C619 -198 656 -179 687 -154 C754 -101 803 -27 847 45 C895 124 937 206 980 288 C1039 400 1084 478 1135 554 L1135 554 Z " />
<glyph glyph-name="X" unicode="X" horiz-adv-x="1074" d="M1095 716 C1060 716 1027 698 998 680 C900 617 822 535 746 458 C715 427 685 396 655 364 C649 421 646 477 638 534 C631 584 620 638 587 677 C553 717 496 722 450 702 C407 682 375 642 356 599 C340 565 315 475 336 452 C352 434 382 440 394 457 C402 468 405 496 411 525 C420 571 454 638 508 636 C550 633 562 526 565 498 C570 458 585 344 585 291 C552 255 520 223 496 198 C419 118 341 37 256 -35 C235 -53 213 -69 191 -84 C149 -112 105 -130 95 -86 C93 -75 95 -60 101 -50 C107 -41 119 -39 125 -29 C130 -20 132 -8 128 2 C122 21 102 33 83 29 C62 24 46 9 35 -8 C11 -48 9 -103 36 -142 C64 -184 120 -198 167 -183 C217 -168 261 -132 301 -99 C386 -28 463 51 539 131 C559 151 578 171 597 191 C609 109 624 26 653 -51 C678 -118 725 -195 804 -204 C880 -212 945 -158 997 -113 C1041 -76 1071 -40 1110 4 C1136 33 1113 63 1074 67 C1074 67 963 -41 923 -74 C884 -105 830 -144 791 -123 C739 -95 711 17 699 66 C683 131 675 194 666 261 C708 309 750 350 794 396 C870 473 944 552 1030 608 C1046 619 1064 630 1084 636 C1101 640 1113 638 1125 652 C1135 664 1136 680 1129 694 C1123 707 1110 716 1095 716 L1095 716 Z " />
<glyph glyph-name="Y" unicode="Y" horiz-adv-x="796" d="M844 -3 C862 34 845 60 796 67 C796 67 780 43 773 32 C738 -22 697 -60 634 -71 C598 -78 559 -75 523 -68 C574 67 628 201 678 336 C717 445 742 531 774 614 C776 622 780 630 780 638 C783 664 757 685 732 679 C718 676 709 665 704 653 C682 601 665 551 645 503 C618 439 588 375 553 314 C520 255 483 197 436 148 C391 102 330 54 261 66 C178 77 192 176 202 233 C214 303 236 371 255 439 C274 504 302 583 279 640 C266 670 241 688 208 689 C175 689 143 678 116 660 C66 625 29 569 18 510 C12 480 13 444 31 418 C59 380 111 416 100 453 C94 470 91 481 95 499 C103 530 119 559 143 581 C154 592 194 613 207 611 C214 590 193 505 186 483 C168 415 146 347 131 277 C118 214 107 143 130 81 C152 25 203 -7 260 -12 C329 -19 392 9 445 51 C469 70 491 92 511 115 C488 59 469 5 447 -50 C418 -41 388 -35 362 -35 C323 -36 285 -52 262 -86 C242 -115 237 -151 249 -184 C262 -220 292 -246 329 -252 C367 -258 406 -246 436 -221 C459 -202 486 -162 492 -141 C533 -150 601 -154 638 -149 C682 -143 724 -128 759 -101 C796 -73 820 -42 844 -3 L844 -3 Z M398 -147 C386 -162 373 -175 353 -176 C335 -176 321 -167 321 -148 C321 -128 336 -117 354 -114 C374 -110 395 -116 415 -122 C409 -130 404 -139 398 -147 L398 -147 Z " />
<glyph glyph-name="Z" unicode="Z" horiz-adv-x="850" d="M982 675 C945 674 742 669 677 671 C626 672 575 674 524 677 C476 681 426 683 379 666 C337 652 302 623 288 580 C281 557 279 531 285 509 C290 489 313 477 332 482 C354 488 362 508 360 529 C355 588 419 600 459 602 C484 602 509 600 534 599 C637 593 740 590 843 594 C855 594 868 595 880 595 C813 532 742 473 670 414 C598 356 524 298 451 241 C377 184 305 126 234 66 C164 8 97 -53 34 -118 C21 -132 5 -145 4 -165 C4 -198 38 -206 62 -201 C96 -191 130 -189 163 -188 C257 -187 350 -206 444 -209 C533 -211 628 -199 699 -147 C730 -123 755 -87 745 -45 C741 -29 731 -7 714 0 C698 7 679 4 668 -10 C652 -29 661 -46 669 -62 C674 -74 635 -96 628 -99 C589 -119 542 -128 498 -130 C405 -136 314 -118 221 -112 C199 -110 176 -110 153 -110 C268 0 394 99 520 197 C646 295 772 393 891 500 C921 526 1012 601 1025 634 C1030 651 1027 676 982 675 L982 675 Z " />
<glyph glyph-name="bracketleft" unicode="&#x5b;" horiz-adv-x="603" d="M221 -34 C278 164 332 337 392 507 C419 573 453 597 526 593 C558 593 595 588 595 641 C595 661 574 668 555 669 C495 675 435 670 388 635 C358 613 336 581 324 546 C253 341 191 152 136 -50 C126 -87 128 -129 156 -158 C182 -187 223 -195 260 -198 C281 -200 302 -201 323 -200 C337 -200 351 -192 358 -178 C374 -143 338 -122 313 -122 C272 -122 242 -126 222 -111 C200 -95 215 -53 221 -34 L221 -34 Z " />
<glyph glyph-name="backslash" unicode="&#x5c;" horiz-adv-x="559" d="M345 -154 C352 -174 372 -188 393 -182 C410 -174 429 -154 420 -134 C365 14 173 577 150 650 C144 670 122 685 102 678 C82 671 68 650 75 629 L345 -154 Z " />
<glyph glyph-name="bracketright" unicode="&#x5d;" horiz-adv-x="512" d="M496 617 C465 673 396 673 343 677 C326 678 308 681 293 670 C268 651 275 611 305 601 C323 597 346 599 363 599 C381 597 405 597 422 586 C437 576 428 549 425 534 C367 352 317 172 254 -7 C242 -43 229 -82 194 -102 C155 -125 113 -110 77 -114 C61 -115 47 -129 43 -144 C39 -162 48 -179 63 -188 C92 -203 154 -195 182 -189 C217 -181 251 -163 275 -136 C300 -107 315 -71 327 -36 C380 123 431 284 480 445 C491 483 506 521 508 561 C509 580 505 600 496 617 L496 617 Z " />
<glyph glyph-name="asciicircum" unicode="&#x5e;" horiz-adv-x="308" d="M263 488 C260 512 259 536 258 560 C258 585 266 611 257 630 C250 648 231 657 212 653 C192 647 178 626 164 612 C129 578 95 544 61 510 C48 497 35 485 38 465 C40 447 53 435 70 432 C94 428 109 448 124 463 C144 482 163 501 182 521 C183 503 185 485 188 467 C190 452 199 440 213 435 C227 430 242 433 253 443 C266 456 265 472 263 488 L263 488 Z " />
<glyph glyph-name="underscore" unicode="&#x5f;" horiz-adv-x="610" d="M477 -54 C406 -54 145 -54 80 -54 C67 -54 54 -59 46 -70 C29 -91 41 -129 68 -130 C190 -135 396 -132 466 -132 C482 -132 497 -130 508 -116 C527 -91 508 -54 477 -54 L477 -54 Z " />
<glyph glyph-name="grave" unicode="&#x60;" horiz-adv-x="262" d="M196 519 C197 535 194 544 188 557 C177 578 163 606 142 616 C133 620 122 621 112 617 C88 608 80 580 93 559 C100 548 109 539 115 527 C121 517 124 505 134 498 C155 483 189 492 196 519 L196 519 Z " />
<glyph glyph-name="a" unicode="a" horiz-adv-x="551" d="M551 67 C551 67 504 -3 486 -25 C461 -54 396 -130 354 -109 C328 -98 327 -57 331 -34 C343 35 364 83 402 223 C409 248 415 275 390 288 C361 304 340 281 331 258 C314 283 288 300 258 307 C225 314 188 314 156 302 C93 279 55 219 31 160 C-12 56 -68 -144 84 -187 C157 -207 222 -170 262 -114 C274 -146 298 -173 331 -184 C363 -194 398 -189 429 -175 C495 -145 544 -82 583 -23 C616 26 622 67 551 67 L551 67 Z M277 149 C274 134 271 124 273 111 C276 104 274 99 272 92 C269 84 266 76 264 68 C254 39 243 10 229 -17 C203 -70 163 -128 104 -112 C90 -108 79 -101 71 -88 C49 -50 66 11 75 46 C91 107 110 168 149 207 C174 231 208 239 242 230 C257 226 269 216 274 201 C279 184 279 166 277 149 L277 149 Z " />
<glyph glyph-name="b" unicode="b" horiz-adv-x="538" d="M538 67 C538 67 497 16 481 -2 C434 -56 353 -113 303 -114 C362 -44 396 52 406 136 C416 220 379 295 293 311 C242 320 188 311 145 281 C163 333 227 538 243 585 C247 597 253 611 255 624 C258 644 243 664 224 667 C200 671 184 656 177 634 C101 406 32 175 -37 -55 C-46 -85 -55 -114 -63 -143 C-70 -163 -74 -187 -56 -202 C-40 -216 -15 -212 -2 -197 C6 -188 9 -175 12 -164 C37 -94 57 -23 84 45 C106 101 128 151 161 192 C200 235 258 258 306 222 C374 171 271 -34 230 -79 C228 -81 225 -84 222 -87 C209 -82 185 -61 163 -52 C112 -31 43 -36 38 -101 C27 -192 142 -210 204 -189 C210 -187 223 -181 229 -179 C247 -184 262 -191 281 -192 C359 -198 434 -149 487 -106 C527 -72 562 -33 584 6 C608 48 567 67 538 67 L538 67 Z " />
<glyph glyph-name="c" unicode="c" horiz-adv-x="407" d="M407 67 C350 9 296 -61 219 -107 C183 -128 123 -140 91 -111 C19 -45 103 122 151 173 C173 195 200 216 231 225 C223 206 231 184 250 174 C270 165 291 174 303 191 C325 223 327 283 285 300 C262 309 233 306 210 300 C91 265 10 139 -11 25 C-26 -66 -9 -176 99 -199 C150 -210 206 -196 252 -174 C340 -133 409 -45 446 5 C469 36 435 63 407 67 L407 67 Z " />
<glyph glyph-name="d" unicode="d" horiz-adv-x="561" d="M561 67 C561 67 516 -2 498 -24 C467 -62 427 -110 378 -116 C348 -119 335 -91 335 -65 C335 -39 342 -11 351 16 C367 71 384 126 401 181 C431 280 508 527 542 636 C552 668 520 699 489 685 C467 673 462 645 455 623 C411 495 376 378 332 253 C292 296 224 306 170 295 C102 280 62 221 35 162 C6 94 -19 22 -19 -48 C-17 -117 17 -167 77 -186 C151 -209 224 -182 269 -124 C281 -152 303 -176 333 -187 C433 -224 534 -110 577 -46 C586 -32 606 0 611 10 C628 45 590 63 561 67 L561 67 Z M283 153 C281 139 273 126 273 114 C273 104 278 97 278 89 C277 85 275 80 274 77 C265 47 255 16 243 -12 C232 -38 218 -65 199 -86 C174 -111 148 -120 118 -116 C84 -113 64 -93 60 -64 C56 -34 63 -3 70 26 C78 55 88 84 99 113 C118 157 139 204 180 217 C197 222 215 222 232 219 C247 217 265 213 275 200 C285 187 285 168 283 153 L283 153 Z " />
<glyph glyph-name="e" unicode="e" horiz-adv-x="498" d="M498 67 C498 67 478 45 471 37 C436 -3 394 -39 349 -66 C281 -107 161 -146 98 -90 C59 -56 61 5 76 51 C101 33 136 26 166 24 C247 18 334 51 378 116 C411 169 397 229 348 260 C237 328 100 249 41 156 C7 102 -15 42 -10 -23 C-7 -77 18 -131 65 -162 C170 -231 327 -180 424 -111 C467 -80 497 -49 527 -17 C554 11 563 55 498 67 L498 67 Z M121 135 C141 160 166 183 196 194 C230 207 286 213 313 189 C319 183 321 179 318 171 C304 127 240 106 201 102 C176 101 141 99 120 114 C113 119 119 129 121 135 L121 135 Z " />
<glyph glyph-name="f" unicode="f" horiz-adv-x="395" d="M395 67 C395 67 375 43 365 32 C308 -32 224 -88 156 -116 C110 -135 61 -149 11 -151 C42 -47 78 55 115 157 C152 259 190 360 229 460 C249 511 269 562 288 613 C297 637 305 665 288 676 C253 699 232 679 221 655 C184 560 152 474 118 388 C79 286 41 185 5 82 C-30 -18 -63 -119 -91 -222 C-120 -329 -147 -428 -151 -534 C-154 -616 -135 -733 -34 -738 C49 -742 118 -628 146 -558 C182 -468 191 -355 137 -270 C125 -250 110 -233 92 -218 C155 -204 215 -178 270 -145 C324 -113 375 -73 417 -26 C448 7 468 50 395 67 L395 67 Z M95 -379 C107 -464 70 -558 26 -617 C16 -632 -20 -675 -48 -654 C-73 -634 -73 -586 -73 -559 C-73 -448 -44 -341 -15 -240 C47 -274 84 -315 95 -379 L95 -379 Z " />
<glyph glyph-name="g" unicode="g" horiz-adv-x="552" d="M552 67 C513 0 457 -60 393 -103 C368 -122 340 -138 313 -154 C336 -82 357 -10 380 62 C391 98 402 134 414 170 C420 187 427 203 431 220 C434 234 427 250 414 258 C401 268 378 270 368 256 C359 244 350 224 345 209 C310 256 241 272 185 265 C60 250 -5 88 -20 -14 C-28 -72 -18 -135 33 -171 C61 -190 96 -195 129 -194 C164 -193 200 -182 229 -162 C225 -175 221 -201 212 -210 C197 -220 180 -227 166 -234 C75 -284 -14 -330 -92 -395 C-141 -437 -188 -495 -210 -555 C-229 -613 -238 -682 -199 -730 C-154 -785 -77 -762 -28 -730 C26 -695 70 -646 107 -594 C185 -488 231 -381 275 -267 C320 -249 421 -184 477 -138 C525 -98 571 -54 599 1 C618 38 594 60 552 67 L552 67 Z M62 -523 C33 -566 1 -607 -38 -641 C-55 -656 -113 -700 -135 -683 C-145 -677 -148 -655 -148 -645 C-144 -539 -65 -466 17 -410 C66 -376 118 -348 171 -320 C140 -391 105 -460 62 -523 L62 -523 Z M292 114 C288 97 282 82 287 66 C291 58 280 44 277 37 C265 12 252 -14 236 -38 C204 -90 159 -125 101 -115 C68 -107 57 -86 55 -55 C53 15 102 129 154 173 C187 201 260 195 284 160 C293 147 293 130 292 114 L292 114 Z " />
<glyph glyph-name="h" unicode="h" horiz-adv-x="529" d="M586 40 C581 60 551 67 529 67 C493 20 450 -35 403 -74 C383 -90 355 -105 335 -111 C333 -86 341 -47 350 -21 C367 41 393 96 408 154 C423 201 427 271 388 294 C316 336 240 278 197 231 C152 182 116 126 82 70 C115 171 149 273 183 374 C210 454 236 527 259 600 C266 620 277 640 266 660 C256 676 238 682 221 678 C205 674 194 650 188 631 C171 581 154 530 137 480 C102 379 68 277 35 175 C18 125 2 74 -14 23 C-29 -26 -46 -76 -55 -126 C-59 -147 -58 -172 -39 -185 C-22 -197 0 -194 16 -182 C37 -167 79 -95 100 -57 C125 -13 150 32 178 75 C204 117 233 158 268 193 C282 206 315 232 340 232 C340 188 299 76 284 31 C269 -17 251 -70 258 -121 C263 -164 298 -194 342 -189 C390 -183 433 -152 468 -121 C504 -89 535 -54 563 -16 C576 1 592 18 586 40 L586 40 Z " />
<glyph glyph-name="i" unicode="i" horiz-adv-x="258" d="M259 67 C259 67 229 34 216 20 C171 -31 99 -93 47 -105 C46 -56 59 -9 71 36 C92 113 115 180 146 242 C155 266 153 285 137 297 C120 309 94 307 83 290 C58 252 22 141 6 93 C-8 47 -20 1 -27 -46 C-32 -85 -38 -135 -8 -167 C23 -199 75 -182 110 -166 C189 -128 240 -70 290 -13 C325 34 307 53 259 67 L259 67 Z M128 356 C142 343 165 341 181 354 C190 363 200 372 208 382 C214 389 218 398 219 408 C219 428 205 444 185 447 C161 451 146 430 131 414 C115 399 110 372 128 356 L128 356 Z " />
<glyph glyph-name="j" unicode="j" horiz-adv-x="257" d="M107 339 C121 325 144 323 159 337 C169 345 178 355 186 364 C193 372 197 381 197 391 C198 410 183 426 164 430 C139 434 124 413 109 397 C94 381 89 355 107 339 L107 339 Z M257 67 C257 67 224 19 211 3 C179 -35 138 -75 96 -106 C71 -124 45 -142 19 -158 C47 -57 73 44 101 144 C107 169 117 192 121 216 C123 233 113 251 98 257 C81 264 58 259 50 243 C42 226 34 196 29 175 C1 75 -26 -26 -53 -127 C-58 -144 -74 -193 -80 -216 C-143 -250 -204 -284 -264 -320 C-346 -371 -430 -429 -486 -510 C-513 -550 -532 -597 -538 -645 C-543 -689 -539 -737 -503 -767 C-427 -828 -308 -744 -256 -694 C-144 -588 -80 -451 -29 -316 C-21 -292 -18 -281 -14 -270 C2 -261 63 -222 76 -214 C155 -163 230 -100 285 -22 C316 21 324 57 257 67 L257 67 Z M-123 -344 C-177 -473 -258 -608 -360 -678 C-384 -695 -427 -722 -452 -707 C-474 -694 -459 -633 -450 -609 C-426 -546 -374 -493 -321 -453 C-257 -404 -186 -364 -116 -325 C-118 -332 -121 -338 -123 -344 L-123 -344 Z " />
<glyph glyph-name="k" unicode="k" horiz-adv-x="479" d="M480 67 C439 22 396 -23 347 -58 C314 -81 279 -100 240 -109 C203 -117 156 -112 133 -77 C112 -46 103 1 121 34 C140 69 169 99 201 121 C234 145 272 161 312 165 C330 166 345 175 350 193 C355 210 348 227 333 236 C306 255 239 229 212 218 C172 199 137 173 105 143 C143 257 181 372 220 485 C236 531 250 573 265 614 C270 626 275 643 274 656 C273 681 252 695 227 689 C205 684 195 650 188 628 C148 514 109 400 71 286 C33 172 -5 57 -43 -57 C-53 -85 -63 -113 -73 -142 C-82 -168 -83 -193 -58 -206 C-39 -215 -16 -206 -7 -188 C8 -162 13 -133 26 -109 C32 -96 38 -84 44 -71 C57 -111 82 -147 119 -168 C157 -189 203 -194 246 -187 C334 -172 407 -116 470 -56 C489 -38 499 -27 516 -8 C552 33 518 67 480 67 L480 67 Z " />
<glyph glyph-name="l" unicode="l" horiz-adv-x="305" d="M305 67 C270 24 222 -30 176 -64 C154 -81 96 -110 78 -102 C50 -90 68 9 75 48 C92 134 120 219 147 303 C188 428 224 525 256 624 C262 642 270 660 258 677 C248 691 230 697 214 692 C197 686 191 673 186 658 C156 572 126 487 97 401 C69 318 41 234 19 148 C-3 64 -25 -36 -5 -106 C5 -141 34 -168 69 -176 C108 -184 148 -172 182 -153 C217 -134 247 -109 276 -81 C307 -52 333 -18 351 11 C376 51 335 67 305 67 L305 67 Z " />
<glyph glyph-name="m" unicode="m" horiz-adv-x="758" d="M758 67 C725 10 665 -60 615 -89 C601 -96 566 -111 551 -95 C533 -76 558 9 564 30 C582 91 611 186 592 231 C582 256 554 266 528 265 C476 263 414 185 382 135 C393 187 402 265 343 292 C283 319 220 283 178 241 C153 216 132 188 113 158 C126 194 140 230 153 266 C159 281 161 294 152 308 C143 321 128 327 112 325 C97 322 87 310 82 297 C61 243 41 190 22 135 C-4 65 -31 -6 -52 -78 C-61 -107 -77 -148 -51 -172 C-39 -182 -23 -184 -9 -179 C6 -173 16 -159 25 -145 C66 -84 97 -18 134 45 C167 101 210 175 262 210 C272 217 298 227 309 221 C317 217 311 181 309 170 C297 93 269 24 246 -44 C237 -72 223 -108 242 -135 C251 -146 264 -153 279 -152 C295 -151 309 -141 319 -128 C342 -101 358 -67 375 -36 C416 40 472 130 522 183 C508 114 471 24 466 -58 C460 -150 527 -200 604 -177 C652 -164 694 -133 729 -98 C759 -68 782 -35 802 -1 C826 35 798 62 758 67 L758 67 Z " />
<glyph glyph-name="n" unicode="n" horiz-adv-x="558" d="M558 67 C522 23 481 -20 438 -56 C416 -75 393 -91 368 -104 C360 -108 348 -113 339 -112 C327 -109 338 -67 340 -59 C356 1 381 54 397 109 C408 146 417 185 411 224 C406 252 387 278 359 289 C324 302 283 290 252 272 C178 228 129 148 86 76 C99 114 113 151 127 189 C136 214 159 283 155 297 C150 313 134 321 118 321 C90 321 72 264 63 239 C27 142 -2 66 -32 -30 C-43 -65 -64 -125 -55 -159 C-51 -173 -40 -184 -27 -190 C-12 -195 5 -191 18 -182 C49 -161 67 -118 83 -89 C125 -14 160 52 202 113 C226 147 281 219 327 216 C344 216 334 181 333 171 C319 93 279 26 262 -48 C254 -81 250 -120 269 -151 C287 -180 323 -193 356 -188 C392 -183 425 -164 454 -142 C484 -121 512 -96 538 -70 C567 -41 588 -14 603 7 C623 36 586 67 558 67 L558 67 Z " />
<glyph glyph-name="o" unicode="o" horiz-adv-x="501" d="M501 67 C501 67 495 59 474 32 C454 7 427 -23 399 -38 C383 -47 356 -61 337 -51 C361 2 378 59 380 118 C381 164 373 238 317 252 C311 253 305 253 299 255 C278 264 256 269 234 272 C148 285 81 226 39 161 C7 112 -8 51 -9 -8 C-11 -60 2 -114 41 -151 C81 -189 139 -197 192 -187 C233 -177 277 -152 299 -119 C305 -122 318 -128 326 -129 C378 -141 433 -114 472 -82 C493 -66 511 -46 527 -24 C564 28 556 49 501 67 L501 67 Z M146 -113 C104 -110 83 -90 72 -53 C57 16 85 99 125 152 C152 186 191 202 229 194 C220 173 215 151 212 128 C201 63 210 -8 243 -62 C213 -104 181 -113 146 -113 L146 -113 Z M300 88 C297 72 293 56 288 40 C281 79 286 123 299 160 C304 136 302 111 300 88 L300 88 Z " />
<glyph glyph-name="p" unicode="p" horiz-adv-x="537" d="M537 67 C537 67 504 23 491 7 C442 -54 381 -131 305 -134 C375 -72 481 146 396 251 C366 288 315 301 269 300 C217 298 172 274 136 238 C143 259 129 284 107 288 C80 293 65 272 58 251 C37 188 17 126 -4 63 C-44 -62 -83 -187 -121 -312 C-138 -363 -227 -655 -237 -689 C-243 -711 -228 -735 -206 -738 C-194 -739 -183 -736 -174 -729 C-163 -720 -161 -706 -157 -694 C-97 -506 -44 -316 22 -130 C43 -72 68 -15 96 40 C123 93 153 150 199 190 C232 220 289 238 325 211 C393 160 306 -14 254 -75 C239 -92 223 -105 212 -113 C202 -109 194 -104 184 -100 C137 -81 62 -69 37 -127 C27 -152 30 -181 49 -200 C67 -219 93 -224 118 -223 C140 -222 185 -213 215 -201 C247 -208 269 -213 297 -213 C411 -212 498 -114 560 -30 C591 14 613 49 537 67 L537 67 Z " />
<glyph glyph-name="q" unicode="q" horiz-adv-x="467" d="M453 242 C443 257 425 266 408 260 C388 254 382 236 375 220 C345 282 272 296 209 290 C145 284 103 261 59 196 C21 140 -1 71 -14 11 C-26 -51 -20 -125 36 -165 C93 -205 176 -200 234 -165 C195 -280 157 -397 127 -516 C112 -572 93 -660 101 -692 C107 -715 118 -739 144 -742 C186 -749 219 -701 239 -672 C248 -660 253 -649 250 -635 C243 -604 205 -595 184 -617 C195 -558 211 -501 227 -444 C263 -320 299 -211 338 -102 C359 -45 381 11 401 67 C413 99 424 131 436 163 C445 186 462 228 453 242 L453 242 Z M313 120 C311 109 306 99 309 89 C310 86 312 83 312 80 C312 77 308 71 307 69 C289 27 270 -14 244 -51 C207 -101 145 -141 90 -107 C34 -73 65 14 82 58 C109 126 148 209 228 214 C297 214 320 177 313 120 L313 120 Z " />
<glyph glyph-name="r" unicode="r" horiz-adv-x="435" d="M436 67 C436 67 411 40 399 25 C371 -9 341 -42 307 -71 C289 -87 270 -104 246 -111 C244 -78 261 -22 273 21 C292 87 298 152 257 203 C236 228 210 240 187 252 C203 284 214 314 202 347 C187 387 140 395 105 375 C52 345 60 278 88 237 C51 147 -6 63 -23 30 C-42 -8 1 -39 28 -13 C63 21 119 120 149 186 C169 172 200 160 207 135 C215 108 207 77 200 51 C186 -3 163 -57 166 -114 C169 -173 214 -200 263 -187 C314 -173 358 -133 393 -98 C428 -65 455 -24 474 0 C502 35 468 64 436 67 L436 67 Z " />
<glyph glyph-name="s" unicode="s" horiz-adv-x="535" d="M535 67 C515 38 488 13 470 -5 C432 -40 388 -71 340 -90 C346 -65 347 -39 341 -13 C331 41 307 88 299 139 C295 163 291 194 303 216 C308 228 337 243 346 230 C350 226 345 222 344 218 C337 202 342 181 356 171 C372 160 394 162 408 176 C423 191 428 218 425 239 C418 288 369 316 322 311 C273 306 228 281 187 253 C146 225 109 191 74 154 C45 124 20 95 -2 64 C-9 56 -13 48 -13 37 C-13 14 6 -4 29 -3 C41 -2 51 5 58 15 C94 67 140 115 188 155 C197 163 208 172 218 179 C217 134 228 89 241 46 C254 5 278 -39 261 -83 C258 -92 253 -103 244 -108 C217 -123 174 -109 162 -79 C153 -57 150 -39 140 -22 C130 -8 111 0 94 -6 C73 -13 65 -33 69 -54 C73 -75 79 -95 89 -113 C108 -145 137 -168 171 -180 C212 -194 258 -191 300 -183 C342 -175 382 -159 420 -138 C456 -117 490 -92 521 -64 C536 -50 551 -35 565 -19 C603 26 585 58 535 67 L535 67 Z " />
<glyph glyph-name="t" unicode="t" horiz-adv-x="299" d="M299 67 C299 67 273 29 263 16 C241 -15 214 -44 185 -68 C160 -88 112 -119 79 -96 C49 -75 59 -11 65 19 C80 98 106 184 131 263 C150 323 152 336 173 397 C196 397 214 397 232 397 C251 397 275 392 291 404 C305 414 310 431 305 447 C300 462 286 473 270 474 C246 476 222 475 199 475 C211 515 240 601 254 638 C257 648 258 657 255 667 C248 684 231 695 212 692 C188 688 181 667 175 647 C160 603 132 521 116 476 C74 475 42 478 1 476 C-18 476 -35 461 -37 442 C-40 421 -24 401 -3 399 C12 397 28 398 43 398 C59 398 75 398 91 398 C66 324 58 296 36 221 C14 148 -6 73 -12 -3 C-16 -39 -14 -78 1 -112 C14 -141 38 -163 68 -173 C138 -197 204 -156 255 -111 C284 -84 309 -54 332 -22 C354 9 372 55 299 67 L299 67 Z " />
<glyph glyph-name="u" unicode="u" horiz-adv-x="508" d="M508 67 C508 67 491 40 481 25 C458 -10 448 -25 418 -55 C401 -71 335 -129 322 -82 C316 -62 319 -38 323 -18 C327 4 334 25 341 46 C363 118 387 176 406 235 C411 251 411 265 401 279 C391 291 374 295 359 290 C343 285 336 271 331 256 C316 214 300 172 283 130 C267 92 249 53 228 17 C208 -20 185 -55 153 -83 C133 -102 94 -119 72 -100 C40 -72 67 24 77 57 C90 99 105 140 123 180 C132 200 144 219 149 238 C154 256 146 276 129 283 C112 291 92 287 80 272 C71 261 62 233 53 215 C18 134 -13 51 -19 -35 C-21 -73 -16 -114 8 -146 C31 -174 67 -187 102 -185 C164 -183 211 -141 246 -98 C253 -125 268 -151 294 -165 C320 -179 350 -181 378 -172 C438 -154 486 -102 521 -53 C532 -38 542 -24 551 -8 C581 38 559 61 508 67 L508 67 Z " />
<glyph glyph-name="v" unicode="v" horiz-adv-x="501" d="M501 67 C501 67 467 17 455 2 C425 -38 378 -93 344 -93 C300 -93 296 -9 293 10 C303 36 333 77 343 97 C364 133 382 171 389 212 C395 247 395 293 361 314 C325 336 291 307 271 278 C247 244 234 202 226 161 C218 117 215 79 215 39 C165 -44 110 -86 67 -109 C52 -90 76 49 81 73 C97 142 117 202 138 265 C144 282 132 301 116 309 C99 316 77 312 68 296 C49 262 19 147 10 108 C0 65 -7 26 -12 -19 C-17 -72 -19 -169 42 -183 C100 -196 151 -153 189 -116 C203 -101 216 -86 228 -71 C238 -104 255 -136 285 -156 C314 -175 350 -176 382 -163 C447 -138 494 -74 529 -19 C559 29 564 58 501 67 L501 67 Z " />
<glyph glyph-name="w" unicode="w" horiz-adv-x="750" d="M748 67 C748 67 732 43 714 21 C689 -10 659 -45 623 -53 C586 -60 577 31 577 53 C593 83 616 139 622 159 C633 197 656 261 608 283 C561 304 531 250 518 213 C502 168 498 119 498 73 C498 65 494 60 491 53 C466 8 438 -39 401 -75 C391 -84 365 -108 351 -99 C329 -86 331 -21 332 -1 C336 54 349 108 366 161 C373 182 388 208 372 229 C358 248 330 250 313 233 C305 225 302 215 299 205 C285 164 269 127 251 90 C229 43 204 -5 171 -46 C155 -66 137 -87 114 -98 C103 -102 91 -103 82 -95 C56 -69 66 -10 69 20 C77 79 92 131 109 181 C113 194 118 207 123 220 C127 231 133 242 131 254 C128 277 106 293 83 287 C57 281 50 249 42 228 C24 176 9 124 -1 70 C-12 19 -18 -39 -5 -90 C6 -136 40 -173 88 -179 C136 -184 179 -153 210 -120 C227 -102 242 -82 256 -61 C262 -109 282 -161 333 -175 C384 -189 432 -155 465 -121 C485 -100 502 -77 518 -53 C528 -77 542 -100 564 -115 C587 -131 616 -132 645 -127 C697 -117 753 -57 787 -10 C818 35 799 57 748 67 L748 67 Z " />
<glyph glyph-name="x" unicode="x" horiz-adv-x="556" d="M556 67 C556 67 539 46 528 32 C505 3 488 -13 460 -37 C419 -72 347 -119 317 -115 C277 -110 281 -10 282 10 C304 31 380 88 397 101 C429 124 462 147 495 169 C508 178 520 188 521 205 C523 232 496 250 472 245 C454 240 412 207 393 193 C357 168 322 141 288 114 C289 145 289 176 284 206 C280 230 272 255 252 270 C203 307 150 258 117 223 C72 173 35 123 3 73 C-13 49 -27 18 1 -1 C30 -19 50 4 65 25 C86 58 108 90 132 120 C154 148 178 178 206 200 C214 180 208 63 206 50 C146 -6 95 -49 39 -105 C25 -119 7 -136 4 -155 C1 -174 15 -188 33 -194 C52 -200 68 -187 83 -172 C122 -131 164 -93 206 -55 C210 -94 217 -135 245 -164 C271 -191 307 -197 343 -190 C421 -176 492 -118 545 -65 C561 -50 575 -33 589 -16 C618 23 614 58 556 67 L556 67 Z " />
<glyph glyph-name="y" unicode="y" horiz-adv-x="548" d="M548 67 C548 67 547 66 535 49 C489 -18 429 -64 364 -104 C337 -120 311 -135 284 -150 C323 -41 359 64 395 168 C401 186 407 203 413 220 C417 233 417 245 410 257 C394 282 357 280 343 255 C326 224 317 188 305 156 C279 92 249 27 209 -29 C179 -71 140 -116 87 -109 C37 -102 62 0 69 26 C85 88 104 133 122 177 C128 193 137 209 141 225 C150 259 116 280 84 268 C71 263 61 242 56 228 C21 137 -8 62 -20 -26 C-28 -94 -12 -166 58 -184 C110 -197 161 -178 201 -150 C198 -156 184 -194 182 -201 C131 -227 88 -247 38 -275 C-21 -307 -80 -343 -130 -388 C-179 -432 -220 -487 -236 -551 C-251 -609 -251 -692 -205 -732 C-152 -778 -77 -736 -32 -699 C20 -657 61 -602 98 -547 C136 -489 169 -428 197 -366 C212 -333 230 -287 243 -257 C334 -218 424 -166 499 -104 C538 -73 569 -39 596 0 C609 20 608 56 548 67 L548 67 Z M27 -513 C-1 -554 -32 -594 -69 -628 C-87 -645 -146 -691 -160 -667 C-184 -627 -150 -529 -122 -493 C-93 -454 -53 -423 -13 -396 C35 -364 86 -337 137 -311 C105 -381 70 -449 27 -513 L27 -513 Z " />
<glyph glyph-name="z" unicode="z" horiz-adv-x="611" d="M611 67 C611 67 567 15 548 -7 C516 -44 491 -72 456 -106 C435 -125 414 -144 391 -160 C392 -124 387 -87 369 -54 C353 -26 329 -3 301 12 C342 34 381 60 414 92 C444 119 480 160 474 204 C467 256 413 259 373 255 C294 247 216 227 149 247 C128 253 105 257 92 236 C68 201 -16 61 -12 37 C-9 17 3 0 22 -2 C41 -4 57 8 64 24 C89 69 116 122 143 168 C231 152 310 169 387 178 C374 160 357 144 340 130 C303 101 264 80 225 62 C203 52 181 45 159 37 C143 30 133 14 135 -4 C137 -21 151 -37 168 -39 C194 -39 214 -38 236 -44 C315 -66 319 -148 310 -213 C183 -284 52 -313 -65 -410 C-154 -483 -236 -645 -157 -742 C-130 -774 -88 -781 -49 -774 C41 -759 118 -694 173 -639 C280 -532 349 -400 383 -261 C455 -222 515 -159 569 -102 C603 -64 632 -27 653 2 C681 41 643 67 611 67 L611 67 Z M154 -545 C107 -599 56 -649 -9 -681 C-32 -692 -69 -706 -90 -697 C-125 -684 -105 -599 -96 -578 C-67 -513 -7 -456 54 -421 C129 -377 211 -352 286 -315 C255 -401 211 -478 154 -545 L154 -545 Z " />
<glyph glyph-name="braceleft" unicode="&#x7b;" horiz-adv-x="437" d="M260 -126 C228 -101 183 -154 160 -117 C140 -87 179 -20 190 5 C201 31 211 58 220 85 C228 111 237 139 238 167 C238 187 233 206 226 221 C269 267 291 330 310 387 C327 438 342 500 384 534 C396 541 405 548 419 543 C453 536 477 572 462 600 C438 643 369 620 341 598 C300 568 276 520 258 473 C238 421 225 366 198 317 C185 293 170 271 148 255 C128 239 116 219 132 196 C137 188 143 186 151 181 C175 167 135 76 128 58 C112 18 89 -21 80 -64 C72 -101 78 -144 104 -172 C144 -215 225 -223 263 -177 C275 -163 274 -138 260 -126 L260 -126 Z " />
<glyph glyph-name="bar" unicode="&#x7c;" horiz-adv-x="358" d="M311 693 C290 698 269 688 262 667 C230 559 199 452 166 344 C134 236 102 128 70 20 C52 -40 34 -101 17 -161 C11 -181 22 -205 43 -210 C63 -215 85 -204 91 -183 C123 -76 155 32 187 140 C219 248 251 355 283 463 C301 524 319 584 337 645 C343 664 331 688 311 693 L311 693 Z " />
<glyph glyph-name="braceright" unicode="&#x7d;" horiz-adv-x="364" d="M308 157 C321 167 335 180 332 199 C330 215 318 229 303 232 C285 234 316 320 321 335 C345 402 396 470 375 542 C358 609 278 637 221 610 C195 596 169 567 195 539 C206 528 222 524 237 529 C255 537 262 547 283 540 C321 526 293 467 282 442 C266 407 251 372 239 335 C223 285 216 225 232 193 C191 151 169 92 151 39 C139 3 96 -148 39 -131 C12 -125 -14 -146 -10 -174 C-5 -207 31 -214 59 -210 C124 -201 166 -138 190 -83 C219 -16 231 58 273 119 C282 134 294 146 308 157 L308 157 Z " />
<glyph glyph-name="asciitilde" unicode="&#x7e;" horiz-adv-x="359" d="M315 180 C304 190 291 194 277 190 C262 186 254 173 244 163 C239 158 233 153 226 150 C218 148 217 152 214 159 C206 173 199 186 189 198 C170 219 145 237 115 237 C86 238 59 223 39 202 C22 183 0 157 16 131 C23 119 38 111 52 112 C66 113 77 123 84 134 C90 142 104 163 116 158 C131 153 138 135 144 123 C151 110 160 98 171 89 C183 79 197 74 212 72 C244 68 272 83 294 103 C305 113 317 124 323 138 C329 152 326 170 315 180 L315 180 Z " />
<glyph glyph-name="cent" unicode="&#xa2;" horiz-adv-x="342" d="M305 344 C290 358 270 365 250 368 C256 391 262 416 262 439 C262 459 250 476 229 478 C213 478 197 470 190 455 C183 442 171 378 168 359 C108 337 46 264 26 184 C15 141 13 80 36 40 C50 13 78 -5 90 -11 C86 -32 81 -57 79 -66 C75 -90 73 -109 93 -124 C110 -135 134 -130 146 -114 C153 -105 153 -93 156 -82 C157 -75 165 -35 168 -20 C205 -11 300 29 302 74 C302 93 287 111 268 114 C245 117 231 98 215 86 C206 79 196 73 186 67 C194 77 226 265 235 291 C253 289 249 273 257 263 C273 242 307 244 321 266 C336 290 324 325 305 344 L305 344 Z M107 71 C90 97 93 143 101 172 C109 200 128 230 146 253 C134 198 119 126 107 71 L107 71 Z " />
<glyph glyph-name="sterling" unicode="&#xa3;" horiz-adv-x="548" d="M429 -62 C340 -43 245 -41 158 -45 C206 8 249 96 264 133 C285 133 351 133 359 134 C384 140 397 167 385 190 C379 202 368 210 355 211 C336 213 316 211 297 211 C313 252 324 296 345 334 C355 353 367 371 384 383 C400 394 422 402 440 392 C449 387 454 379 455 369 C456 359 453 348 456 338 C462 321 479 309 498 312 C540 317 538 370 527 401 C515 437 484 464 448 472 C405 482 362 466 329 438 C298 412 277 376 261 339 C253 318 246 297 238 276 C237 272 216 214 213 211 C184 211 152 211 136 211 C117 211 99 203 93 184 C88 167 96 148 111 139 C120 133 129 133 139 133 C152 133 165 133 178 133 C152 82 122 33 86 -12 C68 -33 48 -53 28 -72 C13 -86 12 -111 26 -126 C46 -147 73 -136 96 -131 C126 -126 155 -123 185 -122 C243 -118 302 -120 360 -129 C376 -131 392 -135 408 -138 C422 -140 436 -138 446 -127 C466 -107 458 -69 429 -62 L429 -62 Z " />
<glyph glyph-name="yen" unicode="&#xa5;" horiz-adv-x="417" d="M369 450 C353 457 332 453 322 438 C312 421 306 401 298 384 C282 349 265 314 243 281 C222 249 175 184 129 207 C104 217 116 276 120 294 C128 326 138 353 150 379 C154 389 161 398 164 408 C169 425 161 445 145 453 C123 466 99 453 91 434 C54 365 34 291 37 235 C39 195 56 157 93 138 C133 117 184 125 221 147 C218 140 214 133 212 121 C173 119 119 121 92 118 C73 116 61 97 63 78 C65 60 78 41 96 42 C125 43 151 42 183 43 C181 38 179 34 177 28 C157 26 95 25 90 25 C63 22 35 18 35 -22 C35 -58 74 -53 102 -53 C115 -53 128 -52 141 -52 C133 -69 123 -86 109 -98 C78 -124 87 -163 121 -167 C156 -171 182 -139 195 -116 C207 -94 218 -76 227 -53 C239 -53 256 -52 268 -52 C283 -52 296 -46 304 -33 C313 -20 313 -3 304 9 C294 25 277 26 260 26 C261 31 263 37 265 44 C282 43 310 44 321 44 C339 44 355 51 363 68 C369 84 364 102 352 113 C337 126 314 123 295 123 C327 214 356 307 389 399 C397 419 390 441 369 450 L369 450 Z " />
<glyph glyph-name="quoteleft" unicode="&#x2018;" horiz-adv-x="325" d="M263 624 C248 632 231 631 217 620 C211 615 208 608 204 601 L192 576 C184 561 176 540 163 529 C157 525 150 523 145 518 C140 513 137 507 135 500 C132 486 137 471 148 461 C160 450 178 450 192 457 C221 471 238 496 253 524 L267 552 C271 561 277 569 280 579 C285 596 279 616 263 624 L263 624 Z " />
<glyph glyph-name="quoteright" unicode="&#x2019;" horiz-adv-x="333" d="M263 624 C248 632 231 631 217 620 C211 615 208 608 204 601 L192 576 C184 561 176 540 163 529 C157 525 150 523 145 518 C140 513 137 507 135 500 C132 486 137 471 148 461 C160 450 178 450 192 457 C221 471 238 496 253 524 L267 552 C271 561 277 569 280 579 C285 596 279 616 263 624 L263 624 Z " />
<glyph glyph-name="quotedblleft" unicode="&#x201c;" horiz-adv-x="420" d="M237 612 C228 644 183 651 166 621 C157 605 149 587 140 570 C136 563 132 555 127 548 C121 540 114 538 107 533 C82 516 88 475 116 465 C147 455 177 483 193 506 C203 522 212 540 221 557 C229 574 243 592 237 612 L237 612 L237 612 Z M333 631 C318 639 301 638 288 627 C281 622 278 615 274 608 L262 583 C254 568 246 547 232 536 C227 532 220 530 215 525 C210 520 207 514 205 507 C202 493 207 478 218 468 C230 457 248 457 262 464 C291 478 308 503 323 531 L337 559 C341 568 347 576 350 586 C355 602 349 623 333 631 L333 631 Z " />
<glyph glyph-name="quotedblright" unicode="&#x201d;" horiz-adv-x="424" d="M233 612 C224 644 179 651 162 621 C153 605 145 587 136 570 C132 563 128 555 123 548 C117 540 110 538 103 533 C78 516 84 475 112 465 C143 455 173 483 189 506 C199 522 208 540 217 557 C225 574 239 592 233 612 L233 612 L233 612 Z M329 631 C314 639 297 638 284 627 C277 622 274 615 270 608 L258 583 C250 568 242 547 228 536 C223 532 216 530 211 525 C206 520 203 514 201 507 C198 493 203 478 214 468 C226 457 244 457 258 464 C287 478 304 503 319 531 L333 559 C337 568 343 576 346 586 C351 602 345 623 329 631 L329 631 Z " />
<glyph glyph-name="Euro" unicode="&#x20ac;" horiz-adv-x="559" d="M372 455 C325 452 283 429 248 398 C199 355 154 295 134 235 C118 235 95 233 86 233 C76 233 66 233 58 227 C40 215 35 192 46 174 C60 152 86 155 108 155 C103 136 104 126 101 113 C100 110 78 112 75 112 C54 112 36 107 28 91 C20 77 24 57 35 46 C50 31 64 33 99 34 C102 -6 112 -49 132 -81 C153 -117 185 -147 226 -160 C267 -173 312 -171 353 -157 C395 -142 430 -117 462 -87 C475 -73 494 -60 500 -42 C505 -26 500 -8 486 2 C473 12 453 12 439 2 C422 -13 408 -30 392 -45 C358 -74 313 -97 267 -90 C218 -84 194 -42 183 2 C181 12 179 23 178 34 C203 34 229 34 254 34 C274 34 297 31 312 47 C324 60 325 80 315 95 C303 113 284 112 264 112 C236 112 207 112 179 112 C181 125 184 142 187 154 C217 155 292 154 304 156 C322 157 339 174 339 193 C339 211 326 228 308 232 C295 235 280 233 267 233 C251 233 235 233 219 233 C237 267 259 300 286 327 C312 353 345 378 384 378 C400 378 423 376 435 363 C441 356 443 349 443 340 C443 332 445 325 450 319 C466 294 504 297 517 324 C524 339 521 359 516 374 C498 438 426 459 372 455 L372 455 Z " />
</font>
</svg>
