<?xml version="1.0" encoding="UTF-8"?>
<svg xmlns="http://www.w3.org/2000/svg" xmlns:xlink="http://www.w3.org/1999/xlink" version="1.2" >
<font id="Testudo Signature">
<font-face  font-family="Testudo Signature" units-per-em="1000" ascent="750" descent="-250" font-style="normal" font-weight="400" font-stretch="normal" cap-height="700" x-height="500" underline-position="-75" underline-thickness="50" />
<missing-glyph  horiz-adv-x="200" d="" />
<glyph glyph-name="NULL" d="" />
<glyph glyph-name="nonmarkingreturn" unicode="&#xd;" horiz-adv-x="200" d="" />
<glyph glyph-name="space" unicode="&#x20;" horiz-adv-x="165" d="" />
<glyph glyph-name="e" unicode="e" horiz-adv-x="130" d="M8 269 Q8 263 10.5 254 Q13 245 25 242 Q37 240 52 246 Q67 252 83 264 Q96 274 107.5 283 Q119 292 130 300 Q138 298 139 293.5 Q140 289 135 285 Q122 274 112.5 267 Q103 260 92 252 Q87 248 79 243 Q71 238 62 234 Q53 230 42.5 228 Q32 226 22 228 Q2 232 -3.5 248 Q-9 264 -7 273 Q-6 281 -2.5 292.5 Q1 304 6 312 Q17 328 29 327 Q40 325 39.5 316 Q39 307 36 300 Q30 288 22.5 281 Q15 274 8 269 Z M26 313 Q22 310 18 303 Q14 296 13 290 Q17 294 21.5 301 Q26 308 26 313 Z " />
<glyph glyph-name="f" unicode="f" horiz-adv-x="139" d="M67 439 Q61 436 55.5 425.5 Q50 415 44 403 Q31 371 24 341.5 Q17 312 13 279 Q82 298 139 300 Q145 298 147 294 Q149 290 147 287 Q144 280 138 284 Q136 285 132 285 Q100 283 69.5 278 Q39 273 10 262 Q8 245 6.5 222.5 Q5 200 4 183 Q15 172 23 161.5 Q31 151 37 137 Q45 117 46.5 94 Q48 71 34 54 Q26 46 17.5 48 Q9 50 3 59 Q-4 69 -6.5 87.5 Q-9 106 -10 116 Q-11 132 -11 147 Q-11 162 -11 177 Q-25 190 -40.5 204 Q-56 218 -71 229 Q-77 233 -78 234 Q-82 239 -79.5 243 Q-77 247 -71 249 Q-56 254 -37.5 261 Q-19 268 -4 273 Q1 314 11 353.5 Q21 393 38 425 Q43 433 48.5 441 Q54 449 60 452 Q74 459 80 446 Q87 431 80 415 Q77 408 71 411 Q67 412 67 419 Q68 425 68.5 429.5 Q69 434 67 439 Z M4 161 Q4 147 4 137 Q4 127 5 117 Q5 114 6 105.5 Q7 97 8.5 87.5 Q10 78 13 70.5 Q16 63 21 61 Q29 67 31 81 Q33 95 31 105 Q28 120 21.5 135 Q15 150 4 161 Z M-6 255 Q-19 250 -31.5 246.5 Q-44 243 -57 238 Q-45 227 -33.5 218 Q-22 209 -10 198 Q-9 213 -8.5 227 Q-8 241 -6 255 Z " />
<glyph glyph-name="g" unicode="g" horiz-adv-x="175" d="M-5 -90 Q-32 -90 -46.5 -78.5 Q-61 -67 -67 -50.5 Q-73 -34 -72.5 -15.5 Q-72 3 -68 17 Q-63 34 -55.5 49.5 Q-48 65 -39 80 Q-10 127 22.5 162.5 Q55 198 102 239 Q99 250 92.5 266.5 Q86 283 80 294 Q67 274 48 252.5 Q29 231 10 226 Q-12 221 -19 239 Q-24 253 -17 271 Q-10 289 0 301 Q11 313 23 321.5 Q35 330 50 331 Q61 331 67.5 324.5 Q74 318 74 309 Q82 311 85.5 309 Q89 307 93 302 Q101 288 106.5 273 Q112 258 115 250 Q131 264 147 277 Q163 290 175 300 Q186 299 185 294 Q184 289 182 287 Q164 272 149 258.5 Q134 245 119 233 Q138 172 135 110 Q132 48 103 -6 Q94 -23 81.5 -38 Q69 -53 54.5 -64.5 Q40 -76 25 -83 Q10 -90 -5 -90 Z M107 223 Q66 191 30 149 Q-6 107 -32 62 Q-43 44 -50.5 21 Q-58 -2 -57.5 -23 Q-57 -44 -46 -59 Q-35 -74 -8 -76 Q4 -77 17.5 -70 Q31 -63 44.5 -52.5 Q58 -42 69 -28.5 Q80 -15 88 -3 Q115 50 119.5 109.5 Q124 169 107 223 Z M60 309 Q57 318 49 316 Q35 313 22 301 Q9 289 1 275 Q-1 271 -3.5 264.5 Q-6 258 -6.5 252 Q-7 246 -4.5 242 Q-2 238 6 239 Q13 240 20.5 246.5 Q28 253 36 262 Q44 271 51.5 280.5 Q59 290 65 298 Q62 299 61.5 302.5 Q61 306 60 309 Z " />
<glyph glyph-name="h" unicode="h" horiz-adv-x="151" d="M10 215 Q17 224 28.5 238 Q40 252 51 257 Q62 262 69 254 Q76 246 80 238 Q94 250 107.5 261 Q121 272 135 285 Q137 287 140 289.5 Q143 292 145 294 L151 300 Q164 296 159.5 290 Q155 284 150 279 Q134 265 118.5 251.5 Q103 238 89 227 Q84 224 78.5 223 Q73 222 68 229 Q66 232 63.5 238 Q61 244 57 244 Q55 244 51 240 Q47 236 45 234 Q35 223 27 212 Q19 201 13 187 Q11 179 5 179 Q-1 179 -3 187 Q-6 216 -5 244 Q-4 272 0 301 Q11 370 31 432 Q38 453 45.5 474.5 Q53 496 61 517 Q64 524 70 523 Q75 521 74 516.5 Q73 512 72 509 Q61 475 49.5 441.5 Q38 408 30 373 Q23 346 18 318.5 Q13 291 11 263 Q10 252 9.5 237.5 Q9 223 10 215 Z " />
<glyph glyph-name="i" unicode="i" horiz-adv-x="41" d="M10 311 Q15 309 15 306 Q15 303 13 298 Q8 279 6.5 260.5 Q5 242 4 223 Q4 221 3.5 217 Q3 213 -2 212 Q-7 211 -9 216 Q-11 221 -11 226 Q-11 244 -8.5 263.5 Q-6 283 0 302 Q4 313 10 311 Z M24 347 Q31 344 29 336 Q28 334 26 331 Q24 328 19 330 Q11 332 15 341 Q17 349 24 347 Z " />
<glyph glyph-name="j" unicode="j" horiz-adv-x="84" d="M84 300 Q92 297 91.5 292.5 Q91 288 88 286 Q81 281 76.5 277.5 Q72 274 65 269 Q61 266 52 258 Q43 250 32.5 241 Q22 232 13 223.5 Q4 215 0 212 Q-7 170 -11.5 127 Q-16 84 -27 39 Q-32 21 -39.5 3.5 Q-47 -14 -58.5 -28.5 Q-70 -43 -84 -52 Q-98 -61 -115 -61 Q-139 -61 -148.5 -48.5 Q-158 -36 -158 -17.5 Q-158 1 -152 21 Q-146 41 -140 55 Q-123 91 -100 123 Q-77 155 -49 184 Q-41 192 -31.5 201 Q-22 210 -14 218 Q-10 245 -7 263 Q-4 281 0 302 Q2 311 7 311 Q15 311 14 302 Q13 294 11 283.5 Q9 273 7.5 262.5 Q6 252 5 244 Q4 236 4 235 Q18 249 41.5 268 Q65 287 84 300 Z M-28 114 Q-25 134 -23 154.5 Q-21 175 -17 195 Q-22 190 -29.5 182.5 Q-37 175 -42 170 Q-71 141 -93.5 108.5 Q-116 76 -131 39 Q-134 32 -138.5 17.5 Q-143 3 -144 -11.5 Q-145 -26 -139 -37 Q-133 -48 -114 -48 Q-102 -48 -91 -41 Q-80 -34 -71.5 -23.5 Q-63 -13 -57 -1 Q-51 11 -48 22 Q-40 45 -36 68 Q-32 91 -28 114 Z M15 330 Q10 332 10 335 Q10 338 12 342 Q16 350 21 348 Q29 345 23 336 Q19 329 15 330 Z " />
<glyph glyph-name="k" unicode="k" horiz-adv-x="154" d="M6 243 Q4 214 2.5 189 Q1 164 1 138 Q2 132 -4 129 Q-10 127 -12 130.5 Q-14 134 -14 139 Q-14 167 -13.5 186.5 Q-13 206 -11 224 Q-11 227 -10.5 230.5 Q-10 234 -10 238 Q-18 239 -22.5 242 Q-27 245 -25 253 Q-21 262 -15.5 269 Q-10 276 -4 282 Q1 310 8.5 339.5 Q16 369 24 397 Q41 452 66 509 Q68 513 70.5 518.5 Q73 524 78 523 Q84 521 82 513 Q80 508 78.5 505 Q77 502 75 496 Q67 473 59 451.5 Q51 430 43 407 Q38 393 34.5 379.5 Q31 366 27 352 Q23 337 20.5 325 Q18 313 15 299 Q22 303 25 306 Q37 315 48 323 Q59 331 71 338 Q73 340 77 341.5 Q81 343 84 338 Q86 335 80 330 Q63 319 47 306.5 Q31 294 15 281 Q13 279 12 277.5 Q11 276 10 271 Q10 269 9.5 265 Q9 261 9 258 Q42 269 80 279.5 Q118 290 154 300 Q162 298 161 292.5 Q160 287 154 285 Q112 274 75.5 264 Q39 254 6 243 Z " />
<glyph glyph-name="l" unicode="l" horiz-adv-x="203" d="M60 534 Q61 537 64.5 538 Q68 539 70 537 Q77 534 73 526 Q58 493 47 458.5 Q36 424 28 389 Q22 360 17.5 331 Q13 302 13 272 Q13 265 13.5 255 Q14 245 16.5 235 Q19 225 23.5 217.5 Q28 210 37 209 Q53 206 76 216.5 Q99 227 115 237 Q138 251 160 267 Q182 283 203 300 Q210 298 211 293.5 Q212 289 204 283 Q184 267 159 247.5 Q134 228 105 213 Q97 208 86 203 Q75 198 63 195 Q51 192 39.5 193 Q28 194 18 201 Q4 212 0.5 236.5 Q-3 261 -2 281 Q0 309 4.5 342.5 Q9 376 17 407 Q32 474 60 534 Z " />
<glyph glyph-name="m" unicode="m" horiz-adv-x="305" d="M9 240 Q7 237 3 231.5 Q-1 226 -4 224 Q-8 221 -12 222 Q-16 223 -17 228 Q-18 238 -15.5 250.5 Q-13 263 -9.5 275.5 Q-6 288 -1 298.5 Q4 309 7 315 Q9 317 12 321.5 Q15 326 21 326 Q26 326 27 322 Q28 318 24 315 Q19 312 16 305 Q3 276 -1 251 Q11 267 28.5 289.5 Q46 312 63 323 Q75 330 78 318 Q79 314 78.5 305.5 Q78 297 76 287.5 Q74 278 72.5 267.5 Q71 257 71 249 Q82 258 99 270.5 Q116 283 127 289 Q142 297 150 283 Q152 279 156 270.5 Q160 262 162 260 Q170 246 184.5 244 Q199 242 214.5 246 Q230 250 244.5 258 Q259 266 267 272 Q273 277 283.5 285 Q294 293 305 300 Q312 298 312.5 294 Q313 290 311 288 Q299 277 287.5 269 Q276 261 267 254 Q256 245 239.5 238 Q223 231 205.5 229 Q188 227 172.5 232 Q157 237 148 252 Q145 257 142 264 Q139 271 137 274 Q134 278 123 270 Q110 261 96.5 250 Q83 239 75 234 Q61 226 56 241 Q53 251 57 270.5 Q61 290 63 305 Q46 287 33.5 271 Q21 255 9 240 Z " />
<glyph glyph-name="n" unicode="n" horiz-adv-x="171" d="M4 259 Q9 263 13 266.5 Q17 270 24 275 Q35 284 44 283 Q53 282 59 274 Q66 265 71.5 257.5 Q77 250 88 254 Q106 261 128.5 274 Q151 287 171 300 Q180 298 179 293 Q178 288 173 285 Q164 279 153 272 Q142 265 130.5 258.5 Q119 252 108 246.5 Q97 241 88 240 Q72 237 64 242.5 Q56 248 47 261 Q41 271 30 262 Q23 256 16 250 Q9 244 4 240 Q-2 235 -7 236 Q-12 237 -13 244 Q-14 250 -9 267.5 Q-4 285 -1 299 Q1 304 1.5 309 Q2 314 8 314 Q16 312 15 307.5 Q14 303 13 298 Q10 287 8 278 Q6 269 4 259 Z " />
<glyph glyph-name="o" unicode="o" horiz-adv-x="76" d="M44 305 Q46 295 46 289 Q46 272 39.5 253 Q33 234 16 223 Q3 216 -5 229 Q-14 244 -9.5 266.5 Q-5 289 3 306 Q6 312 10.5 317 Q15 322 22 320 Q25 319 26 314.5 Q27 310 23 308 Q19 306 18 304 Q15 298 11.5 288.5 Q8 279 6 269 Q4 259 4.5 250 Q5 241 9 235 Q15 238 20 246.5 Q25 255 27 262 Q30 272 31 281 Q32 290 30 300 Q30 303 31.5 306.5 Q33 310 38 310 Q42 310 44 305 Z " />
<glyph glyph-name="p" unicode="p" horiz-adv-x="144" d="M-19 119 Q-10 157 1.5 196.5 Q13 236 30 271 Q38 288 46 300.5 Q54 313 64 318 Q79 325 88 313 Q93 306 94 298 Q95 290 96 285 Q108 290 121.5 294 Q135 298 144 300 Q150 297 150 291.5 Q150 286 142 284 Q129 280 117.5 276 Q106 272 94 267 Q93 249 88 232.5 Q83 216 75 206 Q71 201 64.5 198 Q58 195 52 197 Q41 200 39 214 Q38 226 45.5 241 Q53 256 67 267 Q69 269 73 272 Q77 275 81 277 Q80 282 79.5 288.5 Q79 295 77 300 Q74 308 68 304 Q62 299 57.5 291 Q53 283 49 276 Q36 252 27 227 Q18 202 11 176 Q0 137 -7 99 Q-14 61 -20 23 Q-21 18 -21.5 13.5 Q-22 9 -23 4 Q-24 -6 -32 -6 Q-39 -5 -39 3 Q-39 35 -38 66 Q-37 97 -33 129 Q-30 160 -24.5 190.5 Q-19 221 -12 251 Q-4 284 3 312 Q10 340 20 366 Q22 370 23.5 374.5 Q25 379 31 377 Q36 376 34 368 Q23 325 12.5 287.5 Q2 250 -6 208 Q-9 194 -10.5 183 Q-12 172 -13.5 162.5 Q-15 153 -16.5 142.5 Q-18 132 -19 119 Z M78 257 Q64 248 57 234 Q51 223 53 214 Q54 210 57 210.5 Q60 211 63 214 Q70 221 73.5 234.5 Q77 248 78 257 Z " />
<glyph glyph-name="q" unicode="q" horiz-adv-x="141" d="M-7 251 Q6 258 15 267 Q24 276 34 286 Q41 293 46 290 Q52 287 50 278 Q48 269 46 260 Q44 251 42 243 Q27 189 15 135 Q10 108 6 79 Q2 50 6 26 Q18 56 27 86 Q42 131 62 173 Q82 215 108 255 Q116 267 124.5 279.5 Q133 292 141 300 Q156 297 149 286 Q147 283 144.5 279.5 Q142 276 139 272 Q122 249 108 226 Q94 203 80 177 Q66 149 55.5 120.5 Q45 92 35 63 Q31 50 25.5 35.5 Q20 21 15 14 Q10 8 3 9 Q-4 10 -7 18 Q-12 32 -11 54.5 Q-10 77 -7 94 Q-2 129 6 163 Q14 197 23 231 Q25 237 26.5 244.5 Q28 252 30 259 Q22 252 14 246 Q6 240 -4 238 Q-18 236 -20 250 Q-22 267 -12 283.5 Q-2 300 9 309 Q19 317 30.5 319 Q42 321 51 313 Q55 309 56 305 Q57 301 52 299 Q46 297 43 302 Q38 306 32.5 305 Q27 304 23 301 Q11 291 2 278 Q-7 265 -7 251 Z " />
<glyph glyph-name="r" unicode="r" horiz-adv-x="101" d="M7 254 Q12 261 20 269 Q28 277 34 282 Q48 293 65 293 Q79 293 89 296 Q99 299 101 300 Q104 298 107 295.5 Q110 293 105 289 Q96 282 83 280.5 Q70 279 62 279 Q52 279 42 271 Q17 251 5 223 Q3 218 2.5 214.5 Q2 211 0 205 Q-3 194 -10 194 Q-18 194 -16 204 Q-13 228 -9 252 Q-5 276 0 301 Q2 312 4 318 Q6 324 11 325 Q19 327 18 317 Q15 299 12.5 286.5 Q10 274 7 254 Z " />
<glyph glyph-name="s" unicode="s" horiz-adv-x="133" d="M57 261 Q54 269 49.5 271 Q45 273 34 274 Q29 274 24 273.5 Q19 273 14 274 Q-3 276 -3 290 Q-1 304 8 314 Q17 324 27 331 Q32 334 37 334.5 Q42 335 43 330 Q45 323 36 321 Q31 319 28 316 Q17 305 13 297 Q9 289 16 288 Q19 287 25.5 287.5 Q32 288 36 288 Q47 288 57 284 Q67 280 71 270 Q84 275 101.5 284.5 Q119 294 133 300 Q142 297 140 291.5 Q138 286 133 284 Q119 277 103 269.5 Q87 262 73 255 Q71 239 64.5 224 Q58 209 44 197 Q39 193 34 190.5 Q29 188 21 187 Q10 186 4 193 Q-2 200 1 211 Q4 222 16.5 232.5 Q29 243 40 251 Q44 253 48 256 Q52 259 57 261 Z M57 245 Q46 238 37 231.5 Q28 225 20 216 Q19 215 17.5 212.5 Q16 210 15 207 Q14 204 14.5 202 Q15 200 20 200 Q27 200 33 206 Q44 215 48 224.5 Q52 234 57 245 Z " />
<glyph glyph-name="t" unicode="t" horiz-adv-x="72" d="M226 416 Q231 415 238.5 413 Q246 411 242 403 Q238 397 232 399 Q216 401 200.5 402.5 Q185 404 167 404 Q134 404 103 404 Q72 404 37 403 Q29 367 21.5 330 Q14 293 6 251 Q1 226 -3 202 Q-7 178 -11 153 Q-14 134 -23 136 Q-28 137 -28.5 141 Q-29 145 -28 148 Q-25 168 -22.5 179 Q-20 190 -18 204 Q-10 254 -0.5 302 Q9 350 20 402 Q16 402 5 401.5 Q-6 401 -19 401 Q-32 401 -44.5 400.5 Q-57 400 -64 400 Q-68 400 -72.5 401.5 Q-77 403 -75 409 Q-73 414 -67 414 Q-43 415 -22 415.5 Q-1 416 24 418 Q24 418 26.5 427 Q29 436 32.5 449 Q36 462 40 475.5 Q44 489 47 499 Q49 504 51.5 508 Q54 512 59 512 Q62 512 64.5 510 Q67 508 66 504 Q65 499 63 489 Q61 479 58 470 Q57 467 55 465.5 Q53 464 52 461 Q48 450 45 436.5 Q42 423 40 418 Q86 418 132 419.5 Q178 421 226 416 Z " />
<glyph glyph-name="u" unicode="u" horiz-adv-x="177" d="M8 330 Q11 339 16 337 Q23 336 21 327 Q17 313 14 301 Q11 289 9 276 Q8 272 8.5 265.5 Q9 259 12 258 Q16 257 22 264 Q28 271 31 275 Q36 282 42 290 Q48 298 51 301 Q55 305 59.5 304.5 Q64 304 65 299 Q67 283 68.5 269 Q70 255 77 241 Q82 231 91.5 232.5 Q101 234 109 239 Q142 259 177 300 Q188 298 187 293.5 Q186 289 184 286 Q170 269 155.5 255 Q141 241 123 230 Q107 220 90 218 Q73 216 63 235 Q58 246 56 256.5 Q54 267 53 279 Q45 268 38 259.5 Q31 251 23 247 Q2 237 -4 257 Q-6 262 -5.5 271 Q-5 280 -3 290 Q-1 300 2 310.5 Q5 321 8 330 Z " />
<glyph glyph-name="v" unicode="v" horiz-adv-x="108" d="M117 382 Q122 378 118 371 Q101 343 88 318.5 Q75 294 60 265 Q52 251 42 233 Q32 215 22 209 Q8 200 2 217 Q-4 235 -3 260.5 Q-2 286 1 308 Q2 312 3.5 315.5 Q5 319 10 317 Q15 315 14.5 311 Q14 307 14 302 Q12 284 11.5 267 Q11 250 13 232 Q14 224 16 222 Q18 224 21.5 229 Q25 234 27 237 Q32 246 36.5 254 Q41 262 46 272 Q59 297 72.5 321.5 Q86 346 101 373 Q103 377 107 381 Q111 385 117 382 Z " />
<glyph glyph-name="w" unicode="w" horiz-adv-x="173" d="M122 365 Q123 345 123.5 324 Q124 303 122 283 Q120 263 114.5 242 Q109 221 96 213 Q81 203 70 216 Q61 227 58 240.5 Q55 254 53 269 Q48 261 42 251.5 Q36 242 29.5 232.5 Q23 223 16.5 215.5 Q10 208 4 205 Q-1 203 -6.5 204 Q-12 205 -15 211 Q-19 219 -17 235.5 Q-15 252 -11 266 Q-8 277 -4.5 288.5 Q-1 300 3 311 Q5 319 11 317 Q18 315 16 309 L13 297 Q10 284 8 277 Q6 270 3 257 Q1 251 -1 239.5 Q-3 228 -2 220 Q3 223 6 227.5 Q9 232 14 238 Q18 244 23 251.5 Q28 259 32.5 266 Q37 273 41.5 279 Q46 285 49 287 Q54 290 58.5 289 Q63 288 65 283 Q68 275 69.5 262 Q71 249 75 238 Q76 234 79 229 Q82 224 87 225 Q91 226 94 231.5 Q97 237 99 243.5 Q101 250 102.5 257 Q104 264 105 269 Q108 293 107.5 317.5 Q107 342 107 369 Q107 374 112 376 Q120 379 122 365 Z " />
<glyph glyph-name="x" unicode="x" horiz-adv-x="134" d="M19 249 Q30 265 42.5 279.5 Q55 294 68 308 Q73 313 77 316 Q81 319 84 316 Q88 312 83 306 Q66 285 51.5 268 Q37 251 26 234 Q31 223 39 218 Q46 215 54 218 Q62 221 70 227.5 Q78 234 84.5 241.5 Q91 249 96 254 Q107 267 116.5 278 Q126 289 134 300 Q142 299 142.5 294.5 Q143 290 141 287 Q132 275 121 260.5 Q110 246 98.5 233.5 Q87 221 75 212 Q63 203 51 202 Q27 200 16 219 Q12 214 7 206.5 Q2 199 -2 193 Q-4 188 -5.5 183.5 Q-7 179 -12 178 Q-19 177 -20 183 Q-21 189 -19 193 Q-12 204 -5.5 214 Q1 224 8 234 Q0 257 -1 279 Q-2 301 2 324 Q4 332 9 332 Q15 332 15 325 Q13 305 13 286.5 Q13 268 19 249 Z " />
<glyph glyph-name="y" unicode="y" horiz-adv-x="228" d="M228 300 Q237 299 236.5 293 Q236 287 232 285 Q227 283 224 281 Q221 279 216 276 Q199 265 178.5 251.5 Q158 238 141 227 Q143 201 141 173 Q139 145 133 114 Q128 87 120.5 58.5 Q113 30 101.5 2 Q90 -26 74.5 -52.5 Q59 -79 37 -103 Q29 -111 16 -122 Q3 -133 -12 -140.5 Q-27 -148 -42.5 -149 Q-58 -150 -70 -138 Q-78 -131 -81 -119.5 Q-84 -108 -83.5 -95.5 Q-83 -83 -80.5 -70 Q-78 -57 -75 -46 Q-64 -2 -43 37.5 Q-22 77 6 113 Q31 146 62 176.5 Q93 207 125 233 Q122 261 114 281 Q112 286 108 293.5 Q104 301 96 300 Q91 299 87.5 296 Q84 293 80 290 Q71 283 62 273.5 Q53 264 43.5 255 Q34 246 24.5 239 Q15 232 7 232 Q-12 230 -12 256 Q-12 270 -7.5 283 Q-3 296 4 308 Q11 320 18 313 Q22 309 17 304 Q14 299 10 290 Q6 281 4 271 Q2 261 2 253.5 Q2 246 7 246 Q10 246 17.5 251.5 Q25 257 33.5 265.5 Q42 274 50 282 Q58 290 63 295 Q68 300 78 308 Q88 316 102 315 Q114 313 121 303 Q129 292 133.5 275.5 Q138 259 140 245 Q140 245 148.5 250.5 Q157 256 168.5 263.5 Q180 271 193 279 Q206 287 216 293 Q218 295 220.5 296 Q223 297 225 298 Q227 299 228 300 Z M122 141 Q124 159 126 177.5 Q128 196 126 215 Q97 192 67.5 162.5 Q38 133 14 99 Q-37 33 -59 -44 Q-63 -58 -65.5 -71.5 Q-68 -85 -68 -99 Q-68 -112 -62.5 -124.5 Q-57 -137 -37 -135 Q-20 -133 0.5 -117 Q21 -101 35 -84 Q70 -39 89.5 14 Q109 67 122 141 Z " />
<glyph glyph-name="z" unicode="z" horiz-adv-x="147" d="M144 188 Q148 188 155 186.5 Q162 185 160 177 Q158 172 153.5 172.5 Q149 173 144 173 Q106 171 67 166 Q28 161 -7 153 Q-12 152 -18 150.5 Q-24 149 -28 155 Q-32 161 -28 166 Q-24 171 -19 177 Q-6 191 8.5 204 Q23 217 37 230 Q56 247 76.5 266 Q97 285 111 304 Q97 306 68.5 304.5 Q40 303 13 293 Q10 291 5.5 290.5 Q1 290 -1 295 Q-3 301 7 305 Q27 313 58 317.5 Q89 322 117 317 Q125 315 126.5 310 Q128 305 125 299 Q116 284 104 272 Q92 260 78 247 Q57 228 35.5 209.5 Q14 191 -6 169 Q31 177 73.5 182 Q116 187 144 188 Z " />
<glyph glyph-name="A" unicode="A" horiz-adv-x="557" d="M526 547 Q518 490 509.5 440 Q501 390 489 335 Q502 335 515.5 330.5 Q529 326 534 312 Q537 305 531 302 Q526 300 522 305 Q517 315 506.5 316.5 Q496 318 486 320 Q470 243 453.5 165.5 Q437 88 419 8 Q415 -8 412 -23 Q409 -38 405 -55 Q402 -65 396 -65 Q388 -65 390 -53 Q393 -29 397 -5.5 Q401 18 398 44 Q393 80 367.5 103 Q342 126 307 134 Q288 84 271 33.5 Q254 -17 240 -69 Q236 -82 233 -97 Q230 -112 228 -122 Q228 -124 229 -130.5 Q230 -137 226 -139 Q218 -141 216 -136 Q214 -131 214 -125 Q214 -108 221.5 -80.5 Q229 -53 236 -29 Q249 13 262 55 Q275 97 292 139 Q240 150 186 151.5 Q132 153 77 155 Q70 155 61 156 Q52 157 43 159 Q34 161 27 165.5 Q20 170 19 177 Q17 184 22 192 Q27 200 35.5 207.5 Q44 215 54 221 Q64 227 72 231 Q98 245 125 256.5 Q152 268 180 278 Q201 285 227.5 292 Q254 299 279.5 305 Q305 311 327 315.5 Q349 320 361 322 Q376 358 395 411.5 Q414 465 435 518.5 Q456 572 477 617.5 Q498 663 515 684 Q519 689 524.5 687 Q530 685 532 679 Q535 669 535 653.5 Q535 638 534 619.5 Q533 601 530.5 582 Q528 563 526 547 Z M297 153 Q311 191 325.5 229 Q340 267 354 305 Q321 299 293 293 Q265 287 235 279 Q169 261 105 231 Q91 224 77.5 216 Q64 208 51 199 Q48 197 44.5 194 Q41 191 38.5 187.5 Q36 184 36 180.5 Q36 177 41 175 Q52 170 72.5 169.5 Q93 169 110 169 Q153 170 199.5 167 Q246 164 297 153 Z M413 52 Q427 119 441.5 186 Q456 253 470 320 Q462 321 448 320 Q434 319 419 317 Q404 315 391 312.5 Q378 310 372 309 Q366 293 357.5 271.5 Q349 250 340.5 227.5 Q332 205 324 184 Q316 163 312 149 Q329 143 345.5 135 Q362 127 375.5 116 Q389 105 399 89.5 Q409 74 413 52 Z M473 335 Q483 381 491 426 Q499 471 507 527 Q513 565 516.5 597.5 Q520 630 519 666 Q502 639 485 599 Q468 559 450 513 Q432 467 414.5 418.5 Q397 370 379 325 Q403 330 426.5 332.5 Q450 335 473 335 Z " />
<glyph glyph-name="B" unicode="B" horiz-adv-x="545" d="M512 206 Q515 167 489.5 125 Q464 83 425 44.5 Q386 6 341 -25 Q296 -56 261 -72 Q235 -84 201.5 -93 Q168 -102 135.5 -101.5 Q103 -101 75 -86.5 Q47 -72 32 -37 Q15 2 16 52 Q17 102 28 154.5 Q39 207 56.5 257 Q74 307 91 346 Q99 365 109 381 Q114 390 122.5 398.5 Q131 407 142 402 Q148 399 147 393 Q145 388 141 388 Q135 390 131.5 387 Q128 384 126 380 Q117 365 109 349 Q94 317 80 279 Q66 241 55 200.5 Q44 160 37.5 119 Q31 78 32 42 Q33 -5 47.5 -32.5 Q62 -60 85.5 -72.5 Q109 -85 139.5 -85 Q170 -85 202 -76 Q234 -67 266 -52 Q298 -37 325 -19 Q346 -6 376.5 20 Q407 46 434.5 77 Q462 108 481 141.5 Q500 175 497 204 Q497 221 486.5 230 Q476 239 460 243 Q444 247 426 247.5 Q408 248 392 248 Q381 248 366 247 Q351 246 336 247.5 Q321 249 309.5 256 Q298 263 295 280 Q293 303 303 328.5 Q313 354 325 379 Q342 413 357.5 446.5 Q373 480 390 514 Q404 543 417.5 572.5 Q431 602 443 632 Q446 640 449.5 650 Q453 660 454 671 Q444 666 433.5 654.5 Q423 643 415 633 Q396 610 379.5 586 Q363 562 348 537 Q319 489 293.5 440 Q268 391 248 340 Q235 308 224.5 276 Q214 244 204 211 Q204 206 203 202 Q202 198 197 196 Q192 194 188.5 197 Q185 200 185 207 Q186 224 187 241.5 Q188 259 190 276 Q195 325 205 379.5 Q215 434 224 485 Q232 526 239 561 Q246 596 256 640 Q258 651 260.5 659.5 Q263 668 265 679 Q268 692 276 692 Q279 692 281 688 Q283 684 283 679 Q283 671 283 664.5 Q283 658 287 650 Q290 644 285 642 Q278 638 273 647 Q265 614 261 591.5 Q257 569 252 546 Q239 477 226 408.5 Q213 340 205 268 Q206 271 212 287.5 Q218 304 226.5 325 Q235 346 244 368.5 Q253 391 261 407 Q288 464 319.5 518.5 Q351 573 389 624 Q400 638 415 656.5 Q430 675 450 686 Q458 691 463.5 686.5 Q469 682 469 674 Q469 660 464 646 Q459 632 454 618 Q443 592 431.5 567.5 Q420 543 408 518 Q389 477 370 437 Q351 397 331 357 Q324 341 317 321.5 Q310 302 310 282 Q311 271 320 266.5 Q329 262 341 261.5 Q353 261 366.5 262 Q380 263 389 263 Q404 263 424.5 263 Q445 263 464 258 Q483 253 497 241 Q511 229 512 206 Z " />
<glyph glyph-name="C" unicode="C" horiz-adv-x="664" d="M625 146 Q627 149 631 147 Q635 145 635 141 Q635 137 631 131 Q627 125 623 120 Q593 81 561.5 43.5 Q530 6 497 -31 Q467 -64 431 -94 Q395 -124 354 -142.5 Q313 -161 268 -164.5 Q223 -168 177 -147 Q84 -104 49 -3 Q33 42 31 92.5 Q29 143 35 191 Q46 285 75.5 366.5 Q105 448 160 527 Q182 558 207.5 586 Q233 614 264 637 Q287 655 318 669.5 Q349 684 382 689 Q415 694 446.5 686 Q478 678 502 651 Q514 637 521.5 618 Q529 599 533 578.5 Q537 558 538.5 538.5 Q540 519 539 504 Q537 467 530.5 429 Q524 391 513 352 Q511 347 512.5 343 Q514 339 511 335 Q504 328 499 332 Q495 334 496 341.5 Q497 349 499 354 Q504 377 509 398.5 Q514 420 517 443 Q520 463 522 485.5 Q524 508 523.5 531.5 Q523 555 519 577 Q515 599 505 619 Q495 640 478.5 652.5 Q462 665 441.5 670.5 Q421 676 398.5 675 Q376 674 355 668 Q299 651 250.5 606 Q202 561 165 507 Q126 446 98.5 376.5 Q71 307 57 231 Q46 168 45.5 109.5 Q45 51 66 -5 Q98 -90 176 -130 Q241 -160 303.5 -142.5 Q366 -125 423 -80 Q446 -62 466 -41.5 Q486 -21 505 1 Q533 33 560 65.5 Q587 98 613 131 L625 146 L625 146 Z " />
<glyph glyph-name="D" unicode="D" horiz-adv-x="1175" d="M1093 503 Q1123 471 1134.5 430.5 Q1146 390 1132 344 Q1115 287 1073.5 239.5 Q1032 192 982 152 Q894 84 795 31 Q738 1 679.5 -23.5 Q621 -48 559 -66 Q511 -80 463.5 -89 Q416 -98 367 -102 Q321 -106 274 -103 Q227 -100 181 -89 Q164 -85 145.5 -77.5 Q127 -70 108.5 -59.5 Q90 -49 73.5 -36 Q57 -23 45 -6 Q15 37 21.5 87.5 Q28 138 57 180 Q86 222 129 256 Q161 282 195.5 302 Q230 322 268 338 Q307 355 347 367 Q387 379 429 387 Q437 416 444 445 Q451 474 459 503 Q463 517 468 532.5 Q473 548 478 559 Q481 565 485.5 568 Q490 571 493 568 Q497 564 494 557 Q488 547 483 530.5 Q478 514 473 496 Q466 469 459 443 Q452 417 445 390 Q489 397 539 397.5 Q589 398 638 393 Q687 388 731 378 Q775 368 806 354 Q814 350 824 344 Q834 338 841.5 330 Q849 322 853 312.5 Q857 303 853 291 Q850 282 844 283 Q836 285 840 292 Q844 309 831 320 Q820 331 803.5 338 Q787 345 767 352 Q690 375 608 381.5 Q526 388 441 373 Q433 338 425.5 303 Q418 268 411 233 Q408 217 405 198.5 Q402 180 399 162 Q396 144 394 128 Q392 112 392 100 Q392 93 394 86 Q396 79 396 69 Q395 64 391.5 62.5 Q388 61 386 64 Q381 71 380 77.5 Q379 84 378 92 Q378 103 378 111.5 Q378 120 380 133 Q384 167 390 199.5 Q396 232 403 265 Q408 291 414 317.5 Q420 344 425 370 Q362 359 301.5 336 Q241 313 185 278 Q133 247 92 201 Q73 179 58.5 151 Q44 123 39 93.5 Q34 64 41 35.5 Q48 7 73 -15 Q104 -43 145 -59.5 Q186 -76 232 -83 Q278 -90 325 -89 Q372 -88 415 -82 Q466 -75 515.5 -62 Q565 -49 614 -32 Q694 -3 769 34.5 Q844 72 915 121 Q947 143 976.5 166.5 Q1006 190 1032 218 Q1061 247 1087.5 285 Q1114 323 1122 368 Q1131 424 1101 469 Q1079 502 1044.5 525 Q1010 548 969 564 Q928 580 883.5 590 Q839 600 796 607 Q769 612 741.5 615 Q714 618 686 620 Q601 625 515 620.5 Q429 616 342 598 Q282 585 222 563 Q162 541 114 500 Q99 487 84.5 468 Q70 449 70 426 Q70 404 92 398 Q103 394 115.5 395.5 Q128 397 140 399 Q144 400 152 401 Q160 402 160 395 Q160 388 153 387 Q137 384 122 381.5 Q107 379 88 384 Q71 389 62 401.5 Q53 414 55 431 Q59 462 81 487.5 Q103 513 130 531 Q185 569 251 589.5 Q317 610 386 621 Q434 629 482.5 633 Q531 637 579 638 Q649 638 719 632 Q789 626 861 611 Q891 604 922 595 Q953 586 983 573.5 Q1013 561 1041 544 Q1069 527 1093 503 Z " />
<glyph glyph-name="E" unicode="E" horiz-adv-x="750" d="M282 217 Q234 221 189 227 Q144 233 102 247 Q82 255 64.5 265 Q47 275 36 293 Q22 318 27 343.5 Q32 369 47 392.5 Q62 416 82.5 435.5 Q103 455 120 469 Q145 489 171.5 505 Q198 521 227 536 Q267 556 308 571.5 Q349 587 392 601 Q450 618 509.5 630.5 Q569 643 628 640 Q650 639 671 634.5 Q692 630 706.5 620.5 Q721 611 728 596 Q735 581 730 560 Q728 550 723.5 541 Q719 532 713 524 Q709 514 704 509 Q703 506 700 504.5 Q697 503 695 505 Q691 508 692 512 Q693 516 695 520 Q699 527 702.5 534.5 Q706 542 711 550 Q717 564 716.5 577 Q716 590 708 600 Q692 616 664 621.5 Q636 627 604.5 625.5 Q573 624 544 619.5 Q515 615 497 612 Q424 597 353.5 573 Q283 549 217 514 Q190 498 164 481.5 Q138 465 114 445 Q99 431 81.5 411 Q64 391 53.5 369 Q43 347 43 325 Q43 303 62 286 Q76 272 102 263 Q128 254 158.5 248 Q189 242 220.5 238.5 Q252 235 278 233 Q305 230 332 227.5 Q359 225 385 222 Q413 221 415 210 Q416 202 408.5 197 Q401 192 392 187 Q378 179 364.5 173.5 Q351 168 337 161 Q295 141 254.5 119 Q214 97 176 71 Q150 54 125.5 35 Q101 16 78 -7 Q60 -26 46 -43 Q32 -60 32 -84 Q33 -106 55.5 -109 Q78 -112 106 -106 Q134 -100 159.5 -90.5 Q185 -81 192 -78 Q225 -64 257 -48 Q289 -32 322 -15 Q412 31 493 73.5 Q574 116 652 155 Q654 156 658 158 Q662 160 665.5 160.5 Q669 161 672.5 160.5 Q676 160 677 156 Q679 153 676.5 150.5 Q674 148 672 147 Q647 136 623.5 124 Q600 112 577 100 Q508 64 439.5 28.5 Q371 -7 302 -43 Q271 -59 240.5 -73 Q210 -87 179 -101 Q165 -106 138.5 -114 Q112 -122 85 -124 Q58 -126 38 -118 Q18 -110 18 -83 Q18 -59 36 -33 Q54 -7 80 17 Q106 41 136 62.5 Q166 84 190 99 Q228 122 267 142.5 Q306 163 345 181 Q360 189 376.5 196 Q393 203 393 205 Q393 206 379.5 207.5 Q366 209 348 210.5 Q330 212 311.5 214 Q293 216 282 217 Z " />
<glyph glyph-name="F" unicode="F" horiz-adv-x="713" d="M997 586 Q999 578 995 576 Q989 573 985 580 Q978 594 961.5 599.5 Q945 605 925 609 Q900 613 875 614 Q850 615 824 615 Q764 613 704 609 Q644 604 585.5 597.5 Q527 591 467 581 Q458 579 445.5 576.5 Q433 574 421.5 572 Q410 570 401.5 568 Q393 566 392 566 Q382 492 369 419.5 Q356 347 342 274 Q352 275 367.5 277 Q383 279 400 281.5 Q417 284 434.5 285.5 Q452 287 467 289 Q478 290 502 292.5 Q526 295 552.5 296.5 Q579 298 602 298 Q625 298 634 294 Q636 293 639.5 290.5 Q643 288 641 284 Q639 279 631 280 Q617 283 594.5 283 Q572 283 545.5 281.5 Q519 280 491.5 277 Q464 274 440 271 Q414 268 389.5 264.5 Q365 261 339 259 Q331 221 322.5 182 Q314 143 306 106 Q296 62 285.5 19.5 Q275 -23 262 -66 Q258 -79 254 -91.5 Q250 -104 245 -116 Q243 -120 239.5 -126.5 Q236 -133 231 -135 Q220 -139 218 -129 Q213 -110 215 -74.5 Q217 -39 221 1.5 Q225 42 230 81.5 Q235 121 236 147 Q237 167 237 194.5 Q237 222 232 244 Q227 243 209 240.5 Q191 238 167.5 233.5 Q144 229 119 224 Q94 219 75 214 Q70 212 68 211.5 Q66 211 62 209 Q56 203 52 208 Q49 212 51 215.5 Q53 219 56.5 221.5 Q60 224 64.5 226 Q69 228 72 228 Q110 239 149.5 244.5 Q189 250 229 258 Q224 278 214.5 295 Q205 312 189 324 Q168 341 139.5 347.5 Q111 354 82 357 Q61 359 40.5 361 Q20 363 0 365 Q-5 366 -12.5 367.5 Q-20 369 -26.5 372 Q-33 375 -37 380.5 Q-41 386 -39 394 Q-36 407 -23.5 416.5 Q-11 426 -3 431 Q16 445 36 455.5 Q56 466 77 476 Q128 499 179 518 Q230 537 284 553 Q307 560 331.5 566.5 Q356 573 378 579 Q378 580 379 586.5 Q380 593 380.5 601 Q381 609 382 616.5 Q383 624 384 628 Q385 631 385.5 633 Q386 635 391 635 Q399 635 397 621 Q397 617 396.5 611 Q396 605 395.5 599 Q395 593 394.5 588.5 Q394 584 394 583 Q395 583 405.5 585 Q416 587 431 590 Q446 593 462 595.5 Q478 598 489 600 Q555 609 624.5 617.5 Q694 626 766 630 Q808 632 849.5 631 Q891 630 936 622 Q950 620 963.5 615 Q977 610 986 602 Q994 596 997 586 Z M322 256 Q303 254 284.5 251 Q266 248 248 245 Q251 225 252 204 Q253 183 252 162 Q250 116 244.5 72 Q239 28 234 -21 Q232 -41 230.5 -63 Q229 -85 229 -113 Q246 -66 262 -5.5 Q278 55 292 114 L322 256 Z M325 272 Q328 285 333 310 Q338 335 343.5 365 Q349 395 354.5 427.5 Q360 460 365 488 Q370 516 373 536 Q376 556 377 562 Q281 540 187 505 Q155 493 123 480 Q91 467 61 451 Q44 442 28 433 Q12 424 -3 412 Q-12 406 -20 398 Q-24 394 -25 390.5 Q-26 387 -22 385 Q-13 381 0.5 379 Q14 377 23 376 Q43 374 63 372.5 Q83 371 103 369 Q135 366 166 354.5 Q197 343 218 316 Q226 305 233.5 290 Q241 275 244 261 Q265 263 285 266 Q305 269 325 272 Z " />
<glyph glyph-name="G" unicode="G" horiz-adv-x="789" d="M740 348 Q740 335 737 323.5 Q734 312 729 297 Q719 270 706.5 244.5 Q694 219 679 194 Q675 188 667.5 176.5 Q660 165 658 163 Q669 163 677.5 162 Q686 161 695 158 Q700 157 707 150.5 Q714 144 708 138 Q702 134 699 138 Q690 146 679 147 Q671 148 663 148 Q655 148 647 148 Q639 137 630 126 Q622 117 614 108 Q606 99 601 93 Q569 58 533 29.5 Q497 1 456 -22 Q427 -38 397.5 -49.5 Q368 -61 336 -66 Q324 -68 310.5 -69 Q297 -70 283 -69 Q269 -68 256.5 -63.5 Q244 -59 234 -50 Q221 -38 219 -21.5 Q217 -5 222 12 Q229 36 250.5 55.5 Q272 75 300.5 90.5 Q329 106 360.5 116.5 Q392 127 418 132 Q472 144 528.5 152 Q585 160 640 163 Q644 169 651 179 Q658 189 665.5 201 Q673 213 680.5 225.5 Q688 238 693 249 Q703 269 711.5 291 Q720 313 725 338 Q728 355 711 352 Q685 347 657 338 Q629 329 601 320 Q539 300 477 282 Q415 264 352 248 Q326 242 290.5 234 Q255 226 217.5 221.5 Q180 217 144.5 218.5 Q109 220 84 232 Q41 254 47 304 Q51 342 76 375 Q101 408 133 437 Q190 488 260 526.5 Q330 565 408 590 Q439 600 481 608.5 Q523 617 565.5 617.5 Q608 618 647 609.5 Q686 601 713 577 Q733 560 735.5 534 Q738 508 728 483 Q725 476 720 476 Q716 478 715 480 Q714 482 716 488 Q718 494 719 500.5 Q720 507 721 514 Q722 533 715 546.5 Q708 560 695 569.5 Q682 579 665.5 585.5 Q649 592 631 596 Q556 610 482.5 594 Q409 578 337 548 Q296 529 258 507 Q220 485 183 459 Q166 447 145 428.5 Q124 410 106 388.5 Q88 367 75.5 342 Q63 317 62 292 Q62 276 68.5 265.5 Q75 255 85.5 248 Q96 241 109 238 Q122 235 134 234 Q180 230 233 238.5 Q286 247 343 261 Q397 275 451 290 Q505 305 559 322 Q576 327 599 335 Q622 343 644.5 350 Q667 357 687.5 362 Q708 367 720 367 Q738 367 740 348 Z M477 7 Q519 35 560 72 Q601 109 628 147 Q574 144 521 136 Q468 128 414 116 Q391 111 363.5 101.5 Q336 92 310.5 78 Q285 64 265 46 Q245 28 236 6 Q227 -17 240.5 -34.5 Q254 -52 283 -53 Q303 -54 322 -52.5 Q341 -51 361 -46 Q392 -38 420.5 -24 Q449 -10 477 7 Z " />
<glyph glyph-name="H" unicode="H" horiz-adv-x="689" d="M676 223 Q681 220 681 215 Q681 212 678.5 209.5 Q676 207 673 209 Q663 214 653.5 214 Q644 214 633 214 Q609 213 584.5 210 Q560 207 536 203 Q525 146 515 90.5 Q505 35 495 -22 Q489 -54 484.5 -88.5 Q480 -123 475 -158 Q475 -163 476 -170 Q477 -177 469 -177 Q458 -177 460 -161 Q464 -113 472.5 -66 Q481 -19 489 32 Q497 74 504.5 116 Q512 158 519 201 Q481 193 441.5 186 Q402 179 364 171 Q357 145 351 120 Q345 95 336 69 Q347 59 349 45.5 Q351 32 350 25 Q345 -15 324 -53 Q303 -91 281 -124 Q277 -131 268 -129 Q262 -126 263.5 -120 Q265 -114 267 -109 Q280 -67 291 -26 Q302 15 317 61 Q305 69 284 68.5 Q263 68 240 63.5 Q217 59 195 53 Q173 47 160 44 Q144 40 125 35 Q106 30 87.5 26 Q69 22 53.5 19.5 Q38 17 29 19 Q22 21 20.5 26 Q19 31 21 37 Q24 45 37.5 55 Q51 65 68.5 74.5 Q86 84 104.5 93 Q123 102 137 108 Q190 131 243 149.5 Q296 168 351 183 Q369 247 384 315 Q399 380 410.5 439.5 Q422 499 427 562 Q428 571 428.5 585.5 Q429 600 426.5 613.5 Q424 627 418.5 636 Q413 645 401 643 Q381 639 364 626 Q347 613 332 600 Q303 575 278.5 546.5 Q254 518 231 488 Q228 484 225.5 479 Q223 474 221 471 Q218 465 213 466 Q208 468 208 473 Q208 478 210 482 Q214 490 220.5 499 Q227 508 233 516 Q246 534 266.5 557 Q287 580 309.5 601.5 Q332 623 355 639 Q378 655 398 658 Q409 660 418.5 655.5 Q428 651 433 643 Q442 628 443 599.5 Q444 571 440.5 536.5 Q437 502 431 467.5 Q425 433 420 406 Q409 352 396 297 Q383 242 369 188 Q407 196 445.5 203.5 Q484 211 522 217 Q545 335 569 452.5 Q593 570 617 690 Q619 696 620 698.5 Q621 701 626 700 Q634 698 632.5 691 Q631 684 629 675 Q608 565 584.5 454 Q561 343 539 219 Q562 223 585 225.5 Q608 228 631 229 Q643 229 653.5 228.5 Q664 228 676 223 Z M331 8 Q334 18 335 29 Q336 40 331 51 Q322 22 313 -9 Q304 -40 295 -69 Q317 -35 331 8 Z M322 78 Q324 85 331.5 111 Q339 137 347 166 Q315 158 283.5 147 Q252 136 220 125 Q202 118 172 105 Q142 92 113 78 Q84 64 62.5 51.5 Q41 39 38 33 Q52 33 66.5 36.5 Q81 40 95 44 Q118 50 149 59 Q180 68 212.5 75 Q245 82 274 84 Q303 86 322 78 Z " />
<glyph glyph-name="I" unicode="I" horiz-adv-x="449" d="M433 639 Q435 622 433.5 606 Q432 590 430 573 Q419 495 394.5 419.5 Q370 344 346 259 Q317 160 293.5 69 Q270 -22 256 -116 Q254 -130 252 -146.5 Q250 -163 255 -177 Q257 -175 261.5 -173.5 Q266 -172 269 -176 Q272 -180 267 -185 Q260 -192 251 -190 Q239 -187 237.5 -172.5 Q236 -158 237 -148 Q248 -51 272.5 46.5 Q297 144 325 241 Q348 319 372 397 Q396 475 412 557 Q414 568 417 588.5 Q420 609 418.5 630 Q417 651 409 666.5 Q401 682 381 683 Q360 684 336.5 673 Q313 662 289.5 645 Q266 628 244.5 608 Q223 588 206 570 Q175 538 148.5 502 Q122 466 102 426 Q93 408 86 389.5 Q79 371 74 351 Q71 339 70.5 327 Q70 315 73 309 Q76 303 81 307.5 Q86 312 90 316 Q94 320 98 316 Q102 312 99 308 Q93 297 83 293 Q80 291 74.5 291.5 Q69 292 64 297 Q55 306 55.5 321 Q56 336 58 349 Q63 371 70.5 391.5 Q78 412 88 432 Q111 478 141.5 518 Q172 558 208 594 Q222 608 244 627 Q266 646 290.5 663 Q315 680 341.5 690 Q368 700 391 696 Q412 692 421.5 675.5 Q431 659 433 639 Z " />
<glyph glyph-name="J" unicode="J" horiz-adv-x="766" d="M494 668 Q554 666 610 646 Q666 626 701 579 Q715 561 723.5 537 Q732 513 735.5 486 Q739 459 737 431.5 Q735 404 729 379 Q705 298 663 226.5 Q621 155 566 94 Q495 14 417 -47 Q339 -108 245 -140 Q218 -149 180 -156 Q142 -163 106.5 -160.5 Q71 -158 44 -141.5 Q17 -125 10 -87 Q8 -55 22.5 -25.5 Q37 4 56 26 Q101 78 157.5 115.5 Q214 153 275 179 Q304 191 340.5 205.5 Q377 220 414 231.5 Q451 243 483.5 250 Q516 257 536 256 Q547 254 556 250 Q565 246 567 235 Q569 229 563 226 Q557 224 555 230 Q552 237 545 240 Q538 243 529.5 243 Q521 243 513 241.5 Q505 240 499 239 Q430 225 365.5 200.5 Q301 176 241 147 Q206 129 173 108 Q140 87 111 61 Q95 46 78 28 Q61 10 48 -9.5 Q35 -29 28.5 -51 Q22 -73 27 -95 Q39 -123 63 -134.5 Q87 -146 115.5 -147.5 Q144 -149 173.5 -143 Q203 -137 224 -131 Q317 -102 394 -45 Q471 12 534 80 Q592 145 637 213.5 Q682 282 707 358 Q718 397 721 435.5 Q724 474 715.5 508.5 Q707 543 686.5 571.5 Q666 600 631 620 Q594 639 555 646.5 Q516 654 476.5 652.5 Q437 651 398.5 642 Q360 633 324 619 Q238 580 174 519.5 Q110 459 81 377 Q70 346 70 310.5 Q70 275 84 252 Q103 217 144 210 Q149 209 158 208.5 Q167 208 167 201 Q167 197 164 195.5 Q161 194 159 194 Q137 195 118.5 201.5 Q100 208 85 225 Q63 249 57.5 278.5 Q52 308 56 338 Q63 380 80.5 416.5 Q98 453 122.5 485 Q147 517 178 544 Q209 571 242 593 Q302 630 365 649 Q428 668 494 668 Z " />
<glyph glyph-name="K" unicode="K" horiz-adv-x="525" d="M643 670 Q645 663 636 658 Q624 650 613.5 643 Q603 636 588 625 Q536 587 486.5 546 Q437 505 389 462 Q368 443 332.5 409.5 Q297 376 260 339.5 Q223 303 189.5 268.5 Q156 234 138 213 Q134 193 129 165.5 Q124 138 119.5 112 Q115 86 111.5 66.5 Q108 47 107 42 Q140 51 180.5 61.5 Q221 72 263.5 79.5 Q306 87 348 89.5 Q390 92 426 87 Q437 85 450 79.5 Q463 74 465 60 Q467 49 461 48 Q454 46 452 55 Q450 64 442.5 67 Q435 70 424 72 Q394 76 353 73 Q312 70 267.5 62.5 Q223 55 179.5 44.5 Q136 34 103 24 Q97 -11 91.5 -48.5 Q86 -86 82 -121 Q81 -134 80 -147.5 Q79 -161 80 -175 Q82 -177 84.5 -182 Q87 -187 85 -189 Q76 -198 69 -186 Q65 -178 65 -166.5 Q65 -155 65 -144 Q67 -102 73.5 -62 Q80 -22 87 19 Q64 11 40 2.5 Q16 -6 -7 -14 Q-15 -16 -26.5 -19 Q-38 -22 -46 -22 Q-60 -22 -58 -9 Q-57 1 -49.5 13.5 Q-42 26 -34 37 Q-17 63 3.5 86.5 Q24 110 44 133 Q64 156 84.5 178.5 Q105 201 125 222 Q132 255 140.5 292.5 Q149 330 158 367.5 Q167 405 176 441.5 Q185 478 193 509 Q200 538 206 563 Q212 588 218 617 Q220 624 221.5 635.5 Q223 647 223 654 Q215 648 209.5 641.5 Q204 635 193 622 Q176 601 160.5 580.5 Q145 560 128 538 Q125 535 121.5 532.5 Q118 530 114 534 Q111 537 114.5 543 Q118 549 122 554 Q133 569 144 584 Q155 599 166 614 Q178 630 192 646.5 Q206 663 218 670 Q226 674 232 670 Q238 666 238 657 Q238 632 229.5 597 Q221 562 213 529 Q204 494 195.5 461 Q187 428 179 393.5 Q171 359 162.5 322.5 Q154 286 145 244 Q170 269 194.5 295.5 Q219 322 244 347 Q318 421 395 489 Q472 557 555 620 Q573 634 591 646.5 Q609 659 627 672 Q632 676 636.5 676 Q641 676 643 670 Z M118 192 Q102 175 89.5 161.5 Q77 148 62 131 Q42 108 23 85.5 Q4 63 -14 39 Q-22 28 -31 14.5 Q-40 1 -44 -8 Q-39 -7 -31.5 -5 Q-24 -3 -19 -1 Q10 9 35 17.5 Q60 26 89 37 L118 192 Z " />
<glyph glyph-name="L" unicode="L" horiz-adv-x="466" d="M293 623 Q288 616 286.5 612.5 Q285 609 282 604 Q280 596 274 597 Q265 599 269 609 Q274 620 280 630.5 Q286 641 294 649 Q301 656 305.5 654.5 Q310 653 311 648 Q313 640 309 626 Q305 612 303 603 Q295 574 284.5 545 Q274 516 263 487 Q232 402 201 318 Q170 234 139 149 Q126 114 114 78.5 Q102 43 90 8 Q85 -9 80 -27 Q75 -45 72 -60.5 Q69 -76 69 -88 Q69 -100 72 -105 Q76 -111 85 -110 Q94 -109 104 -106 Q114 -103 123 -99 Q132 -95 136 -93 Q162 -80 189 -67.5 Q216 -55 244 -44 Q269 -34 296 -23.5 Q323 -13 349 -4 Q375 5 399.5 11 Q424 17 443 20 Q465 24 482.5 19.5 Q500 15 504 -1 Q505 -6 500 -9 Q498 -10 494.5 -9 Q491 -8 491 -5 Q487 2 479.5 4.5 Q472 7 463 7 Q454 7 445.5 5 Q437 3 431 2 Q400 -6 371.5 -14.5 Q343 -23 309 -35 Q252 -56 201 -80 Q150 -104 101 -123 Q88 -127 76.5 -125 Q65 -123 58 -110 Q51 -97 54.5 -69.5 Q58 -42 67 -11 Q76 20 86.5 49.5 Q97 79 104 96 Q128 163 152.5 229 Q177 295 201 361 Q219 411 237 460 Q255 509 273 560 Q278 576 283 591.5 Q288 607 293 623 Z " />
<glyph glyph-name="M" unicode="M" horiz-adv-x="673" d="M665 678 Q627 627 593.5 574.5 Q560 522 527 467 Q480 387 437 306.5 Q394 226 352 144 Q340 121 326 97 Q312 73 298 55 Q292 48 284.5 49 Q277 50 273 59 Q267 72 265 92 Q263 112 263 133 Q263 154 264.5 175 Q266 196 267 213 Q270 264 275 307 Q280 350 285 395 Q290 437 293.5 473.5 Q297 510 299 548 Q299 556 298.5 571.5 Q298 587 292 589 Q286 591 276 577.5 Q266 564 257 550 Q241 523 228 498.5 Q215 474 203 450 Q191 426 180 402 Q169 378 157 351 Q138 309 121.5 267.5 Q105 226 89 183 Q72 132 57 81 Q42 30 29 -22 L17 -73 Q15 -77 14.5 -81 Q14 -85 9 -85 Q0 -84 3 -72 Q8 -52 12 -32.5 Q16 -13 21 7 Q38 76 60 142.5 Q82 209 108 275 Q127 321 150 375 Q173 429 197 477 Q221 525 243.5 559 Q266 593 283 601 Q290 604 297 603 Q304 602 308 594 Q312 585 313.5 571 Q315 557 314 541 Q313 525 311.5 508.5 Q310 492 309 478 Q301 399 292 323 Q283 247 280 170 Q279 144 279 115.5 Q279 87 287 63 Q304 85 319 113.5 Q334 142 348 168 Q388 248 430 325.5 Q472 403 517 480 Q540 520 563.5 558.5 Q587 597 613 635 Q624 650 637 668 Q650 686 661 694 Q667 699 672.5 697 Q678 695 679 687 Q680 673 675.5 652 Q671 631 666 613 Q655 568 644 524.5 Q633 481 622 437 Q607 373 592.5 307 Q578 241 565.5 175 Q553 109 543.5 45.5 Q534 -18 529 -77 Q528 -91 528 -98.5 Q528 -106 529 -114 Q530 -119 525 -123 Q520 -125 516 -120 Q513 -116 512.5 -108 Q512 -100 512 -92 Q514 -36 526 41.5 Q538 119 555 204.5 Q572 290 592 377.5 Q612 465 631 540 Q642 580 650.5 614 Q659 648 665 678 Z " />
<glyph glyph-name="N" unicode="N" horiz-adv-x="635" d="M573 264 Q563 226 549.5 181.5 Q536 137 516.5 94 Q497 51 471.5 13.5 Q446 -24 412 -47 Q396 -58 378.5 -60.5 Q361 -63 344 -55 Q318 -38 302 -7.5 Q286 23 276.5 62 Q267 101 263 145 Q259 189 258.5 234 Q258 279 259.5 322 Q261 365 262 400 Q263 431 265 461 Q267 491 266 521 Q266 526 266 536 Q266 546 264 548 Q259 543 250.5 527 Q242 511 238 501 Q217 453 198.5 405 Q180 357 162 308 Q129 211 98.5 111.5 Q68 12 48 -76 Q47 -81 48.5 -87.5 Q50 -94 44 -94 Q36 -95 34 -86 Q32 -77 34 -72 Q55 20 79 103 Q103 186 132 271 Q146 310 164 359 Q182 408 199.5 451.5 Q217 495 233 526.5 Q249 558 259 562 Q264 565 269 564 Q274 563 276 558 Q281 541 280.5 509.5 Q280 478 279 455 Q277 399 274 341 Q271 283 272.5 226.5 Q274 170 282 116 Q290 62 308 13 Q325 -19 342 -35.5 Q359 -52 387 -43 Q414 -31 435 -8.5 Q456 14 472.5 41 Q489 68 501.5 97 Q514 126 524 150 Q558 247 568 336.5 Q578 426 572 521 Q568 559 563.5 595.5 Q559 632 546 666 Q542 673 538 673 Q533 672 532 676.5 Q531 681 534 684 Q539 691 546.5 686.5 Q554 682 557 677 Q565 665 570.5 640 Q576 615 579 592 Q593 504 590 421.5 Q587 339 573 264 Z " />
<glyph glyph-name="O" unicode="O" horiz-adv-x="482" d="M320 11 Q303 -15 283 -41 Q263 -67 239 -87.5 Q215 -108 187.5 -120.5 Q160 -133 129 -131 Q110 -130 96.5 -122 Q83 -114 73 -102 Q63 -90 57 -75.5 Q51 -61 48 -46 Q36 16 48.5 75.5 Q61 135 80 191 Q83 200 89.5 217 Q96 234 103 252 Q110 270 116 286 Q122 302 124 309 Q114 348 112 391 Q110 433 116.5 473.5 Q123 514 143 552 Q167 594 204 625.5 Q241 657 289 662 Q320 663 344 653 Q368 643 384.5 626 Q401 609 411 586.5 Q421 564 425 540 Q437 478 435 407.5 Q433 337 418.5 266.5 Q404 196 378.5 130 Q353 64 320 11 Z M130 283 Q123 265 111.5 234.5 Q100 204 92 179 Q81 147 72.5 114 Q64 81 60 47 Q57 22 58.5 -5.5 Q60 -33 68 -56.5 Q76 -80 91 -96.5 Q106 -113 129 -114 Q172 -117 210.5 -88.5 Q249 -60 280 -17.5 Q311 25 334.5 72.5 Q358 120 371 156 Q401 249 414 346 Q427 443 410 537 Q405 561 395 582 Q385 603 370 618.5 Q355 634 334.5 641.5 Q314 649 288 646 Q263 642 241 630 Q219 618 201 601.5 Q183 585 169.5 565 Q156 545 147 524 Q136 499 131.5 473.5 Q127 448 126 422 Q125 399 126.5 376.5 Q128 354 133 330 Q139 344 145.5 356.5 Q152 369 158 380 Q170 400 178 401 Q190 403 190 392 Q190 389 187.5 388 Q185 387 183 387 Q179 387 175.5 381 Q172 375 170 372 Q162 357 154 342.5 Q146 328 140 308 Q143 286 151.5 264 Q160 242 165 231 Q171 216 178.5 205 Q186 194 192 188 Q196 185 195 180.5 Q194 176 190 175 Q184 173 174 185 Q152 215 130 283 Z " />
<glyph glyph-name="P" unicode="P" horiz-adv-x="677" d="M630 583 Q647 540 647 494.5 Q647 449 635 404 Q623 359 603.5 317 Q584 275 562 239 Q542 207 509.5 167 Q477 127 438 92 Q399 57 356.5 32.5 Q314 8 276 7 Q253 6 232 11 Q211 16 192 31 Q166 53 154 86.5 Q142 120 141 154 Q131 97 124 39 Q117 -19 115 -75 Q115 -80 115 -89 Q115 -98 115.5 -106.5 Q116 -115 117.5 -121.5 Q119 -128 121 -129 Q131 -133 131 -138 Q131 -148 118 -145 Q106 -141 103 -126.5 Q100 -112 100 -99 Q100 -64 102.5 -24.5 Q105 15 111 60 Q114 85 119 114 Q124 143 129 171 Q134 199 139 224.5 Q144 250 149 270 Q160 320 171 363.5 Q182 407 195 455 Q196 458 197 463 Q198 468 200.5 473 Q203 478 205.5 481 Q208 484 212 483 Q220 481 216 468 Q202 420 189.5 371 Q177 322 166 272 Q160 245 158 215.5 Q156 186 156 160 Q156 146 158 130 Q160 114 165 97.5 Q170 81 178.5 67 Q187 53 200 44 Q230 23 264 23.5 Q298 24 332.5 40 Q367 56 400 82.5 Q433 109 461.5 139 Q490 169 512.5 199 Q535 229 548 251 Q564 277 579 307.5 Q594 338 605.5 370 Q617 402 624 434.5 Q631 467 631 496 Q630 571 590 621.5 Q550 672 469 683 Q371 696 283 648 Q218 611 165 549.5 Q112 488 87 412 Q80 391 76.5 367.5 Q73 344 79 321 Q82 309 88.5 301 Q95 293 91 288 Q85 283 79 289 Q73 295 70 302 Q63 318 61 339 Q58 383 75 429 Q92 475 121 517.5 Q150 560 189 596.5 Q228 633 269 657 Q295 673 325.5 683.5 Q356 694 386 699 Q421 704 458 700.5 Q495 697 528 683 Q561 669 588 644.5 Q615 620 630 583 Z " />
<glyph glyph-name="Q" unicode="Q" horiz-adv-x="535" d="M481 -111 Q483 -111 487.5 -110.5 Q492 -110 493 -115 Q494 -121 487.5 -123 Q481 -125 473 -125 Q457 -125 442 -122 Q412 -116 382 -107.5 Q352 -99 323 -91 Q319 -90 305.5 -86 Q292 -82 277 -77.5 Q262 -73 248.5 -69 Q235 -65 232 -64 Q218 -70 197.5 -82.5 Q177 -95 159 -102 Q118 -118 79 -115 Q29 -109 -2 -72 Q-10 -63 -14.5 -52 Q-19 -41 -18 -30 Q-17 -19 -10.5 -10.5 Q-4 -2 10 3 Q29 9 46.5 6.5 Q64 4 83 -1 Q120 -10 155.5 -22.5 Q191 -35 228 -47 Q277 -3 323 51.5 Q369 106 396 163 Q427 228 452.5 298.5 Q478 369 487 444 Q492 485 490 530 Q488 575 468 614 Q454 641 431.5 658 Q409 675 373 676 Q338 677 305 659.5 Q272 642 243.5 614.5 Q215 587 191 552.5 Q167 518 150 484 Q133 449 119 405.5 Q105 362 97 315.5 Q89 269 87.5 223.5 Q86 178 93 140 Q94 135 98 126 Q102 117 108 116 Q111 116 112.5 112.5 Q114 109 112 107 Q109 102 102.5 103.5 Q96 105 91 110 Q82 118 77.5 139 Q73 160 71.5 184.5 Q70 209 71 233.5 Q72 258 74 274 Q84 355 112 433.5 Q140 512 191 580 Q208 602 231 624.5 Q254 647 281 663.5 Q308 680 338.5 687.5 Q369 695 401 688 Q437 679 463 649 Q485 622 494.5 588.5 Q504 555 505.5 518 Q507 481 502 442.5 Q497 404 489 367 Q474 308 452.5 250.5 Q431 193 401.5 139.5 Q372 86 333.5 37 Q295 -12 247 -52 Q271 -59 301.5 -69 Q332 -79 364.5 -88 Q397 -97 427.5 -104 Q458 -111 481 -111 Z M126 -97 Q154 -90 175 -79 Q196 -68 213 -57 Q190 -49 167.5 -41.5 Q145 -34 120 -26 Q103 -21 85 -15.5 Q67 -10 47 -8 Q41 -7 32.5 -7.5 Q24 -8 16.5 -10 Q9 -12 3 -17.5 Q-3 -23 -3 -33 Q-3 -42 2.5 -51.5 Q8 -61 14 -68 Q34 -89 63 -97 Q92 -105 126 -97 Z " />
<glyph glyph-name="R" unicode="R" horiz-adv-x="545" d="M522 -2 Q523 -3 529 -7.5 Q535 -12 541 -18 Q547 -24 550 -29.5 Q553 -35 549 -38 Q545 -42 539 -36 Q532 -29 526 -23.5 Q520 -18 513 -14 Q478 6 436.5 25.5 Q395 45 350 62 Q305 79 259 94.5 Q213 110 170 123 Q162 91 156 56.5 Q150 22 150 -13 Q150 -17 150 -27.5 Q150 -38 152 -47 Q156 -50 155.5 -54.5 Q155 -59 153 -61 Q148 -65 142.5 -60 Q137 -55 135 -47 Q131 -33 130.5 -12 Q130 9 132 33 Q134 57 138 82 Q142 107 146 128 Q139 130 119 134 Q99 138 86 140 Q72 134 54 127.5 Q36 121 22 118 Q15 116 3 115.5 Q-9 115 -19 119 Q-27 122 -28.5 129 Q-30 136 -23 143 Q-12 152 3.5 155 Q19 158 36 158 Q47 158 61.5 157.5 Q76 157 84 156 Q103 165 125 176.5 Q147 188 164 199 Q183 264 203.5 334.5 Q224 405 250 482 Q253 492 261.5 518.5 Q270 545 277.5 574 Q285 603 290.5 628 Q296 653 293 662 Q288 660 284.5 657 Q281 654 276 650 Q262 635 247.5 617 Q233 599 223 582 Q225 580 226.5 577.5 Q228 575 225 570 Q220 563 213.5 556.5 Q207 550 200 552 Q194 555 196 561 Q198 567 201 574 Q214 597 234.5 627 Q255 657 282 674 Q291 680 299 676.5 Q307 673 309 662 Q311 653 309 639 Q307 625 303.5 607.5 Q300 590 294.5 571 Q289 552 284 534 Q278 514 272.5 495.5 Q267 477 261 458.5 Q255 440 248.5 419 Q242 398 234 373 Q244 397 262 427 Q280 457 303.5 488 Q327 519 354.5 548 Q382 577 410.5 599 Q439 621 466.5 632.5 Q494 644 519 641 Q546 637 551 613 Q556 589 548 564 Q536 525 510 488.5 Q484 452 453 418 Q393 352 325.5 295.5 Q258 239 184 193 Q183 187 181 178 Q179 169 177.5 160.5 Q176 152 174.5 145.5 Q173 139 173 138 Q173 138 190.5 132 Q208 126 232.5 118 Q257 110 284 101 Q311 92 330 85 Q378 66 428 45.5 Q478 25 522 -2 Z M223 315 Q212 292 203.5 266.5 Q195 241 188 215 Q200 222 217.5 233.5 Q235 245 253.5 259 Q272 273 291 288 Q310 303 326 317 Q362 348 395.5 380 Q429 412 459 448 Q471 461 483.5 478.5 Q496 496 507 514 Q518 532 526 550.5 Q534 569 537 584 Q539 596 535.5 610 Q532 624 517 626 Q504 628 490 624 Q476 620 462 612.5 Q448 605 434.5 595.5 Q421 586 409 576 Q381 553 357.5 527 Q334 501 313 472 Q286 435 264 396 Q242 357 223 315 Z M-11 132 Q5 130 20.5 134 Q36 138 50 143 Q36 143 19.5 142 Q3 141 -11 132 Z M149 144 Q151 153 153 160.5 Q155 168 157 176 Q145 170 134 164 Q123 158 111 151 Q121 149 130.5 147.5 Q140 146 149 144 Z " />
<glyph glyph-name="S" unicode="S" horiz-adv-x="581" d="M79 -183 Q53 -178 46 -163 Q39 -148 42 -128 Q50 -99 71 -68.5 Q92 -38 110 -15 Q120 -3 133 12.5 Q146 28 160.5 42 Q175 56 189 66.5 Q203 77 215 79 Q220 81 226 79.5 Q232 78 232 72 Q230 66 225 66 Q210 64 196.5 52.5 Q183 41 173 32 Q158 16 137.5 -7.5 Q117 -31 99 -55.5 Q81 -80 68.5 -104 Q56 -128 56 -144 Q56 -162 72 -167 Q88 -172 101 -170 Q141 -166 186.5 -143.5 Q232 -121 266 -95 Q293 -74 319 -50 Q345 -26 368 0.5 Q391 27 409.5 55 Q428 83 439 111 Q451 143 447 173.5 Q443 204 416 227 Q391 246 360.5 257.5 Q330 269 297.5 276.5 Q265 284 232.5 289.5 Q200 295 171 301 Q155 304 135 308 Q115 312 96.5 319 Q78 326 64.5 336.5 Q51 347 49 364 Q46 383 55.5 402.5 Q65 422 80.5 440 Q96 458 113.5 474 Q131 490 145 501 Q193 539 244 572 Q295 605 350 631 Q374 643 407.5 656.5 Q441 670 477 679 Q513 688 548.5 689 Q584 690 612 676 Q626 668 632 657 Q638 646 638 633.5 Q638 621 634 608 Q630 595 624 583 Q604 547 578 515 Q552 483 523 457 Q515 449 504.5 443 Q494 437 487 436 Q473 433 469 447 Q467 454 471 468 Q475 482 481 494 Q498 530 525 566 Q527 569 530 572 Q533 575 538 572 Q543 569 539.5 562.5 Q536 556 534 554 Q520 534 510 517 Q500 500 492 483 Q488 475 485.5 467 Q483 459 484 451 Q489 451 498.5 458 Q508 465 513 469 Q566 517 601 573 Q607 583 613 596 Q619 609 621 621.5 Q623 634 619 645.5 Q615 657 602 664 Q579 675 551.5 674 Q524 673 499 668 Q464 661 430.5 649 Q397 637 365 621 Q242 562 137 474 Q114 455 96 435 Q78 415 68 392 Q58 364 76 348 Q99 330 141.5 322 Q184 314 229 306 Q293 295 336 282.5 Q379 270 414 248 Q440 230 453.5 205 Q467 180 464 150 Q457 101 431.5 60.5 Q406 20 375 -15 Q345 -48 311.5 -77.5 Q278 -107 240 -132 Q221 -144 199.5 -154.5 Q178 -165 156.5 -172.5 Q135 -180 115 -183 Q95 -186 79 -183 Z " />
<glyph glyph-name="T" unicode="T" horiz-adv-x="324" d="M300 646 Q348 653 393 658 Q438 663 484 667 Q532 669 577.5 672 Q623 675 668 672 Q677 672 688 670.5 Q699 669 710 666.5 Q721 664 729 660.5 Q737 657 740 652 Q747 642 744 632 Q742 625 736 627 Q730 627 730 634 Q731 641 722 646 Q713 651 698 654 Q683 657 665.5 658 Q648 659 631 659 Q614 659 601 658.5 Q588 658 583 658 Q544 656 509 653 Q474 650 440 647 Q406 644 371.5 639.5 Q337 635 299 630 Q294 576 284.5 524 Q275 472 264 420 Q241 306 217 194 Q193 82 167 -30 Q162 -50 157 -67.5 Q152 -85 147 -98 Q145 -103 141 -104.5 Q137 -106 134 -105 Q129 -104 127.5 -99.5 Q126 -95 126 -90 Q127 -80 129.5 -65.5 Q132 -51 134 -40 Q145 23 156 77 Q167 131 175 189 Q181 241 176.5 286 Q172 331 147 366 Q129 391 103.5 406 Q78 421 49.5 429.5 Q21 438 -8 442.5 Q-37 447 -64 452 Q-79 455 -97 457.5 Q-115 460 -132 463 Q-149 466 -162.5 470 Q-176 474 -182 479 Q-193 487 -186 500 Q-180 509 -169 515 Q-158 521 -150 525 Q-127 536 -103.5 545 Q-80 554 -56 562 Q-9 578 38 591 Q85 604 134 615 Q173 624 214.5 632 Q256 640 285 644 Q286 655 286.5 664.5 Q287 674 289 684 Q290 691 296 691 Q301 691 302 687 Q303 683 303 681 Q301 673 301 663 Q301 653 300 646 Z M283 628 Q250 625 219 618 Q188 611 157 605 Q103 593 49.5 578.5 Q-4 564 -55 546 Q-77 538 -99.5 530.5 Q-122 523 -143 512 Q-149 509 -160 503 Q-171 497 -171 492 Q-171 488 -162.5 485.5 Q-154 483 -146 481 Q-104 474 -65.5 468 Q-27 462 10 454 Q59 444 101.5 423.5 Q144 403 167 363 Q190 321 193.5 276 Q197 231 190 187 Q183 129 172 75.5 Q161 22 150 -32 Q172 61 190.5 143 Q209 225 226 308 Q248 409 262 484 Q276 559 283 628 Z " />
<glyph glyph-name="U" unicode="U" horiz-adv-x="604" d="M50 170 Q50 135 54 97.5 Q58 60 68.5 25 Q79 -10 97 -41 Q115 -72 144 -95 Q166 -112 188.5 -115.5 Q211 -119 232.5 -114 Q254 -109 274 -97 Q294 -85 311 -69 Q356 -25 385 24.5 Q414 74 437 125 Q460 181 480 240 Q500 299 516 355.5 Q532 412 543 462.5 Q554 513 559 553 Q562 575 563.5 591 Q565 607 565 621 Q565 628 571 630 Q580 630 580 622 Q580 616 580 610 Q580 604 579 599 Q576 556 565.5 500.5 Q555 445 540 385 Q525 325 505.5 264.5 Q486 204 465 152 Q450 113 426.5 65.5 Q403 18 372 -24.5 Q341 -67 302.5 -97.5 Q264 -128 218 -132 Q195 -134 175 -128 Q155 -122 138 -110 Q121 -98 107 -82 Q93 -66 83 -48 Q53 6 43 64 Q33 122 35 179 Q39 324 91 460 Q100 484 116.5 519 Q133 554 154.5 586.5 Q176 619 201.5 640.5 Q227 662 254 659 Q266 658 273.5 648 Q281 638 285 624.5 Q289 611 289.5 596 Q290 581 287 571 Q283 558 278 554 Q274 551 270 553 Q266 555 264 560 Q262 568 268 571.5 Q274 575 274 582 Q274 590 274 600.5 Q274 611 271 621 Q268 631 262 637.5 Q256 644 246 644 Q229 642 213 629 Q197 616 183.5 599 Q170 582 159 563.5 Q148 545 141 533 Q120 494 104.5 453 Q89 412 78 370 Q64 315 57 266.5 Q50 218 50 170 Z " />
<glyph glyph-name="V" unicode="V" horiz-adv-x="452" d="M551 652 Q551 646 544 646 Q539 646 535 642 Q505 610 474.5 569.5 Q444 529 414.5 485 Q385 441 357.5 395.5 Q330 350 306 310 Q250 213 201.5 116 Q153 19 102 -89 Q99 -96 93 -106 Q87 -116 82 -121 Q70 -133 61 -120 Q56 -113 54 -93 Q52 -73 51 -49 Q50 -25 50 -2 Q50 21 51 32 Q55 125 64 215 Q73 305 85 408 Q88 433 91 454 Q94 475 96.5 496 Q99 517 101 538.5 Q103 560 104 586 Q105 597 102.5 601.5 Q100 606 102 610 Q104 613 108 614 Q112 615 114 611 Q119 603 119.5 582.5 Q120 562 118 542 Q113 482 103.5 401.5 Q94 321 85 235 Q76 149 70 65.5 Q64 -18 68 -83 Q69 -91 70 -100.5 Q71 -110 73 -110 Q76 -110 87 -86.5 Q98 -63 115.5 -25 Q133 13 156 61.5 Q179 110 205 160 Q245 237 292 316 Q339 395 386 468 Q399 488 420.5 520 Q442 552 465 582.5 Q488 613 508 636 Q528 659 539 660 Q551 661 551 652 Z " />
<glyph glyph-name="W" unicode="W" horiz-adv-x="753" d="M619 631 Q641 616 656 588 Q671 560 681 524 Q691 488 696 446.5 Q701 405 702 363.5 Q703 322 700.5 283 Q698 244 692 212 Q674 134 632 61.5 Q590 -11 527 -63 Q516 -71 502.5 -79.5 Q489 -88 475 -94.5 Q461 -101 446 -103.5 Q431 -106 416 -102 Q387 -96 367 -75 Q347 -54 333 -25 Q313 18 307 66 Q301 114 303 163 Q304 201 308 236.5 Q312 272 317 309 Q293 253 264 200.5 Q235 148 203 97 Q186 69 167.5 42.5 Q149 16 129 -10 Q115 -27 97.5 -46 Q80 -65 63 -67 Q56 -68 49 -65.5 Q42 -63 37 -56 Q26 -41 23 -19.5 Q20 2 20 23 Q22 63 29 101.5 Q36 140 46 178 Q59 227 75 273.5 Q91 320 111 366 Q115 376 122 390 Q129 404 136.5 417.5 Q144 431 151.5 442 Q159 453 166 457 Q174 462 179 459 Q184 456 185 449 Q187 435 182.5 416 Q178 397 170 381 Q168 378 165.5 373.5 Q163 369 158 370 Q154 371 153.5 375 Q153 379 155 383 Q163 397 166.5 412 Q170 427 172 442 Q166 438 157 423.5 Q148 409 143 398 Q111 338 89.5 272 Q68 206 51 134 Q47 117 43 92.5 Q39 68 37 43 Q35 18 36.5 -4.5 Q38 -27 45 -41 Q49 -49 54 -52 Q59 -55 69 -50 Q83 -43 100 -22 Q117 -1 131 17 Q178 82 218.5 150 Q259 218 292 291 Q317 343 332 395 Q334 400 335.5 403 Q337 406 342 405 Q347 404 347.5 399.5 Q348 395 347 389 Q344 366 339.5 344 Q335 322 331 299 Q326 267 323 236.5 Q320 206 319 174 Q318 146 318.5 115.5 Q319 85 324.5 54 Q330 23 340.5 -5.5 Q351 -34 371 -58 Q388 -76 409.5 -84.5 Q431 -93 456 -85 Q492 -73 526.5 -43 Q561 -13 590 27.5 Q619 68 641.5 115.5 Q664 163 676 210 Q681 238 684 274.5 Q687 311 687 351 Q687 391 683 432 Q679 473 670 509 Q661 545 647 573 Q633 601 612 617 Q607 621 603 619 Q596 616 593 620 Q590 625 595 630 Q606 639 619 631 Z " />
<glyph glyph-name="X" unicode="X" horiz-adv-x="518" d="M332 -84 Q337 -84 339 -91 Q340 -94 338.5 -98.5 Q337 -103 335 -104 Q329 -108 322 -96 Q297 -16 286 69.5 Q275 155 267 236 Q265 233 251.5 214 Q238 195 219.5 169 Q201 143 181.5 115.5 Q162 88 148 67 Q132 43 110 9.5 Q88 -24 66.5 -58.5 Q45 -93 27.5 -124.5 Q10 -156 3 -176 Q-2 -191 4 -195 Q8 -198 5 -203 Q3 -208 -2 -206 Q-12 -201 -13.5 -194 Q-15 -187 -13 -179 Q-4 -144 18.5 -107 Q41 -70 61 -38 Q109 37 161.5 112 Q214 187 266 259 Q263 337 263 419 L263 546 Q263 564 261 580.5 Q259 597 255 607 Q242 598 230 580.5 Q218 563 210 547 Q208 542 208 535 Q208 531 203 529 Q197 529 196 533 Q194 541 196 547 Q198 553 200 560 Q206 573 219 592 Q232 611 246 619 Q262 627 269 611 Q274 603 276 585 Q278 567 278 553 Q280 484 278.5 416.5 Q277 349 281 281 Q359 383 434 471.5 Q509 560 590 642 Q598 650 606.5 658 Q615 666 623 674 Q636 687 647 678 Q653 673 650 668 Q647 665 643.5 666 Q640 667 638 669 L629 660 Q614 644 598.5 628.5 Q583 613 567 597 Q490 516 418.5 430.5 Q347 345 281 255 Q290 163 300 80 Q310 -3 332 -84 Z " />
<glyph glyph-name="Y" unicode="Y" horiz-adv-x="499" d="M482 655 Q485 646 485.5 631 Q486 616 485 598.5 Q484 581 481.5 563.5 Q479 546 478 533 Q469 450 454 383 Q439 316 419 242 Q425 238 428 229 Q432 221 424 218 Q420 216 418 218.5 Q416 221 414 224 Q392 147 355.5 72.5 Q319 -2 265 -59 Q248 -77 223.5 -96 Q199 -115 171 -128.5 Q143 -142 114 -146.5 Q85 -151 59 -140 Q24 -125 18 -86 Q15 -56 25.5 -26.5 Q36 3 55 29.5 Q74 56 98.5 78.5 Q123 101 147 119 Q224 178 308 220 Q329 231 355 240.5 Q381 250 405 247 Q424 313 439.5 389.5 Q455 466 463 535 Q464 548 466 567 Q468 586 469.5 603 Q471 620 471 633 Q471 646 469 647 Q464 643 454.5 630.5 Q445 618 438 608 Q384 530 330.5 452.5 Q277 375 217 298 Q205 283 195 271 Q185 259 171 246 Q161 236 147.5 228 Q134 220 122 223 Q114 225 109 231 Q104 237 101.5 244.5 Q99 252 98 259.5 Q97 267 97 272 Q95 306 103.5 347.5 Q112 389 127 432.5 Q142 476 161.5 519 Q181 562 200 598 Q205 608 213 620.5 Q221 633 229 645 Q237 657 245.5 665.5 Q254 674 261 676 Q272 678 275.5 669.5 Q279 661 279 647 Q279 632 274 612.5 Q269 593 261 576 Q259 571 256 566.5 Q253 562 247 566 Q242 569 245 575 Q248 581 251 589 Q254 596 256.5 606.5 Q259 617 261 627.5 Q263 638 263.5 646.5 Q264 655 262 660 Q256 655 248 645 Q240 635 235 627 Q205 577 181 525.5 Q157 474 135 405 Q129 386 123.5 362 Q118 338 115 315.5 Q112 293 112 273.5 Q112 254 117 244 Q122 233 134.5 238.5 Q147 244 156 252 Q190 284 219.5 324.5 Q249 365 279 408 Q316 459 352.5 511 Q389 563 427 619 Q435 631 445 643.5 Q455 656 463 661 Q469 665 474.5 662.5 Q480 660 482 655 Z M346 90 Q362 125 374.5 157.5 Q387 190 401 232 Q381 235 359 226.5 Q337 218 311 205 Q254 175 195.5 136 Q137 97 94 51 Q82 38 70.5 23 Q59 8 50.5 -9 Q42 -26 37 -44.5 Q32 -63 34 -82 Q37 -117 68 -127 Q96 -136 128.5 -127 Q161 -118 189 -101 Q216 -84 238 -63.5 Q260 -43 280 -18 Q300 7 316 34 Q332 61 346 90 Z " />
<glyph glyph-name="Z" unicode="Z" horiz-adv-x="499" d="M518 655 Q533 649 531 635 Q530 623 512 595.5 Q494 568 469.5 536.5 Q445 505 420 475.5 Q395 446 381 430 Q281 311 181.5 192.5 Q82 74 -33 -43 Q-1 -27 31.5 -13.5 Q64 0 102 11 Q138 22 180.5 29 Q223 36 266.5 38.5 Q310 41 352.5 39.5 Q395 38 430 31 Q442 29 454.5 24.5 Q467 20 476.5 13 Q486 6 491 -4.5 Q496 -15 492 -30 Q491 -33 486.5 -39 Q482 -45 477 -43 Q471 -40 475 -32 Q477 -28 478.5 -25.5 Q480 -23 479 -18 Q477 -4 465.5 3.5 Q454 11 439 14.5 Q424 18 409.5 19.5 Q395 21 386 22 Q318 27 247.5 22 Q177 17 101 -5 Q40 -23 -16 -52 Q-39 -63 -57.5 -75 Q-76 -87 -96 -101 Q-102 -106 -104.5 -105.5 Q-107 -105 -109 -103 Q-111 -100 -111 -97 Q-111 -94 -106 -89 Q-79 -66 -54 -41 Q-29 -16 -5 10 Q55 75 114 142.5 Q173 210 239 286 Q271 324 303 362 Q335 400 367 438 Q385 459 411 490.5 Q437 522 461 552.5 Q485 583 501.5 607.5 Q518 632 516 640 Q514 642 505.5 643.5 Q497 645 486 643 Q413 632 344 609.5 Q275 587 211 552 Q208 550 206 546 Q204 542 199 542 Q195 540 193 545 Q189 551 193 557 Q197 563 204.5 568 Q212 573 221.5 577.5 Q231 582 238 585 Q345 635 469 656 Q478 658 492 659 Q506 660 518 655 Z " />
<glyph glyph-name="bracketleft" unicode="&#x5b;" horiz-adv-x="140" d="M131 494 Q141 492 139.5 485 Q138 478 130 479 Q125 479 121 481 Q117 483 112 483 Q107 483 103 478 Q99 473 99 466 Q97 458 95.5 451 Q94 444 92 436 L59 253 Q55 233 51.5 212.5 Q48 192 46 172 Q43 160 41 147.5 Q39 135 40 123 Q41 111 45 102 Q49 93 62 102 Q65 104 67.5 106 Q70 108 73 107 Q81 105 77 97 Q67 79 48 83 Q35 85 29.5 94.5 Q24 104 23.5 117 Q23 130 25 144 Q27 158 29 169 Q40 238 52.5 307 Q65 376 79 448 Q80 453 81 460 Q82 467 84 474 Q86 481 89.5 486.5 Q93 492 99 495 Q109 500 116 498 Q123 496 131 494 Z " />
<glyph glyph-name="backslash" unicode="&#x5c;" horiz-adv-x="123" d="M88 79 Q89 74 87.5 69.5 Q86 65 81 66 Q78 65 76 67.5 Q74 70 74 73 Q73 78 72.5 82.5 Q72 87 71 92 Q66 136 62.5 179 Q59 222 57 266 Q55 301 54 336.5 Q53 372 51 408 Q49 429 48 450 Q47 471 45 491 Q44 499 42.5 511 Q41 523 46 526 Q50 528 52.5 526.5 Q55 525 56 521 Q57 517 57.5 512.5 Q58 508 59 504 Q63 468 64.5 431.5 Q66 395 68 358 Q70 319 71 280 Q72 241 76 202 Q78 171 80.5 140.5 Q83 110 88 79 Z " />
<glyph glyph-name="bracketright" unicode="&#x5d;" horiz-adv-x="130" d="M92 490 Q99 482 101.5 464 Q104 446 103.5 424.5 Q103 403 100.5 382 Q98 361 97 348 Q91 300 83.5 251.5 Q76 203 66 154 Q65 146 63 135 Q61 124 58 113.5 Q55 103 52.5 94.5 Q50 86 47 84 Q41 78 32 79 Q28 80 27 83 Q26 86 27 89 Q28 92 30.5 93.5 Q33 95 37 94 Q39 94 40.5 99.5 Q42 105 43.5 112 Q45 119 46 125 Q47 131 47 133 Q55 186 65 240 Q75 294 83 354 Q84 363 85.5 380.5 Q87 398 87.5 417.5 Q88 437 87 454 Q86 471 82 478 Q79 483 69.5 479.5 Q60 476 53 475 Q45 473 43 480 Q41 488 49 490 Q53 490 59 492 Q65 494 70.5 495 Q76 496 81.5 495.5 Q87 495 92 490 Z " />
<glyph glyph-name="asciicircum" unicode="&#x5e;" horiz-adv-x="143" d="M73 540 Q75 535 69.5 533.5 Q64 532 62 537 Q58 550 56 566 Q43 552 36 537 Q33 532 28 535 Q23 538 26 543 Q36 565 56 582 Q59 585 62 583.5 Q65 582 66 578 Q68 558 73 540 Z " />
<glyph glyph-name="underscore" unicode="&#x5f;" horiz-adv-x="295" d="M183 240 Q194 239 209.5 238 Q225 237 234 232 Q239 229 240 224 Q241 219 236 216 Q234 214 230.5 215.5 Q227 217 225 219 Q221 221 213.5 222 Q206 223 197 224 Q188 225 179.5 225 Q171 225 165 225 Q137 225 117 224.5 Q97 224 83 223.5 Q69 223 58 222 Q47 221 37 221 Q29 220 27 222.5 Q25 225 25 229 Q26 234 31 235 Q36 236 41 237 Q117 243 183 240 Z " />
<glyph glyph-name="grave" unicode="&#x60;" horiz-adv-x="181" d="M45 597 Q41 601 45.5 605.5 Q50 610 54 605 Q59 598 64.5 591.5 Q70 585 75 579 Q79 574 74.5 570 Q70 566 67 571 L45 597 Z " />
<glyph glyph-name="at" unicode="&#x40;" horiz-adv-x="418" d="M209 296 Q196 281 184 270 Q172 259 156 256 Q133 253 133 274 Q134 291 146 306 Q158 321 173 327 Q191 333 201.5 327.5 Q212 322 215 320 Q223 320 225 312 Q227 310 225 296 Q223 282 225 267 Q228 250 246 245 Q272 240 298 250 Q324 260 343 275 Q373 300 380 335 Q382 352 379.5 365 Q377 378 366 390 Q354 404 339.5 413 Q325 422 308 428 Q267 439 229.5 433 Q192 427 160.5 408.5 Q129 390 104 362 Q79 334 63 300 Q47 265 42.5 226.5 Q38 188 54 154 Q65 130 90.5 110.5 Q116 91 159 95 Q174 98 191 107.5 Q208 117 224.5 130 Q241 143 255 157.5 Q269 172 278 184 Q283 192 290 191 Q295 190 295 186 Q295 182 292 177 Q283 163 268.5 148.5 Q254 134 237 120.5 Q220 107 201.5 96.5 Q183 86 165 82 Q132 76 104.5 86.5 Q77 97 58.5 118 Q40 139 31 167 Q22 195 25 225 Q28 267 44 304 Q60 341 85.5 371 Q111 401 144.5 421 Q178 441 216 448 Q258 456 290 449.5 Q322 443 354 422 Q401 390 397 341 Q396 317 381 294.5 Q366 272 343 256 Q320 240 292.5 232.5 Q265 225 240 231 Q213 240 210 267 Q209 272 209 280 Q209 288 209 296 Z M203 311 Q202 312 201 312.5 Q200 313 199 314 Q185 320 172.5 310.5 Q160 301 154 291 Q152 287 150 283 Q148 279 148 274 Q148 272 150.5 270.5 Q153 269 162 274 Q174 281 183.5 290.5 Q193 300 203 311 Z " />
<glyph glyph-name="d" unicode="d" horiz-adv-x="117" d="M43 312 Q46 320 49 327 Q52 334 54 340 Q69 379 82 416.5 Q95 454 109 490 Q112 497 118 495 Q125 493 122 480 Q117 463 112.5 447 Q108 431 103 414 Q90 367 82.5 321 Q75 275 76 227 Q76 210 76.5 197 Q77 184 78 167 Q79 159 79.5 152.5 Q80 146 80 142 Q80 136 76 135 Q70 133 67 138 Q65 143 64 151.5 Q63 160 62 171 Q61 193 60.5 211.5 Q60 230 61 249 Q62 268 64 289.5 Q66 311 70 338 Q62 318 55 298.5 Q48 279 39 260 Q34 247 24.5 234 Q15 221 10 217 Q0 209 -9 211.5 Q-18 214 -20 226 Q-22 240 -18 258.5 Q-14 277 -6 291 Q2 307 15.5 316 Q29 325 43 312 Z M-5 224 Q2 228 8 236 Q14 244 17 249 Q23 260 28 271.5 Q33 283 38 295 L38 298 Q36 300 34 301 Q30 307 24 303 Q11 294 3.5 276 Q-4 258 -6 242 Q-7 236 -6.5 232.5 Q-6 229 -5 224 Z " />
<glyph glyph-name="exclam" unicode="&#x21;" horiz-adv-x="128" d="M49 388 Q44 380 37 383 Q34 385 36 391 Q38 397 42 402 L69 441 Q72 446 78.5 445 Q85 444 83 436 Q72 382 64.5 337.5 Q57 293 49 244 Q46 232 44.5 221 Q43 210 41 195 Q38 181 32 181 Q25 181 25.5 189 Q26 197 27 208 Q33 257 42 309 Q51 361 64 408 L49 388 Z M27 138 Q21 138 21 144 Q24 149 28 149 Q35 149 33 144 Q33 138 27 138 Z " />
<glyph glyph-name="quotedbl" unicode="&#x22;" horiz-adv-x="140" d="M58 630 Q65 630 66 625 Q68 616 67.5 603 Q67 590 64 577.5 Q61 565 57 553.5 Q53 542 49 535 Q46 528 40 532 Q34 535 37 542 Q42 557 47.5 577 Q53 597 53 621 Q51 628 58 630 Z M90 631 Q97 631 96 617 Q95 605 93.5 592.5 Q92 580 89 567 Q87 562 84.5 554.5 Q82 547 74 551 Q69 554 71 559 Q76 574 78 588 Q80 602 82 620 Q83 625 84 628 Q85 631 90 631 Z " />
<glyph glyph-name="numbersign" unicode="&#x23;" horiz-adv-x="262" d="M98 323 Q106 324 113.5 324.5 Q121 325 129 325 Q133 334 136.5 344 Q140 354 145 365 Q149 372 155 370 Q158 369 159 366.5 Q160 364 159 362 Q156 352 153 344 Q150 336 147 327 Q161 328 174.5 329 Q188 330 202 330 Q216 330 219 320 Q221 315 217.5 313 Q214 311 210 313 Q206 315 198 315 Q183 314 169 313 Q155 312 141 311 Q139 304 136.5 295 Q134 286 131 278 Q142 278 156.5 278 Q171 278 183 276 Q192 274 198 271 Q204 268 202 262 Q200 252 192 256 Q187 259 184 259.5 Q181 260 175 261 Q164 262 148 262.5 Q132 263 125 264 Q120 250 115 235.5 Q110 221 105 207 Q103 202 100.5 198.5 Q98 195 93 196 Q85 198 89 205 Q94 220 98.5 234.5 Q103 249 108 264 Q100 265 91 265 Q82 265 74 265 Q70 253 65.5 240.5 Q61 228 57 216 Q55 212 53.5 209 Q52 206 46 207 Q40 209 41 214.5 Q42 220 43 224 Q47 235 50.5 245.5 Q54 256 58 267 Q50 268 43.5 268 Q37 268 30 269 Q23 270 23 276 Q23 282 29 282 Q43 282 51.5 281.5 Q60 281 64 281 Q66 286 69 294.5 Q72 303 74 307 Q66 307 58.5 306.5 Q51 306 42 305 Q37 304 35 306.5 Q33 309 33 312 Q33 317 40 319 Q51 321 61.5 321 Q72 321 81 323 Q86 334 91.5 346 Q97 358 102 369 Q105 375 111 373 Q117 369 114 364 Q110 354 106 344 Q102 334 98 323 Z M80 280 Q88 280 96 280 Q104 280 112 279 Q115 286 118 294.5 Q121 303 123 310 Q115 310 106 309.5 Q97 309 91 308 Q88 300 85 293.5 Q82 287 80 280 Z " />
<glyph glyph-name="dollar" unicode="&#x24;" horiz-adv-x="229" d="M158 398 Q154 381 150 362.5 Q146 344 142 327 Q159 313 168.5 288.5 Q178 264 173 242 Q170 229 163.5 218 Q157 207 148.5 198 Q140 189 131 183 Q122 177 115 174 Q111 153 108 136.5 Q105 120 103 98 Q102 85 94 85 Q89 85 88.5 90 Q88 95 88 99 Q90 116 92.5 133.5 Q95 151 98 169 Q61 158 33 180 Q14 194 9.5 220.5 Q5 247 20 270 Q30 283 41 277 Q46 274 43 269 Q41 264 37 264 Q32 264 29 259 Q21 240 24.5 223.5 Q28 207 39 196.5 Q50 186 66.5 182.5 Q83 179 101 186 Q107 221 112 251.5 Q117 282 124 321 Q116 327 105 342.5 Q94 358 97 377 Q101 399 116 408.5 Q131 418 149 418 Q158 449 164 476 Q170 503 181 533 Q183 538 186 539 Q190 541 193 538 Q196 535 194 530 Q185 501 179 473.5 Q173 446 164 416 Q177 412 187 402 Q197 392 203.5 378.5 Q210 365 214.5 350 Q219 335 222 322 Q223 318 222 313.5 Q221 309 216 307 Q210 305 208 312 Q206 324 202 338 Q198 352 192 364 Q186 376 177.5 385.5 Q169 395 158 398 Z M138 307 Q133 278 128 250 Q123 222 118 192 Q133 200 145 217 Q157 234 159 255 Q160 269 153 283 Q146 297 138 307 Z M129 340 Q132 355 135.5 369 Q139 383 144 401 Q130 403 120.5 394 Q111 385 111 371 Q111 358 119 349.5 Q127 341 129 340 Z " />
<glyph glyph-name="percent" unicode="&#x25;" horiz-adv-x="247" d="M38 191 Q67 214 96.5 236 Q126 258 155 279 Q157 281 159 283.5 Q161 286 166 289 Q168 291 173.5 289.5 Q179 288 181 283 Q182 287 187 290 Q195 294 201 289 Q207 284 205 276 Q203 262 191.5 251.5 Q180 241 168 237 Q159 235 151 238 Q143 241 141 250 Q113 230 86 209.5 Q59 189 33 168 Q28 163 22 160 Q16 157 11 162 Q4 167 9.5 175.5 Q15 184 18 190 Q47 235 81.5 274.5 Q116 314 156 349 Q165 357 177 367.5 Q189 378 197 386 Q172 378 148 368.5 Q124 359 98 357 Q97 356 95 352.5 Q93 349 88.5 345.5 Q84 342 78 340 Q72 338 64 340 Q50 343 50 359 Q52 369 58 377 Q64 385 75 388 Q90 391 93.5 384.5 Q97 378 98 374 Q109 374 122.5 377 Q136 380 148 384 Q168 392 187.5 399 Q207 406 227 414 Q237 418 239.5 411.5 Q242 405 234 398 Q217 383 200 368.5 Q183 354 166 338 Q143 317 120.5 293.5 Q98 270 78 245 Q67 231 55 214.5 Q43 198 38 191 Z M179 278 Q177 276 174.5 274.5 Q172 273 167 269 Q164 266 160 262 Q156 258 156 254 Q155 251 158.5 250.5 Q162 250 164 250 Q171 252 179 259 Q187 266 188 272 Q180 272 179 278 Z M79 375 Q72 374 66.5 364.5 Q61 355 69 353 Q77 353 81 359 L81 361 Q78 367 79 371 L79 375 Z " />
<glyph glyph-name="ampersand" unicode="&#x26;" horiz-adv-x="341" d="M285 251 Q289 256 292.5 259.5 Q296 263 301 260 Q308 256 296 242 Q275 218 253 195 Q231 172 208 150 Q218 124 236 101.5 Q254 79 273 65 Q278 62 282.5 60 Q287 58 293 57 Q300 57 298 50 Q298 44 290 44 Q274 45 262.5 53.5 Q251 62 242 71 Q228 86 216 102 Q204 118 195 136 Q164 104 133 84.5 Q102 65 70 62 Q43 60 20 70 Q-3 80 -6 111 Q-6 140 7.5 172.5 Q21 205 41 237 Q61 269 85 297.5 Q109 326 129 347 Q136 354 143.5 362 Q151 370 160 379 Q162 393 163.5 406 Q165 419 169 436 Q178 478 193 515.5 Q208 553 240 590 Q246 597 253.5 604 Q261 611 269.5 615.5 Q278 620 286 620.5 Q294 621 301 617 Q314 608 314.5 590 Q315 572 308.5 551.5 Q302 531 291.5 511.5 Q281 492 272 480 Q259 463 245 447 Q231 431 216 415 Q206 404 196.5 394 Q187 384 176 373 Q168 319 174.5 263.5 Q181 208 200 161 Q224 184 243.5 205.5 Q263 227 285 251 Z M158 353 Q136 333 111 304.5 Q86 276 64.5 244.5 Q43 213 28 180.5 Q13 148 12 120 Q10 94 28.5 84 Q47 74 70 77 Q82 77 98 84 Q114 91 131 101.5 Q148 112 163 125 Q178 138 187 152 Q167 201 160 251.5 Q153 302 158 353 Z M178 395 Q192 410 206.5 426 Q221 442 234 456 Q259 485 276.5 514.5 Q294 544 299 578 Q300 590 295 599.5 Q290 609 276 601 Q254 586 239.5 564 Q225 542 214 520 Q202 494 191 461 Q180 428 178 395 Z " />
<glyph glyph-name="quotesingle" unicode="&#x27;" horiz-adv-x="101" d="M37 561 Q34 553 28 553 Q21 554 22 563 Q25 575 30 591 Q31 594 32.5 599.5 Q34 605 35.5 611 Q37 617 38 622 Q39 627 38 629 Q34 632 38 637.5 Q42 643 47 642 Q55 640 55 630 Q53 612 48 594.5 Q43 577 37 561 Z " />
<glyph glyph-name="parenleft" unicode="&#x28;" horiz-adv-x="156" d="M30 255 Q42 315 64.5 370 Q87 425 124 475 Q137 492 149 502 Q153 506 160.5 509.5 Q168 513 171 506 Q173 502 167 498.5 Q161 495 158 492 Q115 450 91 394 Q67 338 53 287 Q37 222 36.5 171 Q36 120 49 69 Q51 64 52 60 Q53 56 48 53 Q43 48 39 53.5 Q35 59 35 63 Q23 111 21.5 156 Q20 201 30 255 Z " />
<glyph glyph-name="asterisk" unicode="&#x2a;" horiz-adv-x="280" d="M60 391 Q51 386 48 390 Q43 395 50 400 Q57 405 64 410 Q71 415 79 423 Q65 422 53.5 421 Q42 420 30 419 Q27 419 23 423 Q21 428 24 430.5 Q27 433 32 434 Q46 436 60.5 437 Q75 438 89 438 Q85 446 80.5 452 Q76 458 72 465 Q66 474 73 477 Q77 480 80 476.5 Q83 473 85 470 Q92 459 101 449 Q103 458 105.5 467.5 Q108 477 112 488 Q114 493 116 496.5 Q118 500 122 499 Q127 499 127.5 494 Q128 489 126 484 Q124 476 121.5 466.5 Q119 457 117 449 Q125 454 133.5 461 Q142 468 150 473 Q158 478 163 472 Q167 466 159 461 Q151 455 145 449.5 Q139 444 131 439 Q154 440 177 440 Q200 440 224 438 Q231 436 237.5 434 Q244 432 243 427 Q241 419 236 420 Q231 421 225 423 Q196 425 168.5 425 Q141 425 115 424 Q120 414 124.5 407 Q129 400 134 391 Q139 380 132 377 Q126 373 122 381 Q117 389 113.5 395.5 Q110 402 106 409 Q99 383 95 358 Q93 352 92 347.5 Q91 343 86 343 Q76 344 79 359 Q81 372 84 384 Q87 396 90 410 L60 391 Z " />
<glyph glyph-name="parenright" unicode="&#x29;" horiz-adv-x="162" d="M112 309 Q94 243 65 182.5 Q36 122 3 63 Q1 60 -1.5 57.5 Q-4 55 -9 57 Q-13 59 -11 66 Q7 100 23.5 131 Q40 162 54 193 Q68 224 79.5 257 Q91 290 100 328 Q111 377 106 416 Q101 455 87 489 Q85 492 81.5 498.5 Q78 505 83 509 Q89 514 92.5 509.5 Q96 505 99 498 Q121 456 122.5 407.5 Q124 359 112 309 Z " />
<glyph glyph-name="plus" unicode="&#x2b;" horiz-adv-x="169" d="M73 296 Q67 296 62 296 Q57 296 48 295 Q40 295 35 295.5 Q30 296 30 303 Q31 309 35.5 309.5 Q40 310 47 311 Q51 311 58.5 311 Q66 311 77 312 Q79 326 80.5 333 Q82 340 84 351 Q85 358 92 359 Q98 359 98 353 Q96 343 95 333 Q94 323 92 312 L130 312 Q145 312 148 304 Q149 300 144 296 Q142 295 138 296 Q134 297 131 297 Q121 297 110 297 Q99 297 89 296 Q89 293 87.5 286 Q86 279 85 271 Q84 263 82.5 255.5 Q81 248 81 244 Q79 239 77.5 236 Q76 233 71 233 Q63 234 64.5 241 Q66 248 68 261 Q69 268 70 274.5 Q71 281 73 296 Z " />
<glyph glyph-name="comma" unicode="&#x2c;" horiz-adv-x="135" d="M16 171 Q12 165 6 169 Q1 172 5 179 Q14 194 21.5 209 Q29 224 31 240 Q33 245 29 248.5 Q25 252 27 256 Q29 259 32.5 259.5 Q36 260 38 258 Q44 254 46 244 Q47 238 44.5 228 Q42 218 37.5 207.5 Q33 197 27 187 Q21 177 16 171 Z " />
<glyph glyph-name="hyphen" unicode="&#x2d;" horiz-adv-x="143" d="M107 321 Q114 321 114 313 Q114 306 105.5 306.5 Q97 307 89 307 Q74 307 59 307 Q44 307 29 308 Q26 308 22 309 Q18 310 18 315 Q18 322 26 322 Q46 323 66.5 323 Q87 323 107 321 Z " />
<glyph glyph-name="period" unicode="&#x2e;" horiz-adv-x="106" d="M35 238 Q35 231 28 231 Q21 231 21 238 Q21 245 29 245 Q35 245 35 238 Z " />
<glyph glyph-name="slash" unicode="&#x2f;" horiz-adv-x="289" d="M25 101 Q19 104 24 114 Q82 207 138.5 305.5 Q195 404 258 492 Q261 497 267 495 Q275 491 270.5 485 Q266 479 264 475 Q204 388 148.5 292.5 Q93 197 36 106 Q32 98 25 101 Z " />
<glyph glyph-name="zero" unicode="0" horiz-adv-x="160" d="M102 223 Q91 209 80.5 200 Q70 191 58 188 Q44 186 35.5 195 Q27 204 25 215 Q21 228 22 247.5 Q23 267 28 289 Q33 311 41.5 332.5 Q50 354 60 372 Q61 375 64.5 380.5 Q68 386 72 390.5 Q76 395 79.5 397 Q83 399 86 396 Q88 394 86 388 Q84 385 81 382 Q78 379 76 375 Q65 356 55.5 330.5 Q46 305 41 280 Q36 255 36.5 234.5 Q37 214 47 205 Q51 201 56 201.5 Q61 202 66 205 Q71 208 75.5 212.5 Q80 217 83 221 Q97 240 105.5 262 Q114 284 117 304 Q122 347 100 377 Q98 379 96 379 Q92 379 91 382 Q90 385 92 388 Q94 393 98.5 394.5 Q103 396 106 394 Q123 383 128.5 360 Q134 337 134 321 Q133 296 124.5 271 Q116 246 102 223 Z " />
<glyph glyph-name="one" unicode="1" horiz-adv-x="122" d="M112 432 Q113 428 111 416.5 Q109 405 106 389.5 Q103 374 99 357 Q95 340 92 325 Q85 290 79.5 254.5 Q74 219 69 182 Q67 171 64.5 169 Q62 167 60 167 Q53 167 53.5 177 Q54 187 55 192 Q59 223 63.5 253 Q68 283 74 314 Q78 332 82 350 Q86 368 90 386 Q91 391 92 397.5 Q93 404 94 409 Q80 395 69 380.5 Q58 366 41 355 Q36 352 33 357 Q29 361 34 366 Q57 389 80 415 Q83 419 86.5 423.5 Q90 428 98 436 Q103 439 107 438 Q111 437 112 432 Z " />
<glyph glyph-name="two" unicode="2" horiz-adv-x="184" d="M153 220 Q159 218 157 212 Q157 205 141 205 Q121 207 101.5 207.5 Q82 208 60 203 Q54 201 48.5 199.5 Q43 198 37 195 Q30 192 27 197 Q23 203 29 207 Q38 213 43 219.5 Q48 226 56 237 Q76 263 96 292.5 Q116 322 125 354 Q128 364 128 375 Q127 389 111 387 Q100 385 89.5 377.5 Q79 370 71 361 Q69 359 67 358 Q65 357 63 358 Q60 359 59 362.5 Q58 366 61 369 Q69 380 82.5 390.5 Q96 401 111 403 Q141 406 143 377 Q143 359 137 341 Q124 309 104 280 Q84 251 61 219 Q74 221 87.5 222.5 Q101 224 115 223 Q123 222 132.5 222 Q142 222 153 220 Z " />
<glyph glyph-name="three" unicode="3" horiz-adv-x="171" d="M152 292 Q154 270 140 245.5 Q126 221 106 206 Q92 195 72 193 Q52 191 38 202 Q29 207 25 213 Q19 219 25 225 Q29 229 36 224 Q45 216 56 209.5 Q67 203 87 212 Q95 216 102 221.5 Q109 227 115 234 Q123 244 128.5 254.5 Q134 265 136 278 Q138 298 126 304 Q114 310 94 304 Q90 302 83.5 299 Q77 296 72 298 Q67 300 67.5 305 Q68 310 74 315 Q81 321 91 331 Q101 341 110.5 351.5 Q120 362 127 372.5 Q134 383 135 391 Q135 397 129 396.5 Q123 396 119 394 Q93 383 72 368 Q64 362 61 367 Q56 372 63 378 Q76 388 89 396 Q102 404 117 409 Q128 412 140 408.5 Q152 405 149 388 Q146 369 129.5 351.5 Q113 334 101 322 Q105 322 109 322.5 Q113 323 117 323 Q131 323 140.5 314.5 Q150 306 152 292 Z " />
<glyph glyph-name="four" unicode="4" horiz-adv-x="145" d="M122 424 Q130 420 126 410 Q109 362 95.5 301.5 Q82 241 71 187 Q70 183 69 174 Q68 165 62 164 Q56 163 54 168 Q52 173 54 181 Q56 194 60.5 217.5 Q65 241 72 270.5 Q79 300 87 331.5 Q95 363 104 392 Q100 386 93 379 Q86 372 78.5 366 Q71 360 63 355.5 Q55 351 48 350 Q34 348 32 362 Q31 371 35 381.5 Q39 392 45 402.5 Q51 413 59 423 Q67 433 74 441 Q77 445 81.5 447 Q86 449 89 445 Q92 441 86 435 Q76 423 67.5 411.5 Q59 400 51 383 Q49 379 47 371.5 Q45 364 47 364 Q55 364 70.5 379.5 Q86 395 100 409 Q104 414 109.5 420 Q115 426 122 424 Z " />
<glyph glyph-name="five" unicode="5" horiz-adv-x="152" d="M82 317 Q98 321 108 311.5 Q118 302 119 287 Q119 267 110 249 Q101 231 86 217 Q77 209 68.5 202 Q60 195 51 187 Q47 184 42.5 183 Q38 182 36 185 Q32 190 36.5 194 Q41 198 46 202 Q64 217 80.5 232.5 Q97 248 102 270 Q105 282 100.5 293.5 Q96 305 81 301 Q70 298 58 292.5 Q46 287 32 282 Q27 280 23 283.5 Q19 287 21 293 Q29 315 38.5 338.5 Q48 362 59 383 Q61 387 63.5 390.5 Q66 394 71 395 Q82 397 88 398 Q94 399 101 400 Q116 402 125.5 402.5 Q135 403 139 397 Q141 393 138.5 389.5 Q136 386 131 387 Q120 389 105 386.5 Q90 384 78 382 Q73 380 71 376 Q64 359 54.5 336.5 Q45 314 40 302 Q48 307 59.5 311 Q71 315 82 317 Z " />
<glyph glyph-name="six" unicode="6" horiz-adv-x="155" d="M30 227 Q38 235 52.5 242 Q67 249 81 247 Q92 245 97.5 237 Q103 229 99 218 Q92 193 67 182 Q53 177 40 182 Q27 187 20 200 Q11 222 14.5 246.5 Q18 271 28 291 Q45 326 70 356.5 Q95 387 132 407 Q137 409 141.5 409 Q146 409 148 405 Q150 397 143 397 Q138 395 133 392 Q128 389 123 386 Q103 370 85.5 351 Q68 332 54 309 Q47 296 41 282.5 Q35 269 32 254 Q31 247 30 240 Q29 233 30 227 Z M57 195 Q67 197 75 205.5 Q83 214 85 223 Q87 231 78 232 Q66 234 54.5 226.5 Q43 219 33 211 Q37 192 57 195 Z " />
<glyph glyph-name="seven" unicode="7" horiz-adv-x="156" d="M79 295 Q69 295 59 293 Q49 291 39 289 Q34 288 31 287 Q28 286 25 290 Q21 298 32 301 Q58 309 86 312 Q96 327 103.5 342 Q111 357 119 373 Q99 371 79.5 363.5 Q60 356 41 351 Q31 348 27 349 Q17 349 23 357 Q25 362 29 362 Q33 362 37 364 Q48 368 61 372.5 Q74 377 86.5 380.5 Q99 384 109.5 386 Q120 388 125 388 Q131 387 133.5 382.5 Q136 378 133 371 Q129 358 120.5 342.5 Q112 327 104 313 Q110 313 116.5 312.5 Q123 312 127 310 Q133 306 132 299.5 Q131 293 123 291 Q119 291 116 295 Q114 297 106 297 Q98 297 96 297 Q82 268 70.5 241.5 Q59 215 47 186 Q42 175 35 177 Q31 178 31 181.5 Q31 185 32 189.5 Q33 194 35 198.5 Q37 203 38 206 Q49 229 59 251 Q69 273 79 295 Z " />
<glyph glyph-name="eight" unicode="8" horiz-adv-x="147" d="M92 316 Q103 306 108.5 295 Q114 284 109 257 Q106 242 98 227 Q90 212 79.5 200.5 Q69 189 56 183.5 Q43 178 30 183 Q20 187 16 194 Q12 201 11.5 210 Q11 219 14 228.5 Q17 238 21 247 Q30 264 43 281.5 Q56 299 70 314 Q64 321 59 333.5 Q54 346 60 360 Q74 390 102 400 Q120 407 122 390 Q122 384 119 375.5 Q116 367 111 358 Q106 349 100.5 340.5 Q95 332 91 327 Q96 321 92 316 Z M80 304 Q69 292 55.5 274 Q42 256 34 239 Q32 234 30 228 Q28 222 27 216 Q26 210 27.5 205 Q29 200 34 197 Q49 192 63.5 206 Q78 220 85 234 Q93 253 95 273 Q97 293 80 304 Z M107 386 Q96 381 87 372.5 Q78 364 74 354 Q71 346 73 340.5 Q75 335 78 330 Q86 340 95.5 357 Q105 374 107 386 Z " />
<glyph glyph-name="nine" unicode="9" horiz-adv-x="153" d="M93 348 Q85 343 76 338.5 Q67 334 57 336 Q41 339 38 355 Q37 368 45.5 381 Q54 394 66 399 Q78 403 89 394 Q95 388 93 384 Q88 377 81 384 Q77 388 72 386 Q67 384 62.5 379 Q58 374 55 367.5 Q52 361 53 357 Q55 348 64.5 350 Q74 352 79 356 Q93 364 104 379 Q115 394 128 405 Q132 409 136 406.5 Q140 404 137 399 Q129 384 122 372 Q115 360 110 349 Q87 305 68 261.5 Q49 218 32 173 Q26 161 18 162 Q12 164 16 174 Q35 219 52.5 261.5 Q70 304 93 348 Z " />
<glyph glyph-name="colon" unicode="&#x3a;" horiz-adv-x="91" d="M53 343 Q53 336 46 336 Q38 336 38 343 Q40 351 47 351 Q55 349 53 343 Z M45 236 Q45 230 38 230 Q36 230 34 233 Q32 236 33 238 Q33 244 39 244 Q47 242 45 236 Z " />
<glyph glyph-name="less" unicode="&#x3c;" horiz-adv-x="170" d="M83 257 Q85 255 88 252.5 Q91 250 89 246 Q85 239 77.5 242 Q70 245 65 250 Q61 253 54 258.5 Q47 264 39.5 270 Q32 276 25.5 281.5 Q19 287 16 291 Q12 296 14.5 301 Q17 306 23 310 Q34 317 52.5 322.5 Q71 328 87 333 Q91 335 98.5 337 Q106 339 108 337 Q113 329 107 326.5 Q101 324 96 322 Q79 317 63 310 Q47 303 31 297 Q45 286 57 277 Q69 268 83 257 Z " />
<glyph glyph-name="semicolon" unicode="&#x3b;" horiz-adv-x="137" d="M53 197 Q50 195 48 196 Q46 197 44 199 Q40 203 44 208 Q51 216 57 223.5 Q63 231 63 240 Q63 246 69 248 Q71 248 74 246.5 Q77 245 77 242 Q77 228 69 215 Q61 202 53 197 Z M86 334 Q78 334 78 341 Q78 348 86 348 Q94 346 94 339 Q94 332 86 334 Z " />
<glyph glyph-name="equal" unicode="&#x3d;" horiz-adv-x="173" d="M30 310 Q23 310 23 317 Q25 325 30.5 325.5 Q36 326 42 326 Q69 327 91 329 Q113 331 135 331 Q142 331 142 324 Q141 317 133 316.5 Q125 316 114 315 Q92 313 68 310.5 Q44 308 30 310 Z M116 285 Q116 277 108 276 Q100 275 93 275 Q76 274 60 273 Q44 272 28 272 Q21 272 21 278 Q22 286 30 286.5 Q38 287 43 287 Q48 287 60 288 Q72 289 84.5 289.5 Q97 290 106.5 289 Q116 288 116 285 Z " />
<glyph glyph-name="greater" unicode="&#x3e;" horiz-adv-x="197" d="M134 311 Q141 307 140 301 Q139 295 128 290 Q108 281 88.5 272.5 Q69 264 48 254 Q45 252 41.5 251.5 Q38 251 36 256 Q33 263 46 268 Q62 275 83 285 Q104 295 121 302 Q113 309 101 315 Q89 321 77 330 Q68 334 75 341 Q78 344 84.5 341.5 Q91 339 98 334 Q114 323 134 311 Z " />
<glyph glyph-name="question" unicode="&#x3f;" horiz-adv-x="140" d="M12 327 Q13 335 16.5 342 Q20 349 24 355 Q36 372 53 389 Q70 406 90 414 Q102 418 109.5 412 Q117 406 117 397 Q117 383 110 362 Q103 341 93 318.5 Q83 296 72.5 273.5 Q62 251 55 234 Q52 225 51 222.5 Q50 220 48 215 Q46 212 43.5 208 Q41 204 36 206 Q31 207 31 210.5 Q31 214 33 219 Q44 252 59.5 283.5 Q75 315 88 347 Q90 351 93 359 Q96 367 98.5 375.5 Q101 384 101.5 391 Q102 398 99 400 Q97 402 91 399 Q85 396 82 394 Q67 383 53.5 368.5 Q40 354 32 340 Q29 334 27.5 329 Q26 324 25 322 Q25 314 19 314 Q14 315 12.5 319 Q11 323 12 327 Z M29 165 Q23 166 23 174 Q23 180 31 180 Q37 178 37 171 Q35 164 29 165 Z " />
<glyph glyph-name="braceleft" unicode="&#x7b;" horiz-adv-x="181" d="M163 493 Q171 493 169.5 485 Q168 477 161 478 Q151 478 143 470.5 Q135 463 131 454 Q125 443 124 431 Q123 419 122 408 Q119 385 113 362 Q101 327 74 300 Q82 297 86 289 Q90 281 90 273 Q92 259 90 244.5 Q88 230 84 216 Q81 200 76.5 185 Q72 170 67 154 Q62 140 56.5 125 Q51 110 53 96 Q53 87 60 79 Q67 71 78 74 Q82 75 84 73 Q86 71 86 68 Q86 65 84.5 62.5 Q83 60 79 59 Q65 55 54.5 62.5 Q44 70 39 81 Q34 94 36.5 108.5 Q39 123 44 137 Q49 152 54.5 167 Q60 182 64 197 Q68 212 71 227 Q74 242 75 257 Q76 266 72.5 278 Q69 290 56 286 Q51 284 48.5 289.5 Q46 295 51 299 Q72 315 86 339 Q91 350 96 360.5 Q101 371 103 382 Q105 394 105.5 406.5 Q106 419 108 432 Q110 443 114.5 454.5 Q119 466 127 475 Q135 483 144 488.5 Q153 494 163 493 Z " />
<glyph glyph-name="bar" unicode="&#x7c;" horiz-adv-x="171" d="M138 533 Q139 531 139 527 Q136 508 133 490 Q130 472 127 454 Q118 393 108 334 Q98 275 88 215 Q82 179 76 142.5 Q70 106 64 71 Q57 36 52 -2 Q51 -3 51 -6 Q47 -10 42 -10 Q38 -9 36 -3 L36 3 Q45 51 53 97.5 Q61 144 69 191 Q74 229 80 266 Q86 303 92 341 Q101 389 109 435 Q117 481 125 529 Q125 531 125.5 532.5 Q126 534 126 535 Q128 538 133 538 Q137 537 138 533 Z " />
<glyph glyph-name="braceright" unicode="&#x7d;" horiz-adv-x="175" d="M122 303 Q127 302 127 297.5 Q127 293 123 290 Q111 279 105.5 266 Q100 253 97 239 Q94 225 92.5 210.5 Q91 196 88 182 Q83 153 73 127 Q71 119 67 107.5 Q63 96 57 86 Q51 76 42.5 70 Q34 64 22 67 Q19 68 18.5 70.5 Q18 73 19 76 Q20 79 23 81 Q26 83 29 82 Q37 80 42 89.5 Q47 99 50 104 Q70 157 76 207 Q80 228 85 250.5 Q90 273 106 292 Q93 299 90 314 Q83 336 92.5 359.5 Q102 383 111 405 Q115 417 119 429 Q123 441 127 454 Q131 467 132 476 Q132 478 131 482.5 Q130 487 126 485 Q119 482 116.5 488.5 Q114 495 122 499 Q132 505 143 496 Q148 488 148 474 Q146 468 144.5 462 Q143 456 141 450 Q139 443 137 436.5 Q135 430 134 424 Q129 411 124 398.5 Q119 386 114 374 Q109 362 105.5 350 Q102 338 103 326 Q105 318 109.5 311.5 Q114 305 122 303 Z " />
<glyph glyph-name="asciitilde" unicode="&#x7e;" horiz-adv-x="122" d="M32 309 Q30 304 25 305.5 Q20 307 22 312 Q24 323 33.5 324.5 Q43 326 51 322 Q56 319 61 315 Q66 311 71 309 Q74 308 78 309 Q82 310 82 315 Q81 320 86.5 320 Q92 320 92 315 Q93 303 83 299 Q73 295 65 299 Q59 301 54.5 305.5 Q50 310 45 312 Q42 314 37.5 313.5 Q33 313 32 309 Z " />
<glyph glyph-name="f_f" unicode="&#xfb00;" horiz-adv-x="243" d="M117 214 Q140 229 160 243.5 Q180 258 203 273 Q205 275 212 279 Q219 283 226 288 Q234 293 243 300 Q256 298 251.5 291 Q247 284 238 278 Q209 258 177 236 Q145 214 116 194 Q124 182 129 167.5 Q134 153 139 139 Q156 89 153.5 34.5 Q151 -20 129 -70 Q126 -78 117.5 -87.5 Q109 -97 100 -95 Q89 -92 85.5 -71 Q82 -50 81 -24.5 Q80 1 81.5 24.5 Q83 48 83 56 Q86 122 94.5 182.5 Q103 243 120 298 Q84 257 51 224.5 Q18 192 -23 164 Q-25 156 -25.5 145 Q-26 134 -27 126 Q-9 118 5 101.5 Q19 85 21 65 Q23 54 20 41.5 Q17 29 9 20 Q1 9 -10 8.5 Q-21 8 -30 19 Q-44 38 -45.5 65.5 Q-47 93 -43 113 Q-52 118 -63.5 121.5 Q-75 125 -78 126 Q-83 128 -85.5 132 Q-88 136 -83 142 Q-77 150 -61.5 159.5 Q-46 169 -35 175 Q-24 232 -7 284 Q10 336 41 381 Q43 385 48.5 391 Q54 397 60 394 Q64 392 57.5 382.5 Q51 373 49 369 Q24 325 8 284 Q-8 243 -20 185 Q0 199 19 215 Q38 231 55 248 Q72 265 88 283 Q104 301 119 320 Q130 333 133 344 Q136 355 140 369 Q142 378 147 392.5 Q152 407 163 408 Q170 409 172 404.5 Q174 400 173.5 394 Q173 388 170.5 382 Q168 376 167 373 Q163 365 156.5 352.5 Q150 340 145 329 Q136 302 130 272 Q124 242 117 214 Z M104 -80 Q113 -70 119 -56.5 Q125 -43 128.5 -28.5 Q132 -14 134 0.5 Q136 15 137 27 Q141 65 133.5 101.5 Q126 138 109 170 Q106 144 103 120.5 Q100 97 99 75 Q98 63 97 40.5 Q96 18 96 -6 Q96 -30 97.5 -50.5 Q99 -71 104 -80 Z M-30 108 Q-31 87 -31 63.5 Q-31 40 -18 26 Q-12 20 -7 24 Q-2 28 1 33 Q13 55 2.5 77.5 Q-8 100 -30 108 Z M-62 138 L-41 132 Q-41 137 -40.5 142.5 Q-40 148 -39 153 Q-46 148 -51.5 145 Q-57 142 -62 138 Z " />
<glyph glyph-name="f_i" unicode="&#xfb01;" horiz-adv-x="139" d="M109 310 Q99 299 83.5 283.5 Q68 268 51 251.5 Q34 235 18 220 Q2 205 -10 196 Q-14 180 -18 154.5 Q-22 129 -24 106 Q-13 94 -5 76.5 Q3 59 5 36 Q6 24 5 8.5 Q4 -7 -7 -15 Q-18 -23 -26 -15 Q-34 -7 -37 2 Q-44 23 -43.5 49.5 Q-43 76 -41 95 Q-45 100 -53.5 105.5 Q-62 111 -71.5 115.5 Q-81 120 -90 123 Q-99 126 -104 127 Q-118 130 -116 140 Q-115 146 -109 150 Q-103 154 -98 157 Q-79 168 -60 181.5 Q-41 195 -24 207 Q-11 270 5.5 315.5 Q22 361 27 375 Q29 380 32.5 389 Q36 398 42 399 Q51 400 48 392 Q45 384 44 380 Q37 360 30.5 342 Q24 324 18 305.5 Q12 287 6.5 267 Q1 247 -5 222 Q12 237 29.5 252.5 Q47 268 64 286 Q67 290 75.5 298.5 Q84 307 93 315.5 Q102 324 109.5 330 Q117 336 120 336 Q125 335 128 332 Q131 329 130 324 Q124 297 119 274.5 Q114 252 109 226 Q107 217 106 208.5 Q105 200 104 196 Q102 188 100.5 185.5 Q99 183 95 183 Q90 183 88.5 188 Q87 193 88 199 Q90 231 96.5 257.5 Q103 284 109 310 Z M-29 183 Q-45 172 -62 161.5 Q-79 151 -96 140 Q-81 135 -66.5 129.5 Q-52 124 -38 116 Q-36 133 -33.5 149.5 Q-31 166 -29 183 Z M-27 85 Q-29 74 -29 60.5 Q-29 47 -28 37 Q-26 21 -23 9 Q-20 -3 -15 -1 Q-11 0 -10 11 Q-9 22 -11 36 Q-13 50 -17.5 63.5 Q-22 77 -27 85 Z M132 367 Q127 367 125.5 370 Q124 373 125 376.5 Q126 380 129 383 Q132 386 137 385 Q143 383 140.5 375 Q138 367 132 367 Z " />
<glyph glyph-name="s_t" unicode="&#xfb06;" horiz-adv-x="219" d="M201 470 L194 470 Q154 395 114 334 Q74 273 36 207 Q46 187 45 166 Q44 145 34 127 Q27 115 14 99.5 Q1 84 -13 83 Q-29 81 -32 97 Q-37 120 -20 149.5 Q-3 179 17 208 Q9 220 0.5 232.5 Q-8 245 -13 257 Q-19 276 -9 290.5 Q1 305 17 311 Q22 313 29.5 313 Q37 313 35 305 Q35 299 29 299 Q16 297 6.5 286 Q-3 275 1 263 Q6 252 12.5 242 Q19 232 27 221 Q65 282 104 344.5 Q143 407 178 470 Q121 468 66.5 467 Q12 466 -45 461 Q-49 461 -53 461 Q-57 461 -58 466 Q-60 473 -51 474 Q-43 475 -39 475 Q-35 475 -28 476 Q8 479 65 481.5 Q122 484 187 485 Q191 491 195.5 499 Q200 507 202 512 Q209 526 219 523 Q224 521 224 516 Q224 511 222 503 Q220 495 218 486 Q234 486 264 486.5 Q294 487 325 487 Q356 487 381.5 486.5 Q407 486 415 486 Q421 486 431 485.5 Q441 485 450 484.5 Q459 484 465.5 482 Q472 480 472 476 Q472 468 463 468 Q450 469 428.5 470 Q407 471 381 471 Q355 471 328 471 Q301 471 277.5 470.5 Q254 470 237 470 Q220 470 215 470 Q210 454 204.5 433.5 Q199 413 196 403 Q169 297 152.5 196.5 Q136 96 124 -7 Q125 -12 123 -15.5 Q121 -19 116 -19 Q109 -18 109 -10 Q109 -2 111 2 Q125 100 137.5 193 Q150 286 175 380 Q180 403 186 422 Q192 441 201 470 Z M25 191 Q16 176 7.5 163 Q-1 150 -9 134 Q-12 128 -14.5 120.5 Q-17 113 -19 104 Q-19 95 -10 99 Q-7 100 -3.5 103 Q0 106 3 109 Q19 126 26 147.5 Q33 169 25 191 Z " />
<glyph glyph-name="quoteleft" unicode="&#x2018;" horiz-adv-x="126" d="M37 609 Q34 601 28 601 Q21 602 22 611 Q25 623 30 639 Q31 642 32.5 647.5 Q34 653 35.5 659 Q37 665 38 670 Q39 675 38 677 Q34 680 38 685.5 Q42 691 47 690 Q55 688 55 678 Q53 660 48 642.5 Q43 625 37 609 Z " />
<glyph glyph-name="quoteright" unicode="&#x2019;" horiz-adv-x="126" d="M37 609 Q34 601 28 601 Q21 602 22 611 Q25 623 30 639 Q31 642 32.5 647.5 Q34 653 35.5 659 Q37 665 38 670 Q39 675 38 677 Q34 680 38 685.5 Q42 691 47 690 Q55 688 55 678 Q53 660 48 642.5 Q43 625 37 609 Z " />
<glyph glyph-name="quotedblleft" unicode="&#x201c;" horiz-adv-x="193" d="M58 687 Q65 685 65 681 Q67 661 57.5 634 Q48 607 38 593 Q32 587 29 591 Q22 596 27 602 Q34 616 41.5 635 Q49 654 52 678 Q50 685 58 687 Z M90 684 Q92 683 94 680 Q96 677 94 669 Q89 643 81 620 Q79 616 75.5 608.5 Q72 601 65 606 Q60 611 63 615 Q70 629 73 642.5 Q76 656 81 674 Q83 685 90 684 Z " />
<glyph glyph-name="quotedblright" unicode="&#x201d;" horiz-adv-x="183" d="M54 692 Q61 690 62 686 Q64 666 54.5 639 Q45 612 35 598 Q32 592 26 596 Q23 598 22.5 601 Q22 604 24 606 Q31 620 38.5 639.5 Q46 659 48 683 Q48 690 54 692 Z M86 689 Q88 689 90.5 686 Q93 683 91 675 Q89 663 86 650.5 Q83 638 78 626 Q77 624 76 620.5 Q75 617 73 614 Q71 611 68 610 Q65 609 62 611 Q57 616 60 620 Q67 634 70 648 Q73 662 77 679 Q79 684 80 687 Q81 690 86 689 Z " />
<glyph glyph-name="Euro" unicode="&#x20ac;" horiz-adv-x="274" d="M67 276 Q58 274 51 274 Q44 274 36 272 Q24 269 24 277 Q23 285 33 286 Q44 288 50 288.5 Q56 289 72 292 Q74 297 75.5 302 Q77 307 79 312 Q65 311 53 310.5 Q41 310 30 309 Q23 308 21.5 310.5 Q20 313 19 315 Q19 323 30 324 Q38 325 57.5 326.5 Q77 328 85 328 Q94 347 110.5 366 Q127 385 147 397 Q161 405 175.5 409.5 Q190 414 206 413 Q222 412 236.5 404 Q251 396 249 379 Q249 372 243 372 Q237 372 236 377 Q229 396 208.5 397.5 Q188 399 173 392 Q126 372 103 328 Q115 330 126 330.5 Q137 331 151 332 Q159 332 164 327.5 Q169 323 163 315 Q157 309 153 315 Q152 317 149 317 Q135 315 122.5 314.5 Q110 314 96 313 Q94 308 93 304 Q92 300 90 294 Q106 295 119 296.5 Q132 298 143 298 Q150 298 155.5 295.5 Q161 293 159 287 Q157 282 153.5 282 Q150 282 145 282 Q130 281 116.5 280.5 Q103 280 86 278 Q82 267 79.5 252 Q77 237 78.5 223.5 Q80 210 87 199 Q94 188 109 185 Q127 182 143.5 191 Q160 200 172 210 Q188 223 203 236 Q218 249 233 263 Q236 266 240 267 Q244 268 246 264 Q250 258 245 253 Q226 236 207.5 219.5 Q189 203 169 188 Q160 182 150.5 177 Q141 172 130 170 Q107 165 88.5 175.5 Q70 186 65 209 Q62 225 62 240 Q62 255 67 276 Z " />
<glyph glyph-name="b" unicode="b" horiz-adv-x="140" d="M53 314 Q68 321 75.5 307.5 Q83 294 83 281 L83 275 Q96 283 110 290 Q124 297 140 300 Q147 298 148 292.5 Q149 287 145 285 Q137 283 129.5 280.5 Q122 278 114 274 Q106 270 97 264.5 Q88 259 80 254 Q77 240 72.5 227.5 Q68 215 63 202 Q59 194 53.5 186.5 Q48 179 38 177 Q19 174 17 193 Q16 205 24 219 Q32 233 43 243 Q48 248 53 252 Q58 256 63 261 L66 264 Q67 270 67.5 278 Q68 286 66 292 Q63 301 56 296 Q46 288 37.5 279 Q29 270 21 260 Q17 255 13.5 250.5 Q10 246 7 241 Q4 237 0.5 238.5 Q-3 240 -5 244 Q-6 247 -5.5 250 Q-5 253 -5 256 Q-1 313 11 367.5 Q23 422 41 476 Q44 486 48 495.5 Q52 505 56 515 Q59 523 64 521 Q71 519 68 511 Q54 473 44 437 Q34 401 25 364 Q20 338 17 316 Q14 294 11 273 Q20 285 32 297 Q44 309 53 314 Z M59 237 Q50 229 43 220 Q36 211 33 200 Q31 191 37 192 Q39 193 40.5 195.5 Q42 198 44 200 Q54 216 59 237 Z " />
<glyph glyph-name="c" unicode="c" horiz-adv-x="126" d="M-22 255 Q-21 266 -17.5 279 Q-14 292 0 300 Q8 305 18 302.5 Q28 300 30 289 Q32 280 29 277 Q26 274 23 274 Q17 274 17 280 Q17 285 15.5 288 Q14 291 9 289 Q1 285 -3 274 Q-7 263 -7 254 Q-7 235 9 232 Q21 230 34.5 238.5 Q48 247 56 252 Q73 264 90.5 276 Q108 288 126 300 Q134 297 134.5 293 Q135 289 131 286 Q114 273 96 261 Q78 249 61 237 Q55 233 39.5 224.5 Q24 216 7 218 Q-22 223 -22 255 Z " />
<glyph glyph-name="a" unicode="a" horiz-adv-x="171" d="M-12 244 Q-10 246 -6.5 248 Q-3 250 1 254 Q9 262 15.5 269.5 Q22 277 26 279 Q37 288 42 276 Q46 268 48 258.5 Q50 249 61 247 Q65 246 72.5 248 Q80 250 88 253 Q96 256 103 259.5 Q110 263 115 266 Q119 269 127.5 273.5 Q136 278 144.5 283.5 Q153 289 160.5 293.5 Q168 298 171 300 Q179 298 179.5 293.5 Q180 289 178 287 Q163 276 148.5 267.5 Q134 259 120 251 Q105 243 88.5 237 Q72 231 56 233 Q44 235 38.5 244 Q33 253 30 262 Q22 253 10 242 Q-2 231 -11 229 Q-18 227 -23 230.5 Q-28 234 -28 242 Q-28 267 -10 291 Q-1 303 10.5 303 Q22 303 27 298 Q35 291 29 285 Q27 283 24.5 282.5 Q22 282 20 285 Q17 289 12.5 289 Q8 289 3 284 Q-12 266 -12 244 Z " />
</font>
</svg>
