<?xml version="1.0" encoding="UTF-8"?>
<svg xmlns="http://www.w3.org/2000/svg" xmlns:xlink="http://www.w3.org/1999/xlink" version="1.2" >
<font id="Shaloems Alt">
<font-face  font-family="Shaloems Alt" units-per-em="1000" ascent="750" descent="-250" font-style="normal" font-weight="400" font-stretch="normal" cap-height="700" x-height="500" underline-position="-75" underline-thickness="50" />
<missing-glyph  horiz-adv-x="195" d="" />
<glyph glyph-name="NULL" d="" />
<glyph glyph-name="CR" unicode="&#xd;" horiz-adv-x="195" d="" />
<glyph glyph-name="space" unicode="&#x20;" horiz-adv-x="195" d="" />
<glyph glyph-name="exclam" unicode="&#x21;" horiz-adv-x="245" d="M441 631 C441 636 435 640 431 637 C429 636 428 635 426 633 C410 617 393 600 377 584 C236 444 99 300 -36 154 C-52 136 -68 118 -84 100 C-85 98 -87 95 -88 92 C-90 89 -89 86 -87 83 C-84 81 -80 82 -78 84 C-77 85 -76 86 -75 87 C-66 97 -58 107 -49 117 C-3 167 43 217 89 266 C157 338 225 408 294 479 C330 517 368 553 405 591 C416 602 428 615 439 626 C440 628 441 629 441 631 L441 631 Z M-153 -5 C-148 -5 -145 -2 -145 1 C-145 5 -148 8 -153 8 C-157 8 -161 5 -161 1 C-161 -3 -157 -5 -153 -5 L-153 -5 Z " />
<glyph glyph-name="quotedbl" unicode="&#x22;" horiz-adv-x="345" d="M356 595 C355 594 353 593 351 592 C338 578 324 564 311 550 C308 547 306 545 304 542 C303 539 303 535 306 533 C309 531 312 530 315 533 C317 535 319 536 320 538 C332 551 344 564 355 576 C358 579 360 581 362 583 C364 585 365 588 363 590 C362 593 360 595 356 595 L356 595 Z M272 531 C273 532 275 532 276 533 C279 536 282 538 285 541 C297 555 309 568 321 582 C324 586 324 589 321 592 C318 595 314 594 311 591 C297 576 283 561 269 546 C268 545 266 543 266 542 C264 540 264 538 265 535 C267 533 269 532 272 531 L272 531 Z " />
<glyph glyph-name="numbersign" unicode="&#x23;" horiz-adv-x="310" d="M158 340 C159 341 159 341 159 341 C165 348 171 355 177 361 C178 363 180 364 181 365 C183 368 183 370 182 373 C180 375 178 376 176 376 C172 376 170 374 168 372 C159 362 149 352 139 342 C138 340 136 339 135 339 C112 338 88 337 65 336 C61 336 58 333 58 330 C58 326 60 323 64 323 C67 322 70 322 73 322 C89 323 104 323 119 324 C120 324 121 324 122 324 C122 323 122 323 122 322 C112 312 102 301 93 290 C92 289 91 289 89 289 C85 288 81 288 77 288 C69 288 61 287 53 287 C48 286 45 281 48 277 C49 274 52 273 55 273 C61 274 68 274 74 274 C75 274 76 274 78 274 C77 273 76 272 76 271 C67 262 59 252 50 243 C46 238 42 233 38 227 C35 224 36 221 39 218 C41 216 45 216 48 219 C50 220 52 222 53 224 C68 240 82 256 96 272 C98 273 99 274 101 274 C111 274 120 274 129 274 C130 274 131 274 133 274 C131 273 131 272 130 271 C117 256 104 242 91 227 C88 224 85 220 83 216 C81 212 81 208 85 206 C88 204 92 205 95 208 C98 212 100 216 104 219 C118 236 133 252 148 268 C151 272 155 275 161 273 C162 273 164 273 165 273 C171 272 177 272 183 270 C188 269 191 269 193 273 C195 276 194 280 190 283 C189 284 186 285 184 286 C182 286 179 287 176 287 C173 288 171 288 168 288 C168 289 168 289 169 290 C180 301 191 312 202 324 C203 324 205 325 206 325 C212 325 217 325 223 324 C230 324 238 324 244 320 C248 319 252 320 254 323 C256 326 255 330 252 332 C249 334 246 336 242 337 C235 338 228 339 221 340 C220 340 220 340 218 340 C219 341 220 341 220 342 C226 348 231 354 237 360 C241 364 242 368 239 371 C236 374 232 373 228 369 C218 360 209 351 199 342 C198 341 197 340 195 340 C184 340 172 340 161 340 C160 340 159 340 158 340 L158 340 Z M112 289 C113 291 114 291 114 292 C124 302 133 312 142 322 C143 324 145 324 147 324 C157 325 168 325 178 325 C179 325 181 325 182 325 C181 324 181 323 180 323 C170 312 159 301 149 291 C148 290 146 289 145 289 C135 289 125 289 114 289 C114 289 113 289 112 289 L112 289 Z " />
<glyph glyph-name="dollar" unicode="&#x24;" horiz-adv-x="354" d="M143 337 C143 336 142 336 141 335 C137 331 133 326 129 321 C94 285 60 250 28 212 C26 211 25 209 23 209 C-22 187 -67 166 -112 145 C-126 138 -141 132 -156 125 C-160 124 -162 121 -161 117 C-160 113 -157 111 -153 112 C-150 112 -147 113 -145 114 C-130 121 -114 127 -99 134 C-65 150 -32 166 2 182 C3 182 4 182 5 183 C5 181 4 179 4 178 C5 175 6 173 9 172 C12 171 14 172 16 175 C22 182 27 188 33 195 C34 197 36 198 38 199 C64 213 90 225 116 239 C136 249 155 260 173 273 C181 279 188 285 193 293 C197 298 200 303 200 309 C200 317 197 324 190 329 C185 333 178 337 172 341 C171 341 170 342 169 342 C170 343 171 344 172 345 C208 382 244 418 280 455 C288 462 288 462 298 461 C302 460 307 459 311 457 C315 456 316 452 315 448 C314 445 312 442 310 439 C304 431 297 423 290 415 C288 412 285 409 282 406 C280 402 280 399 283 397 C286 394 290 395 293 398 C296 402 300 406 304 410 C310 416 316 422 321 429 C325 434 327 439 329 444 C333 455 329 465 319 470 C315 472 310 473 305 475 C304 475 303 475 301 476 C303 477 303 478 304 478 C314 489 324 500 334 511 C337 514 336 517 334 520 C332 523 328 523 325 521 C324 520 323 519 322 518 C309 505 296 492 283 479 C281 477 279 476 277 476 C271 475 265 474 259 473 C229 468 201 458 174 445 C155 436 137 425 121 411 C114 405 108 399 103 390 C101 385 99 380 100 374 C101 365 106 358 113 353 C122 347 131 343 140 338 C141 338 142 338 143 337 L143 337 Z M263 459 C262 457 261 456 260 456 C226 421 191 386 157 351 C155 349 154 349 152 350 C143 354 134 359 125 363 C123 364 121 366 118 368 C114 372 113 377 116 382 C119 387 122 391 125 395 C135 405 147 413 160 420 C191 438 224 451 259 458 C260 458 261 458 263 459 L263 459 Z M62 228 C63 230 64 230 64 231 C95 264 126 296 156 329 C158 330 159 331 160 330 C166 326 172 324 177 320 C179 319 181 318 182 316 C185 313 186 310 184 306 C181 301 178 297 174 294 C164 284 151 276 139 269 C115 254 89 242 64 229 C64 229 63 229 62 228 L62 228 Z " />
<glyph glyph-name="percent" unicode="&#x25;" horiz-adv-x="436" d="M421 490 C421 489 421 489 421 489 C421 489 420 488 419 488 C355 448 293 406 232 362 C182 326 132 289 82 253 C28 213 -26 174 -78 132 C-83 127 -89 123 -95 118 C-97 115 -98 112 -96 108 C-95 105 -92 104 -88 104 C-87 104 -85 104 -83 105 C-76 108 -69 111 -62 114 C-23 132 15 152 52 172 C53 172 54 173 56 173 C55 172 54 171 54 171 C52 165 49 160 48 155 C44 141 52 132 66 131 C70 131 75 131 79 132 C101 136 120 144 139 155 C151 163 163 171 173 183 C177 187 181 192 182 199 C186 211 179 221 166 223 C159 224 153 222 147 220 C127 214 108 204 93 189 C88 184 83 177 80 170 C78 166 79 163 82 161 C86 159 89 160 92 163 C93 165 95 167 96 169 C101 177 107 183 115 188 C123 193 131 198 140 202 C147 205 154 206 161 208 C163 208 167 208 168 206 C169 205 168 202 167 200 C167 198 165 197 164 196 C161 192 158 188 154 184 C132 166 108 154 80 147 C76 146 71 146 66 146 C62 146 61 147 62 151 C63 154 64 157 66 160 C71 171 79 180 87 189 C88 191 89 192 90 194 C92 198 91 202 87 204 C84 206 81 206 78 204 C73 201 69 198 64 195 C30 176 -5 159 -40 141 C-40 141 -41 141 -42 141 C-41 142 -40 142 -39 143 C-31 150 -22 157 -14 163 C68 223 150 284 232 344 C299 392 367 438 437 481 C443 485 448 489 454 493 C457 495 458 499 457 503 C455 507 452 509 447 508 C445 508 442 508 439 508 C402 502 364 496 327 491 C312 489 296 488 281 487 C280 487 278 487 277 487 C277 488 277 489 278 490 C280 500 274 506 264 504 C262 503 259 502 256 501 C238 492 222 479 210 463 C207 458 204 453 203 447 C201 437 206 429 216 427 C219 427 223 427 226 427 C245 431 261 441 274 455 C278 459 281 463 281 469 C282 471 283 472 285 472 C301 473 316 474 332 476 C358 480 384 484 409 488 C413 489 417 489 421 490 L421 490 Z M253 483 C254 476 259 474 264 473 C267 473 267 471 266 470 C265 468 264 465 262 464 C251 453 239 446 225 442 C224 442 222 442 221 442 C218 442 217 443 218 446 C220 450 222 453 224 457 C232 467 242 475 252 482 C252 482 252 482 253 483 L253 483 Z " />
<glyph glyph-name="ampersand" unicode="&#x26;" horiz-adv-x="312" d="M58 189 C81 198 103 211 130 224 C82 175 33 126 -13 75 C-43 42 -73 10 -101 -24 C-110 -35 -119 -46 -126 -58 C-129 -64 -129 -71 -121 -73 C-116 -74 -112 -70 -111 -65 C-111 -63 -110 -61 -109 -59 C-97 -44 -86 -29 -73 -15 C-4 65 69 142 144 216 C153 225 163 234 171 244 C176 250 177 253 174 258 C170 262 164 260 160 258 C132 243 105 228 78 214 C63 206 49 199 33 196 C35 201 47 215 55 223 C89 255 127 280 168 303 C174 306 181 310 188 313 C192 316 193 319 192 323 C190 327 187 329 182 328 C171 326 159 324 148 323 C135 321 123 320 109 321 C112 326 117 332 123 337 C137 349 152 356 168 364 C198 379 232 392 268 397 C271 397 271 396 271 393 C270 390 268 387 267 384 C265 377 268 372 275 372 C282 372 288 381 293 387 C338 435 383 483 427 531 C443 549 459 567 475 585 C481 591 485 596 486 600 C486 602 484 605 481 606 C474 609 467 596 461 590 C403 527 345 466 286 400 C281 411 273 413 263 412 C257 411 250 410 243 408 C204 398 104 361 94 325 C92 318 95 311 101 308 C111 303 129 306 144 307 C113 287 82 267 55 243 C40 229 23 214 17 197 C14 188 20 180 30 181 C38 181 51 186 58 189 L58 189 Z " />
<glyph glyph-name="quotesingle" unicode="&#x27;" horiz-adv-x="378" d="M379 617 C379 620 378 622 375 623 C373 624 371 624 369 623 C367 621 366 620 364 619 C352 607 339 596 326 584 C320 579 314 573 308 567 C304 563 303 559 306 556 C309 553 312 553 317 556 C321 559 324 562 328 566 C344 581 360 597 377 612 C378 613 379 615 379 617 L379 617 Z " />
<glyph glyph-name="parenleft" unicode="&#x28;" horiz-adv-x="219" d="M-102 65 C-102 65 -102 65 -102 65 C-101 63 -101 61 -101 60 C-100 56 -97 54 -93 55 C-90 55 -87 57 -87 61 C-87 68 -84 74 -82 79 C-72 102 -60 123 -47 145 C-33 170 -18 195 -1 219 C23 254 51 286 80 318 C129 369 183 416 243 454 C278 477 314 499 353 515 C355 516 357 518 357 521 C357 523 356 525 353 527 C350 529 347 528 344 527 C337 524 330 521 324 518 C295 505 269 489 243 472 C181 433 125 386 75 333 C43 300 12 265 -14 227 C-37 194 -57 159 -76 124 C-84 109 -91 94 -98 78 C-100 74 -101 69 -102 65 L-102 65 Z " />
<glyph glyph-name="parenright" unicode="&#x29;" horiz-adv-x="305" d="M308 522 C307 529 305 532 302 532 C298 531 295 529 295 524 C295 523 294 521 294 520 C291 509 288 497 285 486 C274 442 254 401 227 364 C201 330 171 298 140 267 C95 222 46 180 -2 137 C-31 112 -60 88 -89 63 C-93 61 -95 57 -98 54 C-101 52 -101 48 -98 46 C-96 43 -93 43 -89 44 C-88 45 -87 46 -86 46 C-76 55 -66 63 -56 72 C2 120 60 172 116 224 C155 259 191 296 224 337 C242 360 259 383 272 408 C289 441 299 475 307 511 C308 515 308 520 308 522 L308 522 Z " />
<glyph glyph-name="asterisk" unicode="&#x2a;" horiz-adv-x="341" d="M126 429 C138 429 149 430 164 430 C164 429 133 413 125 409 C109 400 92 392 79 383 C76 380 73 377 76 371 C78 367 83 368 87 370 C113 384 138 399 165 413 C158 404 151 397 143 388 C140 385 136 380 133 376 C131 372 131 369 134 366 C140 362 143 367 151 375 C167 391 182 409 199 426 C206 413 213 397 223 386 C226 384 230 385 232 387 C236 391 235 395 230 404 C225 414 220 421 214 431 C233 430 251 431 269 427 C273 426 276 428 277 431 C279 434 278 438 274 440 C263 445 245 446 231 446 C239 450 246 453 254 457 C259 459 263 463 261 469 C258 476 254 474 248 471 C244 469 236 465 230 462 C240 472 248 483 257 495 C259 498 258 502 255 504 C251 507 245 501 241 496 C227 481 215 467 202 453 C197 464 191 475 184 486 C182 489 178 489 175 487 C172 486 171 482 173 479 C178 468 184 457 189 446 C168 445 147 443 126 442 C121 442 119 439 119 435 C119 431 122 429 126 429 L126 429 Z " />
<glyph glyph-name="plus" unicode="&#x2b;" horiz-adv-x="346" d="M119 270 C99 241 75 212 54 181 C52 178 53 174 56 172 C64 168 68 176 73 183 C85 198 132 262 139 270 C158 270 179 272 197 269 C202 269 205 272 206 275 C209 283 199 284 192 285 C178 286 163 286 150 286 C162 300 170 316 182 331 C183 334 182 338 179 340 C176 342 172 342 170 339 C157 321 142 300 130 284 C106 283 85 283 61 282 C57 282 52 280 52 276 C52 272 54 269 61 269 C80 269 100 270 119 270 L119 270 Z " />
<glyph glyph-name="comma" unicode="&#x2c;" horiz-adv-x="239" d="M7 162 C8 162 9 163 11 163 C13 165 14 166 16 167 C29 178 42 189 55 200 C58 202 60 205 63 207 C66 210 66 214 64 216 C62 219 58 220 55 218 C54 217 53 216 51 215 C38 204 25 193 11 182 C8 179 5 176 2 174 C-1 172 -1 169 0 166 C1 164 4 162 7 162 L7 162 Z " />
<glyph glyph-name="hyphen" unicode="&#x2d;" horiz-adv-x="294" d="M81 257 C103 256 120 256 136 256 C141 256 145 257 150 259 C153 259 155 263 154 267 C153 270 150 273 145 272 C142 272 138 271 134 271 C108 272 82 272 56 272 C49 272 42 272 35 272 C31 273 28 270 28 267 C28 263 30 261 34 259 C35 259 37 258 39 259 C55 258 71 257 81 257 L81 257 Z " />
<glyph glyph-name="period" unicode="&#x2e;" horiz-adv-x="192" d="M32 217 C32 220 31 226 24 226 C17 226 16 219 16 216 C16 213 18 208 23 208 C27 208 32 211 32 217 L32 217 Z " />
<glyph glyph-name="slash" unicode="&#x2f;" horiz-adv-x="437" d="M-202 -14 C-202 -17 -200 -19 -197 -20 C-194 -21 -192 -21 -189 -18 C-183 -11 -176 -3 -169 3 C-142 26 -116 49 -88 71 C2 145 95 217 188 288 C285 363 383 437 481 511 C519 540 558 569 596 597 C605 604 614 611 623 618 C626 621 628 624 626 627 C623 631 620 632 616 629 C612 627 608 624 604 621 C541 574 478 527 415 480 C287 384 159 287 33 187 C-24 142 -81 96 -138 50 C-156 35 -174 20 -190 3 C-194 -1 -197 -5 -200 -9 C-201 -11 -201 -12 -202 -14 L-202 -14 Z " />
<glyph glyph-name="zero" unicode="0" horiz-adv-x="282" d="M60 317 C39 296 14 261 19 227 C21 214 29 206 40 203 C79 194 158 275 187 309 C202 327 224 355 222 381 C220 410 191 408 169 400 C164 397 162 394 165 390 C167 386 171 387 175 388 C183 391 207 397 207 381 C207 364 198 349 188 335 C162 300 131 269 97 242 C84 231 66 218 47 217 C38 217 33 226 33 235 C33 263 54 290 77 313 C98 331 120 350 146 366 C149 369 154 366 159 369 C163 372 162 379 157 382 C149 387 140 379 132 375 C107 358 82 339 60 317 L60 317 Z " />
<glyph glyph-name="one" unicode="1" horiz-adv-x="256" d="M203 395 C203 399 201 401 198 402 C196 403 193 402 191 400 C188 397 185 393 183 390 C160 365 137 340 114 315 C88 286 62 256 36 226 C32 221 28 215 23 209 C21 205 22 201 25 199 C28 197 31 197 34 200 C37 203 39 206 41 208 C57 227 72 245 87 263 C117 297 148 330 178 363 C186 372 193 381 200 390 C201 392 202 394 203 395 L203 395 Z " />
<glyph glyph-name="two" unicode="2" horiz-adv-x="309" d="M85 240 C85 240 85 241 84 241 C85 241 86 242 87 243 C122 265 155 290 186 318 C199 329 211 341 221 356 C225 362 229 369 230 376 C233 387 228 396 217 398 C215 399 213 399 210 398 C202 398 195 395 187 392 C179 389 171 385 164 378 C162 376 161 373 160 370 C159 367 160 364 163 363 C166 361 170 362 172 365 C174 369 177 371 180 373 C188 377 196 381 205 383 C208 383 210 384 213 384 C216 384 216 383 216 380 C214 375 212 371 210 367 C205 358 197 350 190 342 C171 323 151 307 130 291 C105 272 79 254 51 239 C46 237 42 235 37 235 C30 233 23 231 16 229 C14 229 12 227 11 226 C8 224 7 221 8 218 C9 215 11 213 14 212 C16 212 18 211 20 212 C28 214 36 217 44 219 C46 220 49 221 52 222 C85 226 117 228 149 230 C166 230 182 231 198 232 C219 232 241 233 262 233 C265 233 267 233 269 231 C272 228 276 229 279 232 C282 236 281 243 277 245 C274 246 271 247 268 248 C261 248 254 248 247 248 C216 247 186 246 155 245 C139 244 122 243 105 242 C98 241 92 241 85 240 L85 240 Z " />
<glyph glyph-name="three" unicode="3" horiz-adv-x="269" d="M136 324 C139 326 141 328 144 330 C159 341 174 351 190 362 C202 371 219 384 225 395 C229 402 225 409 217 412 C199 418 163 409 151 403 C145 400 142 395 147 389 C152 384 156 391 161 392 C176 394 195 401 210 398 C201 389 190 381 179 373 C164 362 149 352 134 341 C122 332 115 322 128 313 C135 308 141 305 147 299 C163 288 132 262 125 257 C105 241 83 228 60 217 C29 200 -3 185 -35 168 C-42 164 -49 161 -55 157 C-60 154 -60 149 -57 145 C-54 141 -49 141 -45 145 C-44 146 -42 148 -39 149 C-13 163 14 176 40 190 C65 203 91 215 115 231 C128 240 142 250 153 263 C165 276 173 294 158 309 C152 315 144 321 136 324 L136 324 Z " />
<glyph glyph-name="four" unicode="4" horiz-adv-x="218" d="M162 354 C132 325 97 294 69 263 C43 236 11 204 -5 175 C-9 169 -5 159 3 161 C11 163 9 169 12 175 C18 182 23 189 29 196 C83 260 143 318 205 373 C212 381 210 396 195 389 C159 371 124 349 85 332 C74 327 62 323 44 320 C52 342 103 372 133 388 C135 388 136 388 138 387 C141 384 147 385 149 389 C151 392 151 396 148 399 C144 404 132 402 125 399 C102 390 82 377 63 362 C50 352 34 338 29 323 C26 314 31 306 41 305 C67 302 124 332 162 354 L162 354 Z " />
<glyph glyph-name="five" unicode="5" horiz-adv-x="256" d="M145 380 C139 376 129 366 124 361 C106 343 88 324 70 306 C66 302 61 296 64 290 C67 284 73 286 79 287 C85 288 134 302 129 285 C127 277 120 270 113 262 C97 245 79 231 59 218 C27 196 -8 179 -43 163 C-69 151 -95 139 -121 127 C-126 124 -137 121 -135 113 C-135 100 -118 110 -113 114 C-106 118 -98 121 -90 125 C-57 140 -24 155 8 171 C40 187 71 206 99 229 C116 242 139 262 144 283 C146 292 142 301 134 305 C120 311 105 310 90 305 C114 333 144 359 169 384 C187 388 225 394 232 395 C244 397 256 398 269 399 C272 399 276 399 279 397 C281 395 285 395 287 397 C289 400 290 402 289 405 C285 414 271 414 258 413 C222 410 186 403 144 394 C137 392 134 391 134 385 C134 382 138 379 145 380 L145 380 Z " />
<glyph glyph-name="six" unicode="6" horiz-adv-x="218" d="M105 260 C84 273 45 246 32 237 C38 247 46 260 54 270 C91 315 135 353 185 386 C188 388 198 390 198 399 C198 402 195 404 192 404 C185 404 174 397 164 390 C134 370 106 346 80 320 C61 301 43 281 27 259 C19 247 12 234 7 220 C1 206 -3 200 -7 187 C-9 182 -7 179 -2 178 C2 177 5 179 7 183 C8 185 8 186 9 188 C12 183 17 179 27 178 C51 177 81 196 101 219 C109 229 119 249 105 260 L105 260 Z M30 193 C21 193 18 198 20 208 C20 209 21 210 22 211 C35 223 50 233 66 240 C71 242 97 254 98 244 C94 229 82 218 69 209 C59 202 39 192 30 193 L30 193 Z " />
<glyph glyph-name="seven" unicode="7" horiz-adv-x="282" d="M225 378 C223 376 222 374 220 373 C212 365 204 356 195 349 C147 309 100 267 55 225 C38 208 20 192 5 174 C2 170 -1 167 -3 163 C-4 160 -5 157 -5 154 C-5 150 -1 147 3 147 C7 147 9 149 10 154 C11 156 11 158 12 159 C18 166 24 173 31 180 C65 215 101 247 138 280 C163 302 189 324 215 346 C222 353 229 360 236 368 C238 370 240 374 241 377 C243 384 240 390 233 392 C230 393 225 393 221 393 C209 392 196 391 184 390 C167 389 151 386 134 389 C130 390 127 387 127 384 C126 381 127 378 130 377 C131 376 133 375 135 375 C146 373 157 373 168 374 C184 375 200 377 216 378 C219 378 221 378 225 378 L225 378 Z " />
<glyph glyph-name="eight" unicode="8" horiz-adv-x="256" d="M133 314 C132 313 131 312 130 312 C121 308 113 305 105 301 C62 278 21 253 -19 225 C-34 215 -47 203 -58 189 C-63 182 -68 175 -70 167 C-74 151 -67 139 -52 134 C-45 132 -38 131 -31 132 C-15 132 0 137 14 142 C52 157 85 179 115 206 C127 216 138 227 147 240 C161 261 165 283 154 307 C153 308 154 309 155 310 C160 313 165 316 169 319 C184 329 199 340 212 353 C218 359 224 366 227 375 C231 387 227 398 216 404 C208 409 200 411 191 411 C172 411 155 406 138 398 C130 395 123 390 117 384 C106 373 103 359 112 345 C117 336 123 328 129 320 C130 318 131 316 133 314 L133 314 Z M145 280 C145 268 140 257 134 247 C125 235 114 224 102 214 C74 191 44 171 11 157 C-2 152 -16 147 -30 147 C-36 146 -42 146 -48 148 C-55 151 -57 155 -56 163 C-54 169 -51 174 -47 179 C-37 193 -24 203 -10 213 C29 241 70 266 113 288 C121 293 130 295 138 299 C140 300 142 299 142 296 C144 291 145 286 146 280 C146 280 145 280 145 280 L145 280 Z M189 396 C195 396 201 395 207 393 C213 389 215 385 212 378 C209 372 205 367 201 362 C188 350 173 339 158 329 C155 327 151 325 148 323 C147 322 146 321 145 323 C139 332 132 340 126 349 C119 360 120 368 132 377 C143 386 155 390 168 393 C175 394 182 395 189 396 L189 396 Z " />
<glyph glyph-name="nine" unicode="9" horiz-adv-x="269" d="M162 348 C162 348 162 348 162 348 C162 347 161 347 161 346 C124 305 88 265 51 224 C32 201 12 178 -7 155 C-10 152 -12 148 -14 144 C-17 140 -14 134 -10 132 C-6 131 0 134 1 138 C2 141 3 144 5 146 C7 150 10 153 13 156 C62 215 113 272 164 328 C180 345 195 361 211 378 C213 380 214 383 216 385 C218 388 218 392 216 395 C214 398 211 399 207 398 C205 398 203 397 202 396 C193 389 184 383 175 376 C174 375 173 375 172 374 C172 376 173 377 173 378 C174 382 176 386 177 391 C179 401 173 409 163 410 C161 410 159 410 157 410 C147 409 139 405 130 400 C106 386 85 368 66 348 C57 339 50 329 43 319 C40 313 38 308 37 302 C37 293 42 287 51 286 C54 286 57 287 60 288 C70 290 79 295 89 300 C113 314 137 330 160 347 C160 347 161 348 162 348 L162 348 Z M165 370 C165 369 164 368 163 368 C138 350 112 331 85 315 C77 311 68 307 60 303 C58 302 55 302 53 301 C53 302 52 302 52 302 C54 305 55 308 57 311 C62 319 67 327 73 334 C92 355 113 373 138 387 C145 391 151 394 159 395 C163 396 164 395 163 391 C162 388 161 385 160 382 C158 375 158 373 165 370 L165 370 Z " />
<glyph glyph-name="colon" unicode="&#x3a;" horiz-adv-x="274" d="M75 217 C75 222 72 225 68 225 C64 225 61 222 61 218 C61 214 64 211 68 211 C72 211 75 213 75 217 L75 217 Z M128 280 C132 280 135 284 135 287 C135 290 132 293 129 293 C125 294 122 291 122 287 C122 284 125 280 128 280 L128 280 Z " />
<glyph glyph-name="semicolon" unicode="&#x3b;" horiz-adv-x="256" d="M25 165 C26 165 28 166 30 167 C39 174 47 181 56 188 C67 198 78 207 89 216 C92 218 93 222 91 225 C89 228 86 229 83 227 C81 227 79 226 78 224 C61 211 44 197 27 184 C24 181 22 179 19 176 C17 174 17 172 18 169 C19 166 22 165 25 165 L25 165 Z M151 292 C151 296 148 299 144 299 C140 299 137 296 137 293 C137 288 140 285 144 285 C148 285 151 288 151 292 L151 292 Z " />
<glyph glyph-name="less" unicode="&#x3c;" horiz-adv-x="434" d="M71 240 C71 241 70 241 70 241 C71 241 72 242 73 242 C78 244 82 246 87 248 C120 262 154 272 188 284 C221 295 255 306 288 318 C297 322 305 326 313 330 C317 333 318 337 316 340 C314 343 310 344 306 342 C302 340 297 337 292 335 C267 326 242 317 217 309 C182 297 148 286 114 274 C97 268 80 261 63 254 C60 253 57 251 54 248 C50 244 50 237 54 233 C56 230 59 229 62 228 C66 226 71 225 75 223 C101 217 127 210 153 203 C166 200 179 197 192 194 C197 192 200 194 201 199 C202 203 200 207 195 208 C159 217 123 227 86 236 C81 237 76 239 71 240 L71 240 Z " />
<glyph glyph-name="equal" unicode="&#x3d;" horiz-adv-x="397" d="M146 231 C168 230 189 231 210 228 C213 227 216 229 217 232 C219 236 218 239 214 241 C211 242 208 243 205 244 C176 246 147 247 119 246 C111 245 105 245 98 245 C95 244 92 243 91 240 C91 237 92 234 94 233 C96 232 98 231 99 231 C115 231 131 231 146 231 L146 231 Z M192 283 C192 283 192 282 192 282 C180 282 167 282 155 281 C152 281 150 281 147 280 C143 280 141 277 141 273 C142 269 145 267 149 267 C176 267 203 268 230 268 C232 268 234 268 237 267 C241 267 245 268 246 272 C247 275 245 279 241 281 C238 282 235 283 232 283 C219 283 205 283 192 283 L192 283 Z " />
<glyph glyph-name="greater" unicode="&#x3e;" horiz-adv-x="423" d="M245 238 C232 232 216 228 202 223 C146 205 91 186 38 163 C28 159 18 154 9 149 C6 148 4 145 2 143 C0 140 1 136 4 134 C6 132 10 131 13 134 C18 138 25 141 31 144 C68 160 105 175 142 187 C176 199 210 210 243 221 C255 225 266 230 267 232 C270 237 268 242 263 245 C254 250 246 254 237 259 C222 267 206 275 191 283 C181 288 172 293 161 299 C158 301 154 300 152 297 C146 291 160 283 165 280 C188 268 210 256 232 245 C236 243 240 240 245 238 L245 238 Z " />
<glyph glyph-name="question" unicode="&#x3f;" horiz-adv-x="561" d="M551 582 C504 595 450 585 405 562 C397 558 389 553 383 546 C380 542 378 538 378 533 C378 529 380 526 384 526 C387 526 390 528 391 531 C392 534 393 537 395 539 C398 541 400 543 403 544 C439 567 508 582 548 567 C562 562 569 549 568 534 C568 507 549 481 531 457 C509 429 484 403 459 378 C415 336 369 297 322 258 C265 211 208 164 154 113 C130 90 106 68 82 45 C77 40 73 35 70 30 C67 24 61 14 71 11 C80 8 81 20 86 26 C92 34 99 41 107 49 C167 107 230 162 294 216 C335 249 375 283 414 317 C451 349 486 383 518 419 C545 448 576 485 583 528 C586 553 575 573 551 582 L551 582 Z M18 -68 C21 -69 26 -68 28 -65 C30 -62 30 -56 24 -53 C19 -51 14 -54 13 -57 C11 -61 13 -67 18 -68 L18 -68 Z " />
<glyph glyph-name="at" unicode="&#x40;" horiz-adv-x="523" d="M207 248 C207 248 207 248 231 260 C220 247 209 225 207 206 C206 194 212 184 224 181 C246 174 287 188 307 199 C362 228 409 268 447 317 C471 347 492 391 479 434 C472 458 456 474 434 485 C408 498 381 500 353 497 C282 489 216 448 159 401 C110 360 67 311 32 257 C0 209 -29 152 -26 91 C-25 75 -21 60 -13 46 C2 21 24 10 53 13 C101 17 160 65 211 101 C217 105 222 110 217 116 C215 120 207 115 202 111 C161 82 111 44 71 32 C47 25 17 27 0 53 C-17 82 -13 118 -4 150 C4 178 17 205 32 230 C58 273 88 311 122 346 C184 410 270 475 365 483 C388 484 410 481 431 470 C447 461 459 448 465 430 C476 396 456 356 436 327 C402 283 361 248 314 220 C290 206 253 191 231 194 C223 196 221 199 222 207 C227 231 250 262 270 283 C271 284 273 286 274 288 C276 292 274 296 270 298 C267 300 264 299 261 297 C230 276 157 234 128 234 C131 242 137 250 142 256 C160 276 181 292 204 306 C215 313 234 324 257 324 C259 324 261 323 260 320 C260 318 259 316 259 314 C259 310 261 307 265 307 C271 307 273 313 274 318 C275 329 270 336 260 338 C232 343 189 315 161 295 C143 280 121 260 114 239 C110 226 118 218 130 219 C150 220 182 235 207 248 L207 248 Z " />
<glyph glyph-name="A" unicode="A" horiz-adv-x="583" d="M389 213 C388 212 290 107 271 88 C251 66 230 44 209 22 C198 11 100 -89 90 -98 C88 -100 85 -103 86 -105 C87 -110 92 -113 96 -111 C98 -110 99 -109 101 -107 C146 -66 185 -23 228 21 C249 43 269 64 289 85 C311 108 406 210 412 216 C418 216 448 216 455 216 C461 215 463 217 464 219 C466 223 464 226 461 228 C458 230 455 231 448 231 C442 231 435 231 427 231 C498 313 577 389 647 474 C680 509 712 546 745 590 C756 603 770 627 772 639 C772 643 770 647 765 648 C755 651 728 638 710 628 C688 615 666 601 645 587 C601 559 558 530 515 500 C467 466 419 432 371 397 C316 357 262 317 208 277 C179 255 126 216 116 209 C113 208 8 198 0 197 C-11 195 -25 195 -34 195 C-41 195 -43 191 -43 187 C-42 185 -40 181 -29 181 C-19 181 -10 181 2 182 C6 183 85 191 94 192 C86 185 18 134 -17 108 C-47 85 -77 62 -107 39 C-152 4 -197 -30 -241 -65 C-269 -86 -296 -108 -323 -131 C-331 -138 -338 -145 -345 -152 C-347 -154 -352 -160 -348 -164 C-344 -166 -339 -167 -337 -162 C-317 -145 -297 -128 -276 -111 C-237 -80 -198 -49 -158 -19 C-120 10 -83 39 -45 68 C9 109 112 186 124 195 C127 195 388 214 389 213 L389 213 Z M757 635 C751 623 744 612 734 599 C689 539 638 484 576 416 C521 353 463 292 405 230 C401 230 159 212 144 211 C159 223 166 227 174 234 C216 264 257 295 298 326 C344 360 391 394 437 427 C478 456 518 484 559 512 C606 545 654 577 703 606 C721 618 736 624 757 635 L757 635 Z " />
<glyph glyph-name="B" unicode="B" horiz-adv-x="524" d="M642 546 C639 538 622 526 614 520 C595 506 575 494 555 481 C513 455 471 430 429 404 C402 387 375 370 348 352 C335 343 323 335 311 325 C297 315 288 305 284 297 C280 290 280 282 285 275 C287 272 289 269 292 267 C297 261 303 255 309 250 C319 241 327 232 335 221 C342 211 348 201 352 189 C355 178 356 166 354 155 C352 145 348 137 344 128 C337 117 329 107 320 98 C309 86 297 75 285 66 C238 29 186 2 130 -17 C104 -27 78 -34 50 -38 C34 -41 18 -43 1 -44 C-19 -45 -39 -45 -59 -42 C-70 -41 -82 -38 -93 -34 C-100 -31 -106 -27 -112 -23 C-127 -11 -128 -1 -127 20 C-126 29 -123 38 -119 47 C-110 63 -100 77 -88 91 C-73 109 -57 126 -40 142 C-17 164 7 185 31 205 C51 222 71 238 91 254 C100 260 116 272 122 273 C127 274 135 270 137 279 C139 285 134 290 128 291 C122 291 114 286 111 284 C104 280 97 276 90 271 C57 247 26 221 -4 194 C-18 182 -31 169 -45 157 C-62 141 -79 125 -94 107 C-105 94 -116 81 -125 66 C-133 51 -140 35 -142 18 C-143 7 -142 -4 -137 -14 C-133 -24 -125 -32 -116 -38 C-106 -45 -95 -49 -84 -52 C-67 -57 -49 -59 -31 -59 C-15 -60 1 -59 16 -58 C29 -56 41 -55 53 -53 C79 -48 104 -42 128 -34 C158 -24 187 -11 214 3 C244 19 273 37 299 59 C314 70 327 83 340 97 C349 109 358 121 363 136 C371 154 372 172 367 191 C364 202 359 212 353 221 C343 237 331 250 318 262 C313 266 304 274 299 280 C296 284 294 287 299 294 C305 302 311 307 342 330 C365 346 388 361 412 376 C457 404 503 432 549 461 C571 474 593 488 614 502 C624 509 633 516 643 524 C647 528 650 532 654 536 C657 540 660 550 655 556 C647 563 628 559 623 558 C608 554 594 549 580 542 C559 533 538 522 518 510 C487 492 457 473 427 454 C374 419 294 364 252 330 C254 332 274 355 282 364 C304 388 326 411 348 435 C366 454 384 474 402 493 C423 516 444 539 465 562 C484 583 504 605 522 627 C534 640 544 654 554 668 C555 670 560 678 555 681 C549 685 545 678 544 677 C530 660 517 644 503 627 C486 607 467 586 449 566 C426 540 402 515 379 489 C369 479 358 467 348 456 C329 435 309 414 290 393 C279 381 268 370 258 359 C237 336 217 313 196 291 C188 282 181 273 173 264 C165 256 158 248 151 241 C139 228 127 216 115 203 C106 193 98 183 89 172 C85 166 84 161 88 158 C93 155 96 157 102 163 C119 182 135 200 152 219 C161 229 170 239 180 248 C199 266 219 284 240 301 C278 332 318 361 358 390 C391 413 426 436 460 458 C493 479 527 499 563 518 C578 526 594 533 610 539 C618 542 634 547 642 546 L642 546 Z " />
<glyph glyph-name="C" unicode="C" horiz-adv-x="497" d="M-70 16 C-78 -7 -84 -30 -79 -55 C-75 -71 -66 -83 -50 -87 C-33 -93 -1 -81 20 -69 C44 -57 66 -42 88 -27 C143 12 198 52 252 92 C269 104 285 116 303 132 C305 135 304 139 302 141 C300 143 296 144 293 142 C288 138 282 133 278 130 C214 81 149 34 84 -12 C61 -28 37 -43 12 -56 C-1 -63 -15 -70 -30 -72 C-50 -76 -61 -68 -65 -50 C-67 -35 -65 -27 -62 -12 C-58 10 -49 31 -39 51 C-22 86 -2 118 20 151 C66 219 117 283 171 345 C229 409 289 471 356 526 C397 560 440 592 486 619 C508 632 530 643 555 650 C567 654 580 656 593 655 C604 653 611 648 613 638 C615 625 610 609 603 595 C588 564 567 539 542 516 C539 513 535 510 532 507 C529 504 530 501 532 498 C535 496 539 495 541 498 C548 503 554 508 560 514 C585 536 604 562 619 592 C625 605 629 618 629 633 C628 651 618 664 600 668 C575 673 555 666 529 657 C498 645 470 628 443 609 C381 569 325 522 272 471 C197 399 129 322 66 241 C31 194 -3 146 -32 95 C-47 70 -60 44 -70 16 L-70 16 Z " />
<glyph glyph-name="D" unicode="D" horiz-adv-x="536" d="M179 301 C175 298 170 293 163 287 C164 288 176 301 180 307 C251 383 322 460 393 537 C426 573 459 609 488 647 C489 648 490 649 490 650 C493 653 491 658 487 659 C483 660 481 658 478 656 C435 606 391 557 346 508 C247 401 148 295 52 186 C37 169 21 152 6 136 C2 131 -7 122 1 116 C6 111 13 118 16 123 C31 139 45 157 60 172 C100 214 143 252 187 288 C275 359 367 425 463 485 C514 517 571 554 629 572 C637 575 655 579 656 565 C656 559 654 552 650 543 C642 525 631 510 620 494 C594 459 565 427 534 396 C447 307 353 225 254 149 C178 90 96 40 9 0 C-17 -13 -44 -23 -71 -31 C-84 -35 -96 -37 -108 -38 C-120 -38 -140 -36 -144 -20 C-147 -3 -138 15 -127 31 C-108 55 -80 83 -51 95 C-51 94 -51 94 -51 93 C-49 88 -43 86 -38 91 C-37 93 -36 95 -35 98 C-30 113 -47 113 -57 109 C-71 102 -84 93 -96 83 C-112 69 -128 55 -140 37 C-150 23 -157 9 -159 -8 C-162 -29 -151 -45 -131 -50 C-119 -54 -108 -53 -96 -52 C-76 -49 -57 -43 -38 -36 C10 -18 55 5 100 30 C169 68 234 113 296 162 C370 221 441 284 509 350 C547 386 583 423 615 464 C632 485 647 506 660 530 C665 540 670 550 671 562 C673 578 663 589 647 590 C640 590 632 589 625 587 C567 568 514 535 456 498 C355 435 271 376 179 301 L179 301 Z " />
<glyph glyph-name="E" unicode="E" horiz-adv-x="424" d="M594 689 C573 695 541 688 518 680 C482 668 448 652 416 633 C381 613 349 591 320 565 C307 552 294 539 284 523 C270 498 267 470 283 443 C289 433 297 422 303 411 C310 399 310 393 299 384 C271 360 239 343 206 322 C113 263 28 195 -50 117 C-72 94 -94 70 -112 44 C-127 24 -146 -8 -143 -31 C-141 -43 -135 -49 -125 -51 C-98 -56 -32 -18 -3 -4 C32 13 65 30 100 47 C105 50 111 54 116 58 C120 61 119 67 115 69 C112 70 110 70 107 68 C78 53 48 37 18 23 C-16 6 -51 -10 -86 -27 C-95 -31 -105 -35 -116 -36 C-126 -37 -129 -34 -128 -24 C-127 -17 -125 -11 -123 -5 C-116 12 -106 27 -95 42 C-76 68 -54 92 -30 115 C50 195 138 264 235 322 C263 339 306 364 317 381 C323 390 325 400 320 410 C313 425 303 438 293 456 C282 478 286 502 302 523 C313 538 326 550 340 562 C378 594 420 620 464 642 C489 654 514 664 540 671 C553 674 581 679 596 672 C600 670 602 667 603 662 C603 644 590 626 579 612 C563 592 546 575 529 558 C514 544 500 530 485 516 C482 513 482 509 484 506 C487 504 491 504 494 507 C516 525 537 544 557 565 C573 581 589 598 602 618 C609 629 615 640 617 653 C620 671 611 685 594 689 L594 689 Z " />
<glyph glyph-name="F" unicode="F" horiz-adv-x="596" d="M507 555 C514 564 548 599 566 618 C578 631 590 646 601 660 C603 662 604 665 605 667 C607 671 604 675 599 675 C597 675 595 674 594 672 C590 667 586 661 582 657 C551 623 516 587 485 554 C471 552 404 546 385 544 C366 541 287 531 267 528 C262 528 257 528 252 527 C247 526 245 524 245 520 C246 516 248 514 252 514 C255 514 259 514 262 514 C286 517 373 528 392 530 C412 532 464 537 470 538 C469 536 411 475 384 446 C334 392 240 293 229 282 C208 279 183 275 161 271 C125 265 88 258 52 248 C43 246 37 244 27 241 C22 240 20 236 21 233 C22 229 25 227 29 228 C33 229 36 230 39 231 C95 244 200 263 216 265 C213 262 50 84 -29 -3 C-46 -21 -61 -39 -77 -57 C-79 -59 -81 -61 -82 -64 C-84 -67 -83 -70 -80 -72 C-78 -74 -74 -74 -72 -72 C-70 -70 -68 -69 -67 -67 C-57 -56 -48 -45 -38 -34 C52 64 149 170 239 268 C244 269 284 274 303 277 C344 281 387 285 402 286 C414 287 426 288 438 288 C447 288 458 287 464 282 C467 280 470 281 472 283 C474 285 474 288 473 291 C472 294 469 296 465 298 C455 301 437 305 393 300 C372 299 349 296 329 294 C305 291 273 287 254 285 C267 298 363 402 413 456 C438 483 479 526 492 540 C501 540 654 551 674 553 C693 554 887 564 908 565 C912 565 916 565 920 563 C924 562 928 564 929 567 C931 570 931 574 928 576 C926 577 922 580 912 580 C892 580 684 568 637 565 C585 561 514 556 507 555 L507 555 Z " />
<glyph glyph-name="G" unicode="G" horiz-adv-x="616" d="M354 171 C386 192 455 235 459 237 C455 230 435 210 425 200 C383 157 339 114 297 71 C251 25 205 -21 159 -68 C150 -77 141 -87 133 -98 C130 -101 128 -105 127 -108 C126 -111 127 -115 130 -116 C132 -118 135 -117 137 -116 C138 -115 139 -114 139 -114 C150 -99 162 -85 175 -72 C228 -19 281 35 334 88 C372 126 410 164 448 203 C458 213 477 234 484 245 C486 249 486 253 483 257 C479 262 471 260 463 256 C453 250 443 245 433 239 C389 211 345 183 300 157 C243 124 186 94 126 68 C101 58 75 47 48 41 C33 38 17 35 2 37 C-16 39 -26 49 -29 66 C-31 83 -27 99 -21 117 C-12 145 3 170 19 194 C47 235 80 273 115 309 C175 369 239 423 308 472 C354 505 402 536 453 562 C486 579 561 613 610 612 C632 612 654 605 657 579 C657 564 648 548 638 533 C630 522 621 512 612 502 C608 497 602 491 604 484 C606 478 613 476 616 483 C617 488 622 492 625 495 C643 514 662 537 669 564 C674 592 663 617 633 624 C598 632 556 621 518 607 C476 592 436 571 397 548 C339 514 284 474 230 432 C173 386 118 336 69 281 C40 249 13 215 -9 177 C-28 145 -46 105 -43 64 C-41 44 -28 30 -9 25 C15 18 41 24 66 31 C98 40 129 53 159 67 C226 97 291 133 354 171 L354 171 Z M547 280 C547 283 545 285 543 287 C540 289 538 290 535 290 C490 295 442 295 392 292 C367 291 342 290 317 288 C294 287 262 283 246 283 C241 285 234 281 235 275 C235 272 237 270 240 269 C248 267 263 269 278 270 C306 272 335 275 363 276 C401 278 439 279 477 279 C492 279 506 278 521 278 C526 277 531 277 536 273 C541 270 547 274 547 280 L547 280 Z " />
<glyph glyph-name="H" unicode="H" horiz-adv-x="472" d="M336 281 C335 280 191 129 120 55 C106 41 93 26 80 12 C78 10 77 7 75 4 C73 1 74 -2 76 -4 C79 -6 82 -6 84 -5 C85 -4 86 -3 87 -2 C95 6 102 14 110 22 C189 108 339 263 357 282 C360 281 372 278 374 277 C378 274 382 274 384 277 C387 279 387 282 385 286 C382 292 372 294 370 294 C371 296 452 378 492 419 C526 453 560 487 594 522 C608 536 622 552 633 568 C635 570 636 572 637 574 C638 577 637 581 633 582 C630 584 626 583 624 579 C623 577 622 575 621 574 C610 562 600 550 589 538 C560 509 531 480 503 451 C453 400 366 312 350 297 C342 297 223 292 222 292 C223 294 256 328 272 344 C340 412 409 481 477 550 C500 572 522 596 544 620 C552 628 559 637 567 646 C569 649 569 653 567 655 C565 658 562 658 559 656 C556 655 554 652 552 650 C522 616 490 583 457 550 C403 496 349 442 294 388 C263 356 212 304 199 290 C183 289 112 284 93 282 C83 282 72 281 62 281 C58 281 55 279 54 275 C54 271 55 268 61 267 C66 267 71 267 76 267 C109 269 180 274 183 274 C182 272 28 110 -47 30 C-71 4 -95 -24 -119 -51 C-123 -57 -127 -63 -131 -69 C-134 -72 -133 -77 -129 -79 C-126 -81 -122 -80 -119 -76 C-117 -73 -114 -69 -111 -66 C-92 -41 -70 -17 -48 7 C35 97 122 188 206 276 C209 276 334 282 336 281 L336 281 Z " />
<glyph glyph-name="I" unicode="I" horiz-adv-x="256" d="M450 613 C449 616 448 618 446 619 C444 620 441 620 439 619 C435 616 432 613 429 609 C379 554 328 500 276 447 C173 340 71 234 -29 126 C-59 94 -88 61 -118 29 C-125 21 -131 12 -136 3 C-139 -1 -138 -5 -135 -7 C-132 -9 -128 -9 -125 -5 C-110 16 -93 35 -76 54 C5 142 88 229 171 316 C227 375 284 433 340 492 C369 523 397 554 425 584 C433 592 440 601 447 609 C448 610 449 612 450 613 L450 613 Z " />
<glyph glyph-name="J" unicode="J" horiz-adv-x="458" d="M172 106 C172 106 211 141 230 158 C306 231 378 308 445 390 C474 426 501 464 525 504 C538 526 550 547 557 571 C562 586 565 601 562 616 C559 635 549 647 531 652 C519 655 499 656 470 649 C412 636 358 613 307 580 C292 571 278 560 266 547 C256 536 255 530 255 526 C254 522 257 520 260 519 C263 519 267 521 267 524 C268 529 271 532 275 536 C285 546 297 555 309 563 C340 585 373 601 408 615 C436 625 465 635 494 639 C505 640 515 640 526 638 C537 635 545 629 548 615 C551 594 544 578 540 567 C530 541 517 517 502 495 C476 454 447 416 416 379 C352 301 282 228 209 159 C191 143 165 120 153 111 C96 119 37 121 -32 117 C-53 116 -74 113 -94 108 C-130 99 -173 78 -188 38 C-195 21 -194 4 -184 -12 C-165 -41 -117 -43 -84 -39 C-53 -34 -24 -23 4 -9 C42 9 78 32 112 57 C127 69 144 82 158 94 C160 93 171 90 169 87 C168 83 169 80 172 78 C175 76 179 77 181 80 C190 91 180 99 172 106 L172 106 Z M138 98 C119 80 65 41 26 19 C-17 -6 -67 -28 -119 -26 C-144 -26 -170 -17 -177 10 C-179 23 -175 34 -169 45 C-147 77 -108 92 -69 98 C0 109 73 106 138 98 L138 98 Z " />
<glyph glyph-name="K" unicode="K" horiz-adv-x="492" d="M81 190 C79 188 58 166 49 155 C3 104 -43 54 -87 1 C-97 -10 -105 -22 -115 -34 C-117 -36 -119 -40 -120 -43 C-122 -48 -120 -52 -115 -54 C-111 -55 -107 -53 -105 -48 C-104 -45 -103 -42 -101 -39 C-85 -20 -70 -1 -54 18 C-6 72 83 172 94 184 C107 178 146 150 167 133 C229 81 289 28 348 -27 C367 -44 385 -61 403 -78 C405 -79 407 -81 409 -82 C412 -84 414 -83 417 -81 C419 -79 419 -76 418 -74 C417 -72 416 -71 415 -70 C410 -64 405 -59 399 -54 C329 11 258 75 184 137 C160 158 118 187 105 195 C106 197 162 257 188 286 C195 294 202 300 211 305 C273 341 332 380 392 420 C460 465 528 511 594 559 C621 579 676 623 687 635 C692 640 695 651 684 654 C678 655 673 655 667 653 C662 651 663 643 668 641 C669 641 671 640 672 640 C665 634 659 628 652 622 C615 591 575 562 535 535 C476 494 416 454 356 414 C319 389 238 339 236 338 C249 352 395 506 472 585 C501 614 529 644 557 674 C568 685 577 698 586 710 C589 714 589 718 586 720 C583 723 579 722 576 718 C570 711 565 705 559 698 C542 679 525 660 507 642 C401 533 295 424 192 312 C190 310 188 308 185 306 C155 289 125 271 94 256 C72 245 49 235 26 226 C23 225 19 224 15 224 C2 225 -10 226 -22 223 C-26 222 -41 217 -39 208 C-37 196 -22 199 -17 200 C-6 201 6 204 17 207 C20 209 23 209 27 208 C43 205 78 191 81 190 L81 190 Z M91 202 C77 208 63 213 48 219 C85 234 119 252 153 271 C151 267 98 208 91 202 L91 202 Z " />
<glyph glyph-name="L" unicode="L" horiz-adv-x="497" d="M47 63 C50 66 149 157 196 203 C302 305 409 409 515 512 C546 542 577 572 606 605 C611 610 616 616 622 620 C624 621 625 624 624 627 C624 629 621 631 618 631 C615 632 613 630 611 629 C607 625 604 622 601 619 C581 598 561 577 540 557 C499 517 457 476 415 436 C330 353 245 271 160 189 C118 148 40 77 26 65 C16 65 0 66 -10 67 C-41 68 -72 67 -102 63 C-113 61 -124 59 -135 53 C-139 51 -143 49 -147 45 C-153 39 -155 31 -152 23 C-150 19 -148 15 -146 11 C-139 2 -133 -8 -126 -17 C-123 -20 -121 -24 -118 -26 C-110 -34 -101 -36 -91 -34 C-83 -33 -76 -30 -70 -27 C-59 -21 -49 -15 -39 -8 C-17 7 13 33 32 50 C57 48 84 45 103 44 C119 42 291 26 310 24 C327 23 554 6 572 5 C591 4 763 -7 779 -8 C793 -9 807 -9 822 -10 C830 -10 832 -6 832 -3 C832 0 831 4 824 4 C811 5 797 5 784 6 C769 7 488 26 469 27 C452 28 230 46 217 47 C201 49 135 55 119 57 C101 59 54 63 47 63 L47 63 Z M10 51 C8 49 -30 18 -48 4 C-57 -3 -66 -8 -76 -13 C-80 -16 -86 -18 -91 -19 C-99 -22 -105 -20 -111 -13 C-113 -11 -115 -8 -117 -5 C-122 3 -128 11 -133 18 C-134 21 -136 23 -137 26 C-139 30 -139 34 -135 36 C-131 39 -127 41 -123 42 C-111 47 -99 49 -87 50 C-56 54 -13 53 10 51 L10 51 Z " />
<glyph glyph-name="M" unicode="M" horiz-adv-x="742" d="M134 278 C142 286 302 457 387 543 C412 569 463 624 464 626 C467 628 468 632 466 635 C460 643 452 633 447 628 C428 608 409 587 390 567 C315 492 241 415 168 337 C106 271 45 204 -17 137 C-21 133 -26 128 -30 123 C-33 119 -32 115 -29 113 C-25 110 -21 110 -18 113 C-16 115 -14 117 -12 120 C1 133 13 146 26 159 C62 195 100 229 138 262 C211 323 285 382 361 438 C402 468 443 498 485 526 C498 533 517 546 527 548 C525 541 520 535 517 530 C502 506 486 483 470 459 C445 422 419 385 397 347 C385 328 368 293 370 276 C371 268 376 261 385 260 C402 257 424 270 440 278 C469 294 497 312 525 331 C594 377 663 422 733 468 C793 508 852 546 912 585 C912 584 879 550 863 535 C765 440 667 344 572 246 C491 162 410 79 331 -7 C310 -30 291 -53 271 -75 C269 -78 267 -81 265 -85 C263 -88 264 -91 267 -93 C269 -95 273 -95 275 -93 C277 -92 278 -90 279 -89 C303 -61 326 -34 351 -7 C408 53 465 113 523 173 C612 266 702 358 795 448 C835 486 874 525 913 564 C922 573 938 589 945 601 C946 604 946 607 944 610 C941 613 938 614 934 613 C921 608 894 592 880 583 C783 519 686 455 589 391 C545 362 501 332 455 305 C440 295 424 286 407 279 C402 277 396 275 390 274 C385 274 384 276 384 280 C388 300 396 316 408 336 C427 370 449 402 471 434 C488 460 506 485 523 511 C530 521 543 543 543 553 C543 559 538 564 532 564 C520 564 505 555 497 550 C473 537 451 521 428 505 C328 434 144 285 134 278 L134 278 Z " />
<glyph glyph-name="N" unicode="N" horiz-adv-x="571" d="M7 167 C-20 147 -76 104 -76 104 C-75 105 -58 128 -50 137 C-18 174 16 209 50 244 C103 297 156 350 209 403 C244 439 280 474 313 513 C314 514 316 516 318 517 C321 519 323 522 321 525 C319 530 313 531 309 528 C306 525 303 522 300 519 C284 503 269 486 254 470 C203 419 152 368 102 317 C54 269 7 222 -39 172 C-57 153 -74 132 -90 111 C-99 98 -105 86 -99 81 C-94 76 -87 78 -76 85 C-57 99 -37 114 -18 129 C54 185 127 241 203 293 C302 361 403 425 510 482 C547 502 586 521 626 537 C641 543 657 549 674 552 C678 553 682 554 687 554 C690 554 691 553 690 550 C688 547 687 545 686 542 C678 530 669 519 659 508 C634 482 610 456 585 431 C468 312 351 194 235 76 C190 31 146 -16 102 -62 C96 -68 90 -75 84 -82 C81 -86 82 -90 85 -92 C88 -95 91 -95 94 -91 C96 -89 98 -87 100 -85 C151 -32 202 22 254 75 C342 165 431 254 519 344 C564 389 608 434 653 480 C668 495 683 513 694 528 C698 534 702 540 704 547 C707 558 702 566 690 568 C682 569 673 568 665 565 C640 560 617 550 594 540 C548 520 504 496 461 472 C393 434 327 393 262 351 C174 293 89 231 7 167 L7 167 Z " />
<glyph glyph-name="O" unicode="O" horiz-adv-x="712" d="M-7 -29 C-6 -29 -4 -30 -3 -30 C15 -32 32 -30 48 -27 C81 -21 112 -10 144 1 C188 18 232 38 274 59 C375 111 469 169 558 238 C596 267 634 300 667 335 C686 356 703 378 718 402 C727 420 734 436 735 454 C736 468 735 482 727 493 C719 507 704 514 689 518 C674 520 659 520 644 516 C615 511 588 499 564 486 C496 453 437 409 381 356 C334 312 291 265 248 216 C226 188 203 161 184 130 C178 121 173 111 169 99 C168 92 167 85 171 79 C174 75 177 73 180 74 C184 76 185 80 183 84 C182 86 183 90 184 93 C185 103 190 112 195 119 C208 142 224 162 240 182 C274 223 309 262 346 301 C375 331 406 362 440 389 C484 423 530 454 580 479 C603 488 625 498 652 502 C664 504 678 505 691 502 C708 496 720 484 721 465 C721 455 720 445 716 436 C710 418 700 401 690 386 C670 360 648 337 626 315 C582 273 534 237 485 202 C403 145 318 95 229 54 C182 32 135 12 86 -2 C64 -9 41 -14 17 -15 C5 -17 -8 -16 -20 -12 C-39 -6 -47 5 -48 25 C-48 36 -45 47 -43 57 C-34 80 -22 101 -9 122 C12 155 36 185 62 214 C114 275 171 330 232 384 C278 425 326 465 376 501 C407 523 439 543 473 559 C483 564 494 568 505 573 C507 574 509 573 509 571 C514 567 519 569 521 575 C523 579 521 583 517 584 C514 585 512 587 509 587 C503 586 497 585 491 583 C474 578 459 570 444 561 C404 539 367 514 330 485 C236 413 150 333 70 245 C40 213 10 178 -14 140 C-29 120 -42 98 -53 73 C-59 58 -63 42 -63 25 C-62 3 -53 -13 -34 -23 C-25 -26 -16 -30 -7 -29 L-7 -29 Z " />
<glyph glyph-name="P" unicode="P" horiz-adv-x="719" d="M118 218 C102 241 90 264 88 286 C87 293 90 297 97 299 C97 299 98 299 99 300 C103 301 104 304 103 308 C103 311 100 313 96 313 C84 313 74 304 73 292 C72 283 74 271 76 262 C83 242 96 221 107 207 C79 179 49 148 22 119 C-19 77 -60 34 -97 -11 C-105 -20 -113 -30 -120 -39 C-123 -43 -122 -47 -119 -50 C-116 -53 -113 -53 -109 -51 C-107 -49 -105 -47 -103 -45 C-85 -26 -66 -7 -48 13 C8 71 66 131 125 186 C136 175 154 162 170 156 C190 148 211 145 232 144 C262 143 291 146 321 152 C371 162 419 179 464 200 C532 231 593 271 650 318 C684 345 715 375 742 408 C759 429 774 452 785 477 C791 493 796 509 794 526 C793 543 786 556 771 566 C762 571 753 574 743 575 C726 576 709 574 693 571 C662 565 633 554 605 541 C555 520 507 493 460 465 C378 414 300 356 225 293 C200 272 149 228 148 227 C148 227 259 339 312 392 C376 455 440 518 503 581 C514 592 524 603 535 614 C537 617 537 621 534 624 C532 626 528 626 525 624 C524 623 523 622 522 621 C497 596 472 571 447 546 C338 438 135 235 118 218 L118 218 Z M136 196 C161 218 305 343 396 405 C452 444 510 479 571 509 C605 526 640 541 676 551 C693 556 710 560 728 560 C738 560 748 559 758 556 C771 550 778 540 779 526 C780 514 778 504 775 493 C767 471 756 451 742 433 C721 403 696 378 669 354 C604 295 531 247 451 210 C413 193 373 179 332 170 C305 163 277 159 249 159 C224 158 199 161 175 170 C161 175 143 188 136 196 L136 196 Z " />
<glyph glyph-name="Q" unicode="Q" horiz-adv-x="643" d="M523 607 C522 609 519 621 507 623 C490 626 471 618 456 612 C427 599 399 582 372 565 C310 523 253 475 198 424 C140 368 85 308 37 242 C10 205 -15 166 -35 125 C-51 90 -71 45 -64 1 C-60 -24 -45 -40 -21 -45 C9 -51 40 -44 72 -31 C107 -18 141 -1 174 18 C199 33 243 60 256 68 C252 54 240 24 234 6 C215 -45 195 -97 173 -146 C170 -152 171 -156 175 -158 C179 -160 183 -158 185 -153 C188 -149 190 -144 192 -139 C205 -108 217 -77 229 -46 C245 -6 262 38 274 80 C318 111 371 148 415 183 C477 233 536 286 589 345 C617 377 644 409 666 445 C688 480 710 522 707 568 C703 598 684 621 654 630 C633 636 613 635 592 632 C569 628 544 619 523 607 L523 607 Z M511 602 C509 601 508 600 506 599 C451 568 404 529 365 480 C330 436 307 385 296 330 C291 305 288 279 286 254 C283 221 281 189 277 157 C273 136 267 111 262 89 C209 54 152 19 94 -7 C60 -21 25 -36 -15 -32 C-37 -28 -48 -13 -50 8 C-55 49 -35 92 -13 136 C9 178 35 217 64 254 C152 367 254 465 372 546 C398 565 425 581 454 595 C469 602 485 610 498 610 C506 610 507 610 511 602 L511 602 Z M281 102 C289 132 293 163 296 195 C298 223 301 252 303 280 C307 318 315 356 330 392 C345 429 367 462 394 492 C435 536 483 572 538 598 C557 607 577 614 599 618 C616 620 634 621 652 615 C678 606 693 587 693 559 C693 516 669 476 642 434 C615 397 585 362 554 329 C501 274 444 224 383 177 C350 151 315 128 281 102 L281 102 Z " />
<glyph glyph-name="R" unicode="R" horiz-adv-x="590" d="M149 190 C279 209 404 278 535 357 C608 404 711 480 739 541 C743 550 750 571 737 585 C723 598 700 596 688 595 C636 587 586 562 536 534 C456 491 381 441 309 386 C265 352 222 317 180 281 C251 359 324 434 396 510 C421 536 446 562 468 590 C470 592 471 593 472 594 C474 597 473 601 471 603 C468 605 465 605 462 603 C461 602 460 601 459 599 C455 595 451 590 447 586 C424 562 402 538 379 514 C288 418 198 322 104 223 C86 234 72 242 54 250 C34 258 6 264 -14 250 C-24 242 -26 230 -21 220 C-14 205 1 199 14 194 C28 189 53 185 68 184 C67 182 18 127 -6 100 C-18 86 -30 72 -42 59 C-49 51 -48 46 -44 43 C-39 39 -32 46 -31 47 C7 88 42 131 93 181 C96 183 98 185 101 185 C109 185 116 186 124 187 C127 187 129 186 131 184 C144 174 156 165 169 155 C229 106 289 58 351 12 C368 -1 387 -14 405 -26 C411 -30 417 -32 424 -35 C431 -38 434 -35 435 -32 C436 -29 435 -26 433 -25 C432 -24 431 -23 430 -23 C422 -18 413 -14 406 -9 C384 6 363 20 343 36 C279 86 150 188 149 190 L149 190 Z M123 209 C214 300 320 380 444 463 C492 494 541 522 592 546 C630 565 673 586 717 579 C728 577 732 570 730 559 C717 515 671 477 625 440 C565 391 501 350 433 313 C343 265 249 223 142 204 C132 202 128 205 123 209 L123 209 Z M94 211 C90 207 86 203 81 199 C61 199 38 201 19 208 C9 211 1 216 -6 223 C-11 230 -9 236 -2 240 C12 246 32 241 42 238 C61 232 77 221 94 211 L94 211 Z " />
<glyph glyph-name="S" unicode="S" horiz-adv-x="570" d="M-65 -104 C-26 -104 13 -99 52 -89 C146 -67 232 -25 309 33 C335 53 359 75 381 100 C394 116 407 134 415 154 C424 178 425 203 415 227 C411 237 406 248 398 257 C389 268 379 279 370 290 C358 303 345 316 333 329 C321 342 310 357 302 373 C291 395 290 416 297 439 C303 455 312 469 322 482 C338 503 357 521 377 538 C426 578 480 611 536 639 C575 658 615 674 658 684 C679 689 700 692 722 691 C730 691 738 690 746 686 C754 682 757 676 755 667 C754 662 752 657 750 652 C744 643 739 635 733 628 C715 606 693 586 672 568 C625 529 576 493 526 459 C524 457 522 455 520 453 C518 451 518 449 519 446 C521 444 524 443 527 444 C528 444 529 444 530 445 C539 451 549 457 559 464 C596 488 631 515 665 543 C689 563 713 584 735 608 C744 618 753 628 760 640 C764 647 768 654 769 663 C773 679 766 692 751 700 C742 704 733 705 723 706 C706 707 690 705 673 702 C641 697 611 687 581 675 C516 649 455 614 398 573 C374 555 350 535 329 513 C313 496 299 478 290 458 C274 425 274 392 292 360 C298 351 304 341 311 333 C321 320 332 308 343 297 C355 284 367 272 378 259 C385 250 391 242 397 232 C409 209 411 186 402 162 C398 151 392 140 385 131 C369 107 350 86 328 68 C287 32 242 3 193 -22 C115 -61 33 -86 -55 -90 C-76 -90 -97 -89 -119 -85 C-134 -81 -148 -76 -161 -66 C-172 -57 -178 -47 -181 -33 C-182 -24 -182 -14 -180 -6 C-176 12 -168 27 -158 41 C-144 61 -127 79 -107 95 C-55 137 0 176 57 211 C80 225 103 238 127 248 C134 250 141 252 148 254 C152 255 156 255 160 251 C162 249 166 249 168 251 C171 252 172 256 170 259 C168 265 163 268 157 269 C152 269 148 269 143 268 C136 266 129 264 122 261 C110 256 98 250 86 244 C50 225 16 203 -18 179 C-53 155 -88 130 -120 103 C-141 85 -160 65 -175 42 C-186 25 -194 7 -196 -14 C-198 -39 -190 -61 -170 -77 C-159 -86 -146 -92 -132 -96 C-110 -103 -88 -105 -65 -104 L-65 -104 Z " />
<glyph glyph-name="T" unicode="T" horiz-adv-x="352" d="M513 628 C502 616 497 610 489 603 C418 534 350 462 282 390 C213 317 145 241 78 165 C14 93 -50 20 -114 -52 C-123 -62 -131 -73 -139 -83 C-141 -85 -142 -88 -143 -91 C-145 -95 -143 -98 -140 -100 C-137 -102 -134 -101 -131 -97 C-119 -82 -108 -67 -95 -53 C-22 30 51 114 125 196 C248 334 374 469 505 599 C514 608 519 612 535 628 C562 628 693 627 765 627 C807 626 848 625 889 623 C904 623 920 622 935 617 C937 617 939 617 941 619 C944 622 944 627 940 629 C937 631 932 633 928 634 C915 635 901 637 887 638 C854 639 820 640 787 641 C744 642 700 642 657 642 C497 643 338 644 179 636 C152 635 126 633 99 631 C69 629 39 626 9 624 C7 624 5 623 4 623 C1 622 0 619 0 617 C0 614 2 611 5 610 C6 610 9 610 10 610 C20 610 29 611 38 612 C63 614 88 616 113 618 C147 620 181 622 215 623 C250 625 285 626 320 626 C383 627 482 628 513 628 L513 628 Z " />
<glyph glyph-name="U" unicode="U" horiz-adv-x="643" d="M208 159 C404 294 767 543 802 567 C785 551 661 440 596 378 C488 275 381 170 276 64 C238 26 201 -13 165 -53 C157 -62 148 -74 141 -84 C139 -87 140 -90 143 -92 C145 -94 149 -94 151 -92 C160 -81 168 -71 178 -60 C210 -24 245 11 279 46 C374 143 472 239 570 333 C667 426 766 515 867 603 C878 612 889 622 900 632 C907 638 906 644 905 646 C903 649 898 651 891 647 C884 642 878 638 871 633 C807 589 743 544 679 500 C544 407 409 314 274 222 C215 182 157 141 98 104 C70 86 43 69 13 54 C-3 46 -22 35 -40 36 C-45 36 -48 39 -48 43 C-49 62 -38 80 -31 96 C-16 125 2 152 21 178 C58 229 97 278 138 325 C219 421 306 512 400 597 C433 627 467 656 501 685 C505 689 509 691 514 694 C517 694 519 697 519 700 C519 703 517 705 514 706 C506 709 496 699 490 694 C451 663 414 630 378 597 C287 513 202 423 122 329 C79 279 38 228 0 174 C-17 150 -33 125 -46 98 C-53 83 -62 65 -62 46 C-61 32 -52 24 -39 23 C-27 22 -8 29 1 33 C26 43 49 57 73 71 C119 98 163 129 208 159 L208 159 Z " />
<glyph glyph-name="V" unicode="V" horiz-adv-x="504" d="M-101 12 C-103 5 -106 -6 -104 -15 C-103 -25 -96 -31 -86 -31 C-72 -32 -52 -23 -44 -18 C-21 -6 -1 8 20 23 C63 53 104 86 146 118 C228 182 309 245 389 312 C493 399 597 486 701 574 C719 589 737 605 755 621 C763 628 763 633 761 635 C759 637 755 639 748 634 C742 629 737 624 731 619 C662 560 593 502 523 443 C394 333 262 226 128 122 C89 92 50 62 9 33 C-10 20 -29 6 -50 -5 C-58 -9 -73 -17 -84 -17 C-88 -17 -90 -16 -90 -11 C-90 -1 -87 10 -85 16 C-77 35 -67 53 -56 71 C-34 107 -9 140 17 173 C64 232 113 289 164 344 C215 398 266 452 316 506 C344 536 371 564 394 597 C396 598 398 600 400 601 C403 603 405 607 405 610 C405 613 404 616 400 617 C396 619 393 617 389 611 C360 575 328 540 296 506 C245 451 193 396 141 340 C88 282 36 222 -12 159 C-35 129 -58 98 -77 65 C-87 48 -96 31 -101 12 L-101 12 Z " />
<glyph glyph-name="W" unicode="W" horiz-adv-x="908" d="M409 378 C398 359 381 335 368 317 C340 276 313 234 290 189 C276 160 263 130 257 99 C253 80 251 61 254 42 C258 15 275 -3 301 -9 C318 -13 334 -12 351 -9 C370 -6 390 -1 408 6 C448 20 486 39 522 61 C594 103 662 152 726 206 C765 240 802 275 836 313 C888 373 937 434 981 499 C998 524 1014 548 1027 575 C1032 584 1036 593 1039 603 C1041 608 1042 614 1042 619 C1041 631 1033 637 1019 635 C1016 633 1015 631 1015 628 C1015 625 1017 623 1021 622 C1021 622 1022 622 1023 622 C1027 621 1027 621 1027 616 C1026 607 1021 596 1018 589 C1006 565 992 542 978 520 C947 474 914 430 879 387 C854 356 829 326 802 298 C744 238 680 185 613 137 C566 104 517 73 466 47 C436 32 405 19 372 10 C353 5 333 1 314 4 C286 7 272 22 268 45 C265 59 267 73 269 88 C273 110 281 132 290 154 C305 189 324 223 345 255 C366 290 389 322 412 355 C418 363 423 371 428 380 C430 383 431 386 431 389 C432 395 428 399 422 399 C416 399 410 395 407 394 C395 387 383 380 372 373 C268 306 165 236 63 166 C22 137 -20 109 -61 81 C-73 73 -98 58 -106 55 C-100 69 -86 89 -78 100 C-52 135 -23 168 6 201 C148 359 304 504 468 638 C471 640 472 640 475 640 C482 639 485 650 484 653 C484 657 482 660 477 660 C470 658 457 647 450 642 C383 587 317 530 254 472 C153 378 57 280 -34 177 C-59 149 -82 120 -103 89 C-109 81 -119 66 -122 53 C-123 45 -118 39 -109 40 C-100 40 -86 48 -80 52 C-60 65 -39 77 -19 91 C94 170 209 248 324 324 C351 342 408 377 409 378 L409 378 Z " />
<glyph glyph-name="X" unicode="X" horiz-adv-x="510" d="M639 563 C542 501 364 385 343 372 C350 398 370 465 382 508 C395 553 408 599 416 645 C416 649 414 653 411 654 C407 655 404 653 402 648 C402 646 401 643 401 640 C395 616 390 591 383 567 C364 499 324 361 322 358 C218 288 113 215 10 144 C-77 83 -164 22 -249 -41 C-274 -59 -298 -77 -321 -98 C-326 -103 -331 -108 -336 -113 C-337 -114 -338 -116 -339 -117 C-340 -120 -339 -122 -337 -124 C-335 -126 -332 -127 -330 -125 C-329 -124 -328 -124 -327 -123 C-313 -111 -300 -99 -286 -88 C-259 -66 -231 -45 -203 -25 C-100 50 4 122 108 194 C175 240 297 323 315 336 C309 312 257 122 231 17 C226 -3 221 -23 216 -43 C215 -49 214 -55 216 -61 C217 -65 219 -67 223 -67 C226 -67 228 -64 229 -60 C229 -57 229 -53 230 -49 C234 -33 237 -16 241 -1 C270 115 303 234 336 349 C339 351 421 406 462 432 C532 477 602 522 672 567 C682 573 692 579 701 585 C706 588 711 591 717 589 C720 588 722 590 724 592 C725 595 724 598 722 600 C720 601 719 602 717 602 C712 604 707 602 702 600 C694 597 687 593 680 589 C666 580 653 571 639 563 L639 563 Z " />
<glyph glyph-name="Y" unicode="Y" horiz-adv-x="418" d="M245 353 C345 413 536 542 547 549 C538 541 529 531 522 525 C447 451 373 376 300 300 C196 189 94 77 -7 -36 C-43 -77 -79 -118 -113 -161 C-120 -169 -126 -178 -132 -186 C-133 -188 -135 -191 -135 -193 C-136 -196 -134 -199 -132 -200 C-129 -201 -127 -201 -125 -199 C-124 -198 -123 -197 -122 -196 C-98 -164 -73 -133 -46 -104 C10 -40 66 24 123 87 C198 169 273 251 350 331 C425 409 501 484 578 559 C591 572 602 584 614 596 C616 598 618 601 620 603 C621 606 620 609 618 611 C616 613 613 614 610 613 C609 613 607 612 606 611 C603 609 600 607 596 605 C566 583 535 560 504 539 C420 481 334 424 246 371 C217 354 188 336 157 322 C143 316 130 309 115 307 C110 306 104 305 100 305 C94 305 90 309 90 314 C89 328 92 341 104 369 C116 395 130 419 147 443 C182 493 222 540 266 583 C299 615 334 645 372 672 C377 675 383 679 388 680 C391 680 393 683 393 685 C393 688 392 691 389 692 C386 692 385 693 381 691 C368 688 348 673 338 665 C268 611 208 548 154 478 C133 450 114 421 98 390 C88 373 72 338 77 313 C79 300 88 292 100 293 C121 292 142 299 155 305 C186 319 215 336 245 353 L245 353 Z " />
<glyph glyph-name="Z" unicode="Z" horiz-adv-x="537" d="M13 65 C26 72 41 80 52 85 C131 125 206 171 278 221 C354 275 427 332 495 396 C524 422 551 449 575 479 C590 497 603 515 613 536 C621 551 625 568 624 585 C623 597 618 607 610 616 C603 623 594 627 585 631 C573 635 561 637 549 637 C523 638 498 636 474 631 C429 623 385 609 343 592 C313 580 284 567 257 549 C249 544 242 537 234 531 C232 529 230 527 229 524 C226 520 226 515 228 511 C230 507 233 506 236 507 C239 508 241 511 241 514 C240 517 241 519 243 521 C247 524 250 527 254 530 C265 537 276 544 287 550 C350 584 417 607 487 619 C508 622 530 624 551 622 C563 621 575 619 586 614 C605 606 613 591 609 571 C608 561 604 551 599 541 C590 521 577 504 563 487 C539 458 513 432 486 407 C381 310 267 226 144 152 C93 121 -1 77 -22 67 C-58 67 -102 64 -138 58 C-152 55 -166 52 -180 46 C-185 44 -190 41 -194 38 C-203 30 -200 19 -189 14 C-171 8 -136 15 -120 18 C-88 26 -46 43 -21 52 C-9 52 12 51 23 51 C53 50 83 47 113 42 C173 32 233 20 293 6 C330 -3 367 -13 403 -25 C419 -30 436 -36 451 -44 C457 -48 462 -51 466 -55 C468 -56 470 -59 470 -61 C471 -65 475 -67 478 -67 C482 -66 484 -63 484 -58 C483 -54 482 -50 479 -48 C475 -44 471 -40 466 -36 C456 -30 445 -25 434 -20 C402 -8 370 1 337 10 C283 24 229 35 175 46 C111 58 58 65 13 65 L13 65 Z M-181 29 C-179 30 -165 38 -139 43 C-118 47 -90 50 -68 50 C-85 43 -120 32 -149 28 C-157 27 -177 25 -181 29 L-181 29 Z " />
<glyph glyph-name="bracketleft" unicode="&#x5b;" horiz-adv-x="331" d="M-7 104 C-6 106 -5 106 -4 107 C4 117 12 126 20 135 C142 273 266 408 396 539 C398 542 401 544 403 547 C408 551 413 553 419 552 C428 551 437 550 446 549 C451 548 455 552 454 557 C454 560 451 562 449 562 C437 565 426 567 414 567 C408 567 402 565 397 561 C394 559 391 556 389 554 C358 522 327 491 297 460 C207 364 117 267 30 168 C14 151 -1 134 -17 116 C-19 113 -22 110 -24 106 C-27 99 -24 91 -16 90 C-13 89 -9 89 -6 89 C4 89 14 90 24 90 C29 91 34 91 40 91 C43 91 46 94 47 98 C47 101 45 104 41 105 C39 106 37 106 35 106 C22 105 9 105 -4 104 C-5 104 -6 104 -7 104 L-7 104 Z " />
<glyph glyph-name="backslash" unicode="&#x5c;" horiz-adv-x="358" d="M63 4 C67 6 69 8 69 11 C76 32 83 54 90 76 C108 129 125 181 143 234 C158 278 173 323 188 367 C206 419 226 473 245 525 C258 563 272 602 282 641 C283 645 282 648 278 650 C275 651 271 650 269 645 C268 643 267 640 267 637 C248 578 228 520 206 463 C187 407 167 353 149 298 C133 252 117 206 103 159 C89 117 74 74 60 32 C58 26 56 20 55 14 C53 8 58 3 63 4 L63 4 Z " />
<glyph glyph-name="bracketright" unicode="&#x5d;" horiz-adv-x="324" d="M366 512 C365 511 364 510 364 509 C351 494 340 479 326 466 C261 398 197 329 133 258 C75 193 18 126 -38 59 C-43 52 -49 49 -57 48 C-64 47 -71 46 -79 45 C-86 44 -92 44 -99 43 C-104 42 -107 40 -110 36 C-111 33 -111 29 -108 27 C-106 25 -102 25 -100 27 C-98 27 -96 28 -94 28 C-81 30 -68 31 -55 33 C-44 34 -35 39 -27 48 C-10 69 8 91 26 111 C64 156 103 201 142 246 C205 316 269 386 336 454 C350 469 364 484 376 500 C379 504 381 509 383 513 C385 520 382 525 375 527 C373 527 372 527 370 527 C360 527 351 527 341 526 C340 526 337 525 336 524 C333 523 332 520 333 516 C334 513 336 511 340 512 C348 512 355 512 363 513 C364 513 365 512 366 512 L366 512 Z " />
<glyph glyph-name="asciicircum" unicode="&#x5e;" horiz-adv-x="391" d="M376 610 C372 613 368 613 365 611 C362 609 359 608 356 606 C345 598 335 590 324 582 C300 563 276 544 251 524 C248 522 247 518 249 515 C252 511 255 511 259 514 C262 516 265 518 268 520 C293 539 317 557 342 576 C347 580 351 584 356 587 C356 587 356 587 356 587 C356 586 356 585 355 584 C352 578 349 572 346 566 C340 554 334 543 328 531 C326 527 325 523 324 518 C323 515 326 512 329 511 C332 510 335 511 337 514 C338 516 338 517 339 518 C342 525 345 533 349 539 C358 557 366 574 375 591 C376 594 378 596 378 599 C380 603 379 607 376 610 L376 610 Z " />
<glyph glyph-name="underscore" unicode="&#x5f;" horiz-adv-x="232" d="M49 214 C26 213 6 212 -14 211 C-18 211 -21 209 -22 205 C-22 201 -19 198 -14 198 C-10 199 -6 198 -1 198 C39 198 79 200 119 199 C124 198 127 200 127 204 C128 208 126 211 122 212 C117 212 111 213 105 214 C86 214 66 213 49 214 L49 214 Z " />
<glyph glyph-name="grave" unicode="&#x60;" horiz-adv-x="325" d="M288 505 C291 505 293 507 294 509 C295 513 297 516 298 520 C301 530 304 541 306 551 C308 559 310 566 311 573 C312 578 310 581 306 581 C302 582 299 579 298 575 C298 573 297 572 297 570 C292 553 287 536 282 518 C282 516 281 514 281 512 C281 508 283 505 288 505 L288 505 Z " />
<glyph glyph-name="a" unicode="a" horiz-adv-x="205" d="M-38 231 C-37 240 -29 250 -26 254 C-10 275 10 292 33 304 C38 307 43 309 49 311 C60 314 64 313 65 310 C67 308 66 305 64 303 C62 301 60 300 59 298 C57 295 57 292 60 289 C62 287 66 287 69 290 C73 294 76 298 78 304 C82 313 78 321 69 325 C65 326 52 328 30 319 C2 304 -22 284 -40 259 C-44 254 -52 241 -52 230 C-51 224 -47 220 -41 218 C-34 217 -20 220 -15 223 C2 230 16 238 31 247 C55 260 95 285 109 292 C95 277 62 240 40 216 C20 192 0 168 -18 143 C-22 137 -25 131 -29 125 C-30 123 -31 120 -31 117 C-31 113 -29 111 -27 109 C-23 108 -19 108 -16 111 C-13 113 -10 116 -12 121 C-13 124 -12 126 -10 128 C-6 135 -1 141 4 147 C40 194 78 239 120 282 C135 298 151 313 166 327 C169 330 171 332 173 334 C176 338 176 342 173 345 C171 348 167 348 163 346 C161 345 160 344 158 343 C139 330 120 318 100 305 C68 285 35 264 1 246 C-8 242 -27 230 -38 231 L-38 231 Z " />
<glyph glyph-name="b" unicode="b" horiz-adv-x="206" d="M12 291 C93 375 177 456 263 535 C277 547 289 559 303 573 C306 575 310 581 305 586 C301 589 298 588 293 584 C288 580 280 572 273 566 C192 491 111 412 32 333 C5 306 -22 279 -49 252 C-53 249 -57 243 -52 240 C-48 235 -39 242 -32 247 C-5 266 25 282 55 294 C67 299 79 303 93 306 C102 308 118 308 116 295 C106 253 38 203 1 175 C-24 155 -77 121 -101 130 C-109 134 -103 144 -99 148 C-89 159 -62 171 -52 177 C-19 193 12 212 48 222 C51 223 53 225 53 228 C53 239 42 236 28 231 C-11 213 -49 196 -89 172 C-107 162 -117 148 -118 139 C-119 132 -117 123 -108 119 C-83 108 -45 128 -22 141 C25 171 120 241 130 291 C134 307 125 319 109 320 C77 322 42 304 12 291 L12 291 Z " />
<glyph glyph-name="c" unicode="c" horiz-adv-x="216" d="M-37 158 C-17 155 10 167 32 179 C54 190 76 202 98 215 C138 237 216 284 219 286 C227 290 223 299 216 300 C216 300 207 295 200 291 C166 272 140 256 107 237 C81 221 54 205 26 192 C6 182 -16 171 -39 173 C-45 174 -48 177 -49 183 C-51 205 -30 240 -15 260 C1 280 34 317 64 328 C69 330 73 331 78 331 C84 331 85 327 84 321 C83 318 81 314 80 311 C78 307 79 304 82 302 C85 300 89 301 91 305 C93 309 96 314 97 319 C101 333 93 344 77 345 C62 345 43 336 27 324 C-1 302 -25 275 -43 244 C-54 227 -64 203 -64 185 C-63 169 -53 159 -37 158 L-37 158 Z " />
<glyph glyph-name="d" unicode="d" horiz-adv-x="315" d="M101 285 C72 241 33 204 -5 152 C-20 131 -35 110 -47 86 C-51 77 -58 65 -59 50 C-60 35 -52 25 -35 27 C-15 28 26 59 57 82 C124 134 191 185 258 237 C275 250 292 263 309 277 C313 280 317 283 321 287 C325 291 326 298 315 300 C315 300 309 296 308 295 C249 249 190 203 131 157 C94 129 1 50 -33 40 C-53 33 -41 64 -38 71 C-32 84 -25 96 -18 108 C-2 133 17 157 36 181 C89 249 146 314 205 377 C227 400 247 422 270 444 C299 470 327 497 355 524 C367 535 378 548 390 560 C394 564 398 573 394 576 C387 585 375 571 369 566 C344 541 319 517 295 492 C275 472 256 451 235 431 C205 402 125 323 99 304 C101 318 97 335 78 337 C58 337 38 329 23 318 C-8 298 -57 249 -63 207 C-66 189 -55 181 -39 184 C7 193 60 248 101 285 L101 285 Z M90 296 C89 295 89 294 88 293 C61 269 34 244 4 222 C-7 214 -18 207 -30 201 C-34 200 -51 193 -49 203 C-47 215 -42 226 -31 244 C-16 266 4 286 25 302 C39 312 67 324 79 323 C88 322 85 319 86 308 C86 304 86 300 90 296 L90 296 Z " />
<glyph glyph-name="e" unicode="e" horiz-adv-x="217" d="M4 283 C11 276 20 276 29 279 C46 285 62 300 67 317 C70 329 61 338 49 335 C31 331 15 317 1 302 C-14 287 -27 271 -38 254 C-44 244 -56 224 -56 202 C-56 187 -47 176 -33 173 C-5 166 39 184 72 201 C105 219 139 238 172 256 C187 265 213 280 220 285 C228 290 225 297 217 300 C217 300 214 298 213 298 C193 286 173 274 152 262 C121 244 89 225 56 209 C37 200 18 191 -3 187 C-20 184 -42 182 -41 204 C-40 214 -39 219 -36 227 C-27 247 -10 270 4 283 L4 283 Z M15 293 C21 303 40 318 52 320 C52 308 29 290 15 293 L15 293 Z " />
<glyph glyph-name="f" unicode="f" horiz-adv-x="231" d="M-73 196 C-71 200 13 293 55 336 C116 398 181 458 246 516 C270 538 293 561 317 584 C324 590 331 597 325 602 C320 607 315 601 310 597 C293 580 276 564 259 548 C206 500 152 452 101 402 C31 334 -37 264 -99 189 C-103 185 -107 181 -111 179 C-116 176 -121 173 -125 170 C-130 166 -132 161 -129 156 C-128 154 -129 152 -130 151 C-133 147 -136 143 -139 139 C-161 111 -182 83 -200 52 C-207 39 -224 13 -222 -11 C-221 -20 -216 -27 -206 -30 C-176 -38 -124 -2 -96 19 C-76 36 -54 55 -44 81 C-37 100 -41 116 -55 130 C-68 143 -89 151 -106 158 C-100 164 -97 171 -89 174 C-49 192 19 215 69 233 C119 250 182 269 232 286 C238 287 241 297 231 300 C186 289 143 271 97 258 C42 240 -58 203 -73 196 L-73 196 Z M-115 145 C-101 139 -85 134 -72 125 C-54 112 -51 97 -61 78 C-66 69 -72 61 -80 53 C-105 28 -134 7 -166 -7 C-175 -12 -185 -15 -195 -16 C-206 -17 -209 -14 -207 -3 C-202 24 -186 47 -168 75 C-153 98 -133 122 -115 145 L-115 145 Z " />
<glyph glyph-name="g" unicode="g" horiz-adv-x="221" d="M68 267 C54 251 -14 174 -53 130 C-57 126 -61 123 -65 120 C-126 81 -189 44 -252 9 C-284 -11 -325 -30 -349 -55 C-359 -65 -368 -78 -369 -94 C-368 -103 -364 -109 -356 -112 C-339 -118 -296 -100 -269 -83 C-239 -65 -212 -44 -186 -21 C-140 19 -97 62 -55 107 C-52 111 -48 114 -43 118 C20 157 82 196 145 235 C173 252 197 268 225 285 C229 289 234 297 221 300 C221 300 20 175 -7 158 C15 184 53 227 82 260 C94 274 106 287 119 302 C121 306 126 311 121 316 C118 318 116 319 113 318 C108 316 103 311 97 307 C62 281 27 254 -10 229 C-27 219 -50 200 -72 199 C-71 205 -64 218 -61 223 C-40 253 -12 276 20 294 C35 303 46 303 49 303 C48 300 48 298 47 295 C47 291 49 289 51 288 C55 287 58 288 59 291 C60 293 61 296 62 298 C64 306 61 314 52 316 C41 319 23 313 4 302 C-23 286 -46 266 -65 242 C-72 234 -83 219 -86 203 C-87 190 -82 183 -68 185 C-51 187 -29 200 -20 205 C8 222 66 265 68 267 L68 267 Z M-102 79 C-150 32 -187 -5 -231 -40 C-253 -57 -275 -70 -300 -84 C-313 -91 -332 -101 -349 -99 C-353 -98 -355 -95 -354 -90 C-352 -73 -337 -62 -316 -46 C-297 -34 -278 -23 -259 -12 C-209 17 -172 40 -102 79 L-102 79 Z " />
<glyph glyph-name="h" unicode="h" horiz-adv-x="186" d="M82 196 C90 218 100 242 107 260 C110 266 117 282 117 291 C117 297 113 302 106 302 C70 302 -22 235 -54 216 C-53 218 -41 232 -36 238 C55 342 152 442 252 537 C287 571 323 603 358 636 C360 638 361 639 364 638 C370 636 374 646 374 653 C375 659 369 663 364 660 C354 653 342 641 331 631 C267 572 204 513 144 452 C77 384 11 315 -51 243 C-63 229 -73 216 -84 202 C-89 196 -93 189 -88 184 C-84 179 -77 183 -72 186 C-65 191 -51 199 -43 204 C-2 230 29 250 70 273 C79 277 91 284 103 287 C94 265 82 242 73 216 C67 199 66 196 66 190 C66 184 69 181 74 179 C79 177 82 181 84 185 C85 192 84 195 82 196 L82 196 Z " />
<glyph glyph-name="i" unicode="i" horiz-adv-x="73" d="M41 326 C38 330 30 329 26 325 C18 318 13 312 6 306 C-29 270 -62 234 -94 196 C-106 182 -118 166 -130 151 C-135 144 -140 137 -133 132 C-129 128 -122 136 -119 141 C-109 153 -103 162 -92 175 C-58 216 -22 255 15 294 C23 302 30 309 39 317 C42 319 43 323 41 326 L41 326 Z M82 386 C82 382 85 379 88 379 C92 379 95 382 95 386 C95 390 92 394 88 394 C85 394 82 390 82 386 L82 386 Z " />
<glyph glyph-name="j" unicode="j" horiz-adv-x="86" d="M-424 -150 C-417 -150 -404 -130 -400 -125 C-386 -110 -380 -102 -366 -87 C-299 -14 -230 57 -161 127 C-118 172 -74 215 -28 256 C-9 273 10 291 29 308 C33 312 33 316 30 319 C27 322 24 322 19 318 C-28 274 -76 234 -124 185 C-177 132 -229 79 -281 25 C-323 -19 -364 -64 -406 -109 C-415 -119 -431 -137 -431 -142 C-432 -147 -429 -150 -424 -150 L-424 -150 Z M82 368 C85 368 88 370 88 373 C88 377 85 380 81 380 C78 380 76 377 76 374 C76 371 78 368 82 368 L82 368 Z " />
<glyph glyph-name="k" unicode="k" horiz-adv-x="193" d="M35 315 C42 323 181 475 255 551 C300 598 344 643 389 690 C393 692 398 695 400 697 C404 704 406 709 401 713 C396 716 392 713 389 709 C375 695 361 681 347 667 C297 615 246 564 197 512 C129 439 61 366 -7 293 C-10 289 -15 285 -19 282 C-26 276 -32 270 -39 263 C-42 260 -44 257 -45 252 C-45 250 -46 249 -48 247 C-61 232 -75 217 -88 202 C-105 183 -121 164 -137 145 C-140 141 -149 132 -143 126 C-136 119 -127 133 -123 139 C-111 153 -100 166 -88 180 C-71 199 -53 219 -35 239 C-25 238 -14 239 -5 241 C18 246 42 250 65 256 C105 265 152 275 191 285 C196 285 209 296 193 300 C194 300 182 297 176 296 C137 287 98 278 58 269 C36 265 -11 254 -22 254 C-15 261 -9 269 2 277 C15 286 28 294 42 302 C69 316 98 329 124 346 C131 352 131 360 123 362 C118 364 109 353 104 351 C82 339 59 328 35 315 L35 315 Z " />
<glyph glyph-name="l" unicode="l" horiz-adv-x="93" d="M-183 83 C-185 78 -187 67 -179 66 C-172 64 -170 74 -168 79 C-163 87 -158 94 -153 101 C-130 132 -104 162 -79 191 C-17 262 47 331 112 399 C159 448 207 496 255 545 C285 576 316 606 344 639 C347 642 350 646 353 649 C356 652 355 656 353 658 C349 662 345 660 339 654 C310 625 283 595 254 566 C197 507 139 450 83 390 C23 327 -36 263 -93 198 C-117 170 -141 142 -164 112 C-171 103 -178 93 -183 83 L-183 83 Z " />
<glyph glyph-name="m" unicode="m" horiz-adv-x="329" d="M25 265 C40 273 70 289 76 290 C74 287 72 284 70 281 C61 267 54 256 46 242 C43 239 40 232 39 227 C36 220 42 214 50 215 C58 215 68 221 74 225 C97 239 119 253 142 267 C166 281 212 310 217 312 C215 306 183 271 167 253 C156 239 144 224 134 209 C129 202 124 192 123 184 C121 173 129 166 138 166 C149 165 161 170 167 173 C186 182 203 194 220 206 C251 228 282 250 313 272 C322 278 324 280 332 285 C339 290 337 299 328 300 C328 300 293 276 278 266 C248 245 218 223 189 203 C185 201 156 178 139 180 C135 187 155 213 162 222 C181 245 201 268 220 292 C226 299 237 312 240 320 C242 328 238 334 230 333 C222 332 211 326 206 323 C176 305 147 287 118 269 C99 257 62 235 58 234 C59 235 77 264 85 277 C88 281 90 286 92 291 C94 296 92 301 88 304 C84 307 74 306 56 298 C31 285 -11 262 -24 255 C-12 267 53 333 89 370 C100 381 110 393 120 404 C122 406 123 408 124 410 C126 414 123 419 119 420 C115 421 107 417 107 412 C106 409 105 407 103 406 C87 390 71 373 55 357 C14 315 -27 273 -68 231 C-71 227 -74 224 -77 220 C-79 218 -80 216 -79 213 C-77 208 -72 206 -68 208 C-64 210 -61 213 -57 215 C-31 234 -3 250 25 265 L25 265 Z " />
<glyph glyph-name="n" unicode="n" horiz-adv-x="247" d="M98 293 C95 286 81 265 75 254 C69 243 60 227 59 214 C59 204 65 197 75 198 C81 199 87 201 93 203 C112 210 131 219 149 229 C183 247 216 266 250 285 C256 289 255 298 247 300 C241 297 227 289 213 281 C176 260 157 248 117 229 C106 223 81 212 74 213 C75 219 83 237 88 246 C97 262 111 282 116 296 C119 304 114 311 105 310 C94 308 82 301 74 297 C25 270 -50 223 -71 206 C-56 223 -14 267 15 294 C29 308 43 322 57 336 C60 339 61 344 58 346 C55 349 51 349 47 345 C44 342 40 338 36 334 C3 304 -29 273 -60 241 C-75 226 -102 197 -108 183 C-109 180 -109 176 -106 174 C-103 171 -100 170 -96 172 C-91 174 -77 182 -69 188 C-18 224 24 252 78 282 C84 285 90 289 98 293 L98 293 Z " />
<glyph glyph-name="o" unicode="o" horiz-adv-x="204" d="M22 258 C39 259 88 263 109 267 C140 272 175 279 206 285 C214 288 213 296 204 300 C142 288 82 277 18 273 C17 273 14 274 13 275 C9 277 5 279 1 281 C10 289 19 297 28 305 C30 306 32 307 35 306 C37 306 40 308 41 310 C42 313 42 315 40 317 C37 320 33 322 28 320 C23 318 19 315 15 312 C-5 298 -21 281 -37 263 C-52 246 -69 222 -71 198 C-72 185 -63 177 -51 178 C-27 179 0 205 14 227 C18 234 21 241 22 258 L22 258 Z M-11 270 C-8 263 -3 261 3 260 C5 260 6 258 7 256 C8 251 7 247 5 243 C2 237 -2 231 -6 225 C-18 210 -33 192 -51 192 C-61 192 -53 211 -50 218 C-41 235 -29 250 -15 265 C-14 266 -13 268 -11 270 L-11 270 Z " />
<glyph glyph-name="p" unicode="p" horiz-adv-x="233" d="M16 294 C31 310 43 321 55 333 C59 337 59 341 56 344 C51 349 44 341 37 335 C2 304 -31 271 -64 238 C-134 166 -203 93 -271 19 C-297 -10 -323 -38 -347 -68 C-351 -73 -365 -88 -357 -94 C-354 -96 -349 -96 -343 -88 C-322 -63 -302 -38 -281 -14 C-221 52 -74 206 -61 219 C-32 250 2 272 40 289 C61 298 87 307 107 304 C112 303 114 300 112 295 C110 287 96 274 87 267 C60 244 29 225 -2 208 C-14 202 -27 202 -41 198 C-60 194 -66 190 -66 183 C-65 173 -50 176 -47 176 C-34 178 -22 183 -10 188 C-7 189 -4 190 -1 191 C15 195 32 199 48 203 C83 214 116 228 149 243 C199 266 214 274 234 284 C247 290 244 298 233 300 C217 292 178 273 148 259 C116 245 63 225 48 219 C75 236 118 265 126 290 C131 304 125 315 111 318 C83 324 43 311 16 294 L16 294 Z " />
<glyph glyph-name="q" unicode="q" horiz-adv-x="181" d="M77 271 C62 256 45 239 30 224 C-56 136 -139 45 -221 -48 C-239 -70 -253 -87 -271 -109 C-276 -114 -282 -125 -278 -128 C-274 -133 -266 -133 -262 -124 C-261 -121 -260 -118 -258 -116 C-245 -100 -236 -89 -223 -73 C-173 -15 -121 41 -70 97 C-16 156 40 213 97 269 C118 289 140 311 161 331 C165 335 169 339 164 345 C159 350 158 348 152 345 C112 316 68 284 28 255 C2 237 -22 219 -48 202 C-56 196 -72 188 -81 187 C-80 193 -73 206 -68 212 C-47 243 -19 268 11 290 C24 299 41 310 61 310 C66 310 67 305 68 301 C71 298 73 297 76 297 C79 299 81 302 81 305 C79 313 76 319 68 323 C37 333 -16 291 -43 265 C-58 250 -72 234 -84 216 C-89 208 -93 200 -95 191 C-97 179 -91 171 -78 172 C-63 175 -45 187 -36 193 C-5 212 47 249 77 271 L77 271 Z " />
<glyph glyph-name="r" unicode="r" horiz-adv-x="329" d="M-23 254 C-22 256 21 300 41 322 C55 337 69 352 82 366 C86 370 88 377 84 380 C82 382 79 382 76 381 C70 378 67 371 61 364 C26 327 -9 290 -44 253 C-46 251 -49 250 -52 249 C-57 248 -62 247 -67 245 C-74 242 -76 234 -72 227 C-71 226 -71 225 -72 223 C-90 204 -108 184 -127 165 C-131 161 -142 150 -135 145 C-129 140 -122 146 -118 152 C-98 174 -74 193 -50 212 C-49 213 -47 213 -45 213 C-35 209 -24 208 -13 207 C11 205 36 206 60 209 C140 221 216 244 303 275 C313 279 325 283 334 286 C339 288 339 298 329 300 C299 289 267 278 232 267 C155 241 68 214 -17 222 C-22 223 -28 223 -33 224 C-24 231 -18 235 -12 239 C-10 241 -8 242 -5 242 C16 246 37 251 57 258 C79 266 100 275 120 288 C139 301 144 312 141 318 C139 324 129 328 109 322 C89 316 71 307 53 297 C31 284 10 271 -12 257 C-15 255 -19 255 -23 254 L-23 254 Z M125 310 C117 301 86 286 69 279 C57 275 32 266 30 266 C43 275 76 294 101 304 C107 306 115 308 125 310 L125 310 Z " />
<glyph glyph-name="s" unicode="s" horiz-adv-x="265" d="M70 234 C63 253 51 267 37 281 C25 293 14 303 6 317 C-7 340 23 365 42 378 C63 391 84 401 108 404 C115 405 122 406 128 404 C135 402 136 398 134 391 C130 383 124 375 115 366 C98 349 79 333 56 322 C52 320 50 317 52 314 C54 310 57 309 62 311 C65 312 69 314 73 316 C96 329 117 345 134 366 C138 370 145 379 148 390 C151 403 146 413 134 417 C123 421 111 420 102 418 C69 411 39 397 13 375 C0 365 -11 350 -12 332 C-13 321 -9 311 -3 302 C9 287 23 274 38 257 C48 246 54 236 56 228 C54 227 -29 191 -67 172 C-115 148 -160 122 -204 92 C-226 77 -248 60 -267 41 C-274 34 -288 19 -291 3 C-292 -5 -289 -12 -282 -15 C-269 -21 -250 -18 -241 -16 C-218 -10 -195 -2 -174 8 C-125 30 -81 58 -38 90 C-3 116 32 143 61 183 C67 193 73 206 73 219 C83 223 95 228 104 232 C144 248 184 264 226 276 C242 280 254 284 269 286 C273 287 276 298 265 300 C265 300 255 299 251 298 C238 295 226 292 213 288 C172 275 131 258 90 242 C84 240 77 237 70 234 L70 234 Z M57 212 C54 190 26 161 7 145 C-52 93 -116 50 -188 18 C-207 9 -227 2 -247 -3 C-257 -5 -266 -6 -271 -5 C-276 -4 -278 -1 -276 6 C-269 19 -256 31 -249 38 C-226 60 -200 78 -173 95 C-109 136 -43 170 26 199 C34 203 54 211 57 212 L57 212 Z " />
<glyph glyph-name="t" unicode="t" horiz-adv-x="325" d="M179 477 C177 475 75 379 28 330 C-30 270 -86 208 -137 142 C-161 112 -183 81 -202 48 C-217 22 -232 -5 -233 -38 C-232 -55 -222 -66 -205 -66 C-163 -67 -88 -17 -31 23 C82 101 178 171 288 253 C303 265 318 277 331 287 C333 288 340 299 325 300 C313 292 279 264 267 256 C193 202 143 166 69 112 C19 75 -31 40 -83 6 C-117 -16 -162 -51 -206 -52 C-215 -52 -218 -47 -219 -40 C-224 -14 -193 36 -178 60 C-153 99 -124 135 -95 171 C-5 279 98 382 202 477 C205 477 305 475 354 473 C364 473 373 472 383 471 C386 470 390 472 391 475 C392 478 391 482 387 483 C384 485 376 487 354 488 C311 490 222 492 220 492 C220 493 269 538 293 560 C296 563 297 567 295 570 C293 573 289 574 285 572 C284 570 282 569 281 568 C254 543 223 516 197 492 C119 493 6 491 -75 490 C-76 490 -77 490 -78 489 C-81 488 -83 486 -83 483 C-83 480 -81 478 -78 477 C-76 476 -74 476 -72 476 C-47 476 137 478 179 477 L179 477 Z " />
<glyph glyph-name="u" unicode="u" horiz-adv-x="232" d="M170 317 C162 314 156 310 146 308 C99 286 59 263 15 241 C-2 233 -35 216 -39 219 C-44 222 -13 259 3 278 C9 286 19 296 26 304 C30 308 33 314 30 318 C28 321 22 323 18 319 C-14 287 -36 256 -43 244 C-48 235 -54 221 -53 214 C-52 208 -44 204 -35 204 C-20 207 11 223 21 228 C68 252 92 265 143 288 C142 287 104 250 88 231 C45 185 5 140 -34 92 C-44 83 -52 73 -60 62 C-62 59 -64 54 -66 49 C-66 45 -65 42 -59 40 C-55 40 -53 43 -52 46 C-48 53 -45 58 -41 63 C-31 74 -22 86 -11 97 C12 126 37 154 61 181 C98 222 117 242 151 275 C158 281 175 299 177 304 C183 312 176 317 170 317 L170 317 Z " />
<glyph glyph-name="v" unicode="v" horiz-adv-x="342" d="M366 300 C366 300 294 267 261 256 C242 250 224 245 204 243 C187 241 170 242 156 251 C145 258 133 259 125 257 C101 251 83 232 67 218 C22 179 -22 139 -66 100 C-109 62 -125 51 -170 16 C-183 6 -196 -3 -209 -9 C-199 17 -182 39 -166 61 C-126 115 -84 167 -42 219 C-21 246 -3 269 15 298 C18 303 15 306 11 308 C8 309 5 308 3 305 C-3 295 -9 286 -16 277 C-43 242 -71 208 -98 173 C-131 132 -163 90 -193 48 C-208 27 -226 1 -225 -14 C-225 -21 -220 -25 -213 -25 C-202 -25 -189 -15 -181 -10 C-158 6 -136 24 -114 41 C-53 91 -23 117 35 170 C64 195 90 224 121 240 C131 244 140 243 147 239 C189 216 236 233 276 245 C302 254 342 272 367 283 C379 288 381 298 366 300 L366 300 Z " />
<glyph glyph-name="w" unicode="w" horiz-adv-x="379" d="M52 244 C39 224 27 206 16 188 C3 167 -12 143 -14 116 C-14 103 -6 95 7 94 C20 92 43 102 55 109 C96 134 131 164 162 201 C178 221 189 245 192 275 C192 277 192 278 195 278 C198 278 201 278 205 278 C259 274 313 279 380 285 C386 286 396 297 379 300 C327 295 275 289 220 292 C211 292 202 293 193 293 C183 293 178 288 177 278 C177 255 167 234 151 212 C132 188 110 167 86 148 C71 136 55 125 39 117 C30 113 21 109 11 108 C3 107 0 111 1 118 C7 153 41 200 67 238 C69 242 72 247 73 251 C76 260 69 266 61 264 C52 261 39 253 32 249 C-8 223 -46 195 -84 167 C-105 151 -150 117 -151 117 C-151 118 -143 130 -139 135 C-118 161 -96 186 -72 210 C-48 235 -23 259 2 284 C6 288 16 293 12 300 C6 309 1 301 -5 297 C-47 258 -90 215 -128 171 C-143 155 -157 138 -168 120 C-172 113 -180 98 -167 94 C-160 92 -151 99 -144 104 C-119 122 -94 141 -69 159 C-35 185 0 210 35 233 C41 237 46 240 52 244 L52 244 Z " />
<glyph glyph-name="x" unicode="x" horiz-adv-x="221" d="M181 339 C170 343 159 335 148 329 C107 306 24 253 22 252 C21 254 16 289 13 305 C12 311 11 317 8 324 C6 330 0 334 -6 330 C-9 328 -10 324 -7 321 C-4 318 -4 316 -3 312 C2 290 5 264 8 242 C-10 230 -61 196 -94 173 C-162 126 -218 86 -276 41 C-281 36 -287 28 -287 21 C-287 18 -283 15 -280 15 C-277 15 -275 16 -274 20 C-272 25 -266 31 -260 35 C-235 52 -214 70 -191 87 C-125 134 10 226 11 226 C11 226 23 169 29 141 C31 131 34 121 38 112 C41 108 43 104 48 101 C51 100 54 100 56 102 C59 105 59 109 57 111 C51 118 48 126 46 134 C37 167 31 202 25 235 C43 247 91 278 124 298 C139 307 155 315 170 324 C172 325 173 325 174 323 C176 319 181 319 184 322 C189 326 187 337 181 339 L181 339 Z " />
<glyph glyph-name="y" unicode="y" horiz-adv-x="230" d="M148 276 C133 260 31 157 -20 98 C-72 39 -98 9 -149 -51 C-163 -67 -175 -84 -188 -101 C-193 -107 -195 -117 -187 -119 C-180 -121 -178 -113 -175 -108 C-159 -87 -143 -66 -126 -47 C-69 19 -38 54 20 120 C63 169 108 216 155 262 C169 276 184 289 199 303 C203 307 207 312 203 318 C198 323 194 321 187 318 C145 292 103 267 61 242 C35 226 7 210 -20 197 C-27 194 -56 177 -54 196 C-52 207 -47 217 -41 227 C-25 252 -6 275 16 295 C26 304 36 313 47 321 C50 323 52 324 55 323 C60 321 62 324 64 328 C66 333 63 339 56 339 C46 339 37 331 28 325 C4 307 -16 285 -34 262 C-50 242 -67 219 -69 191 C-69 181 -63 173 -52 173 C-28 172 1 190 24 203 C65 227 107 251 148 276 L148 276 Z " />
<glyph glyph-name="z" unicode="z" horiz-adv-x="335" d="M-115 101 C-109 109 -99 118 -93 123 C-62 147 -31 171 -1 195 C34 222 67 251 99 281 C111 293 128 309 133 325 C136 334 130 342 121 341 C93 337 32 312 -2 299 C-6 298 -8 294 -6 290 C-5 287 -2 285 1 286 C5 287 7 288 10 289 C27 295 45 301 62 307 C79 313 103 321 120 327 C113 312 85 289 69 274 C21 230 -31 189 -82 150 C-97 139 -123 120 -130 108 C-136 98 -132 87 -120 87 C-99 87 -78 95 -56 103 C-9 121 38 142 84 163 C169 203 255 239 338 285 C348 290 347 298 335 300 C248 253 155 213 64 171 C25 153 -14 137 -53 120 C-70 113 -95 103 -115 101 L-115 101 Z " />
<glyph glyph-name="braceleft" unicode="&#x7b;" horiz-adv-x="338" d="M418 529 C418 529 418 529 419 528 C418 527 417 526 417 525 C416 521 417 518 420 516 C423 514 427 515 429 518 C430 521 431 524 432 527 C434 536 429 543 419 543 C413 543 407 541 401 538 C386 530 374 520 363 509 C343 490 323 471 304 451 C272 419 238 391 200 366 C183 355 167 343 150 332 C146 329 142 325 140 321 C134 314 135 307 141 301 C144 298 148 295 151 293 C153 291 153 290 151 289 C147 284 143 280 138 275 C113 251 89 225 66 199 C29 154 -6 107 -32 54 C-39 39 -46 24 -51 8 C-52 2 -54 -5 -52 -12 C-51 -19 -45 -23 -38 -22 C-35 -21 -33 -19 -33 -17 C-32 -14 -33 -10 -35 -9 C-38 -8 -39 -6 -38 -4 C-36 2 -35 9 -33 15 C-20 48 -3 78 16 108 C37 141 62 171 88 200 C109 225 132 248 155 271 C158 274 161 277 164 281 C171 289 170 296 161 303 C159 305 156 307 154 310 C151 312 151 312 153 315 C155 317 158 319 160 320 C170 328 180 335 191 342 C213 357 236 372 258 390 C286 412 311 438 337 463 C352 478 367 493 383 507 C391 515 401 521 411 526 C413 527 415 528 418 529 L418 529 Z " />
<glyph glyph-name="bar" unicode="&#x7c;" horiz-adv-x="342" d="M419 604 C419 609 417 612 414 612 C410 613 408 612 406 608 C404 604 401 600 398 597 C384 579 369 560 353 542 C320 503 284 465 250 425 C153 311 57 198 -39 84 C-65 53 -91 21 -117 -10 C-120 -16 -124 -21 -127 -26 C-130 -29 -130 -33 -127 -36 C-124 -38 -121 -38 -117 -34 C-116 -33 -115 -31 -114 -30 C-97 -10 -81 10 -64 30 C2 109 68 188 134 267 C193 335 253 404 312 473 C336 501 362 529 386 557 C396 570 406 584 415 598 C417 600 418 603 419 604 L419 604 Z " />
<glyph glyph-name="braceright" unicode="&#x7d;" horiz-adv-x="318" d="M227 331 C197 304 174 275 153 247 C133 220 112 192 91 164 C61 126 27 93 -14 66 C-49 43 -84 20 -119 -1 C-129 -8 -140 -15 -150 -22 C-152 -23 -155 -26 -156 -28 C-157 -32 -156 -35 -154 -38 C-150 -39 -147 -39 -145 -37 C-141 -34 -138 -32 -135 -30 C-97 -6 -61 19 -23 43 C25 71 66 108 100 152 C120 177 140 204 160 231 C178 256 197 280 219 302 C226 309 236 319 242 328 C244 333 243 339 237 342 C231 348 213 352 216 358 C222 373 235 385 246 398 C265 420 285 441 304 463 C328 490 360 540 363 571 C364 576 363 582 361 587 C358 591 355 592 351 592 C346 591 343 583 347 579 C353 577 349 567 348 563 C344 551 338 539 332 529 C318 503 299 479 279 457 C261 437 243 417 225 396 C215 384 207 375 201 360 C198 347 208 342 218 336 C221 334 223 333 227 331 L227 331 Z " />
<glyph glyph-name="asciitilde" unicode="&#x7e;" horiz-adv-x="324" d="M96 293 C95 291 95 289 95 287 C95 280 94 273 94 266 C94 252 103 244 118 246 C123 247 129 249 134 251 C153 258 173 266 192 274 C198 276 205 279 211 282 C215 284 216 288 214 292 C212 295 208 297 204 295 C203 295 203 295 202 294 C194 291 187 288 179 285 C161 277 142 270 124 263 C120 262 117 262 113 261 C111 261 110 262 110 264 C109 268 109 272 109 275 C110 283 110 289 110 296 C110 304 104 309 96 308 C91 307 87 305 82 303 C72 297 62 291 53 285 C46 281 40 276 34 271 C32 269 31 266 32 263 C33 260 35 259 38 259 C40 258 42 258 44 259 C47 259 49 261 50 263 C50 265 51 267 53 268 C64 275 76 282 87 289 C89 291 92 291 96 293 L96 293 Z " />
<glyph glyph-name="quoteleft" unicode="&#x2018;" horiz-adv-x="305" d="M296 596 C296 599 295 601 292 602 C290 603 288 603 286 602 L281 598 C269 586 256 575 243 563 L225 546 C221 542 220 538 223 535 C226 532 229 532 234 535 L245 545 C261 560 277 576 294 591 C295 592 296 594 296 596 L296 596 Z " />
<glyph glyph-name="quoteright" unicode="&#x2019;" horiz-adv-x="238" d="M243 593 C243 596 242 598 239 599 C237 600 235 600 233 599 L228 595 C216 583 203 572 190 560 L172 543 C168 539 167 535 170 532 C173 529 176 529 181 532 L192 542 C208 557 224 573 241 588 C242 589 243 591 243 593 L243 593 Z " />
<glyph glyph-name="quotedblleft" unicode="&#x201c;" horiz-adv-x="298" d="M298 609 L293 606 L253 564 L246 556 C245 553 245 549 248 547 C251 545 254 544 257 547 C259 549 261 550 262 552 L297 590 L304 597 C306 599 307 602 305 604 C304 607 302 609 298 609 L298 609 Z M214 545 L218 547 L227 555 L263 596 C266 600 266 603 263 606 C260 609 256 608 253 605 L211 560 C210 559 208 557 208 556 C206 554 206 552 207 549 C209 547 211 546 214 545 L214 545 Z " />
<glyph glyph-name="quotedblright" unicode="&#x201d;" horiz-adv-x="338" d="M312 596 L307 593 L267 551 L260 543 C259 540 259 536 262 534 C265 532 268 531 271 534 C273 536 275 537 276 539 L311 577 L318 584 C320 586 321 589 319 591 C318 594 316 596 312 596 L312 596 Z M228 532 L232 534 L241 542 L277 583 C280 587 280 590 277 593 C274 596 270 595 267 592 L225 547 C224 546 222 544 222 543 C220 541 220 539 221 536 C223 534 225 533 228 532 L228 532 Z " />
</font>
</svg>
