<?xml version="1.0" encoding="UTF-8"?>
<svg xmlns="http://www.w3.org/2000/svg" xmlns:xlink="http://www.w3.org/1999/xlink" version="1.2" >
<font id="Shaloems">
<font-face  font-family="Shaloems" units-per-em="1000" ascent="750" descent="-250" font-style="normal" font-weight="400" font-stretch="normal" cap-height="700" x-height="500" underline-position="-75" underline-thickness="50" />
<missing-glyph  horiz-adv-x="195" d="" />
<glyph glyph-name="NULL" d="" />
<glyph glyph-name="CR" unicode="&#xd;" horiz-adv-x="195" d="" />
<glyph glyph-name="space" unicode="&#x20;" horiz-adv-x="195" d="" />
<glyph glyph-name="exclam" unicode="&#x21;" horiz-adv-x="311" d="M441 631 C441 636 435 640 431 637 C429 636 428 635 426 633 C410 617 393 600 377 584 C236 444 99 300 -36 154 C-52 136 -68 118 -84 100 C-85 98 -87 95 -88 92 C-90 89 -89 86 -87 83 C-84 81 -80 82 -78 84 C-77 85 -76 86 -75 87 C-66 97 -58 107 -49 117 C-3 167 43 217 89 266 C157 338 225 408 294 479 C330 517 368 553 405 591 C416 602 428 615 439 626 C440 628 441 629 441 631 L441 631 Z M-153 -5 C-148 -5 -145 -2 -145 1 C-145 5 -148 8 -153 8 C-157 8 -161 5 -161 1 C-161 -3 -157 -5 -153 -5 L-153 -5 Z " />
<glyph glyph-name="quotedbl" unicode="&#x22;" horiz-adv-x="345" d="M356 595 C355 594 353 593 351 592 C338 578 324 564 311 550 C308 547 306 545 304 542 C303 539 303 535 306 533 C309 531 312 530 315 533 C317 535 319 536 320 538 C332 551 344 564 355 576 C358 579 360 581 362 583 C364 585 365 588 363 590 C362 593 360 595 356 595 L356 595 Z M272 531 C273 532 275 532 276 533 C279 536 282 538 285 541 C297 555 309 568 321 582 C324 586 324 589 321 592 C318 595 314 594 311 591 C297 576 283 561 269 546 C268 545 266 543 266 542 C264 540 264 538 265 535 C267 533 269 532 272 531 L272 531 Z " />
<glyph glyph-name="numbersign" unicode="&#x23;" horiz-adv-x="310" d="M158 340 C159 341 159 341 159 341 C165 348 171 355 177 361 C178 363 180 364 181 365 C183 368 183 370 182 373 C180 375 178 376 176 376 C172 376 170 374 168 372 C159 362 149 352 139 342 C138 340 136 339 135 339 C112 338 88 337 65 336 C61 336 58 333 58 330 C58 326 60 323 64 323 C67 322 70 322 73 322 C89 323 104 323 119 324 C120 324 121 324 122 324 C122 323 122 323 122 322 C112 312 102 301 93 290 C92 289 91 289 89 289 C85 288 81 288 77 288 C69 288 61 287 53 287 C48 286 45 281 48 277 C49 274 52 273 55 273 C61 274 68 274 74 274 C75 274 76 274 78 274 C77 273 76 272 76 271 C67 262 59 252 50 243 C46 238 42 233 38 227 C35 224 36 221 39 218 C41 216 45 216 48 219 C50 220 52 222 53 224 C68 240 82 256 96 272 C98 273 99 274 101 274 C111 274 120 274 129 274 C130 274 131 274 133 274 C131 273 131 272 130 271 C117 256 104 242 91 227 C88 224 85 220 83 216 C81 212 81 208 85 206 C88 204 92 205 95 208 C98 212 100 216 104 219 C118 236 133 252 148 268 C151 272 155 275 161 273 C162 273 164 273 165 273 C171 272 177 272 183 270 C188 269 191 269 193 273 C195 276 194 280 190 283 C189 284 186 285 184 286 C182 286 179 287 176 287 C173 288 171 288 168 288 C168 289 168 289 169 290 C180 301 191 312 202 324 C203 324 205 325 206 325 C212 325 217 325 223 324 C230 324 238 324 244 320 C248 319 252 320 254 323 C256 326 255 330 252 332 C249 334 246 336 242 337 C235 338 228 339 221 340 C220 340 220 340 218 340 C219 341 220 341 220 342 C226 348 231 354 237 360 C241 364 242 368 239 371 C236 374 232 373 228 369 C218 360 209 351 199 342 C198 341 197 340 195 340 C184 340 172 340 161 340 C160 340 159 340 158 340 L158 340 Z M112 289 C113 291 114 291 114 292 C124 302 133 312 142 322 C143 324 145 324 147 324 C157 325 168 325 178 325 C179 325 181 325 182 325 C181 324 181 323 180 323 C170 312 159 301 149 291 C148 290 146 289 145 289 C135 289 125 289 114 289 C114 289 113 289 112 289 L112 289 Z " />
<glyph glyph-name="dollar" unicode="&#x24;" horiz-adv-x="354" d="M143 337 C143 336 142 336 141 335 C137 331 133 326 129 321 C94 285 60 250 28 212 C26 211 25 209 23 209 C-22 187 -67 166 -112 145 C-126 138 -141 132 -156 125 C-160 124 -162 121 -161 117 C-160 113 -157 111 -153 112 C-150 112 -147 113 -145 114 C-130 121 -114 127 -99 134 C-65 150 -32 166 2 182 C3 182 4 182 5 183 C5 181 4 179 4 178 C5 175 6 173 9 172 C12 171 14 172 16 175 C22 182 27 188 33 195 C34 197 36 198 38 199 C64 213 90 225 116 239 C136 249 155 260 173 273 C181 279 188 285 193 293 C197 298 200 303 200 309 C200 317 197 324 190 329 C185 333 178 337 172 341 C171 341 170 342 169 342 C170 343 171 344 172 345 C208 382 244 418 280 455 C288 462 288 462 298 461 C302 460 307 459 311 457 C315 456 316 452 315 448 C314 445 312 442 310 439 C304 431 297 423 290 415 C288 412 285 409 282 406 C280 402 280 399 283 397 C286 394 290 395 293 398 C296 402 300 406 304 410 C310 416 316 422 321 429 C325 434 327 439 329 444 C333 455 329 465 319 470 C315 472 310 473 305 475 C304 475 303 475 301 476 C303 477 303 478 304 478 C314 489 324 500 334 511 C337 514 336 517 334 520 C332 523 328 523 325 521 C324 520 323 519 322 518 C309 505 296 492 283 479 C281 477 279 476 277 476 C271 475 265 474 259 473 C229 468 201 458 174 445 C155 436 137 425 121 411 C114 405 108 399 103 390 C101 385 99 380 100 374 C101 365 106 358 113 353 C122 347 131 343 140 338 C141 338 142 338 143 337 L143 337 Z M263 459 C262 457 261 456 260 456 C226 421 191 386 157 351 C155 349 154 349 152 350 C143 354 134 359 125 363 C123 364 121 366 118 368 C114 372 113 377 116 382 C119 387 122 391 125 395 C135 405 147 413 160 420 C191 438 224 451 259 458 C260 458 261 458 263 459 L263 459 Z M62 228 C63 230 64 230 64 231 C95 264 126 296 156 329 C158 330 159 331 160 330 C166 326 172 324 177 320 C179 319 181 318 182 316 C185 313 186 310 184 306 C181 301 178 297 174 294 C164 284 151 276 139 269 C115 254 89 242 64 229 C64 229 63 229 62 228 L62 228 Z " />
<glyph glyph-name="percent" unicode="&#x25;" horiz-adv-x="436" d="M421 490 C421 489 421 489 421 489 C421 489 420 488 419 488 C355 448 293 406 232 362 C182 326 132 289 82 253 C28 213 -26 174 -78 132 C-83 127 -89 123 -95 118 C-97 115 -98 112 -96 108 C-95 105 -92 104 -88 104 C-87 104 -85 104 -83 105 C-76 108 -69 111 -62 114 C-23 132 15 152 52 172 C53 172 54 173 56 173 C55 172 54 171 54 171 C52 165 49 160 48 155 C44 141 52 132 66 131 C70 131 75 131 79 132 C101 136 120 144 139 155 C151 163 163 171 173 183 C177 187 181 192 182 199 C186 211 179 221 166 223 C159 224 153 222 147 220 C127 214 108 204 93 189 C88 184 83 177 80 170 C78 166 79 163 82 161 C86 159 89 160 92 163 C93 165 95 167 96 169 C101 177 107 183 115 188 C123 193 131 198 140 202 C147 205 154 206 161 208 C163 208 167 208 168 206 C169 205 168 202 167 200 C167 198 165 197 164 196 C161 192 158 188 154 184 C132 166 108 154 80 147 C76 146 71 146 66 146 C62 146 61 147 62 151 C63 154 64 157 66 160 C71 171 79 180 87 189 C88 191 89 192 90 194 C92 198 91 202 87 204 C84 206 81 206 78 204 C73 201 69 198 64 195 C30 176 -5 159 -40 141 C-40 141 -41 141 -42 141 C-41 142 -40 142 -39 143 C-31 150 -22 157 -14 163 C68 223 150 284 232 344 C299 392 367 438 437 481 C443 485 448 489 454 493 C457 495 458 499 457 503 C455 507 452 509 447 508 C445 508 442 508 439 508 C402 502 364 496 327 491 C312 489 296 488 281 487 C280 487 278 487 277 487 C277 488 277 489 278 490 C280 500 274 506 264 504 C262 503 259 502 256 501 C238 492 222 479 210 463 C207 458 204 453 203 447 C201 437 206 429 216 427 C219 427 223 427 226 427 C245 431 261 441 274 455 C278 459 281 463 281 469 C282 471 283 472 285 472 C301 473 316 474 332 476 C358 480 384 484 409 488 C413 489 417 489 421 490 L421 490 Z M253 483 C254 476 259 474 264 473 C267 473 267 471 266 470 C265 468 264 465 262 464 C251 453 239 446 225 442 C224 442 222 442 221 442 C218 442 217 443 218 446 C220 450 222 453 224 457 C232 467 242 475 252 482 C252 482 252 482 253 483 L253 483 Z " />
<glyph glyph-name="ampersand" unicode="&#x26;" horiz-adv-x="385" d="M58 189 C81 198 103 211 130 224 C82 175 33 126 -13 75 C-43 42 -73 10 -101 -24 C-110 -35 -119 -46 -126 -58 C-129 -64 -129 -71 -121 -73 C-116 -74 -112 -70 -111 -65 C-111 -63 -110 -61 -109 -59 C-97 -44 -86 -29 -73 -15 C-4 65 69 142 144 216 C153 225 163 234 171 244 C176 250 177 253 174 258 C170 262 164 260 160 258 C132 243 105 228 78 214 C63 206 49 199 33 196 C35 201 47 215 55 223 C89 255 127 280 168 303 C174 306 181 310 188 313 C192 316 193 319 192 323 C190 327 187 329 182 328 C171 326 159 324 148 323 C135 321 123 320 109 321 C112 326 117 332 123 337 C137 349 152 356 168 364 C198 379 232 392 268 397 C271 397 271 396 271 393 C270 390 268 387 267 384 C265 377 268 372 275 372 C282 372 288 381 293 387 C338 435 383 483 427 531 C443 549 459 567 475 585 C481 591 485 596 486 600 C486 602 484 605 481 606 C474 609 467 596 461 590 C403 527 345 466 286 400 C281 411 273 413 263 412 C257 411 250 410 243 408 C204 398 104 361 94 325 C92 318 95 311 101 308 C111 303 129 306 144 307 C113 287 82 267 55 243 C40 229 23 214 17 197 C14 188 20 180 30 181 C38 181 51 186 58 189 L58 189 Z " />
<glyph glyph-name="quotesingle" unicode="&#x27;" horiz-adv-x="378" d="M379 617 C379 620 378 622 375 623 C373 624 371 624 369 623 C367 621 366 620 364 619 C352 607 339 596 326 584 C320 579 314 573 308 567 C304 563 303 559 306 556 C309 553 312 553 317 556 C321 559 324 562 328 566 C344 581 360 597 377 612 C378 613 379 615 379 617 L379 617 Z " />
<glyph glyph-name="parenleft" unicode="&#x28;" horiz-adv-x="319" d="M-102 65 C-102 65 -102 65 -102 65 C-101 63 -101 61 -101 60 C-100 56 -97 54 -93 55 C-90 55 -87 57 -87 61 C-87 68 -84 74 -82 79 C-72 102 -60 123 -47 145 C-33 170 -18 195 -1 219 C23 254 51 286 80 318 C129 369 183 416 243 454 C278 477 314 499 353 515 C355 516 357 518 357 521 C357 523 356 525 353 527 C350 529 347 528 344 527 C337 524 330 521 324 518 C295 505 269 489 243 472 C181 433 125 386 75 333 C43 300 12 265 -14 227 C-37 194 -57 159 -76 124 C-84 109 -91 94 -98 78 C-100 74 -101 69 -102 65 L-102 65 Z " />
<glyph glyph-name="parenright" unicode="&#x29;" horiz-adv-x="388" d="M396 522 C395 529 393 532 390 532 C386 531 383 529 383 524 C383 523 382 521 382 520 C379 509 376 497 373 486 C362 442 342 401 315 364 C289 330 259 298 228 267 C183 222 134 180 86 137 C57 112 28 88 -1 63 C-5 61 -7 57 -10 54 C-13 52 -13 48 -10 46 C-8 43 -5 43 -1 44 C0 45 1 46 2 46 C12 55 22 63 32 72 C90 120 148 172 204 224 C243 259 279 296 312 337 C330 360 347 383 360 408 C377 441 387 475 395 511 C396 515 396 520 396 522 L396 522 Z " />
<glyph glyph-name="asterisk" unicode="&#x2a;" horiz-adv-x="341" d="M126 429 C138 429 149 430 164 430 C164 429 133 413 125 409 C109 400 92 392 79 383 C76 380 73 377 76 371 C78 367 83 368 87 370 C113 384 138 399 165 413 C158 404 151 397 143 388 C140 385 136 380 133 376 C131 372 131 369 134 366 C140 362 143 367 151 375 C167 391 182 409 199 426 C206 413 213 397 223 386 C226 384 230 385 232 387 C236 391 235 395 230 404 C225 414 220 421 214 431 C233 430 251 431 269 427 C273 426 276 428 277 431 C279 434 278 438 274 440 C263 445 245 446 231 446 C239 450 246 453 254 457 C259 459 263 463 261 469 C258 476 254 474 248 471 C244 469 236 465 230 462 C240 472 248 483 257 495 C259 498 258 502 255 504 C251 507 245 501 241 496 C227 481 215 467 202 453 C197 464 191 475 184 486 C182 489 178 489 175 487 C172 486 171 482 173 479 C178 468 184 457 189 446 C168 445 147 443 126 442 C121 442 119 439 119 435 C119 431 122 429 126 429 L126 429 Z " />
<glyph glyph-name="plus" unicode="&#x2b;" horiz-adv-x="346" d="M119 270 C99 241 75 212 54 181 C52 178 53 174 56 172 C64 168 68 176 73 183 C85 198 132 262 139 270 C158 270 179 272 197 269 C202 269 205 272 206 275 C209 283 199 284 192 285 C178 286 163 286 150 286 C162 300 170 316 182 331 C183 334 182 338 179 340 C176 342 172 342 170 339 C157 321 142 300 130 284 C106 283 85 283 61 282 C57 282 52 280 52 276 C52 272 54 269 61 269 C80 269 100 270 119 270 L119 270 Z " />
<glyph glyph-name="comma" unicode="&#x2c;" horiz-adv-x="239" d="M7 162 C8 162 9 163 11 163 C13 165 14 166 16 167 C29 178 42 189 55 200 C58 202 60 205 63 207 C66 210 66 214 64 216 C62 219 58 220 55 218 C54 217 53 216 51 215 C38 204 25 193 11 182 C8 179 5 176 2 174 C-1 172 -1 169 0 166 C1 164 4 162 7 162 L7 162 Z " />
<glyph glyph-name="hyphen" unicode="&#x2d;" horiz-adv-x="294" d="M81 257 C103 256 120 256 136 256 C141 256 145 257 150 259 C153 259 155 263 154 267 C153 270 150 273 145 272 C142 272 138 271 134 271 C108 272 82 272 56 272 C49 272 42 272 35 272 C31 273 28 270 28 267 C28 263 30 261 34 259 C35 259 37 258 39 259 C55 258 71 257 81 257 L81 257 Z " />
<glyph glyph-name="period" unicode="&#x2e;" horiz-adv-x="192" d="M32 217 C32 220 31 226 24 226 C17 226 16 219 16 216 C16 213 18 208 23 208 C27 208 32 211 32 217 L32 217 Z " />
<glyph glyph-name="slash" unicode="&#x2f;" horiz-adv-x="437" d="M-202 -14 C-202 -17 -200 -19 -197 -20 C-194 -21 -192 -21 -189 -18 C-183 -11 -176 -3 -169 3 C-142 26 -116 49 -88 71 C2 145 95 217 188 288 C285 363 383 437 481 511 C519 540 558 569 596 597 C605 604 614 611 623 618 C626 621 628 624 626 627 C623 631 620 632 616 629 C612 627 608 624 604 621 C541 574 478 527 415 480 C287 384 159 287 33 187 C-24 142 -81 96 -138 50 C-156 35 -174 20 -190 3 C-194 -1 -197 -5 -200 -9 C-201 -11 -201 -12 -202 -14 L-202 -14 Z " />
<glyph glyph-name="zero" unicode="0" horiz-adv-x="282" d="M60 317 C39 296 14 261 19 227 C21 214 29 206 40 203 C79 194 158 275 187 309 C202 327 224 355 222 381 C220 410 191 408 169 400 C164 397 162 394 165 390 C167 386 171 387 175 388 C183 391 207 397 207 381 C207 364 198 349 188 335 C162 300 131 269 97 242 C84 231 66 218 47 217 C38 217 33 226 33 235 C33 263 54 290 77 313 C98 331 120 350 146 366 C149 369 154 366 159 369 C163 372 162 379 157 382 C149 387 140 379 132 375 C107 358 82 339 60 317 L60 317 Z " />
<glyph glyph-name="one" unicode="1" horiz-adv-x="256" d="M203 395 C203 399 201 401 198 402 C196 403 193 402 191 400 C188 397 185 393 183 390 C160 365 137 340 114 315 C88 286 62 256 36 226 C32 221 28 215 23 209 C21 205 22 201 25 199 C28 197 31 197 34 200 C37 203 39 206 41 208 C57 227 72 245 87 263 C117 297 148 330 178 363 C186 372 193 381 200 390 C201 392 202 394 203 395 L203 395 Z " />
<glyph glyph-name="two" unicode="2" horiz-adv-x="309" d="M85 240 C85 240 85 241 84 241 C85 241 86 242 87 243 C122 265 155 290 186 318 C199 329 211 341 221 356 C225 362 229 369 230 376 C233 387 228 396 217 398 C215 399 213 399 210 398 C202 398 195 395 187 392 C179 389 171 385 164 378 C162 376 161 373 160 370 C159 367 160 364 163 363 C166 361 170 362 172 365 C174 369 177 371 180 373 C188 377 196 381 205 383 C208 383 210 384 213 384 C216 384 216 383 216 380 C214 375 212 371 210 367 C205 358 197 350 190 342 C171 323 151 307 130 291 C105 272 79 254 51 239 C46 237 42 235 37 235 C30 233 23 231 16 229 C14 229 12 227 11 226 C8 224 7 221 8 218 C9 215 11 213 14 212 C16 212 18 211 20 212 C28 214 36 217 44 219 C46 220 49 221 52 222 C85 226 117 228 149 230 C166 230 182 231 198 232 C219 232 241 233 262 233 C265 233 267 233 269 231 C272 228 276 229 279 232 C282 236 281 243 277 245 C274 246 271 247 268 248 C261 248 254 248 247 248 C216 247 186 246 155 245 C139 244 122 243 105 242 C98 241 92 241 85 240 L85 240 Z " />
<glyph glyph-name="three" unicode="3" horiz-adv-x="269" d="M136 324 C139 326 141 328 144 330 C159 341 174 351 190 362 C202 371 219 384 225 395 C229 402 225 409 217 412 C199 418 163 409 151 403 C145 400 142 395 147 389 C152 384 156 391 161 392 C176 394 195 401 210 398 C201 389 190 381 179 373 C164 362 149 352 134 341 C122 332 115 322 128 313 C135 308 141 305 147 299 C163 288 132 262 125 257 C105 241 83 228 60 217 C29 200 -3 185 -35 168 C-42 164 -49 161 -55 157 C-60 154 -60 149 -57 145 C-54 141 -49 141 -45 145 C-44 146 -42 148 -39 149 C-13 163 14 176 40 190 C65 203 91 215 115 231 C128 240 142 250 153 263 C165 276 173 294 158 309 C152 315 144 321 136 324 L136 324 Z " />
<glyph glyph-name="four" unicode="4" horiz-adv-x="218" d="M162 354 C132 325 97 294 69 263 C43 236 11 204 -5 175 C-9 169 -5 159 3 161 C11 163 9 169 12 175 C18 182 23 189 29 196 C83 260 143 318 205 373 C212 381 210 396 195 389 C159 371 124 349 85 332 C74 327 62 323 44 320 C52 342 103 372 133 388 C135 388 136 388 138 387 C141 384 147 385 149 389 C151 392 151 396 148 399 C144 404 132 402 125 399 C102 390 82 377 63 362 C50 352 34 338 29 323 C26 314 31 306 41 305 C67 302 124 332 162 354 L162 354 Z " />
<glyph glyph-name="five" unicode="5" horiz-adv-x="256" d="M145 380 C139 376 129 366 124 361 C106 343 88 324 70 306 C66 302 61 296 64 290 C67 284 73 286 79 287 C85 288 134 302 129 285 C127 277 120 270 113 262 C97 245 79 231 59 218 C27 196 -8 179 -43 163 C-69 151 -95 139 -121 127 C-126 124 -137 121 -135 113 C-135 100 -118 110 -113 114 C-106 118 -98 121 -90 125 C-57 140 -24 155 8 171 C40 187 71 206 99 229 C116 242 139 262 144 283 C146 292 142 301 134 305 C120 311 105 310 90 305 C114 333 144 359 169 384 C187 388 225 394 232 395 C244 397 256 398 269 399 C272 399 276 399 279 397 C281 395 285 395 287 397 C289 400 290 402 289 405 C285 414 271 414 258 413 C222 410 186 403 144 394 C137 392 134 391 134 385 C134 382 138 379 145 380 L145 380 Z " />
<glyph glyph-name="six" unicode="6" horiz-adv-x="218" d="M105 260 C84 273 45 246 32 237 C38 247 46 260 54 270 C91 315 135 353 185 386 C188 388 198 390 198 399 C198 402 195 404 192 404 C185 404 174 397 164 390 C134 370 106 346 80 320 C61 301 43 281 27 259 C19 247 12 234 7 220 C1 206 -3 200 -7 187 C-9 182 -7 179 -2 178 C2 177 5 179 7 183 C8 185 8 186 9 188 C12 183 17 179 27 178 C51 177 81 196 101 219 C109 229 119 249 105 260 L105 260 Z M30 193 C21 193 18 198 20 208 C20 209 21 210 22 211 C35 223 50 233 66 240 C71 242 97 254 98 244 C94 229 82 218 69 209 C59 202 39 192 30 193 L30 193 Z " />
<glyph glyph-name="seven" unicode="7" horiz-adv-x="282" d="M225 378 C223 376 222 374 220 373 C212 365 204 356 195 349 C147 309 100 267 55 225 C38 208 20 192 5 174 C2 170 -1 167 -3 163 C-4 160 -5 157 -5 154 C-5 150 -1 147 3 147 C7 147 9 149 10 154 C11 156 11 158 12 159 C18 166 24 173 31 180 C65 215 101 247 138 280 C163 302 189 324 215 346 C222 353 229 360 236 368 C238 370 240 374 241 377 C243 384 240 390 233 392 C230 393 225 393 221 393 C209 392 196 391 184 390 C167 389 151 386 134 389 C130 390 127 387 127 384 C126 381 127 378 130 377 C131 376 133 375 135 375 C146 373 157 373 168 374 C184 375 200 377 216 378 C219 378 221 378 225 378 L225 378 Z " />
<glyph glyph-name="eight" unicode="8" horiz-adv-x="256" d="M133 314 C132 313 131 312 130 312 C121 308 113 305 105 301 C62 278 21 253 -19 225 C-34 215 -47 203 -58 189 C-63 182 -68 175 -70 167 C-74 151 -67 139 -52 134 C-45 132 -38 131 -31 132 C-15 132 0 137 14 142 C52 157 85 179 115 206 C127 216 138 227 147 240 C161 261 165 283 154 307 C153 308 154 309 155 310 C160 313 165 316 169 319 C184 329 199 340 212 353 C218 359 224 366 227 375 C231 387 227 398 216 404 C208 409 200 411 191 411 C172 411 155 406 138 398 C130 395 123 390 117 384 C106 373 103 359 112 345 C117 336 123 328 129 320 C130 318 131 316 133 314 L133 314 Z M145 280 C145 268 140 257 134 247 C125 235 114 224 102 214 C74 191 44 171 11 157 C-2 152 -16 147 -30 147 C-36 146 -42 146 -48 148 C-55 151 -57 155 -56 163 C-54 169 -51 174 -47 179 C-37 193 -24 203 -10 213 C29 241 70 266 113 288 C121 293 130 295 138 299 C140 300 142 299 142 296 C144 291 145 286 146 280 C146 280 145 280 145 280 L145 280 Z M189 396 C195 396 201 395 207 393 C213 389 215 385 212 378 C209 372 205 367 201 362 C188 350 173 339 158 329 C155 327 151 325 148 323 C147 322 146 321 145 323 C139 332 132 340 126 349 C119 360 120 368 132 377 C143 386 155 390 168 393 C175 394 182 395 189 396 L189 396 Z " />
<glyph glyph-name="nine" unicode="9" horiz-adv-x="269" d="M162 348 C162 348 162 348 162 348 C162 347 161 347 161 346 C124 305 88 265 51 224 C32 201 12 178 -7 155 C-10 152 -12 148 -14 144 C-17 140 -14 134 -10 132 C-6 131 0 134 1 138 C2 141 3 144 5 146 C7 150 10 153 13 156 C62 215 113 272 164 328 C180 345 195 361 211 378 C213 380 214 383 216 385 C218 388 218 392 216 395 C214 398 211 399 207 398 C205 398 203 397 202 396 C193 389 184 383 175 376 C174 375 173 375 172 374 C172 376 173 377 173 378 C174 382 176 386 177 391 C179 401 173 409 163 410 C161 410 159 410 157 410 C147 409 139 405 130 400 C106 386 85 368 66 348 C57 339 50 329 43 319 C40 313 38 308 37 302 C37 293 42 287 51 286 C54 286 57 287 60 288 C70 290 79 295 89 300 C113 314 137 330 160 347 C160 347 161 348 162 348 L162 348 Z M165 370 C165 369 164 368 163 368 C138 350 112 331 85 315 C77 311 68 307 60 303 C58 302 55 302 53 301 C53 302 52 302 52 302 C54 305 55 308 57 311 C62 319 67 327 73 334 C92 355 113 373 138 387 C145 391 151 394 159 395 C163 396 164 395 163 391 C162 388 161 385 160 382 C158 375 158 373 165 370 L165 370 Z " />
<glyph glyph-name="colon" unicode="&#x3a;" horiz-adv-x="274" d="M75 217 C75 222 72 225 68 225 C64 225 61 222 61 218 C61 214 64 211 68 211 C72 211 75 213 75 217 L75 217 Z M128 280 C132 280 135 284 135 287 C135 290 132 293 129 293 C125 294 122 291 122 287 C122 284 125 280 128 280 L128 280 Z " />
<glyph glyph-name="semicolon" unicode="&#x3b;" horiz-adv-x="256" d="M25 165 C26 165 28 166 30 167 C39 174 47 181 56 188 C67 198 78 207 89 216 C92 218 93 222 91 225 C89 228 86 229 83 227 C81 227 79 226 78 224 C61 211 44 197 27 184 C24 181 22 179 19 176 C17 174 17 172 18 169 C19 166 22 165 25 165 L25 165 Z M151 292 C151 296 148 299 144 299 C140 299 137 296 137 293 C137 288 140 285 144 285 C148 285 151 288 151 292 L151 292 Z " />
<glyph glyph-name="less" unicode="&#x3c;" horiz-adv-x="434" d="M71 240 C71 241 70 241 70 241 C71 241 72 242 73 242 C78 244 82 246 87 248 C120 262 154 272 188 284 C221 295 255 306 288 318 C297 322 305 326 313 330 C317 333 318 337 316 340 C314 343 310 344 306 342 C302 340 297 337 292 335 C267 326 242 317 217 309 C182 297 148 286 114 274 C97 268 80 261 63 254 C60 253 57 251 54 248 C50 244 50 237 54 233 C56 230 59 229 62 228 C66 226 71 225 75 223 C101 217 127 210 153 203 C166 200 179 197 192 194 C197 192 200 194 201 199 C202 203 200 207 195 208 C159 217 123 227 86 236 C81 237 76 239 71 240 L71 240 Z " />
<glyph glyph-name="equal" unicode="&#x3d;" horiz-adv-x="397" d="M146 231 C168 230 189 231 210 228 C213 227 216 229 217 232 C219 236 218 239 214 241 C211 242 208 243 205 244 C176 246 147 247 119 246 C111 245 105 245 98 245 C95 244 92 243 91 240 C91 237 92 234 94 233 C96 232 98 231 99 231 C115 231 131 231 146 231 L146 231 Z M192 283 C192 283 192 282 192 282 C180 282 167 282 155 281 C152 281 150 281 147 280 C143 280 141 277 141 273 C142 269 145 267 149 267 C176 267 203 268 230 268 C232 268 234 268 237 267 C241 267 245 268 246 272 C247 275 245 279 241 281 C238 282 235 283 232 283 C219 283 205 283 192 283 L192 283 Z " />
<glyph glyph-name="greater" unicode="&#x3e;" horiz-adv-x="423" d="M245 238 C232 232 216 228 202 223 C146 205 91 186 38 163 C28 159 18 154 9 149 C6 148 4 145 2 143 C0 140 1 136 4 134 C6 132 10 131 13 134 C18 138 25 141 31 144 C68 160 105 175 142 187 C176 199 210 210 243 221 C255 225 266 230 267 232 C270 237 268 242 263 245 C254 250 246 254 237 259 C222 267 206 275 191 283 C181 288 172 293 161 299 C158 301 154 300 152 297 C146 291 160 283 165 280 C188 268 210 256 232 245 C236 243 240 240 245 238 L245 238 Z " />
<glyph glyph-name="question" unicode="&#x3f;" horiz-adv-x="561" d="M551 582 C504 595 450 585 405 562 C397 558 389 553 383 546 C380 542 378 538 378 533 C378 529 380 526 384 526 C387 526 390 528 391 531 C392 534 393 537 395 539 C398 541 400 543 403 544 C439 567 508 582 548 567 C562 562 569 549 568 534 C568 507 549 481 531 457 C509 429 484 403 459 378 C415 336 369 297 322 258 C265 211 208 164 154 113 C130 90 106 68 82 45 C77 40 73 35 70 30 C67 24 61 14 71 11 C80 8 81 20 86 26 C92 34 99 41 107 49 C167 107 230 162 294 216 C335 249 375 283 414 317 C451 349 486 383 518 419 C545 448 576 485 583 528 C586 553 575 573 551 582 L551 582 Z M18 -68 C21 -69 26 -68 28 -65 C30 -62 30 -56 24 -53 C19 -51 14 -54 13 -57 C11 -61 13 -67 18 -68 L18 -68 Z " />
<glyph glyph-name="at" unicode="&#x40;" horiz-adv-x="523" d="M207 248 C207 248 207 248 231 260 C220 247 209 225 207 206 C206 194 212 184 224 181 C246 174 287 188 307 199 C362 228 409 268 447 317 C471 347 492 391 479 434 C472 458 456 474 434 485 C408 498 381 500 353 497 C282 489 216 448 159 401 C110 360 67 311 32 257 C0 209 -29 152 -26 91 C-25 75 -21 60 -13 46 C2 21 24 10 53 13 C101 17 160 65 211 101 C217 105 222 110 217 116 C215 120 207 115 202 111 C161 82 111 44 71 32 C47 25 17 27 0 53 C-17 82 -13 118 -4 150 C4 178 17 205 32 230 C58 273 88 311 122 346 C184 410 270 475 365 483 C388 484 410 481 431 470 C447 461 459 448 465 430 C476 396 456 356 436 327 C402 283 361 248 314 220 C290 206 253 191 231 194 C223 196 221 199 222 207 C227 231 250 262 270 283 C271 284 273 286 274 288 C276 292 274 296 270 298 C267 300 264 299 261 297 C230 276 157 234 128 234 C131 242 137 250 142 256 C160 276 181 292 204 306 C215 313 234 324 257 324 C259 324 261 323 260 320 C260 318 259 316 259 314 C259 310 261 307 265 307 C271 307 273 313 274 318 C275 329 270 336 260 338 C232 343 189 315 161 295 C143 280 121 260 114 239 C110 226 118 218 130 219 C150 220 182 235 207 248 L207 248 Z " />
<glyph glyph-name="A" unicode="A" horiz-adv-x="1070" d="M889 269 C890 268 862 241 849 228 C795 173 649 30 582 -49 C574 -58 566 -66 558 -77 C555 -82 553 -90 561 -91 C565 -92 571 -85 575 -80 C582 -72 588 -65 594 -58 C649 7 799 156 871 228 C885 242 916 272 917 272 C995 279 1084 287 1166 293 C1205 295 1251 298 1289 289 C1291 287 1297 288 1298 292 C1299 295 1298 300 1294 301 C1269 310 1211 310 1152 307 C1073 302 1001 295 933 289 C934 290 969 324 985 341 C1011 367 1037 394 1063 421 C1096 457 1130 492 1164 530 C1177 546 1190 561 1202 578 C1214 596 1224 610 1218 618 C1214 624 1205 623 1196 618 C1185 612 1175 606 1165 599 C1149 588 1133 577 1118 566 C1093 547 1069 529 1045 510 C1004 478 964 446 925 413 C904 396 883 378 862 361 C842 344 822 328 801 311 C786 297 751 269 749 269 C744 268 566 246 563 246 C563 252 569 257 569 266 C569 273 565 277 558 279 C551 282 527 277 514 272 C488 264 463 253 438 242 C424 237 410 230 397 224 C382 220 367 219 349 216 C246 200 143 177 33 144 C-9 130 -69 109 -97 80 C-106 70 -109 56 -96 49 C-81 38 -15 51 19 59 C132 89 241 138 354 188 C369 195 388 203 403 209 C444 217 486 220 527 226 C527 225 515 212 510 206 C481 177 452 146 421 110 C409 96 398 82 387 67 C381 57 366 35 368 18 C369 12 372 6 379 3 C422 -13 505 56 559 96 C590 119 621 143 651 167 C677 188 703 210 729 230 C738 238 758 254 759 254 C765 255 886 268 889 269 L889 269 Z M729 250 C728 250 675 206 649 185 C599 147 551 108 490 65 C465 48 424 16 390 16 C378 16 386 32 389 39 C395 51 403 62 410 72 C422 88 434 103 447 117 C471 144 496 171 526 201 C534 210 551 229 553 229 C562 230 728 251 729 250 L729 250 Z M780 273 C812 302 847 330 883 358 C899 372 915 385 931 399 C952 416 973 433 993 450 C1044 488 1093 528 1146 568 C1164 580 1180 593 1201 602 C1194 592 1186 581 1178 571 C1159 547 1139 524 1118 502 C1100 483 1083 464 1065 445 C1038 417 1011 389 984 362 C960 337 934 312 909 287 C891 285 793 274 780 273 L780 273 Z M-89 64 C-88 72 -60 89 -51 94 C-26 107 1 117 27 126 C126 158 229 185 338 198 C284 172 227 149 166 125 C120 107 73 88 18 75 C3 71 -80 50 -89 64 L-89 64 Z M554 265 C554 263 546 249 542 243 C542 243 471 234 452 231 C453 232 499 251 521 258 C540 265 551 265 554 265 L554 265 Z " />
<glyph glyph-name="B" unicode="B" horiz-adv-x="1513" d="M80 323 C32 251 -2 164 8 72 C16 9 47 -49 95 -92 C144 -135 207 -161 271 -174 C409 -201 554 -184 691 -155 C831 -126 970 -82 1103 -30 C1167 -5 1233 21 1292 58 C1317 74 1347 95 1357 124 C1369 157 1343 184 1317 200 C1288 218 1255 229 1223 239 C1189 249 1155 257 1119 263 C1064 272 997 280 952 283 C968 288 1028 307 1050 314 C1110 334 1170 356 1229 380 C1301 408 1372 439 1438 479 C1468 498 1500 519 1522 547 C1543 576 1541 610 1509 631 C1460 663 1357 664 1283 656 C1132 641 982 589 851 511 C820 493 790 472 761 449 C733 427 704 402 684 372 C680 366 660 334 675 331 C684 329 684 342 686 347 C690 355 695 363 701 370 C723 398 751 422 779 444 C838 489 903 526 970 555 C1040 587 1114 611 1189 626 C1266 642 1346 651 1424 641 C1452 638 1501 631 1518 602 C1536 571 1494 537 1473 521 C1444 498 1411 480 1378 463 C1344 445 1309 429 1273 414 C1201 384 1128 356 1053 331 C1016 319 978 307 941 297 C922 291 903 284 884 283 C848 281 809 280 773 270 C767 268 756 265 755 257 C753 249 761 247 768 246 C806 244 845 256 883 265 C901 270 920 269 939 268 C989 265 1041 262 1113 249 C1151 242 1189 234 1226 222 C1260 212 1297 199 1325 176 C1337 165 1349 150 1344 132 C1340 115 1325 102 1312 91 C1283 68 1249 51 1216 34 C1146 1 1073 -26 1000 -52 C854 -103 703 -145 548 -164 C471 -173 392 -176 315 -166 C243 -156 169 -134 112 -87 C58 -42 26 23 22 93 C18 167 45 240 84 301 C163 424 292 512 426 566 C496 594 572 618 649 619 C679 619 726 615 740 582 C754 550 733 508 718 479 C700 446 679 414 658 382 C636 350 614 317 592 285 C547 220 500 157 453 94 C441 79 429 63 416 48 C413 44 401 33 403 26 C406 17 414 24 418 28 C444 56 467 87 490 118 C537 181 583 245 627 309 C649 342 671 374 692 407 C713 439 733 471 747 507 C759 537 768 577 744 604 C720 631 677 634 643 633 C568 631 493 609 424 581 C356 554 291 518 231 475 C174 432 121 382 80 323 L80 323 Z " />
<glyph glyph-name="C" unicode="C" horiz-adv-x="1236" d="M1161 629 C1093 683 963 667 869 646 C765 622 665 583 570 536 C473 489 382 433 294 370 C207 308 123 241 46 165 C10 129 -26 91 -57 49 C-86 10 -117 -37 -123 -87 C-126 -110 -122 -133 -103 -148 C-83 -164 -55 -165 -31 -164 C22 -162 75 -147 126 -134 C230 -106 333 -76 437 -49 C542 -23 648 1 754 22 C860 44 967 65 1074 76 C1080 76 1166 84 1163 72 C1163 68 1157 64 1155 60 C1154 56 1156 52 1161 51 C1166 50 1171 57 1173 60 C1181 70 1180 81 1170 88 C1151 101 1085 92 1054 89 C946 76 840 56 733 34 C626 12 519 -12 412 -40 C307 -67 202 -98 97 -125 C49 -138 -7 -154 -61 -148 C-118 -140 -114 -90 -92 -39 C-71 9 -38 51 -4 90 C31 129 68 166 107 201 C187 273 272 339 361 398 C451 458 546 510 645 554 C741 596 844 632 949 645 C1002 651 1064 658 1114 638 C1157 621 1190 588 1186 533 C1184 508 1175 484 1165 462 C1157 443 1146 426 1137 408 C1135 403 1131 398 1131 392 C1131 388 1136 384 1140 386 C1144 388 1145 393 1147 396 C1164 430 1186 460 1196 501 C1209 548 1200 598 1161 629 L1161 629 Z " />
<glyph glyph-name="D" unicode="D" horiz-adv-x="1689" d="M-17 241 C-83 181 -120 103 -90 18 C-60 -71 30 -124 113 -154 C206 -187 307 -199 404 -200 C503 -200 601 -191 697 -173 C796 -153 892 -125 986 -89 C1079 -54 1168 -11 1254 39 C1338 87 1419 142 1493 206 C1529 237 1564 270 1594 307 C1624 343 1651 383 1668 427 C1684 470 1690 521 1668 563 C1647 602 1607 623 1565 629 C1517 636 1467 628 1420 614 C1373 601 1327 582 1283 560 C1239 539 1196 514 1155 488 C1134 475 1114 462 1094 448 C1084 441 1063 425 1037 409 C1048 421 1060 432 1071 444 C1119 493 1167 541 1216 590 C1228 602 1281 657 1287 662 C1295 669 1293 673 1291 675 C1285 680 1278 673 1274 669 C1261 658 1141 536 1093 487 C1068 462 1044 437 1020 412 C1014 406 1001 394 995 388 C995 388 955 395 939 398 C808 420 671 413 534 405 C402 398 270 386 146 338 C87 315 30 284 -17 241 L-17 241 Z M981 373 C956 345 928 321 899 296 C834 241 768 181 714 111 C709 105 689 83 704 78 C710 75 716 81 720 85 C762 124 801 166 846 213 C898 265 946 320 1007 366 C1020 363 1036 354 1044 342 C1048 337 1050 329 1054 325 C1060 320 1066 327 1065 333 C1063 339 1060 346 1056 351 C1048 363 1035 371 1022 377 C1047 398 1075 416 1102 435 C1158 473 1216 509 1276 540 C1337 571 1401 598 1468 610 C1525 621 1600 623 1642 575 C1685 525 1666 451 1639 399 C1609 341 1564 291 1516 247 C1468 202 1415 161 1361 124 C1247 46 1125 -18 997 -69 C867 -120 731 -156 592 -174 C457 -191 315 -192 182 -159 C118 -143 55 -119 2 -79 C-48 -40 -88 17 -85 83 C-82 146 -42 201 5 241 C54 282 113 311 172 332 C237 355 303 369 371 377 C437 385 503 390 568 392 C703 398 844 405 981 373 L981 373 Z " />
<glyph glyph-name="E" unicode="E" horiz-adv-x="1231" d="M1226 448 C1254 481 1274 516 1257 557 C1245 582 1222 601 1197 614 C1171 628 1143 637 1114 643 C1053 657 990 659 927 657 C802 652 678 623 559 586 C499 566 441 545 383 521 C327 497 270 471 218 438 C195 423 131 384 136 347 C138 335 149 326 160 322 C206 305 280 308 346 308 C410 308 474 309 538 309 C570 309 602 309 634 308 C650 308 688 308 724 307 C683 299 654 295 640 293 C611 288 581 282 552 276 C431 250 312 214 197 169 C83 124 -30 71 -134 4 C-159 -12 -184 -29 -207 -48 C-233 -69 -282 -108 -276 -149 C-273 -161 -264 -170 -253 -175 C-232 -184 -194 -185 -166 -182 C-105 -177 -45 -164 14 -151 C75 -138 136 -125 197 -113 C317 -90 438 -69 559 -50 C679 -31 800 -12 921 2 C951 6 981 10 1012 12 C1041 14 1071 17 1101 15 C1106 15 1116 14 1118 9 C1119 5 1120 -1 1126 1 C1131 2 1134 11 1133 16 C1131 22 1125 25 1120 27 C1107 32 1092 31 1078 31 C1063 31 1048 30 1034 29 C975 25 917 18 859 10 C799 2 739 -7 678 -16 C557 -35 435 -54 314 -76 C191 -98 69 -125 -53 -150 C-83 -156 -114 -161 -144 -165 C-163 -168 -261 -180 -261 -141 C-260 -110 -212 -71 -179 -45 C-130 -8 -76 23 -22 52 C32 81 88 107 145 131 C259 180 377 219 498 248 C583 268 668 280 768 298 C773 299 780 302 781 307 C781 313 775 320 730 322 C667 325 604 324 541 324 C450 324 359 321 256 324 C227 325 195 325 167 335 C156 340 147 347 152 359 C165 389 217 421 250 440 C302 470 358 494 414 517 C470 540 528 560 586 578 C646 596 706 612 768 623 C827 634 887 642 947 642 C1007 643 1067 640 1126 625 C1154 617 1182 607 1206 591 C1228 576 1248 555 1248 527 C1249 500 1231 476 1214 456 C1196 436 1182 424 1173 417 C1169 414 1162 410 1166 404 C1176 391 1220 440 1226 448 L1226 448 Z " />
<glyph glyph-name="F" unicode="F" horiz-adv-x="1462" d="M1272 614 C1275 613 1279 612 1282 616 C1284 619 1287 627 1287 631 C1287 636 1282 639 1277 638 C1272 636 1268 630 1264 627 C1243 608 1176 544 1170 538 C1093 534 1034 531 974 527 C865 521 756 510 647 496 C536 483 426 465 316 442 C261 430 207 417 153 401 C101 385 47 368 0 340 C-18 330 -48 312 -46 288 C-43 263 -7 257 13 254 C68 246 126 251 181 256 C291 264 400 279 509 293 C564 300 618 307 673 312 C747 319 871 336 923 300 L827 204 C819 203 754 196 727 192 C645 180 564 166 475 147 C468 146 461 145 455 144 C450 144 447 142 447 138 C447 126 470 132 476 133 C530 141 583 155 643 164 C671 169 793 186 810 187 C800 177 786 164 781 159 C760 138 740 116 717 97 C693 78 668 59 645 39 C622 20 599 1 577 -19 C567 -28 506 -80 511 -96 C512 -100 518 -102 522 -101 C545 -98 602 -35 623 -15 C665 25 704 69 753 107 C778 126 802 145 827 165 C833 170 863 193 863 193 C870 194 1020 206 1079 209 C1139 213 1201 217 1261 214 C1266 214 1300 211 1301 208 C1301 206 1298 203 1299 200 C1299 198 1301 196 1304 195 C1309 194 1314 201 1316 206 C1325 228 1262 231 1248 231 C1190 233 1127 227 1061 223 C1004 219 947 215 880 209 C888 217 898 225 906 233 C922 249 939 268 941 291 C941 296 942 297 945 300 C978 334 1125 473 1176 524 C1182 524 1324 529 1374 530 C1425 531 1476 532 1527 532 C1569 531 1657 533 1693 522 C1698 520 1696 516 1699 513 C1707 506 1714 519 1712 525 C1709 535 1695 537 1687 539 C1632 548 1575 546 1497 546 C1397 546 1298 541 1195 539 C1203 548 1258 601 1272 614 L1272 614 Z M1152 521 C1093 462 1017 394 934 311 C879 351 771 335 695 328 C531 314 369 288 205 272 C164 268 123 265 82 265 C62 265 41 266 21 268 C-8 271 -22 276 -29 285 C-40 297 -12 316 -3 322 C14 332 32 341 50 349 C88 365 128 378 168 390 C329 437 497 463 663 484 C745 494 827 501 910 508 C1003 515 1127 521 1152 521 L1152 521 Z M852 207 C876 231 893 250 919 274 C896 240 885 231 852 207 L852 207 Z " />
<glyph glyph-name="G" unicode="G" horiz-adv-x="1082" d="M1008 461 C1024 472 1050 493 1068 491 C1075 490 1079 486 1080 479 C1079 453 1055 414 1038 386 C1014 348 988 311 960 275 C928 233 897 198 867 163 C860 154 850 144 843 135 C859 137 880 129 880 111 C879 105 877 100 874 95 C872 93 869 92 867 93 C864 94 862 96 862 99 C862 100 862 101 863 103 C863 105 864 107 865 109 C866 113 864 117 860 119 C854 123 837 123 828 121 C769 59 711 5 648 -42 C595 -81 539 -120 480 -126 C458 -128 433 -125 422 -105 C405 -68 441 -28 466 -6 C498 22 531 41 566 57 C609 76 652 93 696 107 C740 121 781 132 821 136 C831 146 840 156 849 165 C924 251 988 330 1039 418 C1050 438 1062 457 1064 476 C1049 471 1026 455 1008 443 C1007 434 1006 423 1003 415 C1000 407 996 398 986 396 C983 395 980 396 978 400 C977 403 979 408 982 408 C985 409 986 411 987 414 C989 419 991 425 992 431 C885 353 763 269 658 203 C568 146 480 94 389 46 C365 33 341 20 316 8 C223 -39 95 -103 6 -67 C-23 -55 -40 -35 -51 -7 C-79 85 -25 178 24 247 C84 327 153 391 227 444 C320 509 407 557 500 588 C567 610 628 625 691 629 C744 632 797 630 848 616 C896 600 937 580 968 548 C991 522 1005 493 1008 461 L1008 461 Z M179 -36 C216 -22 253 -6 289 11 C312 23 334 34 357 46 C404 69 448 93 490 119 C562 162 625 199 686 239 C769 292 849 345 926 402 C948 417 970 434 992 449 C992 471 990 496 964 530 C952 545 937 557 921 567 C781 643 624 616 488 568 C376 526 279 468 192 398 C146 361 103 320 66 276 C45 251 26 225 9 197 C-13 161 -30 125 -38 88 C-45 57 -47 24 -36 -5 C-26 -29 -7 -46 16 -54 C68 -72 130 -53 179 -36 L179 -36 Z M805 118 C751 111 700 93 651 75 C620 64 590 52 560 38 C520 18 482 -6 456 -38 C444 -53 433 -69 433 -87 C436 -116 474 -114 493 -109 C537 -95 568 -80 596 -60 C657 -20 709 25 758 72 C773 86 804 117 805 118 L805 118 Z " />
<glyph glyph-name="H" unicode="H" horiz-adv-x="1463" d="M1465 445 C1444 421 1424 400 1416 391 C1346 315 1278 238 1210 161 C1142 83 1074 6 1008 -73 C978 -111 938 -154 915 -194 C912 -200 906 -219 918 -220 C924 -220 925 -216 925 -212 C926 -207 927 -204 929 -199 C941 -178 958 -158 972 -139 C1036 -59 1104 17 1171 94 C1239 172 1307 250 1377 327 C1411 364 1486 446 1486 446 C1511 446 1537 445 1550 445 C1600 443 1642 437 1656 428 C1662 425 1662 422 1661 416 C1661 412 1660 407 1665 406 C1675 402 1677 422 1675 428 C1671 437 1661 443 1653 447 C1615 461 1500 461 1500 461 C1548 515 1599 567 1652 623 C1660 632 1669 641 1677 651 C1680 655 1683 660 1679 664 C1676 667 1672 666 1669 663 C1652 646 1636 628 1619 609 C1584 572 1549 534 1512 495 C1503 486 1495 477 1479 461 C1376 461 1273 455 1153 444 C1174 466 1192 483 1201 491 C1236 525 1271 558 1307 590 C1310 593 1340 617 1341 620 C1342 625 1338 628 1334 628 C1326 629 1289 595 1278 585 C1242 552 1207 518 1172 484 C1163 475 1146 459 1129 442 C1129 442 1072 436 1049 434 C952 424 855 413 758 399 C661 386 565 368 469 348 C373 327 278 302 185 272 C139 257 93 240 49 221 C12 205 -105 156 -105 103 C-105 81 -84 68 -66 62 C-23 46 28 46 73 49 C171 54 269 71 365 92 C460 113 555 138 650 164 C697 177 744 191 791 204 C816 211 839 217 864 223 C875 226 909 234 931 238 C919 224 906 212 893 199 C880 185 867 171 855 158 C828 130 802 102 775 73 C753 49 730 25 705 2 C682 -19 658 -41 637 -66 C634 -70 629 -77 634 -82 C638 -88 644 -84 648 -80 C661 -70 672 -58 682 -47 C705 -23 727 2 752 24 C803 68 856 109 909 151 C935 171 962 191 986 215 C994 223 1008 236 1004 249 C1002 255 996 258 991 259 C987 260 979 260 971 259 C1001 290 1135 427 1135 427 C1146 428 1214 434 1249 436 C1316 442 1382 444 1465 445 L1465 445 Z M1111 425 C1088 399 1077 389 1070 382 C1040 351 952 260 948 257 C925 254 894 246 873 241 C789 220 707 195 624 172 C460 127 294 85 126 67 C67 61 -7 58 -60 75 C-74 80 -94 90 -90 108 C-84 136 -31 164 -2 181 C35 200 73 216 112 231 C192 261 274 285 356 306 C439 327 524 345 608 360 C691 375 775 388 859 398 C901 403 943 408 986 413 C1006 415 1048 419 1111 425 L1111 425 Z M826 105 C873 156 884 167 905 190 C939 225 955 243 955 243 C960 246 990 248 989 242 C989 237 973 220 961 211 C939 192 876 144 826 105 L826 105 Z " />
<glyph glyph-name="I" unicode="I" horiz-adv-x="703" d="M852 643 C645 424 432 210 219 -27 C205 -42 136 -125 136 -125 C132 -125 51 -131 31 -134 C-10 -138 -50 -143 -90 -149 C-101 -150 -138 -157 -150 -157 C-155 -157 -160 -155 -163 -159 C-164 -161 -164 -165 -163 -167 C-158 -173 -144 -171 -138 -170 C-98 -165 -59 -159 -19 -154 C62 -144 144 -139 226 -136 C305 -132 387 -128 466 -135 C484 -137 505 -138 521 -146 C525 -149 536 -153 536 -143 C536 -136 525 -131 519 -129 C493 -120 443 -118 400 -117 C338 -116 229 -120 156 -124 C381 135 627 387 876 644 C918 646 1022 649 1080 650 C1109 650 1187 652 1212 647 C1217 646 1226 642 1231 646 C1234 648 1235 653 1232 656 C1228 660 1219 661 1213 662 C1192 666 1148 667 1061 665 C1032 664 906 661 887 660 C890 664 893 668 892 672 C891 675 887 677 883 677 C878 676 873 667 866 659 C866 659 670 650 623 648 C529 642 436 633 342 622 C297 616 250 612 205 603 C201 603 195 602 193 597 C192 593 194 589 198 588 C202 587 209 588 213 589 C240 594 266 597 298 601 C390 613 482 623 575 629 C666 637 758 641 852 643 L852 643 Z " />
<glyph glyph-name="J" unicode="J" horiz-adv-x="1243" d="M612 500 C626 523 653 541 680 559 C737 596 799 625 863 646 C928 667 998 680 1067 672 C1128 665 1193 638 1217 578 C1242 517 1220 446 1190 391 C1159 333 1118 285 1070 236 C1014 178 949 127 878 79 C832 90 768 107 720 118 C652 134 584 150 515 163 C448 176 379 186 311 187 C242 188 173 183 107 163 C48 145 -13 114 -49 61 C-67 35 -76 2 -71 -29 C-65 -60 -47 -87 -24 -107 C25 -150 93 -167 157 -173 C226 -180 296 -173 364 -160 C500 -135 630 -84 751 -18 C781 -1 811 16 840 35 C848 40 871 56 882 62 C882 62 1066 13 1132 -11 C1148 -17 1163 -23 1178 -31 C1183 -34 1191 -42 1197 -38 C1204 -33 1198 -26 1193 -23 C1161 -3 1052 31 1001 45 C984 50 934 63 898 74 C979 133 1062 196 1137 287 C1194 356 1251 446 1242 540 C1238 582 1217 620 1183 646 C1145 674 1097 685 1051 688 C954 695 857 666 770 626 C729 607 624 554 600 508 C596 500 596 491 606 488 C615 485 620 495 612 500 L612 500 Z M862 67 C744 -11 605 -82 451 -125 C385 -143 318 -156 251 -159 C184 -163 114 -159 51 -134 C-4 -113 -64 -67 -57 -1 C-50 62 8 105 61 130 C121 158 189 169 255 171 C323 174 391 168 458 158 C526 147 594 131 661 116 C728 101 795 85 862 67 L862 67 Z " />
<glyph glyph-name="K" unicode="K" horiz-adv-x="1091" d="M702 337 C704 338 774 412 799 440 C831 476 870 516 886 565 C889 578 889 591 880 601 C869 612 850 618 814 616 C768 613 723 604 673 593 C620 580 568 564 516 548 C388 506 263 454 133 386 C105 372 77 357 49 342 C40 337 38 334 42 328 C44 326 48 327 56 331 C75 339 93 349 112 358 C227 415 341 472 475 519 C564 550 655 576 756 595 C769 597 816 606 850 600 C870 595 874 585 873 577 C869 548 833 502 804 469 C784 446 764 424 744 402 C721 378 686 341 671 326 C629 312 581 296 538 281 C463 256 388 230 314 204 C257 184 -22 83 -59 69 C-92 56 -125 44 -158 31 C-191 18 -225 6 -258 -7 C-309 -27 -360 -48 -411 -70 C-425 -77 -440 -83 -455 -90 C-461 -93 -463 -97 -461 -101 C-460 -104 -456 -107 -448 -103 C-427 -94 -406 -85 -384 -75 C-345 -59 -306 -43 -266 -27 C-219 -8 -171 10 -123 27 C-62 49 0 70 63 87 C93 95 122 102 153 109 C222 124 313 140 382 134 C407 131 418 124 421 120 C437 101 421 80 408 65 C378 37 349 9 315 -20 C295 -37 274 -55 254 -73 C250 -77 246 -81 243 -85 C241 -86 241 -88 240 -90 C238 -93 239 -96 241 -98 C244 -101 247 -101 250 -100 C253 -99 254 -97 256 -96 C262 -91 268 -86 274 -81 C295 -63 315 -45 334 -26 C353 -8 372 9 391 27 C403 38 414 50 433 69 C459 95 485 120 511 146 C552 186 592 226 632 266 C642 276 655 288 665 298 C666 297 696 260 710 244 C731 220 753 196 776 173 C811 136 847 101 884 65 C910 40 936 15 962 -10 C984 -32 1007 -54 1030 -75 C1051 -95 1073 -115 1094 -135 C1102 -142 1116 -154 1125 -161 C1128 -162 1131 -162 1133 -160 C1135 -157 1135 -154 1134 -152 C1132 -150 1122 -140 1118 -136 C1095 -115 1072 -94 1049 -73 C1028 -54 1007 -34 987 -14 C966 6 944 27 923 47 C907 63 891 78 875 94 C844 125 813 156 783 187 C762 208 741 230 720 255 C707 271 690 291 676 309 C790 352 918 394 1045 438 C1144 472 1244 505 1360 541 C1374 546 1404 554 1406 554 C1414 554 1430 553 1426 566 C1425 570 1422 574 1409 571 C1365 560 1322 545 1266 527 C1188 501 1111 475 1033 449 C925 411 815 375 702 337 L702 337 Z M444 102 C444 113 440 122 433 128 C420 140 391 151 328 149 C272 145 222 139 177 129 C158 126 115 116 107 114 C127 121 628 296 646 301 C625 280 445 102 444 102 L444 102 Z " />
<glyph glyph-name="L" unicode="L" horiz-adv-x="794" d="M344 60 C345 65 346 70 344 75 C335 94 275 81 243 73 C213 66 184 58 155 49 C95 32 -47 -11 -47 -11 C-66 -11 -100 -12 -116 -13 C-206 -16 -296 -25 -389 -45 C-446 -56 -518 -75 -563 -99 C-585 -111 -615 -135 -589 -153 C-572 -164 -535 -162 -502 -156 C-443 -147 -384 -131 -326 -114 C-266 -96 -207 -78 -147 -59 C-118 -50 -44 -26 -44 -26 C-28 -25 14 -26 29 -26 C86 -28 144 -31 209 -38 C204 -42 202 -45 198 -50 C194 -54 189 -59 191 -64 C195 -75 205 -70 212 -67 C222 -61 239 -48 248 -41 C252 -41 428 -57 481 -64 C638 -83 804 -108 874 -126 C899 -132 925 -139 950 -150 C955 -153 960 -156 965 -159 C969 -161 973 -166 978 -165 C983 -164 984 -159 982 -155 C979 -151 976 -148 969 -143 C947 -130 919 -121 895 -115 C836 -99 769 -87 632 -67 C540 -54 418 -40 266 -28 C351 44 441 129 504 190 C566 251 627 313 686 377 C715 408 744 441 771 474 C795 505 821 538 835 575 C841 593 844 613 834 629 C806 674 696 653 658 644 C584 626 497 597 430 548 C423 543 414 537 409 529 C406 523 405 509 416 512 C421 513 418 518 421 521 C425 528 448 543 457 549 C493 570 531 587 569 602 C626 622 690 642 756 642 C776 642 799 640 815 628 C829 616 827 597 821 581 C802 533 759 481 712 427 C655 363 595 301 534 240 C503 209 471 179 440 149 C424 134 380 92 344 60 L344 60 Z M-98 -27 C-133 -40 -169 -50 -206 -62 C-242 -73 -278 -84 -314 -95 C-378 -114 -443 -133 -509 -142 C-525 -145 -542 -147 -558 -147 C-565 -147 -574 -145 -578 -140 C-593 -122 -507 -93 -490 -87 C-427 -65 -361 -52 -295 -44 C-231 -34 -166 -29 -98 -27 L-98 -27 Z M224 -24 C155 -19 86 -13 9 -11 C22 -6 90 15 107 20 C137 29 168 38 199 46 C230 55 288 69 318 71 C325 71 331 71 329 65 C327 58 308 43 298 35 C273 16 249 -5 224 -24 L224 -24 Z " />
<glyph glyph-name="M" unicode="M" horiz-adv-x="1374" d="M1439 623 C1440 615 1432 599 1428 592 C1421 578 1413 565 1404 552 C1388 527 1371 501 1354 476 C1325 432 1295 387 1268 341 C1248 308 1227 274 1208 240 C1188 207 1170 175 1151 142 C1135 115 1120 87 1106 60 C1084 20 1063 -20 1043 -61 C1033 -83 1020 -110 1015 -137 C1013 -144 1014 -154 1019 -160 C1023 -163 1029 -162 1030 -157 C1032 -153 1028 -148 1029 -144 C1032 -125 1038 -108 1046 -90 C1058 -65 1070 -39 1083 -15 C1106 31 1130 75 1156 120 C1184 171 1214 223 1244 273 C1280 335 1318 395 1358 455 C1377 484 1397 514 1416 544 C1431 566 1453 602 1453 624 C1453 630 1448 635 1442 637 C1427 641 1405 632 1397 629 C1376 620 1355 610 1335 598 C1297 577 1259 555 1222 531 C1176 503 1131 473 1086 443 C1050 418 1015 393 980 367 C941 339 902 309 864 279 C822 246 780 212 739 179 C719 162 698 145 677 128 C669 122 660 114 651 110 C655 117 660 126 664 132 C676 152 690 171 704 190 C722 213 741 236 759 259 C787 293 816 327 845 361 C864 383 884 405 903 427 C926 452 950 477 973 503 C995 527 1040 571 1049 596 C1050 603 1046 608 1039 608 C1031 608 1019 603 1010 599 C939 564 874 528 805 488 C765 465 726 441 686 417 C643 390 600 364 558 336 C525 314 493 292 460 270 C424 245 388 219 352 193 C317 167 282 141 247 115 C233 105 228 101 212 90 C200 82 193 79 189 77 C191 82 201 96 205 102 C219 123 235 142 251 162 C270 185 290 208 311 231 C340 264 369 296 399 329 C421 354 444 378 466 403 C489 428 512 453 534 478 C555 501 576 524 596 548 C614 571 646 608 644 636 C644 649 634 658 621 663 C591 671 548 665 510 658 C489 654 468 650 448 645 C409 635 370 625 332 614 C295 603 260 592 224 579 C173 561 122 541 71 520 C31 503 -9 485 -48 466 C-79 451 -111 435 -142 419 C-146 417 -166 409 -158 401 C-154 395 -148 401 -143 403 C-96 427 -49 451 2 474 C32 487 62 500 92 513 C142 533 192 553 243 570 C276 581 308 592 341 601 C397 617 453 632 510 643 C544 651 602 659 623 646 C628 643 630 638 630 632 C630 619 620 605 607 586 C592 566 577 548 560 529 C543 509 525 490 507 470 C488 448 469 427 449 406 C427 381 404 357 382 332 C358 306 335 280 311 253 C290 230 270 207 250 184 C232 162 214 140 198 117 C189 106 171 79 173 70 C174 65 177 62 182 61 C196 59 237 90 256 104 C288 127 320 151 352 174 C401 210 450 246 501 280 C539 306 578 332 617 357 C648 376 679 395 710 414 C759 444 808 473 858 502 C908 531 1018 591 1030 590 C1027 584 1002 557 990 544 C970 521 950 499 929 477 C912 458 895 439 878 420 C848 387 819 353 790 319 C761 285 733 251 705 216 C687 192 669 168 653 143 C646 132 635 114 633 102 C632 94 638 91 643 91 C646 91 651 92 654 94 C670 102 686 116 703 129 C734 155 766 182 798 208 C838 241 878 273 920 304 C979 349 1039 393 1101 435 C1140 462 1180 488 1221 513 C1262 540 1304 565 1348 589 C1363 597 1379 605 1395 612 C1404 616 1429 626 1439 623 L1439 623 Z " />
<glyph glyph-name="N" unicode="N" horiz-adv-x="1048" d="M-139 399 C-139 402 -137 404 -135 408 C-106 446 -61 475 -17 505 C77 562 179 611 292 638 C319 644 464 678 462 619 C460 564 388 491 349 445 C280 367 208 292 136 210 C105 178 75 144 41 102 C27 85 1 50 1 35 C2 30 4 27 9 25 C28 20 60 45 87 61 C141 94 194 130 253 164 C322 206 391 247 469 292 C628 385 795 465 974 546 C1031 570 1093 596 1159 604 C1168 605 1171 601 1170 596 C1166 578 1131 548 1113 529 C1022 438 929 348 831 248 C758 173 687 96 614 9 C586 -25 558 -59 530 -101 C523 -112 514 -128 516 -142 C517 -146 518 -150 520 -153 C523 -157 527 -157 530 -154 C532 -152 533 -149 532 -146 C528 -138 532 -128 537 -119 C556 -85 581 -54 611 -18 C685 66 759 150 846 241 C943 339 1038 429 1132 528 C1151 546 1176 569 1183 596 C1185 606 1182 612 1174 615 C1149 624 1090 605 1058 595 C1015 580 974 563 932 544 C761 468 594 385 410 276 C307 221 209 157 109 92 C86 78 63 63 39 50 C33 47 26 44 17 41 C20 45 31 64 38 73 C69 114 103 151 138 191 C207 268 282 346 354 429 C394 470 482 561 476 626 C473 646 459 655 441 662 C390 678 299 657 230 636 C107 598 -23 537 -122 444 C-130 436 -138 428 -144 419 C-151 408 -157 393 -146 387 C-142 385 -139 383 -135 388 C-133 391 -134 395 -139 399 L-139 399 Z " />
<glyph glyph-name="O" unicode="O" horiz-adv-x="1374" d="M918 669 C985 669 1053 662 1117 644 C1179 627 1243 597 1283 546 C1302 521 1314 492 1316 461 C1319 428 1311 395 1297 364 C1270 303 1224 250 1175 203 C1126 156 1072 113 1015 75 C900 -5 774 -72 641 -119 C575 -142 507 -162 437 -173 C369 -183 296 -188 228 -171 C167 -155 109 -120 88 -58 C68 6 90 75 122 131 C188 249 299 340 416 406 C477 440 542 468 606 495 C637 508 667 520 702 529 C707 530 711 528 715 527 C717 527 719 527 721 528 C726 533 723 540 718 542 C707 547 685 540 672 536 C606 515 543 485 481 455 C418 426 358 391 303 350 C249 309 199 263 157 210 C116 158 80 98 69 32 C58 -31 76 -96 126 -138 C177 -181 247 -194 312 -196 C382 -199 453 -188 521 -171 C589 -154 656 -131 721 -104 C849 -50 972 20 1082 104 C1137 146 1189 191 1234 243 C1277 293 1317 351 1329 417 C1335 450 1332 484 1319 515 C1307 543 1287 567 1263 587 C1213 631 1148 654 1084 668 C947 697 801 686 666 651 C531 617 402 558 287 480 C230 442 177 398 129 349 C84 302 39 246 16 184 C10 169 6 152 8 137 C8 129 10 121 15 115 C18 110 26 103 30 111 C34 116 26 124 23 129 C21 136 22 144 23 151 C25 168 31 184 39 200 C67 260 113 313 160 359 C259 455 380 529 507 582 C572 609 639 631 707 646 C777 661 847 668 918 669 L918 669 Z " />
<glyph glyph-name="P" unicode="P" horiz-adv-x="1127" d="M1091 372 C1116 411 1119 444 1110 474 C1107 486 1100 497 1093 508 C1079 529 1059 546 1038 560 C991 592 935 613 880 628 C822 644 763 654 703 660 C583 671 462 665 342 646 C224 628 108 595 -2 549 C-109 504 -213 446 -299 369 C-321 349 -342 329 -360 306 C-368 295 -376 284 -382 272 C-388 261 -394 247 -391 234 C-390 229 -386 223 -381 220 C-376 218 -370 220 -370 226 C-371 231 -378 233 -378 240 C-378 246 -375 252 -373 257 C-360 283 -342 305 -323 326 C-283 368 -236 403 -188 435 C-139 466 -88 494 -35 518 C74 568 191 604 309 626 C427 648 548 656 668 648 C729 644 789 635 848 621 C904 607 961 589 1011 560 C1056 533 1105 491 1100 434 C1094 379 1044 335 1003 304 C957 268 906 238 854 210 C801 182 746 157 690 133 C634 110 578 88 520 73 C492 65 463 59 434 56 C406 54 375 52 349 67 C297 97 344 176 367 211 C398 260 436 305 476 348 C517 392 560 434 603 476 C615 487 626 498 637 509 C642 514 659 527 650 535 C644 542 632 534 627 531 C614 524 602 515 590 508 C489 441 396 363 305 284 C213 203 123 120 35 35 C-9 -7 -53 -50 -94 -95 C-114 -116 -135 -138 -149 -163 C-154 -171 -162 -189 -149 -194 C-143 -196 -139 -192 -140 -186 C-141 -183 -142 -183 -141 -179 C-141 -176 -138 -173 -137 -171 C-123 -146 -102 -125 -83 -104 C-62 -82 -40 -60 -19 -38 C24 4 67 46 112 87 C201 171 290 254 384 332 C455 392 529 448 606 499 C602 495 597 491 593 487 C522 419 452 350 392 272 C351 219 250 75 365 44 C389 38 414 39 438 42 C463 44 487 49 511 55 C561 68 609 85 656 104 C750 140 841 183 927 235 C968 260 1008 286 1044 319 C1062 335 1078 352 1091 372 L1091 372 Z " />
<glyph glyph-name="Q" unicode="Q" horiz-adv-x="1564" d="M527 383 C507 397 486 410 465 423 C379 477 278 518 177 483 C87 452 19 369 5 275 C-9 174 42 79 120 17 C199 -47 300 -77 400 -89 C504 -101 609 -92 711 -75 C814 -57 916 -28 1014 10 C1021 12 1049 23 1049 23 C1076 12 1129 -11 1154 -22 C1204 -42 1253 -61 1303 -81 C1353 -100 1404 -119 1455 -137 C1481 -147 1506 -156 1532 -164 C1556 -172 1581 -182 1606 -184 C1612 -185 1618 -185 1623 -182 C1626 -179 1627 -174 1624 -171 C1620 -168 1614 -170 1610 -170 C1603 -169 1597 -168 1591 -166 C1565 -160 1540 -151 1515 -143 C1464 -126 1414 -107 1364 -88 C1313 -69 1264 -48 1213 -30 C1177 -17 1102 16 1069 32 C1082 38 1095 44 1108 49 C1213 97 1318 158 1400 241 C1440 281 1476 328 1495 382 C1514 436 1510 495 1476 543 C1444 588 1392 616 1341 632 C1283 650 1223 654 1163 653 C1044 649 925 616 815 569 C762 545 710 517 660 485 C637 470 613 454 591 436 C569 420 548 401 527 383 L527 383 Z M1050 40 C1033 48 1016 56 999 65 C929 101 861 142 796 187 C730 232 666 280 601 328 C585 340 539 374 539 374 C550 383 561 394 569 400 C599 425 630 448 662 469 C726 510 794 546 865 573 C937 601 1013 622 1090 631 C1168 641 1248 643 1324 622 C1389 604 1459 565 1483 498 C1509 426 1473 350 1428 293 C1381 235 1320 187 1257 147 C1192 105 1122 69 1050 40 L1050 40 Z M1030 32 C1017 26 1003 21 989 16 C870 -28 746 -59 619 -72 C496 -86 369 -83 251 -40 C144 0 41 82 21 200 C1 314 72 431 181 469 C239 489 300 483 357 462 C385 452 412 438 438 423 C451 415 463 407 476 399 C489 390 502 382 515 372 C489 345 463 318 440 288 C428 272 418 256 409 239 C405 231 401 222 398 213 C396 207 391 194 396 188 C400 182 406 187 407 192 C409 201 411 209 414 217 C421 232 429 246 438 260 C457 288 479 314 503 338 C509 345 521 357 528 363 C528 363 569 334 583 323 C613 301 642 279 672 257 C730 214 788 172 849 134 C909 96 974 60 1030 32 L1030 32 Z " />
<glyph glyph-name="R" unicode="R" horiz-adv-x="1370" d="M720 174 C725 153 732 132 744 113 C772 72 821 51 866 35 C919 18 973 6 1027 -5 C1138 -29 1249 -52 1359 -82 C1386 -89 1412 -97 1439 -106 C1463 -114 1491 -122 1511 -137 C1516 -140 1522 -144 1521 -150 C1519 -155 1514 -159 1519 -163 C1528 -173 1536 -152 1536 -145 C1534 -133 1522 -126 1512 -120 C1501 -113 1489 -108 1476 -104 C1425 -83 1370 -70 1316 -56 C1261 -42 1205 -29 1149 -16 C1094 -4 1039 7 983 19 C930 31 876 43 827 67 C804 77 782 91 765 110 C752 124 739 155 736 176 C755 180 801 190 814 193 C841 201 867 209 894 218 C1001 253 1106 298 1207 347 C1257 372 1307 397 1355 427 C1378 441 1400 455 1421 472 C1441 488 1461 506 1475 528 C1488 549 1492 575 1478 597 C1465 618 1442 631 1420 640 C1370 662 1315 671 1262 677 C1206 683 1150 686 1094 686 C1066 686 1037 685 1008 684 C994 683 942 680 929 679 C932 686 937 695 933 701 C930 707 924 707 919 705 C914 704 905 699 905 693 C905 690 908 688 911 687 C912 687 916 689 917 688 C915 685 911 678 911 678 C905 678 878 675 869 674 C849 672 830 670 811 668 C651 649 491 614 338 561 C263 534 190 503 122 463 C89 444 57 423 29 397 C4 375 -29 343 -27 307 C-25 268 22 261 53 261 C93 260 133 267 172 274 C253 287 333 306 414 320 C453 326 494 332 533 332 C551 331 576 331 590 319 C603 307 591 288 582 278 C555 247 530 215 501 187 C472 159 443 131 414 102 C387 74 359 46 336 14 C332 9 323 -2 328 -9 C334 -16 341 -11 346 -7 C361 6 374 20 387 34 C415 63 442 93 468 124 C494 153 519 184 546 212 C560 226 573 239 585 255 C591 262 596 270 601 278 C607 285 613 292 619 299 C646 331 672 362 699 394 C751 457 804 520 856 584 C869 599 882 615 894 631 C901 639 914 657 920 664 C920 664 1015 670 1056 671 C1137 672 1219 670 1299 657 C1337 651 1376 643 1412 628 C1442 615 1483 590 1470 551 C1458 517 1423 491 1395 470 C1363 447 1328 427 1294 408 C1223 370 1150 335 1076 303 C1001 271 924 243 846 218 C816 208 744 192 733 192 C732 202 729 217 728 221 C727 229 724 238 719 245 C708 258 691 259 675 255 C659 252 644 244 632 233 C621 223 611 207 620 192 C629 178 650 174 666 172 C688 171 710 174 720 174 L720 174 Z M610 312 C606 323 601 331 590 336 C566 348 536 347 510 346 C482 345 454 341 427 337 C372 329 318 317 263 306 C210 295 156 284 101 278 C66 274 -38 267 -7 331 C4 355 24 374 44 391 C63 408 85 423 107 437 C153 466 201 490 251 511 C352 555 459 586 567 611 C622 624 677 634 732 642 C760 646 856 660 898 662 C880 638 849 599 839 586 C800 539 762 493 723 446 C704 423 685 400 665 377 C656 366 647 354 637 343 C632 337 624 328 610 312 L610 312 Z M718 189 C690 184 664 186 650 188 C643 190 631 195 631 205 C631 214 641 222 648 227 C660 236 684 248 700 241 C712 235 716 207 718 189 L718 189 Z " />
<glyph glyph-name="S" unicode="S" horiz-adv-x="1103" d="M756 489 C732 469 707 450 686 427 C666 404 648 377 642 347 C636 315 647 286 669 263 C713 215 779 193 828 150 C850 131 872 104 865 73 C859 43 832 21 808 4 C754 -34 690 -57 628 -78 C563 -99 497 -116 430 -128 C397 -133 362 -137 328 -135 C299 -134 262 -130 241 -108 C219 -85 230 -50 242 -25 C256 4 276 29 297 53 C341 103 391 148 443 188 C469 208 495 227 523 244 C538 253 567 270 574 271 C577 271 581 269 584 270 C589 271 592 276 591 280 C590 296 562 282 555 278 C541 272 527 264 513 255 C485 238 458 219 432 198 C379 157 329 112 285 62 C264 38 244 12 229 -17 C216 -43 205 -78 221 -106 C236 -133 268 -143 297 -147 C330 -153 364 -151 398 -147 C465 -139 531 -123 596 -103 C660 -84 725 -61 784 -29 C832 -2 903 49 876 113 C864 142 838 163 813 181 C786 200 756 216 728 235 C703 251 675 271 662 299 C648 329 659 361 675 387 C692 413 714 436 738 456 C751 466 768 479 781 489 C793 488 807 487 815 487 C850 485 884 482 918 479 C952 476 987 474 1020 469 C1019 459 1017 449 1026 441 C1034 433 1046 431 1057 431 C1080 429 1103 433 1125 436 C1136 438 1176 442 1170 460 C1167 469 1153 471 1145 472 C1133 474 1122 475 1110 476 C1088 479 1066 480 1043 483 C1060 512 1106 561 1120 577 C1133 593 1149 608 1159 626 C1164 633 1168 642 1165 651 C1163 658 1155 661 1148 662 C1128 665 1105 658 1086 652 C1005 628 927 591 853 551 C829 538 800 520 776 504 C762 504 750 504 740 504 C697 504 653 502 610 497 C524 488 439 468 355 447 C271 426 187 402 104 376 C62 364 20 350 -21 334 C-60 320 -102 305 -138 282 C-146 277 -154 271 -161 264 C-165 259 -174 246 -163 244 C-156 242 -150 254 -146 258 C-138 264 -130 270 -121 275 C-85 295 -46 309 -7 324 C76 354 161 379 245 402 C330 425 415 448 501 465 C543 473 586 480 630 484 C671 488 714 491 756 489 L756 489 Z M1027 484 C988 487 950 491 911 495 C893 496 874 498 855 500 C845 500 836 501 826 502 C823 502 813 502 802 503 C818 513 838 526 856 536 C876 547 895 557 915 567 C950 584 987 600 1024 615 C1042 622 1060 628 1078 634 C1096 640 1115 646 1134 647 C1138 648 1146 649 1150 647 C1152 645 1151 642 1150 640 C1147 632 1142 626 1137 620 C1125 605 1111 590 1099 575 C1073 546 1047 517 1027 484 L1027 484 Z M1036 468 C1063 465 1112 461 1149 456 C1127 451 1101 447 1078 446 C1068 445 1056 445 1045 447 C1034 451 1032 458 1036 468 L1036 468 Z " />
<glyph glyph-name="T" unicode="T" horiz-adv-x="1027" d="M1762 598 C1764 593 1769 587 1774 592 C1778 596 1776 603 1774 607 C1768 615 1748 618 1737 620 C1706 624 1676 625 1645 625 C1516 628 1386 623 1258 618 C1130 613 1002 605 875 598 C750 591 625 578 502 560 C375 542 249 518 125 484 C65 468 4 449 -54 425 C-83 413 -111 400 -138 383 C-161 369 -187 350 -194 322 C-200 293 -169 272 -147 262 C-119 249 -88 241 -58 235 C4 222 66 215 129 209 C254 195 381 189 506 167 C536 162 566 156 595 146 C619 138 652 124 653 96 C654 89 653 80 649 74 C645 68 640 63 635 58 C624 46 614 34 603 22 C583 -1 562 -25 542 -49 C531 -61 504 -93 496 -104 C493 -109 498 -116 505 -115 C511 -114 517 -105 521 -101 C526 -96 531 -91 536 -86 C548 -74 560 -63 571 -51 C593 -29 615 -6 634 18 C643 30 651 41 657 54 C661 61 663 67 668 73 C673 79 678 85 684 91 C769 187 855 281 943 375 C987 422 1032 468 1076 516 C1081 521 1086 526 1090 531 C1093 535 1094 539 1090 542 C1084 547 1080 541 1073 534 C1067 529 1013 471 991 448 C903 354 815 258 728 163 C717 151 668 97 668 97 C665 117 656 127 651 132 C642 141 629 148 617 153 C589 166 558 173 528 178 C497 184 466 189 435 192 C311 208 186 215 62 231 C0 239 -65 246 -123 268 C-144 276 -187 293 -179 322 C-172 347 -130 372 -117 379 C-66 407 -2 431 58 449 C120 469 182 485 245 499 C369 526 494 546 620 560 C745 575 871 583 997 591 C1125 598 1252 605 1380 608 C1508 610 1649 613 1718 607 C1733 605 1748 603 1762 598 L1762 598 Z " />
<glyph glyph-name="U" unicode="U" horiz-adv-x="1218" d="M1273 496 C1253 476 1190 414 1173 396 C1102 322 1033 246 967 167 C901 88 836 8 777 -76 C763 -96 746 -117 737 -140 C734 -146 730 -163 742 -163 C746 -163 749 -160 749 -156 C750 -152 749 -149 751 -144 C761 -122 776 -103 790 -83 C805 -62 820 -42 836 -21 C898 60 962 140 1029 217 C1097 294 1235 439 1295 497 C1303 505 1314 513 1320 522 C1323 527 1323 533 1317 535 C1312 537 1308 534 1304 532 C1259 508 1214 481 1169 455 C1078 404 987 353 896 304 C805 254 713 207 620 161 C528 116 435 71 338 38 C291 21 242 8 191 0 C145 -8 90 -13 46 9 C3 31 -7 79 -3 124 C2 173 20 221 42 266 C85 354 144 436 210 509 C243 547 279 582 317 614 C327 621 347 638 353 639 C355 639 358 638 360 640 C363 641 364 645 362 649 C351 665 315 631 306 624 C229 561 163 484 106 403 C78 362 51 319 29 274 C7 229 -11 180 -17 130 C-23 85 -16 34 23 6 C62 -23 116 -23 162 -19 C262 -10 360 27 452 66 C546 106 639 152 731 199 C822 246 913 296 1003 345 C1049 371 1094 396 1139 421 C1161 433 1247 483 1273 496 L1273 496 Z " />
<glyph glyph-name="V" unicode="V" horiz-adv-x="1269" d="M235 27 C217 -20 194 -80 212 -133 C222 -164 258 -176 287 -175 C373 -176 480 -114 578 -57 C612 -36 646 -14 679 8 C916 171 1136 351 1361 529 C1390 552 1419 575 1448 598 C1453 602 1464 612 1465 614 C1467 617 1466 620 1464 622 C1461 624 1458 624 1455 622 C1452 620 1396 576 1371 556 C1308 508 1247 458 1184 409 C1014 279 849 143 659 13 C606 -23 551 -58 479 -96 C416 -129 333 -171 256 -157 C243 -153 233 -144 227 -131 C213 -95 223 -55 234 -19 C251 31 274 79 302 130 C338 196 378 260 423 334 C455 384 488 434 514 489 C524 510 536 536 534 561 C533 576 526 586 512 592 C479 603 435 588 399 577 C312 544 232 504 144 448 C109 425 74 400 41 372 C24 358 8 343 -7 327 C-19 314 -32 298 -36 279 C-38 266 -31 256 -23 249 C-19 247 -14 249 -13 253 C-11 257 -15 260 -20 266 C-25 273 -21 282 -20 285 C-1 314 23 337 50 360 C74 380 98 399 123 416 C207 474 298 524 398 561 C422 569 468 584 497 580 C513 578 517 570 518 565 C523 539 508 512 494 483 C471 436 441 393 409 338 C367 270 324 202 273 108 C259 81 246 54 235 27 L235 27 Z " />
<glyph glyph-name="W" unicode="W" horiz-adv-x="1910" d="M1841 438 C1851 491 1850 530 1850 578 C1850 594 1848 612 1844 624 C1842 630 1840 636 1833 637 C1828 638 1822 635 1823 629 C1824 624 1829 624 1832 615 C1833 608 1834 600 1834 593 C1837 560 1836 526 1834 493 C1832 460 1825 428 1815 396 C1797 336 1768 280 1732 229 C1661 126 1564 46 1452 -10 C1336 -69 1208 -106 1078 -122 C1014 -129 947 -132 882 -121 C825 -112 763 -90 730 -38 C695 17 703 85 726 143 C737 174 753 202 768 231 C772 240 783 259 771 266 C764 270 749 265 731 255 C670 225 611 192 551 160 C491 128 431 95 371 62 C342 45 312 29 283 13 C254 -2 225 -17 194 -29 C187 -32 161 -43 152 -37 C142 -30 152 -8 155 0 C169 30 188 57 207 83 C286 193 379 293 463 398 C483 424 504 450 520 478 C532 498 552 533 531 555 C521 565 506 567 493 568 C476 569 459 567 443 564 C410 559 377 550 345 540 C283 520 223 494 165 466 C136 451 107 435 79 419 C52 402 23 386 0 364 C-5 359 -11 354 -10 348 C-10 342 -3 334 3 337 C7 338 7 342 6 346 C5 348 4 349 9 353 C15 358 21 363 28 367 C54 386 81 403 109 419 C166 451 226 480 287 503 C317 515 349 526 381 535 C412 544 445 552 478 553 C491 554 510 555 520 545 C530 535 523 517 518 506 C505 477 486 451 467 427 C384 320 292 220 210 112 C191 86 171 60 155 31 C148 18 140 5 136 -10 C132 -22 130 -38 141 -47 C151 -56 169 -52 182 -49 C195 -45 214 -38 229 -31 C259 -17 288 0 317 15 C437 81 557 146 677 211 C691 219 743 246 754 250 C761 253 761 251 759 246 C746 217 728 189 716 160 C692 102 681 35 706 -24 C730 -79 782 -111 837 -126 C899 -144 965 -145 1029 -141 C1161 -132 1292 -99 1413 -45 C1530 7 1636 81 1716 183 C1756 232 1790 288 1814 347 C1825 376 1835 406 1841 438 L1841 438 Z " />
<glyph glyph-name="X" unicode="X" horiz-adv-x="1463" d="M1757 665 C1724 640 1688 618 1653 597 C1603 566 1551 537 1500 509 C1438 474 1375 440 1312 407 C1179 337 1045 270 910 203 C899 271 893 341 892 410 C891 463 888 515 865 563 C848 597 822 626 788 643 C754 661 715 668 676 668 C581 669 486 634 400 594 C309 551 221 495 144 429 C113 402 82 373 56 340 C37 316 19 290 12 260 C5 233 10 204 34 187 C61 169 98 169 129 169 C213 171 297 194 381 193 C396 193 411 192 426 187 C436 184 446 179 451 170 C456 160 456 147 453 135 C448 115 439 96 427 79 C412 56 392 37 372 18 C346 -6 320 -28 292 -50 C236 -93 178 -134 118 -172 C96 -186 74 -199 51 -212 C43 -216 50 -227 58 -224 C80 -213 102 -203 125 -193 C166 -173 207 -154 248 -134 C466 -32 685 74 900 182 C911 115 928 49 952 -15 C973 -69 999 -125 1040 -168 C1053 -182 1068 -195 1086 -203 C1094 -207 1101 -195 1093 -192 C1050 -172 1021 -127 1000 -87 C965 -22 942 50 926 122 C921 144 916 166 913 188 C1033 248 1150 308 1269 369 C1334 403 1399 438 1464 473 C1570 531 1661 580 1744 639 C1750 644 1757 649 1764 654 C1771 659 1764 671 1757 665 L1757 665 Z M279 -105 C240 -123 201 -141 162 -160 C179 -149 196 -137 213 -125 C271 -85 328 -42 380 7 C416 40 451 77 464 126 C472 152 469 181 443 195 C415 210 379 208 348 206 C305 203 263 196 220 191 C180 186 138 181 97 183 C72 185 39 190 27 215 C16 238 25 265 36 286 C53 318 76 345 101 371 C169 440 250 497 334 544 C421 593 515 634 613 650 C688 661 774 656 827 596 C855 564 869 523 874 481 C880 446 878 410 880 374 C882 325 886 276 893 227 C894 217 896 206 897 196 L279 -105 Z " />
<glyph glyph-name="Y" unicode="Y" horiz-adv-x="1077" d="M1270 645 C1250 626 1181 563 1165 546 C1093 478 1023 407 955 336 C887 265 819 194 752 122 C685 50 618 -22 553 -96 C537 -114 521 -132 506 -151 C503 -155 489 -170 489 -178 C490 -183 495 -185 499 -183 C503 -181 506 -175 508 -172 C539 -134 571 -98 603 -62 C670 12 738 85 806 158 C873 230 941 301 1009 371 C1077 441 1147 510 1219 577 C1236 593 1280 634 1313 663 C1316 666 1321 669 1323 674 C1324 679 1321 683 1317 684 C1312 686 1308 682 1304 680 C1293 675 1283 669 1272 663 C1251 651 1230 639 1208 628 C1122 581 1034 537 945 494 C857 450 767 409 677 370 C587 330 496 292 402 261 C356 246 308 231 260 227 C217 224 168 232 150 276 C133 319 145 371 161 413 C178 457 201 499 228 538 C254 575 283 612 317 641 C331 653 347 666 353 665 C355 664 356 662 357 661 C361 659 365 658 368 662 C373 670 359 679 352 679 C344 679 332 671 324 666 C287 640 256 602 229 566 C202 528 177 488 158 446 C128 379 96 258 186 221 C229 203 281 213 325 223 C372 234 418 250 463 266 C556 300 648 340 738 381 C828 421 917 463 1005 506 C1094 550 1183 597 1270 645 L1270 645 Z " />
<glyph glyph-name="Z" unicode="Z" horiz-adv-x="939" d="M178 -8 C198 4 244 27 257 34 C285 48 312 63 339 77 C452 139 563 204 673 272 C727 306 781 340 834 375 C886 410 937 445 984 485 C1017 513 1094 579 1047 625 C1026 645 993 652 966 656 C934 661 902 662 870 662 C807 661 744 655 681 646 C618 637 556 625 494 610 C432 596 370 578 310 557 C281 547 252 537 224 524 C213 519 196 513 190 501 C188 496 188 490 195 490 C200 490 201 495 205 498 C215 507 230 511 242 516 C257 522 272 528 287 533 C316 544 346 554 376 563 C436 582 498 597 560 610 C622 623 684 633 747 640 C810 647 875 650 938 645 C966 642 998 638 1024 623 C1035 618 1045 608 1046 596 C1048 583 1041 569 1033 558 C1017 534 995 513 972 494 C948 474 924 456 898 438 C795 363 686 296 576 230 C466 164 354 101 240 41 C211 26 183 12 154 -3 C147 -6 138 -11 138 -11 C131 -11 119 -12 112 -13 C97 -14 81 -16 65 -17 C3 -24 -60 -34 -122 -50 C-152 -57 -182 -66 -211 -78 C-237 -89 -264 -102 -286 -121 C-295 -129 -305 -141 -306 -154 C-306 -166 -295 -174 -285 -176 C-270 -180 -254 -178 -239 -176 C-223 -174 -208 -170 -194 -166 C-133 -149 -74 -124 -16 -99 C13 -86 42 -73 71 -59 C85 -53 99 -46 114 -39 C121 -35 134 -29 141 -26 C141 -26 149 -25 157 -24 C282 -17 408 -19 533 -30 C656 -40 778 -58 899 -76 C1025 -95 1151 -116 1275 -142 C1307 -149 1338 -156 1369 -163 C1384 -167 1399 -170 1414 -175 C1422 -177 1430 -180 1438 -182 C1443 -184 1452 -189 1458 -187 C1463 -185 1463 -178 1459 -175 C1454 -171 1446 -170 1440 -168 C1425 -163 1410 -159 1395 -155 C1365 -146 1334 -140 1303 -133 C1179 -106 1053 -85 928 -65 C805 -47 681 -28 557 -17 C494 -11 431 -7 368 -6 C335 -5 303 -5 271 -5 C255 -6 198 -8 178 -8 L178 -8 Z M99 -29 C67 -46 28 -63 13 -69 C-16 -83 -45 -95 -75 -108 C-126 -129 -179 -150 -234 -160 C-246 -162 -260 -165 -273 -163 C-278 -163 -287 -162 -290 -158 C-293 -153 -289 -147 -287 -144 C-273 -124 -247 -111 -225 -100 C-176 -77 -122 -64 -68 -53 C-40 -47 -12 -42 15 -38 C29 -36 70 -30 99 -29 L99 -29 Z " />
<glyph glyph-name="bracketleft" unicode="&#x5b;" horiz-adv-x="506" d="M53 104 C54 106 55 106 56 107 C64 117 72 126 80 135 C202 273 326 408 456 539 C458 542 461 544 463 547 C468 551 473 553 479 552 C488 551 497 550 506 549 C511 548 515 552 514 557 C514 560 511 562 509 562 C497 565 486 567 474 567 C468 567 462 565 457 561 C454 559 451 556 449 554 C418 522 387 491 357 460 C267 364 177 267 90 168 C74 151 59 134 43 116 C41 113 38 110 36 106 C33 99 36 91 44 90 C47 89 51 89 54 89 C64 89 74 90 84 90 C89 91 94 91 100 91 C103 91 106 94 107 98 C107 101 105 104 101 105 C99 106 97 106 95 106 C82 105 69 105 56 104 C55 104 54 104 53 104 L53 104 Z " />
<glyph glyph-name="backslash" unicode="&#x5c;" horiz-adv-x="358" d="M63 4 C67 6 69 8 69 11 C76 32 83 54 90 76 C108 129 125 181 143 234 C158 278 173 323 188 367 C206 419 226 473 245 525 C258 563 272 602 282 641 C283 645 282 648 278 650 C275 651 271 650 269 645 C268 643 267 640 267 637 C248 578 228 520 206 463 C187 407 167 353 149 298 C133 252 117 206 103 159 C89 117 74 74 60 32 C58 26 56 20 55 14 C53 8 58 3 63 4 L63 4 Z " />
<glyph glyph-name="bracketright" unicode="&#x5d;" horiz-adv-x="405" d="M400 512 C399 511 398 510 398 509 C385 494 374 479 360 466 C295 398 231 329 167 258 C109 193 52 126 -4 59 C-9 52 -15 49 -23 48 C-30 47 -37 46 -45 45 C-52 44 -58 44 -65 43 C-70 42 -73 40 -76 36 C-77 33 -77 29 -74 27 C-72 25 -68 25 -66 27 C-64 27 -62 28 -60 28 C-47 30 -34 31 -21 33 C-10 34 -1 39 7 48 C24 69 42 91 60 111 C98 156 137 201 176 246 C239 316 303 386 370 454 C384 469 398 484 410 500 C413 504 415 509 417 513 C419 520 416 525 409 527 C407 527 406 527 404 527 C394 527 385 527 375 526 C374 526 371 525 370 524 C367 523 366 520 367 516 C368 513 370 511 374 512 C382 512 389 512 397 513 C398 513 399 512 400 512 L400 512 Z " />
<glyph glyph-name="asciicircum" unicode="&#x5e;" horiz-adv-x="391" d="M376 610 C372 613 368 613 365 611 C362 609 359 608 356 606 C345 598 335 590 324 582 C300 563 276 544 251 524 C248 522 247 518 249 515 C252 511 255 511 259 514 C262 516 265 518 268 520 C293 539 317 557 342 576 C347 580 351 584 356 587 C356 587 356 587 356 587 C356 586 356 585 355 584 C352 578 349 572 346 566 C340 554 334 543 328 531 C326 527 325 523 324 518 C323 515 326 512 329 511 C332 510 335 511 337 514 C338 516 338 517 339 518 C342 525 345 533 349 539 C358 557 366 574 375 591 C376 594 378 596 378 599 C380 603 379 607 376 610 L376 610 Z " />
<glyph glyph-name="underscore" unicode="&#x5f;" horiz-adv-x="282" d="M49 214 C26 213 6 212 -14 211 C-18 211 -21 209 -22 205 C-22 201 -19 198 -14 198 C-10 199 -6 198 -1 198 C39 198 79 200 119 199 C124 198 127 200 127 204 C128 208 126 211 122 212 C117 212 111 213 105 214 C86 214 66 213 49 214 L49 214 Z " />
<glyph glyph-name="grave" unicode="&#x60;" horiz-adv-x="325" d="M288 505 C291 505 293 507 294 509 C295 513 297 516 298 520 C301 530 304 541 306 551 C308 559 310 566 311 573 C312 578 310 581 306 581 C302 582 299 579 298 575 C298 573 297 572 297 570 C292 553 287 536 282 518 C282 516 281 514 281 512 C281 508 283 505 288 505 L288 505 Z " />
<glyph glyph-name="a" unicode="a" horiz-adv-x="253" d="M95 285 C79 266 65 248 53 231 C46 221 33 201 30 180 C28 168 36 159 48 160 C59 161 70 166 77 170 C87 176 95 180 104 186 C151 216 197 246 244 277 C252 282 255 284 258 286 C265 291 260 297 253 300 C253 300 245 295 243 294 C211 273 171 247 139 226 C118 212 99 200 77 186 C71 182 58 175 49 174 C45 174 44 175 44 179 C46 189 55 206 60 214 C71 232 84 250 99 266 C111 279 123 291 135 304 C137 306 140 309 142 311 C144 314 144 318 142 321 C140 324 136 326 132 324 C127 322 122 319 117 316 C86 297 54 277 21 260 C11 255 0 250 -10 245 C-16 242 -26 239 -34 238 C-32 247 -25 257 -21 261 C-5 280 15 295 37 305 C47 309 57 312 63 311 C67 310 67 309 67 306 C67 301 63 296 70 293 C73 291 78 294 79 297 C80 300 81 303 81 306 C81 315 78 321 70 324 C62 326 48 327 30 318 C6 306 -15 290 -32 270 C-36 265 -45 253 -47 241 C-49 232 -43 225 -34 225 C-16 224 17 242 27 247 C52 261 79 276 95 285 L95 285 Z " />
<glyph glyph-name="b" unicode="b" horiz-adv-x="261" d="M22 300 C32 312 51 333 64 347 C125 411 186 472 253 531 C260 537 267 543 275 551 C279 554 280 559 277 562 C274 565 270 565 265 561 C252 551 242 542 228 529 C186 492 146 452 107 412 C62 366 18 319 -26 273 C-30 269 -34 265 -39 261 C-45 256 -55 249 -58 242 C-59 239 -58 236 -56 234 C-53 231 -47 232 -43 236 C-33 245 -24 253 -11 263 C8 277 29 289 52 298 C60 301 80 309 94 308 C99 308 101 303 100 298 C98 283 89 272 80 259 C66 239 49 222 31 205 C30 204 28 202 25 201 C2 193 -25 184 -50 179 C-72 175 -92 176 -115 168 C-127 163 -134 155 -135 142 C-136 129 -129 120 -118 115 C-100 107 -75 113 -65 117 C-32 130 -4 154 26 180 C33 187 41 192 51 195 C123 223 194 255 265 286 C271 289 273 298 261 300 C261 300 238 290 236 289 C222 283 206 276 183 266 C146 250 67 217 65 217 C84 239 115 275 115 299 C115 312 106 321 93 322 C73 323 42 311 22 300 L22 300 Z M3 178 C-13 164 -34 148 -55 137 C-72 128 -94 119 -114 130 C-122 136 -122 147 -113 153 C-103 158 -82 160 -73 161 C-50 164 -17 172 3 178 L3 178 Z " />
<glyph glyph-name="c" unicode="c" horiz-adv-x="180" d="M67 329 C67 326 66 324 64 320 C60 314 56 308 52 302 C48 296 47 293 52 288 C57 284 63 293 67 299 C72 306 78 314 81 325 C83 336 77 343 66 343 C51 342 35 331 21 320 C-5 298 -27 273 -47 246 C-59 230 -72 206 -73 188 C-74 173 -65 164 -50 164 C-35 164 -10 175 9 186 C70 221 123 251 185 286 C190 289 189 298 180 300 C121 267 62 233 4 200 C-13 191 -33 180 -49 178 C-57 177 -60 180 -59 187 C-57 201 -49 215 -39 231 C-25 252 -9 272 9 290 C20 300 31 310 43 318 C51 323 60 328 67 329 L67 329 Z " />
<glyph glyph-name="d" unicode="d" horiz-adv-x="261" d="M50 248 C129 310 246 404 292 439 C175 310 75 192 -56 20 C-83 -15 -108 -50 -134 -86 C-145 -101 -148 -105 -148 -111 C-148 -116 -144 -119 -140 -119 C-135 -118 -130 -114 -130 -109 C-130 -105 -128 -102 -126 -99 C-114 -82 -102 -65 -90 -48 C-41 17 10 81 61 145 C154 260 250 373 352 481 C376 507 402 529 428 553 C432 557 438 563 433 569 C429 575 423 571 416 565 C397 548 380 529 359 513 C272 443 95 302 93 301 C96 311 91 326 76 329 C54 333 32 322 13 310 C-16 290 -41 267 -63 239 C-70 231 -85 209 -87 193 C-89 180 -81 172 -69 174 C-50 176 -22 195 -12 202 C11 218 28 231 50 248 L50 248 Z M79 291 C68 281 -6 224 -22 213 C-37 203 -64 185 -74 187 C-74 196 -69 207 -61 218 C-46 239 -29 257 -10 274 C2 285 15 295 30 303 C40 309 52 314 64 315 C73 315 82 315 80 305 C79 300 76 298 79 291 L79 291 Z " />
<glyph glyph-name="e" unicode="e" horiz-adv-x="228" d="M4 285 C-1 278 -1 273 -2 268 C-4 255 5 246 18 245 C48 244 84 276 92 304 C96 320 87 331 71 331 C54 331 31 322 14 310 C-22 286 -52 255 -75 218 C-86 202 -100 163 -73 153 C-38 142 12 166 48 184 C108 217 168 249 229 285 C236 289 238 297 228 300 C196 283 161 263 93 225 C68 211 43 198 18 186 C-8 173 -40 162 -62 165 C-87 168 -70 200 -61 214 C-43 242 -19 262 4 285 L4 285 Z M28 290 C32 293 35 297 32 304 C44 310 56 316 69 317 C78 317 80 313 78 305 C70 287 50 270 33 262 C29 260 23 258 19 258 C13 258 12 261 13 268 C14 275 21 284 28 290 L28 290 Z " />
<glyph glyph-name="f" unicode="f" horiz-adv-x="254" d="M-111 162 C-110 164 -98 176 -94 182 C-92 184 -89 186 -86 186 C28 209 141 246 255 285 C262 288 269 298 254 300 C210 284 154 266 99 250 C26 229 -35 213 -72 205 C-68 209 -58 220 -56 222 C28 311 108 388 199 471 C261 527 325 581 392 630 C395 632 398 634 402 634 C406 635 408 639 408 642 C408 650 399 650 392 646 C383 640 374 634 365 627 C314 590 265 550 218 507 C109 411 6 309 -93 204 C-97 200 -100 198 -105 197 C-120 193 -146 187 -150 183 C-155 179 -155 172 -150 168 C-148 165 -138 160 -135 158 C-137 156 -201 83 -231 47 C-253 22 -273 -5 -291 -33 C-297 -43 -311 -65 -313 -84 C-315 -96 -307 -104 -294 -105 C-276 -107 -252 -97 -239 -90 C-195 -67 -155 -38 -119 -4 C-96 19 -72 44 -62 78 C-56 101 -61 121 -78 138 C-87 148 -100 154 -111 162 L-111 162 Z M-122 151 C-96 138 -66 116 -75 84 C-80 67 -91 45 -111 25 C-150 -16 -195 -50 -244 -76 C-261 -85 -274 -90 -290 -92 C-297 -92 -301 -91 -299 -82 C-296 -71 -289 -59 -285 -52 C-271 -27 -254 -4 -236 18 C-201 63 -123 150 -122 151 L-122 151 Z M-135 175 C-130 176 -122 178 -117 179 C-119 176 -122 172 -125 169 C-128 171 -131 173 -135 175 L-135 175 Z " />
<glyph glyph-name="g" unicode="g" horiz-adv-x="269" d="M9 237 C28 250 56 269 72 281 C71 280 -5 194 -41 154 C-43 152 -45 150 -48 148 C-54 145 -62 142 -68 139 C-104 123 -139 107 -173 91 C-202 77 -230 62 -256 44 C-282 25 -308 -2 -322 -23 C-336 -45 -346 -69 -341 -87 C-338 -97 -333 -103 -323 -106 C-292 -115 -254 -84 -227 -63 C-199 -40 -173 -15 -149 12 C-112 52 -76 93 -39 133 C-36 137 -32 139 -28 142 C-18 146 -7 151 3 156 C79 193 155 230 231 266 C245 273 260 280 274 287 C278 289 279 298 269 300 C241 288 137 237 111 224 C73 206 10 176 -8 168 C-7 170 60 246 92 282 C103 294 113 306 123 318 C129 325 131 328 126 334 C122 338 118 336 112 332 C105 327 99 322 93 318 C91 326 87 330 79 332 C69 334 58 331 45 326 C12 312 -16 291 -40 264 C-45 258 -53 247 -57 232 C-59 222 -53 215 -42 215 C-30 214 -5 227 9 237 L9 237 Z M-70 122 C-71 120 -144 37 -182 -1 C-203 -23 -224 -43 -249 -62 C-266 -77 -300 -96 -316 -94 C-323 -93 -327 -87 -327 -80 C-327 -61 -319 -47 -308 -31 C-292 -5 -271 15 -246 32 C-221 51 -193 66 -164 79 C-135 93 -72 121 -70 122 L-70 122 Z M-44 228 C-43 236 -34 248 -31 252 C-8 279 20 299 53 313 C58 315 66 318 77 318 C80 315 73 310 74 307 C74 303 71 300 68 298 C48 283 29 268 8 254 C-5 245 -32 229 -44 228 L-44 228 Z " />
<glyph glyph-name="h" unicode="h" horiz-adv-x="269" d="M-46 226 C-23 252 38 321 79 365 C122 411 164 458 208 504 C243 540 279 576 315 611 C326 622 340 637 350 648 C353 651 354 657 350 660 C347 662 344 661 341 659 C331 649 322 639 312 629 C261 580 211 530 163 478 C90 399 18 320 -54 241 C-69 224 -84 207 -99 190 C-103 186 -109 179 -104 174 C-100 170 -94 172 -90 175 C-79 184 -68 193 -56 201 C-27 222 3 241 34 258 C40 261 50 266 56 267 C52 253 51 245 51 236 C51 222 60 213 74 213 C88 212 115 222 135 230 C181 248 224 267 270 285 C278 288 281 298 269 300 C269 300 258 296 254 294 C212 277 176 263 133 246 C112 237 83 227 74 227 C69 227 66 229 66 235 C66 246 70 257 71 269 C71 277 66 282 59 282 C34 281 -17 248 -46 226 L-46 226 Z " />
<glyph glyph-name="i" unicode="i" horiz-adv-x="138" d="M-75 186 C-74 191 -71 197 -69 200 C-62 210 -55 220 -48 230 C-29 253 -7 274 15 295 C18 298 22 301 25 304 C28 307 28 311 25 314 C20 319 15 313 11 310 C-8 293 -27 276 -44 257 C-57 242 -70 227 -80 210 C-84 203 -88 196 -89 189 C-91 179 -85 171 -75 171 C-59 171 -35 185 -23 191 C14 212 51 233 88 254 C121 272 134 281 143 286 C146 287 151 298 138 300 C138 300 104 280 71 261 C35 241 0 221 -35 202 C-46 196 -65 186 -75 186 L-75 186 Z M80 397 C75 396 72 392 74 386 C75 383 79 382 82 383 C85 384 88 385 88 391 C88 395 85 398 80 397 L80 397 Z " />
<glyph glyph-name="j" unicode="j" horiz-adv-x="118" d="M-3 224 C-43 200 -115 155 -127 148 C-121 154 -44 233 -5 274 C6 285 17 297 28 309 C31 313 31 317 28 320 C22 325 16 316 10 310 C-2 298 -14 286 -26 274 C-73 225 -167 127 -172 122 C-227 92 -285 62 -340 34 C-378 14 -422 -1 -454 -31 C-463 -41 -470 -53 -472 -67 C-475 -88 -463 -106 -439 -108 C-409 -110 -374 -88 -349 -69 C-321 -48 -295 -24 -271 0 C-236 35 -198 75 -164 110 C-160 112 -65 168 -19 196 C33 229 70 252 122 285 C128 288 132 297 118 300 C70 270 45 254 -3 224 L-3 224 Z M-208 85 C-218 75 -282 9 -320 -25 C-340 -43 -361 -61 -384 -75 C-400 -84 -423 -99 -442 -93 C-464 -86 -458 -64 -449 -49 C-431 -24 -396 -10 -365 5 C-313 31 -220 79 -208 85 L-208 85 Z M87 391 C87 388 89 385 93 385 C96 385 99 387 99 391 C98 394 96 397 92 397 C89 397 87 395 87 391 L87 391 Z " />
<glyph glyph-name="k" unicode="k" horiz-adv-x="295" d="M82 286 C80 278 57 261 39 251 C25 242 11 235 -4 231 C-7 230 -10 230 -12 233 C-17 238 -25 237 -29 232 C-34 225 -30 218 -21 215 C-18 214 -18 213 -17 211 C-13 201 -9 191 -4 181 C9 159 28 153 52 157 C95 165 138 194 177 216 C221 241 256 261 300 286 C303 287 308 297 295 300 C263 282 240 269 208 251 C171 230 133 208 95 189 C78 181 61 174 42 170 C29 169 20 174 12 184 C6 193 0 210 -2 216 C9 220 35 230 51 241 C68 251 89 265 97 284 C100 291 97 299 89 300 C83 301 62 299 47 293 C27 286 2 273 -13 264 C3 282 19 300 34 316 C132 425 230 534 331 641 C349 661 371 685 387 704 C392 711 399 719 391 723 C388 725 385 724 381 720 C362 698 343 676 323 655 C240 566 157 475 75 385 C31 335 -14 286 -59 237 C-63 232 -69 227 -75 222 C-89 211 -103 200 -114 186 C-118 182 -122 173 -118 169 C-112 163 -103 170 -98 175 C-86 188 -74 200 -61 212 C-58 215 -55 219 -51 221 C-26 239 0 255 28 269 C45 278 70 288 82 286 L82 286 Z " />
<glyph glyph-name="l" unicode="l" horiz-adv-x="289" d="M-174 7 C-160 4 -140 9 -129 12 C-71 30 10 82 86 134 C133 167 179 200 225 233 C246 249 272 269 293 285 C296 287 303 297 289 300 C289 300 280 294 278 292 C257 276 236 260 214 245 C162 206 109 167 55 131 C13 103 -29 77 -73 53 C-100 40 -136 20 -166 21 C-174 22 -177 24 -176 33 C-175 38 -174 44 -172 49 C-165 68 -154 85 -143 102 C-122 134 -98 164 -74 194 C-20 259 38 320 97 380 C150 434 204 486 257 539 C294 576 331 613 365 652 C371 658 377 665 373 669 C368 674 364 670 358 665 C317 623 276 580 235 539 C182 486 129 434 77 381 C17 321 -40 258 -93 193 C-117 164 -141 134 -161 102 C-171 86 -181 69 -187 51 C-189 44 -191 38 -191 28 C-191 18 -184 10 -174 7 L-174 7 Z " />
<glyph glyph-name="m" unicode="m" horiz-adv-x="339" d="M-86 181 C-81 188 -25 252 6 286 C46 330 90 371 129 417 C131 420 133 423 130 426 C125 430 123 430 116 424 C102 409 88 393 73 378 C22 325 -29 272 -76 217 C-91 201 -104 183 -118 166 C-126 156 -124 151 -121 148 C-115 143 -107 149 -105 150 C-40 194 27 235 94 277 C85 265 60 233 53 215 C49 205 57 198 67 199 C74 200 83 204 90 207 C106 214 113 218 129 226 C152 238 201 264 202 264 C197 256 192 247 191 235 C190 227 194 221 203 221 C216 221 236 229 247 234 C277 250 313 269 343 285 C346 287 353 298 339 300 C308 283 275 266 244 250 C234 244 214 235 206 235 C209 248 222 267 223 271 C225 279 219 285 212 284 C205 283 195 278 190 275 C166 262 141 249 117 236 C103 229 78 217 70 215 C72 222 82 235 87 242 C98 257 107 269 119 286 C127 299 114 303 105 299 C87 291 -72 193 -86 181 L-86 181 Z " />
<glyph glyph-name="n" unicode="n" horiz-adv-x="227" d="M-60 216 C-42 235 -21 258 -3 276 C14 294 31 312 49 330 C54 335 62 343 55 349 C50 352 42 343 37 338 C13 314 -11 290 -34 266 C-54 245 -72 225 -91 204 C-96 198 -109 187 -102 178 C-97 172 -88 178 -82 182 C-46 208 -10 233 28 256 C41 265 71 282 72 283 C62 265 46 238 40 216 C37 205 43 197 55 198 C83 198 134 228 172 249 C199 265 204 269 232 285 C235 287 242 299 227 300 C227 300 204 286 186 275 C158 258 130 242 100 228 C87 223 64 213 55 213 C57 219 66 239 69 244 C76 258 88 278 90 287 C92 295 87 302 78 300 C55 296 -23 242 -60 216 L-60 216 Z " />
<glyph glyph-name="o" unicode="o" horiz-adv-x="166" d="M-82 178 C-83 166 -75 159 -64 161 C-47 164 -29 177 -12 191 C5 205 19 221 31 239 C35 246 39 254 39 266 C58 269 129 280 168 286 C172 286 179 298 166 300 C138 296 96 290 67 286 C43 282 33 280 29 282 C23 285 13 286 11 277 C10 273 12 267 21 266 C24 265 22 257 19 250 C14 242 9 234 3 227 C-14 208 -40 182 -65 175 C-68 174 -68 176 -68 178 C-67 187 -60 202 -55 210 C-33 246 -5 277 26 305 C27 306 29 307 31 308 C35 309 37 313 35 317 C30 326 19 318 13 313 C-11 292 -31 267 -51 242 C-63 227 -81 202 -82 178 L-82 178 Z " />
<glyph glyph-name="p" unicode="p" horiz-adv-x="265" d="M8 287 C21 302 36 316 53 334 C56 338 56 342 53 345 C51 347 48 348 42 343 C28 329 16 316 1 302 C-32 270 -72 233 -101 201 C-104 197 -108 192 -113 191 C-125 189 -176 185 -176 166 C-177 160 -172 154 -165 153 C-159 152 -153 152 -148 151 C-204 91 -260 31 -316 -29 C-329 -43 -340 -57 -352 -71 C-355 -75 -362 -83 -354 -89 C-351 -91 -347 -89 -342 -83 C-329 -68 -320 -55 -306 -40 C-249 23 -190 85 -131 147 C-126 152 -122 155 -115 157 C-86 164 -58 176 -31 189 C-28 190 -25 192 -21 192 C29 202 77 216 125 234 C174 251 221 271 270 286 C274 287 277 298 265 300 C215 284 167 265 116 247 C88 237 47 225 27 219 C82 249 109 273 119 292 C126 306 120 319 104 321 C71 325 37 304 8 287 L8 287 Z M-83 196 C-45 234 37 302 96 307 C107 308 109 304 107 300 C104 291 91 280 83 274 C62 258 40 244 17 231 C4 223 -10 217 -23 209 C-31 205 -38 204 -46 203 C-58 200 -82 196 -83 196 L-83 196 Z M-157 166 C-146 170 -137 172 -127 173 C-130 170 -133 167 -134 167 C-141 166 -148 166 -157 166 L-157 166 Z " />
<glyph glyph-name="q" unicode="q" horiz-adv-x="349" d="M-119 56 C-108 66 -91 84 -78 97 C-76 99 -74 100 -72 101 C-65 103 -53 108 -46 111 C26 138 91 166 161 197 C227 226 288 257 354 286 C358 287 361 298 349 300 C349 300 337 295 331 292 C280 269 230 245 179 222 C106 188 -31 133 -47 126 C-31 142 26 196 62 228 C90 252 117 276 145 300 C154 308 162 313 157 321 C151 329 144 323 134 317 C91 291 48 264 4 240 C-19 226 -46 211 -57 212 C-62 212 -62 216 -61 220 C-57 234 -41 249 -25 262 C-5 279 16 293 41 302 C54 308 76 314 87 299 C88 296 93 296 96 297 C100 299 100 302 99 305 C97 310 94 314 89 317 C77 326 54 322 35 316 C14 309 -5 297 -22 284 C-37 272 -51 260 -63 245 C-68 238 -73 230 -75 221 C-78 208 -71 199 -58 199 C-43 198 -20 210 -2 220 C26 235 49 249 88 271 C37 225 -27 168 -81 115 C-83 113 -85 112 -88 111 C-119 100 -145 91 -176 80 C-183 77 -198 73 -196 64 C-195 59 -191 57 -187 56 C-175 54 -149 49 -147 49 C-148 47 -195 -3 -217 -28 C-232 -44 -255 -71 -259 -86 C-262 -96 -256 -104 -245 -102 C-224 -101 -188 -77 -162 -59 C-143 -46 -125 -32 -110 -15 C-94 1 -78 30 -103 47 C-106 49 -114 54 -119 56 L-119 56 Z M-243 -87 C-238 -76 -217 -51 -205 -37 C-181 -10 -155 18 -130 44 C-123 42 -119 40 -111 35 C-97 25 -108 11 -117 0 C-129 -13 -143 -26 -157 -37 C-183 -57 -216 -80 -243 -87 L-243 -87 Z M-110 86 C-110 86 -133 62 -134 61 C-142 63 -154 65 -165 67 C-147 74 -110 87 -110 86 L-110 86 Z " />
<glyph glyph-name="r" unicode="r" horiz-adv-x="314" d="M20 291 C31 297 48 306 61 316 C95 341 187 412 172 460 C168 473 154 490 114 483 C68 475 16 451 -6 406 C-17 383 -18 359 -13 335 C-9 315 0 297 10 280 C15 270 21 260 26 249 C41 211 5 175 -19 148 C-47 117 -74 85 -102 54 C-116 38 -138 14 -141 -3 C-143 -13 -139 -22 -127 -21 C-112 -20 -87 -9 -70 3 C-48 18 -27 33 -5 48 C100 123 204 200 308 278 C319 286 331 295 314 300 C314 300 303 293 301 291 C245 250 189 208 134 167 C80 128 27 90 -27 51 C-46 37 -65 24 -85 11 C-98 2 -111 -3 -127 -7 C-127 5 -89 45 -78 59 C-51 90 -24 120 3 150 C29 182 61 217 36 262 C32 271 27 282 20 291 L20 291 Z M130 470 C154 471 161 456 158 444 C149 413 120 387 96 364 C64 334 46 324 14 304 C2 330 -5 358 2 386 C13 423 48 446 86 460 C102 466 118 470 130 470 L130 470 Z " />
<glyph glyph-name="s" unicode="s" horiz-adv-x="289" d="M289 300 C289 300 282 296 282 296 C214 253 145 224 67 203 C49 198 30 194 12 190 C22 207 29 223 31 241 C32 260 27 278 18 295 C20 297 61 327 80 341 C116 368 176 411 187 442 C192 456 190 468 173 474 C149 483 112 475 88 467 C44 451 -50 408 -26 348 C-21 333 -10 313 -6 307 C10 282 20 263 15 233 C11 217 1 200 -9 186 C-52 180 -113 171 -155 165 C-180 161 -206 157 -223 143 C-237 131 -244 117 -240 98 C-237 84 -228 74 -215 68 C-184 53 -139 65 -109 82 C-69 105 -29 142 0 173 C86 190 164 215 236 253 C256 263 274 273 293 285 C300 289 299 298 289 300 L289 300 Z M11 307 C3 321 -6 335 -12 350 C-38 422 137 478 169 462 C175 459 178 455 174 447 C160 420 102 376 76 357 C55 340 38 327 11 307 L11 307 Z M-126 90 C-154 76 -196 64 -219 87 C-230 98 -228 116 -220 126 C-200 152 -141 153 -107 158 C-81 162 -26 169 -23 169 C-45 147 -88 109 -126 90 L-126 90 Z " />
<glyph glyph-name="t" unicode="t" horiz-adv-x="122" d="M165 478 C163 475 134 445 122 432 C29 333 -62 233 -152 132 C-194 84 -240 35 -276 -16 C-279 -19 -282 -26 -277 -29 C-272 -32 -269 -28 -266 -25 C-240 9 -212 41 -184 73 C-110 158 -34 241 42 324 C88 374 167 457 187 478 C253 477 328 476 394 472 C409 471 425 470 440 467 C444 465 447 467 448 470 C450 473 448 477 445 479 C433 484 406 486 393 487 C359 488 204 492 201 493 C203 495 220 513 228 521 C249 542 271 563 292 585 C305 598 317 611 329 624 C333 628 332 631 329 634 C327 637 323 637 319 634 C313 627 308 622 294 607 C257 570 217 530 180 493 C147 493 117 493 88 493 C32 492 -24 492 -79 491 C-102 491 -124 491 -147 491 C-153 491 -155 488 -155 485 C-155 483 -155 478 -147 478 C-130 477 -47 477 -23 478 C38 478 162 478 165 478 L165 478 Z " />
<glyph glyph-name="u" unicode="u" horiz-adv-x="232" d="M170 317 C162 314 156 310 146 308 C99 286 59 263 15 241 C-2 233 -35 216 -39 219 C-44 222 -13 259 3 278 C9 286 19 296 26 304 C30 308 33 314 30 318 C28 321 22 323 18 319 C-14 287 -36 256 -43 244 C-48 235 -54 221 -53 214 C-52 208 -44 204 -35 204 C-20 207 11 223 21 228 C68 252 92 265 143 288 C142 287 104 250 88 231 C45 185 5 140 -34 92 C-44 83 -52 73 -60 62 C-62 59 -64 54 -66 49 C-66 45 -65 42 -59 40 C-55 40 -53 43 -52 46 C-48 53 -45 58 -41 63 C-31 74 -22 86 -11 97 C12 126 37 154 61 181 C98 222 117 242 151 275 C158 281 175 299 177 304 C183 312 176 317 170 317 L170 317 Z " />
<glyph glyph-name="v" unicode="v" horiz-adv-x="433" d="M194 296 L194 296 C205 261 241 246 267 243 C322 238 378 262 433 284 C440 286 447 297 433 300 C419 296 394 285 376 279 C338 266 298 252 255 261 C232 267 213 282 205 308 C229 335 256 369 276 399 C286 414 303 448 303 462 C302 472 296 478 287 477 C276 476 264 468 258 463 C231 441 213 416 198 383 C188 360 185 333 189 313 C135 253 75 196 13 145 C-12 124 -39 104 -67 86 C-76 81 -107 63 -116 68 C-127 78 -110 119 -69 181 C-48 215 -23 246 0 278 C9 290 18 302 26 315 C31 322 35 336 24 336 C15 336 16 325 13 319 C0 300 -14 283 -28 265 C-55 229 -82 192 -104 153 C-118 131 -135 97 -133 72 C-132 60 -124 53 -111 53 C-78 52 -28 94 7 121 C73 173 171 271 194 296 L194 296 Z M202 328 C202 364 218 393 240 423 C250 437 271 459 288 462 C288 445 272 421 261 403 C244 378 212 340 202 328 L202 328 Z " />
<glyph glyph-name="w" unicode="w" horiz-adv-x="503" d="M-13 199 C-27 169 -41 139 -39 105 C-38 89 -30 78 -15 75 C35 64 111 112 152 142 C182 164 207 190 218 228 C227 228 239 228 249 229 C334 235 419 262 506 285 C513 287 519 298 503 300 C468 291 314 248 256 245 C244 243 229 243 217 243 C215 249 209 258 202 260 C195 262 187 259 184 253 C181 247 184 240 191 236 C194 234 200 232 204 231 C201 225 199 216 196 211 C189 196 178 185 167 174 C124 134 44 85 -7 88 C-19 90 -24 95 -24 106 C-25 131 -10 167 2 195 L11 214 C13 218 12 223 9 225 C4 230 -5 224 -11 219 L-75 171 C-97 155 -145 122 -146 122 C-106 178 -54 229 -4 278 C2 284 6 288 12 292 C17 295 18 301 15 304 C12 308 7 307 4 305 C-5 298 -13 290 -23 280 C-60 244 -95 207 -128 169 C-141 154 -153 139 -164 123 C-173 111 -172 104 -169 101 C-162 91 -143 106 -134 111 C-93 138 -24 190 -13 199 L-13 199 Z " />
<glyph glyph-name="x" unicode="x" horiz-adv-x="225" d="M19 295 C18 290 17 288 14 282 L-17 220 C-17 219 -19 218 -20 217 L-111 143 C-149 112 -186 80 -222 47 C-233 37 -244 27 -253 15 C-258 9 -263 -4 -255 -7 C-251 -9 -245 -7 -244 -1 C-244 1 -241 5 -235 12 C-225 23 -216 33 -205 42 C-151 92 -53 171 -33 187 C-41 174 -52 148 -58 129 C-60 122 -62 114 -62 106 C-61 98 -55 92 -46 93 C-36 94 -14 107 -4 113 C33 136 66 160 104 190 C160 232 207 268 226 283 C229 285 240 296 224 300 C224 300 166 256 122 222 C78 188 33 155 -14 125 C-26 117 -39 109 -47 108 C-46 118 -40 134 -37 143 C-28 166 -20 182 -8 204 C-7 207 -4 210 -1 212 C35 241 72 268 110 294 L140 314 C142 315 144 315 145 315 C148 315 151 316 153 319 C154 321 153 324 151 326 C143 334 126 322 116 315 C81 293 36 259 12 242 C20 258 33 281 34 295 C35 305 28 311 18 309 C10 308 -3 301 -6 293 C-8 289 -4 283 1 284 C3 284 5 287 6 288 C11 293 14 294 19 295 L19 295 Z " />
<glyph glyph-name="y" unicode="y" horiz-adv-x="371" d="M182 310 L182 310 C174 292 161 275 147 257 C99 196 47 138 -6 80 L-11 76 C-65 51 -144 19 -178 -5 C-209 -26 -256 -70 -256 -114 C-256 -125 -249 -132 -237 -131 C-218 -129 -201 -118 -186 -108 C-157 -88 -131 -65 -105 -41 C-69 -8 -36 26 -3 62 C-1 64 1 66 4 67 C63 97 121 130 178 164 C247 206 306 243 374 284 C386 291 383 299 371 300 C371 300 210 199 131 154 L32 99 L104 181 C130 211 156 242 179 275 C188 288 199 305 202 318 C204 326 197 329 191 328 C183 326 176 322 171 319 C146 303 121 288 97 272 C60 247 23 223 -16 201 C-32 193 -59 178 -65 180 C-69 183 -59 201 -57 205 C-35 243 -7 275 25 305 L33 309 C36 310 38 316 33 320 C28 324 20 319 14 314 C-19 285 -71 230 -81 185 C-83 174 -79 166 -70 165 C-46 161 9 197 53 225 C96 252 139 281 182 310 L182 310 Z M-36 48 C-50 32 -114 -31 -155 -65 C-180 -86 -212 -112 -234 -117 C-241 -119 -242 -117 -241 -110 C-232 -69 -196 -33 -160 -10 C-126 10 -82 31 -36 48 L-36 48 Z " />
<glyph glyph-name="z" unicode="z" horiz-adv-x="367" d="M-30 75 L-30 75 C-21 105 -24 117 -33 135 C-40 148 -50 160 -56 174 C-57 177 -58 180 -55 183 C-32 198 8 215 41 230 C83 249 134 268 166 296 C177 307 188 324 170 337 C135 359 56 330 21 313 L0 301 C-5 297 -4 293 -1 290 C1 287 5 286 8 288 C25 298 35 304 50 310 C82 323 127 337 159 327 C165 324 168 321 162 313 C150 299 133 289 103 274 L3 229 C-15 221 -52 205 -65 194 C-72 187 -75 177 -71 168 C-66 157 -57 148 -50 135 C-37 113 -37 89 -52 67 C-70 57 -154 26 -181 18 C-219 7 -257 -3 -294 -14 C-332 -25 -389 -47 -403 -87 C-407 -102 -401 -113 -386 -116 C-362 -120 -331 -112 -302 -103 C-261 -90 -223 -73 -185 -53 C-152 -35 -120 -16 -91 7 C-74 20 -56 36 -43 52 L3 74 L149 143 C177 157 206 171 234 187 C272 209 336 251 375 286 C380 290 382 299 367 300 C367 300 360 294 358 292 C330 268 275 225 204 188 C170 170 136 153 101 137 C59 116 10 94 -30 75 L-30 75 Z M-76 40 C-85 28 -127 -1 -153 -17 C-196 -43 -242 -66 -290 -83 C-316 -93 -356 -105 -383 -103 C-390 -102 -391 -97 -389 -91 C-375 -57 -323 -38 -284 -27 L-160 9 C-134 17 -103 30 -76 40 L-76 40 Z " />
<glyph glyph-name="braceleft" unicode="&#x7b;" horiz-adv-x="442" d="M471 529 C471 529 471 529 472 528 C471 527 470 526 470 525 C469 521 470 518 473 516 C476 514 480 515 482 518 C483 521 484 524 485 527 C487 536 482 543 472 543 C466 543 460 541 454 538 C439 530 427 520 416 509 C396 490 376 471 357 451 C325 419 291 391 253 366 C236 355 220 343 203 332 C199 329 195 325 193 321 C187 314 188 307 194 301 C197 298 201 295 204 293 C206 291 206 290 204 289 C200 284 196 280 191 275 C166 251 142 225 119 199 C82 154 47 107 21 54 C14 39 7 24 2 8 C1 2 -1 -5 1 -12 C2 -19 8 -23 15 -22 C18 -21 20 -19 20 -17 C21 -14 20 -10 18 -9 C15 -8 14 -6 15 -4 C17 2 18 9 20 15 C33 48 50 78 69 108 C90 141 115 171 141 200 C162 225 185 248 208 271 C211 274 214 277 217 281 C224 289 223 296 214 303 C212 305 209 307 207 310 C204 312 204 312 206 315 C208 317 211 319 213 320 C223 328 233 335 244 342 C266 357 289 372 311 390 C339 412 364 438 390 463 C405 478 420 493 436 507 C444 515 454 521 464 526 C466 527 468 528 471 529 L471 529 Z " />
<glyph glyph-name="bar" unicode="&#x7c;" horiz-adv-x="342" d="M419 604 C419 609 417 612 414 612 C410 613 408 612 406 608 C404 604 401 600 398 597 C384 579 369 560 353 542 C320 503 284 465 250 425 C153 311 57 198 -39 84 C-65 53 -91 21 -117 -10 C-120 -16 -124 -21 -127 -26 C-130 -29 -130 -33 -127 -36 C-124 -38 -121 -38 -117 -34 C-116 -33 -115 -31 -114 -30 C-97 -10 -81 10 -64 30 C2 109 68 188 134 267 C193 335 253 404 312 473 C336 501 362 529 386 557 C396 570 406 584 415 598 C417 600 418 603 419 604 L419 604 Z " />
<glyph glyph-name="braceright" unicode="&#x7d;" horiz-adv-x="365" d="M227 331 C197 304 174 275 153 247 C133 220 112 192 91 164 C61 126 27 93 -14 66 C-49 43 -84 20 -119 -1 C-129 -8 -140 -15 -150 -22 C-152 -23 -155 -26 -156 -28 C-157 -32 -156 -35 -154 -38 C-150 -39 -147 -39 -145 -37 C-141 -34 -138 -32 -135 -30 C-97 -6 -61 19 -23 43 C25 71 66 108 100 152 C120 177 140 204 160 231 C178 256 197 280 219 302 C226 309 236 319 242 328 C244 333 243 339 237 342 C231 348 213 352 216 358 C222 373 235 385 246 398 C265 420 285 441 304 463 C328 490 360 540 363 571 C364 576 363 582 361 587 C358 591 355 592 351 592 C346 591 343 583 347 579 C353 577 349 567 348 563 C344 551 338 539 332 529 C318 503 299 479 279 457 C261 437 243 417 225 396 C215 384 207 375 201 360 C198 347 208 342 218 336 C221 334 223 333 227 331 L227 331 Z " />
<glyph glyph-name="asciitilde" unicode="&#x7e;" horiz-adv-x="324" d="M96 293 C95 291 95 289 95 287 C95 280 94 273 94 266 C94 252 103 244 118 246 C123 247 129 249 134 251 C153 258 173 266 192 274 C198 276 205 279 211 282 C215 284 216 288 214 292 C212 295 208 297 204 295 C203 295 203 295 202 294 C194 291 187 288 179 285 C161 277 142 270 124 263 C120 262 117 262 113 261 C111 261 110 262 110 264 C109 268 109 272 109 275 C110 283 110 289 110 296 C110 304 104 309 96 308 C91 307 87 305 82 303 C72 297 62 291 53 285 C46 281 40 276 34 271 C32 269 31 266 32 263 C33 260 35 259 38 259 C40 258 42 258 44 259 C47 259 49 261 50 263 C50 265 51 267 53 268 C64 275 76 282 87 289 C89 291 92 291 96 293 L96 293 Z " />
<glyph glyph-name="quoteleft" unicode="&#x2018;" horiz-adv-x="305" d="M296 596 C296 599 295 601 292 602 C290 603 288 603 286 602 L281 598 C269 586 256 575 243 563 L225 546 C221 542 220 538 223 535 C226 532 229 532 234 535 L245 545 C261 560 277 576 294 591 C295 592 296 594 296 596 L296 596 Z " />
<glyph glyph-name="quoteright" unicode="&#x2019;" horiz-adv-x="238" d="M243 593 C243 596 242 598 239 599 C237 600 235 600 233 599 L228 595 C216 583 203 572 190 560 L172 543 C168 539 167 535 170 532 C173 529 176 529 181 532 L192 542 C208 557 224 573 241 588 C242 589 243 591 243 593 L243 593 Z " />
<glyph glyph-name="quotedblleft" unicode="&#x201c;" horiz-adv-x="298" d="M298 609 L293 606 L253 564 L246 556 C245 553 245 549 248 547 C251 545 254 544 257 547 C259 549 261 550 262 552 L297 590 L304 597 C306 599 307 602 305 604 C304 607 302 609 298 609 L298 609 Z M214 545 L218 547 L227 555 L263 596 C266 600 266 603 263 606 C260 609 256 608 253 605 L211 560 C210 559 208 557 208 556 C206 554 206 552 207 549 C209 547 211 546 214 545 L214 545 Z " />
<glyph glyph-name="quotedblright" unicode="&#x201d;" horiz-adv-x="338" d="M312 596 L307 593 L267 551 L260 543 C259 540 259 536 262 534 C265 532 268 531 271 534 C273 536 275 537 276 539 L311 577 L318 584 C320 586 321 589 319 591 C318 594 316 596 312 596 L312 596 Z M228 532 L232 534 L241 542 L277 583 C280 587 280 590 277 593 C274 596 270 595 267 592 L225 547 C224 546 222 544 222 543 C220 541 220 539 221 536 C223 534 225 533 228 532 L228 532 Z " />
</font>
</svg>
