<?xml version="1.0" encoding="UTF-8"?>
<svg xmlns="http://www.w3.org/2000/svg" xmlns:xlink="http://www.w3.org/1999/xlink" version="1.2" >
<font id="Ar and Co Italic Italic">
<font-face  font-family="Ar and Co Italic" units-per-em="1000" ascent="750" descent="-250" font-style="italic" font-weight="400" font-stretch="normal" slope="-9" cap-height="700" x-height="500" underline-position="-75" underline-thickness="50" />
<missing-glyph  horiz-adv-x="203" d="" />
<glyph glyph-name="NULL" d="" />
<glyph glyph-name="CR" unicode="&#xd;" horiz-adv-x="203" d="" />
<glyph glyph-name="space" unicode="&#x20;" horiz-adv-x="203" d="" />
<glyph glyph-name="exclam" unicode="&#x21;" horiz-adv-x="254" d="M40 70 C32 20 107 -7 107 -7 C107 -7 205 32 213 87 C221 136 145 165 145 165 C145 165 48 126 40 70 L40 70 Z M209 209 L320 521 L306 533 C228 533 128 496 128 496 L98 209 C94 178 209 209 209 209 L209 209 Z " />
<glyph glyph-name="quotedbl" unicode="&#x22;" horiz-adv-x="368" d="M91 465 C91 465 128 439 114 349 C97 242 47 206 45 191 L50 183 C66 183 217 291 236 411 C246 476 182 521 182 521 C182 521 94 482 91 465 L91 465 Z M262 465 C262 465 299 439 285 349 C268 242 218 206 216 191 L221 183 C236 183 388 291 407 411 C417 476 354 521 354 521 C354 521 265 482 262 465 L262 465 Z " />
<glyph glyph-name="numbersign" unicode="&#x23;" horiz-adv-x="539" d="M339 0 L398 0 L427 160 L535 167 L549 211 L436 204 L464 340 L579 348 L593 392 L473 384 L499 504 L435 504 L416 382 L252 369 L280 504 L215 504 L194 367 L86 361 L72 317 L187 323 L159 187 L42 180 L27 136 L150 142 L121 0 L179 0 L205 145 L372 157 L339 0 Z M213 189 L243 326 L409 338 L380 201 L213 189 Z " />
<glyph glyph-name="dollar" unicode="&#x24;" horiz-adv-x="462" d="M91 226 L74 226 C73 217 68 141 58 82 C58 82 121 40 217 40 L227 40 C219 1 210 -40 201 -81 L241 -81 C241 -81 248 -34 261 43 C367 55 463 110 478 206 C495 312 392 335 319 357 C327 401 334 434 344 480 C357 480 366 476 366 476 L461 347 L478 347 C480 356 482 415 490 463 C490 463 442 504 348 505 C357 543 365 582 373 621 L329 621 C329 621 322 575 310 504 C212 496 109 445 92 340 C76 235 179 212 257 193 C248 149 242 115 231 66 C211 66 186 71 186 71 L91 226 Z M306 478 L288 363 C262 374 245 384 249 410 C255 445 271 467 306 478 L306 478 Z M266 69 L287 189 C319 179 340 171 335 144 C329 105 310 81 266 69 L266 69 Z " />
<glyph glyph-name="percent" unicode="&#x25;" horiz-adv-x="715" d="M214 302 C339 302 417 372 431 460 C443 534 392 600 300 600 C193 600 97 530 84 443 C72 369 108 302 214 302 L214 302 Z M668 596 C668 596 470 368 75 -3 C75 -3 99 -21 134 -21 C134 -21 342 217 733 578 C733 578 701 596 668 596 L668 596 Z M267 579 C315 585 324 533 321 465 C318 389 307 331 247 323 C199 318 191 369 193 438 C196 515 206 572 267 579 L267 579 Z M503 -22 C627 -22 705 48 719 136 C731 210 679 276 587 276 C480 276 385 206 371 119 C360 45 396 -22 503 -22 L503 -22 Z M557 255 C605 261 612 208 610 140 C606 64 594 6 534 -1 C486 -6 478 46 482 115 C485 191 496 249 557 255 L557 255 Z " />
<glyph glyph-name="ampersand" unicode="&#x26;" horiz-adv-x="762" d="M771 173 L752 190 C763 121 709 90 647 86 C613 84 574 101 574 101 C638 144 660 208 650 275 C639 340 591 368 547 366 C504 363 466 330 475 275 C478 261 480 253 487 238 C543 256 583 229 588 194 C592 173 576 127 556 109 C464 148 395 244 352 341 C431 364 525 401 514 470 C507 518 447 537 373 533 C237 525 188 435 206 326 L207 318 C113 278 24 225 43 114 C58 10 156 -31 303 -22 C371 -18 430 0 467 19 C507 6 560 -4 609 -1 C686 4 777 80 771 173 L771 173 Z M361 515 C395 517 406 497 411 465 C419 410 395 377 344 357 C334 383 326 414 322 435 C316 481 326 513 361 515 L361 515 Z M374 12 C271 6 191 80 176 173 C167 231 180 280 212 296 C240 192 312 79 437 29 C423 22 400 13 374 12 L374 12 Z " />
<glyph glyph-name="quotesingle" unicode="&#x27;" horiz-adv-x="211" d="M100 465 C100 465 138 439 124 349 C107 242 57 206 55 191 L60 183 C75 183 226 291 245 411 C255 476 192 521 192 521 C192 521 103 482 100 465 L100 465 Z " />
<glyph glyph-name="parenleft" unicode="&#x28;" horiz-adv-x="457" d="M76 300 C36 47 226 -63 410 -87 C410 -87 423 -74 413 -65 C237 -42 203 127 235 331 C267 534 350 673 534 696 C534 696 546 708 537 717 C345 694 116 552 76 300 L76 300 Z " />
<glyph glyph-name="parenright" unicode="&#x29;" horiz-adv-x="487" d="M481 331 C521 584 331 694 147 718 C147 718 134 705 144 696 C320 673 354 504 322 300 C290 97 207 -42 23 -65 C23 -65 11 -77 20 -86 C212 -63 441 79 481 331 L481 331 Z " />
<glyph glyph-name="asterisk" unicode="&#x2a;" horiz-adv-x="424" d="M254 388 L150 465 L133 455 L130 375 L220 344 L77 295 C77 295 78 277 77 277 L154 244 L241 302 L203 174 L220 168 L300 215 L297 302 L401 225 L419 235 L421 314 L331 346 L473 396 L474 413 L397 445 L309 388 L347 516 L330 522 L251 475 L254 388 L254 388 Z " />
<glyph glyph-name="plus" unicode="&#x2b;" horiz-adv-x="442" d="M270 245 L301 433 L251 423 L216 240 L63 240 L39 177 L206 206 L176 0 L221 10 L266 211 L441 223 L463 283 L270 245 L270 245 Z " />
<glyph glyph-name="comma" unicode="&#x2c;" horiz-adv-x="329" d="M86 64 C86 64 131 49 115 -55 C94 -186 22 -227 19 -243 L23 -251 C38 -251 243 -142 265 -3 C275 60 189 117 189 117 C189 117 88 81 86 64 L86 64 Z " />
<glyph glyph-name="hyphen" unicode="&#x2d;" horiz-adv-x="355" d="M342 300 L121 289 L82 201 L305 221 L342 300 L342 300 Z " />
<glyph glyph-name="period" unicode="&#x2e;" horiz-adv-x="302" d="M68 3 C60 -49 134 -98 134 -98 C134 -98 240 -34 249 22 C257 72 182 123 182 123 C182 123 77 59 68 3 L68 3 Z " />
<glyph glyph-name="slash" unicode="&#x2f;" horiz-adv-x="428" d="M398 525 C381 485 74 66 18 7 C18 7 53 0 101 0 C122 48 443 478 488 519 C488 519 448 525 398 525 L398 525 Z " />
<glyph glyph-name="zero" unicode="0" horiz-adv-x="535" d="M242 -22 C393 -22 512 99 538 259 C560 403 501 521 368 521 C217 521 98 398 73 241 C50 97 109 -22 242 -22 L242 -22 Z M313 495 C357 502 366 424 363 264 C361 97 343 11 295 4 C252 -2 244 75 247 235 C248 403 264 488 313 495 L313 495 Z " />
<glyph glyph-name="one" unicode="1" horiz-adv-x="405" d="M289 0 C320 0 377 -3 393 -3 L395 12 L315 51 L392 510 L368 519 C296 503 172 490 90 485 L88 465 L200 450 L140 51 L32 12 L30 -3 C45 -3 120 0 150 0 L289 0 L289 0 Z " />
<glyph glyph-name="two" unicode="2" horiz-adv-x="461" d="M122 275 C103 354 165 434 233 434 C278 434 310 399 302 352 C285 241 69 120 26 -3 C26 -3 216 0 326 0 C389 0 426 -7 426 -7 C433 33 454 129 455 137 L439 137 L325 20 L148 20 C181 90 463 195 490 361 C506 461 435 523 325 523 C183 523 66 402 95 281 L122 275 L122 275 Z " />
<glyph glyph-name="three" unicode="3" horiz-adv-x="471" d="M44 135 C23 104 11 -19 189 -19 C330 -19 453 24 469 125 C485 223 401 277 264 268 C359 290 459 316 474 414 C483 473 435 522 336 522 C203 522 117 440 108 384 L129 368 C133 395 173 469 259 469 C304 469 336 442 327 389 C314 306 269 286 228 273 L189 261 L185 237 C193 239 221 251 248 251 C292 251 307 211 296 143 C282 54 214 19 152 19 C75 19 41 99 79 140 L44 135 L44 135 Z " />
<glyph glyph-name="four" unicode="4" horiz-adv-x="509" d="M434 161 L417 161 L480 528 L459 535 L34 153 L33 132 C40 132 82 136 107 136 L246 136 L229 0 L389 0 L412 136 L422 136 C479 136 512 132 512 132 L529 188 C511 188 502 161 434 161 L434 161 Z M93 161 L276 341 L250 161 L93 161 Z " />
<glyph glyph-name="five" unicode="5" horiz-adv-x="465" d="M466 165 C478 246 426 298 320 329 L282 340 L343 493 C343 493 343 493 343 493 C350 493 486 505 461 439 L475 434 C481 436 495 463 503 493 C503 493 508 516 508 519 L418 518 C414 518 410 518 405 518 L182 518 L107 346 L200 336 C283 327 337 280 324 201 C305 77 236 29 154 29 C76 29 43 109 80 150 L46 145 C25 114 14 -9 191 -9 C302 -9 446 38 466 165 L466 165 Z " />
<glyph glyph-name="six" unicode="6" horiz-adv-x="490" d="M254 334 C296 437 346 495 485 515 L488 536 C298 513 85 403 53 198 C30 56 116 -22 223 -22 C337 -22 478 51 499 185 C518 304 432 366 334 366 C302 366 279 354 254 334 L254 334 Z M303 339 C349 339 350 277 335 177 C318 70 297 1 240 1 C195 1 195 66 211 166 C228 274 262 339 303 339 L303 339 Z " />
<glyph glyph-name="seven" unicode="7" horiz-adv-x="512" d="M202 -8 L464 335 C553 453 581 549 581 549 L565 558 C565 558 553 504 489 504 L107 504 L82 342 L487 417 C389 275 112 -8 112 -8 L202 -8 L202 -8 Z " />
<glyph glyph-name="eight" unicode="8" horiz-adv-x="474" d="M215 -21 C324 -21 468 15 487 134 C499 209 425 251 323 255 C425 273 502 321 514 395 C528 484 432 520 338 520 C229 520 98 473 82 370 C71 299 144 264 238 257 C130 240 38 182 27 109 C10 5 122 -21 215 -21 L215 -21 Z M281 243 C312 243 328 203 316 127 C302 43 275 3 232 3 C201 3 186 39 198 116 C211 201 238 243 281 243 L281 243 Z M321 497 C352 497 362 457 351 388 C339 312 317 266 274 266 C243 266 233 300 245 376 C257 454 278 497 321 497 L321 497 Z " />
<glyph glyph-name="nine" unicode="9" horiz-adv-x="527" d="M334 171 C292 68 242 10 103 -10 L100 -30 C290 -8 503 103 535 307 C558 449 472 527 365 527 C251 527 111 455 89 321 C70 201 155 140 254 140 C286 140 309 151 334 171 L334 171 Z M285 167 C239 167 238 229 253 328 C270 435 291 504 348 504 C393 504 393 439 377 339 C360 231 326 167 285 167 L285 167 Z " />
<glyph glyph-name="colon" unicode="&#x3a;" horiz-adv-x="265" d="M54 58 C46 8 121 -19 121 -19 C121 -19 219 20 227 75 C235 124 159 153 159 153 C159 153 63 114 54 58 L54 58 Z M97 305 C89 255 164 227 164 227 C164 227 261 265 270 321 C278 371 202 399 202 399 C202 399 106 360 97 305 L97 305 Z " />
<glyph glyph-name="semicolon" unicode="&#x3b;" horiz-adv-x="287" d="M70 136 C70 136 117 121 100 17 C79 -114 6 -155 4 -170 L7 -178 C23 -178 227 -70 249 69 C259 132 175 190 175 190 C175 190 73 154 70 136 L70 136 Z M117 302 C109 252 185 224 185 224 C185 224 282 262 291 318 C299 368 222 396 222 396 C222 396 126 357 117 302 L117 302 Z " />
<glyph glyph-name="less" unicode="&#x3c;" horiz-adv-x="378" d="M391 393 L55 183 L340 29 L369 49 L120 186 L376 305 L391 393 L391 393 Z " />
<glyph glyph-name="equal" unicode="&#x3d;" horiz-adv-x="495" d="M492 300 L98 273 L84 237 L474 247 L492 300 Z M467 139 L72 112 L59 76 L447 84 L467 139 Z " />
<glyph glyph-name="greater" unicode="&#x3e;" horiz-adv-x="358" d="M49 29 L384 238 L100 393 L71 373 L320 235 L64 117 L49 29 L49 29 Z " />
<glyph glyph-name="question" unicode="&#x3f;" horiz-adv-x="445" d="M155 552 C141 543 158 534 158 534 C193 550 229 557 271 557 C358 558 389 524 389 524 C362 467 100 312 88 238 C76 163 261 161 322 155 L332 174 C295 179 266 196 270 226 C278 273 480 424 492 503 C499 543 433 587 302 587 C245 587 191 573 155 552 L155 552 Z M96 47 C89 2 165 -22 165 -22 C165 -22 261 12 269 61 C276 105 199 130 199 130 C199 130 104 96 96 47 L96 47 Z " />
<glyph glyph-name="at" unicode="&#x40;" horiz-adv-x="808" d="M451 126 C451 126 458 92 562 92 C687 92 787 182 808 310 C832 463 698 570 511 570 C280 570 109 413 81 238 C54 67 163 -76 378 -76 C499 -76 611 -29 649 43 C657 58 644 61 636 61 C612 9 531 -46 415 -46 C238 -46 131 78 159 258 C189 447 336 549 493 549 C644 549 753 441 728 280 C697 87 565 88 581 179 L609 335 C620 402 570 424 510 424 C440 424 301 397 290 336 C283 297 363 328 363 328 C368 355 372 385 431 389 C467 391 479 376 479 376 L465 277 L428 285 C315 285 267 248 255 175 C244 104 279 85 347 85 C388 85 425 110 451 126 L451 126 Z M462 257 L445 143 C429 132 413 124 399 124 C387 124 378 125 388 186 C398 251 414 260 441 260 C452 260 462 257 462 257 L462 257 Z " />
<glyph glyph-name="A" unicode="A" horiz-adv-x="663" d="M128 48 L204 173 L373 177 L393 50 L305 11 L303 -3 C322 -3 375 0 408 0 L568 0 C597 0 632 -3 658 -3 L660 11 L589 48 L518 504 L363 504 L334 453 L90 49 L6 11 L4 -3 C30 -3 66 0 94 0 L108 0 C140 0 175 -3 193 -3 L195 11 L128 48 Z M221 204 L335 397 L367 200 L221 204 Z " />
<glyph glyph-name="B" unicode="B" horiz-adv-x="592" d="M389 275 L389 277 C501 285 575 325 590 398 C601 460 564 509 444 509 C401 509 342 504 309 504 L190 504 C158 504 107 509 89 509 L87 493 L164 454 L107 51 L14 11 L12 -3 C30 -3 85 0 118 0 L230 0 C270 0 319 -3 378 -3 C521 -3 597 71 607 152 C617 239 508 275 389 275 L389 275 Z M331 263 L335 263 C420 263 417 204 407 140 C397 80 389 18 316 18 C302 18 291 24 291 24 L331 263 Z M368 482 C368 482 377 486 396 486 C448 486 449 453 441 399 C432 345 405 286 339 286 L335 286 L368 482 Z " />
<glyph glyph-name="C" unicode="C" horiz-adv-x="554" d="M534 118 C511 66 454 30 356 30 C280 30 248 81 274 243 C301 413 329 497 396 497 C417 497 510 291 510 291 L515 287 C530 287 582 393 587 426 C593 464 515 521 424 521 C228 521 98 402 73 244 C50 101 120 -22 298 -22 C419 -22 508 28 546 100 C546 100 535 118 534 118 L534 118 Z " />
<glyph glyph-name="D" unicode="D" horiz-adv-x="661" d="M192 504 C159 504 106 509 88 509 L86 493 L164 454 L106 51 L14 11 L12 -3 C30 -3 85 0 117 0 L206 0 C239 0 277 -3 325 -3 C558 -3 640 114 665 272 C685 399 661 509 410 509 C364 509 322 504 290 504 L192 504 Z M358 477 C358 477 374 486 399 486 C496 486 495 411 470 258 C445 96 423 18 327 18 C299 18 282 28 282 28 L358 477 Z " />
<glyph glyph-name="E" unicode="E" horiz-adv-x="518" d="M432 278 C438 317 444 331 445 340 C447 352 362 288 362 288 L327 288 L358 480 L441 480 L514 343 L529 343 C530 352 539 450 544 484 L548 509 C548 509 534 504 303 504 L192 504 C160 504 107 509 89 509 L87 493 L162 454 L109 51 L14 11 L12 -3 C30 -3 85 0 118 0 L224 0 C463 0 482 -3 482 -3 L486 22 C491 55 515 161 516 170 L502 170 L382 25 L285 25 L323 260 L358 260 C358 260 422 185 424 197 C425 206 424 231 432 278 L432 278 Z " />
<glyph glyph-name="F" unicode="F" horiz-adv-x="493" d="M444 248 C449 304 454 321 456 330 C458 342 369 264 369 264 L322 264 L359 480 L440 480 L514 343 L528 343 C529 352 538 453 543 484 L547 509 C547 509 535 504 302 504 L192 504 C159 504 106 509 88 509 L86 493 L164 454 L106 51 L14 11 L12 -3 C29 -3 84 0 117 0 L251 0 C283 0 361 -3 379 -3 C390 -3 286 52 286 52 L318 239 L365 239 C365 239 440 160 442 171 C443 180 439 199 444 248 L444 248 Z " />
<glyph glyph-name="G" unicode="G" horiz-adv-x="582" d="M275 243 C302 413 322 497 406 497 C426 497 521 312 521 312 L528 305 C541 305 591 393 596 426 C602 464 525 521 433 521 C229 521 101 411 74 244 C51 101 119 -22 297 -22 C419 -22 443 39 483 39 C507 39 504 20 508 -5 L520 0 L560 145 L597 167 L606 194 C606 194 354 193 336 193 L334 179 L386 142 L405 34 C405 34 368 7 327 6 C248 4 252 99 275 243 L275 243 Z " />
<glyph glyph-name="H" unicode="H" horiz-adv-x="703" d="M249 0 C281 0 306 -3 324 -3 L326 11 L287 42 L321 258 L466 258 L432 42 L377 11 L375 -3 C393 -3 427 0 459 0 L589 0 C621 0 667 -3 685 -3 L687 11 L615 51 L688 453 L773 493 L775 509 C757 509 710 504 678 504 L538 504 C506 504 474 509 456 509 L454 493 L499 463 L472 292 L327 292 L354 462 L404 493 L406 509 C388 509 352 504 320 504 L189 504 C156 504 105 509 86 509 L84 493 L162 454 L109 51 L16 11 L14 -3 C34 -3 87 0 119 0 L249 0 L249 0 Z " />
<glyph glyph-name="I" unicode="I" horiz-adv-x="376" d="M265 0 C297 0 342 -3 361 -3 L363 11 L290 51 L359 453 L445 493 L447 509 C428 509 381 504 348 504 L185 504 C153 504 102 509 84 509 L82 493 L158 454 L103 51 L9 11 L7 -3 C25 -3 80 0 113 0 L265 0 L265 0 Z " />
<glyph glyph-name="J" unicode="J" horiz-adv-x="453" d="M242 453 L200 197 C187 88 182 19 159 6 L58 185 L40 185 C39 177 30 69 22 15 C22 15 86 -15 157 -15 C282 -15 368 32 385 141 L434 453 L519 493 L521 509 C503 509 456 504 424 504 L269 504 C236 504 183 509 165 509 L163 493 L242 453 L242 453 Z " />
<glyph glyph-name="K" unicode="K" horiz-adv-x="712" d="M446 283 L623 453 L728 493 L730 509 C711 509 673 504 642 504 L624 504 C592 504 542 509 524 509 L522 493 L583 457 L401 286 L327 286 L355 456 L424 493 L426 509 C408 509 377 504 345 504 L191 504 C158 504 107 509 89 509 L87 493 L164 454 L107 51 L14 11 L12 -3 C30 -3 94 0 127 0 L261 0 C293 0 313 -3 331 -3 L333 11 L285 44 L322 258 L365 258 L436 40 L385 11 L383 -3 C401 -3 440 0 471 0 L615 0 C644 0 689 -3 707 -3 L709 11 L624 53 L546 259 L446 283 L446 283 Z " />
<glyph glyph-name="L" unicode="L" horiz-adv-x="501" d="M490 21 C495 53 523 185 524 195 L509 195 L362 25 L286 25 L358 451 L461 493 L463 509 C445 509 382 504 349 504 L187 504 C155 504 102 509 84 509 L82 493 L159 454 L102 51 L9 11 L7 -3 C25 -3 80 0 113 0 L229 0 C462 0 486 -3 486 -3 L490 21 L490 21 Z " />
<glyph glyph-name="M" unicode="M" horiz-adv-x="782" d="M342 -3 L574 416 L519 48 L440 11 L438 -3 C457 -3 501 0 534 0 L681 0 C714 0 752 -3 770 -3 L772 11 L705 50 L759 454 L843 493 L845 509 C827 509 780 504 748 504 L622 504 C589 504 536 509 518 509 L516 493 L572 461 L402 169 L366 460 L431 493 L433 509 C415 509 371 504 339 504 L199 504 C167 504 114 509 96 509 L94 493 L163 460 L96 50 L6 11 L4 -3 C22 -3 66 0 97 0 L115 0 C147 0 173 -3 192 -3 L194 11 L135 46 L185 411 L260 -3 L342 -3 L342 -3 Z " />
<glyph glyph-name="N" unicode="N" horiz-adv-x="626" d="M568 457 L509 87 L379 462 L364 504 L201 504 C169 504 116 509 98 509 L96 493 L174 453 L102 51 L11 11 L9 -3 C26 -3 70 0 103 0 L123 0 C155 0 191 -3 210 -3 L212 11 L141 51 L196 420 L361 -3 C361 -3 494 0 524 0 C554 0 588 -3 606 -3 L608 11 L530 51 L607 454 L699 493 L701 509 C683 509 639 504 606 504 L584 504 C553 504 525 508 508 509 L506 493 L568 457 L568 457 Z " />
<glyph glyph-name="O" unicode="O" horiz-adv-x="642" d="M295 -22 C492 -22 620 99 645 258 C668 402 599 521 421 521 C226 521 97 398 72 240 C49 96 117 -22 295 -22 L295 -22 Z M370 495 C432 503 448 426 444 267 C440 99 430 14 346 3 C285 -5 268 71 272 232 C277 401 284 484 370 495 L370 495 Z " />
<glyph glyph-name="P" unicode="P" horiz-adv-x="575" d="M256 0 C288 0 370 -3 388 -3 L390 11 L287 59 L318 238 L343 238 C512 238 603 290 619 387 C633 475 567 509 424 509 C381 509 338 504 300 504 L192 504 C159 504 106 509 88 509 L86 493 L164 454 L106 51 L14 11 L12 -3 C30 -3 85 0 117 0 L256 0 Z M359 480 C359 480 373 485 395 485 C447 485 447 453 436 384 C425 314 403 262 329 262 L322 262 L359 480 Z " />
<glyph glyph-name="Q" unicode="Q" horiz-adv-x="642" d="M713 -37 C713 -37 501 -61 397 -11 L397 -11 C535 24 625 128 645 258 C668 402 600 521 421 521 C226 521 97 398 72 240 C55 137 88 47 172 4 L172 4 C172 4 172 4 172 4 C190 -6 210 -13 233 -17 C233 -17 233 -17 233 -17 C233 -17 331 -45 412 -80 C440 -92 560 -138 670 -120 C670 -120 734 -60 713 -37 L713 -37 Z M381 496 C443 502 456 424 444 263 C433 95 420 10 336 2 C274 -3 261 74 273 236 C285 405 296 489 381 496 L381 496 Z " />
<glyph glyph-name="R" unicode="R" horiz-adv-x="653" d="M533 215 C516 251 385 251 385 251 C503 251 585 307 597 392 C606 464 558 509 424 509 C381 509 339 504 300 504 L192 504 C160 504 107 509 89 509 L87 493 L164 454 L107 51 L14 11 L12 -3 C30 -3 85 0 118 0 L256 0 C288 0 321 -3 339 -3 L341 11 L286 45 L319 246 L344 246 C374 110 411 -3 411 -3 C411 -3 498 0 559 0 C591 0 630 -3 648 -3 L650 11 L589 47 C589 47 545 115 533 215 L533 215 Z M359 480 C359 480 373 485 395 485 C447 485 449 457 438 387 C427 318 404 269 330 269 L323 269 L359 480 Z " />
<glyph glyph-name="S" unicode="S" horiz-adv-x="475" d="M81 173 L64 173 C63 165 57 79 48 20 C48 20 119 -22 214 -22 C377 -22 470 53 487 162 C515 338 201 322 217 419 C225 471 299 496 367 496 L470 353 L487 353 C489 362 492 430 499 478 C499 478 450 521 352 521 C225 521 108 454 90 337 C62 160 348 175 333 82 C324 24 287 3 191 3 L81 173 L81 173 Z " />
<glyph glyph-name="T" unicode="T" horiz-adv-x="574" d="M390 54 L453 480 L506 480 L593 316 L608 316 C609 325 621 450 626 484 L630 509 C630 509 591 504 404 504 L328 504 C143 504 105 509 105 509 L101 484 C96 453 68 325 67 316 L82 316 L220 480 L274 480 L200 54 L98 11 L96 -3 C114 -3 184 0 216 0 L360 0 C392 0 460 -3 478 -3 L480 11 L390 54 L390 54 Z " />
<glyph glyph-name="U" unicode="U" horiz-adv-x="663" d="M695 457 L702 504 L552 504 C520 504 476 509 458 509 L457 501 L506 461 L457 144 C444 55 416 4 348 4 C281 4 283 46 296 126 L353 460 L360 504 L190 504 C158 504 104 509 86 509 L84 493 L164 457 L122 162 C102 17 178 -20 345 -20 C512 -20 614 26 643 180 L695 457 L695 457 Z " />
<glyph glyph-name="V" unicode="V" horiz-adv-x="680" d="M458 149 L423 85 L371 457 L364 505 L182 504 C150 504 105 509 87 509 L85 493 L160 453 L244 48 L156 11 L154 -3 C172 -3 235 0 268 0 L413 0 C443 0 487 -3 505 -3 L507 11 L435 53 L666 455 L754 493 L756 509 C737 509 699 504 667 504 L637 504 C605 504 564 509 546 509 L544 493 L610 457 C594 409 552 319 458 149 L458 149 Z " />
<glyph glyph-name="W" unicode="W" horiz-adv-x="909" d="M535 509 L383 105 L362 454 L360 504 L190 504 C157 504 104 509 86 509 L84 493 L156 456 L212 51 L122 11 L120 -3 C138 -3 210 0 242 0 L365 0 C398 0 418 -3 437 -3 L439 11 L388 48 L501 334 L565 43 L511 11 L509 -3 C528 -3 557 0 589 0 L733 0 C763 0 800 -3 818 -3 L820 11 L742 55 L895 454 L981 493 L983 509 C964 509 927 504 894 504 L865 504 C833 504 784 509 767 509 L765 493 L839 454 C830 410 815 337 755 167 L733 107 L665 509 L535 509 L535 509 Z " />
<glyph glyph-name="X" unicode="X" horiz-adv-x="678" d="M312 201 L390 43 L318 11 L316 -3 C334 -3 388 0 420 0 L587 0 C617 0 652 -3 669 -3 L671 11 L592 51 L473 305 L641 456 L723 493 L725 509 C706 509 681 504 649 504 L630 504 C598 504 549 509 532 509 L530 493 L590 464 L461 331 L405 462 L386 504 L206 504 C174 504 128 509 110 509 L108 493 L182 454 L301 224 L107 51 L11 11 L9 -3 C26 -3 57 0 88 0 L117 0 C149 0 191 -3 209 -3 L211 11 L151 44 L312 201 L312 201 Z " />
<glyph glyph-name="Y" unicode="Y" horiz-adv-x="641" d="M422 54 L454 235 L621 454 L712 493 L714 509 C696 509 657 504 625 504 L600 504 C569 504 529 509 510 509 L508 494 L570 459 C555 425 510 349 446 264 L354 462 L335 504 L173 504 C141 504 105 509 87 509 L85 493 L160 454 L266 210 L242 54 L135 11 L133 -3 C151 -3 221 0 253 0 L396 0 C429 0 497 -3 515 -3 L517 11 L422 54 L422 54 Z " />
<glyph glyph-name="Z" unicode="Z" horiz-adv-x="509" d="M488 22 C493 55 522 188 524 197 L506 197 L350 25 L204 25 L565 493 L560 508 C540 507 454 504 420 504 C192 504 113 509 113 509 L109 484 C104 453 77 325 76 316 L93 316 L247 480 L330 480 L15 17 L21 -3 C39 -3 117 0 144 0 C382 0 484 -3 484 -3 L488 22 L488 22 Z " />
<glyph glyph-name="bracketleft" unicode="&#x5b;" horiz-adv-x="463" d="M29 -154 L396 -158 L400 -137 L177 -129 L292 598 L518 607 L521 627 L152 624 C152 624 141 449 110 253 C78 56 29 -154 29 -154 L29 -154 Z " />
<glyph glyph-name="backslash" unicode="&#x5c;" horiz-adv-x="482" d="M388 0 C442 0 466 16 466 16 C251 359 174 520 174 520 C123 520 89 504 89 504 C303 170 388 0 388 0 L388 0 Z " />
<glyph glyph-name="bracketright" unicode="&#x5d;" horiz-adv-x="464" d="M509 633 L141 637 L138 616 L361 607 L245 -120 L20 -128 C20 -128 17 -149 17 -148 L386 -145 C386 -145 398 30 429 226 C460 423 509 633 509 633 L509 633 Z " />
<glyph glyph-name="asciicircum" unicode="&#x5e;" horiz-adv-x="430" d="M289 521 L59 236 L94 228 L279 457 L394 228 L431 236 L289 521 L289 521 Z " />
<glyph glyph-name="underscore" unicode="&#x5f;" horiz-adv-x="652" d="M42 50 L35 0 L607 0 L614 50 L42 50 L42 50 Z " />
<glyph glyph-name="grave" unicode="&#x60;" horiz-adv-x="261" d="M171 521 L113 470 C99 381 310 323 281 364 L171 521 L171 521 Z " />
<glyph glyph-name="a" unicode="a" horiz-adv-x="514" d="M304 58 C325 -3 430 -3 503 -3 L505 13 C470 22 462 67 484 191 L517 386 L499 403 C440 372 348 336 348 336 C345 368 321 393 279 393 C173 392 29 299 42 138 C50 43 126 -13 204 -13 C257 -13 285 15 304 58 L304 58 Z M327 323 C335 228 286 21 242 21 C227 21 215 30 212 66 C203 163 254 367 296 367 C312 367 324 360 327 323 L327 323 Z " />
<glyph glyph-name="b" unicode="b" horiz-adv-x="544" d="M107 166 C84 1 209 -5 281 -5 C429 -5 566 102 553 249 C544 340 471 404 381 404 C341 404 322 390 312 377 L350 603 L331 619 C270 580 126 528 79 515 L82 502 C105 502 138 507 158 513 L107 166 Z M385 329 C393 234 340 18 296 18 C282 18 270 27 266 63 C259 160 311 373 353 373 C369 373 381 366 385 329 L385 329 Z " />
<glyph glyph-name="c" unicode="c" horiz-adv-x="414" d="M439 328 C439 328 420 393 306 393 C181 393 63 310 43 185 C21 49 105 -13 218 -13 C313 -13 377 40 413 97 L403 116 C383 81 336 44 283 44 C216 44 201 79 221 190 C247 331 253 369 297 369 L354 214 L366 204 C365 204 397 244 416 280 L439 328 L439 328 Z " />
<glyph glyph-name="d" unicode="d" horiz-adv-x="508" d="M300 49 C323 -12 428 -12 500 -12 L502 3 C468 13 459 58 480 182 L549 587 L530 604 C470 564 326 514 279 500 L281 486 C312 486 357 494 357 494 L336 361 C324 373 299 383 275 383 C169 383 25 289 40 129 C48 34 124 -22 201 -22 C255 -22 281 6 300 49 L300 49 Z M323 313 C331 219 282 11 238 11 C224 11 212 20 209 57 C201 153 250 358 292 358 C308 358 320 350 323 313 L323 313 Z " />
<glyph glyph-name="e" unicode="e" horiz-adv-x="450" d="M231 -13 C334 -13 412 49 442 104 L429 116 C409 81 349 40 287 40 C219 40 203 88 215 160 L218 183 L325 186 L465 210 C481 313 422 393 309 393 C184 393 62 310 42 185 C20 49 108 -13 231 -13 L231 -13 Z M295 214 L222 208 C242 331 256 369 292 369 C319 369 313 323 295 214 L295 214 Z " />
<glyph glyph-name="f" unicode="f" horiz-adv-x="470" d="M452 453 L468 442 C477 447 500 469 518 498 L551 550 C551 550 499 599 417 599 C318 599 176 538 157 403 L152 365 L75 365 L64 338 L148 338 L65 -223 L225 -214 L322 338 L449 338 L460 365 L325 365 L328 384 C336 426 319 470 323 504 C331 546 350 572 416 572 L452 453 L452 453 Z " />
<glyph glyph-name="g" unicode="g" horiz-adv-x="501" d="M8 -138 C12 -192 120 -221 206 -221 C340 -221 432 -141 452 -25 L523 388 L505 404 C447 373 354 338 354 338 C351 370 327 394 285 394 C179 394 35 300 49 139 C57 45 133 -12 211 -12 C264 -12 291 17 309 59 C283 -140 254 -200 208 -200 C168 -200 163 -140 163 -140 L205 -55 L199 -45 C106 -55 3 -87 8 -138 L8 -138 Z M333 324 C341 229 291 22 248 22 C233 22 220 31 218 67 C209 164 260 368 301 368 C317 368 330 361 333 324 L333 324 Z " />
<glyph glyph-name="h" unicode="h" horiz-adv-x="572" d="M313 306 L364 595 C366 612 364 630 345 616 C284 575 141 526 93 511 L94 498 C125 498 172 510 172 510 L97 -1 L262 -1 L293 179 C315 306 360 341 386 341 C396 341 404 335 404 335 L351 0 L519 0 L573 315 C586 386 522 400 483 400 C417 400 344 364 313 306 L313 306 Z " />
<glyph glyph-name="i" unicode="i" horiz-adv-x="326" d="M256 1 L321 397 L302 405 C233 369 131 331 69 309 L70 296 C101 296 134 306 134 306 L90 1 L256 1 Z M265 566 C265 566 165 547 157 491 C154 462 232 443 232 443 C232 443 332 465 340 519 C343 549 265 566 265 566 L265 566 Z " />
<glyph glyph-name="j" unicode="j" horiz-adv-x="311" d="M255 -67 L333 389 L312 396 C247 364 147 322 86 302 L88 289 C119 289 152 299 152 299 L98 -83 C83 -184 13 -197 -19 -203 L-14 -215 C49 -215 236 -182 255 -67 L255 -67 Z M285 556 C285 556 184 532 177 487 C171 452 241 434 241 434 C241 434 343 459 350 502 C356 539 285 556 285 556 L285 556 Z " />
<glyph glyph-name="k" unicode="k" horiz-adv-x="608" d="M594 17 C476 40 456 256 456 256 L470 264 C530 298 550 334 548 367 C545 406 476 439 319 386 L356 600 L335 617 C276 578 132 528 86 513 L86 499 C121 499 163 511 163 511 L89 1 L255 1 L290 212 L312 212 L315 176 C321 99 353 1 512 1 L592 1 C603 1 604 15 594 17 L594 17 Z M383 253 L362 237 L294 237 L308 317 C416 349 446 310 383 253 L383 253 Z " />
<glyph glyph-name="l" unicode="l" horiz-adv-x="315" d="M255 0 L356 600 L335 616 C277 577 132 528 86 512 L86 499 C121 499 163 511 163 511 L89 0 L255 0 L255 0 Z " />
<glyph glyph-name="m" unicode="m" horiz-adv-x="808" d="M716 400 C659 400 579 372 546 306 C556 374 518 400 470 400 C413 400 337 372 300 306 L313 396 L293 403 C227 370 125 328 65 308 L66 293 C97 293 128 305 128 305 L85 0 L250 0 L280 171 C303 305 347 341 372 341 C383 341 388 335 388 335 L336 0 L494 0 L523 169 C548 305 590 341 618 341 C629 341 634 335 634 335 L582 0 L749 0 L803 315 C817 386 754 400 716 400 L716 400 Z " />
<glyph glyph-name="n" unicode="n" horiz-adv-x="569" d="M393 335 L341 0 L508 0 L563 316 C576 387 511 400 473 400 C407 400 333 365 303 306 L316 396 L296 404 C229 369 124 328 68 309 L70 294 C98 294 132 306 132 306 L88 0 L252 0 L283 179 C305 306 350 341 375 341 C386 341 393 335 393 335 L393 335 Z " />
<glyph glyph-name="o" unicode="o" horiz-adv-x="478" d="M208 -13 C340 -13 469 73 489 198 C508 318 436 393 319 393 C187 393 57 305 37 181 C18 62 92 -13 208 -13 L208 -13 Z M265 367 C293 371 315 351 312 194 C309 37 292 17 262 13 C235 9 212 36 215 186 C217 344 234 363 265 367 L265 367 Z " />
<glyph glyph-name="p" unicode="p" horiz-adv-x="545" d="M199 -211 C229 -211 276 -215 294 -215 L297 -201 L223 -161 L249 -4 C263 -5 271 -5 282 -5 C437 -5 533 74 554 205 C577 352 502 393 429 393 C402 393 350 373 308 356 L314 387 L290 395 C212 357 118 317 71 303 L72 287 C103 287 134 299 134 299 L66 -163 L-7 -201 L-10 -215 C7 -215 45 -211 75 -211 L199 -211 Z M303 326 C312 330 333 347 354 347 C387 347 395 312 376 194 C355 62 333 17 289 17 C273 17 260 20 253 23 L303 326 Z " />
<glyph glyph-name="q" unicode="q" horiz-adv-x="498" d="M293 36 L264 -149 L163 -193 L161 -208 C178 -208 242 -204 273 -204 L395 -204 C426 -204 456 -208 474 -208 L476 -193 L421 -156 L512 370 C464 358 410 393 316 393 C161 393 64 313 43 183 C20 35 97 -5 170 -5 C196 -5 251 15 293 36 L293 36 Z M296 63 C290 59 263 40 243 40 C210 40 203 76 221 194 C242 325 264 370 308 370 C322 370 335 367 340 365 L296 63 Z " />
<glyph glyph-name="r" unicode="r" horiz-adv-x="457" d="M352 338 L396 203 L408 193 C414 194 437 231 489 327 C495 365 470 401 426 401 C396 401 354 375 313 354 L320 398 C320 398 299 404 299 405 C220 366 129 329 71 310 L72 295 C100 295 134 307 134 307 L90 1 L255 1 L312 330 C312 330 331 346 352 338 L352 338 Z " />
<glyph glyph-name="s" unicode="s" horiz-adv-x="373" d="M71 123 L55 123 C53 113 51 53 46 23 C46 23 75 -3 152 -3 C247 -3 362 21 380 134 C403 278 210 242 225 337 C229 366 257 371 286 371 L362 274 L379 274 C380 283 381 327 387 367 C387 367 352 393 281 393 C196 393 89 356 73 256 C50 109 240 151 226 60 C222 33 197 20 156 20 L71 123 L71 123 Z " />
<glyph glyph-name="t" unicode="t" horiz-adv-x="434" d="M275 117 L321 349 L464 349 L475 376 L325 376 C338 438 352 495 354 508 L332 503 C273 440 173 390 69 372 L66 349 L156 349 L113 108 C98 24 166 -4 220 -4 C293 -4 417 64 419 80 C420 85 417 95 414 92 C389 74 355 61 328 61 C302 61 270 83 275 117 L275 117 Z " />
<glyph glyph-name="u" unicode="u" horiz-adv-x="571" d="M363 44 C396 -2 489 -2 555 -2 L558 13 C523 23 515 68 536 191 L570 394 L550 402 C480 362 393 327 341 306 L346 291 C361 291 381 296 381 296 L348 58 C334 52 306 47 288 47 C269 47 258 51 258 51 L313 394 L293 401 C215 362 124 325 69 306 L71 291 C100 291 134 304 134 304 L94 70 C81 -2 137 -14 192 -14 C241 -14 303 13 343 34 L363 44 L363 44 Z " />
<glyph glyph-name="v" unicode="v" horiz-adv-x="531" d="M178 -12 C302 -12 567 158 552 322 C549 357 516 393 457 393 C398 392 346 358 331 352 L335 337 C360 337 376 287 376 287 C376 287 348 47 278 47 C263 47 252 51 252 51 L307 394 L287 402 C209 362 118 325 63 306 L64 291 C94 291 129 304 129 304 L88 70 C75 -1 131 -12 178 -12 L178 -12 Z " />
<glyph glyph-name="w" unicode="w" horiz-adv-x="780" d="M413 -18 C537 -18 801 151 787 315 C784 351 751 386 691 386 C633 386 581 351 566 345 L571 330 C595 331 611 281 611 281 C611 281 583 40 513 40 C498 40 487 45 487 45 L542 388 L522 395 L363 298 C329 94 291 40 261 40 C251 40 244 45 244 45 L299 388 L279 395 C201 356 110 318 55 299 L56 285 C86 285 120 298 120 298 L80 64 C67 -8 123 -18 170 -18 C228 -18 266 -6 321 55 C314 -9 368 -18 413 -18 L413 -18 Z " />
<glyph glyph-name="x" unicode="x" horiz-adv-x="505" d="M219 143 L269 45 L219 17 L217 1 C234 1 291 4 322 4 L390 4 C421 4 478 1 494 1 L496 17 L434 51 L364 218 L477 327 L542 359 L545 374 C527 374 502 371 472 371 L410 371 L408 355 L440 335 L353 245 L299 371 L161 371 C130 371 89 374 75 374 L72 359 L127 327 L207 164 L94 51 L16 17 L14 1 C30 1 41 4 82 4 C113 4 133 1 148 1 L150 17 L119 44 L219 143 L219 143 Z " />
<glyph glyph-name="y" unicode="y" horiz-adv-x="533" d="M489 -34 L562 386 C565 403 563 406 543 394 C472 354 385 319 334 298 C321 293 326 284 337 284 C352 284 373 288 373 288 L339 50 C326 44 298 39 281 39 C261 39 249 43 249 43 L306 386 L285 394 C207 354 116 317 61 298 L62 283 C91 283 126 296 126 296 L86 62 C73 -9 129 -21 185 -21 C233 -21 295 5 338 27 C312 -161 290 -208 244 -209 C205 -209 199 -149 199 -149 L242 -63 L236 -54 C143 -63 40 -96 44 -147 C49 -200 157 -230 243 -230 C377 -230 469 -149 489 -34 L489 -34 Z " />
<glyph glyph-name="z" unicode="z" horiz-adv-x="398" d="M250 353 L30 22 L30 1 C37 1 73 4 120 4 L276 4 C333 4 379 1 379 1 L383 27 C389 69 408 141 409 148 L393 148 L304 29 C304 29 266 23 200 23 L434 354 L433 374 C426 374 388 371 332 371 L188 371 C141 371 96 374 96 374 L92 348 C87 317 68 243 67 234 L84 234 L171 350 C171 350 197 353 250 353 L250 353 Z " />
<glyph glyph-name="braceleft" unicode="&#x7b;" horiz-adv-x="426" d="M56 236 C56 237 53 216 53 216 C53 216 204 234 152 34 L140 -11 C93 -195 369 -167 369 -167 L372 -147 C372 -147 223 -187 270 11 L281 56 C323 233 154 215 117 226 C157 236 321 219 335 396 L338 441 C354 636 490 599 490 599 L494 619 C494 619 231 647 216 463 L213 418 C197 218 56 236 56 236 L56 236 Z " />
<glyph glyph-name="bar" unicode="&#x7c;" horiz-adv-x="187" d="M20 -153 L95 -153 C95 -153 167 296 246 657 L165 657 C165 657 101 218 20 -153 L20 -153 Z " />
<glyph glyph-name="braceright" unicode="&#x7d;" horiz-adv-x="433" d="M441 216 L444 236 C444 236 294 218 345 418 L357 463 C404 647 128 619 128 619 L124 599 C124 599 274 639 226 441 L215 396 C173 219 343 237 379 226 C340 216 175 233 161 56 L158 11 C142 -184 6 -147 6 -147 L3 -167 C3 -167 266 -195 281 -11 L284 34 C300 234 441 216 441 216 L441 216 Z " />
<glyph glyph-name="asciitilde" unicode="&#x7e;" horiz-adv-x="467" d="M439 338 L436 327 C436 327 431 308 419 289 C402 264 381 252 354 252 C324 252 314 274 302 299 C294 316 285 333 271 346 C255 362 233 370 205 370 C166 370 131 352 105 318 C85 292 76 268 76 267 L74 262 L114 236 L116 248 C117 248 121 267 134 286 C150 311 172 323 198 323 C228 323 238 301 251 275 C259 259 267 242 281 228 C298 213 319 205 347 205 C386 205 421 223 448 257 C468 282 476 307 476 308 L478 313 L439 338 L439 338 Z " />
<glyph glyph-name="exclamdown" unicode="&#xa1;" horiz-adv-x="254" d="M131 288 L21 -24 C17 -34 23 -36 34 -36 C112 -36 212 1 212 1 L243 288 C246 319 131 288 131 288 L131 288 Z M301 426 C309 477 232 504 232 504 C232 504 135 465 126 410 C119 361 195 332 195 332 C195 332 292 371 301 426 L301 426 Z " />
<glyph glyph-name="cent" unicode="&#xa2;" horiz-adv-x="427" d="M184 -168 L223 -168 C223 -168 232 -108 249 -14 C329 -4 390 43 422 86 C425 92 426 106 412 106 C393 71 337 34 284 34 C274 34 266 34 258 35 C275 127 295 237 321 365 L339 363 L357 213 L378 207 C386 216 399 234 417 268 L451 326 C451 326 425 384 326 390 C336 437 345 486 356 534 L311 534 C311 534 303 478 289 390 C171 383 54 302 35 183 C14 49 104 -13 216 -15 L184 -168 Z M227 39 C184 53 180 91 196 189 C216 308 233 351 285 365 C271 278 251 165 227 39 L227 39 Z " />
<glyph glyph-name="sterling" unicode="&#xa3;" horiz-adv-x="501" d="M509 182 L492 183 C461 57 414 46 119 26 C217 66 255 145 276 224 L429 226 L442 252 L283 249 C325 439 404 488 404 488 L493 324 L510 323 C511 332 524 418 534 466 C534 466 476 501 397 506 C283 513 155 466 134 367 C124 328 129 287 137 249 L77 248 L64 222 L142 223 C149 184 154 145 145 107 C131 44 84 23 32 20 L28 3 C83 0 161 12 200 10 C288 4 299 -22 364 -22 C469 -22 506 125 509 182 L509 182 Z " />
<glyph glyph-name="yen" unicode="&#xa5;" horiz-adv-x="658" d="M451 269 L363 457 L427 495 L429 510 C411 510 365 506 333 506 L189 506 C158 506 120 510 102 510 L100 495 L177 455 L272 243 L182 236 L170 203 L285 211 L275 150 L167 143 L155 110 L271 118 L262 54 L154 12 L152 -2 C170 -2 240 1 273 1 L407 1 C439 1 508 -2 526 -2 L528 12 L433 54 L446 129 L559 137 L571 170 L452 162 L463 222 L574 230 L586 263 L470 256 L628 455 L718 495 L720 510 C702 510 664 506 632 506 L608 506 C576 506 526 510 507 510 L505 495 L574 457 C559 423 513 353 451 269 L451 269 Z " />
<glyph glyph-name="section" unicode="&#xa7;" horiz-adv-x="533" d="M420 153 C457 175 519 218 529 278 C554 441 304 380 321 487 C326 520 364 530 402 530 L468 426 C473 416 483 414 485 426 C487 436 487 475 493 522 C493 522 459 550 361 550 C229 550 143 520 130 436 C123 395 143 365 177 342 C138 320 76 276 67 218 C41 55 293 116 276 9 C271 -25 232 -34 194 -34 L129 70 C123 80 113 81 112 70 C110 60 110 20 103 -26 C103 -26 138 -54 236 -54 C368 -54 454 -25 467 60 C473 100 452 130 420 153 L420 153 Z M189 333 C278 280 447 260 438 204 C435 187 419 173 404 163 C317 215 150 236 159 292 C162 310 176 323 189 333 L189 333 Z " />
<glyph glyph-name="dieresis" unicode="&#xa8;" horiz-adv-x="411" d="M129 429 C124 394 148 377 174 377 C206 377 243 408 250 452 C255 485 233 504 206 504 C174 504 136 472 129 429 L129 429 Z M314 429 C309 394 332 377 358 377 C391 377 428 408 435 452 C440 485 418 504 391 504 C359 504 321 472 314 429 L314 429 Z " />
<glyph glyph-name="copyright" unicode="&#xa9;" horiz-adv-x="758" d="M465 546 C293 546 126 423 98 244 C70 65 197 -58 369 -58 C540 -58 708 65 736 244 C764 423 636 546 465 546 L465 546 Z M373 -37 C220 -37 109 83 134 244 C160 405 308 524 461 524 C615 524 726 405 700 244 C675 83 527 -37 373 -37 L373 -37 Z M597 366 C597 366 572 425 469 425 C355 425 250 350 232 238 C213 114 288 58 390 58 C476 58 540 106 572 150 C575 155 576 167 563 167 C545 136 495 103 448 103 C387 103 365 133 384 242 C407 369 422 405 461 405 L512 264 L529 257 C536 261 550 285 567 315 L597 366 Z " />
<glyph glyph-name="ordfeminine" unicode="&#xaa;" horiz-adv-x="385" d="M353 272 L382 441 C393 501 340 521 296 521 C241 521 124 479 119 445 C116 427 150 427 150 427 C155 455 172 480 233 480 C272 480 281 466 281 466 L269 381 L242 389 C168 389 87 371 75 294 C67 244 104 222 150 222 C205 222 230 244 250 261 L257 228 L328 228 C358 228 386 225 401 225 C412 225 413 234 404 240 L353 272 Z M266 361 L253 284 C235 267 213 255 197 255 C174 255 171 273 176 307 C183 351 201 367 231 367 C250 367 266 361 266 361 L266 361 Z " />
<glyph glyph-name="guillemotleft" unicode="&#xab;" horiz-adv-x="424" d="M148 237 L285 374 C287 390 281 398 281 398 L50 208 L163 75 L221 92 C221 92 197 198 148 237 L148 237 Z M321 252 L440 374 C442 390 437 398 437 398 L224 223 L349 75 L407 92 C407 92 376 211 321 252 L321 252 Z " />
<glyph glyph-name="registered" unicode="&#xae;" horiz-adv-x="722" d="M447 552 C276 552 108 429 80 250 C52 71 180 -52 351 -52 C523 -52 691 71 719 250 C747 429 619 552 447 552 L447 552 Z M543 222 C535 246 434 247 434 247 C516 247 579 290 588 344 C596 396 554 426 461 426 C431 426 402 424 376 424 L297 424 C275 424 243 426 237 426 L235 413 L279 384 L241 112 L187 84 L185 71 C191 71 221 74 244 74 L356 74 C379 74 392 71 399 71 L401 84 L362 109 L384 238 L405 239 C425 146 452 71 452 71 L591 71 C528 8 443 -31 355 -31 C202 -31 91 89 116 250 C142 411 290 530 443 530 C598 530 708 411 682 250 C672 186 643 129 603 83 C571 102 554 166 543 222 L543 222 Z M411 401 C411 401 425 405 440 405 C477 405 480 390 473 342 C465 294 448 260 396 260 L388 260 L411 401 Z " />
<glyph glyph-name="acute" unicode="&#xb4;" horiz-adv-x="260" d="M91 347 C50 306 280 364 294 453 L251 504 L91 347 L91 347 Z " />
<glyph glyph-name="mu" unicode="&#xb5;" horiz-adv-x="579" d="M249 -191 L274 2 C296 2 315 15 343 35 L337 -1 C337 -1 385 4 461 4 C492 4 547 -1 564 -1 L567 13 L505 51 L561 391 C561 391 542 399 543 399 C472 360 399 326 350 304 L349 292 C362 292 382 297 382 297 L347 58 C334 53 318 48 300 48 C281 48 278 52 278 52 L333 391 L313 399 C234 360 149 325 92 304 L93 292 C123 292 157 301 157 301 L75 -218 L249 -191 L249 -191 Z " />
<glyph glyph-name="paragraph" unicode="&#xb6;" horiz-adv-x="677" d="M497 -87 L582 -87 L716 629 L496 629 C457 629 408 633 364 633 C230 633 132 546 115 440 C97 324 146 254 306 254 L365 254 L314 -86 L425 -86 L544 608 L614 608 L497 -87 Z M284 445 C299 541 334 610 386 610 C396 610 408 607 416 604 L369 278 L328 278 C263 278 269 349 284 445 L284 445 Z " />
<glyph glyph-name="cedilla" unicode="&#xb8;" horiz-adv-x="354" d="M41 -198 L53 -218 C168 -218 261 -209 271 -149 C283 -74 121 -102 130 -48 C134 -25 184 2 184 2 L161 2 C161 2 89 -33 83 -72 C75 -125 139 -114 133 -155 C129 -183 92 -198 41 -198 L41 -198 Z " />
<glyph glyph-name="guillemotright" unicode="&#xbb;" horiz-adv-x="435" d="M172 219 L54 97 C51 81 57 73 57 73 L271 248 L144 396 L88 379 C88 379 118 260 172 219 L172 219 Z M346 234 L210 97 C207 81 213 73 213 73 L444 263 L331 396 L274 379 C274 379 297 273 346 234 L346 234 Z " />
<glyph glyph-name="questiondown" unicode="&#xbf;" horiz-adv-x="409" d="M355 10 C370 20 352 30 352 30 C317 11 282 3 239 3 C196 3 161 23 161 23 C189 88 372 126 386 209 C399 295 214 297 154 304 C154 304 117 287 143 282 C180 276 208 257 203 224 C194 170 73 137 59 47 C52 2 126 -30 207 -30 C264 -30 318 -15 355 10 L355 10 Z M382 426 C390 477 314 504 314 504 C314 504 217 465 208 410 C201 361 277 332 277 332 C277 332 373 371 382 426 L382 426 Z " />
<glyph glyph-name="Agrave" unicode="&#xc0;" horiz-adv-x="663" d="M128 48 L204 173 L373 177 L393 50 L305 11 L303 -3 C322 -3 375 0 408 0 L568 0 C597 0 632 -3 658 -3 L660 11 L589 48 L518 504 L363 504 L334 453 L90 49 L6 11 L4 -3 C30 -3 66 0 94 0 L108 0 C140 0 175 -3 193 -3 L195 11 L128 48 Z M221 204 L335 397 L367 200 L221 204 Z M385 721 L327 670 C313 581 523 523 495 564 L385 721 Z " />
<glyph glyph-name="Aacute" unicode="&#xc1;" horiz-adv-x="663" d="M128 48 L204 173 L373 177 L393 50 L305 11 L303 -3 C322 -3 375 0 408 0 L568 0 C597 0 632 -3 658 -3 L660 11 L589 48 L518 504 L363 504 L334 453 L90 49 L6 11 L4 -3 C30 -3 66 0 94 0 L108 0 C140 0 175 -3 193 -3 L195 11 L128 48 Z M221 204 L335 397 L367 200 L221 204 Z M342 547 C301 506 531 564 545 653 L502 704 L342 547 Z " />
<glyph glyph-name="Acircumflex" unicode="&#xc2;" horiz-adv-x="663" d="M128 48 L204 173 L373 177 L393 50 L305 11 L303 -3 C322 -3 375 0 408 0 L568 0 C597 0 632 -3 658 -3 L660 11 L589 48 L518 504 L363 504 L334 453 L90 49 L6 11 L4 -3 C30 -3 66 0 94 0 L108 0 C140 0 175 -3 193 -3 L195 11 L128 48 Z M221 204 L335 397 L367 200 L221 204 Z M468 704 C454 709 431 709 416 704 L256 547 C223 514 364 571 429 629 C477 571 601 514 578 547 L468 704 Z " />
<glyph glyph-name="Atilde" unicode="&#xc3;" horiz-adv-x="663" d="M128 48 L204 173 L373 177 L393 50 L305 11 L303 -3 C322 -3 375 0 408 0 L568 0 C597 0 632 -3 658 -3 L660 11 L589 48 L518 504 L363 504 L334 453 L90 49 L6 11 L4 -3 C30 -3 66 0 94 0 L108 0 C140 0 175 -3 193 -3 L195 11 L128 48 Z M221 204 L335 397 L367 200 L221 204 Z M514 622 C475 622 492 707 401 707 C306 707 186 535 282 580 C282 580 310 663 352 663 C398 663 366 578 464 578 C558 578 678 750 583 705 C583 705 555 622 514 622 L514 622 Z " />
<glyph glyph-name="Adieresis" unicode="&#xc4;" horiz-adv-x="663" d="M128 48 L204 173 L373 177 L393 50 L305 11 L303 -3 C322 -3 375 0 408 0 L568 0 C597 0 632 -3 658 -3 L660 11 L589 48 L518 504 L363 504 L334 453 L90 49 L6 11 L4 -3 C30 -3 66 0 94 0 L108 0 C140 0 175 -3 193 -3 L195 11 L128 48 Z M221 204 L335 397 L367 200 L221 204 Z M279 629 C274 594 298 577 324 577 C356 577 393 608 400 652 C405 685 383 704 356 704 C324 704 286 672 279 629 L279 629 Z M464 629 C459 594 482 577 508 577 C541 577 578 608 585 652 C590 685 568 704 541 704 C509 704 471 672 464 629 L464 629 Z " />
<glyph glyph-name="Aring" unicode="&#xc5;" horiz-adv-x="663" d="M128 48 L204 173 L373 177 L393 50 L305 11 L303 -3 C322 -3 375 0 408 0 L568 0 C597 0 632 -3 658 -3 L660 11 L589 48 L518 504 L363 504 L334 453 L90 49 L6 11 L4 -3 C30 -3 66 0 94 0 L108 0 C140 0 175 -3 193 -3 L195 11 L128 48 Z M221 204 L335 397 L367 200 L221 204 Z M445 721 C377 721 324 682 315 631 C308 581 348 542 416 542 C484 542 538 581 545 631 C554 682 513 721 445 721 L445 721 Z M420 565 C384 565 367 594 372 631 C378 667 405 697 441 697 C477 697 493 667 487 631 C482 594 456 565 420 565 L420 565 Z " />
<glyph glyph-name="AE" unicode="&#xc6;" horiz-adv-x="809" d="M133 47 L221 172 L396 176 L397 49 L310 10 L308 -4 C327 -4 389 0 421 0 L536 0 C703 0 784 -4 784 -4 L788 21 C793 54 817 161 818 170 L801 170 L675 25 L581 25 L574 262 L649 262 C649 262 716 193 718 204 C719 213 716 230 720 278 C723 316 726 331 728 341 C729 352 644 286 644 286 L573 286 L568 479 L733 479 L813 342 L831 342 C832 351 841 449 846 483 L850 508 C850 508 791 504 601 504 L424 504 L391 457 L92 48 L11 10 L9 -4 C26 -4 61 0 90 0 L104 0 C136 0 180 -4 198 -4 L200 10 L133 47 Z M242 203 L395 423 L396 199 L242 203 Z " />
<glyph glyph-name="Ccedilla" unicode="&#xc7;" horiz-adv-x="554" d="M534 118 C511 66 454 30 356 30 C280 30 248 81 274 243 C301 413 329 497 396 497 C417 497 510 291 510 291 L515 287 C530 287 582 393 587 426 C593 464 515 521 424 521 C228 521 98 402 73 244 C50 101 120 -22 298 -22 C419 -22 508 28 546 100 C546 100 535 118 534 118 L534 118 Z M134 -198 L146 -218 C261 -218 354 -209 364 -149 C376 -74 214 -102 223 -48 C227 -25 277 2 277 2 L254 2 C254 2 182 -33 176 -72 C168 -125 232 -114 226 -155 C222 -183 185 -198 134 -198 L134 -198 Z " />
<glyph glyph-name="Egrave" unicode="&#xc8;" horiz-adv-x="518" d="M432 278 C438 317 444 331 445 340 C447 352 362 288 362 288 L327 288 L358 480 L441 480 L514 343 L529 343 C530 352 539 450 544 484 L548 509 C548 509 534 504 303 504 L192 504 C160 504 107 509 89 509 L87 493 L162 454 L109 51 L14 11 L12 -3 C30 -3 85 0 118 0 L224 0 C463 0 482 -3 482 -3 L486 22 C491 55 515 161 516 170 L502 170 L382 25 L285 25 L323 260 L358 260 C358 260 422 185 424 197 C425 206 424 231 432 278 L432 278 Z M313 721 L255 670 C241 581 451 523 423 564 L313 721 Z " />
<glyph glyph-name="Eacute" unicode="&#xc9;" horiz-adv-x="518" d="M432 278 C438 317 444 331 445 340 C447 352 362 288 362 288 L327 288 L358 480 L441 480 L514 343 L529 343 C530 352 539 450 544 484 L548 509 C548 509 534 504 303 504 L192 504 C160 504 107 509 89 509 L87 493 L162 454 L109 51 L14 11 L12 -3 C30 -3 85 0 118 0 L224 0 C463 0 482 -3 482 -3 L486 22 C491 55 515 161 516 170 L502 170 L382 25 L285 25 L323 260 L358 260 C358 260 422 185 424 197 C425 206 424 231 432 278 L432 278 Z M269 547 C228 506 458 564 472 653 L429 704 L269 547 Z " />
<glyph glyph-name="Ecircumflex" unicode="&#xca;" horiz-adv-x="518" d="M432 278 C438 317 444 331 445 340 C447 352 362 288 362 288 L327 288 L358 480 L441 480 L514 343 L529 343 C530 352 539 450 544 484 L548 509 C548 509 534 504 303 504 L192 504 C160 504 107 509 89 509 L87 493 L162 454 L109 51 L14 11 L12 -3 C30 -3 85 0 118 0 L224 0 C463 0 482 -3 482 -3 L486 22 C491 55 515 161 516 170 L502 170 L382 25 L285 25 L323 260 L358 260 C358 260 422 185 424 197 C425 206 424 231 432 278 L432 278 Z M396 704 C382 709 359 709 344 704 L184 547 C151 514 292 571 357 629 C405 571 529 514 506 547 L396 704 Z " />
<glyph glyph-name="Edieresis" unicode="&#xcb;" horiz-adv-x="518" d="M432 278 C438 317 444 331 445 340 C447 352 362 288 362 288 L327 288 L358 480 L441 480 L514 343 L529 343 C530 352 539 450 544 484 L548 509 C548 509 534 504 303 504 L192 504 C160 504 107 509 89 509 L87 493 L162 454 L109 51 L14 11 L12 -3 C30 -3 85 0 118 0 L224 0 C463 0 482 -3 482 -3 L486 22 C491 55 515 161 516 170 L502 170 L382 25 L285 25 L323 260 L358 260 C358 260 422 185 424 197 C425 206 424 231 432 278 L432 278 Z M207 629 C202 594 226 577 252 577 C284 577 321 608 328 652 C333 685 311 704 284 704 C252 704 214 672 207 629 L207 629 Z M392 629 C387 594 410 577 436 577 C469 577 506 608 513 652 C518 685 496 704 469 704 C437 704 399 672 392 629 L392 629 Z " />
<glyph glyph-name="Igrave" unicode="&#xcc;" horiz-adv-x="376" d="M265 0 C297 0 342 -3 361 -3 L363 11 L290 51 L359 453 L445 493 L447 509 C428 509 381 504 348 504 L185 504 C153 504 102 509 84 509 L82 493 L158 454 L103 51 L9 11 L7 -3 C25 -3 80 0 113 0 L265 0 Z M242 721 L184 670 C170 581 380 523 352 564 L242 721 Z " />
<glyph glyph-name="Iacute" unicode="&#xcd;" horiz-adv-x="376" d="M265 0 C297 0 342 -3 361 -3 L363 11 L290 51 L359 453 L445 493 L447 509 C428 509 381 504 348 504 L185 504 C153 504 102 509 84 509 L82 493 L158 454 L103 51 L9 11 L7 -3 C25 -3 80 0 113 0 L265 0 Z M198 547 C157 506 387 564 401 653 L358 704 L198 547 Z " />
<glyph glyph-name="Icircumflex" unicode="&#xce;" horiz-adv-x="376" d="M265 0 C297 0 342 -3 361 -3 L363 11 L290 51 L359 453 L445 493 L447 509 C428 509 381 504 348 504 L185 504 C153 504 102 509 84 509 L82 493 L158 454 L103 51 L9 11 L7 -3 C25 -3 80 0 113 0 L265 0 Z M325 704 C311 709 288 709 273 704 L113 547 C80 514 221 571 286 629 C334 571 458 514 435 547 L325 704 Z " />
<glyph glyph-name="Idieresis" unicode="&#xcf;" horiz-adv-x="376" d="M265 0 C297 0 342 -3 361 -3 L363 11 L290 51 L359 453 L445 493 L447 509 C428 509 381 504 348 504 L185 504 C153 504 102 509 84 509 L82 493 L158 454 L103 51 L9 11 L7 -3 C25 -3 80 0 113 0 L265 0 Z M136 629 C131 594 155 577 181 577 C213 577 250 608 257 652 C262 685 240 704 213 704 C181 704 143 672 136 629 L136 629 Z M321 629 C316 594 339 577 365 577 C398 577 435 608 442 652 C447 685 425 704 398 704 C366 704 328 672 321 629 L321 629 Z " />
<glyph glyph-name="Eth" unicode="&#xd0;" horiz-adv-x="669" d="M201 504 C169 504 116 508 98 508 L96 493 L173 453 L149 287 L55 287 L50 258 L145 258 L115 50 L23 10 L21 -4 C39 -4 94 0 127 0 L220 0 C253 0 291 -4 339 -4 C572 -4 657 113 683 272 C703 398 675 508 424 508 C378 508 336 504 304 504 L201 504 Z M367 477 C367 477 383 486 409 486 C505 486 513 410 489 257 C464 96 432 18 336 18 C308 18 292 27 292 27 L329 258 L425 258 L430 287 L335 287 L367 477 Z " />
<glyph glyph-name="Ntilde" unicode="&#xd1;" horiz-adv-x="626" d="M568 457 L509 87 L379 462 L364 504 L201 504 C169 504 116 509 98 509 L96 493 L174 453 L102 51 L11 11 L9 -3 C26 -3 70 0 103 0 L123 0 C155 0 191 -3 210 -3 L212 11 L141 51 L196 420 L361 -3 C361 -3 494 0 524 0 C554 0 588 -3 606 -3 L608 11 L530 51 L607 454 L699 493 L701 509 C683 509 639 504 606 504 L584 504 C553 504 525 508 508 509 L506 493 L568 457 Z M496 622 C457 622 474 707 383 707 C288 707 168 535 264 580 C264 580 292 663 334 663 C380 663 348 578 446 578 C540 578 660 750 565 705 C565 705 537 622 496 622 L496 622 Z " />
<glyph glyph-name="Ograve" unicode="&#xd2;" horiz-adv-x="642" d="M295 -22 C492 -22 620 99 645 258 C668 402 599 521 421 521 C226 521 97 398 72 240 C49 96 117 -22 295 -22 L295 -22 Z M370 495 C432 503 448 426 444 267 C440 99 430 14 346 3 C285 -5 268 71 272 232 C277 401 284 484 370 495 L370 495 Z M375 721 L317 670 C303 581 513 523 485 564 L375 721 Z " />
<glyph glyph-name="Oacute" unicode="&#xd3;" horiz-adv-x="642" d="M295 -22 C492 -22 620 99 645 258 C668 402 599 521 421 521 C226 521 97 398 72 240 C49 96 117 -22 295 -22 L295 -22 Z M370 495 C432 503 448 426 444 267 C440 99 430 14 346 3 C285 -5 268 71 272 232 C277 401 284 484 370 495 L370 495 Z M331 547 C290 506 520 564 534 653 L491 704 L331 547 Z " />
<glyph glyph-name="Ocircumflex" unicode="&#xd4;" horiz-adv-x="642" d="M295 -22 C492 -22 620 99 645 258 C668 402 599 521 421 521 C226 521 97 398 72 240 C49 96 117 -22 295 -22 L295 -22 Z M370 495 C432 503 448 426 444 267 C440 99 430 14 346 3 C285 -5 268 71 272 232 C277 401 284 484 370 495 L370 495 Z M458 704 C444 709 421 709 406 704 L246 547 C213 514 354 571 419 629 C467 571 591 514 568 547 L458 704 Z " />
<glyph glyph-name="Otilde" unicode="&#xd5;" horiz-adv-x="642" d="M295 -22 C492 -22 620 99 645 258 C668 402 599 521 421 521 C226 521 97 398 72 240 C49 96 117 -22 295 -22 L295 -22 Z M370 495 C432 503 448 426 444 267 C440 99 430 14 346 3 C285 -5 268 71 272 232 C277 401 284 484 370 495 L370 495 Z M504 622 C465 622 482 707 391 707 C296 707 176 535 272 580 C272 580 300 663 342 663 C388 663 356 578 454 578 C548 578 668 750 573 705 C573 705 545 622 504 622 L504 622 Z " />
<glyph glyph-name="Odieresis" unicode="&#xd6;" horiz-adv-x="642" d="M295 -22 C492 -22 620 99 645 258 C668 402 599 521 421 521 C226 521 97 398 72 240 C49 96 117 -22 295 -22 L295 -22 Z M370 495 C432 503 448 426 444 267 C440 99 430 14 346 3 C285 -5 268 71 272 232 C277 401 284 484 370 495 L370 495 Z M269 629 C264 594 288 577 314 577 C346 577 383 608 390 652 C395 685 373 704 346 704 C314 704 276 672 269 629 L269 629 Z M454 629 C449 594 472 577 498 577 C531 577 568 608 575 652 C580 685 558 704 531 704 C499 704 461 672 454 629 L454 629 Z " />
<glyph glyph-name="multiply" unicode="&#xd7;" horiz-adv-x="395" d="M209 228 L46 87 L77 66 L230 201 L348 62 L374 95 L260 228 L405 354 L373 372 L238 254 L134 377 L109 345 L209 228 L209 228 Z " />
<glyph glyph-name="Oslash" unicode="&#xd8;" horiz-adv-x="661" d="M305 -22 C501 -22 634 99 660 259 C673 341 650 415 600 464 L654 513 C654 513 640 529 616 529 C616 529 602 513 572 484 C537 508 490 521 431 521 C236 521 102 398 77 241 C65 165 83 97 123 48 L60 -11 C60 -11 73 -27 92 -27 C92 -27 110 -7 145 27 C182 -4 235 -22 305 -22 L305 -22 Z M470 386 C415 333 354 265 270 184 C271 202 275 222 278 243 C305 414 328 497 412 497 C454 497 469 462 470 386 L470 386 Z M468 344 C467 318 463 288 458 256 C431 87 406 2 323 2 C277 2 261 46 266 141 C323 196 384 265 468 344 L468 344 Z " />
<glyph glyph-name="Ugrave" unicode="&#xd9;" horiz-adv-x="663" d="M695 457 L702 504 L552 504 C520 504 476 509 458 509 L457 501 L506 461 L457 144 C444 55 416 4 348 4 C281 4 283 46 296 126 L353 460 L360 504 L190 504 C158 504 104 509 86 509 L84 493 L164 457 L122 162 C102 17 178 -20 345 -20 C512 -20 614 26 643 180 L695 457 Z M385 721 L327 670 C313 581 523 523 495 564 L385 721 Z " />
<glyph glyph-name="Uacute" unicode="&#xda;" horiz-adv-x="663" d="M695 457 L702 504 L552 504 C520 504 476 509 458 509 L457 501 L506 461 L457 144 C444 55 416 4 348 4 C281 4 283 46 296 126 L353 460 L360 504 L190 504 C158 504 104 509 86 509 L84 493 L164 457 L122 162 C102 17 178 -20 345 -20 C512 -20 614 26 643 180 L695 457 Z M342 547 C301 506 531 564 545 653 L502 704 L342 547 Z " />
<glyph glyph-name="Ucircumflex" unicode="&#xdb;" horiz-adv-x="663" d="M695 457 L702 504 L552 504 C520 504 476 509 458 509 L457 501 L506 461 L457 144 C444 55 416 4 348 4 C281 4 283 46 296 126 L353 460 L360 504 L190 504 C158 504 104 509 86 509 L84 493 L164 457 L122 162 C102 17 178 -20 345 -20 C512 -20 614 26 643 180 L695 457 Z M468 704 C454 709 431 709 416 704 L256 547 C223 514 364 571 429 629 C477 571 601 514 578 547 L468 704 Z " />
<glyph glyph-name="Udieresis" unicode="&#xdc;" horiz-adv-x="663" d="M695 457 L702 504 L552 504 C520 504 476 509 458 509 L457 501 L506 461 L457 144 C444 55 416 4 348 4 C281 4 283 46 296 126 L353 460 L360 504 L190 504 C158 504 104 509 86 509 L84 493 L164 457 L122 162 C102 17 178 -20 345 -20 C512 -20 614 26 643 180 L695 457 Z M279 629 C274 594 298 577 324 577 C356 577 393 608 400 652 C405 685 383 704 356 704 C324 704 286 672 279 629 L279 629 Z M464 629 C459 594 482 577 508 577 C541 577 578 608 585 652 C590 685 568 704 541 704 C509 704 471 672 464 629 L464 629 Z " />
<glyph glyph-name="Yacute" unicode="&#xdd;" horiz-adv-x="641" d="M422 54 L454 235 L621 454 L712 493 L714 509 C696 509 657 504 625 504 L600 504 C569 504 529 509 510 509 L508 494 L570 459 C555 425 510 349 446 264 L354 462 L335 504 L173 504 C141 504 105 509 87 509 L85 493 L160 454 L266 210 L242 54 L135 11 L133 -3 C151 -3 221 0 253 0 L396 0 C429 0 497 -3 515 -3 L517 11 L422 54 Z M331 547 C290 506 520 564 534 653 L491 704 L331 547 Z " />
<glyph glyph-name="Thorn" unicode="&#xde;" horiz-adv-x="595" d="M270 -2 C302 -2 348 -6 367 -6 L369 8 L292 51 L305 131 L334 131 C503 131 585 179 600 276 C614 365 558 398 415 398 C390 398 372 396 350 395 L360 450 L449 491 L452 506 C435 506 387 502 354 502 L205 502 C173 502 130 506 103 506 L100 491 L179 451 L120 48 L29 8 L27 -6 C45 -6 99 -2 131 -2 L270 -2 Z M345 368 C349 369 366 374 386 374 C438 374 438 342 427 273 C416 204 398 155 325 155 L309 155 L345 368 Z " />
<glyph glyph-name="germandbls" unicode="&#xdf;" horiz-adv-x="626" d="M418 274 L418 277 C529 284 649 320 662 402 C674 475 592 522 422 522 C272 522 152 462 132 332 L86 24 L-6 -16 L-8 -30 C10 -30 64 -27 97 -27 L209 -27 C225 -27 267 -27 267 -27 L326 334 C348 460 376 498 425 498 C477 498 478 452 470 398 C461 344 434 286 368 286 L364 262 C450 262 446 203 436 139 C426 81 419 20 349 18 L346 -3 C369 -4 390 -4 408 -4 C553 -4 620 51 636 152 C650 244 533 267 418 274 L418 274 Z " />
<glyph glyph-name="agrave" unicode="&#xe0;" horiz-adv-x="490" d="M280 58 C301 -3 406 -3 479 -3 L481 13 C446 22 438 67 460 191 L493 386 L475 403 C416 372 324 336 324 336 C321 368 297 393 255 393 C149 392 5 299 18 138 C26 43 102 -13 180 -13 C233 -13 261 15 280 58 L280 58 Z M303 323 C311 228 262 21 218 21 C203 21 191 30 188 66 C179 163 230 367 272 367 C288 367 300 360 303 323 L303 323 Z M272 569 L214 518 C199 429 410 371 382 412 L272 569 Z " />
<glyph glyph-name="aacute" unicode="&#xe1;" horiz-adv-x="490" d="M280 58 C301 -3 406 -3 479 -3 L481 13 C446 22 438 67 460 191 L493 386 L475 403 C416 372 324 336 324 336 C321 368 297 393 255 393 C149 392 5 299 18 138 C26 43 102 -13 180 -13 C233 -13 261 15 280 58 L280 58 Z M303 323 C311 228 262 21 218 21 C203 21 191 30 188 66 C179 163 230 367 272 367 C288 367 300 360 303 323 L303 323 Z M234 414 C193 373 423 431 437 520 L394 571 L234 414 Z " />
<glyph glyph-name="acircumflex" unicode="&#xe2;" horiz-adv-x="490" d="M280 58 C301 -3 406 -3 479 -3 L481 13 C446 22 438 67 460 191 L493 386 L475 403 C416 372 324 336 324 336 C321 368 297 393 255 393 C149 392 5 299 18 138 C26 43 102 -13 180 -13 C233 -13 261 15 280 58 L280 58 Z M303 323 C311 228 262 21 218 21 C203 21 191 30 188 66 C179 163 230 367 272 367 C288 367 300 360 303 323 L303 323 Z M359 557 C345 562 322 562 307 557 L147 400 C114 367 255 424 320 482 C368 424 492 367 469 400 L359 557 Z " />
<glyph glyph-name="atilde" unicode="&#xe3;" horiz-adv-x="490" d="M280 58 C301 -3 406 -3 479 -3 L481 13 C446 22 438 67 460 191 L493 386 L475 403 C416 372 324 336 324 336 C321 368 297 393 255 393 C149 392 5 299 18 138 C26 43 102 -13 180 -13 C233 -13 261 15 280 58 L280 58 Z M303 323 C311 228 262 21 218 21 C203 21 191 30 188 66 C179 163 230 367 272 367 C288 367 300 360 303 323 L303 323 Z M399 453 C360 453 378 538 287 538 C192 538 71 366 168 411 C168 411 195 494 237 494 C283 494 251 409 349 409 C443 409 564 581 468 536 C468 536 440 453 399 453 L399 453 Z " />
<glyph glyph-name="adieresis" unicode="&#xe4;" horiz-adv-x="490" d="M280 58 C301 -3 406 -3 479 -3 L481 13 C446 22 438 67 460 191 L493 386 L475 403 C416 372 324 336 324 336 C321 368 297 393 255 393 C149 392 5 299 18 138 C26 43 102 -13 180 -13 C233 -13 261 15 280 58 L280 58 Z M303 323 C311 228 262 21 218 21 C203 21 191 30 188 66 C179 163 230 367 272 367 C288 367 300 360 303 323 L303 323 Z M164 459 C159 424 183 407 209 407 C241 407 278 438 285 482 C290 515 268 534 241 534 C209 534 171 502 164 459 L164 459 Z M349 459 C344 424 367 407 393 407 C426 407 463 438 470 482 C475 515 453 534 426 534 C394 534 356 502 349 459 L349 459 Z " />
<glyph glyph-name="aring" unicode="&#xe5;" horiz-adv-x="490" d="M280 58 C301 -3 406 -3 479 -3 L481 13 C446 22 438 67 460 191 L493 386 L475 403 C416 372 324 336 324 336 C321 368 297 393 255 393 C149 392 5 299 18 138 C26 43 102 -13 180 -13 C233 -13 261 15 280 58 L280 58 Z M303 323 C311 228 262 21 218 21 C203 21 191 30 188 66 C179 163 230 367 272 367 C288 367 300 360 303 323 L303 323 Z M326 579 C258 579 205 540 197 489 C189 439 230 400 298 400 C366 400 419 439 427 489 C435 540 394 579 326 579 L326 579 Z M301 423 C265 423 248 452 254 489 C260 525 286 555 322 555 C358 555 375 525 369 489 C363 452 337 423 301 423 L301 423 Z " />
<glyph glyph-name="ae" unicode="&#xe6;" horiz-adv-x="710" d="M256 223 C117 205 56 174 44 96 C30 11 79 -12 159 -12 C208 -12 259 14 303 51 C330 21 370 -12 481 -12 C585 -12 652 41 688 98 C692 104 692 118 678 118 C659 83 598 40 536 40 C468 40 448 89 459 162 L463 184 L565 186 L715 211 C731 315 667 394 554 394 C513 394 477 384 445 368 C424 387 383 394 344 394 C261 394 99 374 90 289 L197 279 C203 316 228 353 278 353 C302 353 318 337 318 337 L302 223 L256 223 Z M298 198 L276 55 C257 41 238 31 221 31 C206 31 201 37 213 110 C225 188 238 198 271 198 L298 198 Z M546 216 L468 210 C487 332 502 374 537 374 C565 374 563 324 546 216 L546 216 Z " />
<glyph glyph-name="ccedilla" unicode="&#xe7;" horiz-adv-x="414" d="M439 328 C439 328 420 393 306 393 C181 393 63 310 43 185 C21 49 105 -13 218 -13 C313 -13 377 40 413 97 L403 116 C383 81 336 44 283 44 C216 44 201 79 221 190 C247 331 253 369 297 369 L354 214 L366 204 C365 204 397 244 416 280 L439 328 Z M64 -198 L76 -218 C191 -218 284 -209 294 -149 C306 -74 144 -102 153 -48 C157 -25 207 2 207 2 L184 2 C184 2 112 -33 106 -72 C98 -125 162 -114 156 -155 C152 -183 115 -198 64 -198 L64 -198 Z " />
<glyph glyph-name="egrave" unicode="&#xe8;" horiz-adv-x="450" d="M231 -13 C334 -13 412 49 442 104 L429 116 C409 81 349 40 287 40 C219 40 203 88 215 160 L218 183 L325 186 L465 210 C481 313 422 393 309 393 C184 393 62 310 42 185 C20 49 108 -13 231 -13 L231 -13 Z M295 214 L222 208 C242 331 256 369 292 369 C319 369 313 323 295 214 L295 214 Z M258 572 L200 521 C186 432 397 374 368 415 L258 572 Z " />
<glyph glyph-name="eacute" unicode="&#xe9;" horiz-adv-x="450" d="M231 -13 C334 -13 412 49 442 104 L429 116 C409 81 349 40 287 40 C219 40 203 88 215 160 L218 183 L325 186 L465 210 C481 313 422 393 309 393 C184 393 62 310 42 185 C20 49 108 -13 231 -13 L231 -13 Z M295 214 L222 208 C242 331 256 369 292 369 C319 369 313 323 295 214 L295 214 Z M213 414 C172 373 402 431 416 520 L373 571 L213 414 Z " />
<glyph glyph-name="ecircumflex" unicode="&#xea;" horiz-adv-x="450" d="M231 -13 C334 -13 412 49 442 104 L429 116 C409 81 349 40 287 40 C219 40 203 88 215 160 L218 183 L325 186 L465 210 C481 313 422 393 309 393 C184 393 62 310 42 185 C20 49 108 -13 231 -13 L231 -13 Z M295 214 L222 208 C242 331 256 369 292 369 C319 369 313 323 295 214 L295 214 Z M337 545 C323 550 300 550 285 545 L125 388 C92 355 233 412 298 470 C346 412 470 355 447 388 L337 545 Z " />
<glyph glyph-name="edieresis" unicode="&#xeb;" horiz-adv-x="450" d="M231 -13 C334 -13 412 49 442 104 L429 116 C409 81 349 40 287 40 C219 40 203 88 215 160 L218 183 L325 186 L465 210 C481 313 422 393 309 393 C184 393 62 310 42 185 C20 49 108 -13 231 -13 L231 -13 Z M295 214 L222 208 C242 331 256 369 292 369 C319 369 313 323 295 214 L295 214 Z M147 456 C141 421 165 404 191 404 C223 404 260 435 267 479 C273 512 251 531 224 531 C192 531 154 499 147 456 L147 456 Z M332 456 C326 421 349 404 375 404 C408 404 445 435 452 479 C458 512 436 531 409 531 C377 531 339 499 332 456 L332 456 Z " />
<glyph glyph-name="igrave" unicode="&#xec;" horiz-adv-x="326" d="M256 1 L321 397 L302 405 C233 369 131 331 69 309 L70 296 C101 296 134 306 134 306 L90 1 L256 1 Z M198 581 L139 530 C125 441 336 383 308 424 L198 581 Z " />
<glyph glyph-name="iacute" unicode="&#xed;" horiz-adv-x="326" d="M256 1 L321 397 L302 405 C233 369 131 331 69 309 L70 296 C101 296 134 306 134 306 L90 1 L256 1 Z M147 403 C106 362 336 420 350 509 L307 560 L147 403 Z " />
<glyph glyph-name="icircumflex" unicode="&#xee;" horiz-adv-x="326" d="M256 1 L321 397 L302 405 C233 369 131 331 69 309 L70 296 C101 296 134 306 134 306 L90 1 L256 1 Z M275 551 C261 556 238 556 223 551 L63 394 C30 361 171 418 236 476 C284 418 408 361 385 394 L275 551 Z " />
<glyph glyph-name="idieresis" unicode="&#xef;" horiz-adv-x="326" d="M256 1 L321 397 L302 405 C233 369 131 331 69 309 L70 296 C101 296 134 306 134 306 L90 1 L256 1 Z M87 461 C81 426 105 409 131 409 C163 409 200 440 207 484 C212 517 190 536 163 536 C131 536 93 504 87 461 L87 461 Z M272 461 C266 426 289 409 315 409 C348 409 385 440 392 484 C397 517 375 536 348 536 C316 536 278 504 272 461 L272 461 Z " />
<glyph glyph-name="eth" unicode="&#xf0;" horiz-adv-x="523" d="M341 502 L389 550 L362 623 L258 526 C232 531 205 535 178 538 C165 529 174 517 174 517 C197 514 217 510 235 504 L190 461 L221 381 L306 467 C342 437 357 394 362 338 C344 358 320 368 287 368 C171 368 71 307 52 187 C30 45 122 -20 238 -20 C370 -20 508 67 529 201 C555 361 470 454 341 502 L341 502 Z M254 3 C201 3 205 68 221 168 C238 276 269 341 319 341 C374 341 370 279 354 180 C337 73 321 3 254 3 L254 3 Z " />
<glyph glyph-name="ntilde" unicode="&#xf1;" horiz-adv-x="569" d="M393 335 L341 0 L508 0 L563 316 C576 387 511 400 473 400 C407 400 333 365 303 306 L316 396 L296 404 C229 369 124 328 68 309 L70 294 C98 294 132 306 132 306 L88 0 L252 0 L283 179 C305 306 350 341 375 341 C386 341 393 335 393 335 L393 335 Z M445 449 C406 449 423 534 332 534 C237 534 117 362 213 407 C213 407 240 490 282 490 C328 490 297 405 395 405 C489 405 609 577 514 532 C514 532 486 449 445 449 L445 449 Z " />
<glyph glyph-name="ograve" unicode="&#xf2;" horiz-adv-x="478" d="M208 -13 C340 -13 469 73 489 198 C508 318 436 393 319 393 C187 393 57 305 37 181 C18 62 92 -13 208 -13 L208 -13 Z M265 367 C293 371 315 351 312 194 C309 37 292 17 262 13 C235 9 212 36 215 186 C217 344 234 363 265 367 L265 367 Z M269 571 L211 520 C197 431 408 373 379 414 L269 571 Z " />
<glyph glyph-name="oacute" unicode="&#xf3;" horiz-adv-x="478" d="M208 -13 C340 -13 469 73 489 198 C508 318 436 393 319 393 C187 393 57 305 37 181 C18 62 92 -13 208 -13 L208 -13 Z M265 367 C293 371 315 351 312 194 C309 37 292 17 262 13 C235 9 212 36 215 186 C217 344 234 363 265 367 L265 367 Z M224 417 C182 376 412 434 426 523 L383 574 L224 417 Z " />
<glyph glyph-name="ocircumflex" unicode="&#xf4;" horiz-adv-x="478" d="M208 -13 C340 -13 469 73 489 198 C508 318 436 393 319 393 C187 393 57 305 37 181 C18 62 92 -13 208 -13 L208 -13 Z M265 367 C293 371 315 351 312 194 C309 37 292 17 262 13 C235 9 212 36 215 186 C217 344 234 363 265 367 L265 367 Z M348 552 C334 557 311 557 296 552 L136 395 C103 362 244 419 309 477 C357 419 481 362 458 395 L348 552 Z " />
<glyph glyph-name="otilde" unicode="&#xf5;" horiz-adv-x="478" d="M208 -13 C340 -13 469 73 489 198 C508 318 436 393 319 393 C187 393 57 305 37 181 C18 62 92 -13 208 -13 L208 -13 Z M265 367 C293 371 315 351 312 194 C309 37 292 17 262 13 C235 9 212 36 215 186 C217 344 234 363 265 367 L265 367 Z M398 456 C359 456 376 541 285 541 C190 541 70 369 166 414 C166 414 193 497 235 497 C281 497 250 412 348 412 C442 412 562 584 467 539 C467 539 439 456 398 456 L398 456 Z " />
<glyph glyph-name="odieresis" unicode="&#xf6;" horiz-adv-x="478" d="M208 -13 C340 -13 469 73 489 198 C508 318 436 393 319 393 C187 393 57 305 37 181 C18 62 92 -13 208 -13 L208 -13 Z M265 367 C293 371 315 351 312 194 C309 37 292 17 262 13 C235 9 212 36 215 186 C217 344 234 363 265 367 L265 367 Z M160 458 C154 423 179 406 205 406 C237 406 274 437 281 481 C286 514 264 533 237 533 C205 533 167 501 160 458 L160 458 Z M345 458 C339 423 363 406 389 406 C422 406 459 437 466 481 C471 514 449 533 422 533 C390 533 352 501 345 458 L345 458 Z " />
<glyph glyph-name="oslash" unicode="&#xf8;" horiz-adv-x="486" d="M217 -13 C349 -13 479 74 499 198 C508 256 492 303 466 336 L530 394 C530 394 516 409 500 409 C500 409 486 394 446 355 C418 379 376 393 328 393 C197 393 66 306 46 181 C36 116 57 64 92 29 L24 -32 C24 -32 37 -47 48 -47 C48 -47 66 -29 112 15 C140 -3 175 -13 217 -13 L217 -13 Z M333 249 C299 217 259 181 213 139 C214 155 217 172 220 193 C245 352 269 369 300 369 C323 369 342 353 333 249 L333 249 Z M328 214 L324 187 C299 29 275 11 244 11 C224 11 206 29 210 107 L328 214 Z " />
<glyph glyph-name="ugrave" unicode="&#xf9;" horiz-adv-x="562" d="M363 44 C396 -2 489 -2 555 -2 L558 13 C523 23 515 68 536 191 L570 394 L550 402 C480 362 393 327 341 306 L346 291 C361 291 381 296 381 296 L348 58 C334 52 306 47 288 47 C269 47 258 51 258 51 L313 394 L293 401 C215 362 124 325 69 306 L71 291 C100 291 134 304 134 304 L94 70 C81 -2 137 -14 192 -14 C241 -14 303 13 343 34 L363 44 Z M304 561 L246 510 C232 421 443 363 414 404 L304 561 Z " />
<glyph glyph-name="uacute" unicode="&#xfa;" horiz-adv-x="562" d="M363 44 C396 -2 489 -2 555 -2 L558 13 C523 23 515 68 536 191 L570 394 L550 402 C480 362 393 327 341 306 L346 291 C361 291 381 296 381 296 L348 58 C334 52 306 47 288 47 C269 47 258 51 258 51 L313 394 L293 401 C215 362 124 325 69 306 L71 291 C100 291 134 304 134 304 L94 70 C81 -2 137 -14 192 -14 C241 -14 303 13 343 34 L363 44 Z M270 422 C229 381 459 439 473 528 L430 579 L270 422 Z " />
<glyph glyph-name="ucircumflex" unicode="&#xfb;" horiz-adv-x="562" d="M363 44 C396 -2 489 -2 555 -2 L558 13 C523 23 515 68 536 191 L570 394 L550 402 C480 362 393 327 341 306 L346 291 C361 291 381 296 381 296 L348 58 C334 52 306 47 288 47 C269 47 258 51 258 51 L313 394 L293 401 C215 362 124 325 69 306 L71 291 C100 291 134 304 134 304 L94 70 C81 -2 137 -14 192 -14 C241 -14 303 13 343 34 L363 44 Z M390 561 C376 566 353 566 338 561 L178 404 C145 371 286 428 351 486 C399 428 523 371 500 404 L390 561 Z " />
<glyph glyph-name="udieresis" unicode="&#xfc;" horiz-adv-x="562" d="M363 44 C396 -2 489 -2 555 -2 L558 13 C523 23 515 68 536 191 L570 394 L550 402 C480 362 393 327 341 306 L346 291 C361 291 381 296 381 296 L348 58 C334 52 306 47 288 47 C269 47 258 51 258 51 L313 394 L293 401 C215 362 124 325 69 306 L71 291 C100 291 134 304 134 304 L94 70 C81 -2 137 -14 192 -14 C241 -14 303 13 343 34 L363 44 Z M201 453 C196 418 220 401 246 401 C278 401 315 432 322 476 C327 509 305 528 278 528 C246 528 208 496 201 453 L201 453 Z M386 453 C381 418 404 401 430 401 C463 401 500 432 507 476 C512 509 490 528 463 528 C431 528 393 496 386 453 L386 453 Z " />
<glyph glyph-name="yacute" unicode="&#xfd;" horiz-adv-x="533" d="M489 -34 L562 386 C565 403 563 406 543 394 C472 354 385 319 334 298 C321 293 326 284 337 284 C352 284 373 288 373 288 L339 50 C326 44 298 39 281 39 C261 39 249 43 249 43 L306 386 L285 394 C207 354 116 317 61 298 L62 283 C91 283 126 296 126 296 L86 62 C73 -9 129 -21 185 -21 C233 -21 295 5 338 27 C312 -161 290 -208 244 -209 C205 -209 199 -149 199 -149 L242 -63 L236 -54 C143 -63 40 -96 44 -147 C49 -200 157 -230 243 -230 C377 -230 469 -149 489 -34 L489 -34 Z M259 398 C217 357 447 415 461 504 L418 555 L259 398 Z " />
<glyph glyph-name="thorn" unicode="&#xfe;" horiz-adv-x="583" d="M186 526 L88 -138 L13 -177 L11 -190 C28 -190 66 -187 97 -187 L220 -187 C251 -187 297 -190 315 -190 L317 -177 L245 -136 L271 20 C284 19 293 19 303 19 C459 19 556 98 577 229 C600 376 523 417 450 417 C423 417 370 397 330 380 L371 614 L351 630 C291 592 154 540 107 528 L112 514 C135 514 165 517 186 526 L186 526 Z M325 350 C333 354 355 371 375 371 C409 371 417 336 398 218 C377 87 355 42 311 42 C295 42 281 45 275 47 L325 350 Z " />
<glyph glyph-name="ydieresis" unicode="&#xff;" horiz-adv-x="533" d="M489 -34 L562 386 C565 403 563 406 543 394 C472 354 385 319 334 298 C321 293 326 284 337 284 C352 284 373 288 373 288 L339 50 C326 44 298 39 281 39 C261 39 249 43 249 43 L306 386 L285 394 C207 354 116 317 61 298 L62 283 C91 283 126 296 126 296 L86 62 C73 -9 129 -21 185 -21 C233 -21 295 5 338 27 C312 -161 290 -208 244 -209 C205 -209 199 -149 199 -149 L242 -63 L236 -54 C143 -63 40 -96 44 -147 C49 -200 157 -230 243 -230 C377 -230 469 -149 489 -34 L489 -34 Z M196 455 C190 420 214 403 240 403 C272 403 309 434 316 478 C321 511 299 530 272 530 C240 530 202 498 196 455 L196 455 Z M381 455 C375 420 398 403 424 403 C457 403 494 434 501 478 C506 511 484 530 457 530 C425 530 387 498 381 455 L381 455 Z " />
<glyph glyph-name="Lslash" unicode="&#x141;" horiz-adv-x="501" d="M490 21 C495 53 523 185 524 195 L509 195 L362 25 L286 25 L358 451 L461 493 L463 509 C445 509 382 504 349 504 L187 504 C155 504 102 509 84 509 L82 493 L159 454 L102 51 L9 11 L7 -3 C25 -3 80 0 113 0 L229 0 C462 0 486 -3 486 -3 L490 21 Z M419 300 L116 289 L67 201 L373 221 L419 300 Z " />
<glyph glyph-name="lslash" unicode="&#x142;" horiz-adv-x="315" d="M255 0 L356 600 L335 616 C277 577 132 528 86 512 L86 499 C121 499 163 511 163 511 L89 0 L255 0 Z M337 301 L116 290 L77 202 L300 222 L337 301 Z " />
<glyph glyph-name="OE" unicode="&#x152;" horiz-adv-x="822" d="M726 278 C732 316 735 331 736 340 C738 352 651 286 651 286 L616 286 L646 479 L721 479 L811 342 L828 342 C829 351 838 449 843 483 L847 508 C847 508 833 504 602 504 L516 504 C489 515 455 522 413 522 C218 522 98 399 73 242 C50 98 109 -21 288 -21 C335 -21 377 -14 414 0 L523 0 C762 0 781 -4 781 -4 L785 21 C790 54 814 161 815 170 L798 170 L664 25 L574 25 L612 262 L647 262 C647 262 713 185 715 197 C716 206 718 230 726 278 L726 278 Z M395 498 C456 498 462 418 436 257 C409 88 389 3 305 3 C245 3 239 82 265 244 C292 415 310 498 395 498 L395 498 Z " />
<glyph glyph-name="oe" unicode="&#x153;" horiz-adv-x="733" d="M503 -12 C607 -12 674 41 710 98 C713 104 714 118 700 118 C681 83 620 40 558 40 C490 40 475 89 486 162 L490 184 L610 184 L737 211 C753 315 694 394 580 394 C528 394 481 380 442 353 C418 380 381 394 329 394 C198 394 68 307 48 182 C29 63 103 -12 219 -12 C277 -12 328 4 371 33 C398 3 443 -12 503 -12 L503 -12 Z M301 370 C329 370 347 347 322 188 C297 29 277 12 246 12 C220 12 202 43 226 194 C251 353 270 370 301 370 L301 370 Z M571 214 L495 210 C514 332 528 370 563 370 C590 370 588 322 571 214 L571 214 Z " />
<glyph glyph-name="Scaron" unicode="&#x160;" horiz-adv-x="475" d="M81 173 L64 173 C63 165 57 79 48 20 C48 20 119 -22 214 -22 C377 -22 470 53 487 162 C515 338 201 322 217 419 C225 471 299 496 367 496 L470 353 L487 353 C489 362 492 430 499 478 C499 478 450 521 352 521 C225 521 108 454 90 337 C62 160 348 175 333 82 C324 24 287 3 191 3 L81 173 Z M297 547 C310 542 333 542 349 547 L509 704 C542 737 401 679 335 621 C287 679 165 737 187 704 L297 547 Z " />
<glyph glyph-name="scaron" unicode="&#x161;" horiz-adv-x="373" d="M71 123 L55 123 C53 113 51 53 46 23 C46 23 75 -3 152 -3 C247 -3 362 21 380 134 C403 278 210 242 225 337 C229 366 257 371 286 371 L362 274 L379 274 C380 283 381 327 387 367 C387 367 352 393 281 393 C196 393 89 356 73 256 C50 109 240 151 226 60 C222 33 197 20 156 20 L71 123 Z M223 409 C236 404 259 404 275 409 L435 566 C468 599 327 541 261 483 C213 541 91 599 113 566 L223 409 Z " />
<glyph glyph-name="Ydieresis" unicode="&#x178;" horiz-adv-x="641" d="M422 54 L454 235 L621 454 L712 493 L714 509 C696 509 657 504 625 504 L600 504 C569 504 529 509 510 509 L508 494 L570 459 C555 425 510 349 446 264 L354 462 L335 504 L173 504 C141 504 105 509 87 509 L85 493 L160 454 L266 210 L242 54 L135 11 L133 -3 C151 -3 221 0 253 0 L396 0 C429 0 497 -3 515 -3 L517 11 L422 54 Z M268 629 C263 594 287 577 313 577 C345 577 382 608 389 652 C394 685 372 704 345 704 C313 704 275 672 268 629 L268 629 Z M453 629 C448 594 471 577 497 577 C530 577 567 608 574 652 C579 685 557 704 530 704 C498 704 460 672 453 629 L453 629 Z " />
<glyph glyph-name="Zcaron" unicode="&#x17d;" horiz-adv-x="509" d="M488 22 C493 55 522 188 524 197 L506 197 L350 25 L204 25 L565 493 L560 508 C540 507 454 504 420 504 C192 504 113 509 113 509 L109 484 C104 453 77 325 76 316 L93 316 L247 480 L330 480 L15 17 L21 -3 C39 -3 117 0 144 0 C382 0 484 -3 484 -3 L488 22 Z M314 547 C327 542 350 542 366 547 L526 704 C559 737 418 679 352 621 C304 679 182 737 204 704 L314 547 Z " />
<glyph glyph-name="zcaron" unicode="&#x17e;" horiz-adv-x="398" d="M250 353 L30 22 L30 1 C37 1 73 4 120 4 L276 4 C333 4 379 1 379 1 L383 27 C389 69 408 141 409 148 L393 148 L304 29 C304 29 266 23 200 23 L434 354 L433 374 C426 374 388 371 332 371 L188 371 C141 371 96 374 96 374 L92 348 C87 317 68 243 67 234 L84 234 L171 350 C171 350 197 353 250 353 L250 353 Z M236 381 C249 376 272 376 288 381 L448 538 C481 571 340 513 274 455 C226 513 104 571 126 538 L236 381 Z " />
<glyph glyph-name="florin" unicode="&#x192;" horiz-adv-x="556" d="M399 261 L363 479 C354 535 393 574 461 574 L497 438 L516 431 C523 434 543 458 562 491 L597 552 C597 552 555 600 472 600 C326 600 171 515 192 389 L215 261 L132 261 L120 234 L218 234 L261 -7 C281 -116 197 -188 124 -188 C40 -188 41 -114 41 -114 L7 -129 C5 -130 32 -229 171 -220 C302 -211 458 -139 437 1 L402 234 L547 234 L559 261 L399 261 L399 261 Z " />
<glyph glyph-name="circumflex" unicode="&#x2c6;" horiz-adv-x="466" d="M339 504 C325 509 302 509 287 504 L127 347 C94 314 235 371 300 429 C348 371 472 314 449 347 L339 504 L339 504 Z " />
<glyph glyph-name="caron" unicode="&#x2c7;" horiz-adv-x="423" d="M238 347 C252 342 275 342 290 347 L450 504 C484 537 342 479 276 421 C228 479 107 537 128 504 L238 347 L238 347 Z " />
<glyph glyph-name="breve" unicode="&#x2d8;" horiz-adv-x="421" d="M237 519 C200 523 140 519 140 519 C140 519 140 396 273 396 C406 396 445 519 445 519 C445 519 394 520 347 519 C347 519 350 425 278 425 C206 425 237 519 237 519 L237 519 Z " />
<glyph glyph-name="dotaccent" unicode="&#x2d9;" horiz-adv-x="259" d="M226 521 C226 521 129 498 122 453 C117 417 183 399 183 399 C183 399 280 424 286 467 C292 505 226 521 226 521 L226 521 Z " />
<glyph glyph-name="ring" unicode="&#x2da;" horiz-adv-x="368" d="M273 521 C205 521 152 482 144 431 C136 381 177 342 245 342 C313 342 366 381 374 431 C382 482 341 521 273 521 L273 521 Z M248 365 C212 365 195 394 201 431 C206 467 233 497 269 497 C305 497 321 467 316 431 C310 394 284 365 248 365 L248 365 Z " />
<glyph glyph-name="ogonek" unicode="&#x2db;" horiz-adv-x="257" d="M113 -175 C190 -175 207 -97 156 -97 C154 -113 97 -121 103 -84 C111 -37 197 0 197 0 L172 3 C172 3 62 -52 52 -116 C46 -155 67 -175 113 -175 L113 -175 Z " />
<glyph glyph-name="tilde" unicode="&#x2dc;" horiz-adv-x="449" d="M381 422 C342 422 360 507 269 507 C174 507 54 335 150 380 C150 380 177 463 219 463 C265 463 233 378 331 378 C425 378 546 550 450 505 C450 505 422 422 381 422 L381 422 Z " />
<glyph glyph-name="hungarumlaut" unicode="&#x2dd;" horiz-adv-x="402" d="M196 521 L112 398 C89 366 153 383 153 383 L297 521 L196 521 Z M334 521 L250 398 C227 366 291 383 291 383 L435 521 L334 521 Z " />
<glyph glyph-name="quoteleft" unicode="&#x2018;" horiz-adv-x="223" d="M225 240 C225 240 188 266 202 356 C219 463 269 499 271 514 C272 519 269 522 265 522 C250 522 100 414 81 294 C71 229 133 183 133 183 C133 183 222 223 225 240 L225 240 Z " />
<glyph glyph-name="quoteright" unicode="&#x2019;" horiz-adv-x="250" d="M126 464 C126 464 164 438 150 348 C133 242 83 206 81 190 C80 185 82 182 86 182 C101 182 251 290 270 410 C281 475 218 521 218 521 C218 521 129 481 126 464 L126 464 Z " />
<glyph glyph-name="quotesinglbase" unicode="&#x201a;" horiz-adv-x="265" d="M65 71 C65 71 103 45 88 -45 C72 -151 22 -187 19 -203 C19 -208 21 -211 25 -211 C40 -211 190 -103 209 17 C219 82 157 128 157 128 C157 128 67 88 65 71 L65 71 Z " />
<glyph glyph-name="quotedblleft" unicode="&#x201c;" horiz-adv-x="386" d="M218 239 C218 239 181 265 196 355 C213 462 262 498 265 513 C266 518 262 521 259 521 C243 521 93 413 74 293 C64 228 126 182 126 182 C126 182 216 222 218 239 L218 239 Z M389 239 C389 239 352 265 367 355 C384 462 433 498 436 513 C437 518 433 521 430 521 C414 521 264 413 245 293 C235 228 297 182 297 182 C297 182 387 222 389 239 L389 239 Z " />
<glyph glyph-name="quotedblright" unicode="&#x201d;" horiz-adv-x="414" d="M131 464 C131 464 168 438 154 348 C137 242 87 206 85 190 C84 185 87 182 90 182 C106 182 256 290 275 410 C286 475 223 521 223 521 C223 521 134 481 131 464 L131 464 Z M302 464 C302 464 339 438 325 348 C308 242 258 206 256 190 C255 185 258 182 261 182 C277 182 427 290 446 410 C457 475 394 521 394 521 C394 521 305 481 302 464 L302 464 Z " />
<glyph glyph-name="quotedblbase" unicode="&#x201e;" horiz-adv-x="475" d="M83 95 L83 95 C83 95 119 69 105 -21 C88 -127 39 -163 36 -179 C35 -184 39 -187 42 -187 C58 -187 208 -79 227 41 C237 106 175 152 175 152 C175 152 85 112 83 95 L83 95 Z M254 95 C254 95 290 69 276 -21 C259 -127 210 -163 207 -179 C206 -184 210 -187 213 -187 C229 -187 379 -79 398 41 C408 106 346 152 346 152 C346 152 256 112 254 95 L254 95 Z " />
<glyph glyph-name="bullet" unicode="&#x2022;" horiz-adv-x="405" d="M82 238 C73 178 169 138 169 138 C169 138 368 210 382 298 C391 356 296 396 296 396 C296 396 96 327 82 238 L82 238 Z " />
<glyph glyph-name="ellipsis" unicode="&#x2026;" horiz-adv-x="906" d="M68 3 C60 -49 134 -98 134 -98 C134 -98 240 -34 249 22 C257 72 182 123 182 123 C182 123 77 59 68 3 L68 3 Z M370 3 C362 -49 436 -98 436 -98 C436 -98 542 -34 551 22 C559 72 484 123 484 123 C484 123 379 59 370 3 L370 3 Z M672 3 C664 -49 738 -98 738 -98 C738 -98 844 -34 853 22 C861 72 786 123 786 123 C786 123 681 59 672 3 L672 3 Z " />
<glyph glyph-name="guilsinglleft" unicode="&#x2039;" horiz-adv-x="304" d="M175 235 L310 372 C313 388 307 396 307 396 L76 206 L189 73 L247 90 C247 90 224 196 175 235 L175 235 Z " />
<glyph glyph-name="guilsinglright" unicode="&#x203a;" horiz-adv-x="271" d="M184 234 L47 96 C44 81 51 73 51 73 L281 262 L168 396 L111 379 C111 379 135 272 184 234 L184 234 Z " />
<glyph glyph-name="Euro" unicode="&#x20ac;" horiz-adv-x="582" d="M602 454 L617 488 C617 488 578 521 491 521 C322 521 213 432 170 306 L97 302 L85 268 L161 273 C158 263 157 254 155 244 C153 229 151 214 150 199 L62 194 L50 161 L151 166 C157 59 221 -22 366 -22 C460 -22 548 19 583 82 L572 100 C550 57 494 22 423 22 C357 22 331 63 339 177 L507 188 L521 221 L342 210 C343 221 344 232 346 243 L352 284 L542 296 L556 329 L359 316 C384 435 411 491 490 491 C566 491 602 454 602 454 L602 454 Z " />
<glyph glyph-name="trademark" unicode="&#x2122;" horiz-adv-x="788" d="M254 289 L287 506 L318 506 L349 442 L359 442 C359 446 363 488 366 506 L368 522 C368 522 362 521 265 521 L230 521 C134 521 127 522 127 522 L125 506 C122 489 111 446 111 442 L123 442 L173 506 L205 506 L166 289 L119 267 L117 256 C121 256 152 258 170 258 L242 258 C259 258 295 256 295 256 L297 267 L254 289 Z M658 491 L575 343 L536 491 C536 491 533 505 528 521 L455 521 C438 521 415 522 410 522 L408 511 L442 492 L412 287 L371 267 L369 256 C374 256 388 258 405 258 L424 258 C441 258 464 256 469 256 L471 267 L431 289 L456 466 L506 256 L546 256 L662 466 L636 289 L590 267 L588 256 C593 256 621 258 637 258 L714 258 C730 258 746 256 751 256 L753 267 L722 287 L749 489 L787 511 L789 522 C784 522 765 521 748 521 L675 521 C658 521 634 522 630 522 L628 511 L658 491 Z " />
<glyph glyph-name="f_f" unicode="&#xfb00;" horiz-adv-x="774" d="M746 455 L759 443 C790 461 848 551 848 551 C848 551 805 599 722 599 C673 599 606 587 557 561 C540 576 501 599 443 599 C342 599 185 539 167 406 L162 368 L80 368 L68 341 L158 341 L115 49 L51 12 L49 -3 C66 -3 96 0 126 0 L231 0 C262 0 296 -3 313 -3 L315 12 L273 44 L325 341 L437 341 L393 38 L357 12 L355 -3 C372 -3 393 0 423 0 L528 0 C559 0 611 -3 628 -3 L630 12 L554 53 L604 341 L737 341 L748 368 L608 368 L611 387 C617 428 613 471 619 506 C625 547 644 573 712 573 L746 455 Z M329 368 L332 387 C338 428 334 471 340 506 C346 547 365 573 415 573 L457 475 L441 368 L329 368 Z " />
<glyph glyph-name="fi" unicode="&#xfb01;" horiz-adv-x="614" d="M528 0 C559 0 581 -4 597 -4 C597 -4 600 11 599 11 L553 48 L611 388 L590 396 C573 390 507 367 447 367 L329 367 L332 386 C338 427 334 470 339 504 C346 546 365 572 433 572 L454 475 C459 449 483 433 514 433 C559 433 612 459 617 492 C627 550 516 598 443 598 C342 598 185 538 166 404 L162 367 L80 367 L67 340 L157 340 L115 48 L51 11 L49 -4 C66 -4 96 0 126 0 L231 0 C262 0 287 -4 304 -4 L306 11 L273 40 L323 340 L436 340 L392 37 L348 11 L346 -4 C361 -4 401 0 432 0 L528 0 L528 0 Z " />
<glyph glyph-name="fl" unicode="&#xfb02;" horiz-adv-x="604" d="M514 0 C545 0 573 -4 591 -4 L593 11 L548 48 L640 589 L619 596 C605 584 588 570 571 558 C553 573 497 598 438 598 C337 598 179 538 161 404 L157 367 L75 367 L62 340 L152 340 L110 48 L46 11 L44 -4 C61 -4 91 0 120 0 L217 0 C248 0 281 -4 299 -4 L301 11 L268 41 L318 340 L431 340 L388 38 L343 11 L341 -4 C358 -4 387 0 418 0 L514 0 Z M323 367 L326 386 C332 427 329 470 334 504 C341 546 360 572 419 572 L453 485 L436 367 L323 367 Z " />
<glyph glyph-name="f_f_i" unicode="&#xfb03;" horiz-adv-x="882" d="M801 0 C832 0 855 -4 870 -4 L872 11 L827 48 L884 388 L863 396 C846 388 780 367 721 367 L602 367 L605 386 C611 427 607 470 612 505 C619 546 639 572 706 572 L727 475 C732 449 756 433 788 433 C832 433 885 459 890 492 C900 550 789 598 716 598 C668 598 601 587 551 559 L551 561 C534 575 495 598 437 598 C337 598 179 538 162 405 L156 367 L75 367 L62 340 L151 340 L109 48 L46 11 L44 -4 C61 -4 90 0 120 0 L216 0 C247 0 290 -4 307 -4 L309 11 L267 43 L318 340 L431 340 L386 37 L351 11 L349 -4 C367 -4 397 0 426 0 L495 0 C526 0 560 -4 577 -4 C577 -4 579 11 579 11 L546 41 L596 340 L710 340 L666 40 L622 11 C621 11 620 -4 620 -4 C634 -4 675 0 705 0 L801 0 Z M323 367 L326 386 C332 427 328 470 333 505 C340 546 359 572 409 572 L452 474 L436 367 L323 367 Z " />
<glyph glyph-name="f_f_l" unicode="&#xfb04;" horiz-adv-x="882" d="M550 560 L550 561 C534 576 494 599 437 599 C336 599 178 539 161 406 L156 368 L74 368 L61 337 L151 337 L110 56 L46 16 L43 -3 C60 -3 90 0 120 0 L216 0 C247 0 290 -3 307 -3 L310 16 L268 48 L317 337 L430 337 L387 44 L352 16 L349 -3 C366 -3 396 0 426 0 L486 0 C517 0 560 -3 577 -3 L580 16 L547 50 L596 337 L709 337 L667 48 L622 16 L619 -3 C636 -3 674 0 705 0 L792 0 C823 0 851 -3 869 -3 L872 16 L827 56 L918 590 L897 597 C882 584 866 571 849 559 C832 574 775 599 716 599 C667 599 599 587 550 560 L550 560 Z M322 368 L325 387 C331 428 328 471 334 506 C340 547 359 570 409 570 L451 475 L435 368 L322 368 Z M601 368 L604 387 C610 428 607 471 613 506 C619 547 638 570 697 570 L731 486 L714 368 L601 368 Z " />
</font>
</svg>
