<?xml version="1.0" encoding="UTF-8"?>
<svg xmlns="http://www.w3.org/2000/svg" xmlns:xlink="http://www.w3.org/1999/xlink" version="1.2" >
<font id="Ar and Co">
<font-face  font-family="Ar and Co" units-per-em="1000" ascent="750" descent="-250" font-style="normal" font-weight="400" font-stretch="normal" cap-height="700" x-height="500" underline-position="-75" underline-thickness="50" />
<missing-glyph  horiz-adv-x="203" d="" />
<glyph glyph-name="NULL" d="" />
<glyph glyph-name="nonmarkingreturn" unicode="&#xd;" horiz-adv-x="203" d="" />
<glyph glyph-name="space" unicode="&#x20;" horiz-adv-x="203" d="" />
<glyph glyph-name="E" unicode="E" horiz-adv-x="518" d="M388 278 Q388 243 390.5 223.5 Q393 204 393 197 Q393 192 381 201.5 Q369 211 355 224 Q338 239 317 260 L282 260 L282 25 L379 25 L476 170 L490 170 Q490 167 489 148 Q488 129 486.5 105 Q485 81 484 57.5 Q483 34 483 22 L483 -3 Q474 -3 443 -2 Q417 -1 365.5 -0.5 Q314 0 224 0 L118 0 Q106 0 90.5 -0.5 Q75 -1 60 -1.5 Q45 -2 32.5 -2.5 Q20 -3 13 -3 L13 11 L101 51 L91 454 L9 493 L9 509 Q16 509 28.5 508 Q41 507 56 506.5 Q71 506 86 505 Q101 504 113 504 L224 504 Q311 504 360 504.5 Q409 505 433 506 Q461 507 468 509 L468 484 Q468 471 469 449 Q470 427 471.5 404.5 Q473 382 474 364 Q475 346 475 343 L460 343 L365 480 L282 480 L282 288 L317 288 Q337 305 354 318 Q368 329 380 337 Q392 345 392 340 Q392 333 390 320 Q388 307 388 278 Z " />
<glyph glyph-name="F" unicode="F" horiz-adv-x="493" d="M405 248 Q407 211 411 194.5 Q415 178 415 171 Q415 166 401 176.5 Q387 187 371 201 Q352 217 328 239 L281 239 L278 52 Q309 36 333 24 Q353 13 368.5 5 Q384 -3 380 -3 Q373 -3 356.5 -2.5 Q340 -2 320.5 -1.5 Q301 -1 282 -0.5 Q263 0 251 0 L117 0 Q105 0 89.5 -0.5 Q74 -1 59 -1.5 Q44 -2 31.5 -2.5 Q19 -3 13 -3 L13 11 L98 51 L93 454 L8 493 L8 509 Q15 509 27.5 508 Q40 507 55 506.5 Q70 506 85.5 505 Q101 504 113 504 L223 504 Q310 504 359 504.5 Q408 505 432 506 Q460 507 467 509 L467 484 Q467 472 468 450 Q469 428 470.5 405.5 Q472 383 473 364.5 Q474 346 474 343 L460 343 L364 480 L283 480 L281 264 L328 264 Q349 285 366 301 Q380 315 392 325 Q404 335 404 330 Q404 323 403 306.5 Q402 290 405 248 Z " />
<glyph glyph-name="G" unicode="G" horiz-adv-x="582" d="M237 243 Q237 189 240 145 Q243 101 252.5 70 Q262 39 279.5 22 Q297 5 327 6 Q342 6 355 10.5 Q368 15 378 20 Q389 26 400 34 L364 142 L306 179 L306 193 L448 193 Q505 193 576 194 L571 167 L538 145 L520 0 L509 -5 Q503 14 499 26.5 Q495 39 477 39 Q462 39 450 29.5 Q438 20 420 8.5 Q402 -3 374.5 -12.5 Q347 -22 301 -22 Q234 -22 184.5 -0.5 Q135 21 102 57.5 Q69 94 52.5 142 Q36 190 36 244 Q36 307 56.5 358 Q77 409 117 445 Q157 481 215.5 501 Q274 521 351 521 Q385 521 417.5 511.5 Q450 502 474.5 487.5 Q499 473 514 456.5 Q529 440 529 426 Q529 414 523 393.5 Q517 373 509 353.5 Q501 334 493 319.5 Q485 305 480 305 L472 312 Q436 364 407 404 Q394 421 381.5 438 Q369 455 358.5 468 Q348 481 340 489 Q332 497 328 497 Q296 497 278 481 Q260 465 251 433.5 Q242 402 239.5 354.5 Q237 307 237 243 Z " />
<glyph glyph-name="H" unicode="H" horiz-adv-x="703" d="M249 0 L119 0 Q107 0 92 -0.5 Q77 -1 62.5 -1.5 Q48 -2 35 -2.5 Q22 -3 15 -3 L15 11 L101 51 L91 454 L6 493 L6 509 Q13 509 25.5 508 Q38 507 52.5 506.5 Q67 506 82.5 505 Q98 504 110 504 L241 504 Q265 504 288.5 506.5 Q312 509 326 509 L326 493 L281 462 L281 292 L426 292 L426 463 L376 493 L376 509 Q390 509 412.5 506.5 Q435 504 459 504 L599 504 Q611 504 625 505 Q639 506 652.5 506.5 Q666 507 677 508 Q688 509 695 509 L695 493 L617 453 L607 51 L686 11 L686 -3 Q679 -3 667.5 -2.5 Q656 -2 642.5 -1.5 Q629 -1 615 -0.5 Q601 0 589 0 L459 0 Q435 0 412.5 -1.5 Q390 -3 376 -3 L376 11 L426 42 L426 258 L281 258 L281 42 L325 11 L325 -3 Q311 -3 292 -1.5 Q273 0 249 0 Z " />
<glyph glyph-name="I" unicode="I" horiz-adv-x="376" d="M265 0 L113 0 Q101 0 85.5 -0.5 Q70 -1 55 -1.5 Q40 -2 27.5 -2.5 Q15 -3 8 -3 L8 11 L95 51 L87 454 L4 493 L4 509 Q11 509 23 508 Q35 507 49.5 506.5 Q64 506 79 505 Q94 504 106 504 L269 504 Q281 504 295.5 505 Q310 506 323.5 506.5 Q337 507 348.5 508 Q360 509 367 509 L367 493 L288 453 L282 51 L362 11 L362 -3 Q355 -3 343.5 -2.5 Q332 -2 318.5 -1.5 Q305 -1 291 -0.5 Q277 0 265 0 Z " />
<glyph glyph-name="K" unicode="K" horiz-adv-x="712" d="M402 283 L505 259 L616 53 L708 11 L708 -3 Q694 -3 665.5 -1.5 Q637 0 615 0 L471 0 Q448 0 423 -1.5 Q398 -3 384 -3 L384 11 L430 40 L325 258 L282 258 L279 44 L332 11 L332 -3 Q318 -3 301.5 -1.5 Q285 0 261 0 L127 0 Q115 0 98 -0.5 Q81 -1 64.5 -1.5 Q48 -2 34 -2.5 Q20 -3 13 -3 L13 11 L99 51 L93 454 L9 493 L9 509 Q16 509 28 508 Q40 507 54.5 506.5 Q69 506 84.5 505 Q100 504 112 504 L266 504 Q290 504 311 506.5 Q332 509 346 509 L346 493 L283 456 L282 286 L356 286 L511 457 L444 493 L444 509 Q451 509 463 508 Q475 507 489 506.5 Q503 506 518 505 Q533 504 545 504 L563 504 Q586 504 611 506.5 Q636 509 650 509 L650 493 L552 453 L402 283 Z " />
<glyph glyph-name="J" unicode="J" horiz-adv-x="453" d="M171 453 L85 493 L85 509 Q92 509 104.5 508 Q117 507 132 506.5 Q147 506 162.5 505 Q178 504 190 504 L345 504 Q357 504 371 505 Q385 506 398.5 506.5 Q412 507 423 508 Q434 509 441 509 L441 493 L363 453 L363 141 Q363 59 308.5 22 Q254 -15 160 -15 Q133 -15 108 -10.5 Q83 -6 63 0 Q40 6 20 15 Q20 35 18.5 63 Q17 91 15.5 117 Q14 143 12.5 162.5 Q11 182 11 185 L29 185 L159 6 Q174 16 173.5 65.5 Q173 115 169 197 L171 453 Z " />
<glyph glyph-name="L" unicode="L" horiz-adv-x="501" d="M487 21 L487 -3 Q476 -3 445 -2 Q419 -1 367.5 -0.5 Q316 0 229 0 L113 0 Q101 0 85.5 -0.5 Q70 -1 55 -1.5 Q40 -2 27.5 -2.5 Q15 -3 8 -3 L8 11 L94 51 L88 454 L4 493 L4 509 Q11 509 23.5 508 Q36 507 51 506.5 Q66 506 81 505 Q96 504 108 504 L270 504 Q282 504 299 505 Q316 506 332.5 506.5 Q349 507 362.5 508 Q376 509 383 509 L383 493 L287 451 L283 25 L359 25 L479 195 L494 195 Q494 191 493 168 Q492 145 490.5 116.5 Q489 88 488 60.5 Q487 33 487 21 Z " />
<glyph glyph-name="M" unicode="M" horiz-adv-x="782" d="M343 -3 L261 -3 L120 411 L128 46 L193 11 L193 -3 Q179 -3 159 -1.5 Q139 0 115 0 L97 0 Q85 0 72 -0.5 Q59 -1 46 -1.5 Q33 -2 22.5 -2.5 Q12 -3 5 -3 L5 11 L89 50 L91 460 L16 493 L16 509 Q23 509 35.5 508 Q48 507 63 506.5 Q78 506 93 505 Q108 504 120 504 L260 504 Q284 504 311.5 506.5 Q339 509 353 509 L353 493 L294 460 L376 169 L499 461 L438 493 L438 509 Q445 509 457.5 508 Q470 507 485 506.5 Q500 506 515.5 505 Q531 504 543 504 L669 504 Q681 504 695 505 Q709 506 722.5 506.5 Q736 507 747 508 Q758 509 765 509 L765 493 L688 454 L698 50 L771 11 L771 -3 Q757 -3 731.5 -1.5 Q706 0 681 0 L534 0 Q509 0 481 -1.5 Q453 -3 439 -3 L439 11 L512 48 L509 416 L343 -3 Z " />
<glyph glyph-name="N" unicode="N" horiz-adv-x="626" d="M496 457 L428 493 L428 509 Q441 508 461.5 506 Q482 504 505 504 L527 504 Q552 504 579.5 506.5 Q607 509 621 509 L621 493 L536 454 L522 51 L607 11 L607 -3 Q593 -3 570 -1.5 Q547 0 524 0 Q513 0 486.5 -0.5 Q460 -1 432 -2 Q399 -3 362 -3 L130 420 L133 51 L211 11 L211 -3 Q197 -3 172 -1.5 Q147 0 123 0 L103 0 Q78 0 50.5 -1.5 Q23 -3 10 -3 L10 11 L94 51 L103 453 L18 493 L18 509 Q25 509 37.5 508 Q50 507 65 506.5 Q80 506 95 505 Q110 504 122 504 L285 504 L306 462 L496 87 L496 457 Z " />
<glyph glyph-name="O" unicode="O" horiz-adv-x="642" d="M299 -22 Q232 -22 182.5 -1.5 Q133 19 100 55 Q67 91 50.5 138.5 Q34 186 34 240 Q34 299 54 350.5 Q74 402 113 440 Q152 478 209 499.5 Q266 521 339 521 Q406 521 456 500 Q506 479 539 443.5 Q572 408 588.5 360 Q605 312 605 258 Q605 198 585 147 Q565 96 526 58.5 Q487 21 430 -0.5 Q373 -22 299 -22 Z M292 495 Q260 491 244.5 473 Q229 455 224.5 422.5 Q220 390 224 342.5 Q228 295 236 232 Q252 111 276.5 54 Q301 -3 346 3 Q377 7 392.5 25 Q408 43 413 76 Q418 109 414.5 156.5 Q411 204 402 267 Q386 387 362 444 Q338 501 292 495 Z " />
<glyph glyph-name="P" unicode="P" horiz-adv-x="575" d="M256 0 L117 0 Q105 0 90 -0.5 Q75 -1 60 -1.5 Q45 -2 32.5 -2.5 Q20 -3 13 -3 L13 11 L98 51 L93 454 L8 493 L8 509 Q15 509 27.5 508 Q40 507 55 506.5 Q70 506 85.5 505 Q101 504 113 504 L221 504 Q250 504 281 506.5 Q312 509 344 509 Q452 509 505 481 Q558 453 558 387 Q558 314 496 276 Q434 238 306 238 L281 238 L278 59 L389 11 L389 -3 Q382 -3 365 -2.5 Q348 -2 327.5 -1.5 Q307 -1 287.5 -0.5 Q268 0 256 0 Z M283 480 L281 262 L288 262 Q316 262 333 271 Q350 280 359.5 296.5 Q369 313 372.5 335.5 Q376 358 376 384 Q376 436 367 460.5 Q358 485 319 485 Q311 485 304.5 484 Q298 483 293 482 Q288 481 283 480 Z " />
<glyph glyph-name="Q" unicode="Q" horiz-adv-x="642" d="M719 -37 Q728 -46 725 -59.5 Q722 -73 714 -87 Q705 -103 690 -120 Q649 -127 607 -123 Q565 -119 528 -111 Q491 -103 463.5 -94 Q436 -85 425 -80 Q393 -67 359 -55 Q325 -43 298 -35 Q265 -25 236 -17 Q200 -11 172 4 Q104 36 69 99.5 Q34 163 34 240 Q34 299 54 350.5 Q74 402 113 440 Q152 478 209 499.5 Q266 521 339 521 Q406 521 456 500 Q506 479 539 443.5 Q572 408 588.5 360 Q605 312 605 258 Q605 209 591.5 166 Q578 123 552 88 Q526 53 487.5 27.5 Q449 2 399 -11 Q420 -20 445 -26.5 Q470 -33 496.5 -36.5 Q523 -40 549.5 -41.5 Q576 -43 601 -43 Q659 -43 719 -37 Z M303 496 Q271 493 254.5 476 Q238 459 232 426.5 Q226 394 228 346.5 Q230 299 236 236 Q247 114 268.5 56 Q290 -2 336 2 Q367 5 383.5 22.5 Q400 40 406 72.5 Q412 105 410.5 152.5 Q409 200 403 263 Q392 384 370.5 442.5 Q349 501 303 496 Z " />
<glyph glyph-name="R" unicode="R" horiz-adv-x="653" d="M499 215 Q510 177 524 146 Q538 115 551 93 Q566 67 582 47 L649 11 L649 -3 Q635 -3 609 -1.5 Q583 0 559 0 Q536 0 510.5 -0.5 Q485 -1 463 -2 Q437 -3 412 -3 Q396 30 378 70 Q363 104 344 149.5 Q325 195 306 246 L281 246 L279 45 L340 11 L340 -3 Q326 -3 303 -1.5 Q280 0 256 0 L118 0 Q106 0 90.5 -0.5 Q75 -1 60 -1.5 Q45 -2 32.5 -2.5 Q20 -3 13 -3 L13 11 L99 51 L93 454 L9 493 L9 509 Q16 509 28.5 508 Q41 507 56 506.5 Q71 506 86 505 Q101 504 113 504 L221 504 Q250 504 281 506.5 Q312 509 344 509 Q445 509 489 477.5 Q533 446 535 392 Q536 360 523 334 Q510 308 485.5 289.5 Q461 271 425.5 261 Q390 251 346 251 Q382 250 414 246 Q440 242 465.5 235.5 Q491 229 499 215 Z M283 480 L281 269 L288 269 Q316 269 333 277.5 Q350 286 360 302 Q370 318 373.5 339.5 Q377 361 377 387 Q377 439 367.5 462 Q358 485 319 485 Q311 485 304.5 484 Q298 483 293 482 Q288 481 283 480 Z " />
<glyph glyph-name="S" unicode="S" horiz-adv-x="475" d="M54 173 L191 3 Q263 3 292 20.5 Q321 38 321 82 Q321 105 300 121 Q279 137 247.5 150.5 Q216 164 179 178 Q142 192 110.5 212.5 Q79 233 58 263 Q37 293 37 337 Q37 381 55.5 415 Q74 449 106 472.5 Q138 496 180 508.5 Q222 521 270 521 Q307 521 335.5 514 Q364 507 384 499 Q407 489 424 478 Q424 460 425 439.5 Q426 419 427.5 401 Q429 383 430.5 369.5 Q432 356 432 353 L415 353 L289 496 Q263 496 238.5 491.5 Q214 487 194.5 477 Q175 467 163 452.5 Q151 438 151 419 Q151 395 174 378.5 Q197 362 231.5 348 Q266 334 306.5 320 Q347 306 381.5 285.5 Q416 265 439 235.5 Q462 206 462 162 Q462 80 401 29 Q340 -22 218 -22 Q182 -22 150.5 -15.5 Q119 -9 96 -1 Q69 8 45 20 Q45 42 43.5 67.5 Q42 93 40.5 115.5 Q39 138 38 154 Q37 170 37 173 L54 173 Z " />
<glyph glyph-name="T" unicode="T" horiz-adv-x="574" d="M382 54 L479 11 L479 -3 Q472 -3 457 -2.5 Q442 -2 424.5 -1.5 Q407 -1 389.5 -0.5 Q372 0 360 0 L216 0 Q204 0 186.5 -0.5 Q169 -1 151.5 -1.5 Q134 -2 119 -2.5 Q104 -3 97 -3 L97 11 L192 54 L198 480 L144 480 L32 316 L17 316 Q17 319 18 341.5 Q19 364 20.5 391.5 Q22 419 23.5 445.5 Q25 472 25 484 L25 509 Q39 507 68 506 Q93 505 136 504.5 Q179 504 249 504 L325 504 Q395 504 439 504.5 Q483 505 508 506 Q537 507 550 509 L550 484 Q550 471 551 444.5 Q552 418 553.5 390.5 Q555 363 556.5 341 Q558 319 558 316 L543 316 L430 480 L377 480 L382 54 Z " />
<glyph glyph-name="U" unicode="U" horiz-adv-x="663" d="M623 457 L615 180 Q613 122 594.5 83.5 Q576 45 542.5 22 Q509 -1 460.5 -10.5 Q412 -20 349 -20 Q286 -20 239.5 -12 Q193 -4 161.5 16.5 Q130 37 114 72.5 Q98 108 97 162 L92 457 L6 493 L6 509 Q13 509 25.5 508 Q38 507 53 506.5 Q68 506 83.5 505 Q99 504 111 504 L281 504 L281 460 L277 126 Q277 96 278.5 73 Q280 50 287 35 Q294 20 308.5 12 Q323 4 348 4 Q399 4 417.5 40.5 Q436 77 435 144 L433 461 L378 501 L378 509 Q392 509 420.5 506.5 Q449 504 473 504 L623 504 L623 457 Z " />
<glyph glyph-name="V" unicode="V" horiz-adv-x="680" d="M435 149 Q460 213 478 262 Q496 311 508.5 348.5 Q521 386 528 412.5 Q535 439 538 457 L466 493 L466 509 Q480 509 507 506.5 Q534 504 558 504 L588 504 Q612 504 637 506.5 Q662 509 676 509 L676 493 L594 455 L427 53 L506 11 L506 -3 Q492 -3 464 -1.5 Q436 0 413 0 L268 0 Q256 0 239 -0.5 Q222 -1 205.5 -1.5 Q189 -2 175.5 -2.5 Q162 -3 155 -3 L155 11 L237 48 L89 453 L7 493 L7 509 Q14 509 25 508 Q36 507 49.5 506.5 Q63 506 77 505 Q91 504 103 504 L285 505 L299 457 L410 85 L435 149 Z " />
<glyph glyph-name="W" unicode="W" horiz-adv-x="909" d="M455 509 L585 509 L717 107 L729 167 Q741 231 748.5 277.5 Q756 324 760 357.5 Q764 391 765.5 414 Q767 437 768 454 L687 493 L687 509 Q693 509 705 508 Q717 507 731 506.5 Q745 506 759.5 505 Q774 504 786 504 L815 504 Q840 504 864.5 506.5 Q889 509 903 509 L903 493 L824 454 L734 55 L819 11 L819 -3 Q805 -3 780.5 -1.5 Q756 0 733 0 L589 0 Q565 0 544.5 -1.5 Q524 -3 510 -3 L510 11 L559 43 L449 334 L381 48 L438 11 L438 -3 Q424 -3 407 -1.5 Q390 0 365 0 L242 0 Q230 0 212 -0.5 Q194 -1 176 -1.5 Q158 -2 143 -2.5 Q128 -3 121 -3 L121 11 L204 51 L84 456 L6 493 L6 509 Q13 509 25.5 508 Q38 507 53 506.5 Q68 506 83.5 505 Q99 504 111 504 L281 504 L291 454 L367 105 L455 509 Z " />
<glyph glyph-name="X" unicode="X" horiz-adv-x="678" d="M281 201 L145 44 L210 11 L210 -3 Q196 -3 168.5 -1.5 Q141 0 117 0 L88 0 Q65 0 44 -1.5 Q23 -3 10 -3 L10 11 L99 51 L266 224 L111 454 L30 493 L30 509 Q37 509 48.5 508 Q60 507 73.5 506.5 Q87 506 101 505 Q115 504 127 504 L307 504 L332 462 L409 331 L517 464 L452 493 L452 509 Q458 509 470 508 Q482 507 496 506.5 Q510 506 524.5 505 Q539 504 551 504 L570 504 Q594 504 612.5 506.5 Q631 509 645 509 L645 493 L569 456 L425 305 L584 51 L670 11 L670 -3 Q657 -3 633.5 -1.5 Q610 0 587 0 L420 0 Q408 0 393 -0.5 Q378 -1 363.5 -1.5 Q349 -2 336.5 -2.5 Q324 -3 317 -3 L317 11 L384 43 L281 201 Z " />
<glyph glyph-name="Y" unicode="Y" horiz-adv-x="641" d="M414 54 L516 11 L516 -3 Q509 -3 494 -2.5 Q479 -2 461.5 -1.5 Q444 -1 426 -0.5 Q408 0 396 0 L253 0 Q241 0 223.5 -0.5 Q206 -1 188.5 -1.5 Q171 -2 156 -2.5 Q141 -3 134 -3 L134 11 L234 54 L233 210 L89 454 L7 493 L7 509 Q21 509 45.5 506.5 Q70 504 94 504 L256 504 L281 462 L405 264 Q443 328 466.5 380.5 Q490 433 498 459 L430 494 L430 509 Q444 509 471 506.5 Q498 504 521 504 L546 504 Q570 504 595 506.5 Q620 509 634 509 L634 493 L550 454 L417 235 L414 54 Z " />
<glyph glyph-name="Z" unicode="Z" horiz-adv-x="509" d="M485 22 L485 -3 Q452 -3 404 -2 Q362 -1 298 -0.5 Q234 0 144 0 Q134 0 116 -0.5 Q98 -1 79.5 -1.5 Q61 -2 45 -2.5 Q29 -3 22 -3 L13 17 L254 480 L171 480 L43 316 L26 316 Q26 319 27 341.5 Q28 364 29.5 391.5 Q31 419 32 445.5 Q33 472 33 484 L33 509 Q58 507 101 506 Q137 505 196 504.5 Q255 504 341 504 Q354 504 374.5 504.5 Q395 505 416 505.5 Q437 506 454.5 507 Q472 508 480 508 L487 493 L201 25 L347 25 L475 197 L493 197 Q493 194 491.5 170.5 Q490 147 488.5 118.5 Q487 90 486 62 Q485 34 485 22 Z " />
<glyph glyph-name="a" unicode="a" horiz-adv-x="490" d="M423 49 L482 12 L482 -3 Q470 -3 449 -1.5 Q428 0 405 0 L275 0 L257 30 Q237 13 218.5 4.5 Q200 -4 186 -8 Q169 -12 155 -13 Q125 -13 100.5 -8 Q76 -3 59 9 Q42 21 32.5 42 Q23 63 23 95 Q23 128 36.5 149 Q50 170 75 184 Q100 198 135.5 206.5 Q171 215 215 222 L256 222 L255 336 Q250 339 245 343 Q240 346 233 348.5 Q226 351 217 351 Q199 351 185.5 344.5 Q172 338 163 327.5 Q154 317 150 304 Q146 291 146 278 L52 268 Q39 273 39 290 Q39 313 58 332 Q77 351 110 364.5 Q143 378 188 385.5 Q233 393 285 393 Q312 393 337.5 387.5 Q363 382 382.5 369.5 Q402 357 414 336.5 Q426 316 426 286 L423 49 Z M256 197 L234 197 Q222 197 213.5 194 Q205 191 200 182 Q195 173 192.5 155.5 Q190 138 190 109 Q190 81 191 65.5 Q192 50 194.5 42 Q197 34 201 32 Q205 30 210 30 Q224 30 234 36.5 Q244 43 257 53 L256 197 Z " />
<glyph glyph-name="b" unicode="b" horiz-adv-x="544" d="M252 357 Q281 370 312.5 381.5 Q344 393 364 393 Q391 393 419 384.5 Q447 376 469.5 354.5 Q492 333 506 296.5 Q520 260 520 205 Q520 106 459 50.5 Q398 -5 281 -5 Q254 -5 225 1 Q196 7 155 7 Q148 7 137.5 6 Q127 5 116 3 Q104 1 89 0 L83 502 Q69 497 47 493.5 Q25 490 8 490 L6 496 Q4 502 4 503 Q21 508 51 519 Q81 530 114.5 544.5 Q148 559 180 575 Q212 591 232 606 L254 590 L252 357 Z M251 325 L248 24 Q252 22 261.5 19.5 Q271 17 285 17 Q318 17 331 56 Q344 95 344 194 Q344 238 341.5 267.5 Q339 297 333.5 315 Q328 333 319 340.5 Q310 348 298 348 Q289 348 281 344.5 Q273 341 266 336 Q258 331 251 325 Z " />
<glyph glyph-name="c" unicode="c" horiz-adv-x="414" d="M388 328 L372 280 Q367 266 360.5 252.5 Q354 239 348 228.5 Q342 218 338 211 Q334 204 334 204 L321 214 L239 369 Q222 369 213 361 Q204 353 199.5 332.5 Q195 312 193.5 277.5 Q192 243 191 190 Q190 148 194 120 Q198 92 208 75 Q218 58 235 51 Q252 44 277 44 Q297 44 314.5 50.5 Q332 57 346 67 Q360 77 370 90 Q380 103 385 116 L398 97 Q388 76 372.5 56 Q357 36 335 20.5 Q313 5 285 -4 Q257 -13 221 -13 Q179 -13 141 -1 Q103 11 75 35 Q47 59 30.5 96.5 Q14 134 14 185 Q14 232 32.5 270.5 Q51 309 82.5 336 Q114 363 155.5 378 Q197 393 244 393 Q287 393 314.5 382.5 Q342 372 359 360 Q378 346 388 328 Z " />
<glyph glyph-name="d" unicode="d" horiz-adv-x="515" d="M402 0 L297 0 L288 29 Q273 21 256.5 13.5 Q240 6 224.5 0.5 Q209 -5 195 -8.5 Q181 -12 171 -12 Q144 -12 116 -3.5 Q88 5 65.5 26.5 Q43 48 29 84 Q15 120 15 176 Q15 274 76 330 Q137 386 255 386 Q263 386 268.5 385.5 Q274 385 283 385 L282 498 Q269 496 256 494 Q245 492 231.5 491 Q218 490 207 490 L203 503 Q220 509 250 520 Q280 531 313.5 545.5 Q347 560 379 575.5 Q411 591 431 606 L454 590 L447 49 L499 12 L499 -3 Q485 -3 460.5 -1.5 Q436 0 402 0 Z M287 56 L283 357 Q278 359 269.5 360.5 Q261 362 250 362 Q233 362 222 353 Q211 344 204.5 323.5 Q198 303 195 269.5 Q192 236 192 187 Q192 143 194.5 113.5 Q197 84 202.5 66 Q208 48 216.5 40.5 Q225 33 238 33 Q245 33 253 36 Q261 39 267.5 43 Q274 47 279.5 50.5 Q285 54 287 56 Z " />
<glyph glyph-name="e" unicode="e" horiz-adv-x="450" d="M234 -13 Q188 -13 147.5 -1 Q107 11 77 35 Q47 59 30 96.5 Q13 134 13 185 Q13 232 32 270.5 Q51 309 83 336 Q115 363 157.5 378 Q200 393 247 393 Q289 393 323.5 379 Q358 365 382 340 Q406 315 419 282 Q432 249 432 210 L296 186 L190 183 L190 160 Q190 106 210 73 Q230 40 281 40 Q304 40 325.5 47 Q347 54 364 65 Q381 76 393.5 89.5 Q406 103 411 116 L426 104 Q418 83 401.5 62.5 Q385 42 360.5 25 Q336 8 304.5 -2.5 Q273 -13 234 -13 Z M262 214 Q262 296 258 332.5 Q254 369 234 369 Q220 369 211.5 361 Q203 353 198.5 334.5 Q194 316 192 285 Q190 254 190 208 L262 214 Z " />
<glyph glyph-name="f" unicode="f" horiz-adv-x="470" d="M380 455 L324 572 Q273 572 257 554.5 Q241 537 241 505 Q241 479 251 448.5 Q261 418 261 386 L261 367 L401 367 L394 340 L261 340 L257 53 L340 12 L340 -3 Q334 -3 320 -2.5 Q306 -2 289 -1.5 Q272 -1 254 -0.5 Q236 0 221 0 L134 0 Q105 0 79.5 -1.5 Q54 -3 40 -3 L40 12 L98 49 L94 340 L5 340 L13 367 L94 367 L94 405 Q92 455 114.5 491.5 Q137 528 172.5 552 Q208 576 250 587.5 Q292 599 330 599 Q361 599 386 591 Q411 583 428 574 Q448 563 463 550 Q452 530 441 512 Q432 496 421 479 Q410 462 401 448 L380 455 Z " />
<glyph glyph-name="g" unicode="g" horiz-adv-x="504" d="M322 86 Q416 86 456.5 51 Q497 16 497 -41 Q497 -89 474 -123 Q451 -157 411.5 -178 Q372 -199 318 -209 Q264 -219 202 -219 Q107 -219 58 -200 Q9 -181 9 -136 Q9 -101 53 -78 Q62 -73 75 -72.5 Q88 -72 100 -75 Q112 -78 120.5 -85 Q129 -92 129 -101 Q129 -122 141.5 -138 Q154 -154 174 -165 Q194 -176 220.5 -182 Q247 -188 276 -188 Q315 -188 343.5 -172.5 Q372 -157 372 -123 Q372 -98 351.5 -77 Q331 -56 283 -56 Q247 -57 215 -56 Q188 -56 160.5 -54.5 Q133 -53 120 -51 Q106 -49 89.5 -42.5 Q73 -36 58.5 -24.5 Q44 -13 34.5 3.5 Q25 20 25 41 Q25 79 61.5 104 Q98 129 161 142 Q146 146 125 153 Q104 160 85 172.5 Q66 185 52.5 203.5 Q39 222 39 251 Q39 291 60.5 318.5 Q82 346 114.5 362.5 Q147 379 186 386 Q225 393 261 393 Q293 393 323.5 385.5 Q354 378 371 367 Q389 388 410 398 Q428 406 450.5 403.5 Q473 401 497 373 L493 345 Q476 362 460.5 363.5 Q445 365 432 360 Q417 354 404 340 Q417 330 428.5 312.5 Q440 295 440 270 Q440 229 420 201.5 Q400 174 368.5 157.5 Q337 141 298.5 133.5 Q260 126 222 126 L175 126 Q160 114 160 105 Q160 86 195 86 L322 86 Z M247 368 Q234 368 225.5 363.5 Q217 359 211.5 346.5 Q206 334 203.5 312 Q201 290 201 255 Q201 195 209 172.5 Q217 150 236 150 Q248 150 256.5 154.5 Q265 159 270 171.5 Q275 184 277 206 Q279 228 279 263 Q279 322 272.5 345 Q266 368 247 368 Z " />
<glyph glyph-name="h" unicode="h" horiz-adv-x="572" d="M345 329 Q341 330 337 331 Q333 332 327.5 333 Q322 334 317 334 Q308 334 291 331.5 Q274 329 261 323 L258 33 L286 12 L286 -3 Q274 -3 253.5 -1.5 Q233 0 210 0 L116 0 Q93 0 72.5 -1.5 Q52 -3 41 -3 L41 12 L98 49 L93 502 Q80 499 67 496 Q56 494 42 492 Q28 490 17 490 L14 503 Q31 509 61 520 Q91 531 124 545 Q157 559 189 575.5 Q221 592 241 607 L264 586 L261 346 Q276 354 295 362.5 Q314 371 335 377.5 Q356 384 377 388.5 Q398 393 416 393 Q431 393 447.5 390 Q464 387 478.5 378 Q493 369 502.5 352.5 Q512 336 512 310 L507 50 L566 12 L566 -3 Q553 -3 532.5 -1.5 Q512 0 489 0 Q458 0 432 -0.5 Q406 -1 386 -2 Q363 -3 345 -3 L345 329 Z " />
<glyph glyph-name="i" unicode="i" horiz-adv-x="326" d="M235 0 L112 0 Q89 0 68.5 -1.5 Q48 -3 37 -3 L37 12 L94 49 L91 299 Q82 296 71 294 Q51 289 28 289 L25 302 Q47 310 73.5 320.5 Q100 331 128 343.5 Q156 356 183.5 369.5 Q211 383 235 396 L257 389 L253 49 L305 12 Q313 7 313 2 Q313 -3 305 -3 Q293 -3 275.5 -1.5 Q258 0 235 0 Z M182 556 Q202 551 219 543 Q233 536 244.5 526 Q256 516 256 502 Q256 485 240.5 473 Q225 461 207 452 Q185 441 158 434 Q137 439 121 447 Q107 454 96 463.5 Q85 473 85 487 Q85 504 100 516.5 Q115 529 133 538 Q154 549 182 556 Z " />
<glyph glyph-name="j" unicode="j" horiz-adv-x="311" d="M266 -67 Q266 -96 252 -118 Q238 -140 216 -156.5 Q194 -173 166.5 -184 Q139 -195 112 -202 Q85 -209 61 -212 Q37 -215 21 -215 L14 -203 Q26 -201 42.5 -196 Q59 -191 75 -178.5 Q91 -166 101.5 -143.5 Q112 -121 112 -83 L105 299 Q97 296 86 294 Q66 289 43 289 L39 302 Q61 309 88 320.5 Q115 332 143.5 344.5 Q172 357 199.5 370.5 Q227 384 250 396 L272 389 L266 -67 Z M197 556 Q217 551 234 543 Q248 536 259.5 526 Q271 516 271 502 Q271 485 255.5 473 Q240 461 222 452 Q200 441 173 434 Q152 439 136 447 Q122 454 111 463.5 Q100 473 100 487 Q100 504 115 516.5 Q130 529 148 538 Q169 549 197 556 Z " />
<glyph glyph-name="k" unicode="k" horiz-adv-x="608" d="M594 10 L594 -3 Q580 -3 555.5 -1.5 Q531 0 508 0 Q484 0 459 -0.5 Q434 -1 414 -2 Q390 -3 368 -3 L278 204 L254 204 L253 42 L298 12 L298 -3 Q281 -3 264.5 -1.5 Q248 0 222 0 L111 0 Q88 0 68.5 -1.5 Q49 -3 36 -3 L36 12 L93 49 L88 501 Q76 498 64 495 Q39 490 11 490 L9 503 Q26 509 56 520 Q86 531 119 545.5 Q152 560 184 575.5 Q216 591 236 606 L259 590 L256 382 Q273 388 309 399 Q345 410 383.5 413 Q422 416 454 405.5 Q486 395 495 358 Q498 344 493.5 329.5 Q489 315 479 301.5 Q469 288 455.5 276.5 Q442 265 428 257 L415 249 L534 44 L594 10 Z M341 246 Q362 267 364 285.5 Q366 304 353 316.5 Q340 329 314.5 333 Q289 337 256 327 L254 230 L324 230 L341 246 Z " />
<glyph glyph-name="l" unicode="l" horiz-adv-x="315" d="M234 0 L111 0 Q88 0 68.5 -1.5 Q49 -3 36 -3 L36 12 L93 49 L88 502 Q76 499 63 496 Q52 494 38 492 Q24 490 11 490 L9 503 Q26 509 56 520.5 Q86 532 119 546 Q152 560 184 575.5 Q216 591 236 606 L259 590 L252 49 L304 12 L304 -3 Q290 -3 273.5 -1.5 Q257 0 234 0 Z " />
<glyph glyph-name="m" unicode="m" horiz-adv-x="808" d="M581 329 Q578 330 574 331 Q570 332 565 333 Q560 334 555 334 Q546 334 528.5 331.5 Q511 329 497 322 Q497 321 498 319 Q498 317 498.5 314.5 Q499 312 499 309 L495 32 L522 12 L522 -3 Q510 -3 485 -1.5 Q460 0 437 0 Q417 0 398 -0.5 Q379 -1 365 -2 Q347 -3 333 -3 L333 329 Q330 330 326 331 Q322 332 317 333 Q312 334 307 334 Q298 334 280.5 331.5 Q263 329 251 323 L247 35 L280 12 L280 -3 Q267 -3 242 -1.5 Q217 0 194 0 L115 0 Q92 0 67 -1.5 Q42 -3 30 -3 L30 12 L88 49 L84 299 Q75 296 65 293 Q57 291 46 289 Q35 287 23 287 L20 302 Q41 309 67.5 320 Q94 331 121.5 344 Q149 357 176 370.5 Q203 384 226 396 L248 389 L248 346 Q263 354 282.5 362.5 Q302 371 323.5 377.5 Q345 384 366.5 388.5 Q388 393 406 393 Q429 393 454 383.5 Q479 374 493 343 Q509 352 529 361 Q549 370 571 377 Q593 384 614.5 388.5 Q636 393 654 393 Q669 393 685.5 389.5 Q702 386 716 377 Q730 368 739 351.5 Q748 335 748 309 L743 50 L802 12 L802 -3 Q789 -3 764 -1.5 Q739 0 716 0 Q690 0 666 -0.5 Q642 -1 623 -2 Q601 -3 581 -3 L581 329 Z " />
<glyph glyph-name="n" unicode="n" horiz-adv-x="569" d="M338 329 Q334 330 330 331 Q326 332 320.5 333 Q315 334 310 334 Q301 334 283.5 331.5 Q266 329 254 323 L251 32 L279 10 L279 -3 Q267 -3 246.5 -1.5 Q226 0 203 0 L109 0 Q86 0 65.5 -1.5 Q45 -3 34 -3 L34 12 L91 49 L88 300 Q79 297 68 294 Q59 292 48.5 290 Q38 288 27 288 L24 303 Q44 310 69.5 320.5 Q95 331 123 343.5 Q151 356 178.5 369.5 Q206 383 230 396 L251 389 L251 346 Q266 354 285.5 362.5 Q305 371 326.5 377.5 Q348 384 369.5 388.5 Q391 393 409 393 Q424 393 440.5 389.5 Q457 386 471.5 377 Q486 368 495 351.5 Q504 335 504 309 L500 50 L558 10 L558 -3 Q546 -3 525.5 -1.5 Q505 0 482 0 Q453 0 427 -0.5 Q401 -1 381 -2 Q357 -3 338 -3 L338 329 Z " />
<glyph glyph-name="o" unicode="o" horiz-adv-x="478" d="M211 -13 Q167 -13 130 0.5 Q93 14 66 39.5 Q39 65 24 100.5 Q9 136 9 181 Q9 227 29 266 Q49 305 83.5 333.5 Q118 362 162.5 377.5 Q207 393 257 393 Q301 393 338 379.5 Q375 366 401.5 340.5 Q428 315 443 279 Q458 243 458 198 Q458 151 438 112 Q418 73 384 45.5 Q350 18 305 2.5 Q260 -13 211 -13 Z M207 367 Q196 365 188 359 Q180 353 176.5 334 Q173 315 175 280 Q177 245 186 186 Q194 130 203 95 Q212 60 221.5 41.5 Q231 23 240.5 17 Q250 11 260 13 Q271 14 279 20.5 Q287 27 290.5 46 Q294 65 292 100 Q290 135 282 194 Q274 253 265 288 Q256 323 246.5 341 Q237 359 227 363.5 Q217 368 207 367 Z " />
<glyph glyph-name="p" unicode="p" horiz-adv-x="545" d="M233 -211 L109 -211 Q86 -211 62 -213 Q38 -215 25 -215 L25 -201 L92 -163 L87 299 Q79 296 69 293 Q61 291 49.5 289 Q38 287 27 287 L24 303 Q40 308 64 318 Q88 328 115.5 340 Q143 352 172 366.5 Q201 381 228 395 L253 387 L252 356 Q281 369 314 381 Q347 393 367 393 Q394 393 422 384.5 Q450 376 472 354.5 Q494 333 508 296.5 Q522 260 522 205 Q522 106 461 50.5 Q400 -5 283 -5 Q275 -5 268 -5 Q261 -5 250 -4 L249 -161 L329 -201 L329 -215 Q315 -215 285.5 -213 Q256 -211 233 -211 Z M252 326 L250 23 Q255 21 265 19 Q275 17 287 17 Q320 17 333 56 Q346 95 346 194 Q346 238 343.5 267.5 Q341 297 335.5 314.5 Q330 332 321 339.5 Q312 347 300 347 Q284 347 271 338 Q258 329 252 326 Z " />
<glyph glyph-name="q" unicode="q" horiz-adv-x="498" d="M288 36 Q273 28 256.5 20.5 Q240 13 224.5 7.5 Q209 2 195 -1.5 Q181 -5 171 -5 Q144 -5 116 3.5 Q88 12 65.5 33.5 Q43 55 29 91 Q15 127 15 183 Q15 281 76 337 Q137 393 254 393 Q289 393 318.5 387.5 Q348 382 372 377 Q396 372 416.5 368.5 Q437 365 454 370 L446 -156 L507 -193 L507 -208 Q493 -208 472 -206 Q451 -204 428 -204 L306 -204 Q294 -204 277.5 -204.5 Q261 -205 244.5 -206 Q228 -207 214 -207.5 Q200 -208 194 -208 L194 -193 L288 -149 L288 36 Z M287 63 L283 365 Q278 367 269.5 368.5 Q261 370 250 370 Q217 370 204 331 Q191 292 191 194 Q191 150 193.5 120.5 Q196 91 201.5 73 Q207 55 216 47.5 Q225 40 237 40 Q252 40 267 50 Q282 60 287 63 Z " />
<glyph glyph-name="r" unicode="r" horiz-adv-x="457" d="M294 331 Q283 329 276 327.5 Q269 326 264 325 Q258 323 254 323 L251 54 L327 12 L327 -3 Q321 -3 310 -2.5 Q299 -2 285.5 -1.5 Q272 -1 258 -0.5 Q244 0 233 0 L109 0 Q98 0 84.5 -0.5 Q71 -1 60 -2 Q47 -3 34 -3 L34 12 L91 49 L88 300 Q79 297 68 294 Q59 292 48.5 290 Q38 288 27 288 L24 303 Q65 317 120 342 Q175 367 230 396 L251 389 L251 346 Q280 362 308 377.5 Q336 393 359 393 Q393 393 413.5 370.5 Q434 348 434 319 Q420 283 409.5 259 Q399 235 392.5 220 Q386 205 382 198 Q378 191 377 189 L359 197 L294 331 Z " />
<glyph glyph-name="s" unicode="s" horiz-adv-x="373" d="M52 123 L153 20 Q217 20 217 60 Q217 83 203.5 96 Q190 109 169.5 118.5 Q149 128 125 137 Q101 146 80.5 160 Q60 174 46.5 196.5 Q33 219 33 256 Q33 293 50 319.5 Q67 346 94 362 Q121 378 154 385.5 Q187 393 219 393 Q245 393 266 389 Q287 385 301 380 Q318 374 329 367 Q330 337 333 309 Q336 281 336 274 L319 274 L228 371 Q206 371 189 365 Q172 359 172 337 Q172 313 186 299 Q200 285 220.5 274.5 Q241 264 265.5 254 Q290 244 310.5 229.5 Q331 215 345 192.5 Q359 170 359 134 Q359 92 340 65 Q321 38 291.5 23 Q262 8 225.5 2.5 Q189 -3 153 -3 Q124 -3 103.5 1 Q83 5 69 10 Q53 15 43 23 Q43 34 42 49.5 Q41 65 39.5 80 Q38 95 37 107 Q36 119 36 123 L52 123 Z " />
<glyph glyph-name="t" unicode="t" horiz-adv-x="434" d="M257 117 Q257 104 263 94 Q269 84 278 76.5 Q287 69 298 65 Q309 61 319 61 Q339 61 361 69.5 Q383 78 400 92 Q402 94 404.5 89 Q407 84 407 80 Q407 74 388 60 Q369 46 341 32 Q313 18 280.5 7 Q248 -4 221 -4 Q201 -4 178.5 1.5 Q156 7 137.5 20.5 Q119 34 107.5 55 Q96 76 96 108 L101 349 L11 349 L11 372 Q87 386 151.5 420.5 Q216 455 253 503 L274 508 Q274 498 271 460.5 Q268 423 266 376 L416 376 L409 349 L266 349 L257 117 Z " />
<glyph glyph-name="u" unicode="u" horiz-adv-x="562" d="M554 0 Q548 0 536.5 0.5 Q525 1 511.5 2 Q498 3 484 3.5 Q470 4 459 4 Q402 4 368.5 2 Q335 0 336 0 L336 36 Q322 28 303 20 Q284 12 263 5 Q242 -2 221 -6.5 Q200 -11 182 -11 Q167 -11 150.5 -8 Q134 -5 119.5 4 Q105 13 96 29 Q87 45 87 72 L90 303 Q81 299 70 296 Q61 294 50 292 Q39 290 28 290 L24 305 Q64 319 118 344.5 Q172 370 226 399 L248 392 L246 53 Q249 51 254 50 Q264 48 278 48 Q292 48 309.5 51.5 Q327 55 336 59 L333 295 Q327 293 321 292 Q316 291 309 290.5 Q302 290 297 290 L290 305 Q327 321 378 345.5 Q429 370 478 399 L498 392 L495 52 L554 15 L554 7 Q554 0 554 0 Z " />
<glyph glyph-name="v" unicode="v" horiz-adv-x="531" d="M318 121 Q344 170 361 209 Q378 248 388 276 Q399 309 406 334 L345 360 L345 374 L445 374 Q468 374 489 375.5 Q510 377 523 377 L523 362 L463 330 L279 0 L204 0 L62 330 L4 362 L4 377 Q9 377 18.5 376.5 Q28 376 40 375.5 Q52 375 64.5 374.5 Q77 374 89 374 L236 374 L247 335 L318 121 Z " />
<glyph glyph-name="w" unicode="w" horiz-adv-x="716" d="M563 130 Q579 178 587 216 Q595 254 599 280 Q603 311 604 333 L541 358 L541 374 L631 374 Q654 374 675.5 375.5 Q697 377 710 377 L710 362 L656 330 L544 0 L454 0 L350 216 L296 0 L202 0 L55 335 L4 362 L4 377 Q15 377 36 375.5 Q57 374 80 374 L230 374 Q232 367 234.5 361 Q237 355 239 350 Q241 345 242 340 L310 148 L367 374 L466 374 L563 130 Z " />
<glyph glyph-name="x" unicode="x" horiz-adv-x="505" d="M197 143 L113 44 L148 17 L148 1 Q137 1 121 2.5 Q105 4 82 4 Q51 4 38.5 2.5 Q26 1 14 1 L14 17 L86 51 L182 164 L76 327 L16 359 L16 374 Q21 374 31 373.5 Q41 373 53 372.5 Q65 372 78 371.5 Q91 371 103 371 L241 371 L315 245 L387 335 L352 355 L352 371 L414 371 Q437 371 454.5 372.5 Q472 374 486 374 L486 359 L426 327 L330 218 L426 51 L494 17 L494 1 Q488 1 475.5 1.5 Q463 2 448 2.5 Q433 3 417.5 3.5 Q402 4 390 4 L322 4 Q310 4 294.5 3.5 Q279 3 264 2.5 Q249 2 236 1.5 Q223 1 217 1 L217 17 L262 45 L197 143 Z " />
<glyph glyph-name="y" unicode="y" horiz-adv-x="533" d="M525 360 L481 349 L237 -72 Q209 -116 185 -148 Q161 -180 151 -189 Q129 -209 108.5 -212.5 Q88 -216 71.5 -208 Q55 -200 45 -183 Q35 -166 34 -146 Q33 -126 42.5 -105 Q52 -84 76 -68 Q83 -81 94.5 -86.5 Q106 -92 119.5 -91 Q133 -90 147.5 -83.5 Q162 -77 175 -66 Q192 -53 207.5 -33.5 Q223 -14 238 12 L65 328 L8 360 L8 375 Q19 375 39.5 373.5 Q60 372 83 372 L231 372 L330 157 Q352 198 367 230 Q382 262 391 285 Q402 311 407 331 L346 358 L346 372 L437 372 Q460 372 485.5 373.5 Q511 375 525 375 L525 360 Z " />
<glyph glyph-name="z" unicode="z" horiz-adv-x="398" d="M195 353 Q175 353 160.5 352.5 Q146 352 136 351 Q125 350 116 350 L47 234 L30 234 Q30 237 31 251 Q32 265 33.5 282.5 Q35 300 36 318 Q37 336 37 348 L37 374 Q51 373 66 372 Q79 371 95.5 371 Q112 371 130 371 L274 371 Q316 371 342.5 372.5 Q369 374 374 374 L378 354 L197 23 Q246 23 273 26 Q288 27 300 29 L370 148 L386 148 Q386 145 385 132 Q384 119 382.5 101 Q381 83 380 63 Q379 43 379 27 L379 1 Q366 1 349 2 Q335 3 316 3.5 Q297 4 276 4 L120 4 Q85 4 60 2.5 Q35 1 30 1 L27 22 L195 353 Z " />
<glyph glyph-name="D" unicode="D" horiz-adv-x="661" d="M113 504 L211 504 Q235 504 265 506.5 Q295 509 330 509 Q424 509 481.5 490 Q539 471 570 438.5 Q601 406 611.5 363 Q622 320 622 272 Q622 213 608.5 162.5 Q595 112 561.5 75 Q528 38 470.5 17.5 Q413 -3 326 -3 Q290 -3 260.5 -1.5 Q231 0 206 0 L117 0 Q105 0 90 -0.5 Q75 -1 60 -1.5 Q45 -2 32.5 -2.5 Q20 -3 13 -3 L13 11 L98 51 L93 454 L8 493 L8 509 Q15 509 27.5 508 Q40 507 55 506.5 Q70 506 85.5 505 Q101 504 113 504 Z M283 477 L278 28 Q284 25 291 23 Q304 18 325 18 Q361 18 382 32.5 Q403 47 413.5 77 Q424 107 427 152 Q430 197 430 258 Q430 315 427 358 Q424 401 413 429.5 Q402 458 380.5 472 Q359 486 323 486 Q313 486 306 484.5 Q299 483 294 481 Q288 479 283 477 Z " />
<glyph glyph-name="exclam" unicode="&#x21;" horiz-adv-x="254" d="M29 70 Q29 91 43 108 Q57 125 74 138 Q93 153 119 165 Q141 155 159 144 Q174 134 187 119.5 Q200 105 200 87 Q200 66 185.5 49 Q171 32 154 19 Q134 4 109 -7 Q87 2 69 13 Q54 23 41.5 37 Q29 51 29 70 Z M176 209 Q146 201 121 197 Q100 194 82.5 195.5 Q65 197 65 209 L50 496 Q78 506 107 514 Q132 521 162.5 527 Q193 533 222 533 L238 521 L176 209 Z " />
<glyph glyph-name="quotedbl" unicode="&#x22;" horiz-adv-x="368" d="M18 465 Q18 471 30.5 480.5 Q43 490 59 499 Q77 510 100 521 Q119 507 135 490 Q149 476 160 455.5 Q171 435 171 411 Q171 366 150 324.5 Q129 283 102.5 251.5 Q76 220 52 201.5 Q28 183 22 183 L15 191 Q15 197 22 207 Q29 217 37 235.5 Q45 254 52 281.5 Q59 309 59 349 Q59 383 52.5 405 Q46 427 38 441 Q29 457 18 465 Z M189 465 Q189 471 201.5 480.5 Q214 490 230 499 Q248 510 272 521 Q291 507 307 490 Q320 476 331 455.5 Q342 435 342 411 Q342 366 321 324.5 Q300 283 273.5 251.5 Q247 220 223 201.5 Q199 183 193 183 L186 191 Q186 197 193 207 Q200 217 208 235.5 Q216 254 223 281.5 Q230 309 230 349 Q230 383 223.5 405 Q217 427 209 441 Q200 457 189 465 Z " />
<glyph glyph-name="numbersign" unicode="&#x23;" horiz-adv-x="539" d="M339 0 L348 157 L183 145 L179 0 L121 0 L128 142 L6 136 L14 180 L130 187 L136 323 L22 317 L29 361 L136 367 L136 504 L201 504 L194 369 L356 382 L356 504 L420 504 L413 384 L531 392 L524 348 L411 340 L404 204 L516 211 L509 167 L402 160 L398 0 L339 0 L339 0 Z M184 189 L349 201 L356 338 L192 326 L184 189 L184 189 Z " />
<glyph glyph-name="dollar" unicode="&#x24;" horiz-adv-x="462" d="M56 226 L175 71 Q182 69 190 68 Q197 67 205 66.5 Q213 66 221 66 Q223 103 224 131.5 Q225 160 227 193 Q197 200 163.5 209 Q130 218 102.5 234 Q75 250 57 275.5 Q39 301 39 340 Q39 379 55.5 408.5 Q72 438 99 458.5 Q126 479 160.5 490 Q195 501 231 504 L231 621 L275 621 Q273 592 272 563 Q271 534 269 505 Q304 504 331.5 498 Q359 492 378 484 Q400 475 417 463 Q417 445 418 426 Q419 407 420.5 390.5 Q422 374 423 362 Q424 350 424 347 L407 347 L291 476 Q288 477 284 478 Q276 480 268 480 Q266 445 265 417.5 Q264 390 263 357 Q291 349 323.5 339 Q356 329 383 313 Q410 297 428 271.5 Q446 246 446 206 Q446 170 431 141.5 Q416 113 389.5 93 Q363 73 328.5 60 Q294 47 255 43 Q254 14 254 -9 Q254 -32 254 -48 L254 -81 L214 -81 Q216 -50 217.5 -19.5 Q219 11 221 40 L211 40 Q175 40 144.5 46.5 Q114 53 92 61 Q66 70 46 82 Q46 104 45 128 Q44 152 42.5 172.5 Q41 193 40 208 Q39 223 39 226 L56 226 Z M231 478 Q206 470 195.5 453 Q185 436 185 410 Q185 390 197.5 380.5 Q210 371 231 363 L231 478 Z M256 69 Q288 78 300.5 96.5 Q313 115 313 144 Q313 164 298 172.5 Q283 181 258 189 L256 69 Z " />
<glyph glyph-name="percent" unicode="&#x25;" horiz-adv-x="715" d="M167 302 Q127 302 98 313.5 Q69 325 50.5 344.5 Q32 364 23 389.5 Q14 415 14 443 Q14 476 29 504.5 Q44 533 69.5 554 Q95 575 130 587.5 Q165 600 205 600 Q239 600 267.5 588.5 Q296 577 316.5 557.5 Q337 538 348 513 Q359 488 359 460 Q359 427 346.5 398 Q334 369 310 348 Q286 327 250 314.5 Q214 302 167 302 Z M574 596 Q586 596 598 593 Q610 590 620 587 Q631 583 642 578 Q516 441 422 331.5 Q328 222 265 143 Q191 51 138 -21 Q124 -21 113 -18.5 Q102 -16 94 -12 Q84 -8 76 -3 Q203 137 295.5 247.5 Q388 358 451 436 Q523 527 574 596 Z M176 579 Q153 576 141 564.5 Q129 553 124 534.5 Q119 516 120 491.5 Q121 467 124 438 Q127 412 132 390 Q137 368 145.5 352.5 Q154 337 166 329 Q178 321 196 323 Q218 326 230 338 Q242 350 247.5 368.5 Q253 387 252 411.5 Q251 436 248 465 Q245 490 240 512 Q235 534 226.5 549.5 Q218 565 206 573 Q194 581 176 579 Z M507 -22 Q467 -22 438 -10.5 Q409 1 390 20.5 Q371 40 362 65.5 Q353 91 353 119 Q353 152 368 180.5 Q383 209 408.5 230 Q434 251 469 263.5 Q504 276 544 276 Q578 276 606.5 264.5 Q635 253 655.5 233.5 Q676 214 687 189 Q698 164 698 136 Q698 103 685.5 74 Q673 45 649 24 Q625 3 589 -9.5 Q553 -22 507 -22 Z M517 255 Q494 253 482 241.5 Q470 230 464.5 211.5 Q459 193 460 168 Q461 143 464 115 Q467 89 471.5 67 Q476 45 484 29 Q492 13 504.5 5 Q517 -3 535 -1 Q557 2 569 13.5 Q581 25 586.5 43.5 Q592 62 591.5 86.5 Q591 111 588 140 Q585 165 580 187 Q575 209 567 225 Q559 241 547 249 Q535 257 517 255 Z " />
<glyph glyph-name="ampersand" unicode="&#x26;" horiz-adv-x="762" d="M744 173 Q752 138 742.5 107 Q733 76 713 53 Q693 30 665.5 15.5 Q638 1 610 -1 Q573 -3 534.5 3 Q496 9 464 19 Q438 5 398 -7 Q358 -19 307 -22 Q197 -29 123 3.5 Q49 36 25 114 Q11 156 18 187.5 Q25 219 44.5 243 Q64 267 94 285 Q124 303 157 318 L155 326 Q142 367 142 403.5 Q142 440 158 467.5 Q174 495 206 512.5 Q238 530 289 533 Q316 534 341 531.5 Q366 529 386 521 Q406 513 420 500.5 Q434 488 440 470 Q448 444 437.5 424 Q427 404 405.5 388.5 Q384 373 355 361.5 Q326 350 298 341 Q320 305 346.5 269.5 Q373 234 403.5 203 Q434 172 468 148 Q502 124 539 109 Q545 116 550 127 Q555 138 557.5 150.5 Q560 163 560.5 174.5 Q561 186 558 194 Q554 207 544 218 Q534 229 519.5 236 Q505 243 487.5 244 Q470 245 450 238 Q442 249 439 256.5 Q436 264 432 275 Q425 296 427.5 312 Q430 328 438.5 340 Q447 352 460.5 358.5 Q474 365 490 366 Q506 367 523.5 362 Q541 357 557 345.5 Q573 334 586 316.5 Q599 299 607 275 Q623 224 612.5 178.5 Q602 133 559 101 Q571 97 584 93 Q595 90 608 87.5 Q621 85 634 86 Q657 87 676.5 94 Q696 101 709 113.5 Q722 126 726 145 Q730 164 722 190 L744 173 Z M280 515 Q254 513 248.5 491.5 Q243 470 254 435 Q259 419 268 398 Q277 377 288 357 Q324 372 337.5 397.5 Q351 423 338 465 Q330 489 318 503 Q306 517 280 515 Z M373 12 Q392 13 407.5 18.5 Q423 24 433 29 Q383 48 341.5 77.5 Q300 107 266.5 142.5 Q233 178 207.5 217.5 Q182 257 166 296 Q143 284 139 250.5 Q135 217 149 173 Q160 138 182 107.5 Q204 77 234 55 Q264 33 299.5 21.5 Q335 10 373 12 Z " />
<glyph glyph-name="quotesingle" unicode="&#x27;" horiz-adv-x="211" d="M27 465 Q27 471 39.5 480.5 Q52 490 68 499 Q86 510 110 521 Q129 507 145 490 Q158 476 169 455.5 Q180 435 180 411 Q180 366 159 324.5 Q138 283 111.5 251.5 Q85 220 61.5 201.5 Q38 183 32 183 L25 191 Q25 197 32 207 Q39 217 47 235.5 Q55 254 62 281.5 Q69 309 69 349 Q69 383 62.5 405 Q56 427 48 441 Q38 457 27 465 Z " />
<glyph glyph-name="parenleft" unicode="&#x28;" horiz-adv-x="457" d="M29 300 Q29 394 64.5 468 Q100 542 156 594.5 Q212 647 282.5 677.5 Q353 708 424 717 Q430 711 428 703 Q427 699 424 696 Q356 687 310 657.5 Q264 628 236 581 Q208 534 195.5 470.5 Q183 407 183 331 Q183 254 195.5 186 Q208 118 236 65 Q264 12 310 -22 Q356 -56 424 -65 Q430 -71 428 -79 Q427 -83 424 -87 Q353 -78 282.5 -52 Q212 -26 156 20.5 Q100 67 64.5 136 Q29 205 29 300 Z " />
<glyph glyph-name="parenright" unicode="&#x29;" horiz-adv-x="487" d="M429 331 Q429 236 393.5 162.5 Q358 89 302 36.5 Q246 -16 175 -46.5 Q104 -77 34 -86 Q30 -83 29.5 -79 Q29 -75 30 -72 Q31 -68 34 -65 Q101 -56 147.5 -26.5 Q194 3 222 50 Q250 97 262.5 160.5 Q275 224 275 300 Q275 376 262.5 444.5 Q250 513 222 566 Q194 619 147.5 653 Q101 687 34 696 Q29 699 29 703 Q29 707 30 710 Q31 714 34 718 Q104 709 175 683 Q246 657 302 610.5 Q358 564 393.5 495 Q429 426 429 331 Z " />
<glyph glyph-name="asterisk" unicode="&#x2a;" horiz-adv-x="424" d="M193 388 L176 475 L248 522 L266 516 L248 388 L327 445 L409 413 L411 396 L277 346 L372 314 L382 235 L366 225 L250 302 L266 215 L194 168 L176 174 L194 302 L116 244 L34 277 L34 280 Q34 282 33.5 283 Q33 284 33 286 Q32 290 31 295 L166 344 L71 375 L61 455 L77 465 L193 388 Z " />
<glyph glyph-name="plus" unicode="&#x2b;" horiz-adv-x="442" d="M232 245 L419 283 L406 223 L233 211 L220 10 L176 0 L174 206 L11 177 L25 240 L178 240 L185 423 L233 433 L232 245 L232 245 Z " />
<glyph glyph-name="comma" unicode="&#x2c;" horiz-adv-x="329" d="M76 64 Q76 70 90.5 79.5 Q105 89 123 97 Q144 107 171 117 Q197 100 218 81 Q236 64 251 42 Q266 20 266 -3 Q266 -38 252 -70 Q238 -102 216.5 -129.5 Q195 -157 170 -179.5 Q145 -202 122.5 -218 Q100 -234 83.5 -242.5 Q67 -251 63 -251 L58 -243 Q58 -237 68.5 -225.5 Q79 -214 91 -192.5 Q103 -171 113.5 -137.5 Q124 -104 124 -55 Q124 -16 116.5 7 Q109 30 100 43 Q89 58 76 64 Z " />
<glyph glyph-name="hyphen" unicode="&#x2d;" horiz-adv-x="355" d="M295 300 L270 221 L51 201 L76 289 L295 300 L295 300 Z " />
<glyph glyph-name="period" unicode="&#x2e;" horiz-adv-x="302" d="M68 3 Q68 24 82.5 45.5 Q97 67 115 84 Q136 104 163 123 Q186 108 204 91 Q220 77 233 59 Q246 41 246 22 Q246 1 231 -20.5 Q216 -42 198 -59 Q177 -79 150 -98 Q127 -84 109 -67 Q93 -53 80.5 -35 Q68 -17 68 3 Z " />
<glyph glyph-name="slash" unicode="&#x2f;" horiz-adv-x="428" d="M315 525 Q334 525 350 524 Q366 523 379 522 Q393 520 406 519 Q396 509 371 470 Q346 431 313 377 Q280 323 244.5 262 Q209 201 178 147 Q147 93 125.5 52.5 Q104 12 101 0 Q63 0 41 3 Q28 5 17 7 Q29 22 55 63 Q81 104 113 158.5 Q145 213 180 273 Q215 333 244 386 Q273 439 292.5 477 Q312 515 315 525 Z " />
<glyph glyph-name="zero" unicode="0" horiz-adv-x="535" d="M246 -22 Q196 -22 157 -1 Q118 20 91 55.5 Q64 91 49.5 139 Q35 187 35 241 Q35 300 53 351 Q71 402 104 440 Q137 478 183 499.5 Q229 521 286 521 Q336 521 375 500.5 Q414 480 441 444 Q468 408 482.5 360.5 Q497 313 497 259 Q497 199 479 147.5 Q461 96 428 58.5 Q395 21 349 -0.5 Q303 -22 246 -22 Z M235 495 Q199 490 195 426 Q191 362 210 235 Q227 114 245 56.5 Q263 -1 295 4 Q330 9 335 73.5 Q340 138 322 264 Q305 385 286 442.5 Q267 500 235 495 Z " />
<glyph glyph-name="one" unicode="1" horiz-adv-x="405" d="M289 0 L150 0 Q139 0 121 -0.5 Q103 -1 85 -1.5 Q67 -2 52 -2.5 Q37 -3 31 -3 L31 12 L132 51 L129 450 L15 465 L14 485 Q44 487 81 490 Q118 493 154.5 497.5 Q191 502 225.5 507.5 Q260 513 286 519 L312 510 L307 51 L394 12 L394 -3 Q388 -3 375 -2.5 Q362 -2 347 -1.5 Q332 -1 316.5 -0.5 Q301 0 289 0 Z " />
<glyph glyph-name="two" unicode="2" horiz-adv-x="461" d="M79 275 L51 281 Q33 326 41 369.5 Q49 413 76 447 Q103 481 146.5 502 Q190 523 243 523 Q284 523 319 511.5 Q354 500 379.5 479 Q405 458 419 428 Q433 398 433 361 Q433 319 413 282.5 Q393 246 363 214 Q333 182 297 154.5 Q261 127 229 103 Q197 79 173.5 58.5 Q150 38 145 20 L322 20 L418 137 L434 137 Q434 134 433 116.5 Q432 99 431 76.5 Q430 54 429 31 Q428 8 428 -7 L401 -4 Q387 -2 368 -1 Q349 0 326 0 Q284 0 232.5 -0.5 Q181 -1 135 -2 Q81 -3 27 -3 Q33 28 51.5 58.5 Q70 89 94.5 119 Q119 149 146 179 Q173 209 195.5 238 Q218 267 232.5 295.5 Q247 324 247 352 Q247 387 223 410.5 Q199 434 165 434 Q139 434 118 420.5 Q97 407 84.5 384.5 Q72 362 69.5 333.5 Q67 305 79 275 Z " />
<glyph glyph-name="three" unicode="3" horiz-adv-x="471" d="M23 135 L57 140 Q45 125 47.5 104 Q50 83 62.5 64 Q75 45 97.5 32 Q120 19 149 19 Q172 19 194.5 26 Q217 33 234.5 48 Q252 63 263 86.5 Q274 110 274 143 Q274 194 258 222.5 Q242 251 209 251 Q189 251 171.5 245 Q154 239 148 237 L148 261 L185 273 Q200 278 214.5 285 Q229 292 240.5 304.5 Q252 317 259 337.5 Q266 358 266 389 Q266 429 242.5 449 Q219 469 185 469 Q153 469 131 457 Q109 445 95.5 428.5 Q82 412 76.5 395 Q71 378 71 368 L48 384 Q48 405 61.5 429 Q75 453 101 474 Q127 495 165.5 508.5 Q204 522 254 522 Q291 522 320 513.5 Q349 505 368.5 490 Q388 475 398.5 455.5 Q409 436 409 414 Q409 377 392.5 353 Q376 329 350 312.5 Q324 296 290 286 Q256 276 222 268 Q273 271 315 263 Q357 255 387 236.5 Q417 218 433.5 190 Q450 162 450 125 Q450 87 429.5 60 Q409 33 374 15.5 Q339 -2 292.5 -10.5 Q246 -19 193 -19 Q126 -19 89 0.5 Q52 20 35.5 46 Q19 72 18 97.5 Q17 123 23 135 Z " />
<glyph glyph-name="four" unicode="4" horiz-adv-x="509" d="M409 161 Q434 161 449 165 Q464 169 473 174.5 Q482 180 487.5 184 Q493 188 500 188 L492 132 Q482 133 468 134 Q456 135 439 135.5 Q422 136 401 136 L391 136 L389 0 L229 0 L225 136 L86 136 Q77 136 65 135.5 Q53 135 42.5 134 Q32 133 24 132.5 Q16 132 13 132 L10 153 L375 535 L397 528 L392 161 L409 161 Z M68 161 L225 161 L222 341 L68 161 Z " />
<glyph glyph-name="five" unicode="5" horiz-adv-x="465" d="M440 165 Q440 117 417 84 Q394 51 358 30.5 Q322 10 278.5 0.5 Q235 -9 193 -9 Q127 -9 89.5 10.5 Q52 30 35.5 56 Q19 82 18.5 107.5 Q18 133 24 145 L57 150 Q45 135 47.5 114 Q50 93 63 74 Q76 55 98.5 42 Q121 29 150 29 Q181 29 207 38.5 Q233 48 252 68.5 Q271 89 282 121.5 Q293 154 293 201 Q293 261 252 295 Q211 329 147 336 L53 346 L100 518 L323 518 L336 518 L426 519 L426 505 Q426 500 425 493 Q423 470 417 453 Q411 436 407 434 L392 439 Q396 455 388.5 465.5 Q381 476 367.5 482 Q354 488 337 490.5 Q320 493 304.5 493.5 Q289 494 278 493.5 Q267 493 265 493 L229 340 L268 329 Q352 306 396 266 Q440 226 440 165 Z " />
<glyph glyph-name="six" unicode="6" horiz-adv-x="490" d="M202 334 Q218 349 235.5 357.5 Q253 366 277 366 Q314 366 348.5 354.5 Q383 343 410 320 Q437 297 453.5 263.5 Q470 230 470 185 Q470 135 448 96 Q426 57 391 31 Q356 5 313 -8.5 Q270 -22 227 -22 Q187 -22 150 -7.5 Q113 7 84.5 35 Q56 63 39 104 Q22 145 22 198 Q22 275 55.5 334 Q89 393 143 435 Q197 477 265.5 502 Q334 527 404 536 L404 515 Q353 507 318.5 492.5 Q284 478 261.5 455.5 Q239 433 225 403 Q211 373 202 334 Z M250 339 Q219 339 202 293 Q185 247 185 166 Q185 91 195.5 46 Q206 1 240 1 Q261 1 274.5 13.5 Q288 26 295 49 Q302 72 304.5 104.5 Q307 137 307 177 Q307 252 296 295.5 Q285 339 250 339 Z " />
<glyph glyph-name="seven" unicode="7" horiz-adv-x="512" d="M204 -8 L114 -8 Q180 73 239 151 Q264 184 290.5 219.5 Q317 255 341 290 Q365 325 386 357.5 Q407 390 421 417 L28 342 L28 504 L410 504 Q434 504 447 512 Q460 520 467 531 Q475 542 477 558 L495 549 Q491 520 480 486 Q471 457 454 418.5 Q437 380 411 335 L204 -8 Z " />
<glyph glyph-name="eight" unicode="8" horiz-adv-x="474" d="M219 -21 Q184 -21 147 -15.5 Q110 -10 79.5 5 Q49 20 29.5 45 Q10 70 10 109 Q10 136 24.5 160.5 Q39 185 64.5 204 Q90 223 124 237 Q158 251 198 257 Q162 260 130.5 268 Q99 276 75.5 289.5 Q52 303 38 323 Q24 343 24 370 Q24 409 45 437 Q66 465 99 483.5 Q132 502 173.5 511 Q215 520 256 520 Q291 520 326 513 Q361 506 389 491 Q417 476 434.5 452 Q452 428 452 395 Q452 367 439.5 344.5 Q427 322 404.5 304 Q382 286 351 274 Q320 262 283 255 Q322 253 355 244.5 Q388 236 413 221 Q438 206 452 184 Q466 162 466 134 Q466 89 442.5 59.5 Q419 30 383 12 Q347 -6 303.5 -13.5 Q260 -21 219 -21 Z M243 243 Q180 243 180 116 Q180 58 194.5 30.5 Q209 3 232 3 Q296 3 296 127 Q296 184 281 213.5 Q266 243 243 243 Z M243 497 Q211 497 198.5 466 Q186 435 186 376 Q186 319 197.5 292.5 Q209 266 232 266 Q264 266 277 298.5 Q290 331 290 388 Q290 440 278 468.5 Q266 497 243 497 Z " />
<glyph glyph-name="nine" unicode="9" horiz-adv-x="527" d="M307 171 Q291 156 273.5 148 Q256 140 232 140 Q195 140 160 151.5 Q125 163 98 185.5 Q71 208 55 242 Q39 276 39 321 Q39 371 61 409.5 Q83 448 118 474 Q153 500 196 513.5 Q239 527 282 527 Q322 527 359 512.5 Q396 498 424.5 470 Q453 442 470 401 Q487 360 487 307 Q487 230 453.5 171 Q420 112 366 70 Q312 28 243.5 3 Q175 -22 105 -30 L105 -10 Q156 -3 190.5 12 Q225 27 247.5 49.5 Q270 72 284 102 Q298 132 307 171 Z M259 167 Q290 167 307 212.5 Q324 258 324 339 Q324 414 313.5 459 Q303 504 269 504 Q248 504 234.5 491.5 Q221 479 214 456 Q207 433 204.5 400.5 Q202 368 202 328 Q202 254 213 210.5 Q224 167 259 167 Z " />
<glyph glyph-name="colon" unicode="&#x3a;" horiz-adv-x="265" d="M45 58 Q45 79 59 96 Q73 113 90 126 Q109 141 135 153 Q157 143 175 132 Q190 122 203 107.5 Q216 93 216 75 Q216 54 201.5 37 Q187 20 170 7 Q150 -8 125 -19 Q103 -10 85 1 Q70 11 57.5 25 Q45 39 45 58 Z M49 305 Q49 325 63 342.5 Q77 360 94 373 Q113 388 139 399 Q161 390 179 379 Q194 369 207 354.5 Q220 340 220 321 Q220 300 205.5 282.5 Q191 265 174 253 Q154 238 129 227 Q107 236 89 247 Q74 257 61.5 271.5 Q49 286 49 305 Z " />
<glyph glyph-name="semicolon" unicode="&#x3b;" horiz-adv-x="287" d="M49 136 Q49 143 64 152.5 Q79 162 97 170 Q118 180 145 190 Q171 172 192 153 Q209 136 224 114 Q239 92 239 69 Q239 34 225 2.5 Q211 -29 190 -56.5 Q169 -84 143.5 -106.5 Q118 -129 95.5 -145 Q73 -161 56.5 -169.5 Q40 -178 36 -178 L31 -170 Q31 -164 41.5 -152.5 Q52 -141 64.5 -120 Q77 -99 87.5 -65.5 Q98 -32 98 17 Q98 56 90 79 Q82 102 73 115 Q62 130 49 136 Z M70 302 Q70 322 84 339.5 Q98 357 115 370 Q134 385 160 396 Q182 387 200 376 Q215 366 228 351.5 Q241 337 241 318 Q241 297 226.5 279.5 Q212 262 195 250 Q175 235 150 224 Q128 233 110 244 Q95 254 82.5 268.5 Q70 283 70 302 Z " />
<glyph glyph-name="less" unicode="&#x3c;" horiz-adv-x="378" d="M329 393 L328 305 L91 186 L362 49 L336 29 L27 183 L329 393 L329 393 Z " />
<glyph glyph-name="equal" unicode="&#x3d;" horiz-adv-x="495" d="M445 300 L435 247 L47 237 L55 273 L445 300 L445 300 Z M445 139 L434 84 L47 76 L55 112 L445 139 L445 139 Z " />
<glyph glyph-name="greater" unicode="&#x3e;" horiz-adv-x="358" d="M45 29 L46 117 L283 235 L12 373 L38 393 L347 238 L45 29 L45 29 Z " />
<glyph glyph-name="question" unicode="&#x3f;" horiz-adv-x="445" d="M68 552 Q93 568 130 577.5 Q167 587 210 587 Q259 587 297 579.5 Q335 572 360.5 560 Q386 548 399.5 533 Q413 518 413 503 Q413 483 400 458 Q387 433 367 406.5 Q347 380 324 352.5 Q301 325 281 301 Q261 277 248 257.5 Q235 238 235 226 Q235 203 255.5 190.5 Q276 178 305 174 L298 155 Q282 156 258 158 Q234 160 206.5 162.5 Q179 165 151.5 170.5 Q124 176 101.5 184.5 Q79 193 65 206 Q51 219 51 238 Q51 256 68.5 280.5 Q86 305 113 332 Q140 359 172 387 Q204 415 232.5 441 Q261 467 281.5 488.5 Q302 510 307 524 Q296 534 278 541 Q263 547 239 552 Q215 557 183 557 Q120 557 74 534 Q69 537 66 540 Q64 542 63.5 545 Q63 548 68 552 Z M89 47 Q89 65 103 80.5 Q117 96 134 107 Q153 120 179 130 Q201 123 219 112 Q234 103 247 90.5 Q260 78 260 61 Q260 42 245.5 27 Q231 12 214 1 Q194 -12 169 -22 Q147 -15 129 -4 Q114 5 101.5 17.5 Q89 30 89 47 Z " />
<glyph glyph-name="at" unicode="&#x40;" horiz-adv-x="808" d="M432 126 Q414 114 389.5 99.5 Q365 85 334 85 Q283 85 255.5 103.5 Q228 122 228 175 Q228 230 263 257.5 Q298 285 383 285 L422 277 L420 376 Q415 379 408 383 Q402 385 393 387.5 Q384 390 370 389 Q348 387 336.5 381.5 Q325 376 319.5 367.5 Q314 359 313 348.5 Q312 338 312 328 Q291 320 274 317 Q260 315 248 318 Q236 321 237 336 Q238 359 260.5 375.5 Q283 392 314.5 403 Q346 414 381.5 419 Q417 424 443 424 Q465 424 486 419.5 Q507 415 522.5 404.5 Q538 394 547 377 Q556 360 556 335 L553 179 Q553 145 573 129.5 Q593 114 618 123 Q643 132 663.5 170 Q684 208 684 280 Q684 340 662 390 Q640 440 602 475 Q564 510 514 529.5 Q464 549 407 549 Q348 549 295.5 530 Q243 511 204 474.5 Q165 438 142 383.5 Q119 329 119 258 Q119 190 141.5 134.5 Q164 79 204.5 38.5 Q245 -2 301 -24 Q357 -46 423 -46 Q466 -46 501.5 -36.5 Q537 -27 562.5 -12 Q588 3 604.5 22 Q621 41 627 61 Q633 61 640 57.5 Q647 54 643 43 Q633 16 609.5 -6 Q586 -28 552.5 -43.5 Q519 -59 477.5 -67.5 Q436 -76 391 -76 Q310 -76 246 -51 Q182 -26 137 17 Q92 60 68 117 Q44 174 44 238 Q44 304 70.5 364 Q97 424 146 469.5 Q195 515 264.5 542.5 Q334 570 421 570 Q491 570 552.5 551 Q614 532 660 497.5 Q706 463 732.5 415 Q759 367 759 310 Q759 262 743.5 222 Q728 182 700.5 153 Q673 124 634 108 Q595 92 548 92 Q509 92 486 97 Q463 102 451 109 Q437 116 432 126 Z M422 257 Q419 257 415 258 Q407 260 400 260 Q390 260 382.5 257.5 Q375 255 369.5 247.5 Q364 240 361.5 225 Q359 210 359 186 Q359 163 360.5 150.5 Q362 138 365 132 Q368 126 371.5 125 Q375 124 380 124 Q391 124 401.5 129.5 Q412 135 423 143 L422 257 Z " />
<glyph glyph-name="bracketleft" unicode="&#x5b;" horiz-adv-x="463" d="M54 -154 Q58 -92 62 -24 Q65 34 67.5 106 Q70 178 70 253 Q70 327 67.5 394 Q65 461 62 512 Q58 572 54 624 L422 627 L422 607 L198 598 L198 -129 L422 -137 L422 -158 L54 -154 Z " />
<glyph glyph-name="backslash" unicode="&#x5c;" horiz-adv-x="482" d="M388 0 Q353 53 299 127 Q253 190 181.5 284 Q110 378 10 504 Q20 508 32 512 Q43 515 57.5 517.5 Q72 520 92 520 Q125 470 177 397 Q222 334 292 239.5 Q362 145 464 16 Q457 12 446 8 Q437 5 422.5 2.5 Q408 0 388 0 Z " />
<glyph glyph-name="bracketright" unicode="&#x5d;" horiz-adv-x="464" d="M409 633 Q405 571 401 503 Q398 445 396 372.5 Q394 300 394 226 Q394 152 396 85 Q398 18 401 -33 Q405 -93 409 -145 L41 -148 L41 -128 L265 -120 L265 607 L41 616 L41 637 L409 633 Z " />
<glyph glyph-name="underscore" unicode="&#x5f;" horiz-adv-x="652" d="M35 50 L607 50 L607 0 L35 0 L35 50 L35 50 Z " />
<glyph glyph-name="asciicircum" unicode="&#x5e;" horiz-adv-x="430" d="M207 521 L394 236 L358 228 L207 457 L58 228 L22 236 L207 521 L207 521 Z " />
<glyph glyph-name="grave" unicode="&#x60;" horiz-adv-x="261" d="M89 521 L224 364 Q233 354 222.5 351.5 Q212 349 191.5 353.5 Q171 358 144.5 368.5 Q118 379 94.5 394 Q71 409 55 428.5 Q39 448 39 470 L89 521 Z " />
<glyph glyph-name="braceleft" unicode="&#x7b;" horiz-adv-x="426" d="M19 236 Q59 234 89 252 Q102 259 113.5 272 Q125 285 133.5 305 Q142 325 146 352.5 Q150 380 147 418 L143 463 Q140 497 149.5 522.5 Q159 548 176.5 565 Q194 582 217 593 Q240 604 264 610 Q321 624 396 619 L396 599 Q357 606 327 593 Q314 587 302.5 576.5 Q291 566 282.5 548 Q274 530 270 503.5 Q266 477 269 441 L273 396 Q276 352 266 323 Q256 294 238 275.5 Q220 257 197 248 Q174 239 151.5 235 Q129 231 110 229.5 Q91 228 82 226 Q91 223 110 222 Q129 221 151.5 216.5 Q174 212 197 203 Q220 194 238 176 Q256 158 266 129 Q276 100 273 56 L269 11 Q266 -26 269.5 -52.5 Q273 -79 281.5 -97 Q290 -115 301.5 -125.5 Q313 -136 326 -142 Q356 -155 396 -147 L396 -167 Q320 -172 262 -158 Q237 -152 214 -141 Q191 -130 174 -113 Q157 -96 148 -71 Q139 -46 142 -11 L147 34 Q151 71 147 99 Q143 127 135 146.5 Q127 166 115 179 Q103 192 90 200 Q59 218 19 216 L19 236 Z " />
<glyph glyph-name="bar" unicode="&#x7c;" horiz-adv-x="187" d="M45 -153 Q49 -84 52 -12 Q55 60 57 130 Q59 200 60 266 Q61 332 61 391 Q62 528 61 657 L142 657 Q138 589 135 518.5 Q132 448 129.5 378 Q127 308 125.5 242 Q124 176 123 117 Q120 -21 120 -153 L45 -153 Z " />
<glyph glyph-name="braceright" unicode="&#x7d;" horiz-adv-x="433" d="M407 216 Q367 218 337 200 Q324 192 312.5 179 Q301 166 292.5 146.5 Q284 127 280 99 Q276 71 279 34 L283 -11 Q286 -46 276.5 -71 Q267 -96 249.5 -113 Q232 -130 209 -141 Q186 -152 162 -158 Q105 -172 30 -167 L30 -147 Q69 -154 99 -141 Q112 -135 123.5 -124.5 Q135 -114 143.5 -96 Q152 -78 156 -52 Q160 -26 157 11 L153 56 Q149 100 159.5 129 Q170 158 188 176.5 Q206 195 229 204 Q252 213 274.5 217 Q297 221 315.5 222 Q334 223 344 226 Q334 229 315.5 230 Q297 231 274.5 235.5 Q252 240 229 249 Q206 258 188 276 Q170 294 159.5 323 Q149 352 153 396 L157 441 Q160 478 156 504.5 Q152 531 143.5 549 Q135 567 123.5 577.5 Q112 588 99 594 Q69 607 30 599 L30 619 Q106 624 164 610 Q189 604 212 593 Q235 582 252 565 Q269 548 278 522.5 Q287 497 284 463 L279 418 Q275 380 279 352.5 Q283 325 291 305 Q299 285 311 272 Q323 259 336 252 Q366 234 407 236 L407 216 Z " />
<glyph glyph-name="asciitilde" unicode="&#x7e;" horiz-adv-x="467" d="M429 313 L428 308 Q428 307 424 291.5 Q420 276 408 257 Q374 205 315 205 Q294 205 277 211 Q260 217 245 228 Q233 239 224.5 251 Q216 263 208 275 Q195 295 182.5 309 Q170 323 147 323 Q107 323 89 286 Q81 272 79.5 260 Q78 248 77 248 L77 236 L33 262 L34 267 Q34 268 38.5 283 Q43 298 55 318 Q87 370 147 370 Q188 370 217 346 Q229 336 238 324 Q247 312 255 299 Q267 280 279.5 266 Q292 252 315 252 Q355 252 374 289 Q377 296 379 303 Q381 310 383 315 Q385 321 385 327 L386 338 L429 313 Z " />
<glyph glyph-name="Euro" unicode="&#x20ac;" horiz-adv-x="582" d="M531 454 Q518 464 500 472 Q485 479 463.5 485 Q442 491 413 491 Q383 491 364 480.5 Q345 470 334 448 Q323 426 317.5 393.5 Q312 361 309 316 L504 329 L496 296 L308 284 L308 243 Q308 235 308 226.5 Q308 218 309 210 L486 221 L478 188 L311 177 Q319 91 344.5 56.5 Q370 22 420 22 Q474 22 509.5 45 Q545 68 557 100 L571 82 Q551 34 496 6 Q441 -22 370 -22 Q316 -22 274 -7.5 Q232 7 202 32 Q172 57 153 91.5 Q134 126 125 166 L25 161 L32 194 L119 199 Q118 210 117.5 221.5 Q117 233 117 244 Q117 252 117 258.5 Q117 265 118 273 L43 268 L50 302 L122 306 Q131 353 153 392.5 Q175 432 211 460.5 Q247 489 296.5 505 Q346 521 409 521 Q441 521 465.5 515.5 Q490 510 507 504 Q526 497 540 488 L531 454 Z " />
<glyph glyph-name="florin" unicode="&#x192;" horiz-adv-x="556" d="M358 261 L518 261 L510 234 L365 234 L437 1 Q453 -52 437.5 -91.5 Q422 -131 386.5 -158.5 Q351 -186 303 -201.5 Q255 -217 206 -220 Q155 -223 120.5 -209.5 Q86 -196 65 -178 Q44 -160 35.5 -144.5 Q27 -129 28 -129 L60 -114 Q64 -135 75 -151 Q85 -165 103.5 -176.5 Q122 -188 154 -188 Q181 -188 207 -175 Q233 -162 250 -138.5 Q267 -115 272 -81.5 Q277 -48 263 -7 L181 234 L83 234 L91 261 L174 261 L131 389 Q116 436 132 475 Q148 514 184 541.5 Q220 569 271 584.5 Q322 600 377 600 Q408 600 433 592.5 Q458 585 475 576 Q495 565 510 552 L485 491 Q474 466 463.5 449.5 Q453 433 448 431 L428 438 L371 574 Q320 574 297 547.5 Q274 521 288 479 L358 261 Z " />
<glyph glyph-name="circumflex" unicode="&#x2c6;" horiz-adv-x="466" d="M260 504 L395 347 Q405 335 389.5 338 Q374 341 346 354 Q318 367 286 387 Q254 407 233 429 Q212 407 180.5 387 Q149 367 121.5 354 Q94 341 78 338 Q62 335 73 347 L208 504 Q219 508 234 508 Q249 508 260 504 Z " />
<glyph glyph-name="dotaccent" unicode="&#x2d9;" horiz-adv-x="259" d="M144 521 Q163 516 178 508 Q191 501 202 491 Q213 481 213 467 Q213 450 198 438 Q183 426 166 417 Q146 406 120 399 Q100 404 85 412 Q72 419 61.5 429 Q51 439 51 453 Q51 470 65.5 483 Q80 496 97 504 Q117 514 144 521 Z " />
<glyph glyph-name="breve" unicode="&#x2d8;" horiz-adv-x="421" d="M155 519 Q152 492 156 472 Q160 454 172 439.5 Q184 425 211 425 Q238 425 249.5 439.5 Q261 454 265 472 Q269 492 265 519 L332 519 L363 519 Q355 484 337 457 Q321 434 291 415 Q261 396 211 396 Q160 396 131 415 Q102 434 85 457 Q66 484 58 519 Q75 519 93 520 Q108 520 124.5 520.5 Q141 521 155 519 Z " />
<glyph glyph-name="ring" unicode="&#x2da;" horiz-adv-x="368" d="M191 521 Q242 521 274 495 Q306 469 306 431 Q306 393 274 367.5 Q242 342 191 342 Q140 342 108 367.5 Q76 393 76 431 Q76 469 108 495 Q140 521 191 521 Z M191 365 Q218 365 233 384 Q248 403 248 431 Q248 458 233 477.5 Q218 497 191 497 Q164 497 148.5 477.5 Q133 458 133 431 Q133 403 148.5 384 Q164 365 191 365 Z " />
<glyph glyph-name="hungarumlaut" unicode="&#x2dd;" horiz-adv-x="402" d="M114 521 L215 521 L93 383 Q76 378 65 378 Q55 378 48.5 382 Q42 386 49 398 L114 521 Z M252 521 L353 521 L231 383 Q214 378 203 378 Q193 378 186.5 382 Q180 386 187 398 L252 521 Z " />
<glyph glyph-name="ogonek" unicode="&#x2db;" horiz-adv-x="257" d="M141 -175 Q71 -175 71 -116 Q71 -92 86.5 -71 Q102 -50 121 -33 Q143 -14 172 3 L197 0 Q175 -11 157 -24 Q142 -35 129.5 -51 Q117 -67 117 -84 Q117 -98 125.5 -104 Q134 -110 144.5 -110.5 Q155 -111 163.5 -107 Q172 -103 172 -97 Q191 -97 199.5 -109 Q208 -121 204.5 -136 Q201 -151 185.5 -163 Q170 -175 141 -175 Z " />
<glyph glyph-name="caron" unicode="&#x2c7;" horiz-adv-x="423" d="M184 347 L49 504 Q39 516 55 513 Q71 510 98 496.5 Q125 483 157 463 Q189 443 210 421 Q231 443 263 463 Q295 483 322.5 496.5 Q350 510 365.5 513 Q381 516 371 504 L236 347 Q225 343 210 343 Q195 343 184 347 Z " />
<glyph glyph-name="ellipsis" unicode="&#x2026;" horiz-adv-x="906" d="M68 3 Q68 24 82.5 45.5 Q97 67 115 84 Q136 104 163 123 Q186 108 204 91 Q220 77 233 59 Q246 41 246 22 Q246 1 231 -20.5 Q216 -42 198 -59 Q177 -79 150 -98 Q127 -84 109 -67 Q93 -53 80.5 -35 Q68 -17 68 3 Z M370 3 Q370 24 384.5 45.5 Q399 67 417 84 Q438 104 465 123 Q488 108 506 91 Q522 77 535 59 Q548 41 548 22 Q548 1 533 -20.5 Q518 -42 500 -59 Q479 -79 452 -98 Q429 -84 411 -67 Q395 -53 382.5 -35 Q370 -17 370 3 Z M672 3 Q672 24 686.5 45.5 Q701 67 719 84 Q740 104 767 123 Q790 108 808 91 Q824 77 837 59 Q850 41 850 22 Q850 1 835 -20.5 Q820 -42 802 -59 Q781 -79 754 -98 Q731 -84 713 -67 Q697 -53 684.5 -35 Q672 -17 672 3 Z " />
<glyph glyph-name="dieresis" unicode="&#xa8;" horiz-adv-x="411" d="M62 429 Q62 461 82.5 482.5 Q103 504 127 504 Q147 504 163 490.5 Q179 477 179 452 Q179 419 159 398 Q139 377 115 377 Q95 377 78.5 390 Q62 403 62 429 Z M247 429 Q247 461 267.5 482.5 Q288 504 312 504 Q332 504 348 490.5 Q364 477 364 452 Q364 419 344 398 Q324 377 299 377 Q279 377 263 390 Q247 403 247 429 Z " />
<glyph glyph-name="tilde" unicode="&#x2dc;" horiz-adv-x="449" d="M315 422 Q330 422 340.5 434.5 Q351 447 358 463 Q366 481 371 505 Q393 516 401 511 Q409 506 405.5 492 Q402 478 389.5 458.5 Q377 439 359 421 Q341 403 318 390.5 Q295 378 272 378 Q247 378 231.5 384.5 Q216 391 206 400 Q196 409 189.5 420.5 Q183 432 177.5 441 Q172 450 164.5 456.5 Q157 463 146 463 Q130 463 119.5 450 Q109 437 102 421 Q94 403 90 380 Q68 369 60 374 Q52 379 55 393 Q58 407 70.5 426.5 Q83 446 101.5 464 Q120 482 142.5 494.5 Q165 507 189 507 Q223 507 241.5 493.5 Q260 480 271.5 464.5 Q283 449 291.5 435.5 Q300 422 315 422 Z " />
<glyph glyph-name="bullet" unicode="&#x2022;" horiz-adv-x="405" d="M45 238 Q45 254 53 270 Q61 286 74.5 300 Q88 314 104.5 326.5 Q121 339 139 350 Q180 375 234 396 Q262 384 284 369 Q303 356 319 338 Q335 320 335 298 Q335 281 327 265.5 Q319 250 305.5 236 Q292 222 275.5 209 Q259 196 241 185 Q200 159 148 138 Q119 149 96 165 Q76 178 60.5 196.5 Q45 215 45 238 Z " />
<glyph glyph-name="Zcaron" unicode="&#x17d;" horiz-adv-x="509" d="M485 22 L485 -3 Q452 -3 404 -2 Q362 -1 298 -0.5 Q234 0 144 0 Q134 0 116 -0.5 Q98 -1 79.5 -1.5 Q61 -2 45 -2.5 Q29 -3 22 -3 L13 17 L254 480 L171 480 L43 316 L26 316 Q26 319 27 341.5 Q28 364 29.5 391.5 Q31 419 32 445.5 Q33 472 33 484 L33 509 Q58 507 101 506 Q137 505 196 504.5 Q255 504 341 504 Q354 504 374.5 504.5 Q395 505 416 505.5 Q437 506 454.5 507 Q472 508 480 508 L487 493 L201 25 L347 25 L475 197 L493 197 Q493 194 491.5 170.5 Q490 147 488.5 118.5 Q487 90 486 62 Q485 34 485 22 Z M228 547 L93 704 Q83 716 99 713 Q115 710 142 696.5 Q169 683 201 663 Q233 643 254 621 Q275 643 307 663 Q339 683 366.5 696.5 Q394 710 409.5 713 Q425 716 415 704 L280 547 Q269 543 254 543 Q239 543 228 547 Z " />
<glyph glyph-name="zcaron" unicode="&#x17e;" horiz-adv-x="398" d="M195 353 Q175 353 160.5 352.5 Q146 352 136 351 Q125 350 116 350 L47 234 L30 234 Q30 237 31 251 Q32 265 33.5 282.5 Q35 300 36 318 Q37 336 37 348 L37 374 Q51 373 66 372 Q79 371 95.5 371 Q112 371 130 371 L274 371 Q316 371 342.5 372.5 Q369 374 374 374 L378 354 L197 23 Q246 23 273 26 Q288 27 300 29 L370 148 L386 148 Q386 145 385 132 Q384 119 382.5 101 Q381 83 380 63 Q379 43 379 27 L379 1 Q366 1 349 2 Q335 3 316 3.5 Q297 4 276 4 L120 4 Q85 4 60 2.5 Q35 1 30 1 L27 22 L195 353 Z M176 381 L41 538 Q31 550 47 547 Q63 544 90 530.5 Q117 517 149 497 Q181 477 202 455 Q223 477 255 497 Q287 517 314.5 530.5 Q342 544 357.5 547 Q373 550 363 538 L228 381 Q217 377 202 377 Q187 377 176 381 Z " />
<glyph glyph-name="guilsinglleft" unicode="&#x2039;" horiz-adv-x="304" d="M138 235 Q158 220 175.5 195.5 Q193 171 206 148 Q221 121 233 90 L178 73 L44 206 L245 396 L248 390 Q252 382 252 372 L138 235 Z " />
<glyph glyph-name="guilsinglright" unicode="&#x203a;" horiz-adv-x="271" d="M147 234 Q126 248 108.5 272.5 Q91 297 78 321 Q63 348 51 379 L106 396 L240 262 L40 73 Q38 75 36 79 Q34 82 33 86 Q32 90 32 96 L147 234 Z " />
<glyph glyph-name="Scaron" unicode="&#x160;" horiz-adv-x="475" d="M54 173 L191 3 Q263 3 292 20.5 Q321 38 321 82 Q321 105 300 121 Q279 137 247.5 150.5 Q216 164 179 178 Q142 192 110.5 212.5 Q79 233 58 263 Q37 293 37 337 Q37 381 55.5 415 Q74 449 106 472.5 Q138 496 180 508.5 Q222 521 270 521 Q307 521 335.5 514 Q364 507 384 499 Q407 489 424 478 Q424 460 425 439.5 Q426 419 427.5 401 Q429 383 430.5 369.5 Q432 356 432 353 L415 353 L289 496 Q263 496 238.5 491.5 Q214 487 194.5 477 Q175 467 163 452.5 Q151 438 151 419 Q151 395 174 378.5 Q197 362 231.5 348 Q266 334 306.5 320 Q347 306 381.5 285.5 Q416 265 439 235.5 Q462 206 462 162 Q462 80 401 29 Q340 -22 218 -22 Q182 -22 150.5 -15.5 Q119 -9 96 -1 Q69 8 45 20 Q45 42 43.5 67.5 Q42 93 40.5 115.5 Q39 138 38 154 Q37 170 37 173 L54 173 Z M211 547 L76 704 Q66 716 82 713 Q98 710 125 696.5 Q152 683 184 663 Q216 643 237 621 Q258 643 290 663 Q322 683 349.5 696.5 Q377 710 392.5 713 Q408 716 398 704 L263 547 Q252 543 237 543 Q222 543 211 547 Z " />
<glyph glyph-name="scaron" unicode="&#x161;" horiz-adv-x="373" d="M52 123 L153 20 Q217 20 217 60 Q217 83 203.5 96 Q190 109 169.5 118.5 Q149 128 125 137 Q101 146 80.5 160 Q60 174 46.5 196.5 Q33 219 33 256 Q33 293 50 319.5 Q67 346 94 362 Q121 378 154 385.5 Q187 393 219 393 Q245 393 266 389 Q287 385 301 380 Q318 374 329 367 Q330 337 333 309 Q336 281 336 274 L319 274 L228 371 Q206 371 189 365 Q172 359 172 337 Q172 313 186 299 Q200 285 220.5 274.5 Q241 264 265.5 254 Q290 244 310.5 229.5 Q331 215 345 192.5 Q359 170 359 134 Q359 92 340 65 Q321 38 291.5 23 Q262 8 225.5 2.5 Q189 -3 153 -3 Q124 -3 103.5 1 Q83 5 69 10 Q53 15 43 23 Q43 34 42 49.5 Q41 65 39.5 80 Q38 95 37 107 Q36 119 36 123 L52 123 Z M159 409 L24 566 Q14 578 30 575 Q46 572 73 558.5 Q100 545 132 525 Q164 505 185 483 Q206 505 238 525 Q270 545 297.5 558.5 Q325 572 340.5 575 Q356 578 346 566 L211 409 Q200 405 185 405 Q170 405 159 409 Z " />
<glyph glyph-name="Ydieresis" unicode="&#x178;" horiz-adv-x="641" d="M414 54 L516 11 L516 -3 Q509 -3 494 -2.5 Q479 -2 461.5 -1.5 Q444 -1 426 -0.5 Q408 0 396 0 L253 0 Q241 0 223.5 -0.5 Q206 -1 188.5 -1.5 Q171 -2 156 -2.5 Q141 -3 134 -3 L134 11 L234 54 L233 210 L89 454 L7 493 L7 509 Q21 509 45.5 506.5 Q70 504 94 504 L256 504 L281 462 L405 264 Q443 328 466.5 380.5 Q490 433 498 459 L430 494 L430 509 Q444 509 471 506.5 Q498 504 521 504 L546 504 Q570 504 595 506.5 Q620 509 634 509 L634 493 L550 454 L417 235 L414 54 Z M169 629 Q169 661 189.5 682.5 Q210 704 234 704 Q254 704 270 690.5 Q286 677 286 652 Q286 619 266 598 Q246 577 222 577 Q202 577 185.5 590 Q169 603 169 629 Z M354 629 Q354 661 374.5 682.5 Q395 704 419 704 Q439 704 455 690.5 Q471 677 471 652 Q471 619 451 598 Q431 577 406 577 Q386 577 370 590 Q354 603 354 629 Z " />
<glyph glyph-name="cedilla" unicode="&#xb8;" horiz-adv-x="354" d="M73 -198 Q111 -198 134.5 -187 Q158 -176 158 -155 Q158 -140 148 -132.5 Q138 -125 126.5 -118 Q115 -111 105 -101.5 Q95 -92 95 -72 Q95 -58 105 -44.5 Q115 -31 128 -20 Q142 -8 161 2 L184 2 Q171 -5 161 -14 Q152 -22 145 -31 Q138 -40 138 -48 Q138 -62 149.5 -69.5 Q161 -77 178.5 -81.5 Q196 -86 216.5 -90.5 Q237 -95 254.5 -101.5 Q272 -108 283.5 -119 Q295 -130 295 -149 Q295 -172 279 -185.5 Q263 -199 235 -206 Q207 -213 169 -215.5 Q131 -218 88 -218 L73 -198 Z " />
<glyph glyph-name="Ccedilla" unicode="&#xc7;" horiz-adv-x="554" d="M516 118 Q516 117 518 115 Q519 113 520.5 112 Q522 111 524 109 Q528 105 531 100 Q511 46 452 12 Q393 -22 302 -22 Q235 -22 185 -0.5 Q135 21 101.5 57.5 Q68 94 51.5 142 Q35 190 35 244 Q35 303 55.5 354 Q76 405 115 442 Q154 479 211 500 Q268 521 342 521 Q376 521 408 511.5 Q440 502 465 487.5 Q490 473 505 456.5 Q520 440 520 426 Q520 414 514.5 390.5 Q509 367 501 344 Q493 321 484.5 304 Q476 287 470 287 L464 291 Q429 348 399 394 Q386 413 373.5 431.5 Q361 450 349.5 464.5 Q338 479 330 488 Q322 497 318 497 Q268 497 252 433.5 Q236 370 236 243 Q236 182 243.5 141 Q251 100 265.5 75.5 Q280 51 301.5 40.5 Q323 30 352 30 Q426 30 465.5 54.5 Q505 79 516 118 Z M166 -198 Q204 -198 227.5 -187 Q251 -176 251 -155 Q251 -140 241 -132.5 Q231 -125 219.5 -118 Q208 -111 198 -101.5 Q188 -92 188 -72 Q188 -58 198 -44.5 Q208 -31 221 -20 Q235 -8 254 2 L277 2 Q264 -5 254 -14 Q245 -22 238 -31 Q231 -40 231 -48 Q231 -62 242.5 -69.5 Q254 -77 271.5 -81.5 Q289 -86 309.5 -90.5 Q330 -95 347.5 -101.5 Q365 -108 376.5 -119 Q388 -130 388 -149 Q388 -172 372 -185.5 Q356 -199 328 -206 Q300 -213 262 -215.5 Q224 -218 181 -218 L166 -198 Z " />
<glyph glyph-name="ccedilla" unicode="&#xe7;" horiz-adv-x="414" d="M388 328 L372 280 Q367 266 360.5 252.5 Q354 239 348 228.5 Q342 218 338 211 Q334 204 334 204 L321 214 L239 369 Q222 369 213 361 Q204 353 199.5 332.5 Q195 312 193.5 277.5 Q192 243 191 190 Q190 148 194 120 Q198 92 208 75 Q218 58 235 51 Q252 44 277 44 Q297 44 314.5 50.5 Q332 57 346 67 Q360 77 370 90 Q380 103 385 116 L398 97 Q388 76 372.5 56 Q357 36 335 20.5 Q313 5 285 -4 Q257 -13 221 -13 Q179 -13 141 -1 Q103 11 75 35 Q47 59 30.5 96.5 Q14 134 14 185 Q14 232 32.5 270.5 Q51 309 82.5 336 Q114 363 155.5 378 Q197 393 244 393 Q287 393 314.5 382.5 Q342 372 359 360 Q378 346 388 328 Z M96 -198 Q134 -198 157.5 -187 Q181 -176 181 -155 Q181 -140 171 -132.5 Q161 -125 149.5 -118 Q138 -111 128 -101.5 Q118 -92 118 -72 Q118 -58 128 -44.5 Q138 -31 151 -20 Q165 -8 184 2 L207 2 Q194 -5 184 -14 Q175 -22 168 -31 Q161 -40 161 -48 Q161 -62 172.5 -69.5 Q184 -77 201.5 -81.5 Q219 -86 239.5 -90.5 Q260 -95 277.5 -101.5 Q295 -108 306.5 -119 Q318 -130 318 -149 Q318 -172 302 -185.5 Q286 -199 258 -206 Q230 -213 192 -215.5 Q154 -218 111 -218 L96 -198 Z " />
<glyph glyph-name="acute" unicode="&#xb4;" horiz-adv-x="260" d="M37 347 L172 504 L223 453 Q223 431 207 411.5 Q191 392 167 377 Q143 362 116.5 351.5 Q90 341 69.5 336.5 Q49 332 38.5 334.5 Q28 337 37 347 Z " />
<glyph glyph-name="guillemotleft" unicode="&#xab;" horiz-adv-x="424" d="M111 237 Q131 222 149 197.5 Q167 173 180 150 Q195 123 207 92 L152 75 L18 208 L218 398 Q220 396 222 392 Q226 384 226 374 L111 237 Z M282 252 Q305 236 325 209.5 Q345 183 360 157 Q378 126 393 92 L338 75 L189 223 L374 398 L377 392 Q381 384 381 374 L282 252 Z " />
<glyph glyph-name="guillemotright" unicode="&#xbb;" horiz-adv-x="435" d="M138 219 Q115 234 95 261 Q75 288 60 314 Q42 345 28 379 L82 396 L232 248 L46 73 Q44 75 42 79 Q39 85 39 97 L138 219 Z M309 234 Q288 248 271 273 Q254 298 241 321 Q226 348 214 379 L269 396 L403 263 L202 73 Q200 75 198 79 Q195 85 195 97 L309 234 Z " />
<glyph glyph-name="Oslash" unicode="&#xd8;" horiz-adv-x="661" d="M309 -22 Q256 -22 214.5 -9 Q173 4 141 27 Q130 14 121.5 4 Q113 -6 108 -13 Q102 -21 97 -27 Q89 -27 83 -24.5 Q77 -22 72 -19 Q67 -15 62 -11 L116 48 Q80 85 59.5 134.5 Q39 184 39 241 Q39 300 60 351 Q81 402 121 440 Q161 478 218.5 499.5 Q276 521 349 521 Q436 521 496 484 Q505 495 512 503 Q519 511 524 517 L533 529 Q542 529 549.5 526.5 Q557 524 562 521 Q568 517 573 513 L527 464 Q571 427 595 374 Q619 321 619 259 Q619 199 598 147.5 Q577 96 537.5 58.5 Q498 21 440 -0.5 Q382 -22 309 -22 Z M409 386 Q399 443 382.5 470 Q366 497 334 497 Q302 497 283.5 481.5 Q265 466 255.5 434.5 Q246 403 243 355 Q240 307 240 243 Q240 227 240 212.5 Q240 198 241 184 Q295 245 334.5 295.5 Q374 346 409 386 Z M414 344 Q360 284 320 233.5 Q280 183 244 141 Q252 69 270 35.5 Q288 2 323 2 Q354 2 373 18 Q392 34 402 65.5 Q412 97 415 145 Q418 193 418 256 Q418 280 417 302 Q416 324 414 344 Z " />
<glyph glyph-name="oslash" unicode="&#xf8;" horiz-adv-x="486" d="M220 -13 Q158 -13 110 15 Q95 -2 85 -13.5 Q75 -25 68 -33 Q60 -42 56 -47 Q48 -47 39 -40 Q35 -36 30 -32 L88 29 Q57 55 37.5 93.5 Q18 132 18 181 Q18 228 38.5 267 Q59 306 93 334 Q127 362 172 377.5 Q217 393 266 393 Q302 393 334 383 Q366 373 390 355 Q415 383 426 397 Q432 405 436 409 Q442 409 447.5 406.5 Q453 404 458 401 Q463 397 468 394 L413 336 Q437 311 452.5 276.5 Q468 242 468 198 Q468 151 448 112.5 Q428 74 393.5 46 Q359 18 314 2.5 Q269 -13 220 -13 Z M294 249 Q291 288 286 311.5 Q281 335 274 348 Q267 361 259 365 Q251 369 242 369 Q230 369 220.5 364 Q211 359 204.5 341 Q198 323 194 288 Q190 253 190 193 Q190 177 190 164 Q190 151 191 139 Q221 171 246.5 198 Q272 225 294 249 Z M295 214 L194 107 Q197 78 202 59 Q207 40 214 29.5 Q221 19 228 15 Q235 11 243 11 Q255 11 264.5 16.5 Q274 22 280.5 40 Q287 58 291 93 Q295 128 295 187 L295 214 Z " />
<glyph glyph-name="questiondown" unicode="&#xbf;" horiz-adv-x="409" d="M354 10 Q329 -9 292 -19.5 Q255 -30 212 -30 Q182 -30 153 -24.5 Q124 -19 101.5 -8.5 Q79 2 65.5 16 Q52 30 52 47 Q52 81 70 105 Q88 129 110 149 Q132 169 150 186.5 Q168 204 168 224 Q168 249 148 263 Q128 277 99 282 Q88 284 88 287.5 Q88 291 92 295 Q96 299 106 304 Q129 301 170.5 298 Q212 295 252.5 286 Q293 277 323 259 Q353 241 353 209 Q353 178 325 154 Q297 130 262 109 Q227 88 196 67.5 Q165 47 158 23 Q169 17 182 13 Q193 9 207.5 6 Q222 3 239 3 Q271 3 297.5 9.5 Q324 16 348 30 Q353 28 356 24 Q362 16 354 10 Z M315 426 Q315 405 301 388 Q287 371 270 358 Q250 343 225 332 Q202 342 184 353 Q169 363 156.5 377 Q144 391 144 410 Q144 430 158 447.5 Q172 465 189 478 Q209 493 235 504 Q257 495 275 484 Q290 474 302.5 459.5 Q315 445 315 426 Z " />
<glyph glyph-name="exclamdown" unicode="&#xa1;" horiz-adv-x="254" d="M86 288 Q116 296 141 300 Q162 303 179.5 301 Q197 299 198 288 L212 1 Q184 -10 155 -18 Q130 -25 99.5 -30.5 Q69 -36 40 -36 Q32 -36 27.5 -34 Q23 -32 25 -24 L86 288 Z M234 426 Q234 405 219.5 388 Q205 371 188 358 Q168 343 143 332 Q120 342 102 353 Q87 363 74.5 377 Q62 391 62 410 Q62 430 76 447.5 Q90 465 107 478 Q127 493 153 504 Q175 495 193 484 Q208 474 221 459.5 Q234 445 234 426 Z " />
<glyph glyph-name="quotedblleft" unicode="&#x201c;" horiz-adv-x="386" d="M181 239 Q181 232 168 222.5 Q155 213 139 204 Q121 193 98 182 Q78 195 63 213 Q49 228 38.5 248 Q28 268 28 293 Q28 338 49 379 Q70 420 96.5 451.5 Q123 483 147 502 Q171 521 177 521 Q184 521 184 513 Q184 507 177 497 Q170 487 162 468.5 Q154 450 147 422.5 Q140 395 140 355 Q140 321 146 299 Q152 277 160 263 Q169 247 181 239 Z M352 239 Q352 232 339 222.5 Q326 213 310 204 Q292 193 269 182 Q249 195 234 213 Q220 228 209.5 248 Q199 268 199 293 Q199 338 220 379 Q241 420 267.5 451.5 Q294 483 318 502 Q342 521 348 521 Q355 521 355 513 Q355 507 348 497 Q341 487 333 468.5 Q325 450 318 422.5 Q311 395 311 355 Q311 321 317 299 Q323 277 331 263 Q340 247 352 239 Z " />
<glyph glyph-name="quoteleft" unicode="&#x2018;" horiz-adv-x="223" d="M187 240 Q187 233 174 223.5 Q161 214 146 205 Q128 194 105 183 Q85 196 70 214 Q56 229 45.5 249 Q35 269 35 294 Q35 339 56 380 Q77 421 103.5 452.5 Q130 484 153.5 503 Q177 522 183 522 Q190 522 190 514 Q190 508 183 498 Q176 488 168 469.5 Q160 451 153 423.5 Q146 396 146 356 Q146 322 152 300 Q158 278 166 264 Q175 248 187 240 Z " />
<glyph glyph-name="quoteright" unicode="&#x2019;" horiz-adv-x="250" d="M53 464 Q53 470 65.5 480 Q78 490 94 499 Q112 510 136 521 Q155 508 171 490 Q184 475 195 454.5 Q206 434 206 410 Q206 365 185 323.5 Q164 282 137.5 250.5 Q111 219 87.5 200.5 Q64 182 58 182 Q51 182 51 190 Q51 196 58 206.5 Q65 217 73 235 Q81 253 88 280.5 Q95 308 95 348 Q95 382 88.5 404 Q82 426 74 440 Q64 456 53 464 Z " />
<glyph glyph-name="quotedblright" unicode="&#x201d;" horiz-adv-x="414" d="M58 464 Q58 470 70.5 480 Q83 490 99 499 Q117 510 141 521 Q160 508 176 490 Q189 475 200 454.5 Q211 434 211 410 Q211 365 190 323.5 Q169 282 142.5 250.5 Q116 219 92 200.5 Q68 182 62 182 Q55 182 55 190 Q55 196 62 206.5 Q69 217 77 235 Q85 253 92 280.5 Q99 308 99 348 Q99 382 92.5 404 Q86 426 78 440 Q69 456 58 464 Z M229 464 Q229 470 241.5 480 Q254 490 270 499 Q288 510 312 521 Q331 508 347 490 Q360 475 371 454.5 Q382 434 382 410 Q382 365 361 323.5 Q340 282 313.5 250.5 Q287 219 263 200.5 Q239 182 233 182 Q226 182 226 190 Q226 196 233 206.5 Q240 217 248 235 Q256 253 263 280.5 Q270 308 270 348 Q270 382 263.5 404 Q257 426 249 440 Q240 456 229 464 Z " />
<glyph glyph-name="quotesinglbase" unicode="&#x201a;" horiz-adv-x="265" d="M54 71 Q54 77 66.5 87 Q79 97 95 106 Q113 117 137 128 Q156 115 172 97 Q185 82 196 61.5 Q207 41 207 17 Q207 -28 186 -69.5 Q165 -111 138.5 -142.5 Q112 -174 88.5 -192.5 Q65 -211 59 -211 Q52 -211 52 -203 Q52 -197 59 -186.5 Q66 -176 74 -158 Q82 -140 89 -112.5 Q96 -85 96 -45 Q96 -11 89.5 11 Q83 33 75 47 Q65 63 54 71 Z " />
<glyph glyph-name="quotedblbase" unicode="&#x201e;" horiz-adv-x="475" d="M68 95 Q68 101 80.5 111 Q93 121 109 130 Q127 141 151 152 Q170 139 186 121 Q199 106 210 85.5 Q221 65 221 41 Q221 -4 200 -45.5 Q179 -87 152.5 -118.5 Q126 -150 102 -168.5 Q78 -187 72 -187 Q65 -187 65 -179 Q65 -173 72 -162.5 Q79 -152 87 -134 Q95 -116 102 -88.5 Q109 -61 109 -21 Q109 13 102.5 35 Q96 57 88 71 Q79 87 68 95 Z M239 95 Q239 101 251.5 111 Q264 121 280 130 Q298 141 322 152 Q341 139 357 121 Q370 106 381 85.5 Q392 65 392 41 Q392 -4 371 -45.5 Q350 -87 323.5 -118.5 Q297 -150 273 -168.5 Q249 -187 243 -187 Q236 -187 236 -179 Q236 -173 243 -162.5 Q250 -152 258 -134 Q266 -116 273 -88.5 Q280 -61 280 -21 Q280 13 273.5 35 Q267 57 259 71 Q250 87 239 95 Z " />
<glyph glyph-name="trademark" unicode="&#x2122;" horiz-adv-x="788" d="M209 289 L255 267 L255 256 Q245 256 235 257 Q227 257 217.5 257.5 Q208 258 202 258 L130 258 Q116 258 98 257 Q80 256 77 256 L77 267 L121 289 L125 506 L93 506 L53 442 L41 442 Q41 443 41.5 451 Q42 459 43 469 Q44 479 44.5 489.5 Q45 500 45 506 L45 522 Q48 521 60 521 L148 521 L183 521 L271 521 Q283 521 286 522 L286 506 Q286 499 286.5 489 Q287 479 287.5 469 Q288 459 288.5 451 Q289 443 289 442 L279 442 L238 506 L207 506 L209 289 Z M581 491 L548 511 L548 522 Q551 522 565.5 521.5 Q580 521 593 521 L666 521 Q679 521 691 521.5 Q703 522 707 522 L707 511 L672 489 L677 287 L711 267 L711 256 Q707 256 696.5 257 Q686 258 674 258 L597 258 Q585 258 568.5 257 Q552 256 548 256 L548 267 L591 289 L589 466 L506 256 L466 256 L383 466 L386 289 L429 267 L429 256 Q425 256 411 257 Q397 258 384 258 L365 258 Q352 258 342.5 257 Q333 256 329 256 L329 267 L367 287 L365 492 L328 511 L328 522 Q332 522 346 521.5 Q360 521 373 521 L446 521 Q449 515 451 509.5 Q453 504 455 500 Q457 495 459 491 L521 343 L581 491 Z " />
<glyph glyph-name="copyright" unicode="&#xa9;" horiz-adv-x="758" d="M379 546 Q443 546 501 524 Q559 502 602.5 462 Q646 422 672 366.5 Q698 311 698 244 Q698 177 672 121.5 Q646 66 602.5 26 Q559 -14 501 -36 Q443 -58 379 -58 Q314 -58 256.5 -36 Q199 -14 155 26 Q111 66 85.5 121.5 Q60 177 60 244 Q60 311 85.5 366.5 Q111 422 155 462 Q199 502 256.5 524 Q314 546 379 546 Z M379 -37 Q437 -37 488.5 -15.5 Q540 6 578.5 43.5 Q617 81 639.5 132.5 Q662 184 662 244 Q662 304 639.5 355.5 Q617 407 578.5 444.5 Q540 482 488.5 503 Q437 524 379 524 Q322 524 270.5 503 Q219 482 180 444.5 Q141 407 118.5 355.5 Q96 304 96 244 Q96 184 118.5 132.5 Q141 81 180 43.5 Q219 6 270.5 -15.5 Q322 -37 379 -37 Z M540 366 L518 315 Q508 292 501 276 Q494 260 489 257 L471 264 L397 405 Q382 405 373 397.5 Q364 390 358 371 Q352 352 349.5 321 Q347 290 346 242 Q345 201 350 174 Q355 147 365.5 131.5 Q376 116 392.5 109.5 Q409 103 432 103 Q450 103 466.5 108.5 Q483 114 497 123 Q511 132 521.5 143.5 Q532 155 537 167 Q547 167 549 160.5 Q551 154 549 150 Q540 133 524.5 117 Q509 101 488 87.5 Q467 74 440 66 Q413 58 381 58 Q343 58 309 68.5 Q275 79 249.5 101.5 Q224 124 209.5 157.5 Q195 191 195 238 Q195 280 211.5 314.5 Q228 349 256 373.5 Q284 398 321.5 411.5 Q359 425 402 425 Q440 425 466.5 415.5 Q493 406 510 395 Q529 382 540 366 Z " />
<glyph glyph-name="registered" unicode="&#xae;" horiz-adv-x="722" d="M360 552 Q424 552 482.5 530 Q541 508 584.5 468 Q628 428 654 372.5 Q680 317 680 250 Q680 183 654 127.5 Q628 72 584.5 32 Q541 -8 482.5 -30 Q424 -52 360 -52 Q296 -52 238 -30 Q180 -8 136.5 32 Q93 72 67 127.5 Q41 183 41 250 Q41 317 67 372.5 Q93 428 136.5 468 Q180 508 238 530 Q296 552 360 552 Z M508 222 Q515 201 524 179.5 Q533 158 543.5 139 Q554 120 565.5 105 Q577 90 590 83 Q615 118 629 160 Q643 202 643 250 Q643 310 620.5 361.5 Q598 413 559.5 450.5 Q521 488 469.5 509 Q418 530 360 530 Q303 530 251.5 509 Q200 488 161 450.5 Q122 413 99.5 361.5 Q77 310 77 250 Q77 190 99.5 138.5 Q122 87 161 49.5 Q200 12 251.5 -9.5 Q303 -31 360 -31 Q426 -31 483 -4 Q540 23 580 71 L441 71 Q429 94 417 120 Q406 143 393.5 173.5 Q381 204 368 239 L347 238 L345 109 L388 84 L388 71 Q383 71 372.5 72.5 Q362 74 345 74 L233 74 Q216 74 197.5 72.5 Q179 71 174 71 L174 84 L224 112 L219 384 L170 413 L170 426 Q175 426 194 425 Q213 424 230 424 L309 424 Q329 424 350 425 Q371 426 394 426 Q464 426 499 404.5 Q534 383 534 344 Q534 303 495.5 275 Q457 247 395 247 Q423 246 447 243 Q467 241 485 236 Q503 231 508 222 Z M348 401 L347 260 L355 260 Q394 260 406.5 283 Q419 306 419 342 Q419 378 411.5 391.5 Q404 405 376 405 Q366 405 356 403 Q352 402 348 401 Z " />
<glyph glyph-name="sterling" unicode="&#xa3;" horiz-adv-x="501" d="M481 182 Q483 161 480.5 126.5 Q478 92 466 59 Q454 26 430.5 2 Q407 -22 368 -22 Q344 -22 327 -18 Q310 -14 292.5 -8.5 Q275 -3 253.5 2.5 Q232 8 199 10 Q184 11 163.5 9.5 Q143 8 119.5 6 Q96 4 72.5 3 Q49 2 28 3 L29 20 Q68 22 97 41 Q126 60 129 107 Q131 136 124 165 Q117 194 107 223 L29 222 L38 248 L98 249 Q87 278 80.5 308 Q74 338 76 367 Q78 404 100 431.5 Q122 459 155.5 476.5 Q189 494 231.5 501.5 Q274 509 317 506 Q347 504 373 497.5 Q399 491 419 484 Q442 476 461 466 Q460 448 459.5 424.5 Q459 401 459 379.5 Q459 358 459 342 Q459 326 459 323 L442 324 L327 488 Q307 472 290 440 Q276 413 262.5 367 Q249 321 244 249 L403 252 L394 226 L241 224 Q238 194 231 165 Q224 136 209.5 110 Q195 84 172 62.5 Q149 41 115 26 Q224 33 291 41 Q358 49 394.5 64.5 Q431 80 445 108 Q459 136 464 183 L481 182 L481 182 Z " />
<glyph glyph-name="cent" unicode="&#xa2;" horiz-adv-x="427" d="M211 -168 L219 -15 Q177 -14 138.5 -2 Q100 10 71 34.5 Q42 59 24.5 96 Q7 133 7 183 Q7 228 25 264.5 Q43 301 73.5 328 Q104 355 144 371 Q184 387 228 390 Q228 423 227.5 449.5 Q227 476 227 495 L227 534 L272 534 Q270 498 268.5 461.5 Q267 425 265 390 Q303 388 328.5 377.5 Q354 367 370 356 Q388 343 400 326 L375 268 Q365 242 358 228 Q351 214 346 207 L324 213 L282 363 L264 365 Q259 268 257 186 Q255 104 253 35 Q259 34 265 34 Q271 34 279 34 Q299 34 317.5 40.5 Q336 47 352 57 Q368 67 379.5 80 Q391 93 396 106 Q407 106 409 98.5 Q411 91 409 86 Q400 70 385 53.5 Q370 37 350.5 23.5 Q331 10 306 0 Q281 -10 252 -14 Q251 -49 250.5 -77.5 Q250 -106 250 -126 L250 -168 L211 -168 Z M221 39 Q224 134 225.5 216.5 Q227 299 228 365 Q209 360 197.5 348.5 Q186 337 179 316.5 Q172 296 169.5 265 Q167 234 167 189 Q167 152 169 126 Q171 100 177 82.5 Q183 65 193.5 54.5 Q204 44 221 39 Z " />
<glyph glyph-name="yen" unicode="&#xa5;" horiz-adv-x="658" d="M409 269 Q446 332 470.5 381.5 Q495 431 502 457 L427 495 L427 510 Q434 510 446 509.5 Q458 509 472.5 508 Q487 507 501.5 506.5 Q516 506 528 506 L552 506 Q576 506 601 508 Q626 510 640 510 L640 495 L556 455 L430 256 L545 263 L538 230 L428 222 L427 162 L545 170 L538 137 L426 129 L425 54 L527 12 L527 -2 Q520 -2 505 -1.5 Q490 -1 472 -0.5 Q454 0 436.5 0.5 Q419 1 407 1 L273 1 Q261 1 243 0.5 Q225 0 207.5 -0.5 Q190 -1 175 -1.5 Q160 -2 153 -2 L153 12 L254 54 L253 118 L138 110 L145 143 L252 150 L252 211 L138 203 L145 236 L234 243 L105 455 L22 495 L22 510 Q36 510 61 508 Q86 506 109 506 L253 506 Q265 506 279 506.5 Q293 507 306.5 508 Q320 509 331 509.5 Q342 510 349 510 L349 495 L291 457 L409 269 Z " />
<glyph glyph-name="mu" unicode="&#xb5;" horiz-adv-x="579" d="M280 -191 L110 -218 L110 301 Q101 298 90 296 Q81 294 69.5 293 Q58 292 47 292 L44 304 Q85 320 140 345 Q195 370 250 399 L272 391 L270 52 Q271 51 274 50 Q280 48 293 48 Q307 48 318 51 Q329 54 338 58 L335 297 Q329 295 324 294 Q319 293 313.5 292.5 Q308 292 303 292 L302 304 Q337 321 384 345.5 Q431 370 480 399 Q480 399 490 395 L500 391 L497 51 L565 13 L565 -1 Q559 -1 546 0 Q533 1 518 1.5 Q503 2 488 3 Q473 4 461 4 Q432 4 409.5 3 Q387 2 371 1 Q353 0 338 -1 L338 35 Q319 20 305 11 Q291 2 274 2 L280 -191 Z " />
<glyph glyph-name="section" unicode="&#xa7;" horiz-adv-x="533" d="M396 153 Q423 136 440.5 113 Q458 90 458 60 Q458 -4 401 -29 Q344 -54 245 -54 Q208 -54 182.5 -49.5 Q157 -45 140 -40 Q121 -34 108 -26 Q107 9 104 35.5 Q101 62 101 70 Q101 78 107 78 Q113 78 118 70 L200 -34 Q214 -34 227.5 -32 Q241 -30 251.5 -25 Q262 -20 268.5 -12 Q275 -4 275 9 Q275 36 257 50.5 Q239 65 212 74.5 Q185 84 154 92.5 Q123 101 96 115 Q69 129 51 153 Q33 177 33 218 Q33 240 42 259 Q51 278 64.5 293.5 Q78 309 94 321.5 Q110 334 123 342 Q95 359 78 382 Q61 405 61 436 Q61 499 117.5 524.5 Q174 550 274 550 Q311 550 336.5 545.5 Q362 541 379 536 Q398 530 411 522 Q412 487 415 460.5 Q418 434 418 426 Q418 417 412 417.5 Q406 418 401 426 L319 530 Q290 530 267 521 Q244 512 244 487 Q244 460 262 445.5 Q280 431 306.5 421.5 Q333 412 364.5 403.5 Q396 395 422.5 381 Q449 367 467 343 Q485 319 485 278 Q485 255 476 236 Q467 217 453.5 201 Q440 185 424.5 173 Q409 161 396 153 Z M137 333 Q128 325 120.5 315.5 Q113 306 113 292 Q113 271 141 255.5 Q169 240 210 226 Q251 212 297 197 Q343 182 379 163 Q389 171 397.5 181 Q406 191 406 204 Q406 225 377.5 240.5 Q349 256 308 270 Q267 284 220 298.5 Q173 313 137 333 Z " />
<glyph glyph-name="ordfeminine" unicode="&#xaa;" horiz-adv-x="385" d="M310 272 L366 240 Q374 235 374 230 Q374 225 366 225 Q355 225 335 226.5 Q315 228 292 228 L221 228 L209 261 Q196 248 176 235 Q156 222 115 222 Q80 222 54.5 239 Q29 256 29 294 Q29 323 42.5 341.5 Q56 360 77.5 370.5 Q99 381 126 385 Q153 389 181 389 L209 381 L208 466 Q204 469 197 473 Q191 475 181 477.5 Q171 480 157 480 Q134 480 119.5 475.5 Q105 471 97 464 Q89 457 86 447 Q83 437 83 427 Q73 427 66 429 Q59 431 54 434.5 Q49 438 49 445 Q49 458 67 471.5 Q85 485 111 496 Q137 507 165 514 Q193 521 214 521 Q230 521 248 517 Q266 513 280.5 503.5 Q295 494 304 478.5 Q313 463 313 441 L310 272 Z M209 361 Q204 362 198 364 Q193 365 186.5 366 Q180 367 173 367 Q150 367 139 353.5 Q128 340 128 307 Q128 281 134 268 Q140 255 157 255 Q169 255 183 263 Q197 271 209 284 L209 361 Z " />
<glyph glyph-name="Agrave" unicode="&#xc0;" horiz-adv-x="663" d="M121 48 L194 11 L194 -3 Q180 -3 156 -1.5 Q132 0 108 0 L94 0 Q73 0 49 -1.5 Q25 -3 5 -3 L5 11 L83 49 L263 453 L284 504 L439 504 L582 48 L659 11 L659 -3 Q639 -3 614.5 -1.5 Q590 0 568 0 L408 0 Q396 0 380.5 -0.5 Q365 -1 350.5 -1.5 Q336 -2 323.5 -2.5 Q311 -3 304 -3 L304 11 L386 50 L345 177 L177 173 L121 48 Z M189 204 L336 200 L273 397 L189 204 Z M271 721 L406 564 Q415 554 404.5 551.5 Q394 549 373.5 553.5 Q353 558 326.5 568.5 Q300 579 276.5 594 Q253 609 237 628.5 Q221 648 221 670 L271 721 Z " />
<glyph glyph-name="Aacute" unicode="&#xc1;" horiz-adv-x="663" d="M121 48 L194 11 L194 -3 Q180 -3 156 -1.5 Q132 0 108 0 L94 0 Q73 0 49 -1.5 Q25 -3 5 -3 L5 11 L83 49 L263 453 L284 504 L439 504 L582 48 L659 11 L659 -3 Q639 -3 614.5 -1.5 Q590 0 568 0 L408 0 Q396 0 380.5 -0.5 Q365 -1 350.5 -1.5 Q336 -2 323.5 -2.5 Q311 -3 304 -3 L304 11 L386 50 L345 177 L177 173 L121 48 Z M189 204 L336 200 L273 397 L189 204 Z M256 547 L391 704 L442 653 Q442 631 426 611.5 Q410 592 386 577 Q362 562 335.5 551.5 Q309 541 288.5 536.5 Q268 532 257.5 534.5 Q247 537 256 547 Z " />
<glyph glyph-name="Acircumflex" unicode="&#xc2;" horiz-adv-x="663" d="M121 48 L194 11 L194 -3 Q180 -3 156 -1.5 Q132 0 108 0 L94 0 Q73 0 49 -1.5 Q25 -3 5 -3 L5 11 L83 49 L263 453 L284 504 L439 504 L582 48 L659 11 L659 -3 Q639 -3 614.5 -1.5 Q590 0 568 0 L408 0 Q396 0 380.5 -0.5 Q365 -1 350.5 -1.5 Q336 -2 323.5 -2.5 Q311 -3 304 -3 L304 11 L386 50 L345 177 L177 173 L121 48 Z M189 204 L336 200 L273 397 L189 204 Z M357 704 L492 547 Q502 535 486.5 538 Q471 541 443 554 Q415 567 383 587 Q351 607 330 629 Q309 607 277.5 587 Q246 567 218.5 554 Q191 541 175 538 Q159 535 170 547 L305 704 Q316 708 331 708 Q346 708 357 704 Z " />
<glyph glyph-name="Atilde" unicode="&#xc3;" horiz-adv-x="663" d="M121 48 L194 11 L194 -3 Q180 -3 156 -1.5 Q132 0 108 0 L94 0 Q73 0 49 -1.5 Q25 -3 5 -3 L5 11 L83 49 L263 453 L284 504 L439 504 L582 48 L659 11 L659 -3 Q639 -3 614.5 -1.5 Q590 0 568 0 L408 0 Q396 0 380.5 -0.5 Q365 -1 350.5 -1.5 Q336 -2 323.5 -2.5 Q311 -3 304 -3 L304 11 L386 50 L345 177 L177 173 L121 48 Z M189 204 L336 200 L273 397 L189 204 Z M416 622 Q431 622 441.5 634.5 Q452 647 459 663 Q467 681 472 705 Q494 716 502 711 Q510 706 506.5 692 Q503 678 490.5 658.5 Q478 639 460 621 Q442 603 419 590.5 Q396 578 373 578 Q348 578 332.5 584.5 Q317 591 307 600 Q297 609 290.5 620.5 Q284 632 278.5 641 Q273 650 265.5 656.5 Q258 663 247 663 Q231 663 220.5 650 Q210 637 203 621 Q195 603 191 580 Q169 569 161 574 Q153 579 156 593 Q159 607 171.5 626.5 Q184 646 202.5 664 Q221 682 243.5 694.5 Q266 707 290 707 Q324 707 342.5 693.5 Q361 680 372.5 664.5 Q384 649 392.5 635.5 Q401 622 416 622 Z " />
<glyph glyph-name="Adieresis" unicode="&#xc4;" horiz-adv-x="663" d="M121 48 L194 11 L194 -3 Q180 -3 156 -1.5 Q132 0 108 0 L94 0 Q73 0 49 -1.5 Q25 -3 5 -3 L5 11 L83 49 L263 453 L284 504 L439 504 L582 48 L659 11 L659 -3 Q639 -3 614.5 -1.5 Q590 0 568 0 L408 0 Q396 0 380.5 -0.5 Q365 -1 350.5 -1.5 Q336 -2 323.5 -2.5 Q311 -3 304 -3 L304 11 L386 50 L345 177 L177 173 L121 48 Z M189 204 L336 200 L273 397 L189 204 Z M180 629 Q180 661 200.5 682.5 Q221 704 245 704 Q265 704 281 690.5 Q297 677 297 652 Q297 619 277 598 Q257 577 233 577 Q213 577 196.5 590 Q180 603 180 629 Z M365 629 Q365 661 385.5 682.5 Q406 704 430 704 Q450 704 466 690.5 Q482 677 482 652 Q482 619 462 598 Q442 577 417 577 Q397 577 381 590 Q365 603 365 629 Z " />
<glyph glyph-name="Aring" unicode="&#xc5;" horiz-adv-x="663" d="M121 48 L194 11 L194 -3 Q180 -3 156 -1.5 Q132 0 108 0 L94 0 Q73 0 49 -1.5 Q25 -3 5 -3 L5 11 L83 49 L263 453 L284 504 L439 504 L582 48 L659 11 L659 -3 Q639 -3 614.5 -1.5 Q590 0 568 0 L408 0 Q396 0 380.5 -0.5 Q365 -1 350.5 -1.5 Q336 -2 323.5 -2.5 Q311 -3 304 -3 L304 11 L386 50 L345 177 L177 173 L121 48 Z M189 204 L336 200 L273 397 L189 204 Z M331 721 Q382 721 414 695 Q446 669 446 631 Q446 593 414 567.5 Q382 542 331 542 Q280 542 248 567.5 Q216 593 216 631 Q216 669 248 695 Q280 721 331 721 Z M331 565 Q358 565 373 584 Q388 603 388 631 Q388 658 373 677.5 Q358 697 331 697 Q304 697 288.5 677.5 Q273 658 273 631 Q273 603 288.5 584 Q304 565 331 565 Z " />
<glyph glyph-name="Egrave" unicode="&#xc8;" horiz-adv-x="518" d="M388 278 Q388 243 390.5 223.5 Q393 204 393 197 Q393 192 381 201.5 Q369 211 355 224 Q338 239 317 260 L282 260 L282 25 L379 25 L476 170 L490 170 Q490 167 489 148 Q488 129 486.5 105 Q485 81 484 57.5 Q483 34 483 22 L483 -3 Q474 -3 443 -2 Q417 -1 365.5 -0.5 Q314 0 224 0 L118 0 Q106 0 90.5 -0.5 Q75 -1 60 -1.5 Q45 -2 32.5 -2.5 Q20 -3 13 -3 L13 11 L101 51 L91 454 L9 493 L9 509 Q16 509 28.5 508 Q41 507 56 506.5 Q71 506 86 505 Q101 504 113 504 L224 504 Q311 504 360 504.5 Q409 505 433 506 Q461 507 468 509 L468 484 Q468 471 469 449 Q470 427 471.5 404.5 Q473 382 474 364 Q475 346 475 343 L460 343 L365 480 L282 480 L282 288 L317 288 Q337 305 354 318 Q368 329 380 337 Q392 345 392 340 Q392 333 390 320 Q388 307 388 278 Z M199 721 L334 564 Q343 554 332.5 551.5 Q322 549 301.5 553.5 Q281 558 254.5 568.5 Q228 579 204.5 594 Q181 609 165 628.5 Q149 648 149 670 L199 721 Z " />
<glyph glyph-name="Eacute" unicode="&#xc9;" horiz-adv-x="518" d="M388 278 Q388 243 390.5 223.5 Q393 204 393 197 Q393 192 381 201.5 Q369 211 355 224 Q338 239 317 260 L282 260 L282 25 L379 25 L476 170 L490 170 Q490 167 489 148 Q488 129 486.5 105 Q485 81 484 57.5 Q483 34 483 22 L483 -3 Q474 -3 443 -2 Q417 -1 365.5 -0.5 Q314 0 224 0 L118 0 Q106 0 90.5 -0.5 Q75 -1 60 -1.5 Q45 -2 32.5 -2.5 Q20 -3 13 -3 L13 11 L101 51 L91 454 L9 493 L9 509 Q16 509 28.5 508 Q41 507 56 506.5 Q71 506 86 505 Q101 504 113 504 L224 504 Q311 504 360 504.5 Q409 505 433 506 Q461 507 468 509 L468 484 Q468 471 469 449 Q470 427 471.5 404.5 Q473 382 474 364 Q475 346 475 343 L460 343 L365 480 L282 480 L282 288 L317 288 Q337 305 354 318 Q368 329 380 337 Q392 345 392 340 Q392 333 390 320 Q388 307 388 278 Z M183 547 L318 704 L369 653 Q369 631 353 611.5 Q337 592 313 577 Q289 562 262.5 551.5 Q236 541 215.5 536.5 Q195 532 184.5 534.5 Q174 537 183 547 Z " />
<glyph glyph-name="Ecircumflex" unicode="&#xca;" horiz-adv-x="518" d="M388 278 Q388 243 390.5 223.5 Q393 204 393 197 Q393 192 381 201.5 Q369 211 355 224 Q338 239 317 260 L282 260 L282 25 L379 25 L476 170 L490 170 Q490 167 489 148 Q488 129 486.5 105 Q485 81 484 57.5 Q483 34 483 22 L483 -3 Q474 -3 443 -2 Q417 -1 365.5 -0.5 Q314 0 224 0 L118 0 Q106 0 90.5 -0.5 Q75 -1 60 -1.5 Q45 -2 32.5 -2.5 Q20 -3 13 -3 L13 11 L101 51 L91 454 L9 493 L9 509 Q16 509 28.5 508 Q41 507 56 506.5 Q71 506 86 505 Q101 504 113 504 L224 504 Q311 504 360 504.5 Q409 505 433 506 Q461 507 468 509 L468 484 Q468 471 469 449 Q470 427 471.5 404.5 Q473 382 474 364 Q475 346 475 343 L460 343 L365 480 L282 480 L282 288 L317 288 Q337 305 354 318 Q368 329 380 337 Q392 345 392 340 Q392 333 390 320 Q388 307 388 278 Z M285 704 L420 547 Q430 535 414.5 538 Q399 541 371 554 Q343 567 311 587 Q279 607 258 629 Q237 607 205.5 587 Q174 567 146.5 554 Q119 541 103 538 Q87 535 98 547 L233 704 Q244 708 259 708 Q274 708 285 704 Z " />
<glyph glyph-name="Igrave" unicode="&#xcc;" horiz-adv-x="376" d="M265 0 L113 0 Q101 0 85.5 -0.5 Q70 -1 55 -1.5 Q40 -2 27.5 -2.5 Q15 -3 8 -3 L8 11 L95 51 L87 454 L4 493 L4 509 Q11 509 23 508 Q35 507 49.5 506.5 Q64 506 79 505 Q94 504 106 504 L269 504 Q281 504 295.5 505 Q310 506 323.5 506.5 Q337 507 348.5 508 Q360 509 367 509 L367 493 L288 453 L282 51 L362 11 L362 -3 Q355 -3 343.5 -2.5 Q332 -2 318.5 -1.5 Q305 -1 291 -0.5 Q277 0 265 0 Z M128 721 L263 564 Q272 554 261.5 551.5 Q251 549 230.5 553.5 Q210 558 183.5 568.5 Q157 579 133.5 594 Q110 609 94 628.5 Q78 648 78 670 L128 721 Z " />
<glyph glyph-name="Edieresis" unicode="&#xcb;" horiz-adv-x="518" d="M388 278 Q388 243 390.5 223.5 Q393 204 393 197 Q393 192 381 201.5 Q369 211 355 224 Q338 239 317 260 L282 260 L282 25 L379 25 L476 170 L490 170 Q490 167 489 148 Q488 129 486.5 105 Q485 81 484 57.5 Q483 34 483 22 L483 -3 Q474 -3 443 -2 Q417 -1 365.5 -0.5 Q314 0 224 0 L118 0 Q106 0 90.5 -0.5 Q75 -1 60 -1.5 Q45 -2 32.5 -2.5 Q20 -3 13 -3 L13 11 L101 51 L91 454 L9 493 L9 509 Q16 509 28.5 508 Q41 507 56 506.5 Q71 506 86 505 Q101 504 113 504 L224 504 Q311 504 360 504.5 Q409 505 433 506 Q461 507 468 509 L468 484 Q468 471 469 449 Q470 427 471.5 404.5 Q473 382 474 364 Q475 346 475 343 L460 343 L365 480 L282 480 L282 288 L317 288 Q337 305 354 318 Q368 329 380 337 Q392 345 392 340 Q392 333 390 320 Q388 307 388 278 Z M108 629 Q108 661 128.5 682.5 Q149 704 173 704 Q193 704 209 690.5 Q225 677 225 652 Q225 619 205 598 Q185 577 161 577 Q141 577 124.5 590 Q108 603 108 629 Z M293 629 Q293 661 313.5 682.5 Q334 704 358 704 Q378 704 394 690.5 Q410 677 410 652 Q410 619 390 598 Q370 577 345 577 Q325 577 309 590 Q293 603 293 629 Z " />
<glyph glyph-name="Iacute" unicode="&#xcd;" horiz-adv-x="376" d="M265 0 L113 0 Q101 0 85.5 -0.5 Q70 -1 55 -1.5 Q40 -2 27.5 -2.5 Q15 -3 8 -3 L8 11 L95 51 L87 454 L4 493 L4 509 Q11 509 23 508 Q35 507 49.5 506.5 Q64 506 79 505 Q94 504 106 504 L269 504 Q281 504 295.5 505 Q310 506 323.5 506.5 Q337 507 348.5 508 Q360 509 367 509 L367 493 L288 453 L282 51 L362 11 L362 -3 Q355 -3 343.5 -2.5 Q332 -2 318.5 -1.5 Q305 -1 291 -0.5 Q277 0 265 0 Z M112 547 L247 704 L298 653 Q298 631 282 611.5 Q266 592 242 577 Q218 562 191.5 551.5 Q165 541 144.5 536.5 Q124 532 113.5 534.5 Q103 537 112 547 Z " />
<glyph glyph-name="Icircumflex" unicode="&#xce;" horiz-adv-x="376" d="M265 0 L113 0 Q101 0 85.5 -0.5 Q70 -1 55 -1.5 Q40 -2 27.5 -2.5 Q15 -3 8 -3 L8 11 L95 51 L87 454 L4 493 L4 509 Q11 509 23 508 Q35 507 49.5 506.5 Q64 506 79 505 Q94 504 106 504 L269 504 Q281 504 295.5 505 Q310 506 323.5 506.5 Q337 507 348.5 508 Q360 509 367 509 L367 493 L288 453 L282 51 L362 11 L362 -3 Q355 -3 343.5 -2.5 Q332 -2 318.5 -1.5 Q305 -1 291 -0.5 Q277 0 265 0 Z M214 704 L349 547 Q359 535 343.5 538 Q328 541 300 554 Q272 567 240 587 Q208 607 187 629 Q166 607 134.5 587 Q103 567 75.5 554 Q48 541 32 538 Q16 535 27 547 L162 704 Q173 708 188 708 Q203 708 214 704 Z " />
<glyph glyph-name="Idieresis" unicode="&#xcf;" horiz-adv-x="376" d="M265 0 L113 0 Q101 0 85.5 -0.5 Q70 -1 55 -1.5 Q40 -2 27.5 -2.5 Q15 -3 8 -3 L8 11 L95 51 L87 454 L4 493 L4 509 Q11 509 23 508 Q35 507 49.5 506.5 Q64 506 79 505 Q94 504 106 504 L269 504 Q281 504 295.5 505 Q310 506 323.5 506.5 Q337 507 348.5 508 Q360 509 367 509 L367 493 L288 453 L282 51 L362 11 L362 -3 Q355 -3 343.5 -2.5 Q332 -2 318.5 -1.5 Q305 -1 291 -0.5 Q277 0 265 0 Z M37 629 Q37 661 57.5 682.5 Q78 704 102 704 Q122 704 138 690.5 Q154 677 154 652 Q154 619 134 598 Q114 577 90 577 Q70 577 53.5 590 Q37 603 37 629 Z M222 629 Q222 661 242.5 682.5 Q263 704 287 704 Q307 704 323 690.5 Q339 677 339 652 Q339 619 319 598 Q299 577 274 577 Q254 577 238 590 Q222 603 222 629 Z " />
<glyph glyph-name="Ntilde" unicode="&#xd1;" horiz-adv-x="626" d="M496 457 L428 493 L428 509 Q441 508 461.5 506 Q482 504 505 504 L527 504 Q552 504 579.5 506.5 Q607 509 621 509 L621 493 L536 454 L522 51 L607 11 L607 -3 Q593 -3 570 -1.5 Q547 0 524 0 Q513 0 486.5 -0.5 Q460 -1 432 -2 Q399 -3 362 -3 L130 420 L133 51 L211 11 L211 -3 Q197 -3 172 -1.5 Q147 0 123 0 L103 0 Q78 0 50.5 -1.5 Q23 -3 10 -3 L10 11 L94 51 L103 453 L18 493 L18 509 Q25 509 37.5 508 Q50 507 65 506.5 Q80 506 95 505 Q110 504 122 504 L285 504 L306 462 L496 87 L496 457 Z M398 622 Q413 622 423.5 634.5 Q434 647 441 663 Q449 681 454 705 Q476 716 484 711 Q492 706 488.5 692 Q485 678 472.5 658.5 Q460 639 442 621 Q424 603 401 590.5 Q378 578 355 578 Q330 578 314.5 584.5 Q299 591 289 600 Q279 609 272.5 620.5 Q266 632 260.5 641 Q255 650 247.5 656.5 Q240 663 229 663 Q213 663 202.5 650 Q192 637 185 621 Q177 603 173 580 Q151 569 143 574 Q135 579 138 593 Q141 607 153.5 626.5 Q166 646 184.5 664 Q203 682 225.5 694.5 Q248 707 272 707 Q306 707 324.5 693.5 Q343 680 354.5 664.5 Q366 649 374.5 635.5 Q383 622 398 622 Z " />
<glyph glyph-name="Ograve" unicode="&#xd2;" horiz-adv-x="642" d="M299 -22 Q232 -22 182.5 -1.5 Q133 19 100 55 Q67 91 50.5 138.5 Q34 186 34 240 Q34 299 54 350.5 Q74 402 113 440 Q152 478 209 499.5 Q266 521 339 521 Q406 521 456 500 Q506 479 539 443.5 Q572 408 588.5 360 Q605 312 605 258 Q605 198 585 147 Q565 96 526 58.5 Q487 21 430 -0.5 Q373 -22 299 -22 Z M292 495 Q260 491 244.5 473 Q229 455 224.5 422.5 Q220 390 224 342.5 Q228 295 236 232 Q252 111 276.5 54 Q301 -3 346 3 Q377 7 392.5 25 Q408 43 413 76 Q418 109 414.5 156.5 Q411 204 402 267 Q386 387 362 444 Q338 501 292 495 Z M261 721 L396 564 Q405 554 394.5 551.5 Q384 549 363.5 553.5 Q343 558 316.5 568.5 Q290 579 266.5 594 Q243 609 227 628.5 Q211 648 211 670 L261 721 Z " />
<glyph glyph-name="Oacute" unicode="&#xd3;" horiz-adv-x="642" d="M299 -22 Q232 -22 182.5 -1.5 Q133 19 100 55 Q67 91 50.5 138.5 Q34 186 34 240 Q34 299 54 350.5 Q74 402 113 440 Q152 478 209 499.5 Q266 521 339 521 Q406 521 456 500 Q506 479 539 443.5 Q572 408 588.5 360 Q605 312 605 258 Q605 198 585 147 Q565 96 526 58.5 Q487 21 430 -0.5 Q373 -22 299 -22 Z M292 495 Q260 491 244.5 473 Q229 455 224.5 422.5 Q220 390 224 342.5 Q228 295 236 232 Q252 111 276.5 54 Q301 -3 346 3 Q377 7 392.5 25 Q408 43 413 76 Q418 109 414.5 156.5 Q411 204 402 267 Q386 387 362 444 Q338 501 292 495 Z M245 547 L380 704 L431 653 Q431 631 415 611.5 Q399 592 375 577 Q351 562 324.5 551.5 Q298 541 277.5 536.5 Q257 532 246.5 534.5 Q236 537 245 547 Z " />
<glyph glyph-name="Ocircumflex" unicode="&#xd4;" horiz-adv-x="642" d="M299 -22 Q232 -22 182.5 -1.5 Q133 19 100 55 Q67 91 50.5 138.5 Q34 186 34 240 Q34 299 54 350.5 Q74 402 113 440 Q152 478 209 499.5 Q266 521 339 521 Q406 521 456 500 Q506 479 539 443.5 Q572 408 588.5 360 Q605 312 605 258 Q605 198 585 147 Q565 96 526 58.5 Q487 21 430 -0.5 Q373 -22 299 -22 Z M292 495 Q260 491 244.5 473 Q229 455 224.5 422.5 Q220 390 224 342.5 Q228 295 236 232 Q252 111 276.5 54 Q301 -3 346 3 Q377 7 392.5 25 Q408 43 413 76 Q418 109 414.5 156.5 Q411 204 402 267 Q386 387 362 444 Q338 501 292 495 Z M347 704 L482 547 Q492 535 476.5 538 Q461 541 433 554 Q405 567 373 587 Q341 607 320 629 Q299 607 267.5 587 Q236 567 208.5 554 Q181 541 165 538 Q149 535 160 547 L295 704 Q306 708 321 708 Q336 708 347 704 Z " />
<glyph glyph-name="Otilde" unicode="&#xd5;" horiz-adv-x="642" d="M299 -22 Q232 -22 182.5 -1.5 Q133 19 100 55 Q67 91 50.5 138.5 Q34 186 34 240 Q34 299 54 350.5 Q74 402 113 440 Q152 478 209 499.5 Q266 521 339 521 Q406 521 456 500 Q506 479 539 443.5 Q572 408 588.5 360 Q605 312 605 258 Q605 198 585 147 Q565 96 526 58.5 Q487 21 430 -0.5 Q373 -22 299 -22 Z M292 495 Q260 491 244.5 473 Q229 455 224.5 422.5 Q220 390 224 342.5 Q228 295 236 232 Q252 111 276.5 54 Q301 -3 346 3 Q377 7 392.5 25 Q408 43 413 76 Q418 109 414.5 156.5 Q411 204 402 267 Q386 387 362 444 Q338 501 292 495 Z M406 622 Q421 622 431.5 634.5 Q442 647 449 663 Q457 681 462 705 Q484 716 492 711 Q500 706 496.5 692 Q493 678 480.5 658.5 Q468 639 450 621 Q432 603 409 590.5 Q386 578 363 578 Q338 578 322.5 584.5 Q307 591 297 600 Q287 609 280.5 620.5 Q274 632 268.5 641 Q263 650 255.5 656.5 Q248 663 237 663 Q221 663 210.5 650 Q200 637 193 621 Q185 603 181 580 Q159 569 151 574 Q143 579 146 593 Q149 607 161.5 626.5 Q174 646 192.5 664 Q211 682 233.5 694.5 Q256 707 280 707 Q314 707 332.5 693.5 Q351 680 362.5 664.5 Q374 649 382.5 635.5 Q391 622 406 622 Z " />
<glyph glyph-name="Odieresis" unicode="&#xd6;" horiz-adv-x="642" d="M299 -22 Q232 -22 182.5 -1.5 Q133 19 100 55 Q67 91 50.5 138.5 Q34 186 34 240 Q34 299 54 350.5 Q74 402 113 440 Q152 478 209 499.5 Q266 521 339 521 Q406 521 456 500 Q506 479 539 443.5 Q572 408 588.5 360 Q605 312 605 258 Q605 198 585 147 Q565 96 526 58.5 Q487 21 430 -0.5 Q373 -22 299 -22 Z M292 495 Q260 491 244.5 473 Q229 455 224.5 422.5 Q220 390 224 342.5 Q228 295 236 232 Q252 111 276.5 54 Q301 -3 346 3 Q377 7 392.5 25 Q408 43 413 76 Q418 109 414.5 156.5 Q411 204 402 267 Q386 387 362 444 Q338 501 292 495 Z M170 629 Q170 661 190.5 682.5 Q211 704 235 704 Q255 704 271 690.5 Q287 677 287 652 Q287 619 267 598 Q247 577 223 577 Q203 577 186.5 590 Q170 603 170 629 Z M355 629 Q355 661 375.5 682.5 Q396 704 420 704 Q440 704 456 690.5 Q472 677 472 652 Q472 619 452 598 Q432 577 407 577 Q387 577 371 590 Q355 603 355 629 Z " />
<glyph glyph-name="Ugrave" unicode="&#xd9;" horiz-adv-x="663" d="M623 457 L615 180 Q613 122 594.5 83.5 Q576 45 542.5 22 Q509 -1 460.5 -10.5 Q412 -20 349 -20 Q286 -20 239.5 -12 Q193 -4 161.5 16.5 Q130 37 114 72.5 Q98 108 97 162 L92 457 L6 493 L6 509 Q13 509 25.5 508 Q38 507 53 506.5 Q68 506 83.5 505 Q99 504 111 504 L281 504 L281 460 L277 126 Q277 96 278.5 73 Q280 50 287 35 Q294 20 308.5 12 Q323 4 348 4 Q399 4 417.5 40.5 Q436 77 435 144 L433 461 L378 501 L378 509 Q392 509 420.5 506.5 Q449 504 473 504 L623 504 L623 457 Z M271 721 L406 564 Q415 554 404.5 551.5 Q394 549 373.5 553.5 Q353 558 326.5 568.5 Q300 579 276.5 594 Q253 609 237 628.5 Q221 648 221 670 L271 721 Z " />
<glyph glyph-name="Uacute" unicode="&#xda;" horiz-adv-x="663" d="M623 457 L615 180 Q613 122 594.5 83.5 Q576 45 542.5 22 Q509 -1 460.5 -10.5 Q412 -20 349 -20 Q286 -20 239.5 -12 Q193 -4 161.5 16.5 Q130 37 114 72.5 Q98 108 97 162 L92 457 L6 493 L6 509 Q13 509 25.5 508 Q38 507 53 506.5 Q68 506 83.5 505 Q99 504 111 504 L281 504 L281 460 L277 126 Q277 96 278.5 73 Q280 50 287 35 Q294 20 308.5 12 Q323 4 348 4 Q399 4 417.5 40.5 Q436 77 435 144 L433 461 L378 501 L378 509 Q392 509 420.5 506.5 Q449 504 473 504 L623 504 L623 457 Z M256 547 L391 704 L442 653 Q442 631 426 611.5 Q410 592 386 577 Q362 562 335.5 551.5 Q309 541 288.5 536.5 Q268 532 257.5 534.5 Q247 537 256 547 Z " />
<glyph glyph-name="Ucircumflex" unicode="&#xdb;" horiz-adv-x="663" d="M623 457 L615 180 Q613 122 594.5 83.5 Q576 45 542.5 22 Q509 -1 460.5 -10.5 Q412 -20 349 -20 Q286 -20 239.5 -12 Q193 -4 161.5 16.5 Q130 37 114 72.5 Q98 108 97 162 L92 457 L6 493 L6 509 Q13 509 25.5 508 Q38 507 53 506.5 Q68 506 83.5 505 Q99 504 111 504 L281 504 L281 460 L277 126 Q277 96 278.5 73 Q280 50 287 35 Q294 20 308.5 12 Q323 4 348 4 Q399 4 417.5 40.5 Q436 77 435 144 L433 461 L378 501 L378 509 Q392 509 420.5 506.5 Q449 504 473 504 L623 504 L623 457 Z M357 704 L492 547 Q502 535 486.5 538 Q471 541 443 554 Q415 567 383 587 Q351 607 330 629 Q309 607 277.5 587 Q246 567 218.5 554 Q191 541 175 538 Q159 535 170 547 L305 704 Q316 708 331 708 Q346 708 357 704 Z " />
<glyph glyph-name="Udieresis" unicode="&#xdc;" horiz-adv-x="663" d="M623 457 L615 180 Q613 122 594.5 83.5 Q576 45 542.5 22 Q509 -1 460.5 -10.5 Q412 -20 349 -20 Q286 -20 239.5 -12 Q193 -4 161.5 16.5 Q130 37 114 72.5 Q98 108 97 162 L92 457 L6 493 L6 509 Q13 509 25.5 508 Q38 507 53 506.5 Q68 506 83.5 505 Q99 504 111 504 L281 504 L281 460 L277 126 Q277 96 278.5 73 Q280 50 287 35 Q294 20 308.5 12 Q323 4 348 4 Q399 4 417.5 40.5 Q436 77 435 144 L433 461 L378 501 L378 509 Q392 509 420.5 506.5 Q449 504 473 504 L623 504 L623 457 Z M180 629 Q180 661 200.5 682.5 Q221 704 245 704 Q265 704 281 690.5 Q297 677 297 652 Q297 619 277 598 Q257 577 233 577 Q213 577 196.5 590 Q180 603 180 629 Z M365 629 Q365 661 385.5 682.5 Q406 704 430 704 Q450 704 466 690.5 Q482 677 482 652 Q482 619 462 598 Q442 577 417 577 Q397 577 381 590 Q365 603 365 629 Z " />
<glyph glyph-name="Yacute" unicode="&#xdd;" horiz-adv-x="641" d="M414 54 L516 11 L516 -3 Q509 -3 494 -2.5 Q479 -2 461.5 -1.5 Q444 -1 426 -0.5 Q408 0 396 0 L253 0 Q241 0 223.5 -0.5 Q206 -1 188.5 -1.5 Q171 -2 156 -2.5 Q141 -3 134 -3 L134 11 L234 54 L233 210 L89 454 L7 493 L7 509 Q21 509 45.5 506.5 Q70 504 94 504 L256 504 L281 462 L405 264 Q443 328 466.5 380.5 Q490 433 498 459 L430 494 L430 509 Q444 509 471 506.5 Q498 504 521 504 L546 504 Q570 504 595 506.5 Q620 509 634 509 L634 493 L550 454 L417 235 L414 54 Z M245 547 L380 704 L431 653 Q431 631 415 611.5 Q399 592 375 577 Q351 562 324.5 551.5 Q298 541 277.5 536.5 Q257 532 246.5 534.5 Q236 537 245 547 Z " />
<glyph glyph-name="agrave" unicode="&#xe0;" horiz-adv-x="490" d="M423 49 L482 12 L482 -3 Q470 -3 449 -1.5 Q428 0 405 0 L275 0 L257 30 Q237 13 218.5 4.5 Q200 -4 186 -8 Q169 -12 155 -13 Q125 -13 100.5 -8 Q76 -3 59 9 Q42 21 32.5 42 Q23 63 23 95 Q23 128 36.5 149 Q50 170 75 184 Q100 198 135.5 206.5 Q171 215 215 222 L256 222 L255 336 Q250 339 245 343 Q240 346 233 348.5 Q226 351 217 351 Q199 351 185.5 344.5 Q172 338 163 327.5 Q154 317 150 304 Q146 291 146 278 L52 268 Q39 273 39 290 Q39 313 58 332 Q77 351 110 364.5 Q143 378 188 385.5 Q233 393 285 393 Q312 393 337.5 387.5 Q363 382 382.5 369.5 Q402 357 414 336.5 Q426 316 426 286 L423 49 Z M256 197 L234 197 Q222 197 213.5 194 Q205 191 200 182 Q195 173 192.5 155.5 Q190 138 190 109 Q190 81 191 65.5 Q192 50 194.5 42 Q197 34 201 32 Q205 30 210 30 Q224 30 234 36.5 Q244 43 257 53 L256 197 Z M182 569 L317 412 Q326 402 315.5 399.5 Q305 397 284.5 401.5 Q264 406 237.5 416.5 Q211 427 187.5 442 Q164 457 148 476.5 Q132 496 132 518 L182 569 Z " />
<glyph glyph-name="aacute" unicode="&#xe1;" horiz-adv-x="490" d="M423 49 L482 12 L482 -3 Q470 -3 449 -1.5 Q428 0 405 0 L275 0 L257 30 Q237 13 218.5 4.5 Q200 -4 186 -8 Q169 -12 155 -13 Q125 -13 100.5 -8 Q76 -3 59 9 Q42 21 32.5 42 Q23 63 23 95 Q23 128 36.5 149 Q50 170 75 184 Q100 198 135.5 206.5 Q171 215 215 222 L256 222 L255 336 Q250 339 245 343 Q240 346 233 348.5 Q226 351 217 351 Q199 351 185.5 344.5 Q172 338 163 327.5 Q154 317 150 304 Q146 291 146 278 L52 268 Q39 273 39 290 Q39 313 58 332 Q77 351 110 364.5 Q143 378 188 385.5 Q233 393 285 393 Q312 393 337.5 387.5 Q363 382 382.5 369.5 Q402 357 414 336.5 Q426 316 426 286 L423 49 Z M256 197 L234 197 Q222 197 213.5 194 Q205 191 200 182 Q195 173 192.5 155.5 Q190 138 190 109 Q190 81 191 65.5 Q192 50 194.5 42 Q197 34 201 32 Q205 30 210 30 Q224 30 234 36.5 Q244 43 257 53 L256 197 Z M169 414 L304 571 L355 520 Q355 498 339 478.5 Q323 459 299 444 Q275 429 248.5 418.5 Q222 408 201.5 403.5 Q181 399 170.5 401.5 Q160 404 169 414 Z " />
<glyph glyph-name="acircumflex" unicode="&#xe2;" horiz-adv-x="490" d="M423 49 L482 12 L482 -3 Q470 -3 449 -1.5 Q428 0 405 0 L275 0 L257 30 Q237 13 218.5 4.5 Q200 -4 186 -8 Q169 -12 155 -13 Q125 -13 100.5 -8 Q76 -3 59 9 Q42 21 32.5 42 Q23 63 23 95 Q23 128 36.5 149 Q50 170 75 184 Q100 198 135.5 206.5 Q171 215 215 222 L256 222 L255 336 Q250 339 245 343 Q240 346 233 348.5 Q226 351 217 351 Q199 351 185.5 344.5 Q172 338 163 327.5 Q154 317 150 304 Q146 291 146 278 L52 268 Q39 273 39 290 Q39 313 58 332 Q77 351 110 364.5 Q143 378 188 385.5 Q233 393 285 393 Q312 393 337.5 387.5 Q363 382 382.5 369.5 Q402 357 414 336.5 Q426 316 426 286 L423 49 Z M256 197 L234 197 Q222 197 213.5 194 Q205 191 200 182 Q195 173 192.5 155.5 Q190 138 190 109 Q190 81 191 65.5 Q192 50 194.5 42 Q197 34 201 32 Q205 30 210 30 Q224 30 234 36.5 Q244 43 257 53 L256 197 Z M271 557 L406 400 Q416 388 400.5 391 Q385 394 357 407 Q329 420 297 440 Q265 460 244 482 Q223 460 191.5 440 Q160 420 132.5 407 Q105 394 89 391 Q73 388 84 400 L219 557 Q230 561 245 561 Q260 561 271 557 Z " />
<glyph glyph-name="atilde" unicode="&#xe3;" horiz-adv-x="490" d="M423 49 L482 12 L482 -3 Q470 -3 449 -1.5 Q428 0 405 0 L275 0 L257 30 Q237 13 218.5 4.5 Q200 -4 186 -8 Q169 -12 155 -13 Q125 -13 100.5 -8 Q76 -3 59 9 Q42 21 32.5 42 Q23 63 23 95 Q23 128 36.5 149 Q50 170 75 184 Q100 198 135.5 206.5 Q171 215 215 222 L256 222 L255 336 Q250 339 245 343 Q240 346 233 348.5 Q226 351 217 351 Q199 351 185.5 344.5 Q172 338 163 327.5 Q154 317 150 304 Q146 291 146 278 L52 268 Q39 273 39 290 Q39 313 58 332 Q77 351 110 364.5 Q143 378 188 385.5 Q233 393 285 393 Q312 393 337.5 387.5 Q363 382 382.5 369.5 Q402 357 414 336.5 Q426 316 426 286 L423 49 Z M256 197 L234 197 Q222 197 213.5 194 Q205 191 200 182 Q195 173 192.5 155.5 Q190 138 190 109 Q190 81 191 65.5 Q192 50 194.5 42 Q197 34 201 32 Q205 30 210 30 Q224 30 234 36.5 Q244 43 257 53 L256 197 Z M328 453 Q343 453 353.5 465.5 Q364 478 371 494 Q379 512 384 536 Q406 547 414 542 Q422 537 418.5 523 Q415 509 402.5 489.5 Q390 470 372 452 Q354 434 331 421.5 Q308 409 285 409 Q260 409 244.5 415.5 Q229 422 219 431 Q209 440 202.5 451.5 Q196 463 190.5 472 Q185 481 177.5 487.5 Q170 494 159 494 Q143 494 132.5 481 Q122 468 115 452 Q107 434 103 411 Q81 400 73 405 Q65 410 68 424 Q71 438 83.5 457.5 Q96 477 114.5 495 Q133 513 155.5 525.5 Q178 538 202 538 Q236 538 254.5 524.5 Q273 511 284.5 495.5 Q296 480 304.5 466.5 Q313 453 328 453 Z " />
<glyph glyph-name="adieresis" unicode="&#xe4;" horiz-adv-x="490" d="M423 49 L482 12 L482 -3 Q470 -3 449 -1.5 Q428 0 405 0 L275 0 L257 30 Q237 13 218.5 4.5 Q200 -4 186 -8 Q169 -12 155 -13 Q125 -13 100.5 -8 Q76 -3 59 9 Q42 21 32.5 42 Q23 63 23 95 Q23 128 36.5 149 Q50 170 75 184 Q100 198 135.5 206.5 Q171 215 215 222 L256 222 L255 336 Q250 339 245 343 Q240 346 233 348.5 Q226 351 217 351 Q199 351 185.5 344.5 Q172 338 163 327.5 Q154 317 150 304 Q146 291 146 278 L52 268 Q39 273 39 290 Q39 313 58 332 Q77 351 110 364.5 Q143 378 188 385.5 Q233 393 285 393 Q312 393 337.5 387.5 Q363 382 382.5 369.5 Q402 357 414 336.5 Q426 316 426 286 L423 49 Z M256 197 L234 197 Q222 197 213.5 194 Q205 191 200 182 Q195 173 192.5 155.5 Q190 138 190 109 Q190 81 191 65.5 Q192 50 194.5 42 Q197 34 201 32 Q205 30 210 30 Q224 30 234 36.5 Q244 43 257 53 L256 197 Z M92 459 Q92 491 112.5 512.5 Q133 534 157 534 Q177 534 193 520.5 Q209 507 209 482 Q209 449 189 428 Q169 407 145 407 Q125 407 108.5 420 Q92 433 92 459 Z M277 459 Q277 491 297.5 512.5 Q318 534 342 534 Q362 534 378 520.5 Q394 507 394 482 Q394 449 374 428 Q354 407 329 407 Q309 407 293 420 Q277 433 277 459 Z " />
<glyph glyph-name="aring" unicode="&#xe5;" horiz-adv-x="490" d="M423 49 L482 12 L482 -3 Q470 -3 449 -1.5 Q428 0 405 0 L275 0 L257 30 Q237 13 218.5 4.5 Q200 -4 186 -8 Q169 -12 155 -13 Q125 -13 100.5 -8 Q76 -3 59 9 Q42 21 32.5 42 Q23 63 23 95 Q23 128 36.5 149 Q50 170 75 184 Q100 198 135.5 206.5 Q171 215 215 222 L256 222 L255 336 Q250 339 245 343 Q240 346 233 348.5 Q226 351 217 351 Q199 351 185.5 344.5 Q172 338 163 327.5 Q154 317 150 304 Q146 291 146 278 L52 268 Q39 273 39 290 Q39 313 58 332 Q77 351 110 364.5 Q143 378 188 385.5 Q233 393 285 393 Q312 393 337.5 387.5 Q363 382 382.5 369.5 Q402 357 414 336.5 Q426 316 426 286 L423 49 Z M256 197 L234 197 Q222 197 213.5 194 Q205 191 200 182 Q195 173 192.5 155.5 Q190 138 190 109 Q190 81 191 65.5 Q192 50 194.5 42 Q197 34 201 32 Q205 30 210 30 Q224 30 234 36.5 Q244 43 257 53 L256 197 Z M235 579 Q286 579 318 553 Q350 527 350 489 Q350 451 318 425.5 Q286 400 235 400 Q184 400 152 425.5 Q120 451 120 489 Q120 527 152 553 Q184 579 235 579 Z M235 423 Q262 423 277 442 Q292 461 292 489 Q292 516 277 535.5 Q262 555 235 555 Q208 555 192.5 535.5 Q177 516 177 489 Q177 461 192.5 442 Q208 423 235 423 Z " />
<glyph glyph-name="egrave" unicode="&#xe8;" horiz-adv-x="450" d="M234 -13 Q188 -13 147.5 -1 Q107 11 77 35 Q47 59 30 96.5 Q13 134 13 185 Q13 232 32 270.5 Q51 309 83 336 Q115 363 157.5 378 Q200 393 247 393 Q289 393 323.5 379 Q358 365 382 340 Q406 315 419 282 Q432 249 432 210 L296 186 L190 183 L190 160 Q190 106 210 73 Q230 40 281 40 Q304 40 325.5 47 Q347 54 364 65 Q381 76 393.5 89.5 Q406 103 411 116 L426 104 Q418 83 401.5 62.5 Q385 42 360.5 25 Q336 8 304.5 -2.5 Q273 -13 234 -13 Z M262 214 Q262 296 258 332.5 Q254 369 234 369 Q220 369 211.5 361 Q203 353 198.5 334.5 Q194 316 192 285 Q190 254 190 208 L262 214 Z M168 572 L303 415 Q312 405 301.5 402.5 Q291 400 270.5 404.5 Q250 409 223.5 419.5 Q197 430 173.5 445 Q150 460 134 479.5 Q118 499 118 521 L168 572 Z " />
<glyph glyph-name="eacute" unicode="&#xe9;" horiz-adv-x="450" d="M234 -13 Q188 -13 147.5 -1 Q107 11 77 35 Q47 59 30 96.5 Q13 134 13 185 Q13 232 32 270.5 Q51 309 83 336 Q115 363 157.5 378 Q200 393 247 393 Q289 393 323.5 379 Q358 365 382 340 Q406 315 419 282 Q432 249 432 210 L296 186 L190 183 L190 160 Q190 106 210 73 Q230 40 281 40 Q304 40 325.5 47 Q347 54 364 65 Q381 76 393.5 89.5 Q406 103 411 116 L426 104 Q418 83 401.5 62.5 Q385 42 360.5 25 Q336 8 304.5 -2.5 Q273 -13 234 -13 Z M262 214 Q262 296 258 332.5 Q254 369 234 369 Q220 369 211.5 361 Q203 353 198.5 334.5 Q194 316 192 285 Q190 254 190 208 L262 214 Z M148 414 L283 571 L334 520 Q334 498 318 478.5 Q302 459 278 444 Q254 429 227.5 418.5 Q201 408 180.5 403.5 Q160 399 149.5 401.5 Q139 404 148 414 Z " />
<glyph glyph-name="ecircumflex" unicode="&#xea;" horiz-adv-x="450" d="M234 -13 Q188 -13 147.5 -1 Q107 11 77 35 Q47 59 30 96.5 Q13 134 13 185 Q13 232 32 270.5 Q51 309 83 336 Q115 363 157.5 378 Q200 393 247 393 Q289 393 323.5 379 Q358 365 382 340 Q406 315 419 282 Q432 249 432 210 L296 186 L190 183 L190 160 Q190 106 210 73 Q230 40 281 40 Q304 40 325.5 47 Q347 54 364 65 Q381 76 393.5 89.5 Q406 103 411 116 L426 104 Q418 83 401.5 62.5 Q385 42 360.5 25 Q336 8 304.5 -2.5 Q273 -13 234 -13 Z M262 214 Q262 296 258 332.5 Q254 369 234 369 Q220 369 211.5 361 Q203 353 198.5 334.5 Q194 316 192 285 Q190 254 190 208 L262 214 Z M251 545 L386 388 Q396 376 380.5 379 Q365 382 337 395 Q309 408 277 428 Q245 448 224 470 Q203 448 171.5 428 Q140 408 112.5 395 Q85 382 69 379 Q53 376 64 388 L199 545 Q210 549 225 549 Q240 549 251 545 Z " />
<glyph glyph-name="edieresis" unicode="&#xeb;" horiz-adv-x="450" d="M234 -13 Q188 -13 147.5 -1 Q107 11 77 35 Q47 59 30 96.5 Q13 134 13 185 Q13 232 32 270.5 Q51 309 83 336 Q115 363 157.5 378 Q200 393 247 393 Q289 393 323.5 379 Q358 365 382 340 Q406 315 419 282 Q432 249 432 210 L296 186 L190 183 L190 160 Q190 106 210 73 Q230 40 281 40 Q304 40 325.5 47 Q347 54 364 65 Q381 76 393.5 89.5 Q406 103 411 116 L426 104 Q418 83 401.5 62.5 Q385 42 360.5 25 Q336 8 304.5 -2.5 Q273 -13 234 -13 Z M262 214 Q262 296 258 332.5 Q254 369 234 369 Q220 369 211.5 361 Q203 353 198.5 334.5 Q194 316 192 285 Q190 254 190 208 L262 214 Z M75 456 Q75 488 95.5 509.5 Q116 531 140 531 Q160 531 176 517.5 Q192 504 192 479 Q192 446 172 425 Q152 404 128 404 Q108 404 91.5 417 Q75 430 75 456 Z M260 456 Q260 488 280.5 509.5 Q301 531 325 531 Q345 531 361 517.5 Q377 504 377 479 Q377 446 357 425 Q337 404 312 404 Q292 404 276 417 Q260 430 260 456 Z " />
<glyph glyph-name="ntilde" unicode="&#xf1;" horiz-adv-x="569" d="M338 329 Q334 330 330 331 Q326 332 320.5 333 Q315 334 310 334 Q301 334 283.5 331.5 Q266 329 254 323 L251 32 L279 10 L279 -3 Q267 -3 246.5 -1.5 Q226 0 203 0 L109 0 Q86 0 65.5 -1.5 Q45 -3 34 -3 L34 12 L91 49 L88 300 Q79 297 68 294 Q59 292 48.5 290 Q38 288 27 288 L24 303 Q44 310 69.5 320.5 Q95 331 123 343.5 Q151 356 178.5 369.5 Q206 383 230 396 L251 389 L251 346 Q266 354 285.5 362.5 Q305 371 326.5 377.5 Q348 384 369.5 388.5 Q391 393 409 393 Q424 393 440.5 389.5 Q457 386 471.5 377 Q486 368 495 351.5 Q504 335 504 309 L500 50 L558 10 L558 -3 Q546 -3 525.5 -1.5 Q505 0 482 0 Q453 0 427 -0.5 Q401 -1 381 -2 Q357 -3 338 -3 L338 329 Z M374 449 Q389 449 399.5 461.5 Q410 474 417 490 Q425 508 430 532 Q452 543 460 538 Q468 533 464.5 519 Q461 505 448.5 485.5 Q436 466 418 448 Q400 430 377 417.5 Q354 405 331 405 Q306 405 290.5 411.5 Q275 418 265 427 Q255 436 248.5 447.5 Q242 459 236.5 468 Q231 477 223.5 483.5 Q216 490 205 490 Q189 490 178.5 477 Q168 464 161 448 Q153 430 149 407 Q127 396 119 401 Q111 406 114 420 Q117 434 129.5 453.5 Q142 473 160.5 491 Q179 509 201.5 521.5 Q224 534 248 534 Q282 534 300.5 520.5 Q319 507 330.5 491.5 Q342 476 350.5 462.5 Q359 449 374 449 Z " />
<glyph glyph-name="ograve" unicode="&#xf2;" horiz-adv-x="478" d="M211 -13 Q167 -13 130 0.5 Q93 14 66 39.5 Q39 65 24 100.5 Q9 136 9 181 Q9 227 29 266 Q49 305 83.5 333.5 Q118 362 162.5 377.5 Q207 393 257 393 Q301 393 338 379.5 Q375 366 401.5 340.5 Q428 315 443 279 Q458 243 458 198 Q458 151 438 112 Q418 73 384 45.5 Q350 18 305 2.5 Q260 -13 211 -13 Z M207 367 Q196 365 188 359 Q180 353 176.5 334 Q173 315 175 280 Q177 245 186 186 Q194 130 203 95 Q212 60 221.5 41.5 Q231 23 240.5 17 Q250 11 260 13 Q271 14 279 20.5 Q287 27 290.5 46 Q294 65 292 100 Q290 135 282 194 Q274 253 265 288 Q256 323 246.5 341 Q237 359 227 363.5 Q217 368 207 367 Z M179 571 L314 414 Q323 404 312.5 401.5 Q302 399 281.5 403.5 Q261 408 234.5 418.5 Q208 429 184.5 444 Q161 459 145 478.5 Q129 498 129 520 L179 571 Z " />
<glyph glyph-name="oacute" unicode="&#xf3;" horiz-adv-x="478" d="M211 -13 Q167 -13 130 0.5 Q93 14 66 39.5 Q39 65 24 100.5 Q9 136 9 181 Q9 227 29 266 Q49 305 83.5 333.5 Q118 362 162.5 377.5 Q207 393 257 393 Q301 393 338 379.5 Q375 366 401.5 340.5 Q428 315 443 279 Q458 243 458 198 Q458 151 438 112 Q418 73 384 45.5 Q350 18 305 2.5 Q260 -13 211 -13 Z M207 367 Q196 365 188 359 Q180 353 176.5 334 Q173 315 175 280 Q177 245 186 186 Q194 130 203 95 Q212 60 221.5 41.5 Q231 23 240.5 17 Q250 11 260 13 Q271 14 279 20.5 Q287 27 290.5 46 Q294 65 292 100 Q290 135 282 194 Q274 253 265 288 Q256 323 246.5 341 Q237 359 227 363.5 Q217 368 207 367 Z M158 417 L293 574 L344 523 Q344 501 328 481.5 Q312 462 288 447 Q264 432 237.5 421.5 Q211 411 190.5 406.5 Q170 402 159.5 404.5 Q149 407 158 417 Z " />
<glyph glyph-name="ocircumflex" unicode="&#xf4;" horiz-adv-x="478" d="M211 -13 Q167 -13 130 0.5 Q93 14 66 39.5 Q39 65 24 100.5 Q9 136 9 181 Q9 227 29 266 Q49 305 83.5 333.5 Q118 362 162.5 377.5 Q207 393 257 393 Q301 393 338 379.5 Q375 366 401.5 340.5 Q428 315 443 279 Q458 243 458 198 Q458 151 438 112 Q418 73 384 45.5 Q350 18 305 2.5 Q260 -13 211 -13 Z M207 367 Q196 365 188 359 Q180 353 176.5 334 Q173 315 175 280 Q177 245 186 186 Q194 130 203 95 Q212 60 221.5 41.5 Q231 23 240.5 17 Q250 11 260 13 Q271 14 279 20.5 Q287 27 290.5 46 Q294 65 292 100 Q290 135 282 194 Q274 253 265 288 Q256 323 246.5 341 Q237 359 227 363.5 Q217 368 207 367 Z M261 552 L396 395 Q406 383 390.5 386 Q375 389 347 402 Q319 415 287 435 Q255 455 234 477 Q213 455 181.5 435 Q150 415 122.5 402 Q95 389 79 386 Q63 383 74 395 L209 552 Q220 556 235 556 Q250 556 261 552 Z " />
<glyph glyph-name="otilde" unicode="&#xf5;" horiz-adv-x="478" d="M211 -13 Q167 -13 130 0.5 Q93 14 66 39.5 Q39 65 24 100.5 Q9 136 9 181 Q9 227 29 266 Q49 305 83.5 333.5 Q118 362 162.5 377.5 Q207 393 257 393 Q301 393 338 379.5 Q375 366 401.5 340.5 Q428 315 443 279 Q458 243 458 198 Q458 151 438 112 Q418 73 384 45.5 Q350 18 305 2.5 Q260 -13 211 -13 Z M207 367 Q196 365 188 359 Q180 353 176.5 334 Q173 315 175 280 Q177 245 186 186 Q194 130 203 95 Q212 60 221.5 41.5 Q231 23 240.5 17 Q250 11 260 13 Q271 14 279 20.5 Q287 27 290.5 46 Q294 65 292 100 Q290 135 282 194 Q274 253 265 288 Q256 323 246.5 341 Q237 359 227 363.5 Q217 368 207 367 Z M326 456 Q341 456 351.5 468.5 Q362 481 369 497 Q377 515 382 539 Q404 550 412 545 Q420 540 416.5 526 Q413 512 400.5 492.5 Q388 473 370 455 Q352 437 329 424.5 Q306 412 283 412 Q258 412 242.5 418.5 Q227 425 217 434 Q207 443 200.5 454.5 Q194 466 188.5 475 Q183 484 175.5 490.5 Q168 497 157 497 Q141 497 130.5 484 Q120 471 113 455 Q105 437 101 414 Q79 403 71 408 Q63 413 66 427 Q69 441 81.5 460.5 Q94 480 112.5 498 Q131 516 153.5 528.5 Q176 541 200 541 Q234 541 252.5 527.5 Q271 514 282.5 498.5 Q294 483 302.5 469.5 Q311 456 326 456 Z " />
<glyph glyph-name="odieresis" unicode="&#xf6;" horiz-adv-x="478" d="M211 -13 Q167 -13 130 0.5 Q93 14 66 39.5 Q39 65 24 100.5 Q9 136 9 181 Q9 227 29 266 Q49 305 83.5 333.5 Q118 362 162.5 377.5 Q207 393 257 393 Q301 393 338 379.5 Q375 366 401.5 340.5 Q428 315 443 279 Q458 243 458 198 Q458 151 438 112 Q418 73 384 45.5 Q350 18 305 2.5 Q260 -13 211 -13 Z M207 367 Q196 365 188 359 Q180 353 176.5 334 Q173 315 175 280 Q177 245 186 186 Q194 130 203 95 Q212 60 221.5 41.5 Q231 23 240.5 17 Q250 11 260 13 Q271 14 279 20.5 Q287 27 290.5 46 Q294 65 292 100 Q290 135 282 194 Q274 253 265 288 Q256 323 246.5 341 Q237 359 227 363.5 Q217 368 207 367 Z M88 458 Q88 490 108.5 511.5 Q129 533 153 533 Q173 533 189 519.5 Q205 506 205 481 Q205 448 185 427 Q165 406 141 406 Q121 406 104.5 419 Q88 432 88 458 Z M273 458 Q273 490 293.5 511.5 Q314 533 338 533 Q358 533 374 519.5 Q390 506 390 481 Q390 448 370 427 Q350 406 325 406 Q305 406 289 419 Q273 432 273 458 Z " />
<glyph glyph-name="ugrave" unicode="&#xf9;" horiz-adv-x="562" d="M554 0 Q548 0 536.5 0.5 Q525 1 511.5 2 Q498 3 484 3.5 Q470 4 459 4 Q402 4 368.5 2 Q335 0 336 0 L336 36 Q322 28 303 20 Q284 12 263 5 Q242 -2 221 -6.5 Q200 -11 182 -11 Q167 -11 150.5 -8 Q134 -5 119.5 4 Q105 13 96 29 Q87 45 87 72 L90 303 Q81 299 70 296 Q61 294 50 292 Q39 290 28 290 L24 305 Q64 319 118 344.5 Q172 370 226 399 L248 392 L246 53 Q249 51 254 50 Q264 48 278 48 Q292 48 309.5 51.5 Q327 55 336 59 L333 295 Q327 293 321 292 Q316 291 309 290.5 Q302 290 297 290 L290 305 Q327 321 378 345.5 Q429 370 478 399 L498 392 L495 52 L554 15 L554 7 Q554 0 554 0 Z M216 561 L351 404 Q360 394 349.5 391.5 Q339 389 318.5 393.5 Q298 398 271.5 408.5 Q245 419 221.5 434 Q198 449 182 468.5 Q166 488 166 510 L216 561 Z " />
<glyph glyph-name="uacute" unicode="&#xfa;" horiz-adv-x="562" d="M554 0 Q548 0 536.5 0.5 Q525 1 511.5 2 Q498 3 484 3.5 Q470 4 459 4 Q402 4 368.5 2 Q335 0 336 0 L336 36 Q322 28 303 20 Q284 12 263 5 Q242 -2 221 -6.5 Q200 -11 182 -11 Q167 -11 150.5 -8 Q134 -5 119.5 4 Q105 13 96 29 Q87 45 87 72 L90 303 Q81 299 70 296 Q61 294 50 292 Q39 290 28 290 L24 305 Q64 319 118 344.5 Q172 370 226 399 L248 392 L246 53 Q249 51 254 50 Q264 48 278 48 Q292 48 309.5 51.5 Q327 55 336 59 L333 295 Q327 293 321 292 Q316 291 309 290.5 Q302 290 297 290 L290 305 Q327 321 378 345.5 Q429 370 478 399 L498 392 L495 52 L554 15 L554 7 Q554 0 554 0 Z M204 422 L339 579 L390 528 Q390 506 374 486.5 Q358 467 334 452 Q310 437 283.5 426.5 Q257 416 236.5 411.5 Q216 407 205.5 409.5 Q195 412 204 422 Z " />
<glyph glyph-name="ucircumflex" unicode="&#xfb;" horiz-adv-x="562" d="M554 0 Q548 0 536.5 0.5 Q525 1 511.5 2 Q498 3 484 3.5 Q470 4 459 4 Q402 4 368.5 2 Q335 0 336 0 L336 36 Q322 28 303 20 Q284 12 263 5 Q242 -2 221 -6.5 Q200 -11 182 -11 Q167 -11 150.5 -8 Q134 -5 119.5 4 Q105 13 96 29 Q87 45 87 72 L90 303 Q81 299 70 296 Q61 294 50 292 Q39 290 28 290 L24 305 Q64 319 118 344.5 Q172 370 226 399 L248 392 L246 53 Q249 51 254 50 Q264 48 278 48 Q292 48 309.5 51.5 Q327 55 336 59 L333 295 Q327 293 321 292 Q316 291 309 290.5 Q302 290 297 290 L290 305 Q327 321 378 345.5 Q429 370 478 399 L498 392 L495 52 L554 15 L554 7 Q554 0 554 0 Z M302 561 L437 404 Q447 392 431.5 395 Q416 398 388 411 Q360 424 328 444 Q296 464 275 486 Q254 464 222.5 444 Q191 424 163.5 411 Q136 398 120 395 Q104 392 115 404 L250 561 Q261 565 276 565 Q291 565 302 561 Z " />
<glyph glyph-name="udieresis" unicode="&#xfc;" horiz-adv-x="562" d="M554 0 Q548 0 536.5 0.5 Q525 1 511.5 2 Q498 3 484 3.5 Q470 4 459 4 Q402 4 368.5 2 Q335 0 336 0 L336 36 Q322 28 303 20 Q284 12 263 5 Q242 -2 221 -6.5 Q200 -11 182 -11 Q167 -11 150.5 -8 Q134 -5 119.5 4 Q105 13 96 29 Q87 45 87 72 L90 303 Q81 299 70 296 Q61 294 50 292 Q39 290 28 290 L24 305 Q64 319 118 344.5 Q172 370 226 399 L248 392 L246 53 Q249 51 254 50 Q264 48 278 48 Q292 48 309.5 51.5 Q327 55 336 59 L333 295 Q327 293 321 292 Q316 291 309 290.5 Q302 290 297 290 L290 305 Q327 321 378 345.5 Q429 370 478 399 L498 392 L495 52 L554 15 L554 7 Q554 0 554 0 Z M130 453 Q130 485 150.5 506.5 Q171 528 195 528 Q215 528 231 514.5 Q247 501 247 476 Q247 443 227 422 Q207 401 183 401 Q163 401 146.5 414 Q130 427 130 453 Z M315 453 Q315 485 335.5 506.5 Q356 528 380 528 Q400 528 416 514.5 Q432 501 432 476 Q432 443 412 422 Q392 401 367 401 Q347 401 331 414 Q315 427 315 453 Z " />
<glyph glyph-name="yacute" unicode="&#xfd;" horiz-adv-x="533" d="M525 360 L481 349 L237 -72 Q209 -116 185 -148 Q161 -180 151 -189 Q129 -209 108.5 -212.5 Q88 -216 71.5 -208 Q55 -200 45 -183 Q35 -166 34 -146 Q33 -126 42.5 -105 Q52 -84 76 -68 Q83 -81 94.5 -86.5 Q106 -92 119.5 -91 Q133 -90 147.5 -83.5 Q162 -77 175 -66 Q192 -53 207.5 -33.5 Q223 -14 238 12 L65 328 L8 360 L8 375 Q19 375 39.5 373.5 Q60 372 83 372 L231 372 L330 157 Q352 198 367 230 Q382 262 391 285 Q402 311 407 331 L346 358 L346 372 L437 372 Q460 372 485.5 373.5 Q511 375 525 375 L525 360 Z M196 398 L331 555 L382 504 Q382 482 366 462.5 Q350 443 326 428 Q302 413 275.5 402.5 Q249 392 228.5 387.5 Q208 383 197.5 385.5 Q187 388 196 398 Z " />
<glyph glyph-name="ydieresis" unicode="&#xff;" horiz-adv-x="533" d="M525 360 L481 349 L237 -72 Q209 -116 185 -148 Q161 -180 151 -189 Q129 -209 108.5 -212.5 Q88 -216 71.5 -208 Q55 -200 45 -183 Q35 -166 34 -146 Q33 -126 42.5 -105 Q52 -84 76 -68 Q83 -81 94.5 -86.5 Q106 -92 119.5 -91 Q133 -90 147.5 -83.5 Q162 -77 175 -66 Q192 -53 207.5 -33.5 Q223 -14 238 12 L65 328 L8 360 L8 375 Q19 375 39.5 373.5 Q60 372 83 372 L231 372 L330 157 Q352 198 367 230 Q382 262 391 285 Q402 311 407 331 L346 358 L346 372 L437 372 Q460 372 485.5 373.5 Q511 375 525 375 L525 360 Z M124 455 Q124 487 144.5 508.5 Q165 530 189 530 Q209 530 225 516.5 Q241 503 241 478 Q241 445 221 424 Q201 403 177 403 Q157 403 140.5 416 Q124 429 124 455 Z M309 455 Q309 487 329.5 508.5 Q350 530 374 530 Q394 530 410 516.5 Q426 503 426 478 Q426 445 406 424 Q386 403 361 403 Q341 403 325 416 Q309 429 309 455 Z " />
<glyph glyph-name="AE" unicode="&#xc6;" horiz-adv-x="809" d="M126 47 L199 10 L199 -4 Q185 -4 156.5 -2 Q128 0 104 0 L90 0 Q68 0 45.5 -2 Q23 -4 10 -4 L10 10 L85 48 L319 457 L345 504 L522 504 Q594 504 641 504.5 Q688 505 717 506 Q750 507 770 508 L770 483 Q770 470 771 448 Q772 426 773.5 403.5 Q775 381 776 363 Q777 345 777 342 L759 342 L658 479 L493 479 L528 286 L599 286 Q619 305 636 318 Q650 329 662 337 Q674 345 674 341 Q674 333 674 320 Q674 307 676 278 Q679 242 682.5 226.5 Q686 211 686 204 Q686 199 673.5 208 Q661 217 647 229 Q629 243 608 262 L533 262 L578 25 L672 25 L775 170 L792 170 Q792 167 791 147.5 Q790 128 788.5 104 Q787 80 786 56.5 Q785 33 785 21 L785 -4 Q759 -3 723 -2 Q692 -1 645.5 -0.5 Q599 0 536 0 L421 0 Q409 0 392.5 -0.5 Q376 -1 360 -2 Q344 -3 330 -3.5 Q316 -4 309 -4 L309 10 L390 49 L369 176 L194 172 L126 47 Z M210 203 L365 199 L329 423 L210 203 Z " />
<glyph glyph-name="Eth" unicode="&#xd0;" horiz-adv-x="669" d="M122 504 L225 504 Q249 504 279 506 Q309 508 344 508 Q438 508 496 489 Q554 470 586 437.5 Q618 405 629 362 Q640 319 640 272 Q640 212 626 161.5 Q612 111 577.5 74.5 Q543 38 485 17 Q427 -4 340 -4 Q304 -4 274.5 -2 Q245 0 220 0 L127 0 Q115 0 99.5 -0.5 Q84 -1 69 -2 Q54 -3 41.5 -3.5 Q29 -4 22 -4 L22 10 L108 50 L105 258 L10 258 L10 287 L104 287 L102 453 L18 493 L18 508 Q25 508 37.5 507.5 Q50 507 65 506 Q80 505 95 504.5 Q110 504 122 504 Z M292 477 L290 287 L385 287 L385 258 L289 258 L288 27 Q293 24 300 22 Q306 20 314.5 19 Q323 18 334 18 Q370 18 392.5 32.5 Q415 47 427.5 77 Q440 107 444.5 152 Q449 197 449 257 Q449 314 444.5 357 Q440 400 427 428.5 Q414 457 391.5 471.5 Q369 486 333 486 Q323 486 315.5 484.5 Q308 483 303 481 Q297 479 292 477 Z " />
<glyph glyph-name="ae" unicode="&#xe6;" horiz-adv-x="710" d="M221 223 L267 223 L265 337 Q259 341 253 345 Q247 348 239.5 350.5 Q232 353 223 353 Q185 353 169 330 Q153 307 153 279 L45 289 Q43 321 68 341.5 Q93 362 130.5 373.5 Q168 385 209.5 389.5 Q251 394 282 394 Q311 394 340 388 Q369 382 387 368 Q410 380 435.5 387 Q461 394 492 394 Q534 394 569 380 Q604 366 629 341.5 Q654 317 668 283.5 Q682 250 682 211 L536 186 L434 184 L434 162 Q434 107 456.5 73.5 Q479 40 530 40 Q553 40 574.5 47.5 Q596 55 613 66 Q630 77 642.5 91 Q655 105 660 118 Q671 118 673 110.5 Q675 103 673 98 Q663 77 646.5 57 Q630 37 607 21.5 Q584 6 553 -3 Q522 -12 483 -12 Q441 -12 411 -6.5 Q381 -1 359.5 8 Q338 17 322.5 28.5 Q307 40 295 51 Q266 23 232 5.5 Q198 -12 161 -12 Q131 -12 106.5 -7 Q82 -2 65 10 Q48 22 38.5 43 Q29 64 29 96 Q29 125 40 146 Q51 167 74 182 Q97 197 133.5 206.5 Q170 216 221 223 Z M267 198 L240 198 Q228 198 219.5 195 Q211 192 205.5 183 Q200 174 198 156.5 Q196 139 196 110 Q196 83 197 67 Q198 51 200.5 43 Q203 35 207 33 Q211 31 217 31 Q230 31 242.5 37.5 Q255 44 268 55 L267 198 Z M512 216 Q512 297 505.5 335.5 Q499 374 478 374 Q452 374 443.5 337.5 Q435 301 435 210 L512 216 Z " />
<glyph glyph-name="thorn" unicode="&#xfe;" horiz-adv-x="583" d="M103 526 Q89 519 68.5 516.5 Q48 514 31 514 L24 528 Q41 532 71 543.5 Q101 555 134.5 569.5 Q168 584 200 600 Q232 616 252 630 L274 614 L270 380 Q284 386 300 393 Q316 400 331 405 Q346 410 360 413.5 Q374 417 384 417 Q411 417 439 408.5 Q467 400 489.5 378.5 Q512 357 526.5 320.5 Q541 284 541 229 Q541 130 479.5 74.5 Q418 19 300 19 Q292 19 285 19 Q278 19 268 20 L267 -136 L346 -177 L346 -190 Q339 -190 327.5 -189.5 Q316 -189 302.5 -188.5 Q289 -188 275.5 -187.5 Q262 -187 250 -187 L127 -187 Q104 -187 79.5 -188.5 Q55 -190 42 -190 L42 -177 L110 -138 L103 526 Z M270 350 L268 47 Q273 45 283 43.5 Q293 42 305 42 Q338 42 351 81 Q364 120 364 218 Q364 262 361.5 291.5 Q359 321 353.5 338.5 Q348 356 339 363.5 Q330 371 317 371 Q302 371 288.5 362 Q275 353 270 350 Z " />
<glyph glyph-name="igrave" unicode="&#xec;" horiz-adv-x="326" d="M235 0 L112 0 Q89 0 68.5 -1.5 Q48 -3 37 -3 L37 12 L94 49 L91 299 Q82 296 71 294 Q51 289 28 289 L25 302 Q47 310 73.5 320.5 Q100 331 128 343.5 Q156 356 183.5 369.5 Q211 383 235 396 L257 389 L253 49 L305 12 Q313 7 313 2 Q313 -3 305 -3 Q293 -3 275.5 -1.5 Q258 0 235 0 Z M106 581 L241 424 Q250 414 239.5 411.5 Q229 409 208.5 413.5 Q188 418 161.5 428.5 Q135 439 111.5 454 Q88 469 72 488.5 Q56 508 56 530 L106 581 Z " />
<glyph glyph-name="iacute" unicode="&#xed;" horiz-adv-x="326" d="M235 0 L112 0 Q89 0 68.5 -1.5 Q48 -3 37 -3 L37 12 L94 49 L91 299 Q82 296 71 294 Q51 289 28 289 L25 302 Q47 310 73.5 320.5 Q100 331 128 343.5 Q156 356 183.5 369.5 Q211 383 235 396 L257 389 L253 49 L305 12 Q313 7 313 2 Q313 -3 305 -3 Q293 -3 275.5 -1.5 Q258 0 235 0 Z M84 403 L219 560 L270 509 Q270 487 254 467.5 Q238 448 214 433 Q190 418 163.5 407.5 Q137 397 116.5 392.5 Q96 388 85.5 390.5 Q75 393 84 403 Z " />
<glyph glyph-name="icircumflex" unicode="&#xee;" horiz-adv-x="326" d="M235 0 L112 0 Q89 0 68.5 -1.5 Q48 -3 37 -3 L37 12 L94 49 L91 299 Q82 296 71 294 Q51 289 28 289 L25 302 Q47 310 73.5 320.5 Q100 331 128 343.5 Q156 356 183.5 369.5 Q211 383 235 396 L257 389 L253 49 L305 12 Q313 7 313 2 Q313 -3 305 -3 Q293 -3 275.5 -1.5 Q258 0 235 0 Z M188 551 L323 394 Q333 382 317.5 385 Q302 388 274 401 Q246 414 214 434 Q182 454 161 476 Q140 454 108.5 434 Q77 414 49.5 401 Q22 388 6 385 Q-10 382 1 394 L136 551 Q147 555 162 555 Q177 555 188 551 Z " />
<glyph glyph-name="idieresis" unicode="&#xef;" horiz-adv-x="326" d="M235 0 L112 0 Q89 0 68.5 -1.5 Q48 -3 37 -3 L37 12 L94 49 L91 299 Q82 296 71 294 Q51 289 28 289 L25 302 Q47 310 73.5 320.5 Q100 331 128 343.5 Q156 356 183.5 369.5 Q211 383 235 396 L257 389 L253 49 L305 12 Q313 7 313 2 Q313 -3 305 -3 Q293 -3 275.5 -1.5 Q258 0 235 0 Z M14 461 Q14 493 34.5 514.5 Q55 536 79 536 Q99 536 115 522.5 Q131 509 131 484 Q131 451 111 430 Q91 409 67 409 Q47 409 30.5 422 Q14 435 14 461 Z M199 461 Q199 493 219.5 514.5 Q240 536 264 536 Q284 536 300 522.5 Q316 509 316 484 Q316 451 296 430 Q276 409 251 409 Q231 409 215 422 Q199 435 199 461 Z " />
<glyph glyph-name="paragraph" unicode="&#xb6;" horiz-adv-x="677" d="M511 -87 L518 608 L448 608 L439 -86 L328 -86 L325 254 L266 254 Q206 254 164 266.5 Q122 279 96 303 Q70 327 58 361.5 Q46 396 46 440 Q46 480 61 515 Q76 550 104.5 576 Q133 602 173.5 617.5 Q214 633 264 633 Q297 633 332.5 631 Q368 629 397 629 L617 629 L596 -87 L511 -87 Z M214 445 Q214 409 216 378.5 Q218 348 225 325.5 Q232 303 246 290.5 Q260 278 284 278 L325 278 L321 604 Q314 606 306 608 Q298 610 290 610 Q251 610 232.5 563.5 Q214 517 214 445 Z " />
<glyph glyph-name="OE" unicode="&#x152;" horiz-adv-x="822" d="M682 278 Q682 242 683 223 Q684 204 684 197 Q684 192 671.5 201.5 Q659 211 645 225 Q627 241 606 262 L571 262 L571 25 L661 25 L772 170 L789 170 Q789 167 788 147.5 Q787 128 785.5 104 Q784 80 783 56.5 Q782 33 782 21 L782 -4 Q773 -3 742 -2 Q716 -1 664.5 -0.5 Q613 0 523 0 L414 0 Q363 -21 292 -21 Q225 -21 176.5 0 Q128 21 96.5 56.5 Q65 92 50 140 Q35 188 35 242 Q35 301 54 352 Q73 403 110 441 Q147 479 202.5 500.5 Q258 522 331 522 Q363 522 389 517 Q415 512 437 504 L523 504 Q610 504 659 504.5 Q708 505 732 506 Q760 507 767 508 L767 483 Q767 470 768 448 Q769 426 770.5 403.5 Q772 381 773 363 Q774 345 774 342 L757 342 L646 479 L571 479 L571 286 L606 286 Q627 304 644 317 Q658 328 670.5 336.5 Q683 345 683 340 Q683 333 682.5 320 Q682 307 682 278 Z M317 498 Q285 498 267 482.5 Q249 467 240 435.5 Q231 404 229 356 Q227 308 227 244 Q227 122 243.5 62.5 Q260 3 305 3 Q336 3 354.5 19 Q373 35 382 66.5 Q391 98 393.5 146 Q396 194 396 257 Q396 378 379.5 438 Q363 498 317 498 Z " />
<glyph glyph-name="oe" unicode="&#x153;" horiz-adv-x="733" d="M505 -12 Q414 -12 366 33 Q307 -12 221 -12 Q177 -12 140.5 1.5 Q104 15 77 40.5 Q50 66 35 101.5 Q20 137 20 182 Q20 229 40 268 Q60 307 94 335 Q128 363 173 378.5 Q218 394 267 394 Q343 394 387 353 Q439 394 518 394 Q561 394 595.5 380 Q630 366 654 341.5 Q678 317 691 283.5 Q704 250 704 211 L581 184 L461 184 L461 162 Q461 107 481 73.5 Q501 40 552 40 Q575 40 596.5 47.5 Q618 55 635 66 Q652 77 664.5 91 Q677 105 682 118 Q693 118 695 110.5 Q697 103 695 98 Q685 77 668.5 57 Q652 37 629 21.5 Q606 6 575 -3 Q544 -12 505 -12 Z M243 370 Q231 370 222.5 365 Q214 360 208 342 Q202 324 199 289 Q196 254 196 194 Q196 137 200 101.5 Q204 66 210.5 46 Q217 26 226 19 Q235 12 245 12 Q257 12 266 17 Q275 22 281 40 Q287 58 290 93 Q293 128 293 188 Q293 248 289 283.5 Q285 319 278.5 338.5 Q272 358 262.5 364 Q253 370 243 370 Z M538 214 Q538 295 531.5 332.5 Q525 370 505 370 Q492 370 483.5 362 Q475 354 470.5 335.5 Q466 317 464 286.5 Q462 256 462 210 L538 214 Z " />
<glyph glyph-name="multiply" unicode="&#xd7;" horiz-adv-x="395" d="M173 228 L55 345 L75 377 L198 254 L315 372 L349 354 L224 228 L359 95 L339 62 L199 201 L67 66 L33 87 L173 228 L173 228 Z " />
<glyph glyph-name="eth" unicode="&#xf0;" horiz-adv-x="523" d="M262 502 Q313 484 356.5 457 Q400 430 431.5 393.5 Q463 357 480.5 309 Q498 261 498 201 Q498 151 476.5 110 Q455 69 419.5 40 Q384 11 337.5 -4.5 Q291 -20 242 -20 Q198 -20 158.5 -7.5 Q119 5 89 30.5 Q59 56 41 95 Q23 134 23 187 Q23 232 39 266 Q55 300 82.5 322.5 Q110 345 147.5 356.5 Q185 368 229 368 Q277 368 309 338 Q298 380 280.5 412 Q263 444 233 467 L161 381 L117 461 L156 504 Q130 512 93 517 Q90 520 89 524 Q88 527 88 530.5 Q88 534 93 538 Q134 534 175 526 L264 623 L302 550 L262 502 Z M254 3 Q279 3 293.5 15.5 Q308 28 315 51.5 Q322 75 324 107.5 Q326 140 326 180 Q326 217 324 247 Q322 277 316 298 Q310 319 298 330 Q286 341 265 341 Q227 341 211 295 Q195 249 195 168 Q195 130 197 100 Q199 70 205 48 Q211 26 222.5 14.5 Q234 3 254 3 Z " />
<glyph glyph-name="Thorn" unicode="&#xde;" horiz-adv-x="595" d="M271 -2 L132 -2 Q120 -2 105 -2.5 Q90 -3 75 -4 Q60 -5 47.5 -5.5 Q35 -6 28 -6 L28 8 L113 48 L108 451 L23 491 L23 506 Q43 506 72.5 504 Q102 502 126 502 L275 502 Q300 502 329.5 504 Q359 506 372 506 L372 491 L289 450 L288 395 Q305 396 319 397 Q333 398 352 398 Q460 398 508.5 370.5 Q557 343 557 276 Q557 203 499 167 Q441 131 314 131 L285 131 L284 51 L368 8 L368 -6 Q361 -6 349.5 -5.5 Q338 -5 324.5 -4 Q311 -3 297 -2.5 Q283 -2 271 -2 Z M287 368 L285 155 L301 155 Q328 155 344.5 163.5 Q361 172 370 188 Q379 204 381.5 225.5 Q384 247 384 273 Q384 325 375 349.5 Q366 374 327 374 Q312 374 301 371.5 Q290 369 287 368 Z " />
<glyph glyph-name="fi" unicode="&#xfb01;" horiz-adv-x="614" d="M528 0 L432 0 Q409 0 383.5 -2 Q358 -4 347 -4 L347 11 L387 37 L383 340 L270 340 L267 40 L305 11 L305 -4 Q292 -4 273 -2 Q254 0 231 0 L126 0 Q103 0 83 -2 Q63 -4 50 -4 L50 11 L108 48 L104 340 L14 340 L22 367 L104 367 L103 404 Q102 454 126 490.5 Q150 527 187 551 Q224 575 267.5 586.5 Q311 598 349 598 Q376 598 409.5 589.5 Q443 581 472 566.5 Q501 552 520.5 533 Q540 514 540 492 Q540 480 531.5 469 Q523 458 509.5 450 Q496 442 479.5 437.5 Q463 433 446 433 Q423 433 404.5 444 Q386 455 379 475 L343 572 Q292 572 276 554 Q260 536 260 504 Q260 478 265.5 447.5 Q271 417 271 386 L271 367 L389 367 Q411 367 433.5 370.5 Q456 374 475 379 Q494 384 508 389 Q522 394 528 396 L550 388 L546 48 L598 11 L598 3 L598 -4 Q586 -4 568.5 -2 Q551 0 528 0 Z " />
<glyph glyph-name="fl" unicode="&#xfb02;" horiz-adv-x="604" d="M514 0 L418 0 Q395 0 375 -2 Q355 -4 342 -4 L342 11 L382 38 L378 340 L265 340 L262 41 L300 11 L300 -4 Q286 -4 263 -2 Q240 0 217 0 L120 0 Q98 0 78 -2 Q58 -4 45 -4 L45 11 L103 48 L99 340 L9 340 L17 367 L99 367 L98 404 Q96 454 120.5 490.5 Q145 527 182 551 Q219 575 262.5 586.5 Q306 598 344 598 Q366 598 387.5 594 Q409 590 428 584 Q447 578 461 571 Q475 564 483 558 Q494 567 505 577 Q516 587 525 596 L547 589 L541 48 L592 11 L592 -4 Q578 -4 557.5 -2 Q537 0 514 0 Z M265 367 L378 367 L377 485 L329 572 Q285 572 270 553.5 Q255 535 255 504 Q255 478 260 447.5 Q265 417 265 386 L265 367 Z " />
<glyph glyph-name="Lslash" unicode="&#x141;" horiz-adv-x="501" d="M487 21 L487 -3 Q476 -3 445 -2 Q419 -1 367.5 -0.5 Q316 0 229 0 L113 0 Q101 0 85.5 -0.5 Q70 -1 55 -1.5 Q40 -2 27.5 -2.5 Q15 -3 8 -3 L8 11 L94 51 L88 454 L4 493 L4 509 Q11 509 23.5 508 Q36 507 51 506.5 Q66 506 81 505 Q96 504 108 504 L270 504 Q282 504 299 505 Q316 506 332.5 506.5 Q349 507 362.5 508 Q376 509 383 509 L383 493 L287 451 L283 25 L359 25 L479 195 L494 195 Q494 191 493 168 Q492 145 490.5 116.5 Q489 88 488 60.5 Q487 33 487 21 Z M372.237 300 L337.81 221 L36.2308 201 L70.6577 289 L372.237 300 L372.237 300 Z " />
<glyph glyph-name="lslash" unicode="&#x142;" horiz-adv-x="315" d="M234 0 L111 0 Q88 0 68.5 -1.5 Q49 -3 36 -3 L36 12 L93 49 L88 502 Q76 499 63 496 Q52 494 38 492 Q24 490 11 490 L9 503 Q26 509 56 520.5 Q86 532 119 546 Q152 560 184 575.5 Q216 591 236 606 L259 590 L252 49 L304 12 L304 -3 Q290 -3 273.5 -1.5 Q257 0 234 0 Z M290 301 L265 222 L46 202 L71 290 L290 301 L290 301 Z " />
<glyph glyph-name="germandbls" unicode="&#xdf;" horiz-adv-x="626" d="M375 274 Q418 271 460.5 264.5 Q503 258 537 244.5 Q571 231 591.5 208.5 Q612 186 612 152 Q612 76 565 36 Q518 -4 409 -4 Q395 -4 379.5 -4 Q364 -4 347 -3 L347 18 Q373 19 386.5 29.5 Q400 40 406 57.5 Q412 75 413 96 Q414 117 414 139 Q414 163 412 185 Q410 207 401 224.5 Q392 242 373.5 252 Q355 262 323 262 L323 286 Q348 286 364 296 Q380 306 389.5 322 Q399 338 403 358 Q407 378 407 398 Q407 418 405 436.5 Q403 455 396.5 468.5 Q390 482 378 490 Q366 498 347 498 Q329 498 315.5 490 Q302 482 293 463 Q284 444 279.5 412.5 Q275 381 274 334 L272 -27 L214 -27 L102 -27 Q90 -27 74.5 -27.5 Q59 -28 44 -28.5 Q29 -29 16.5 -29.5 Q4 -30 -3 -30 L-3 -16 L83 24 L80 332 Q80 381 99.5 416.5 Q119 452 153.5 475.5 Q188 499 236 510.5 Q284 522 340 522 Q468 522 533.5 489.5 Q599 457 599 402 Q599 371 579.5 348.5 Q560 326 528.5 311 Q497 296 456.5 288 Q416 280 375 277 L375 274 L375 274 Z " />
<glyph glyph-name="f_f_i" unicode="&#xfb03;" horiz-adv-x="882" d="M801 0 L705 0 Q682 0 657 -2 Q632 -4 621 -4 L621 3 Q621 11 621 11 L660 40 L657 340 L543 340 L540 41 L578 11 L578 -4 Q565 -4 541.5 -2 Q518 0 495 0 L426 0 Q404 0 384 -2 Q364 -4 350 -4 L350 11 L381 37 L378 340 L265 340 L261 43 L308 11 L308 -4 Q302 -4 291 -3.5 Q280 -3 267 -2 Q254 -1 241 -0.5 Q228 0 216 0 L120 0 Q97 0 77.5 -2 Q58 -4 45 -4 L45 11 L102 48 L98 340 L9 340 L17 367 L98 367 L98 405 Q96 455 120.5 491.5 Q145 528 181.5 551.5 Q218 575 261.5 586.5 Q305 598 343 598 Q387 598 417.5 585 Q448 572 463 561 L463 559 Q498 580 542 589 Q586 598 622 598 Q649 598 682.5 589.5 Q716 581 745 566.5 Q774 552 793.5 533 Q813 514 813 492 Q813 480 804.5 469 Q796 458 783 450 Q770 442 753 437.5 Q736 433 720 433 Q696 433 677.5 444 Q659 455 652 475 L616 572 Q566 572 549.5 554 Q533 536 533 505 Q533 479 538.5 448 Q544 417 544 386 L544 367 L663 367 Q685 367 707 370.5 Q729 374 748 378.5 Q767 383 781 388 Q795 393 801 396 L823 388 L820 48 L871 11 L871 -4 Q860 -4 842 -2 Q824 0 801 0 Z M265 367 L378 367 L377 474 L319 572 Q281 572 267.5 554 Q254 536 254 505 Q254 479 259.5 448 Q265 417 265 386 L265 367 Z " />
<glyph glyph-name="f_f" unicode="&#xfb00;" horiz-adv-x="774" d="M674 455 L622 573 Q571 573 555 555 Q539 537 539 506 Q539 480 544.5 449 Q550 418 550 387 L550 368 L690 368 L683 341 L550 341 L546 53 L629 12 L629 -3 Q623 -3 610.5 -2.5 Q598 -2 583.5 -1.5 Q569 -1 554.5 -0.5 Q540 0 528 0 L423 0 Q400 0 384.5 -1.5 Q369 -3 356 -3 L356 12 L387 38 L383 341 L271 341 L267 44 L314 12 L314 -3 Q301 -3 277.5 -1.5 Q254 0 231 0 L126 0 Q103 0 83 -1.5 Q63 -3 50 -3 L50 12 L108 49 L104 341 L14 341 L22 368 L104 368 L103 406 Q102 456 126 492.5 Q150 529 187 552.5 Q224 576 267.5 587.5 Q311 599 349 599 Q393 599 423.5 585.5 Q454 572 469 561 Q503 581 547 590 Q591 599 628 599 Q659 599 684 591.5 Q709 584 726 575 Q746 564 761 551 Q747 526 735 504 Q724 485 712 467.5 Q700 450 689 443 L674 455 Z M271 368 L383 368 L382 475 L325 573 Q287 573 273.5 555 Q260 537 260 506 Q260 480 265.5 449 Q271 418 271 387 L271 368 Z " />
<glyph glyph-name="f_f_l" unicode="&#xfb04;" horiz-adv-x="882" d="M462 560 Q496 580 540.5 589.5 Q585 599 622 599 Q644 599 666 595 Q688 591 706.5 585 Q725 579 739.5 572 Q754 565 761 559 Q772 568 782.5 577.5 Q793 587 803 597 L825 590 L819 56 L870 16 L870 -3 Q856 -3 835.5 -1.5 Q815 0 792 0 L705 0 Q682 0 657.5 -1.5 Q633 -3 620 -3 L620 16 L660 48 L656 337 L543 337 L540 50 L578 16 L578 -3 Q572 -3 561 -2.5 Q550 -2 537 -1.5 Q524 -1 511 -0.5 Q498 0 486 0 L426 0 Q403 0 383 -1.5 Q363 -3 350 -3 L350 16 L381 44 L377 337 L264 337 L261 48 L308 16 L308 -3 Q302 -3 291 -2.5 Q280 -2 267 -1.5 Q254 -1 241 -0.5 Q228 0 216 0 L120 0 Q97 0 77 -1.5 Q57 -3 44 -3 L44 16 L102 56 L98 337 L8 337 L16 368 L98 368 L97 406 Q95 456 119.5 492.5 Q144 529 181 552.5 Q218 576 261.5 587.5 Q305 599 343 599 Q386 599 417 585.5 Q448 572 462 561 L462 560 Z M264 368 L377 368 L376 475 L319 570 Q281 570 267.5 553.5 Q254 537 254 506 Q254 480 259 449 Q264 418 264 387 L264 368 Z M543 368 L656 368 L655 486 L607 570 Q563 570 548 553.5 Q533 537 533 506 Q533 480 538 449 Q543 418 543 387 L543 368 Z " />
<glyph glyph-name="B" unicode="B" horiz-adv-x="592" d="M346 275 Q391 275 433 268 Q475 261 508 246 Q541 231 561.5 208 Q582 185 583 152 Q584 122 572.5 94 Q561 66 536 44.5 Q511 23 472 10 Q433 -3 379 -3 Q334 -3 297 -1.5 Q260 0 230 0 L118 0 Q106 0 90.5 -0.5 Q75 -1 60 -1.5 Q45 -2 32.5 -2.5 Q20 -3 13 -3 L13 11 L99 51 L93 454 L9 493 L9 509 Q16 509 28 508 Q40 507 54.5 506.5 Q69 506 84 505 Q99 504 111 504 L230 504 Q242 504 258.5 505 Q275 506 293 506.5 Q311 507 329.5 508 Q348 509 364 509 Q409 509 440.5 500.5 Q472 492 491.5 477 Q511 462 519.5 441.5 Q528 421 527 398 Q525 343 477 313 Q429 283 346 277 L346 275 Z M290 263 L288 24 Q292 22 296 21 Q303 18 314 18 Q341 18 355.5 28.5 Q370 39 376.5 56.5 Q383 74 384 95.5 Q385 117 385 140 Q385 164 382.5 186 Q380 208 371 225.5 Q362 243 344 253 Q326 263 294 263 L290 263 Z M292 482 L290 286 L294 286 Q319 286 335 296 Q351 306 360.5 322 Q370 338 374 358.5 Q378 379 378 399 Q378 440 368.5 463 Q359 486 320 486 Q312 486 307.5 485.5 Q303 485 299 484 Q295 483 292 482 Z " />
<glyph glyph-name="C" unicode="C" horiz-adv-x="554" d="M516 118 Q516 117 518 115 Q519 113 520.5 112 Q522 111 524 109 Q528 105 531 100 Q511 46 452 12 Q393 -22 302 -22 Q235 -22 185 -0.5 Q135 21 101.5 57.5 Q68 94 51.5 142 Q35 190 35 244 Q35 303 55.5 354 Q76 405 115 442 Q154 479 211 500 Q268 521 342 521 Q376 521 408 511.5 Q440 502 465 487.5 Q490 473 505 456.5 Q520 440 520 426 Q520 414 514.5 390.5 Q509 367 501 344 Q493 321 484.5 304 Q476 287 470 287 L464 291 Q429 348 399 394 Q386 413 373.5 431.5 Q361 450 349.5 464.5 Q338 479 330 488 Q322 497 318 497 Q268 497 252 433.5 Q236 370 236 243 Q236 182 243.5 141 Q251 100 265.5 75.5 Q280 51 301.5 40.5 Q323 30 352 30 Q426 30 465.5 54.5 Q505 79 516 118 Z " />
<glyph glyph-name="A" unicode="A" horiz-adv-x="663" d="M121 48 L194 11 L194 -3 Q180 -3 156 -1.5 Q132 0 108 0 L94 0 Q73 0 49 -1.5 Q25 -3 5 -3 L5 11 L83 49 L263 453 L284 504 L439 504 L582 48 L659 11 L659 -3 Q639 -3 614.5 -1.5 Q590 0 568 0 L408 0 Q396 0 380.5 -0.5 Q365 -1 350.5 -1.5 Q336 -2 323.5 -2.5 Q311 -3 304 -3 L304 11 L386 50 L345 177 L177 173 L121 48 Z M189 204 L336 200 L273 397 L189 204 Z " />
</font>
</svg>
