<?xml version="1.0" encoding="UTF-8"?>
<svg xmlns="http://www.w3.org/2000/svg" xmlns:xlink="http://www.w3.org/1999/xlink" version="1.2" >
<font id="Lottus Sans">
<font-face  font-family="Lottus Sans" units-per-em="1000" ascent="750" descent="-250" font-style="normal" font-weight="400" font-stretch="normal" cap-height="716" x-height="716" underline-position="-75" underline-thickness="50" />
<missing-glyph  horiz-adv-x="191" d="" />
<glyph glyph-name="NULL" d="" />
<glyph glyph-name="nonmarkingreturn" unicode="&#xd;" horiz-adv-x="191" d="" />
<glyph glyph-name="space" unicode="&#x20;" horiz-adv-x="191" d="" />
<glyph glyph-name="E" unicode="E" horiz-adv-x="364" d="M305 -99 L305 -198 L60 -198 L60 716 L305 716 L305 616 L183 616 L183 308 L264 308 L264 208 L183 208 L183 -99 L305 -99 L305 -99 Z " />
<glyph glyph-name="F" unicode="F" horiz-adv-x="326" d="M188 209 L188 -198 L65 -198 L65 716 L311 716 L311 617 L188 617 L188 309 L261 309 L261 209 L188 209 L188 209 Z " />
<glyph glyph-name="G" unicode="G" horiz-adv-x="462" d="M114 -174 Q65 -135 65 -79 L65 593 Q65 649 114 688 Q162 727 231 727 Q300 727 348 688 Q397 649 397 593 L397 354 L272 354 L272 605 Q272 619 260 628 Q249 638 231 638 Q213 638 202 628 Q190 619 190 605 L190 -91 Q190 -105 202 -114 Q215 -124 231 -124 Q247 -124 260 -114 Q272 -105 272 -91 L272 208 L254 208 L254 307 L397 308 L397 -79 Q397 -135 348 -174 Q300 -213 231 -213 Q162 -213 114 -174 Z " />
<glyph glyph-name="H" unicode="H" horiz-adv-x="429" d="M168 210 L168 -198 L45 -198 L45 716 L168 716 L168 309 L256 309 L256 716 L379 716 L379 -198 L256 -198 L256 210 L168 210 L168 210 Z " />
<glyph glyph-name="I" unicode="I" horiz-adv-x="273" d="M198 716 L198 -198 L75 -198 L75 716 L198 716 L198 716 Z " />
<glyph glyph-name="J" unicode="J" horiz-adv-x="347" d="M235 -179 Q223 -189 212 -195.5 Q201 -202 187.5 -206 Q174 -210 155.5 -211.5 Q137 -213 110 -211 Q91 -210 73.5 -207.5 Q56 -205 41 -200 L41 -110 Q52 -115 66 -118.5 Q80 -122 100 -121 Q107 -121 116 -119.5 Q125 -118 132.5 -112 Q140 -106 145 -94.5 Q150 -83 150 -63 L150 716 L272 716 L272 -77 Q272 -105 265.5 -132 Q259 -159 235 -179 Z " />
<glyph glyph-name="K" unicode="K" horiz-adv-x="468" d="M198 215 L198 -198 L75 -198 L75 716 L198 716 L198 304 L307 716 L429 716 L307 259 L429 -198 L307 -198 L198 215 L198 215 Z " />
<glyph glyph-name="L" unicode="L" horiz-adv-x="318" d="M188 716 L188 -98 L311 -98 L311 -198 L65 -198 L65 716 L188 716 L188 716 Z " />
<glyph glyph-name="M" unicode="M" horiz-adv-x="583" d="M399 210 L338 -198 L241 -198 L182 202 L182 -198 L60 -198 L60 715 L182 715 L291 210 L398 715 L523 715 L523 -198 L399 -198 L399 210 L399 210 Z " />
<glyph glyph-name="N" unicode="N" horiz-adv-x="457" d="M392 716 L392 -198 L269 -198 L188 203 L188 -198 L65 -198 L65 716 L188 716 L269 320 L269 716 L392 716 L392 716 Z " />
<glyph glyph-name="O" unicode="O" horiz-adv-x="442" d="M397 -78 Q397 -134 348 -173 Q300 -212 231 -212 Q162 -212 113 -173 Q65 -134 65 -78 L65 594 Q65 650 113 689 Q162 728 231 728 Q300 728 348 689 Q397 650 397 594 L397 -78 Z M272 606 Q272 620 260 629 Q249 639 231 639 Q213 639 202 629 Q190 620 190 606 L190 -90 Q190 -104 202 -113 Q215 -123 231 -123 Q247 -123 260 -113 Q272 -104 272 -90 L272 606 Z " />
<glyph glyph-name="P" unicode="P" horiz-adv-x="432" d="M335 682 Q360 662 371 637.5 Q382 613 382 586 L382 302 Q382 263 361 241 Q340 219 308.5 208 Q277 197 241 194.5 Q205 192 174 192 L174 -197 L50 -197 L50 716 L215 716 Q256 716 283.5 708.5 Q311 701 335 682 Z M256 319 Q256 357 256 388 Q256 419 256.5 449.5 Q257 480 257 515 Q257 550 257 595 Q257 611 245 620 Q231 629 215 629 L174 629 L174 276 Q216 276 236 282 Q256 288 256 319 Z " />
<glyph glyph-name="Q" unicode="Q" horiz-adv-x="458" d="M259 -195 Q237 -197 209 -196.5 Q181 -196 164 -192 Q141 -187 122.5 -171 Q104 -155 91 -139 Q65 -107 65 -67 L65 596 Q65 651 112 690 Q162 728 229 728 Q297 728 344 690 Q393 651 393 596 L393 -67 Q393 -105 369 -136 L407 -187 L351 -228 L321 -251 L259 -195 Z M188 -79 Q188 -93 200 -102 Q213 -112 229 -112 Q245 -112 257 -102 Q269 -93 269 -79 L269 608 Q269 621 257 630 Q247 640 229 640 Q211 640 200 630 Q188 621 188 608 L188 -79 Z " />
<glyph glyph-name="R" unicode="R" horiz-adv-x="452" d="M267 -198 L267 134 Q267 160 250 170.5 Q233 181 185 180 L185 -198 L60 -198 L60 716 L226 716 Q266 716 294.5 708 Q323 700 347 680 Q372 661 382 637 Q392 613 392 586 L392 302 Q392 279 385 264.5 Q378 250 370 242 Q360 232 349 229 Q360 223 370 212 Q378 203 385 188 Q392 173 392 151 L392 -198 L267 -198 Z M267 319 Q266 347 266.5 394 Q267 441 267 486 L267 597 Q267 611 255 620 Q243 629 226 629 L185 629 L185 276 Q206 276 221.5 277 Q237 278 247 282 Q257 286 262 294.5 Q267 303 267 319 Z " />
<glyph glyph-name="S" unicode="S" horiz-adv-x="436" d="M385 -90 Q379 -142 331 -176 Q286 -211 219 -211 Q153 -211 106 -176 Q59 -141 53 -90 L53 142 L178 143 L178 -89 Q178 -103 190 -112 Q203 -122 219 -122 Q233 -122 248 -112 Q260 -103 260 -89 L260 173 Q260 206 223 206 L215 206 Q145 206 95 250 Q53 289 53 340 L53 594 Q53 649 101 688 Q150 728 219 728 Q289 728 336 688 Q385 648 385 594 L385 412 L260 412 L260 605 Q260 620 248 629 Q233 639 219 639 Q203 639 190 629 Q178 620 178 605 L178 350 Q178 336 188 327 Q198 317 215 317 L238 317 Q291 317 325 295 Q352 278 369 245 Q386 207 385 173 L385 -89 L385 -90 L385 -90 Z " />
<glyph glyph-name="T" unicode="T" horiz-adv-x="363" d="M243 -198 L120 -198 L120 617 L38 617 L38 716 L325 716 L325 617 L243 617 L243 -198 L243 -198 Z " />
<glyph glyph-name="U" unicode="U" horiz-adv-x="461" d="M271 716 L396 716 L396 -77 Q396 -133 347 -172 Q299 -211 230 -211 Q162 -211 113 -172 Q65 -133 65 -77 L65 716 L189 716 L189 -89 Q189 -103 202 -112 Q214 -122 230 -122 Q246 -122 259 -112 Q271 -103 271 -89 L271 716 Z " />
<glyph glyph-name="V" unicode="V" horiz-adv-x="407" d="M203 259 L265 716 L388 716 L265 -198 L142 -198 L19 716 L142 716 L203 259 L203 259 Z " />
<glyph glyph-name="W" unicode="W" horiz-adv-x="624" d="M250 -198 L127 -198 L31 716 L154 716 L196 259 L250 716 L374 716 L429 259 L469 716 L592 716 L497 -198 L374 -198 L312 253 L250 -198 L250 -198 Z " />
<glyph glyph-name="X" unicode="X" horiz-adv-x="403" d="M257 716 L379 716 L263 260 L379 -197 L257 -197 L202 49 L148 -197 L25 -197 L140 259 L25 716 L148 716 L202 470 L257 716 L257 716 Z " />
<glyph glyph-name="Y" unicode="Y" horiz-adv-x="449" d="M286 -197 L163 -197 L163 116 L162 116 L26 716 L149 716 L224 357 L300 716 L423 716 L287 116 L286 116 L286 -197 L286 -197 Z " />
<glyph glyph-name="Z" unicode="Z" horiz-adv-x="363" d="M315 -98 L315 -197 L29 -197 L29 -98 L193 617 L29 617 L29 716 L315 716 L315 617 L152 -98 L315 -98 L315 -98 Z " />
<glyph glyph-name="D" unicode="D" horiz-adv-x="432" d="M335 -162 Q311 -181 283.5 -189.5 Q256 -198 215 -198 L50 -198 L50 -67 L50 586 L50 716 L215 716 Q259 716 285 708.5 Q311 701 335 682 Q360 663 371 638 Q382 613 382 586 L382 411 L382 109 L382 -67 Q382 -94 371 -118 Q360 -142 335 -162 Z M174 -111 L215 -111 Q224 -111 231 -108.5 Q238 -106 245 -101 Q256 -93 256 -79 L256 411 L256 598 Q256 612 245 620 Q232 630 215 630 L174 630 L174 -111 Z " />
<glyph glyph-name="exclam" unicode="&#x21;" horiz-adv-x="211" d="M45 -198 L45 -98 L166 -98 L166 -198 L45 -198 Z M45 -9 L45 716 L166 716 L166 -9 L45 -9 Z " />
<glyph glyph-name="quotedbl" unicode="&#x22;" horiz-adv-x="306" d="M20 616 L20 728 L142 728 L142 616 L97 516 L51 516 L58 616 L20 616 Z M158 616 L158 728 L279 728 L279 616 L235 516 L188 516 L195 616 L158 616 Z " />
<glyph glyph-name="numbersign" unicode="&#x23;" horiz-adv-x="457" d="M367 500 L357 409 L416 409 L408 340 L350 340 L341 255 L399 255 L393 186 L333 186 L322 82 L237 82 L248 186 L183 186 L172 82 L88 82 L100 186 L34 186 L42 255 L107 255 L115 340 L51 340 L58 409 L123 409 L133 500 L217 500 L208 409 L273 409 L282 500 L367 500 Z M256 255 L265 340 L200 340 L191 255 L256 255 Z " />
<glyph glyph-name="dollar" unicode="&#x24;" horiz-adv-x="400" d="M322 628 Q371 589 371 533 L371 353 L247 353 L247 545 Q247 559 236 568 Q223 578 207 578 Q189 578 179 568 Q167 559 167 545 L167 348 Q167 335 176 325 Q186 316 203 316 L226 316 Q277 316 312 293 Q340 274 355 243 Q372 207 371 172 L371 -32 Q365 -83 318 -118 Q307 -127 294.5 -133 Q282 -139 268 -144 L268 -198 L147 -198 L147 -144 Q119 -135 96 -118 Q49 -83 43 -32 L43 160 L167 160 L167 -31 Q167 -45 179 -54 Q189 -64 207 -64 Q223 -64 236 -54 Q247 -45 247 -31 L247 171 Q247 204 211 204 L203 204 Q133 204 85 249 Q43 286 43 338 L43 533 Q43 589 91 628 Q117 649 147 658 L147 715 L268 715 L268 658 Q298 647 322 628 Z " />
<glyph glyph-name="percent" unicode="&#x25;" horiz-adv-x="603" d="M488 715 L181 -197 L103 -197 L410 715 L488 715 Z M530 126 Q564 105 564 76 L564 -128 Q564 -156 530 -177 Q497 -197 448 -197 Q397 -197 364 -177 Q330 -155 330 -128 L330 76 Q330 104 364 126 Q398 147 448 147 Q495 147 530 126 Z M476 82 Q476 90 468 95 Q458 100 448 100 Q437 100 427 95 Q418 89 418 82 L418 -134 Q418 -142 427 -146 Q435 -150 448 -150 Q460 -150 468 -146 Q476 -142 476 -134 L476 82 Z M233 391 Q200 370 152 370 Q102 370 68 391 Q34 410 34 440 L34 644 Q34 673 68 694 Q102 715 152 715 Q200 715 233 694 Q268 673 268 644 L268 440 Q268 411 233 391 Z M122 434 Q122 426 131 422 Q138 417 152 417 Q164 417 172 422 Q180 427 180 434 L180 650 Q180 657 172 663 Q164 667 152 667 Q139 667 131 663 Q122 657 122 650 L122 434 Z " />
<glyph glyph-name="ampersand" unicode="&#x26;" horiz-adv-x="449" d="M354 307 L404 307 L404 209 L354 209 L353 -54 Q352 -92 336.5 -119 Q321 -146 295 -169 Q250 -203 195 -203 Q129 -203 83 -158 Q37 -112 37 -50 L37 157 Q37 216 78 260 Q37 304 37 362 L37 568 Q37 630 83 676 Q131 721 195 721 Q260 721 307 676 Q354 631 354 568 L353 396 L237 396 L237 582 Q237 597 224 610 Q213 622 195 622 Q178 622 166 610 Q154 598 154 582 L154 349 Q154 330 167 320 Q183 307 216 307 L237 307 L237 319 L354 319 L354 307 Z M237 209 L199 209 Q154 203 154 170 L154 -64 Q154 -80 166 -92 Q178 -104 195 -104 Q213 -104 224 -92 Q237 -79 237 -64 L237 209 Z " />
<glyph glyph-name="quotesingle" unicode="&#x27;" horiz-adv-x="155" d="M93 516 L47 516 L54 616 L16 616 L16 728 L138 728 L138 616 L93 516 L93 516 Z " />
<glyph glyph-name="parenleft" unicode="&#x28;" horiz-adv-x="243" d="M212 729 L218 728 L218 636 L215 638 L212 638 Q206 640 203 640 Q187 640 174 629 Q163 621 163 606 L163 -90 Q163 -105 174 -113 Q186 -122 203 -122 L212 -122 L215 -121 L218 -120 L218 -211 L212 -211 L203 -212 Q135 -212 87 -173 Q40 -132 40 -78 L40 595 Q40 650 87 689 Q136 729 203 729 L212 729 Z " />
<glyph glyph-name="parenright" unicode="&#x29;" horiz-adv-x="243" d="M156 689 Q203 651 203 594 L203 -78 Q203 -135 156 -173 Q108 -212 40 -212 L31 -212 L26 -211 L26 -120 L29 -121 L31 -122 Q34 -122 36 -122.5 Q38 -123 40 -123 Q58 -123 69 -113 Q80 -105 80 -90 L80 606 Q80 621 69 629 Q58 639 40 639 Q34 639 31 638 L29 637 L26 636 L26 728 L31 728 L40 728 Q108 728 156 689 Z " />
<glyph glyph-name="asterisk" unicode="&#x2a;" horiz-adv-x="285" d="M265 669 L190 606 L265 542 L216 498 L176 541 L177 483 L106 483 L106 541 L68 498 L18 542 L91 606 L18 669 L68 714 L107 673 L106 728 L177 728 L176 673 L216 714 L265 669 L265 669 Z " />
<glyph glyph-name="plus" unicode="&#x2b;" horiz-adv-x="324" d="M218 395 L218 311 L311 311 L311 211 L218 211 L218 127 L107 127 L107 211 L14 211 L14 311 L107 311 L107 395 L218 395 L218 395 Z " />
<glyph glyph-name="comma" unicode="&#x2c;" horiz-adv-x="158" d="M21 -212 L21 -113 L134 -113 L134 -212 L92 -301 L49 -301 L56 -212 L21 -212 L21 -212 Z " />
<glyph glyph-name="hyphen" unicode="&#x2d;" horiz-adv-x="280" d="M19 250 L19 350 L259 350 L259 250 L19 250 L19 250 Z " />
<glyph glyph-name="period" unicode="&#x2e;" horiz-adv-x="130" d="M9 -212 L9 -112 L122 -112 L122 -212 L9 -212 L9 -212 Z " />
<glyph glyph-name="slash" unicode="&#x2f;" horiz-adv-x="325" d="M166 766 L281 766 L158 -266 L43 -266 L166 766 L166 766 Z " />
<glyph glyph-name="zero" unicode="0" horiz-adv-x="452" d="M343 689 Q392 649 392 594 L392 -79 Q392 -134 343 -174 Q295 -213 226 -213 Q157 -213 108 -174 Q60 -134 60 -79 L60 594 Q60 648 108 689 Q157 728 226 728 Q295 728 343 689 Z M267 606 Q267 618 255 629 Q242 639 226 639 Q210 639 197 629 Q185 618 185 606 L185 -91 Q185 -105 197 -114 Q209 -123 226 -123 Q243 -123 255 -114 Q267 -105 267 -91 L267 606 Z " />
<glyph glyph-name="one" unicode="1" horiz-adv-x="243" d="M16 617 L68 716 L183 716 L183 -198 L60 -198 L60 617 L16 617 L16 617 Z " />
<glyph glyph-name="two" unicode="2" horiz-adv-x="442" d="M55 592 Q55 648 103 687 Q152 727 220 727 Q291 727 338 687 Q386 648 386 592 L386 564 L387 507 L386 391 Q386 377 385 364 Q384 351 382 338 Q367 249 290 182 Q273 167 257 153 Q243 141 230 129 Q217 117 211 109 Q176 65 176 32 L176 -102 L385 -102 L385 -202 L53 -202 L53 -94 L53 -91 Q53 -35 55 1.5 Q57 38 61 61.5 Q65 85 71 100 Q77 115 84 127 Q117 182 187 240 Q259 298 262 376 L262 520 L262 562 L262 604 Q262 618 250 627 Q236 638 220 638 Q205 638 192 627 Q179 617 179 604 L179 353 L55 353 L55 592 L55 592 Z " />
<glyph glyph-name="three" unicode="3" horiz-adv-x="438" d="M59 573 Q59 638 107 683 Q156 729 223 729 Q290 729 339 683 Q387 638 387 573 L387 364 Q387 303 344 260 Q387 216 387 154 L387 -56 Q387 -121 339 -166 Q292 -212 223 -212 Q154 -212 107 -166 Q59 -121 59 -56 L59 139 L180 139 L180 -69 Q180 -86 193 -99 Q204 -110 223 -110 Q242 -110 254 -99 Q266 -87 266 -69 L266 168 Q266 181 258 188.5 Q250 196 240 201 Q229 206 215 208 L215 308 Q223 309 230 311 Q236 313 242 315 Q248 317 253 321 Q266 333 266 350 L266 587 Q266 604 254 616 Q240 628 223 628 Q205 628 193 616 Q180 603 180 587 L180 355 L60 355 Q60 357 59.5 411 Q59 465 59 573 Z " />
<glyph glyph-name="four" unicode="4" horiz-adv-x="451" d="M183 716 L183 180 L268 180 L268 716 L391 716 L391 180 L424 180 L424 79 L391 79 L391 -198 L268 -198 L268 79 L85 79 Q72 79 66 82.5 Q60 86 60 106 L60 716 L183 716 Z " />
<glyph glyph-name="five" unicode="5" horiz-adv-x="428" d="M382 618 L181 618 L182 360 L256 360 Q303 360 340 328 Q360 310 373 282.5 Q386 255 386 227 L386 -54 Q386 -119 338 -164 Q291 -210 223 -210 Q154 -210 107 -164 Q59 -119 59 -54 L59 209 L179 209 L179 -67 Q179 -84 192 -97 Q204 -108 223 -108 Q241 -108 253 -97 Q265 -85 265 -67 L265 227 Q265 239 253.5 249.5 Q242 260 208 261 L60 261 L61 717 L382 717 L382 618 Z " />
<glyph glyph-name="six" unicode="6" horiz-adv-x="444" d="M392 -77 Q392 -133 344 -172 Q295 -212 227 -212 Q158 -212 109 -172 Q60 -132 60 -77 L60 594 Q60 649 109 689 Q158 728 227 728 Q294 728 344 689 Q392 650 392 594 L393 404 L268 404 L268 606 Q268 620 255 629 Q242 639 227 639 Q218 639 211 636.5 Q204 634 197 629 Q186 620 186 606 L186 423 L186 301 Q196 303 206 304 Q216 305 227 305 Q261 305 290.5 299 Q320 293 344 273 Q369 253 381 226 Q393 199 393 171 L393 2 L392 2 L392 -77 Z M268 183 Q268 197 256 206 Q243 216 227 216 Q211 216 198 206 Q186 197 186 183 L186 -92 Q187 -103 197 -113 Q210 -122 227 -122 Q243 -122 255 -113 Q268 -103 268 -89 L268 82 L268 81 L268 183 Z " />
<glyph glyph-name="seven" unicode="7" horiz-adv-x="345" d="M205 -197 L82 -197 L177 618 L38 618 L38 717 L315 717 L205 -197 L205 -197 Z " />
<glyph glyph-name="eight" unicode="8" horiz-adv-x="411" d="M322 -174 Q274 -213 205 -213 Q136 -213 88 -174 Q39 -134 39 -79 L40 172 Q40 195 45 218 Q49 238 58 258.5 Q67 279 84 296 Q71 311 61 328 Q53 342 46 361 Q39 380 39 402 L39 594 Q39 649 88 688 Q137 728 205 728 Q273 728 322 688 Q371 649 371 594 L371 402 Q371 380 364 361 Q357 342 349 328 Q339 311 327 296 Q344 279 352 258.5 Q360 238 365 218 Q369 195 371 172 L371 -79 Q371 -134 322 -174 Z M164 349 Q164 336 177 329.5 Q190 323 205 323 Q220 323 233 329.5 Q246 336 246 348 L246 605 Q246 618 234 629 Q221 639 205 639 Q189 639 176 629 Q164 618 164 605 L164 349 Z M164 -91 Q164 -104 176 -114 Q188 -123 205 -123 Q222 -123 234 -114 Q246 -104 246 -91 L246 193 Q246 206 233 212.5 Q220 219 205 219 Q190 219 177 212.5 Q164 206 164 194 L164 -91 Z " />
<glyph glyph-name="nine" unicode="9" horiz-adv-x="444" d="M101 -174 Q52 -133 52 -79 L52 126 L177 126 L176 -85 Q176 -92 179.5 -100.5 Q183 -109 189 -114 Q201 -123 218 -123 Q235 -123 247 -114 Q259 -105 259 -91 L259 214 Q249 212 239 211 Q229 210 218 210 Q149 210 100 249 Q76 269 64.5 290 Q53 311 52 344 L52 593 Q52 647 101 687 Q148 727 218 727 Q288 727 335 687 Q384 648 384 593 L384 -79 Q384 -134 335 -174 Q287 -213 218 -213 Q149 -213 101 -174 Z M259 608 Q257 619 247 628 Q234 638 218 638 Q202 638 189 628 Q177 617 177 604 L177 332 Q177 318 189 309 Q201 300 218 300 Q235 300 247 309 Q259 318 259 332 L259 608 Z " />
<glyph glyph-name="colon" unicode="&#x3a;" horiz-adv-x="178" d="M37 414 L37 514 L144 514 L144 414 L37 414 Z M37 0 L37 100 L144 100 L144 0 L37 0 Z " />
<glyph glyph-name="semicolon" unicode="&#x3b;" horiz-adv-x="179" d="M39 -2 L39 98 L144 98 L144 -2 L106 -91 L66 -91 L72 -2 L39 -2 Z M39 412 L39 512 L144 512 L144 412 L39 412 Z " />
<glyph glyph-name="less" unicode="&#x3c;" horiz-adv-x="425" d="M25 300 Q25 314 33 324.5 Q41 335 54 338 L398 446 L398 351 L235 300 L398 250 L398 155 L54 263 Q41 266 33 276 Q25 286 25 300 Z " />
<glyph glyph-name="equal" unicode="&#x3d;" horiz-adv-x="294" d="M27 328 L27 428 L267 428 L267 328 L27 328 Z M27 174 L27 274 L267 274 L267 174 L27 174 Z " />
<glyph glyph-name="greater" unicode="&#x3e;" horiz-adv-x="426" d="M372 338 Q384 335 392.5 324.5 Q401 314 401 300 Q401 286 392.5 276 Q384 266 372 263 L28 155 L28 250 L190 300 L28 351 L28 446 L372 338 L372 338 Z " />
<glyph glyph-name="question" unicode="&#x3f;" horiz-adv-x="411" d="M130 -99 L251 -99 L251 -199 L130 -199 L130 -99 Z M323 689 Q371 648 371 594 L371 347 Q371 333 369.5 322 Q368 311 366 301 Q358 275 344 259 L264 176 Q251 166 251 150 L251 -10 L130 -10 L130 135 Q130 162 140 186 Q148 207 161 224 Q177 246 192 258 L227 284 Q233 290 237 295.5 Q241 301 243 307 Q248 320 248 346 L248 606 Q248 618 236 629 Q224 638 207 638 Q191 638 179 629 Q167 618 167 606 L167 354 L44 354 L44 594 Q44 648 92 689 Q140 728 207 728 Q275 728 323 689 Z " />
<glyph glyph-name="at" unicode="&#x40;" horiz-adv-x="776" d="M634 669 Q736 588 736 475 L736 180 Q736 78 708 25 Q668 -51 568 -51 L453 -51 Q396 -51 361.5 -47 Q327 -43 307.5 -36.5 Q288 -30 279 -22.5 Q270 -15 264 -9 Q240 21 240 55 L240 232 Q240 235 240.5 239 Q241 243 242 248 Q251 286 291 317 Q296 321 318 332 Q340 343 364 355 Q392 369 426 385 L426 456 Q426 468 414 477 Q403 485 389 485 Q374 485 363 477 Q353 468 353 456 L353 443 L240 394 L240 446 Q240 493 284 528 Q327 562 389 562 Q451 562 494 528 Q537 493 537 446 L537 44 L574 44 L581 44 Q589 48 597 61 Q618 91 618 180 L618 475 Q618 547 551 602 Q483 654 387 654 Q293 654 225 602 Q158 548 158 475 L158 26 Q158 -48 225 -100 Q293 -152 387 -152 L678 -151 L676 -245 L387 -245 Q243 -245 142 -166 Q40 -87 40 26 L40 475 Q40 588 142 669 Q243 748 387 748 Q533 748 634 669 Z M390 44 Q403 44 410.5 48 Q418 52 421.5 57 Q425 62 425.5 67 Q426 72 426 75 L426 284 L418 280 L411 277 Q389 268 375 255 Q363 248 357 235 Q352 218 353 211 L353 76 Q353 73 353.5 67.5 Q354 62 357.5 57 Q361 52 368.5 48 Q376 44 390 44 Z " />
<glyph glyph-name="bracketleft" unicode="&#x5b;" horiz-adv-x="252" d="M50 -198 L50 716 L215 716 L215 616 L172 616 L172 -98 L215 -98 L215 -198 L50 -198 L50 -198 Z " />
<glyph glyph-name="backslash" unicode="&#x5c;" horiz-adv-x="264" d="M24 771 L138 771 L261 -262 L147 -262 L24 771 L24 771 Z " />
<glyph glyph-name="bracketright" unicode="&#x5d;" horiz-adv-x="255" d="M50 616 L50 716 L215 716 L215 -198 L50 -198 L50 -98 L93 -98 L93 616 L50 616 L50 616 Z " />
<glyph glyph-name="underscore" unicode="&#x5f;" horiz-adv-x="367" d="M39 -212 L39 -112 L329 -112 L329 -212 L39 -212 L39 -212 Z " />
<glyph glyph-name="asciicircum" unicode="&#x5e;" horiz-adv-x="344" d="M189 750 Q209 750 217.5 735 Q226 720 236 701 L313 533 L213 533 L171 624 L129 533 L30 533 L107 701 Q117 726 125.5 738 Q134 750 158 750 L189 750 L189 750 Z " />
<glyph glyph-name="grave" unicode="&#x60;" horiz-adv-x="185" d="M21 749 L118 749 L166 531 L85 531 L21 749 L21 749 Z " />
<glyph glyph-name="braceleft" unicode="&#x7b;" horiz-adv-x="304" d="M137 688 Q185 727 253 727 L264 727 L264 636 Q261 638 253 638 Q235 638 224 628 Q212 619 212 605 L212 334 Q211 329 210.5 323 Q210 317 208 312 Q201 280 178 256 Q200 234 208 201 Q210 195 210.5 189.5 Q211 184 212 178 L212 -91 Q212 -105 224 -114 Q235 -124 253 -124 Q256 -124 264 -122 L264 -213 L253 -213 Q185 -213 137 -174 Q90 -136 90 -79 L90 168 Q90 170 89.5 170.5 Q89 171 89 173 Q89 176 87 182 Q84 194 77 198 Q68 207 45 207 L45 305 Q53 305 59 307 Q72 309 77 314 Q84 320 87 331 Q89 335 89 339 Q89 341 89.5 342 Q90 343 90 345 L90 593 Q90 650 137 688 Z " />
<glyph glyph-name="bar" unicode="&#x7c;" horiz-adv-x="211" d="M45 -308 L45 778 L166 778 L166 -308 L45 -308 L45 -308 Z " />
<glyph glyph-name="braceright" unicode="&#x7d;" horiz-adv-x="310" d="M227 315 Q235 307 259 307 L260 307 L259 208 Q236 208 227 199 Q220 195 217 183 Q216 181 215 176 Q214 171 214 169 L214 -78 Q214 -135 167 -173 Q119 -212 51 -212 L40 -212 L40 -121 Q48 -123 51 -123 Q69 -123 80 -113 Q92 -104 92 -90 L92 179 Q93 185 93.5 190.5 Q94 196 96 202 Q104 235 126 257 Q103 281 96 313 Q94 318 93.5 324 Q93 330 92 335 L92 606 Q92 620 80 629 Q69 639 51 639 Q43 639 40 637 L40 728 L51 728 Q119 728 167 689 Q214 651 214 594 L214 468 Q214 444 214 421.5 Q214 399 214.5 381 Q215 363 215 351.5 Q215 340 215 340 Q215 336 217 332 Q220 321 227 315 Z " />
<glyph glyph-name="asciitilde" unicode="&#x7e;" horiz-adv-x="383" d="M319 229 Q326 221 331 216 Q336 211 338 207 Q341 203 342 200 L343 198 L285 162 Q284 164 279 170 Q274 176 272 178 Q269 181 263.5 185.5 Q258 190 250.5 192 Q243 194 233.5 192 Q224 190 212 180 Q185 159 160 155 Q143 150 122 153 Q108 156 96 164 Q84 172 74.5 182 Q65 192 58.5 200.5 Q52 209 49 214 L47 216 L47 218 L105 253 L106 251 L106 250 Q107 248 108 247 Q109 246 110 244 Q111 243 115 237 Q119 231 126.5 227 Q134 223 145 223.5 Q156 224 170 236 Q193 256 219 262 Q229 264 238.5 264.5 Q248 265 258 263 Q291 255 319 229 Z " />
<glyph glyph-name="a" unicode="a" horiz-adv-x="384" d="M145 -107 L131 -198 L8 -198 L131 716 L253 716 L376 -198 L253 -198 L239 -107 L145 -107 Z M192 367 L160 -8 L224 -8 L192 367 Z " />
<glyph glyph-name="b" unicode="b" horiz-adv-x="415" d="M372 -68 Q372 -121 323 -160 Q299 -180 272.5 -189 Q246 -198 206 -198 L40 -198 L40 716 L206 716 Q249 716 274.5 708 Q300 700 324 681 Q349 662 360.5 637 Q372 612 372 585 L372 367 Q372 344 365 329.5 Q358 315 350 306 Q340 295 329 289 Q340 285 350 276 Q358 268 365 253.5 Q372 239 372 216 L372 -68 Z M235 -102 Q247 -93 247 -80 L247 31 Q247 53 247 77 Q247 101 247 123.5 Q247 146 247 165.5 Q247 185 247 199 Q247 230 226.5 236 Q206 242 165 242 L165 -111 L206 -111 Q223 -111 235 -102 Z M247 597 Q247 610 235 619 Q224 629 206 629 L165 629 L165 338 Q213 337 230 347.5 Q247 358 247 384 L247 597 Z " />
<glyph glyph-name="c" unicode="c" horiz-adv-x="435" d="M108 -173 Q60 -134 60 -78 L60 594 Q60 650 108 689 Q157 728 226 728 Q295 728 343 689 Q392 650 392 594 L392 338 L267 338 L267 606 Q267 620 255 629 Q244 639 226 639 Q208 639 197 629 Q185 620 185 606 L185 -90 Q185 -104 197 -113 Q210 -123 226 -123 Q242 -123 255 -113 Q267 -104 267 -90 L267 178 L392 178 L392 -78 Q392 -134 343 -173 Q295 -212 226 -212 Q157 -212 108 -173 Z " />
<glyph glyph-name="d" unicode="d" horiz-adv-x="432" d="M335 -162 Q311 -181 283.5 -189.5 Q256 -198 215 -198 L50 -198 L50 -67 L50 586 L50 716 L215 716 Q259 716 285 708.5 Q311 701 335 682 Q360 663 371 638 Q382 613 382 586 L382 411 L382 109 L382 -67 Q382 -94 371 -118 Q360 -142 335 -162 Z M174 -111 L215 -111 Q224 -111 231 -108.5 Q238 -106 245 -101 Q256 -93 256 -79 L256 411 L256 598 Q256 612 245 620 Q232 630 215 630 L174 630 L174 -111 Z " />
<glyph glyph-name="e" unicode="e" horiz-adv-x="364" d="M305 -198 L60 -198 L60 716 L305 716 L305 616 L183 616 L183 308 L264 308 L264 208 L183 208 L183 -99 L305 -99 L305 -198 Z " />
<glyph glyph-name="f" unicode="f" horiz-adv-x="326" d="M188 209 L188 -198 L65 -198 L65 716 L311 716 L311 617 L188 617 L188 309 L261 309 L261 209 L188 209 L188 209 Z " />
<glyph glyph-name="g" unicode="g" horiz-adv-x="462" d="M114 -174 Q65 -135 65 -79 L65 593 Q65 649 114 688 Q162 727 231 727 Q300 727 348 688 Q397 649 397 593 L397 354 L272 354 L272 605 Q272 619 260 628 Q249 638 231 638 Q213 638 202 628 Q190 619 190 605 L190 -91 Q190 -105 202 -114 Q215 -124 231 -124 Q247 -124 260 -114 Q272 -105 272 -91 L272 208 L254 208 L254 307 L397 308 L397 -79 Q397 -135 348 -174 Q300 -213 231 -213 Q162 -213 114 -174 Z " />
<glyph glyph-name="h" unicode="h" horiz-adv-x="429" d="M168 210 L168 -198 L45 -198 L45 716 L168 716 L168 309 L256 309 L256 716 L379 716 L379 -198 L256 -198 L256 210 L168 210 L168 210 Z " />
<glyph glyph-name="i" unicode="i" horiz-adv-x="273" d="M198 716 L198 -198 L75 -198 L75 716 L198 716 L198 716 Z " />
<glyph glyph-name="j" unicode="j" horiz-adv-x="347" d="M235 -179 Q223 -189 212 -195.5 Q201 -202 187.5 -206 Q174 -210 155.5 -211.5 Q137 -213 110 -211 Q91 -210 73.5 -207.5 Q56 -205 41 -200 L41 -110 Q52 -115 66 -118.5 Q80 -122 100 -121 Q107 -121 116 -119.5 Q125 -118 132.5 -112 Q140 -106 145 -94.5 Q150 -83 150 -63 L150 716 L272 716 L272 -77 Q272 -105 265.5 -132 Q259 -159 235 -179 Z " />
<glyph glyph-name="k" unicode="k" horiz-adv-x="468" d="M198 215 L198 -198 L75 -198 L75 716 L198 716 L198 304 L307 716 L429 716 L307 259 L429 -198 L307 -198 L198 215 L198 215 Z " />
<glyph glyph-name="l" unicode="l" horiz-adv-x="318" d="M188 716 L188 -98 L311 -98 L311 -198 L65 -198 L65 716 L188 716 L188 716 Z " />
<glyph glyph-name="n" unicode="n" horiz-adv-x="457" d="M392 716 L392 -198 L269 -198 L188 203 L188 -198 L65 -198 L65 716 L188 716 L269 320 L269 716 L392 716 L392 716 Z " />
<glyph glyph-name="o" unicode="o" horiz-adv-x="442" d="M397 -78 Q397 -134 348 -173 Q300 -212 231 -212 Q162 -212 113 -173 Q65 -134 65 -78 L65 594 Q65 650 113 689 Q162 728 231 728 Q300 728 348 689 Q397 650 397 594 L397 -78 Z M272 606 Q272 620 260 629 Q249 639 231 639 Q213 639 202 629 Q190 620 190 606 L190 -90 Q190 -104 202 -113 Q215 -123 231 -123 Q247 -123 260 -113 Q272 -104 272 -90 L272 606 Z " />
<glyph glyph-name="p" unicode="p" horiz-adv-x="432" d="M335 682 Q360 662 371 637.5 Q382 613 382 586 L382 302 Q382 263 361 241 Q340 219 308.5 208 Q277 197 241 194.5 Q205 192 174 192 L174 -197 L50 -197 L50 716 L215 716 Q256 716 283.5 708.5 Q311 701 335 682 Z M256 319 Q256 357 256 388 Q256 419 256.5 449.5 Q257 480 257 515 Q257 550 257 595 Q257 611 245 620 Q231 629 215 629 L174 629 L174 276 Q216 276 236 282 Q256 288 256 319 Z " />
<glyph glyph-name="q" unicode="q" horiz-adv-x="458" d="M259 -195 Q237 -197 209 -196.5 Q181 -196 164 -192 Q141 -187 122.5 -171 Q104 -155 91 -139 Q65 -107 65 -67 L65 596 Q65 651 112 690 Q162 728 229 728 Q297 728 344 690 Q393 651 393 596 L393 -67 Q393 -105 369 -136 L407 -187 L351 -228 L321 -251 L259 -195 Z M188 -79 Q188 -93 200 -102 Q213 -112 229 -112 Q245 -112 257 -102 Q269 -93 269 -79 L269 608 Q269 621 257 630 Q247 640 229 640 Q211 640 200 630 Q188 621 188 608 L188 -79 Z " />
<glyph glyph-name="r" unicode="r" horiz-adv-x="452" d="M267 -198 L267 134 Q267 160 250 170.5 Q233 181 185 180 L185 -198 L60 -198 L60 716 L226 716 Q266 716 294.5 708 Q323 700 347 680 Q372 661 382 637 Q392 613 392 586 L392 302 Q392 279 385 264.5 Q378 250 370 242 Q360 232 349 229 Q360 223 370 212 Q378 203 385 188 Q392 173 392 151 L392 -198 L267 -198 Z M267 319 Q266 347 266.5 394 Q267 441 267 486 L267 597 Q267 611 255 620 Q243 629 226 629 L185 629 L185 276 Q206 276 221.5 277 Q237 278 247 282 Q257 286 262 294.5 Q267 303 267 319 Z " />
<glyph glyph-name="s" unicode="s" horiz-adv-x="436" d="M385 -90 Q379 -142 331 -176 Q286 -211 219 -211 Q153 -211 106 -176 Q59 -141 53 -90 L53 142 L178 143 L178 -89 Q178 -103 190 -112 Q203 -122 219 -122 Q233 -122 248 -112 Q260 -103 260 -89 L260 173 Q260 206 223 206 L215 206 Q145 206 95 250 Q53 289 53 340 L53 594 Q53 649 101 688 Q150 728 219 728 Q289 728 336 688 Q385 648 385 594 L385 412 L260 412 L260 605 Q260 620 248 629 Q233 639 219 639 Q203 639 190 629 Q178 620 178 605 L178 350 Q178 336 188 327 Q198 317 215 317 L238 317 Q291 317 325 295 Q352 278 369 245 Q386 207 385 173 L385 -89 L385 -90 L385 -90 Z " />
<glyph glyph-name="t" unicode="t" horiz-adv-x="363" d="M243 -198 L120 -198 L120 617 L38 617 L38 716 L325 716 L325 617 L243 617 L243 -198 L243 -198 Z " />
<glyph glyph-name="u" unicode="u" horiz-adv-x="461" d="M271 716 L396 716 L396 -77 Q396 -133 347 -172 Q299 -211 230 -211 Q162 -211 113 -172 Q65 -133 65 -77 L65 716 L189 716 L189 -89 Q189 -103 202 -112 Q214 -122 230 -122 Q246 -122 259 -112 Q271 -103 271 -89 L271 716 Z " />
<glyph glyph-name="v" unicode="v" horiz-adv-x="407" d="M203 259 L265 716 L388 716 L265 -198 L142 -198 L19 716 L142 716 L203 259 L203 259 Z " />
<glyph glyph-name="w" unicode="w" horiz-adv-x="624" d="M250 -198 L127 -198 L31 716 L154 716 L196 259 L250 716 L374 716 L429 259 L469 716 L592 716 L497 -198 L374 -198 L312 253 L250 -198 L250 -198 Z " />
<glyph glyph-name="x" unicode="x" horiz-adv-x="403" d="M257 716 L379 716 L263 260 L379 -197 L257 -197 L202 49 L148 -197 L25 -197 L140 259 L25 716 L148 716 L202 470 L257 716 L257 716 Z " />
<glyph glyph-name="y" unicode="y" horiz-adv-x="449" d="M286 -197 L163 -197 L163 116 L162 116 L26 716 L149 716 L224 357 L300 716 L423 716 L287 116 L286 116 L286 -197 L286 -197 Z " />
<glyph glyph-name="z" unicode="z" horiz-adv-x="363" d="M315 -98 L315 -197 L29 -197 L29 -98 L193 617 L29 617 L29 716 L315 716 L315 617 L152 -98 L315 -98 L315 -98 Z " />
<glyph glyph-name="m" unicode="m" horiz-adv-x="583" d="M399 210 L338 -198 L241 -198 L182 202 L182 -198 L60 -198 L60 715 L182 715 L291 210 L398 715 L523 715 L523 -198 L399 -198 L399 210 L399 210 Z " />
<glyph glyph-name="B" unicode="B" horiz-adv-x="415" d="M372 -68 Q372 -121 323 -160 Q299 -180 272.5 -189 Q246 -198 206 -198 L40 -198 L40 716 L206 716 Q249 716 274.5 708 Q300 700 324 681 Q349 662 360.5 637 Q372 612 372 585 L372 367 Q372 344 365 329.5 Q358 315 350 306 Q340 295 329 289 Q340 285 350 276 Q358 268 365 253.5 Q372 239 372 216 L372 -68 Z M235 -102 Q247 -93 247 -80 L247 31 Q247 53 247 77 Q247 101 247 123.5 Q247 146 247 165.5 Q247 185 247 199 Q247 230 226.5 236 Q206 242 165 242 L165 -111 L206 -111 Q223 -111 235 -102 Z M247 597 Q247 610 235 619 Q224 629 206 629 L165 629 L165 338 Q213 337 230 347.5 Q247 358 247 384 L247 597 Z " />
<glyph glyph-name="C" unicode="C" horiz-adv-x="435" d="M108 -173 Q60 -134 60 -78 L60 594 Q60 650 108 689 Q157 728 226 728 Q295 728 343 689 Q392 650 392 594 L392 338 L267 338 L267 606 Q267 620 255 629 Q244 639 226 639 Q208 639 197 629 Q185 620 185 606 L185 -90 Q185 -104 197 -113 Q210 -123 226 -123 Q242 -123 255 -113 Q267 -104 267 -90 L267 178 L392 178 L392 -78 Q392 -134 343 -173 Q295 -212 226 -212 Q157 -212 108 -173 Z " />
<glyph glyph-name="A" unicode="A" horiz-adv-x="384" d="M145 -107 L131 -198 L8 -198 L131 716 L253 716 L376 -198 L253 -198 L239 -107 L145 -107 Z M192 367 L160 -8 L224 -8 L192 367 Z " />
<glyph glyph-name="quotedblleft" unicode="&#x201c;" horiz-adv-x="297" d="M20 616 L20 728 L142 728 L142 616 L97 516 L51 516 L58 616 L20 616 Z M158 616 L158 728 L279 728 L279 616 L235 516 L188 516 L195 616 L158 616 Z " />
<glyph glyph-name="quotedblright" unicode="&#x201d;" horiz-adv-x="296" d="M20 616 L20 728 L142 728 L142 616 L97 516 L51 516 L58 616 L20 616 Z M158 616 L158 728 L279 728 L279 616 L235 516 L188 516 L195 616 L158 616 Z " />
<glyph glyph-name="quoteleft" unicode="&#x2018;" horiz-adv-x="155" d="M93 516 L47 516 L54 616 L16 616 L16 728 L138 728 L138 616 L93 516 L93 516 Z " />
<glyph glyph-name="quoteright" unicode="&#x2019;" horiz-adv-x="152" d="M93 516 L47 516 L54 616 L16 616 L16 728 L138 728 L138 616 L93 516 L93 516 Z " />
</font>
</svg>
