<?xml version="1.0" encoding="UTF-8"?>
<svg xmlns="http://www.w3.org/2000/svg" xmlns:xlink="http://www.w3.org/1999/xlink" version="1.2" >
<font id="Lottus Script">
<font-face  font-family="Lottus Script" units-per-em="1000" ascent="750" descent="-250" font-style="normal" font-weight="400" font-stretch="normal" cap-height="900" x-height="500" underline-position="-75" underline-thickness="50" />
<missing-glyph  horiz-adv-x="143" d="" />
<glyph glyph-name="NULL" d="" />
<glyph glyph-name="CR" unicode="&#xd;" horiz-adv-x="143" d="" />
<glyph glyph-name="space" unicode="&#x20;" horiz-adv-x="143" d="" />
<glyph glyph-name="exclam" unicode="&#x21;" horiz-adv-x="162" d="M105 647 C105 663 87 672 75 663 C69 659 67 653 66 647 C65 636 66 625 66 615 C66 494 64 199 64 124 C64 117 63 109 67 103 C70 96 78 92 86 93 C104 95 103 114 103 128 C105 302 103 473 105 647 L105 647 Z M84 6 C62 5 64 -20 63 -36 C63 -45 60 -58 63 -67 C66 -75 73 -80 81 -80 C104 -79 101 -54 102 -39 C102 -29 105 -17 103 -8 C100 0 92 6 84 6 L84 6 Z " />
<glyph glyph-name="quotedbl" unicode="&#x22;" horiz-adv-x="223" d="M92 647 C84 647 76 642 73 635 C72 630 72 626 73 622 C73 617 73 611 73 606 C73 598 72 590 70 581 C69 577 68 572 67 568 C65 564 63 559 62 554 C61 537 83 527 95 539 C102 545 104 556 106 564 C109 575 111 585 112 596 C113 611 116 648 92 647 L92 647 Z M146 647 C138 647 130 642 127 635 C126 630 126 626 127 622 C127 617 127 611 127 606 C127 598 126 590 124 581 C124 577 122 572 121 568 C119 564 116 559 116 554 C115 537 137 527 149 539 C156 545 158 556 160 564 C163 575 165 585 166 596 C167 611 170 648 146 647 L146 647 Z " />
<glyph glyph-name="numbersign" unicode="&#x23;" horiz-adv-x="356" d="M326 359 C316 359 306 359 295 359 C297 362 320 421 324 427 C330 441 330 455 317 459 C301 464 294 457 289 444 C282 429 257 373 251 359 C239 359 224 359 212 359 C198 359 184 359 170 359 C170 365 200 428 201 437 C207 451 199 458 191 460 C183 462 174 461 168 454 C165 450 163 444 161 439 C153 421 135 375 130 364 C129 359 129 359 123 359 C107 359 90 359 74 359 C64 359 54 354 52 344 C50 334 58 322 68 321 C83 320 96 320 113 320 C109 312 95 273 91 269 C80 267 42 270 30 267 C15 263 13 243 24 233 C31 228 38 229 46 229 C56 229 67 229 77 229 C74 218 52 172 52 155 C52 145 61 137 71 137 C82 137 87 145 91 154 C94 162 114 223 119 230 C147 231 186 232 203 231 C200 220 176 166 179 154 C182 144 188 136 198 137 C210 139 214 149 217 159 C221 171 238 213 244 231 C265 232 290 232 299 233 C310 233 321 236 324 248 C326 259 318 270 307 271 C291 273 276 271 259 271 C262 280 275 312 278 320 C293 319 314 320 320 320 C331 320 345 324 345 338 C346 349 337 359 326 359 L326 359 Z M218 270 C190 270 162 270 134 269 C141 285 148 307 154 320 C161 320 232 320 238 320 C231 304 225 287 218 270 L218 270 Z " />
<glyph glyph-name="dollar" unicode="&#x24;" horiz-adv-x="319" d="M173 338 C173 356 175 442 174 459 C187 456 189 434 190 426 C190 414 187 399 200 392 C210 386 222 391 227 400 C230 405 228 411 229 417 C232 449 215 494 176 500 C176 511 177 531 177 539 C177 554 170 562 157 562 C146 562 138 554 137 544 C136 529 137 514 137 498 C124 497 93 491 76 459 C49 409 69 355 112 329 C117 326 123 322 129 319 C130 318 132 317 133 316 C134 314 134 312 134 309 C134 305 134 300 134 296 C134 242 132 188 133 134 C106 139 89 157 83 184 C81 197 82 212 85 224 C89 234 97 240 93 250 C89 262 75 267 65 261 C53 255 49 240 46 228 C40 201 43 170 56 145 C72 114 97 97 133 90 C133 84 133 78 133 71 C133 59 138 46 153 46 C165 47 172 57 172 68 C172 77 172 83 172 94 C200 100 242 129 250 175 C271 293 210 309 173 338 L173 338 Z M134 361 C111 375 102 394 105 420 C108 442 120 453 136 459 L134 361 Z M210 177 C203 155 187 141 172 135 C172 187 172 240 173 292 C214 264 222 223 210 177 L210 177 Z " />
<glyph glyph-name="percent" unicode="&#x25;" horiz-adv-x="418" d="M397 533 C377 544 365 519 355 507 C342 489 328 472 315 454 C288 420 262 385 235 350 C183 282 131 213 78 144 C65 127 52 110 39 93 C30 82 14 67 23 51 C26 45 34 41 41 42 C51 43 56 51 61 58 C74 75 87 92 100 109 C153 178 206 248 259 317 C289 356 318 394 348 433 C362 452 376 470 390 489 C395 495 405 504 406 513 C407 520 403 530 397 533 L397 533 Z M313 200 C294 194 302 175 300 160 C298 144 291 129 281 117 C271 107 239 84 225 105 C213 123 246 147 262 151 C271 154 279 154 284 164 C287 171 287 179 282 185 C270 199 247 189 234 182 C218 173 203 160 194 143 C178 111 186 69 223 58 C258 48 294 70 315 97 C328 115 337 136 339 158 C339 168 340 182 335 191 C331 198 321 202 313 200 L313 200 Z M156 367 C199 384 226 421 232 463 C233 474 235 493 226 502 C218 511 204 511 197 502 C189 492 194 480 193 469 C192 447 178 425 160 413 C150 406 136 399 124 404 C119 407 116 413 117 419 C117 434 130 445 140 452 C150 458 165 458 172 465 C181 473 182 486 174 494 C166 502 154 500 144 497 C121 490 99 473 87 451 C76 430 74 401 91 382 C107 364 134 360 156 367 L156 367 Z " />
<glyph glyph-name="ampersand" unicode="&#x26;" horiz-adv-x="389" d="M307 124 C329 167 342 214 348 262 C349 272 348 281 338 287 C330 291 320 289 315 283 C309 276 309 268 308 260 C307 249 305 238 302 227 C296 202 289 177 278 154 C206 231 147 268 118 324 C107 345 103 368 103 390 C103 438 119 498 172 503 C190 503 208 498 219 484 C241 454 235 411 224 378 C225 381 224 377 223 376 C220 370 218 365 219 359 C220 351 226 345 234 344 C255 340 262 367 267 382 C277 420 277 468 254 502 C233 532 195 546 159 540 C122 534 94 506 79 471 C52 408 62 330 100 277 C80 260 70 245 66 240 C23 180 8 82 63 25 C93 -5 135 -14 176 -2 C213 9 244 36 269 66 C275 74 281 81 286 89 C300 74 310 60 320 45 C325 35 331 26 335 16 C334 17 334 18 334 18 C339 6 353 -1 364 8 C378 19 370 34 363 46 C348 75 329 101 307 124 L307 124 Z M257 116 C242 92 223 69 199 53 C156 22 99 26 75 77 C63 103 65 134 72 162 C80 189 93 216 114 236 C117 238 119 242 124 245 C166 207 204 172 257 116 L257 116 Z " />
<glyph glyph-name="quotesingle" unicode="&#x27;" horiz-adv-x="89" d="M44 647 C24 641 31 620 32 605 C32 596 31 586 30 577 C29 572 27 567 26 562 C24 557 21 551 21 545 C20 527 45 519 56 533 C62 541 65 555 67 565 C69 576 70 587 70 599 C70 610 71 626 67 637 C63 645 52 650 44 647 L44 647 Z " />
<glyph glyph-name="parenleft" unicode="&#x28;" horiz-adv-x="245" d="M187 735 C140 694 106 638 82 581 C55 517 38 450 30 382 C13 249 24 102 87 -19 C96 -34 105 -50 115 -64 C120 -71 126 -78 131 -85 C136 -92 142 -101 149 -106 C162 -114 179 -105 180 -90 C180 -82 175 -77 170 -71 C164 -65 159 -58 154 -52 C145 -42 135 -24 127 -10 C119 4 112 17 106 32 C92 68 74 131 68 180 C61 234 60 290 64 344 C73 448 101 555 158 642 C174 665 191 686 212 705 C220 712 224 722 217 732 C211 743 196 743 187 735 L187 735 Z " />
<glyph glyph-name="parenright" unicode="&#x29;" horiz-adv-x="216" d="M164 566 C149 613 128 659 98 699 C90 709 82 719 74 728 C67 736 56 739 47 733 C24 717 54 692 64 679 C73 669 84 651 92 637 C99 623 106 610 112 595 C127 560 142 502 149 455 C157 404 158 352 155 301 C150 203 127 101 78 15 C67 -6 54 -26 40 -44 C32 -53 24 -62 15 -70 C8 -77 -2 -83 -2 -94 C-2 -103 4 -111 13 -113 C23 -116 31 -109 38 -102 C55 -86 70 -69 84 -50 C140 29 171 126 186 221 C201 322 200 428 175 528 C172 541 168 553 164 566 L164 566 Z M150 242 C150 242 150 241 149 241 C150 242 150 245 150 242 L150 242 Z " />
<glyph glyph-name="asterisk" unicode="&#x2a;" horiz-adv-x="247" d="M190 465 C195 474 193 483 185 490 C176 498 165 505 154 512 C166 520 178 528 190 535 C198 541 204 550 201 560 C197 570 186 576 176 572 C170 570 165 566 159 562 C153 559 148 555 142 551 C142 560 144 572 140 581 C136 588 129 593 121 592 C99 589 103 564 103 548 C90 557 61 585 48 560 C43 552 46 541 53 535 C64 526 76 520 87 512 C76 504 65 496 55 487 C47 481 42 470 48 461 C52 454 63 449 71 452 C76 454 81 459 86 462 C91 466 97 471 103 475 C103 467 101 456 105 448 C108 441 115 436 123 437 C129 437 135 441 139 446 C144 454 142 464 142 473 C147 470 151 467 155 464 C160 461 164 456 169 455 C177 454 187 457 190 465 L190 465 Z " />
<glyph glyph-name="plus" unicode="&#x2b;" horiz-adv-x="210" d="M162 328 C149 328 137 328 124 328 C124 339 124 350 124 361 C123 370 124 380 118 387 C105 399 85 390 84 373 C84 362 85 351 85 340 C85 337 86 333 85 330 C84 328 86 328 84 328 C83 327 81 328 80 328 C74 328 68 327 63 327 C54 327 43 329 35 324 C28 319 25 311 27 304 C29 295 36 289 45 289 C58 287 71 289 85 289 C85 275 84 262 84 249 C84 239 86 229 96 225 C104 221 114 224 119 231 C126 239 123 252 123 262 C123 268 123 274 123 281 C123 282 123 284 123 286 C122 288 123 289 125 289 C127 290 132 289 135 289 C141 289 148 289 154 289 C159 289 165 288 170 290 C189 299 183 328 162 328 L162 328 Z " />
<glyph glyph-name="comma" unicode="&#x2c;" horiz-adv-x="170" d="M99 267 C91 269 82 266 77 260 C74 255 74 251 73 246 C72 242 70 238 68 234 C61 221 39 207 52 191 C69 169 91 196 100 210 C108 224 125 261 99 267 L99 267 Z " />
<glyph glyph-name="hyphen" unicode="&#x2d;" horiz-adv-x="225" d="M163 330 C138 330 114 330 89 330 C79 330 66 333 57 328 C49 324 44 316 46 307 C48 299 54 293 62 291 C73 289 86 291 98 291 C110 291 122 291 134 291 C140 291 146 291 152 291 C157 291 164 291 169 292 C189 299 185 330 163 330 L163 330 Z " />
<glyph glyph-name="period" unicode="&#x2e;" horiz-adv-x="93" d="M49 265 C23 264 20 215 48 215 C74 216 77 266 49 265 L49 265 Z " />
<glyph glyph-name="slash" unicode="&#x2f;" horiz-adv-x="386" d="M371 740 C358 743 350 735 346 724 C340 709 334 693 328 678 C222 410 121 161 7 -83 C2 -94 -8 -108 -3 -120 C0 -130 12 -134 21 -131 C33 -127 37 -110 42 -100 C147 141 252 379 348 624 C360 654 373 684 384 715 C387 725 382 738 371 740 L371 740 Z " />
<glyph glyph-name="zero" unicode="0" horiz-adv-x="327" d="M267 494 C244 530 207 553 164 552 C127 551 94 529 71 501 C18 434 11 337 19 256 C26 181 50 82 135 64 C173 56 210 69 237 96 C265 125 281 165 291 204 C303 249 308 296 306 343 C302 397 295 450 267 494 L267 494 Z M266 277 C261 232 249 190 230 152 C213 125 198 106 167 101 C119 95 87 137 75 176 C54 234 50 302 59 361 C64 401 76 443 101 476 C120 501 140 513 169 513 C265 513 271 337 266 277 L266 277 Z " />
<glyph glyph-name="one" unicode="1" horiz-adv-x="178" d="M130 518 C99 485 66 454 32 425 C25 419 14 413 11 404 C9 397 11 389 16 383 C33 367 54 392 67 403 C86 420 105 438 124 456 C121 403 111 104 112 70 C112 59 120 48 133 50 C146 51 150 62 151 73 C151 171 157 270 160 368 C161 404 163 440 163 477 C163 486 164 495 163 505 C163 510 161 515 158 518 C150 525 138 526 130 518 L130 518 Z " />
<glyph glyph-name="two" unicode="2" horiz-adv-x="329" d="M310 96 C236 102 160 104 86 96 C137 143 182 195 221 252 C257 305 295 372 291 438 C290 463 282 484 262 500 C238 520 202 525 173 519 C142 513 115 495 92 474 C83 465 67 452 67 438 C66 425 80 416 92 420 C100 422 105 430 110 436 C116 443 122 449 129 455 C155 475 184 487 213 481 C256 466 260 426 249 393 C220 309 162 231 105 170 C73 135 37 110 7 80 C0 72 2 59 10 52 C21 44 37 51 49 53 C63 55 77 57 91 58 C159 65 226 64 292 58 C306 57 323 53 329 70 C333 83 322 94 310 96 L310 96 Z " />
<glyph glyph-name="three" unicode="3" horiz-adv-x="317" d="M285 252 C270 279 243 298 213 308 C255 333 295 376 299 427 C300 451 292 477 274 494 C256 511 230 518 205 519 C138 522 86 488 48 445 C42 437 38 428 44 418 C50 409 63 407 72 413 C76 416 78 421 82 425 C104 452 135 470 168 477 C200 484 247 482 257 449 C268 420 247 388 228 369 C222 363 214 356 206 350 C190 339 173 330 154 324 C146 321 136 320 130 314 C125 308 124 299 127 292 C134 278 160 279 166 280 C210 280 257 242 260 208 C260 144 217 86 159 75 C114 67 76 84 53 120 C50 127 48 134 48 141 C48 149 46 156 38 161 C20 171 8 152 9 137 C9 116 20 95 33 79 C45 64 61 53 78 46 C112 31 152 30 187 42 C223 55 258 82 277 114 C298 149 311 207 285 252 L285 252 Z " />
<glyph glyph-name="four" unicode="4" horiz-adv-x="297" d="M259 266 C260 341 261 416 261 491 C261 502 263 512 254 520 C248 526 238 526 231 521 C222 514 222 505 222 495 C222 431 223 376 220 312 C219 288 219 268 219 262 C174 262 134 255 101 254 C84 254 48 252 47 259 C45 281 122 399 138 424 C155 450 173 475 189 502 C201 523 173 543 157 524 C138 499 122 472 106 446 C72 392 39 343 16 291 C7 270 -3 236 24 224 C46 214 90 214 116 216 C150 218 185 221 219 224 C217 176 217 127 217 79 C217 67 216 52 231 48 C242 45 253 53 255 63 C256 70 256 79 256 86 L256 227 C267 228 273 226 280 238 C288 254 277 267 259 266 L259 266 Z " />
<glyph glyph-name="five" unicode="5" horiz-adv-x="326" d="M295 299 C247 372 150 371 75 346 C88 378 100 411 112 443 C116 451 121 468 128 479 C167 477 205 477 243 479 C256 479 274 475 282 488 C288 498 283 512 272 516 C266 519 258 518 251 518 C242 518 233 517 224 517 C190 516 155 515 121 517 C114 518 109 519 103 514 C97 510 95 503 92 496 C70 438 48 388 28 332 C25 325 20 317 21 309 C22 303 26 298 31 295 C38 290 46 293 53 295 C83 309 115 320 148 322 C197 325 237 316 261 280 C286 242 282 189 259 146 C235 104 190 76 143 81 C95 84 54 115 48 160 C48 175 49 179 50 181 C62 197 46 219 27 211 C9 204 7 171 9 156 C14 113 45 74 84 56 C123 37 171 37 211 54 C252 70 285 105 302 146 C322 194 324 254 295 299 L295 299 Z " />
<glyph glyph-name="six" unicode="6" horiz-adv-x="342" d="M310 280 C266 352 160 361 89 329 C100 347 112 366 125 383 C149 417 180 445 211 469 C219 475 228 480 236 487 C243 492 246 501 244 509 C241 517 232 523 224 522 C214 522 205 512 197 507 C126 455 67 384 33 302 C7 241 1 167 32 106 C48 77 73 55 104 43 C142 28 187 30 224 46 C315 84 354 200 310 280 L310 280 Z M269 132 C243 85 189 65 142 73 C77 80 50 149 50 202 C50 233 58 260 68 286 C74 281 82 280 88 283 C94 287 103 293 107 294 C113 297 120 299 126 301 C171 309 228 313 255 284 C277 261 290 237 290 211 C290 184 281 153 269 132 L269 132 Z " />
<glyph glyph-name="seven" unicode="7" horiz-adv-x="278" d="M287 389 C307 427 322 481 278 499 C239 515 181 513 139 511 C115 510 90 507 65 505 C47 502 19 506 12 487 C10 479 14 470 20 465 C29 459 41 463 50 464 C105 471 156 475 206 473 C226 472 253 472 269 462 C274 439 256 413 246 395 C229 365 208 340 191 312 C188 309 184 300 180 299 C175 298 168 299 163 299 C152 298 140 298 130 298 C121 297 113 293 110 286 C106 277 110 266 118 261 C127 256 142 259 153 259 C110 200 65 139 29 76 C21 63 3 39 21 27 C35 17 48 27 53 40 C56 45 59 50 62 56 C101 119 142 179 186 239 C188 242 197 255 202 263 C223 264 246 260 254 265 C262 271 264 282 259 290 C252 301 240 300 229 300 C250 329 271 358 287 389 L287 389 Z " />
<glyph glyph-name="eight" unicode="8" horiz-adv-x="354" d="M264 294 C251 304 239 314 226 324 C255 345 288 371 295 408 C302 443 284 478 254 496 C195 531 103 501 91 429 C83 383 127 351 158 326 C106 295 52 262 26 205 C15 179 11 149 17 120 C24 95 38 72 58 54 C98 18 158 7 210 17 C268 28 320 65 334 123 C355 207 311 253 264 294 L264 294 Z M130 415 C130 454 172 474 205 471 C227 469 251 455 256 434 C261 417 254 402 242 389 C235 381 204 356 191 350 C173 361 132 394 130 415 L130 415 Z M266 85 C247 68 223 58 198 54 C150 46 92 61 66 105 C13 190 128 270 190 300 C214 288 264 241 270 234 C312 187 308 123 266 85 L266 85 Z " />
<glyph glyph-name="nine" unicode="9" horiz-adv-x="328" d="M301 444 C279 491 230 512 180 514 C128 515 77 495 48 451 C20 408 11 349 37 304 C64 258 120 240 171 247 C187 249 203 253 217 260 C229 265 246 272 250 286 C253 298 241 311 228 309 C221 308 215 302 209 299 C182 286 159 281 133 285 C87 294 55 321 60 378 C62 401 77 436 103 454 C132 474 165 477 193 474 C227 470 254 455 267 425 C279 397 279 357 271 329 C262 296 244 267 224 240 C179 182 121 134 64 90 C49 78 34 68 19 56 C8 47 6 31 20 23 C36 14 50 31 61 39 C77 51 92 62 107 74 C162 118 218 166 260 224 C283 255 302 289 311 327 C319 366 317 408 301 444 L301 444 Z " />
<glyph glyph-name="colon" unicode="&#x3a;" horiz-adv-x="136" d="M51 342 C59 335 70 332 80 339 C88 347 88 359 81 368 C74 376 63 378 54 372 C44 366 43 351 51 342 L51 342 Z M84 227 C81 238 68 244 58 239 C52 237 48 232 46 226 C44 219 48 213 50 207 C54 197 64 190 75 193 C81 195 86 200 87 206 C90 214 87 219 84 227 L84 227 Z " />
<glyph glyph-name="semicolon" unicode="&#x3b;" horiz-adv-x="130" d="M59 330 C72 327 84 336 84 349 C84 359 76 372 66 375 C54 379 42 370 41 358 C41 347 49 333 59 330 L59 330 Z M65 218 C56 215 49 206 50 197 C51 189 59 179 55 170 C54 168 52 167 50 165 C47 162 46 157 46 153 C46 144 53 136 61 134 C80 129 93 156 94 171 C96 187 89 226 65 218 L65 218 Z M55 169 C53 168 55 170 55 169 L55 169 Z M55 170 C55 170 55 170 56 170 C55 170 55 170 55 170 L55 170 Z M56 173 C56 173 56 174 56 174 C56 174 56 173 56 173 L56 173 Z " />
<glyph glyph-name="less" unicode="&#x3c;" horiz-adv-x="259" d="M217 243 C176 261 134 277 91 292 C114 303 136 313 158 323 C169 328 180 333 190 337 C199 341 210 344 218 349 C226 354 230 364 226 372 C223 380 214 386 206 385 C195 383 183 376 173 372 C161 367 150 362 138 357 C116 347 94 336 72 326 C61 320 50 315 39 310 C30 306 21 302 20 291 C19 283 23 275 31 271 C42 266 55 263 66 259 C90 252 113 243 136 234 C150 229 163 224 176 219 C182 216 188 214 194 211 C200 209 206 205 211 205 C221 204 230 212 231 221 C233 232 226 240 217 243 L217 243 Z " />
<glyph glyph-name="equal" unicode="&#x3d;" horiz-adv-x="174" d="M33 288 C59 288 86 288 112 288 C128 289 166 284 163 311 C162 319 156 327 147 328 C142 329 136 328 130 328 C123 328 117 328 111 327 C97 327 84 327 71 327 C58 327 45 328 32 327 C8 325 9 288 33 288 L33 288 Z M146 270 C118 270 91 270 63 270 C50 270 35 271 23 270 C13 268 5 260 5 250 C5 241 12 233 20 231 C26 230 32 231 38 231 C45 231 53 231 60 231 C88 231 116 231 143 231 C154 231 166 238 165 250 C165 261 156 270 146 270 L146 270 Z " />
<glyph glyph-name="greater" unicode="&#x3e;" horiz-adv-x="234" d="M210 312 C159 334 109 357 57 375 C47 379 33 387 23 383 C13 380 8 370 10 360 C12 349 22 346 31 343 C44 338 57 334 70 329 C98 318 125 306 153 295 C123 281 94 267 64 254 C52 249 39 245 27 239 C16 234 9 222 16 211 C19 207 23 203 28 201 C35 200 42 203 48 206 C63 212 78 218 93 224 C122 237 151 251 179 264 C187 268 195 272 204 276 C209 279 214 281 217 287 C221 295 219 308 210 312 L210 312 Z " />
<glyph glyph-name="question" unicode="&#x3f;" horiz-adv-x="272" d="M199 661 C167 672 131 664 103 646 C76 629 55 602 41 572 C33 555 28 538 25 519 C23 506 20 485 29 473 C37 462 55 464 61 476 C65 483 62 492 62 499 C62 543 89 583 118 609 C122 614 140 622 151 625 C218 635 224 553 215 509 C208 467 189 426 170 387 C130 308 84 231 67 143 C62 118 56 95 61 80 C68 64 91 65 97 81 C104 98 102 120 105 137 C110 159 116 180 123 201 C152 279 199 348 230 425 C248 469 260 516 256 563 C253 602 238 646 199 661 L199 661 Z M74 -9 C67 -10 61 -13 57 -19 C53 -27 55 -36 55 -44 C55 -52 53 -63 57 -71 C61 -77 67 -81 74 -81 C81 -81 87 -77 91 -72 C95 -65 94 -56 94 -48 C94 -34 96 -8 74 -9 L74 -9 Z " />
<glyph glyph-name="at" unicode="&#x40;" horiz-adv-x="452" d="M279 506 C220 520 157 507 109 470 C65 435 35 384 24 329 C13 272 21 209 55 160 C88 113 141 83 200 84 C230 86 253 93 273 103 C280 106 289 110 294 115 C304 125 300 142 287 147 C272 152 260 138 247 134 C223 123 179 118 148 132 C130 140 115 150 102 164 C70 196 58 244 58 285 C62 341 82 398 125 432 C149 456 198 473 233 473 C254 473 275 469 294 461 C333 445 363 412 375 372 C386 322 380 261 353 224 C348 217 340 209 331 207 C327 206 325 207 322 210 C308 229 303 255 299 277 C296 297 295 317 296 337 C297 348 299 357 300 367 C302 374 300 382 294 387 C289 392 281 393 274 391 C266 387 263 380 261 372 C248 393 204 388 185 381 C158 371 139 348 129 321 C121 296 120 268 129 243 C139 218 162 199 190 201 C224 204 247 236 262 263 C268 231 279 181 315 169 C354 157 386 198 400 229 C430 297 428 387 379 445 C353 476 318 497 279 506 L279 506 Z M248 328 C240 303 228 281 213 260 C215 260 193 233 180 241 C157 254 157 292 167 312 C180 336 197 350 224 348 C234 346 244 341 254 347 C252 341 250 334 248 328 L248 328 Z " />
<glyph glyph-name="A" unicode="A" horiz-adv-x="653" d="M612 221 C623 221 632 230 632 240 C631 251 623 259 612 260 C603 260 594 260 586 260 C585 265 584 271 583 277 C578 318 573 360 567 400 C561 438 555 476 548 514 C542 547 535 580 527 613 C521 639 513 666 504 692 C497 712 490 732 477 749 C467 764 454 777 435 778 C415 779 397 766 383 752 C365 735 351 713 338 691 C321 660 307 628 294 596 C278 557 264 518 251 479 C236 434 222 389 209 344 C195 295 182 247 170 198 C167 187 165 176 162 166 C112 151 62 138 12 126 C2 124 -5 112 -2 102 C1 92 11 86 22 88 C66 99 109 110 152 123 C146 97 140 72 134 47 C123 -2 113 -52 103 -101 C95 -148 86 -194 79 -240 C75 -260 72 -281 69 -301 C68 -311 72 -322 83 -325 C92 -327 105 -322 107 -311 C113 -268 120 -225 128 -182 C137 -134 146 -87 156 -39 C166 10 177 60 189 110 C191 118 193 127 195 135 C225 144 255 154 286 163 C352 184 419 201 487 214 C508 218 546 219 551 220 C556 179 561 136 564 95 C568 60 571 25 574 -9 C576 -38 578 -67 579 -96 C581 -117 582 -138 582 -159 C583 -165 583 -172 583 -179 C583 -189 592 -198 602 -198 C613 -198 622 -190 622 -179 C622 -162 621 -146 620 -129 C619 -103 617 -78 616 -52 C613 -19 611 13 608 46 C605 83 601 121 597 158 C595 179 592 200 590 221 C597 221 605 221 612 221 L612 221 Z M390 234 C328 219 267 198 205 179 C212 205 219 232 226 258 C238 305 252 352 266 398 C279 441 293 483 308 525 C315 543 322 562 329 580 C331 583 346 619 349 626 C361 652 374 679 391 702 C403 718 417 739 432 739 C452 737 463 695 469 676 C473 664 477 651 480 638 C489 608 495 578 502 548 C509 512 515 476 521 441 C529 375 541 322 547 258 C494 255 441 247 390 234 L390 234 Z " />
<glyph glyph-name="B" unicode="B" horiz-adv-x="849" d="M849 300 C805 231 729 156 662 125 C659 178 648 210 627 236 C581 293 499 300 434 295 C417 293 400 291 384 288 C422 323 455 365 482 409 C512 459 533 513 540 570 C551 660 504 744 428 782 C393 800 355 809 316 809 C276 809 236 801 198 786 C156 769 117 745 83 715 C45 682 14 642 -10 599 C-38 549 -57 494 -67 438 C-70 422 -73 406 -74 390 C-76 379 -65 370 -55 370 C-43 371 -36 378 -35 390 C-32 418 -26 448 -19 473 C-4 527 15 573 44 612 C83 666 127 708 185 738 C239 761 288 774 342 768 C411 760 478 715 495 650 C509 597 497 544 482 499 C464 447 423 388 398 360 C371 327 339 299 307 277 C299 272 291 267 284 263 C257 254 230 244 204 233 C194 229 186 220 190 209 C193 198 203 193 214 195 C244 201 273 212 299 227 C385 251 513 272 574 232 C615 205 622 154 622 106 C591 94 562 79 531 68 C508 58 485 49 462 39 C417 22 372 4 327 -16 C289 -34 251 -53 215 -76 C182 -98 152 -124 127 -156 C113 -174 101 -196 100 -220 C99 -238 107 -256 122 -267 C139 -281 160 -287 181 -289 C206 -292 231 -290 256 -287 C320 -278 380 -255 432 -224 C463 -206 493 -185 520 -161 C580 -107 622 -41 646 30 C651 46 655 63 658 80 C759 127 803 172 860 244 C867 252 897 295 849 300 L849 300 Z M365 -215 C305 -240 256 -252 195 -252 C175 -252 151 -249 141 -237 C130 -224 144 -201 154 -186 C176 -153 214 -122 248 -101 C306 -66 365 -41 421 -18 C466 0 512 17 556 36 C576 44 595 52 614 60 C577 -72 479 -162 365 -215 L365 -215 Z M153 452 C160 527 164 567 169 615 C170 625 161 630 156 631 C147 634 134 629 132 618 C119 523 111 427 108 331 C104 238 105 146 105 53 C105 0 106 -52 106 -105 C106 -115 115 -125 125 -125 C136 -124 145 -116 145 -105 C145 -13 143 80 144 173 C144 266 146 359 153 452 L153 452 Z " />
<glyph glyph-name="C" unicode="C" horiz-adv-x="688" d="M688 300 C664 222 603 89 578 40 C539 -37 493 -113 433 -176 C381 -232 308 -285 229 -275 C202 -273 176 -262 155 -246 C107 -208 81 -147 64 -90 C48 -33 42 20 36 73 C33 133 32 191 38 250 C45 325 58 400 77 473 C96 547 122 620 162 681 C187 720 216 753 247 765 C289 782 338 759 365 730 C437 653 458 531 450 434 C447 424 444 404 460 399 C468 396 477 399 482 405 C488 413 488 427 489 437 C499 528 475 628 432 704 C412 739 385 772 349 792 C311 812 266 816 227 798 C189 781 161 749 137 715 C86 640 55 549 34 461 C10 367 -4 269 -6 172 C-7 79 2 -17 28 -106 C51 -183 93 -265 170 -299 C255 -338 350 -300 414 -246 C483 -190 535 -116 579 -40 C625 39 673 149 704 234 C715 264 716 299 688 300 L688 300 Z " />
<glyph glyph-name="D" unicode="D" horiz-adv-x="611" d="M401 762 C309 814 197 803 104 758 C14 714 -61 641 -112 555 C-138 510 -158 461 -172 411 C-176 396 -192 359 -167 353 C-141 347 -140 382 -135 399 C-108 496 -55 587 20 655 C127 750 301 805 419 702 C471 657 501 593 517 527 C534 456 537 380 531 307 C511 64 352 -195 121 -263 C101 -270 78 -275 56 -274 C50 -273 37 -272 33 -265 C26 -243 68 -216 44 -198 C38 -193 29 -192 22 -196 C14 -200 10 -211 5 -218 C-4 -236 -10 -257 -4 -276 C3 -294 17 -304 34 -309 C79 -322 127 -304 162 -290 C203 -274 241 -252 277 -227 C349 -176 410 -111 458 -38 C507 37 543 136 560 224 C578 315 578 397 564 489 C544 598 501 706 401 762 L401 762 Z M64 595 C65 606 63 618 50 622 C43 623 33 620 29 614 C26 609 26 603 25 598 C22 577 20 557 17 537 C14 509 11 482 8 454 C-2 344 -6 233 -2 122 C0 67 4 12 10 -43 C14 -70 18 -98 22 -125 C24 -135 24 -149 33 -156 C40 -162 50 -162 57 -156 C65 -150 65 -140 63 -131 C60 -117 58 -104 56 -91 C52 -66 49 -42 46 -18 C41 37 37 92 36 147 C31 304 42 450 64 595 L64 595 Z " />
<glyph glyph-name="E" unicode="E" horiz-adv-x="576" d="M548 -186 C548 -176 540 -167 529 -167 C450 -168 373 -187 296 -204 C247 -215 192 -230 148 -216 C117 -206 112 -181 102 -139 C98 -113 96 -88 93 -62 C90 -17 89 29 89 74 C89 122 89 169 91 217 C175 226 259 234 342 243 C374 247 406 250 437 254 C447 255 457 262 457 274 C456 283 448 294 437 293 C330 280 223 270 116 259 C108 258 100 257 92 256 C95 348 107 630 108 669 C108 674 108 679 108 684 C141 688 254 704 271 705 C300 708 329 711 359 713 C389 715 420 717 451 718 C461 719 471 727 470 738 C470 748 461 758 451 757 C394 755 337 751 280 745 C223 739 166 732 109 723 C109 740 107 754 107 767 C105 777 99 787 87 787 C78 786 66 778 68 767 C70 750 70 733 70 716 C50 713 29 709 9 705 C-1 702 -8 690 -5 680 C-1 670 8 665 19 667 C36 671 53 674 69 677 C65 550 54 316 53 251 C44 250 36 249 28 248 C18 247 8 240 8 229 C9 219 17 208 28 209 C36 210 44 211 52 212 C51 176 50 141 50 105 C50 57 50 9 53 -38 C56 -99 60 -186 93 -226 C108 -245 133 -254 156 -257 C188 -262 220 -258 252 -253 C288 -247 324 -238 359 -230 C416 -218 472 -206 529 -206 C539 -206 549 -197 548 -186 L548 -186 Z " />
<glyph glyph-name="F" unicode="F" horiz-adv-x="498" d="M480 750 C433 791 369 815 308 789 C251 765 213 709 187 655 C128 530 110 392 99 260 C76 260 54 257 44 257 C30 256 9 257 8 238 C7 232 10 225 15 221 C22 216 29 217 37 217 C57 218 74 219 94 220 C89 49 91 -106 102 -259 C103 -270 102 -283 112 -291 C119 -297 130 -295 137 -289 C146 -280 142 -265 141 -254 C139 -225 137 -196 136 -167 C131 -53 136 125 137 222 C210 224 282 230 352 237 C379 239 411 244 436 247 C457 250 451 287 430 285 C409 283 378 279 355 276 C280 269 211 263 139 261 C151 402 170 543 235 663 C268 721 317 777 393 757 C408 753 422 745 435 736 C446 728 458 712 473 717 C486 722 491 740 480 750 L480 750 Z " />
<glyph glyph-name="G" unicode="G" horiz-adv-x="717" d="M676 178 C667 210 647 246 613 256 C574 267 537 239 515 210 C486 175 466 133 453 90 C450 78 447 65 445 53 C445 43 444 31 453 25 C460 20 469 20 477 25 C484 31 484 38 484 46 C484 58 488 71 492 82 C496 93 500 105 505 116 C522 153 540 194 575 214 C592 222 608 220 620 206 C632 192 637 174 641 157 C645 138 647 119 647 99 C647 19 619 -57 574 -123 C549 -160 518 -193 483 -221 C425 -263 363 -288 295 -285 C164 -274 96 -155 69 -46 C62 -20 57 7 53 35 C45 88 42 143 44 197 C47 338 86 475 151 591 C189 655 239 732 314 750 C337 756 360 755 381 744 C419 724 445 685 461 649 C497 574 500 519 506 442 C508 421 544 425 544 444 C545 512 525 602 501 657 C483 697 458 736 423 763 C388 790 346 799 304 788 C260 777 223 748 192 715 C160 681 134 642 112 601 C65 513 33 416 16 318 C-2 216 1 111 18 9 C33 -84 64 -182 131 -250 C162 -281 202 -305 245 -316 C291 -328 339 -326 384 -314 C471 -290 544 -230 597 -158 C653 -81 688 11 686 107 C685 131 682 155 676 178 L676 178 Z " />
<glyph glyph-name="H" unicode="H" horiz-adv-x="581" d="M534 273 C533 283 525 292 514 292 C507 292 500 292 493 292 C490 440 494 636 497 757 C497 766 497 775 497 784 C498 794 488 804 478 803 C467 803 459 795 458 784 C454 679 452 370 454 292 C347 289 165 278 70 266 C74 400 78 613 78 708 C79 715 79 722 79 729 C79 739 70 748 59 748 C49 747 40 739 40 729 C39 634 32 316 31 261 C13 259 -5 257 -23 254 C-33 253 -40 239 -37 230 C-33 219 -24 215 -13 217 C3 217 16 220 29 222 C27 100 17 -111 11 -194 C11 -200 11 -206 10 -212 C9 -222 20 -232 30 -231 C41 -231 48 -223 49 -212 C58 -121 68 180 69 227 C174 243 385 252 454 253 C455 107 456 -157 456 -242 C455 -250 455 -258 455 -267 C455 -277 464 -287 475 -286 C485 -286 494 -277 494 -267 C496 -164 493 203 493 253 C500 253 507 253 514 253 C524 253 534 262 534 273 L534 273 Z " />
<glyph glyph-name="I" unicode="I" horiz-adv-x="405" d="M386 -239 C386 -228 377 -219 366 -219 C313 -223 263 -224 213 -224 C213 -171 206 684 204 710 C204 712 204 715 204 718 C204 724 200 731 195 734 C217 737 240 739 263 740 C294 743 324 744 355 745 C365 745 375 754 375 764 C374 775 366 784 355 784 C306 782 257 780 209 775 C174 772 139 767 105 763 C80 761 56 758 31 757 C21 756 11 748 12 737 C12 727 21 717 31 718 C78 721 125 727 171 732 C167 728 165 724 165 718 C165 643 178 -182 174 -225 C119 -227 75 -228 31 -228 C21 -228 11 -237 12 -247 C12 -258 21 -267 31 -267 C87 -267 122 -262 173 -264 C173 -266 172 -268 172 -270 C172 -280 182 -290 192 -289 C203 -289 211 -280 212 -270 C212 -268 212 -265 212 -263 C271 -262 318 -260 366 -258 C377 -257 386 -250 386 -239 L386 -239 Z " />
<glyph glyph-name="J" unicode="J" horiz-adv-x="533" d="M645 776 C638 798 611 788 595 785 C524 770 451 758 380 748 C261 728 148 716 36 700 C1 695 -31 692 -24 665 C-21 655 -11 655 -2 656 C22 659 46 661 70 664 C167 676 263 690 360 705 C443 719 526 734 609 748 C618 749 632 749 639 756 C644 761 647 769 645 776 L645 776 Z M440 683 C440 693 432 702 422 702 C412 703 400 696 401 686 C408 594 406 506 402 417 C396 300 381 183 356 68 C335 -30 299 -137 259 -197 C235 -232 208 -259 168 -253 C112 -243 88 -178 75 -127 C59 -63 55 7 65 72 C67 80 68 88 70 97 C72 104 74 111 70 117 C57 136 37 124 32 105 C25 78 23 53 22 28 C18 -39 26 -109 48 -173 C67 -224 102 -281 161 -291 C225 -302 273 -250 303 -200 C338 -142 360 -76 378 -11 C396 58 409 129 419 199 C440 342 449 488 443 632 C442 649 442 666 440 683 L440 683 Z " />
<glyph glyph-name="K" unicode="K" horiz-adv-x="490" d="M490 300 C490 300 391 210 299 152 C250 121 195 99 140 82 C109 72 76 65 44 63 C45 113 46 163 47 213 C48 252 48 276 50 315 C110 410 185 490 265 564 C320 615 374 661 432 697 C448 708 477 724 481 736 C484 745 478 753 470 756 C460 761 452 756 444 751 C382 715 325 669 273 623 C200 560 134 491 75 417 C67 407 60 398 53 388 C56 475 60 562 65 648 C67 691 71 734 74 777 C75 793 56 808 44 796 C34 786 33 759 32 744 C26 658 21 572 17 487 C16 443 14 400 12 357 C12 348 14 336 10 328 C-2 300 -22 275 -35 248 C-52 213 -66 176 -70 137 C-74 103 -69 65 -40 43 C-24 32 -9 27 2 26 C2 -72 -3 -179 -3 -262 C-4 -272 -5 -282 2 -290 C13 -301 32 -294 35 -280 C37 -271 36 -260 36 -251 C36 -151 43 -64 43 24 C122 27 216 63 293 104 C381 151 466 223 501 256 C533 286 512 298 490 300 L490 300 Z M5 66 C-10 69 -24 79 -28 89 C-49 139 -12 207 9 249 L5 66 Z " />
<glyph glyph-name="L" unicode="L" horiz-adv-x="368" d="M652 -162 C555 -153 457 -152 359 -160 C276 -167 193 -180 111 -200 C108 -154 107 -109 106 -63 C102 223 111 474 127 731 C128 740 128 748 129 756 C129 766 119 775 109 774 C98 772 90 763 90 752 C86 686 82 619 79 552 C67 347 63 152 66 -43 C67 -99 69 -154 72 -209 C25 -222 -21 -237 -67 -254 C-77 -257 -84 -270 -81 -279 C-78 -289 -68 -295 -57 -291 C-14 -275 30 -261 74 -249 C74 -249 74 -248 75 -248 C75 -250 75 -251 75 -252 C76 -262 83 -271 94 -270 C104 -269 114 -259 113 -248 C113 -245 113 -242 113 -238 C132 -234 182 -223 204 -219 C296 -203 389 -195 481 -194 C546 -194 594 -196 641 -201 C651 -201 663 -196 665 -185 C667 -175 662 -163 652 -162 L652 -162 Z " />
<glyph glyph-name="M" unicode="M" horiz-adv-x="720" d="M633 660 C625 700 611 757 573 773 C533 788 490 750 468 723 C408 650 378 554 351 468 C330 399 313 329 298 258 C301 337 303 417 301 497 C299 562 295 674 258 707 C231 731 197 721 176 697 C153 672 140 638 129 606 C105 533 91 456 80 379 C66 292 56 204 48 115 C49 220 53 324 57 429 C61 531 65 595 72 684 C73 694 78 729 72 735 C65 742 56 746 48 741 C39 737 36 729 36 720 C34 693 32 667 30 641 C26 588 23 535 21 483 C16 377 12 272 10 167 C8 114 8 62 7 10 C7 -59 5 -104 13 -145 C15 -153 19 -163 28 -167 C33 -169 48 -169 54 -158 C61 -147 62 -133 63 -120 C67 -91 70 -62 72 -33 C78 27 84 87 90 147 C102 262 115 377 139 491 C146 522 153 554 163 585 C172 613 183 637 196 659 C202 669 216 689 228 682 C238 676 241 661 244 651 C252 624 255 596 258 568 C263 506 263 443 262 381 C261 256 253 131 248 5 C247 -26 246 -58 245 -90 C245 -101 244 -116 257 -120 C276 -125 283 -108 285 -90 C292 -37 295 13 304 64 C321 185 345 306 379 423 C395 480 413 536 437 590 C448 616 460 641 475 665 C523 740 568 772 590 672 C614 574 615 485 619 402 C623 277 621 152 617 27 C614 -67 610 -160 604 -254 C604 -272 600 -286 603 -296 C606 -307 619 -313 629 -309 C641 -304 641 -291 642 -280 C643 -264 644 -248 645 -232 C648 -139 654 -44 657 48 C660 172 662 296 657 420 C652 501 649 581 633 660 L633 660 Z " />
<glyph glyph-name="N" unicode="N" horiz-adv-x="553" d="M503 673 C497 707 488 749 463 775 C437 802 398 796 369 776 C339 754 316 721 297 690 C254 622 225 546 197 471 C168 393 144 313 121 233 C95 142 72 49 52 -44 C55 58 59 160 64 262 C68 363 72 463 76 564 C78 615 79 665 80 715 C80 725 79 734 69 739 C61 743 52 741 46 735 C39 727 41 715 41 705 C41 692 40 680 40 668 C38 566 33 465 29 363 C25 261 20 159 16 58 C13 -45 9 -147 9 -249 C9 -259 7 -272 11 -281 C15 -289 24 -293 32 -291 C41 -290 47 -284 48 -275 C50 -262 52 -250 54 -237 C62 -188 72 -139 82 -90 C102 8 126 107 153 204 C180 300 209 396 245 489 C261 531 278 570 298 610 C318 652 341 694 373 728 C388 743 404 755 421 755 C446 755 460 692 462 675 C475 581 480 492 480 403 C481 280 477 156 474 33 C471 -56 470 -149 471 -244 C471 -254 483 -262 494 -260 C507 -257 510 -247 510 -235 C508 -112 512 11 515 134 C518 257 522 380 518 503 C514 561 511 617 503 673 L503 673 Z " />
<glyph glyph-name="O" unicode="O" horiz-adv-x="657" d="M617 449 C602 536 577 628 524 701 C472 775 394 810 307 798 C222 786 157 722 116 649 C70 567 45 472 35 379 C34 367 34 353 32 341 C30 330 25 318 23 307 C5 236 4 158 11 90 C20 0 46 -93 95 -170 C117 -205 146 -237 180 -260 C215 -284 258 -296 300 -296 C388 -296 459 -241 507 -171 C560 -96 596 -7 612 82 C635 206 636 334 617 449 L617 449 Z M549 1 C531 -53 507 -105 473 -152 C434 -209 383 -249 316 -257 C276 -260 238 -251 205 -230 C142 -191 105 -118 82 -50 C52 32 44 115 48 198 C67 145 100 95 145 60 C184 29 228 12 274 12 C286 13 301 16 302 30 C303 36 300 42 296 47 C290 52 285 52 277 51 C261 51 245 53 229 57 C200 67 174 85 152 106 C108 148 77 209 71 270 C69 289 69 309 70 329 C72 360 99 398 117 419 C139 445 189 468 199 483 C207 498 192 518 177 512 C144 500 104 464 83 438 C97 508 118 578 155 640 C189 696 238 744 304 758 C375 774 445 742 487 687 C539 613 564 529 578 446 C588 389 592 330 593 272 C593 173 577 86 549 1 L549 1 Z " />
<glyph glyph-name="P" unicode="P" horiz-adv-x="571" d="M427 738 C370 755 309 744 262 712 C214 679 182 630 156 579 C93 447 71 303 52 169 C52 344 49 519 49 693 C49 715 49 736 49 758 C50 767 50 775 44 782 C37 788 29 790 22 787 C5 780 10 755 10 741 C10 718 10 696 10 674 C11 586 11 498 12 409 C15 189 11 -50 8 -275 C8 -285 5 -295 13 -303 C25 -313 44 -309 45 -294 C50 -208 59 -126 67 -44 C76 41 85 126 98 210 C111 293 127 377 152 458 C168 507 186 553 211 597 C246 658 292 698 356 706 C388 709 423 703 453 684 C512 645 526 566 521 503 C514 422 477 333 427 268 C363 184 288 125 205 72 C141 31 85 16 81 1 C78 -7 82 -17 89 -22 C98 -28 107 -24 116 -20 C182 12 246 45 303 89 C378 146 446 214 494 296 C542 378 571 483 556 579 C545 652 500 715 427 738 L427 738 Z " />
<glyph glyph-name="Q" unicode="Q" horiz-adv-x="597" d="M665 -283 C663 -262 639 -263 624 -261 C599 -257 574 -253 549 -248 C500 -238 454 -225 406 -207 C469 -136 507 -45 533 46 C561 143 574 246 575 348 C575 449 563 557 518 651 C497 692 470 731 433 758 C396 783 351 796 307 794 C215 790 145 723 104 647 C61 563 38 468 26 373 C15 272 15 166 54 68 C57 62 59 56 62 51 C64 48 65 45 66 42 C67 39 70 36 70 33 C51 -51 55 -145 97 -219 C118 -255 155 -287 196 -296 C265 -313 328 -274 377 -236 C390 -242 445 -261 462 -266 C513 -281 566 -291 617 -299 C623 -299 629 -300 636 -301 C641 -302 647 -303 652 -302 C660 -300 667 -291 665 -283 L665 -283 Z M312 -235 C280 -254 239 -270 204 -262 C109 -244 91 -91 100 -21 C158 -108 244 -174 337 -218 C329 -224 321 -230 312 -235 L312 -235 Z M368 -189 C364 -193 293 -152 275 -140 C224 -106 191 -67 151 -27 C136 -7 121 11 113 32 C106 41 138 118 143 129 C170 189 206 244 245 295 C272 330 301 358 327 388 C331 392 335 397 335 404 C335 417 319 429 309 424 C292 416 259 373 244 357 C225 334 205 309 187 284 C145 225 109 161 86 91 C60 166 56 245 61 316 C64 369 72 422 83 474 C90 500 97 527 106 552 C124 603 155 665 199 706 C242 747 303 766 364 749 C433 732 470 669 493 611 C514 558 524 513 531 450 C549 292 526 128 471 -15 C444 -85 414 -143 368 -189 L368 -189 Z " />
<glyph glyph-name="R" unicode="R" horiz-adv-x="656" d="M642 643 C630 701 592 732 540 745 C487 757 432 749 384 726 C288 680 215 592 159 505 C124 452 94 396 69 337 C72 408 75 478 79 549 C80 583 86 702 89 733 C89 741 91 750 90 759 C89 772 75 780 64 775 C50 769 51 753 50 740 C41 588 35 455 29 296 C29 294 15 287 14 281 C11 270 21 260 25 252 C28 248 27 244 27 238 C26 221 27 203 24 186 C20 170 17 153 15 136 C10 102 6 68 4 34 C-1 -36 1 -105 1 -174 C2 -209 2 -244 2 -279 C2 -287 1 -293 6 -299 C10 -304 16 -306 22 -306 C37 -305 40 -292 41 -279 C50 -140 56 0 62 140 C63 157 61 175 64 191 C120 107 183 27 252 -47 C286 -83 322 -118 361 -150 C391 -175 421 -198 452 -218 C460 -224 471 -233 481 -235 C491 -237 501 -231 504 -221 C507 -208 498 -201 488 -195 C464 -180 440 -164 418 -146 C418 -146 419 -147 419 -147 C314 -65 224 36 145 143 C122 175 100 207 79 240 C184 208 300 204 403 248 C498 289 574 368 615 462 C639 518 654 583 642 643 L642 643 Z M516 377 C443 299 346 254 240 254 C184 254 135 264 88 278 C110 335 135 390 165 442 C202 500 237 553 283 602 C329 648 374 684 429 702 C498 724 593 713 604 634 C617 539 573 444 516 377 L516 377 Z " />
<glyph glyph-name="S" unicode="S" horiz-adv-x="755" d="M755 300 C706 209 648 144 547 77 C527 108 494 130 461 145 C385 181 304 194 226 213 C155 230 91 244 50 282 C39 293 28 314 30 334 C27 408 199 622 299 698 C340 724 390 768 438 754 C488 737 496 654 496 612 C496 561 489 522 479 485 C475 470 470 456 466 442 C462 432 466 420 477 416 C487 412 497 418 502 428 C508 441 512 456 515 470 C528 530 541 595 536 646 C531 696 513 759 465 784 C417 811 358 784 316 757 C269 727 226 689 188 648 C122 580 -57 392 1 283 C11 262 30 246 50 233 C99 203 158 190 213 176 C273 162 333 150 391 130 C437 116 493 94 514 55 C479 25 388 -29 347 -57 C298 -91 249 -125 206 -164 C177 -190 111 -253 161 -289 C183 -305 214 -307 240 -306 C373 -297 508 -181 553 -65 C566 -31 569 16 562 40 C650 102 717 163 770 252 C783 274 790 298 755 300 L755 300 Z M484 -112 C432 -185 351 -245 267 -263 C226 -271 188 -272 183 -256 C178 -249 206 -218 211 -214 C250 -174 293 -142 336 -112 C357 -97 379 -82 400 -68 C443 -39 485 -11 528 18 C534 -38 507 -77 484 -112 L484 -112 Z " />
<glyph glyph-name="T" unicode="T" horiz-adv-x="477" d="M782 758 C782 769 774 778 763 778 C651 778 539 776 428 769 C394 767 361 764 327 762 C326 770 317 778 308 778 C297 777 289 769 288 758 C230 752 172 744 114 734 C54 725 -5 713 -65 699 C-75 697 -82 685 -79 676 C-75 665 -65 660 -54 662 C-2 674 51 684 104 694 C95 695 272 717 286 718 C277 499 254 -205 253 -270 C253 -278 253 -287 253 -295 C253 -305 262 -315 272 -314 C283 -314 291 -306 292 -295 C295 -126 320 671 325 722 C407 730 488 734 569 736 C634 738 698 739 763 739 C773 739 783 747 782 758 L782 758 Z " />
<glyph glyph-name="U" unicode="U" horiz-adv-x="629" d="M583 -248 C574 -176 571 -103 568 -31 C561 90 561 194 558 298 C558 316 558 334 558 353 C557 371 556 390 558 408 C572 518 579 625 576 731 C575 760 574 786 571 812 C570 818 569 824 564 829 C555 838 540 834 534 823 C525 808 524 686 523 665 C520 592 519 519 518 446 C518 429 520 411 518 393 C494 265 477 147 438 31 C415 -41 343 -213 250 -204 C206 -200 177 -170 153 -134 C121 -83 101 -25 88 32 C60 149 56 269 57 386 C59 465 65 545 75 624 C77 639 83 659 63 665 C48 669 40 656 38 643 C33 603 29 563 25 523 C13 365 13 203 45 48 C60 -25 82 -101 125 -163 C145 -190 170 -215 201 -229 C233 -243 269 -246 301 -234 C365 -210 405 -144 433 -86 C476 4 501 95 521 186 C523 118 525 49 528 -20 C531 -89 535 -158 542 -227 C543 -240 542 -259 555 -266 C567 -271 585 -262 583 -248 L583 -248 Z " />
<glyph glyph-name="V" unicode="V" horiz-adv-x="571" d="M589 812 C572 816 566 801 561 788 C554 770 549 753 543 735 C532 699 522 663 512 627 C491 553 471 480 451 407 C410 261 369 115 318 -28 C304 -66 290 -104 273 -141 C265 -159 257 -179 246 -196 C231 -221 209 -255 186 -225 C161 -193 150 -154 139 -117 C123 -65 112 -11 102 42 C83 148 70 255 62 362 C54 471 51 580 53 689 C53 700 48 709 37 711 C28 713 17 709 15 699 C11 682 13 644 13 621 C13 448 26 288 48 129 C56 75 65 22 77 -31 C88 -83 101 -134 121 -183 C135 -219 161 -275 207 -276 C247 -277 285 -207 299 -178 C346 -81 378 23 409 125 C442 231 472 337 501 443 C530 548 557 654 591 757 C593 763 595 769 598 775 C600 780 603 786 603 791 C604 800 597 810 589 812 L589 812 Z " />
<glyph glyph-name="W" unicode="W" horiz-adv-x="734" d="M699 802 C678 801 679 776 678 761 C676 738 674 716 672 694 C669 650 665 606 661 561 C654 473 646 384 636 296 C621 152 604 7 567 -132 C557 -168 541 -218 527 -239 C505 -272 487 -264 471 -224 C433 -120 423 -15 415 91 C411 134 409 178 408 222 C405 312 406 401 411 491 C411 501 412 511 413 521 C414 531 414 539 405 546 C398 550 390 550 383 546 C377 541 375 534 374 527 C370 482 367 437 361 393 C351 310 335 228 316 147 C305 99 292 52 278 5 C252 -84 187 -220 169 -225 C123 -224 77 -26 66 75 C56 162 50 250 50 338 C49 427 52 517 63 605 C69 646 76 686 87 726 C89 736 94 746 96 755 C97 763 94 771 88 775 C82 779 74 780 68 776 C60 772 58 764 55 757 C42 715 34 672 28 629 C22 586 17 542 15 499 C9 410 9 322 14 233 C20 95 32 -38 75 -156 C88 -191 105 -232 137 -253 C153 -263 172 -269 189 -259 C222 -240 264 -150 281 -106 C312 -25 336 59 355 143 C360 164 365 185 369 207 C373 91 381 -26 405 -139 C416 -188 428 -246 462 -280 C478 -297 503 -307 525 -294 C574 -266 607 -136 619 -82 C657 96 673 267 689 435 C696 490 711 689 715 740 C716 754 719 770 719 784 C719 793 709 803 699 802 L699 802 Z " />
<glyph glyph-name="X" unicode="X" horiz-adv-x="533" d="M596 778 C590 787 579 789 569 784 C527 766 491 734 460 701 C416 653 377 600 341 546 C294 476 253 403 214 330 C193 375 172 420 151 466 C151 465 61 673 57 684 C53 694 44 702 33 698 C24 695 15 684 19 674 C47 607 76 539 106 472 C134 410 163 349 192 287 C106 118 30 -55 -37 -231 C-42 -244 -47 -257 -52 -270 C-56 -280 -48 -292 -38 -294 C-27 -296 -18 -290 -14 -280 C33 -159 174 150 213 243 C278 110 432 -189 463 -249 C467 -256 470 -264 474 -271 C479 -280 492 -284 501 -278 C510 -272 513 -261 508 -251 C444 -131 258 234 235 286 C273 359 314 432 358 501 C378 531 397 561 418 589 C461 647 510 710 577 745 C581 747 585 749 589 751 C598 755 601 769 596 778 L596 778 Z " />
<glyph glyph-name="Y" unicode="Y" horiz-adv-x="600" d="M554 784 C545 783 538 777 535 768 C532 755 532 740 531 727 C529 702 526 677 522 652 C514 599 503 545 490 492 C466 393 436 292 385 204 C360 162 322 106 269 98 C210 92 161 144 135 187 C100 244 82 311 70 376 C58 441 54 507 57 573 C58 606 62 639 69 671 C72 684 81 701 73 713 C67 724 51 725 42 715 C38 710 36 702 34 695 C18 636 15 574 17 515 C18 446 27 376 44 309 C60 249 83 186 122 137 C158 91 212 56 271 62 C332 67 377 118 407 165 C443 221 468 284 489 346 C494 362 500 378 504 394 C493 176 470 -42 477 -260 C477 -275 477 -291 478 -306 C478 -318 482 -330 496 -331 C507 -332 517 -323 517 -312 C517 -297 516 -281 516 -266 C514 -57 533 151 543 390 C546 453 552 515 557 577 C560 608 562 639 565 670 C568 700 572 731 574 761 C574 772 567 784 554 784 L554 784 Z " />
<glyph glyph-name="Z" unicode="Z" horiz-adv-x="752" d="M900 -152 C900 -142 893 -134 883 -133 C785 -119 676 -131 579 -139 C465 -148 352 -167 242 -196 C180 -212 119 -232 59 -255 C169 -134 270 -6 368 124 C468 256 563 386 641 526 C660 561 679 596 693 633 C705 664 721 707 704 739 C686 771 641 767 609 767 C471 763 356 742 245 717 C166 701 88 681 11 655 C5 652 -2 650 -6 643 C-9 636 -8 628 -3 622 C9 607 28 619 42 624 C81 637 120 648 159 658 C237 677 316 693 395 706 C445 714 634 742 668 722 C674 718 672 706 672 699 C655 607 575 488 525 412 C450 297 372 191 292 88 C209 -19 114 -138 17 -243 C5 -256 -7 -268 -19 -281 C-28 -290 -42 -301 -33 -315 C-30 -321 -23 -325 -17 -325 C-9 -326 -1 -320 6 -317 C22 -310 39 -304 55 -298 C120 -273 187 -251 254 -233 C451 -180 641 -167 825 -170 C842 -171 858 -171 875 -172 C887 -172 901 -167 900 -152 L900 -152 Z " />
<glyph glyph-name="bracketleft" unicode="&#x5b;" horiz-adv-x="226" d="M160 -76 C146 -77 140 -78 127 -73 C114 -65 103 -48 102 -32 C101 152 103 334 107 518 C107 558 108 596 111 636 C112 658 113 675 121 688 C125 695 139 700 142 694 C152 684 170 688 175 702 C179 717 166 728 153 732 C124 742 95 725 82 699 C75 683 73 665 72 648 C69 586 68 525 67 463 C66 319 62 172 62 28 C62 7 61 -14 63 -35 C67 -67 86 -99 118 -110 C128 -114 139 -115 150 -115 C158 -115 167 -115 174 -109 C186 -99 178 -74 160 -76 L160 -76 Z " />
<glyph glyph-name="backslash" unicode="&#x5c;" horiz-adv-x="335" d="M314 -141 C276 -16 237 109 199 234 C161 358 123 481 84 605 C75 636 65 667 56 698 C52 710 46 722 32 719 C20 717 13 705 16 693 C34 632 54 571 73 509 C112 384 150 259 189 134 C208 72 227 10 246 -52 C256 -83 265 -114 275 -145 C277 -152 279 -159 281 -167 C283 -173 285 -180 290 -184 C299 -192 312 -190 319 -180 C327 -168 318 -153 314 -141 L314 -141 Z " />
<glyph glyph-name="bracketright" unicode="&#x5d;" horiz-adv-x="256" d="M129 738 C117 738 100 735 90 727 C80 720 79 708 87 699 C98 687 109 696 122 698 C132 700 142 699 149 690 C156 681 155 670 155 658 C155 643 154 628 154 613 C154 582 154 550 154 518 C153 393 152 267 150 142 C149 107 148 72 147 37 C147 7 147 -25 139 -46 C133 -60 120 -69 104 -69 C96 -70 86 -67 79 -69 C66 -73 61 -91 71 -101 C79 -111 98 -109 109 -108 C124 -107 138 -103 150 -94 C175 -76 182 -42 185 -13 C188 23 187 60 188 96 C191 252 192 408 193 564 C194 586 194 608 194 630 C194 649 196 669 192 687 C185 716 159 738 129 738 L129 738 Z " />
<glyph glyph-name="asciicircum" unicode="&#x5e;" horiz-adv-x="226" d="M141 672 C138 678 135 687 128 690 C122 692 115 692 110 689 C102 685 99 676 95 669 C90 659 84 649 78 639 C73 629 67 619 62 609 C58 601 51 593 50 583 C49 567 68 557 81 566 C89 572 94 586 99 595 C105 607 111 618 118 630 C126 613 133 596 142 580 C148 569 164 567 173 577 C184 590 172 606 166 618 C158 636 149 654 141 672 L141 672 Z " />
<glyph glyph-name="underscore" unicode="&#x5f;" horiz-adv-x="303" d="M226 230 C196 230 165 230 134 230 C118 230 103 230 87 230 C76 230 64 226 62 214 C60 204 67 193 77 191 C84 190 91 191 98 191 C106 191 114 191 122 191 C153 191 183 191 214 191 C226 191 243 191 246 207 C248 219 238 231 226 230 L226 230 Z " />
<glyph glyph-name="grave" unicode="&#x60;" horiz-adv-x="152" d="M100 590 C94 598 95 596 84 613 C79 619 73 625 65 625 C56 625 50 618 47 611 C43 601 49 594 55 587 C60 579 67 570 73 562 C78 555 84 551 93 553 C101 554 107 560 109 567 C111 576 105 583 100 590 L100 590 Z " />
<glyph glyph-name="a" unicode="a" horiz-adv-x="284" d="M284 300 C270 278 259 253 243 233 C237 225 231 218 225 210 C217 202 208 193 197 187 C192 185 186 182 180 184 C172 186 167 194 164 202 C152 230 155 257 157 271 C158 278 162 301 164 307 C166 317 161 327 152 330 C143 334 133 331 128 322 C126 318 124 314 122 310 C114 328 99 343 79 346 C51 351 25 335 8 314 C-17 282 -25 237 -17 198 C-13 179 -3 161 13 151 C29 141 49 141 65 149 C80 156 92 169 102 182 C109 191 115 201 121 211 C124 193 131 176 143 163 C150 154 162 147 173 145 C187 143 199 145 212 151 C234 161 252 181 266 199 C282 219 299 249 311 271 C316 279 315 297 284 300 L284 300 Z M103 263 C96 248 89 235 81 221 C78 215 64 189 47 182 C41 180 33 181 27 188 C13 207 19 238 22 253 C26 272 35 286 39 291 C51 304 62 308 69 308 C79 308 84 300 84 298 C85 297 86 293 88 292 C88 292 89 289 89 287 C91 279 99 273 107 273 C106 269 104 266 103 263 L103 263 Z " />
<glyph glyph-name="b" unicode="b" horiz-adv-x="286" d="M286 300 C286 300 215 274 181 259 C185 278 187 300 182 319 C178 331 172 341 162 348 C150 356 134 357 121 355 C85 349 62 315 47 285 C44 279 41 273 39 267 C39 269 39 272 39 275 C50 311 59 347 67 384 C86 466 104 552 108 636 C110 661 111 694 100 717 C95 727 85 736 72 736 C60 736 50 727 44 716 C31 694 26 662 23 639 C11 561 7 483 3 404 C2 373 1 342 0 311 C0 301 0 291 0 281 C-1 280 -1 280 -1 279 C-2 276 -2 272 -1 268 C-1 231 0 194 1 156 C1 140 1 124 2 108 C2 98 11 88 21 89 C33 89 40 98 41 108 C41 114 42 120 43 126 C43 127 43 128 43 128 C43 128 43 129 43 130 C44 121 47 113 53 107 C62 99 74 95 85 98 C95 101 103 107 110 114 C127 129 139 150 150 171 C156 183 161 195 166 208 C177 213 188 219 199 224 C204 226 248 244 259 248 C271 252 284 257 295 262 C317 271 308 298 286 300 L286 300 Z M69 674 C71 640 53 492 45 467 C47 526 49 592 69 674 L69 674 Z M84 143 C85 144 89 151 92 154 C94 156 98 160 101 162 C97 155 90 147 84 143 L84 143 Z M146 284 C144 268 140 253 136 238 C135 237 135 236 134 235 C122 228 110 220 98 211 C86 202 73 192 63 180 C57 173 51 165 48 157 C49 163 50 169 51 175 C56 197 62 218 69 239 C71 243 73 248 75 252 C75 252 75 252 75 252 C75 252 75 252 75 252 C81 266 87 280 97 293 C105 303 119 320 135 317 C144 315 146 306 146 298 C146 293 146 288 146 284 L146 284 Z " />
<glyph glyph-name="c" unicode="c" horiz-adv-x="252" d="M252 300 C252 300 249 299 240 292 C185 252 147 214 99 188 C83 179 54 167 38 180 C25 188 21 205 20 211 C15 253 30 282 45 297 C56 309 70 313 82 303 C94 293 90 286 88 278 C85 268 91 256 101 254 C112 251 122 257 125 267 C132 290 124 317 107 333 C87 350 60 354 38 341 C17 330 2 308 -7 287 C-16 267 -21 246 -20 223 C-19 192 -8 156 23 142 C69 121 123 155 159 181 C200 208 233 237 271 267 C279 273 277 298 252 300 L252 300 Z " />
<glyph glyph-name="d" unicode="d" horiz-adv-x="241" d="M213 689 C210 709 202 738 177 737 C153 737 144 708 139 689 C131 660 128 630 125 601 C121 569 119 538 118 506 C116 452 118 399 122 346 C121 346 121 346 120 347 C105 361 86 364 67 361 C42 357 22 340 10 319 C-3 298 -8 273 -8 249 C-8 226 -3 202 10 183 C23 163 44 150 69 153 C93 155 111 170 125 189 C127 192 129 194 131 197 C132 159 134 121 134 82 C134 59 133 36 133 13 C132 3 142 -7 152 -6 C163 -6 171 2 172 13 C174 94 172 175 166 256 C166 263 166 270 165 277 C172 297 177 319 182 340 C193 388 201 436 208 484 C214 520 217 555 218 591 C219 624 218 657 213 689 L213 689 Z M111 243 C103 226 94 210 80 197 C73 192 62 189 54 193 C42 200 37 213 34 225 C27 253 29 291 54 314 C60 319 67 322 74 323 C89 323 93 318 96 316 C98 312 99 307 98 306 C97 304 97 304 96 302 C93 291 93 280 103 275 C109 272 118 272 124 275 C123 275 113 247 111 243 L111 243 Z M169 482 C167 470 163 442 157 411 C157 423 156 435 156 447 C156 498 158 548 163 599 C166 619 168 638 172 658 C173 664 174 670 176 676 C186 595 173 506 169 482 L169 482 Z " />
<glyph glyph-name="e" unicode="e" horiz-adv-x="213" d="M214 300 C186 274 160 249 131 229 C103 209 75 191 42 204 C27 210 24 225 22 236 C22 236 23 236 23 236 C49 234 77 243 98 257 C118 270 137 293 129 319 C117 356 69 352 41 338 C0 318 -22 269 -17 228 C-14 203 0 181 23 170 C45 159 70 158 93 164 C148 182 198 229 236 267 C243 274 248 298 214 300 L214 300 Z M93 309 C93 309 92 278 28 273 C42 301 73 312 93 309 L93 309 Z " />
<glyph glyph-name="f" unicode="f" horiz-adv-x="203" d="M203 300 C203 300 117 263 76 240 C63 232 50 225 38 216 C38 219 38 222 38 225 C38 225 38 226 38 226 C48 261 57 296 66 331 C77 375 87 420 97 464 C112 540 127 633 121 698 C119 724 98 748 74 742 C58 738 51 721 45 707 C7 593 4 465 1 357 C0 319 -1 282 -1 244 C-1 220 -1 195 0 171 C-1 166 -2 161 -2 156 C-2 151 0 146 1 142 C2 140 2 138 2 136 C4 102 7 69 11 36 C19 -15 26 -62 54 -97 C66 -112 83 -119 102 -116 C139 -110 149 -67 148 -36 C144 16 119 65 87 105 C77 117 67 129 55 140 C50 144 45 149 40 153 C40 157 40 160 39 163 C45 179 137 227 159 237 C169 242 209 259 214 261 C223 265 239 296 203 300 L203 300 Z M83 696 C94 647 52 442 42 397 C40 459 61 639 83 696 L83 696 Z M109 -25 C116 -74 97 -79 97 -79 C55 -84 42 100 42 100 C104 34 109 -25 109 -25 L109 -25 Z " />
<glyph glyph-name="g" unicode="g" horiz-adv-x="298" d="M298 300 C298 300 289 296 279 291 C237 269 185 238 139 199 C138 270 137 298 136 325 C136 328 136 332 136 336 C136 346 127 356 117 355 C106 355 97 347 97 336 C97 335 97 335 97 335 C87 343 75 348 62 349 C16 349 -8 294 -13 257 C-17 228 -16 194 10 176 C25 166 45 166 61 173 C78 181 91 198 100 212 C100 196 101 180 100 163 C79 141 59 117 43 91 C24 62 9 30 2 -4 C-3 -28 -6 -55 2 -79 C9 -99 23 -118 44 -122 C57 -124 70 -122 81 -115 C92 -107 100 -97 106 -85 C121 -56 126 -24 131 8 C136 48 138 88 139 128 C139 134 139 147 139 147 C172 176 222 214 267 240 C281 248 295 256 309 263 C319 267 317 297 298 300 L298 300 Z M91 293 C89 285 87 276 84 268 C78 253 71 238 62 225 C56 216 45 203 34 205 C21 207 21 230 24 251 C29 274 36 289 49 304 C52 306 55 309 61 310 C70 310 74 303 78 299 C82 296 87 294 91 294 C91 294 91 293 91 293 L91 293 Z M96 47 C93 19 91 -9 84 -35 C82 -44 71 -88 54 -86 C28 -83 35 -31 40 -11 C46 10 52 31 64 50 C80 79 100 96 100 104 C99 85 97 66 96 47 L96 47 Z " />
<glyph glyph-name="h" unicode="h" horiz-adv-x="199" d="M172 162 C171 165 170 176 170 178 C170 192 170 205 170 218 C171 260 177 311 149 339 C138 349 122 353 108 349 C71 336 55 295 39 266 C50 318 60 357 68 396 C78 442 86 488 93 535 C98 574 103 614 101 654 C100 677 97 715 69 722 C43 728 30 703 24 683 C7 623 5 551 3 487 C1 444 1 401 1 358 C0 333 0 309 0 285 C0 284 0 284 0 284 C-1 281 -1 277 0 274 C0 261 0 248 0 236 C0 203 0 171 0 138 C0 133 0 127 -1 121 C-1 111 9 101 19 101 C30 102 37 110 38 121 C41 142 44 162 50 181 C58 211 69 241 84 269 C89 278 117 323 124 309 C131 295 132 277 132 262 C132 206 131 192 131 178 C132 166 132 153 138 142 C143 134 156 130 165 135 C174 141 177 153 172 162 L172 162 Z M61 670 C66 592 54 518 40 442 C40 520 47 596 61 670 L61 670 Z " />
<glyph glyph-name="i" unicode="i" horiz-adv-x="192" d="M193 300 C165 266 140 231 106 203 C91 192 64 170 47 181 C37 186 34 205 33 214 C30 250 37 288 43 324 C45 334 40 345 29 348 C20 350 7 345 5 334 C-3 288 -12 239 -2 193 C3 169 18 145 44 140 C78 134 109 155 134 176 C167 203 194 236 219 270 C225 279 226 300 193 300 L193 300 Z M42 387 C52 387 62 396 61 407 C61 417 53 426 42 426 C31 426 22 417 22 407 C23 396 31 387 42 387 L42 387 Z " />
<glyph glyph-name="j" unicode="j" horiz-adv-x="206" d="M206 300 C145 271 90 239 37 196 C38 228 39 260 39 292 C39 305 40 318 40 331 C40 341 31 351 21 350 C10 350 1 342 1 331 C0 279 -1 227 -2 175 C-2 169 -2 164 -2 159 C-12 150 -21 140 -30 130 C-51 105 -71 77 -86 47 C-97 24 -106 0 -110 -26 C-115 -61 -112 -110 -72 -124 C-63 -127 -51 -127 -41 -124 C-26 -120 -15 -110 -7 -99 C13 -73 19 -38 24 -8 C31 38 34 85 36 132 C36 135 36 139 36 142 C45 151 80 179 116 205 C136 219 158 231 179 243 C191 250 209 259 221 265 C230 269 231 297 206 300 L206 300 Z M-5 99 C-4 40 -14 -6 -23 -42 C-26 -54 -40 -94 -59 -90 C-82 -84 -74 -40 -68 -13 C-56 30 -31 66 -5 99 L-5 99 Z M19 385 C29 385 39 394 38 404 C38 415 30 424 19 424 C9 424 -1 415 -1 404 C0 394 8 385 19 385 L19 385 Z " />
<glyph glyph-name="k" unicode="k" horiz-adv-x="258" d="M258 300 C234 277 207 244 179 221 C161 207 142 198 120 199 C98 202 84 218 81 238 C78 256 85 276 95 291 C110 311 131 323 152 333 C161 337 163 349 160 357 C156 366 146 371 137 369 C96 357 67 326 49 289 C45 281 41 273 38 265 C38 274 38 283 39 293 C39 293 39 293 39 294 C57 346 71 400 81 455 C94 522 103 588 99 652 C97 676 92 710 75 721 C64 728 51 725 42 716 C20 693 11 616 9 582 C5 507 2 432 0 356 C-1 279 -1 195 1 115 C1 105 8 97 17 95 C27 94 36 100 39 109 C47 137 52 165 58 192 C65 182 75 173 87 167 C120 152 158 161 188 180 C223 203 249 237 279 266 C286 273 289 297 258 300 L258 300 Z M60 657 C61 627 60 593 57 563 C53 520 46 487 41 454 C44 522 42 594 60 657 L60 657 Z " />
<glyph glyph-name="l" unicode="l" horiz-adv-x="194" d="M194 300 C188 289 176 261 167 241 C116 128 91 126 88 126 C52 125 40 274 40 274 C53 317 63 353 70 392 C85 477 94 557 88 634 C86 651 84 670 74 686 C65 700 44 711 29 697 C9 678 5 594 3 566 C-1 519 -3 471 -4 423 C-4 373 -3 322 2 273 C5 231 10 188 24 149 C34 121 52 88 86 86 C115 85 139 114 155 136 C175 165 190 197 204 229 C211 244 218 260 222 275 C226 292 205 298 194 300 L194 300 Z M39 532 C41 567 44 596 49 630 C51 596 50 551 47 517 C46 503 36 423 35 416 C35 455 37 494 39 532 L39 532 Z " />
<glyph glyph-name="m" unicode="m" horiz-adv-x="283" d="M266 119 C258 148 259 178 259 207 C259 239 260 272 258 304 C256 328 255 359 238 374 C227 385 212 387 198 382 C181 376 169 362 159 347 C149 332 141 314 134 296 C131 314 127 333 115 345 C106 353 93 355 82 351 C58 343 48 317 40 298 C40 297 40 297 40 297 C40 305 40 314 40 323 C40 333 31 343 20 342 C10 342 1 334 1 323 C1 273 -2 223 4 174 C5 164 11 156 21 155 C31 153 39 159 42 169 C49 191 55 214 61 237 C68 261 75 291 91 311 C100 276 101 233 106 197 C107 189 117 183 125 183 C133 183 141 189 143 197 C149 219 156 241 163 263 C173 291 189 333 211 345 C216 337 219 317 219 303 C221 272 220 242 220 211 C220 177 220 142 229 109 C231 99 243 92 252 95 C263 99 269 109 266 119 L266 119 Z " />
<glyph glyph-name="n" unicode="n" horiz-adv-x="191" d="M170 189 C167 221 165 251 162 282 C160 307 154 337 129 342 C105 345 86 326 72 310 C61 297 52 283 37 263 C38 286 39 317 39 318 C41 328 37 339 26 342 C16 344 3 339 2 328 C-1 312 -2 296 -2 280 C-2 248 -3 224 6 208 C12 198 25 194 36 200 C45 205 52 216 58 225 C77 250 95 279 119 301 C124 280 125 256 127 234 C128 215 128 196 133 179 C136 169 147 162 157 165 C167 168 171 178 170 189 L170 189 Z " />
<glyph glyph-name="o" unicode="o" horiz-adv-x="153" d="M129 277 C126 300 118 326 99 341 C79 356 52 359 33 341 C30 339 28 336 26 334 C20 333 14 330 10 324 C0 307 -5 286 -6 266 C-10 230 2 179 35 162 C55 152 79 155 96 171 C124 196 133 244 129 277 L129 277 Z M61 195 C55 194 44 198 36 226 C44 231 48 242 43 251 C43 251 43 251 43 252 C43 253 38 298 63 315 C92 313 102 210 61 195 L61 195 Z " />
<glyph glyph-name="p" unicode="p" horiz-adv-x="207" d="M187 316 C183 336 168 353 147 357 C134 359 123 358 111 352 C88 342 73 317 63 294 C50 266 42 236 35 206 C35 231 36 256 37 280 C38 312 40 345 44 377 C45 387 34 397 24 396 C13 396 6 387 5 377 C-2 315 -3 253 -4 191 C-5 121 -4 52 -2 -17 C-1 -49 1 -80 3 -111 C3 -121 11 -131 22 -130 C33 -130 41 -122 42 -111 C43 -67 45 -23 49 20 C55 92 67 169 72 191 C76 188 87 189 93 190 C146 199 198 255 187 316 L187 316 Z M105 233 C94 229 87 226 80 226 C78 225 101 317 134 320 C137 320 141 320 145 318 C160 311 155 255 105 233 L105 233 Z " />
<glyph glyph-name="q" unicode="q" horiz-adv-x="221" d="M221 300 C205 290 188 280 173 269 C159 259 145 249 132 238 C133 275 135 312 136 349 C136 361 137 373 137 385 C138 395 128 405 118 405 C107 404 99 396 98 385 C98 370 95 358 95 347 C83 360 66 365 49 362 C32 358 18 343 10 328 C1 310 -4 289 -3 268 C-3 249 2 227 17 213 C32 198 55 196 74 205 C81 208 87 213 92 219 C92 209 91 199 91 188 C88 181 87 174 86 166 C84 150 86 133 89 116 C89 109 89 102 88 95 C88 58 87 20 88 -18 C89 -47 90 -97 106 -113 C117 -124 131 -121 141 -112 C172 -86 178 -48 174 -13 C169 20 153 50 141 82 C136 94 131 107 128 120 C129 140 129 159 130 179 C131 180 135 187 142 194 C147 199 172 220 173 221 C187 232 225 256 236 263 C245 269 252 296 221 300 L221 300 Z M78 273 C74 261 64 233 49 237 C30 242 35 274 36 286 C38 299 45 324 61 324 C75 324 77 292 78 283 C78 281 79 278 79 276 C79 275 79 274 78 273 L78 273 Z M130 -66 C125 -66 124 -3 126 14 C146 -28 135 -65 130 -66 L130 -66 Z " />
<glyph glyph-name="r" unicode="r" horiz-adv-x="245" d="M245 300 C245 300 238 297 234 296 C203 287 174 295 153 316 C144 325 136 335 127 344 C120 351 112 358 102 361 C89 366 77 361 67 353 C56 344 46 332 38 319 C38 325 40 364 42 377 C44 387 32 397 23 397 C11 396 5 388 3 377 C0 351 -1 324 -1 297 C-2 264 -2 230 -3 197 C-3 180 -3 163 -4 145 C-4 135 6 125 16 126 C27 126 35 134 35 145 C37 182 41 219 52 255 C60 279 75 309 92 323 C92 323 98 318 100 316 C116 299 130 282 149 270 C179 250 219 250 254 265 C263 269 276 296 245 300 L245 300 Z " />
<glyph glyph-name="s" unicode="s" horiz-adv-x="171" d="M171 300 C137 262 98 228 60 200 C56 218 51 235 47 253 C42 274 37 294 36 314 C36 323 38 325 40 327 C43 329 48 327 52 321 C59 311 60 298 57 288 C54 278 60 267 70 264 C80 262 92 267 94 278 C99 298 98 321 87 339 C77 355 61 366 43 366 C23 366 6 354 1 335 C-4 317 -1 298 2 281 C8 243 20 209 26 173 C11 161 -3 148 -14 133 C-28 113 -33 78 -9 65 C10 55 37 61 52 77 C74 99 70 131 68 157 C71 159 74 162 77 164 C122 199 158 229 191 266 C198 273 207 296 171 300 L171 300 Z M26 106 C22 99 12 99 12 99 C10 106 28 125 31 127 C31 119 29 111 26 106 L26 106 Z " />
<glyph glyph-name="t" unicode="t" horiz-adv-x="199" d="M199 300 C185 269 170 230 154 199 C144 180 110 114 88 114 C82 115 75 122 71 129 C49 167 41 263 41 263 C69 347 83 433 88 518 C98 518 109 518 119 518 C142 518 164 518 186 519 C196 519 206 528 205 538 C205 549 197 558 186 558 C154 557 122 557 90 557 C90 578 90 600 88 622 C87 639 85 659 75 674 C66 689 45 700 30 685 C23 678 20 667 18 657 C9 624 6 589 3 555 C3 554 3 554 3 553 C-9 553 -21 552 -34 551 C-55 549 -76 547 -97 545 C-107 544 -117 537 -117 525 C-116 516 -108 504 -97 506 C-65 509 -32 512 0 514 C-2 480 -3 446 -3 411 C-4 361 -2 311 2 261 C6 220 11 177 25 137 C35 109 53 77 86 75 C116 73 140 103 155 125 C188 169 207 220 225 269 C231 288 226 298 199 300 L199 300 Z M50 618 C50 617 51 564 50 555 C48 555 45 555 42 555 C43 564 49 614 50 618 L50 618 Z M40 516 C43 516 45 516 48 516 C48 513 37 412 36 405 C36 442 37 479 40 516 L40 516 Z " />
<glyph glyph-name="u" unicode="u" horiz-adv-x="249" d="M249 300 C249 300 248 299 242 289 C233 272 223 256 213 240 C197 217 183 191 166 184 C149 191 145 245 144 250 C142 283 141 313 142 346 C142 356 133 366 122 365 C111 365 104 357 103 346 C100 317 94 287 85 262 C80 248 69 211 54 209 C40 211 37 247 37 260 C37 278 39 297 40 315 C40 326 31 335 20 335 C9 334 1 326 1 315 C0 298 -2 280 -2 262 C-2 241 0 217 11 199 C24 178 49 170 72 179 C88 186 99 200 107 215 C110 200 114 185 122 172 C136 150 163 138 187 151 C204 160 226 188 239 208 C252 228 264 248 276 269 C281 278 279 298 249 300 L249 300 Z " />
<glyph glyph-name="v" unicode="v" horiz-adv-x="187" d="M151 320 C141 322 130 317 127 307 C123 291 119 276 115 261 C89 180 82 158 73 158 C62 157 47 234 43 263 C41 283 38 307 38 317 C37 327 29 337 18 336 C8 336 -2 327 -1 317 C1 281 5 244 13 209 C19 182 27 154 44 132 C51 123 61 117 73 116 C84 116 94 122 101 130 C118 149 128 175 136 199 C148 231 157 264 165 296 C167 306 162 318 151 320 L151 320 Z " />
<glyph glyph-name="w" unicode="w" horiz-adv-x="281" d="M250 325 C247 334 236 342 226 338 C216 335 208 325 212 314 C217 300 212 275 209 264 C201 236 193 213 186 196 C182 186 174 170 164 161 C140 187 134 227 125 262 C123 270 115 276 106 276 C98 276 89 270 87 262 C81 233 71 199 54 178 C41 201 38 248 38 254 C37 265 36 296 42 314 C45 324 39 336 29 338 C18 341 8 335 5 325 C-1 303 -2 281 -1 259 C-1 235 2 210 9 187 C14 168 24 146 44 139 C78 127 98 168 105 189 C112 163 138 121 165 121 C189 121 204 146 214 164 C227 189 237 216 244 244 C251 269 255 307 250 325 L250 325 Z " />
<glyph glyph-name="x" unicode="x" horiz-adv-x="275" d="M275 300 C251 268 235 243 208 213 C196 201 187 192 176 185 C164 177 162 181 156 189 C140 212 135 234 129 251 C139 261 148 270 158 279 C168 289 180 299 190 310 C198 317 198 330 190 337 C182 345 171 345 163 337 C148 323 132 309 117 294 C115 301 114 306 110 314 C101 333 88 352 67 356 C40 361 18 342 2 323 C-4 315 -6 303 2 295 C9 288 23 286 30 295 C34 302 48 319 57 319 C68 319 73 300 75 297 C79 286 85 273 85 263 C68 245 53 227 38 208 C29 196 22 183 17 169 C13 160 21 147 30 145 C41 143 50 151 55 160 C68 184 86 205 99 220 C104 205 109 191 117 178 C124 166 133 153 145 147 C176 131 207 157 228 178 C243 193 256 210 269 227 C279 241 291 258 300 273 C305 282 297 299 275 300 L275 300 Z " />
<glyph glyph-name="y" unicode="y" horiz-adv-x="258" d="M258 300 C216 270 174 232 137 192 C137 230 136 268 136 306 C136 317 136 328 136 339 C135 348 128 357 119 358 C109 359 100 353 97 344 C91 325 88 304 84 284 C78 257 69 231 52 231 C36 230 37 281 38 299 C38 306 41 315 43 320 C47 329 39 342 29 344 C18 347 9 343 5 330 C0 314 -1 294 -1 278 C1 244 6 199 45 194 C71 191 85 204 98 223 C98 198 98 173 97 148 C81 127 65 106 51 84 C36 59 22 32 14 4 C2 -33 2 -76 25 -105 C35 -116 48 -123 62 -123 C90 -123 105 -96 113 -73 C124 -41 128 -6 131 28 C134 63 135 98 136 133 C136 134 137 134 137 134 C170 172 206 206 243 238 C255 248 262 255 274 264 C289 276 283 297 258 300 L258 300 Z M85 -37 C81 -55 74 -82 63 -85 C45 -85 45 -52 45 -42 C45 -7 61 25 75 48 C82 59 88 70 95 80 C93 38 93 7 85 -37 L85 -37 Z " />
<glyph glyph-name="z" unicode="z" horiz-adv-x="219" d="M195 186 C192 197 182 202 171 200 C153 197 130 195 113 192 C98 191 83 189 68 188 C69 190 71 191 73 193 C87 206 103 220 118 233 C124 233 131 232 138 233 C148 233 158 242 157 252 C157 257 155 261 153 265 C154 266 155 267 156 268 C166 277 177 287 183 299 C187 307 189 317 184 325 C168 351 116 343 92 340 C58 334 33 325 8 312 C-1 306 -5 294 1 285 C6 276 18 272 27 278 C27 280 49 289 52 290 C64 294 75 297 87 300 C104 304 121 306 137 304 C133 300 129 296 124 291 C117 285 110 278 103 272 C95 272 88 272 81 271 C71 271 61 263 61 252 C61 247 63 243 66 239 C58 232 49 224 41 217 C31 208 21 198 14 187 C9 179 8 170 12 162 C18 152 29 150 39 149 C58 147 78 150 98 152 C130 155 156 158 182 162 C192 163 198 177 195 186 L195 186 Z " />
<glyph glyph-name="braceleft" unicode="&#x7b;" horiz-adv-x="272" d="M132 718 C107 696 95 664 87 633 C79 596 76 558 75 519 C75 479 78 438 79 397 C80 365 84 326 64 298 C60 293 55 288 50 284 C43 280 35 280 29 276 C24 272 22 266 22 260 C22 251 27 247 32 241 C54 211 43 165 37 129 C30 82 25 35 37 -12 C48 -52 68 -92 101 -120 C117 -133 135 -144 155 -150 C165 -152 175 -154 185 -155 C194 -155 205 -156 213 -151 C222 -147 225 -137 222 -128 C217 -117 209 -115 198 -115 C160 -118 131 -99 111 -75 C104 -66 97 -56 92 -46 C81 -24 73 -1 70 23 C63 77 80 128 83 181 C85 205 82 225 74 246 C72 251 71 251 75 254 C93 267 105 288 112 309 C119 334 119 362 119 388 C118 418 116 447 115 476 C113 536 113 600 135 657 C144 677 159 697 181 700 C202 700 198 689 214 689 C222 690 228 696 230 703 C235 717 221 730 209 735 C183 746 152 735 132 718 L132 718 Z " />
<glyph glyph-name="bar" unicode="&#x7c;" horiz-adv-x="189" d="M102 848 C85 847 82 833 82 820 C82 801 81 782 81 764 C80 727 80 690 79 654 C78 580 76 506 75 432 C72 285 69 137 67 -10 C66 -47 65 -84 64 -121 C64 -138 64 -156 64 -174 C63 -183 63 -192 63 -201 C63 -208 62 -216 66 -222 C74 -233 90 -233 98 -223 C102 -217 102 -210 102 -203 C102 -193 102 -184 103 -175 C103 -138 104 -101 105 -64 C107 84 110 232 113 379 C116 526 119 672 121 818 C121 825 122 833 118 839 C114 844 108 848 102 848 L102 848 Z " />
<glyph glyph-name="braceright" unicode="&#x7d;" horiz-adv-x="281" d="M247 282 C238 283 229 290 224 297 C216 313 211 326 211 343 C211 366 213 389 216 413 C221 460 228 507 229 554 C229 595 228 639 212 677 C198 713 168 743 128 741 C111 740 87 731 85 711 C84 697 101 686 112 692 C118 695 121 699 127 702 C140 705 156 694 164 685 C204 636 191 535 184 478 C179 431 169 382 172 334 C174 312 180 291 193 274 C196 270 212 259 210 254 C210 244 200 229 198 219 C188 172 201 124 200 76 C200 38 192 2 175 -28 C156 -65 115 -107 76 -110 C61 -114 40 -104 32 -123 C29 -130 30 -138 36 -143 C41 -149 49 -149 56 -150 C89 -152 122 -140 148 -120 C208 -76 238 1 240 74 C240 115 233 150 233 185 C233 203 236 216 241 228 C244 237 250 243 256 250 C265 260 262 279 247 282 L247 282 Z " />
<glyph glyph-name="asciitilde" unicode="&#x7e;" horiz-adv-x="244" d="M189 326 C181 321 175 313 167 307 C160 302 150 295 142 295 C135 296 128 308 123 313 C117 320 111 328 103 333 C84 345 64 339 46 329 C32 322 13 301 32 287 C38 283 48 282 55 287 C58 289 61 292 65 295 C71 299 73 299 79 301 C87 300 94 287 98 283 C104 276 110 269 118 264 C136 252 158 257 175 266 C185 272 194 279 202 286 C209 292 219 299 221 307 C227 327 204 339 189 326 L189 326 Z " />
<glyph glyph-name="cent" unicode="&#xa2;" horiz-adv-x="226" d="M180 275 C168 278 159 271 155 261 C152 250 145 237 136 232 C136 284 137 335 138 387 C150 378 152 364 152 350 C152 351 152 352 152 353 C152 348 149 343 149 338 C150 331 154 325 160 322 C172 316 184 324 188 336 C196 359 190 387 175 406 C166 417 153 425 140 427 C141 442 141 453 141 455 C141 462 139 468 134 473 C123 481 108 476 103 464 C101 457 101 449 101 441 C101 437 101 432 101 427 C100 421 100 422 94 419 C68 404 53 373 46 345 C39 316 38 284 45 256 C54 223 72 200 97 189 C97 177 97 163 98 155 C98 139 101 125 117 125 C138 125 136 147 136 160 C136 165 136 183 136 188 C161 197 179 217 189 239 C194 251 198 272 180 275 L180 275 Z M97 235 C82 258 79 275 79 302 C79 324 85 356 99 370 C98 325 97 280 97 235 L97 235 Z " />
<glyph glyph-name="sterling" unicode="&#xa3;" horiz-adv-x="295" d="M251 108 C190 114 129 112 69 106 C90 147 98 194 105 239 C105 242 108 266 111 267 C124 267 138 267 152 268 C161 268 171 266 178 274 C184 279 186 288 182 296 C177 306 167 307 156 307 C143 307 130 306 116 306 C121 338 127 369 135 399 C141 424 147 449 160 471 C164 478 174 486 182 478 C189 471 191 459 192 450 C194 438 189 425 199 416 C208 409 220 410 226 418 C233 427 232 441 232 451 C231 464 228 477 222 488 C209 512 184 529 157 517 C132 507 119 476 110 451 C99 422 92 391 86 360 C84 350 79 316 76 305 C67 304 38 304 34 301 C22 296 20 281 28 271 C33 266 38 265 45 265 C54 266 62 266 71 266 C64 222 57 177 40 136 C35 124 29 109 18 102 C14 99 10 97 7 94 C2 87 2 78 7 71 C13 63 26 63 26 63 C77 68 128 72 179 72 C211 72 243 68 256 70 C279 74 272 107 251 108 L251 108 Z " />
<glyph glyph-name="yen" unicode="&#xa5;" horiz-adv-x="267" d="M229 243 C216 242 202 241 189 242 C190 252 190 257 191 257 C199 257 212 258 216 258 C226 259 239 260 244 271 C247 280 243 292 234 296 C229 299 222 298 216 297 C209 297 202 296 194 296 C203 364 215 431 235 496 C239 509 249 525 237 537 C229 544 214 544 208 535 C203 529 201 520 198 513 C183 473 172 433 154 395 C143 376 129 347 104 347 C73 351 70 397 69 421 C69 446 70 471 75 485 C76 493 80 504 77 513 C73 523 62 527 52 523 C39 519 39 504 37 493 C32 457 32 403 40 369 C45 346 58 322 81 312 C109 300 141 314 160 335 C159 319 157 316 155 298 C137 298 101 300 87 299 C78 298 69 298 62 291 C56 286 56 277 59 270 C63 262 70 259 79 259 C103 261 127 260 151 259 C151 256 151 248 150 243 C137 243 113 243 104 243 C91 242 68 247 62 230 C60 224 62 216 66 211 C71 205 77 204 85 204 C105 206 126 205 146 205 C141 166 142 127 137 89 C137 82 135 75 138 68 C144 58 157 54 166 60 C177 67 176 82 177 93 C179 129 185 165 185 203 C196 203 205 203 216 203 C228 204 244 204 248 218 C252 229 242 245 229 243 L229 243 Z " />
<glyph glyph-name="quoteleft" unicode="&#x2018;" horiz-adv-x="96" d="M44 647 C24 641 31 620 32 605 C32 596 31 586 30 577 L26 562 C24 557 21 551 21 545 C20 527 45 519 56 533 C62 541 65 555 67 565 C69 576 70 587 70 599 C70 610 71 626 67 637 C63 645 52 650 44 647 L44 647 Z " />
<glyph glyph-name="quoteright" unicode="&#x2019;" horiz-adv-x="88" d="M44 647 C24 641 31 620 32 605 C32 596 31 586 30 577 L26 562 C24 557 21 551 21 545 C20 527 45 519 56 533 C62 541 65 555 67 565 C69 576 70 587 70 599 C70 610 71 626 67 637 C63 645 52 650 44 647 L44 647 Z " />
<glyph glyph-name="quotedblleft" unicode="&#x201c;" horiz-adv-x="203" d="M92 647 C84 647 76 642 73 635 C72 630 72 626 73 622 L73 606 C73 598 72 590 70 581 L67 568 C65 564 63 559 62 554 C61 537 83 527 95 539 C102 545 104 556 106 564 C109 575 111 585 112 596 C113 611 116 648 92 647 L92 647 L92 647 Z M146 647 C138 647 130 642 127 635 C126 630 126 626 127 622 L127 606 C127 598 126 590 124 581 C124 577 122 572 121 568 C119 564 116 559 116 554 C115 537 137 527 149 539 C156 545 158 556 160 564 C163 575 165 585 166 596 C167 611 170 648 146 647 L146 647 Z " />
<glyph glyph-name="quotedblright" unicode="&#x201d;" horiz-adv-x="175" d="M68 647 C60 647 52 642 49 635 C48 630 48 626 49 622 L49 606 C49 598 48 590 46 581 L43 568 C41 564 39 559 38 554 C37 537 59 527 71 539 C78 545 80 556 82 564 C85 575 87 585 88 596 C89 611 92 648 68 647 L68 647 L68 647 Z M122 647 C114 647 106 642 103 635 C102 630 102 626 103 622 L103 606 C103 598 102 590 100 581 C100 577 98 572 97 568 C95 564 92 559 92 554 C91 537 113 527 125 539 C132 545 134 556 136 564 C139 575 141 585 142 596 C143 611 146 648 122 647 L122 647 Z " />
<glyph glyph-name="Euro" unicode="&#x20ac;" horiz-adv-x="283" d="M251 181 C228 186 226 160 218 146 C210 131 194 110 176 110 C145 110 134 137 124 156 C115 174 111 202 107 223 C126 224 145 224 163 224 C171 224 178 223 184 228 C189 233 192 239 191 245 C189 261 175 263 162 263 C143 263 124 263 104 262 C105 266 103 307 106 307 C122 308 137 307 151 307 C160 307 169 305 177 310 C189 319 186 338 172 344 C165 347 154 346 146 346 C135 346 124 346 113 346 C124 393 142 440 175 473 C196 491 212 457 216 442 C219 434 220 421 226 414 C230 409 239 406 246 408 C266 414 259 437 255 451 C242 487 219 526 172 514 C153 509 136 491 125 475 C103 444 78 386 73 347 C60 345 52 346 40 346 C30 346 20 341 18 330 C16 321 21 312 29 308 C34 306 40 306 45 306 C53 306 60 307 67 307 C65 288 66 276 66 261 C53 261 32 261 26 257 C19 252 16 245 18 237 C22 218 43 221 58 222 C60 222 65 222 68 222 C69 217 70 209 71 204 C73 193 75 183 78 173 C87 139 102 102 133 82 C163 63 198 70 224 92 C238 104 249 119 257 136 C263 149 273 176 251 181 L251 181 Z " />
</font>
</svg>
