<?xml version="1.0" encoding="UTF-8"?>
<svg xmlns="http://www.w3.org/2000/svg" xmlns:xlink="http://www.w3.org/1999/xlink" version="1.2" >
<font id="Wosser">
<font-face  font-family="Wosser" units-per-em="1000" ascent="750" descent="-250" font-style="normal" font-weight="400" font-stretch="normal" cap-height="700" x-height="500" underline-position="-75" underline-thickness="50" />
<missing-glyph  horiz-adv-x="157" d="" />
<glyph glyph-name="NULL" d="" />
<glyph glyph-name="nonmarkingreturn" unicode="&#xd;" horiz-adv-x="157" d="" />
<glyph glyph-name="space" unicode="&#x20;" horiz-adv-x="157" d="" />
<glyph glyph-name="e" unicode="e" horiz-adv-x="115" d="M129 348 Q131 347 131 343 Q131 339 129 336 Q124 323 111.5 298 Q99 273 83.5 252 Q68 231 50 220.5 Q32 210 16 227 Q7 237 3 252.5 Q-1 268 -2.5 283 Q-4 298 -3.5 309.5 Q-3 321 -3 323 Q-2 336 0.5 349 Q3 362 8 374 Q13 390 21 401 Q29 417 47 415 Q64 414 69 395 Q71 384 70 373.5 Q69 363 67 352 Q63 329 55 307.5 Q47 286 36 265 Q33 258 36 250 Q41 235 55 248.5 Q69 262 85 284 Q103 310 125 348 L129 348 L129 348 Z " />
<glyph glyph-name="r" unicode="r" horiz-adv-x="203" d="M210 348 Q213 348 212.5 342 Q212 336 210 328.5 Q208 321 205.5 312 Q203 303 201 297 Q200 295 199.5 293.5 Q199 292 198 290 Q195 283 187 265 Q179 247 167 227.5 Q155 208 139.5 192.5 Q124 177 106 175 L105 175 L102 175 Q95 175 89 178 Q82 181 76 187 Q71 191 70 196 Q63 208 62 217 Q58 234 57.5 252.5 Q57 271 59 287 Q61 305 64 324 Q45 316 29 322 Q15 328 7 338 Q-1 348 -4 358 Q-8 369 -8 382 Q-8 384 -7.5 385 Q-7 386 -7 388 Q-5 396 -3 402 Q1 409 9 408 Q18 408 21 400 Q23 392 23 388 Q23 381 22 374 Q21 367 21 360 Q21 355 22 353 Q28 345 37.5 342 Q47 339 57 350 Q80 376 88 404 Q90 409 92 413.5 Q94 418 96 423 Q101 431 108 430 Q118 428 116 418 Q115 411 114 404.5 Q113 398 112 391 Q111 384 110.5 378 Q110 372 109 366 Q106 343 105 321 Q104 299 103 276 Q102 267 102 258 Q102 249 102 240 Q102 238 102 231.5 Q102 225 103 218.5 Q104 212 106 206.5 Q108 201 111 202 Q134 207 152 230.5 Q170 254 183 280 Q198 311 210 348 Z " />
<glyph glyph-name="d" unicode="d" horiz-adv-x="205" d="M213 347 Q219 347 222 342 Q224 337 222.5 325.5 Q221 314 210 292 Q206 284 204 281 Q201 276 198 272 Q195 268 193 265 Q190 261 188 259 Q182 250 174 242 Q170 240 167 237 Q164 234 160 232 Q145 222 130 226 Q115 230 106 246 Q99 257 96 269.5 Q93 282 91 295 Q90 300 89.5 305.5 Q89 311 87 316 L84 307 Q71 275 55 240 Q46 219 28 201 Q15 189 0 188 Q-2 187 -5 187 Q-24 189 -32 200 Q-40 211 -41 225.5 Q-42 240 -38 256.5 Q-34 273 -28.5 287 Q-23 301 -18 310.5 Q-13 320 -13 320 Q0 345 19 361 Q37 377 57 384 Q60 385 62 390 Q68 419 74.5 448.5 Q81 478 86 507 Q91 532 94.5 557 Q98 582 103 608 Q105 615 107.5 622 Q110 629 115 634 Q123 642 131.5 640.5 Q140 639 144 629 Q146 623 147 616 Q148 609 149 602 Q149 579 146.5 557.5 Q144 536 140 513 Q139 508 138.5 504.5 Q138 501 138 496 L138 384 Q138 379 143 376 Q147 374 150 371 Q153 368 156 365 Q157 363 157 362 Q157 361 158 359 Q153 359 152 360 Q149 362 146 364 Q143 366 139 368 Q139 344 138.5 320.5 Q138 297 140 273 Q141 270 143 266.5 Q145 263 150 262 L152 262 Q157 262 163.5 265 Q170 268 178 277 Q186 286 195 303 Q204 320 213 347 Z M38 305 Q42 316 45 326 Q48 336 51 347 Q50 347 50 347.5 Q50 348 49 348 Q47 346 46 344 Q45 342 43 340 Q28 318 15.5 295 Q3 272 -5 246 Q-10 234 -11 222 Q-12 220 -9 215 Q-2 217 -2 218 Q1 222 4 225.5 Q7 229 9 233 Q19 250 25.5 268 Q32 286 38 305 Z " />
<glyph glyph-name="a" unicode="a" horiz-adv-x="175" d="M185 350 Q191 350 194 345 Q196 340 194.5 329 Q193 318 183 296 Q179 288 177 285 Q174 280 171.5 275.5 Q169 271 167 268 Q164 264 162 262 Q156 253 149 246 Q142 239 135 235 Q124 227 114 227 L113 227 L112 227 Q103 228 99 238 Q95 248 93.5 261 Q92 274 93 286.5 Q94 299 94 305 L94 307 Q94 308 95 309 L94 310 Q92 306 89.5 302 Q87 298 84 294 Q77 283 69 272.5 Q61 262 50 254 Q45 249 39 246 Q33 243 25 242 Q8 240 -2.5 249.5 Q-13 259 -14 276 Q-16 310 -3.5 336.5 Q9 363 35 385 Q52 399 71 404.5 Q90 410 110 409 Q133 409 154 396 Q155 395 155 394 Q155 393 156 391 Q152 391 151 392 Q143 396 133 395 Q130 378 127 360 Q125 345 123 326 Q121 307 119 290 Q119 286 119.5 276 Q120 266 125 264 L127 264 L128 264 L129 264 L132 264 Q142 267 156 284 Q170 301 185 350 Z M95 383 Q96 385 97 387 Q98 389 100 391 Q99 392 99 393 Q94 391 89 389.5 Q84 388 79 385 Q50 366 32.5 339.5 Q15 313 12 278 Q12 275 12 272 Q12 269 16 267 Q20 265 22.5 267.5 Q25 270 27 272 Q33 280 38.5 287 Q44 294 49 302 Q61 322 72.5 342.5 Q84 363 95 383 Z " />
<glyph glyph-name="b" unicode="b" horiz-adv-x="122" d="M148 615 Q150 603 148.5 591 Q147 579 145 567 Q136 529 121 491 Q111 466 100 444 Q91 425 79.5 407.5 Q68 390 57 383 Q63 380 66 376 Q69 372 71 369 Q76 354 78 336 Q78 334 79 322 Q80 310 78 294 Q88 297 97 302 Q105 307 113 315.5 Q121 324 126 338 Q127 340 128 343 Q129 346 129 347 Q132 346 134 342 Q138 335 131 319 Q130 317 126.5 310.5 Q123 304 116 296.5 Q109 289 98.5 283 Q88 277 75 276 Q73 264 69 253 Q65 244 59.5 234.5 Q54 225 46 220 Q44 218 40 216 Q38 216 37 215 L31 215 Q14 215 7 230 Q6 233 5 236.5 Q4 240 3 244 Q-7 290 -4 330 Q-1 370 6 400 Q14 435 28 465 Q34 482 40.5 498 Q47 514 54 530 Q62 548 71.5 565.5 Q81 583 92 600 Q97 608 103.5 614.5 Q110 621 118 626 Q125 631 132 631 Q139 632 143 627 Q147 622 148 615 Z M108 562 Q91 521 77 480 Q63 439 50 396 L52 396 Q53 398 54 399 Q55 400 56 402 Q60 413 64 422 Q68 431 72 442 Q79 463 85 484 Q91 505 98 526 Q101 535 103.5 544 Q106 553 109 561 L108 562 Z M35 271 Q36 272 36 274 Q36 278 37 281 Q34 283 31 285 Q28 287 26 289 L26 268 Q26 258 26.5 250.5 Q27 243 28 241 Q30 245 31.5 248 Q33 251 33 256 Q35 266 35 271 Z M42 356 Q42 359 41 362.5 Q40 366 35 368 Q34 364 34 360.5 Q34 357 33 353 Q32 353 32 351 Q31 349 31 347 Q31 345 30 343 Q29 335 29.5 330 Q30 325 31 320 L31 319 Q33 311 37 308 L40 305 Q41 314 41.5 323.5 Q42 333 41 341 Q41 351 42 356 Z " />
<glyph glyph-name="c" unicode="c" horiz-adv-x="132" d="M143 347 Q145 346 145 343 Q145 340 143 337 Q138 326 127 307 Q116 288 102 270 Q95 260 86 251 Q78 243 68 234.5 Q58 226 45 221 Q31 214 13 214 L12 214 L7 214 Q4 214 -2 216 Q-8 218 -11 220 Q-23 228 -27.5 249.5 Q-32 271 -16 312 Q-8 333 2.5 347 Q13 361 23.5 370.5 Q34 380 44 385.5 Q54 391 61 393 L73 396 L74 396 Q82 398 88 396 Q97 394 101 390.5 Q105 387 105.5 382.5 Q106 378 105 374.5 Q104 371 104 370 Q103 368 102.5 366.5 Q102 365 100 363 Q95 352 81 357 Q76 358 71 363 Q69 365 68.5 367.5 Q68 370 70 370 Q72 371 74 369 L74 368 Q80 362 84 362 Q91 362 95 371 Q96 373 96 374 Q96 375 97 377 Q99 388 92.5 389.5 Q86 391 80 389 Q78 388 76 387.5 Q74 387 72 386 Q69 384 66.5 382.5 Q64 381 63 381 Q60 379 57 376 L55 374 Q53 372 53 371 Q36 354 28 330 Q23 318 18.5 306.5 Q14 295 11 282 Q9 274 7 260 Q7 257 6.5 251.5 Q6 246 7.5 241 Q9 236 11.5 232.5 Q14 229 20 230 Q22 230 23 230.5 Q24 231 26 231 Q30 233 31 233 Q37 237 41 239 Q47 242 52.5 246 Q58 250 63 255 Q70 260 76 266 Q82 272 88 278 Q97 289 105.5 300.5 Q114 312 122 323 Q131 335 139 348 Q141 348 143 347 Z " />
<glyph glyph-name="f" unicode="f" horiz-adv-x="92" d="M-8 272 Q-12 273 -14 273.5 Q-16 274 -18 274 Q-26 277 -26 283 Q-26 290 -19 290 Q-11 291 -8 296 Q-5 301 -3 309 Q3 348 9 387.5 Q15 427 22 466 Q27 497 33.5 527.5 Q40 558 49 587 Q53 598 57.5 609 Q62 620 70 628 Q71 630 73 632 Q78 637 83.5 639 Q89 641 97 639 Q114 633 117 616 Q119 604 119 592 Q119 580 117 568 Q114 539 106 511 Q98 483 88 455 Q77 426 66.5 397 Q56 368 45 339 Q43 332 42 324.5 Q41 317 39 308 Q41 310 43 310 Q45 310 47 311 Q56 315 65.5 318 Q75 321 84 325 Q100 331 107 316 Q110 309 107.5 302.5 Q105 296 97 294 Q83 290 68.5 286.5 Q54 283 39 280 Q35 279 35 275 Q33 260 31 245.5 Q29 231 27 217 Q25 197 22 177.5 Q19 158 17 138 L8 63 Q5 43 2 24 Q-1 5 -5 -15 Q-5 -21 -8 -25 Q-11 -35 -22 -33 Q-33 -31 -35 -19 Q-38 -2 -38 15.5 Q-38 33 -37 50 L-31 122 L-16 230 Q-15 232 -15.5 234 Q-16 236 -16 238 L-16 242 Q-14 250 -12 257 Q-10 264 -8 272 Z M89 611 Q81 589 77 566 Q73 543 69 520 Q75 543 80.5 565.5 Q86 588 89 611 Z " />
<glyph glyph-name="g" unicode="g" horiz-adv-x="198" d="M147 309 Q154 315 164 322.5 Q174 330 184 336.5 Q194 343 201.5 346 Q209 349 211 346 Q200 338 187 327 Q176 318 161.5 306 Q147 294 133 280 Q131 248 126.5 213 Q122 178 114.5 146.5 Q107 115 95.5 90.5 Q84 66 69 55 Q61 51 56 49 Q53 48 46 48 Q32 48 22 61 Q13 76 11 97 Q10 138 25 178 Q26 179 29.5 186.5 Q33 194 38.5 204.5 Q44 215 51 226 Q58 237 66 245 Q57 239 45 233 Q33 227 20 225.5 Q7 224 -4 230 Q-15 236 -22 254 Q-25 271 -20 289 Q-15 307 -8 321 Q4 348 21 371 Q38 394 62 412 Q76 421 90 427 Q120 438 140 412 Q153 396 157 379 Q159 372 155 371 Q149 368 147 374 L138 389 Q137 373 137 357.5 Q137 342 136 326 Q136 320 135.5 313.5 Q135 307 135 300 L138 303 L147 309 Z M47 344 Q33 323 24 305 Q16 290 13 277.5 Q10 265 18 263 L20 263 Q28 263 34 266 Q54 273 69 296 Q84 319 95 343 Q107 371 117 405 Q112 405 109 404 Q94 398 82 386 Q71 376 63 365.5 Q55 355 47 344 Z M82 183 Q84 191 84.5 198 Q85 205 87 213 L86 213 Q82 209 79 203 Q56 166 45 117 Q40 98 43 80 Q43 80 45 74 Q47 77 49.5 80 Q52 83 54 86 Q57 91 59.5 97 Q62 103 64 109 Q69 127 73 145.5 Q77 164 82 183 Z " />
<glyph glyph-name="h" unicode="h" horiz-adv-x="188" d="M194 347 Q200 347 203 342 Q205 337 203.5 325.5 Q202 314 191 292 Q187 284 185 281 Q179 270 175 265 Q172 261 170 259 Q166 254 162.5 250 Q159 246 155 242 Q152 240 148.5 237 Q145 234 141 232 Q131 225 119 225 Q108 225 103 231 Q98 237 96 245 Q93 254 94 265 Q94 275 94 284.5 Q94 294 95 304 Q97 318 99 332 Q101 346 103 360 L103 365 Q99 362 96 359.5 Q93 357 89 354 Q84 349 75.5 337 Q67 325 54 300 Q46 284 38 268.5 Q30 253 22 237 Q20 233 20 230 Q20 227 18 223 Q15 211 4 213 Q-6 213 -8 224 Q-9 235 -10 245 Q-11 255 -10 266 Q-9 295 -5.5 324 Q-2 353 4 382 Q9 407 13.5 431 Q18 455 24 479 Q32 509 42.5 537.5 Q53 566 70 592 Q78 605 87 614.5 Q96 624 110 630 Q130 637 152 631 Q171 626 169 606 Q167 592 163 579.5 Q159 567 154 554 Q139 521 116 495.5 Q93 470 63 450 Q60 447 59 445 L50 388 Q50 388 48.5 380.5 Q47 373 45.5 363.5 Q44 354 42.5 345.5 Q41 337 41 334 L46 339 Q48 341 51 343.5 Q54 346 58 350 Q63 354 67 358 Q71 361 76 365 Q81 369 87 372 Q95 377 102.5 377.5 Q110 378 114 372 Q114 370 116 366 Q116 364 117 362 L116 362 Q121 345 121.5 327 Q122 309 122 292 L122 277 L122 276 Q122 274 123.5 268.5 Q125 263 132 262 L133 262 Q138 262 145 265 Q152 268 160 277 Q168 286 176.5 303 Q185 320 194 347 Z M78 525 Q74 514 71.5 502.5 Q69 491 65 479 Q72 485 84.5 503 Q97 521 109.5 542.5 Q122 564 131.5 583 Q141 602 142 610 Q139 610 136 610.5 Q133 611 131 610 Q123 609 117.5 604.5 Q112 600 107 593 Q97 577 90.5 559.5 Q84 542 78 525 Z " />
<glyph glyph-name="i" unicode="i" horiz-adv-x="130" d="M56 440 Q56 427 45 422 Q32 417 27 427 Q23 433 24 439 Q25 445 30 450 Q37 456 44 455 Q51 454 54 447 Q55 445 55 443.5 Q55 442 56 440 Z M149 347 Q152 345 151.5 339.5 Q151 334 148.5 326.5 Q146 319 143 311.5 Q140 304 138 298 Q137 295 135 291 Q132 285 123.5 269 Q115 253 102 237 Q89 221 73.5 210 Q58 199 40 203 Q40 203 39 204 L38 204 L36 204 Q23 208 11 225 L5 237 Q0 251 -1.5 264 Q-3 277 -1 290 Q-1 307 2 324 Q6 371 16.5 384.5 Q27 398 38 394 Q44 392 46 384 Q48 376 48 369 Q46 353 45 338 Q44 323 42 307 L39 271 Q39 269 39 262.5 Q39 256 39.5 249 Q40 242 41.5 236 Q43 230 46 229 Q68 227 87 245 Q106 263 120 286 Q136 312 149 347 Z " />
<glyph glyph-name="j" unicode="j" horiz-adv-x="77" d="M104 436 Q104 429 97 429 Q89 427 82 426.5 Q75 426 67 424 Q56 422 45.5 419 Q35 416 24 413 Q21 413 21 410 Q22 402 22 393.5 Q22 385 23 377 Q25 360 26 342 Q27 324 28 306 Q29 303 29 295 L90 346 Q90 345 91 344 Q93 338 93 334 Q93 324 86.5 317 Q80 310 74 303 Q60 287 48 271 Q43 265 38.5 258.5 Q34 252 29 245 Q29 212 28 187 Q27 162 27 160 Q25 133 21 106 Q17 79 9 52 Q2 25 -8 -1 Q-18 -27 -33 -51 Q-39 -60 -45.5 -68.5 Q-52 -77 -61 -84 Q-70 -90 -80 -93 Q-96 -97 -106 -83 Q-112 -74 -114.5 -64.5 Q-117 -55 -119 -45 Q-123 -22 -120.5 2 Q-118 26 -113 49 Q-87 162 -13 251 Q-9 257 -7 263 L5 408 Q0 406 -4 404.5 Q-8 403 -13 401 Q-19 398 -25 395 Q-31 392 -38 389 Q-39 388 -44 388 Q-43 390 -43 391.5 Q-43 393 -41 394 Q-29 404 -13 413 Q2 421 18.5 427.5 Q35 434 52 438 Q62 440 72 440.5 Q82 441 93 443 L96 443 Q103 441 104 436 Z M-86 -67 Q-51 -10 -35.5 51 Q-20 112 -12 175 Q-12 176 -13 176 Q-15 174 -15.5 172 Q-16 170 -18 168 Q-54 110 -76 42 Q-83 19 -87.5 -4.5 Q-92 -28 -91 -53 Q-91 -57 -89 -67 L-86 -67 Z " />
<glyph glyph-name="k" unicode="k" horiz-adv-x="185" d="M197 347 Q203 347 206 342 Q208 337 206.5 325.5 Q205 314 194 292 Q190 284 188 281 Q185 276 182 272 Q179 268 177 265 Q174 261 172 259 Q165 249 157 242 Q154 240 151 237 Q148 234 144 232 Q133 225 121 225 Q110 225 105 231 Q100 237 98 245 Q95 254 96 265 Q96 275 96.5 284.5 Q97 294 98 304 Q100 318 102 332 Q104 346 106 360 Q106 363 105 365 Q99 360 92.5 354.5 Q86 349 80 344 Q68 333 58.5 321 Q49 309 43 294 Q40 288 39 281.5 Q38 275 36 268 Q33 254 30 240.5 Q27 227 24 213 Q22 207 16 202 Q11 198 5 200 Q-1 202 -3 208 Q-5 216 -5 220 Q-8 238 -7.5 256 Q-7 274 -5 292 Q-4 306 -2.5 320.5 Q-1 335 1 350 Q1 350 -1 351 Q-2 353 -3.5 354 Q-5 355 -5 356 Q-4 358 -1 361 Q4 362 5 367 Q12 399 18.5 431.5 Q25 464 33 496 Q39 522 46.5 547 Q54 572 66 596 Q72 608 80 619 Q88 630 99 639 Q103 642 113 646 Q124 649 131.5 644 Q139 639 140 628 Q142 613 140 599 Q138 579 131.5 561.5 Q125 544 118 526 Q110 509 103.5 492.5 Q97 476 89 460 Q82 446 74.5 432.5 Q67 419 60 405 Q57 400 56.5 393.5 Q56 387 54 381 Q54 381 56 380 Q58 383 60.5 385.5 Q63 388 65 391 Q76 401 86.5 409.5 Q97 418 110 425 Q112 427 114 427 Q128 432 135 420 Q143 411 132 400 Q127 395 121.5 390.5 Q116 386 111 381 Q110 380 109 379.5 Q108 379 107 377 Q113 376 115 373 Q117 370 118 366 Q123 347 123.5 329 Q124 311 124 292 Q124 282 125 277 L125 276 Q125 274 126.5 268.5 Q128 263 134 262 L136 262 Q141 262 147.5 265 Q154 268 162 277 Q170 286 179 303 Q188 320 197 347 Z M104 604 Q100 594 97 585 Q94 576 90 566 Q90 566 91 565 Q95 575 98.5 584 Q102 593 106 603 Q105 603 104 604 Z " />
<glyph glyph-name="l" unicode="l" horiz-adv-x="103" d="M64 452 Q60 448 59 446 Q56 441 55 436 Q54 431 53 425 Q49 390 47 353.5 Q45 317 43 281 Q43 279 44 271 Q45 263 52 262 L53 262 L54 262 Q59 262 65.5 265 Q72 268 80 277 Q88 286 96.5 303 Q105 320 114 347 Q120 347 123 342 Q125 337 123.5 325.5 Q122 314 111 292 Q107 284 105 281 Q99 270 95 265 Q92 261 90 259 Q86 254 83 250 Q80 246 75 242 Q72 240 68.5 237 Q65 234 61 232 Q51 225 39 225 L38 225 L34 225 Q19 227 11.5 243 Q4 259 1.5 280 Q-1 301 -0.5 321.5 Q0 342 1 353 Q2 355 2 360 Q7 403 14.5 444.5 Q22 486 34 526 Q39 544 45.5 561.5 Q52 579 61 596 Q67 607 75 614.5 Q83 622 95 627 Q97 628 98.5 628 Q100 628 102 629 Q124 629 130 607 Q132 598 132 589.5 Q132 581 130 573 Q125 553 118.5 535.5 Q112 518 101 501 Q100 499 98 497 Q93 488 81.5 474 Q70 460 64 452 Z M73 530 Q66 504 62 480 Q62 479 63 479 Q67 486 70 492.5 Q73 499 76 506 Q81 520 86.5 534 Q92 548 97 562 Q100 572 103 581 Q106 590 108 600 Q109 602 108.5 605 Q108 608 108 611 Q106 610 105 610 Q104 610 103 609 L97 603 Q88 586 83 568 Q78 550 73 530 Z " />
<glyph glyph-name="m" unicode="m" horiz-adv-x="300" d="M309 347 Q311 347 311 341.5 Q311 336 310.5 328.5 Q310 321 308 313.5 Q306 306 305 300 Q305 298 304.5 296.5 Q304 295 304 293 Q302 287 297 270 Q292 253 283 235 Q274 217 262 202 Q250 187 235 185 L234 185 L232 185 L226 185 Q206 192 199.5 211.5 Q193 231 193 253 Q193 264 194 276 Q195 288 197 297 Q199 308 202 317 L202 319 L203 320 Q204 324 205 328 Q206 332 207 336 Q210 348 212.5 360.5 Q215 373 218 386 Q218 390 219 392 Q193 376 170 350 Q150 327 130.5 292.5 Q111 258 102 207 Q91 208 86.5 222 Q82 236 81.5 255.5 Q81 275 83.5 295 Q86 315 88 328 Q89 332 89 335.5 Q89 339 90 343 L99 397 Q101 406 101 414.5 Q101 423 102 432 Q102 434 101.5 434.5 Q101 435 101 437 L100 437 Q98 433 95.5 429 Q93 425 91 420 Q76 390 63.5 358 Q51 326 40 294 Q35 280 31 267 Q27 254 23 240 Q21 236 21 235 Q16 225 9 228 Q-1 230 -1 240 Q-2 248 -2.5 256 Q-3 264 -3 272 Q-1 295 0.5 318 Q2 341 4 364 L4 383 Q6 403 9.5 420 Q13 437 18 438 Q23 440 25 431.5 Q27 423 28 418 Q30 410 30.5 401.5 Q31 393 32 385 Q32 380 33 378 Q34 380 34 380.5 Q34 381 35 383 Q43 403 52 421.5 Q61 440 74 456 Q79 462 84 466.5 Q89 471 96 475 Q104 480 112 476.5 Q120 473 124 462 Q132 443 132 419 Q134 399 131.5 379.5 Q129 360 127 340 L127 336 L127 335 Q129 339 131 342 Q133 345 135 348 Q147 368 161 385.5 Q175 403 193 417 Q199 422 206 425.5 Q213 429 221 431 Q229 433 236.5 429 Q244 425 246 414 Q249 399 249 382 Q246 342 237 305 L234 296 Q231 283 228 259.5 Q225 236 230 217 Q234 209 237 210 Q256 215 269.5 237 Q283 259 292 284 Q303 312 309 347 Z " />
<glyph glyph-name="p" unicode="p" horiz-adv-x="143" d="M117 329 Q130 338 140.5 344.5 Q151 351 154 347 Q146 341 137 333 Q129 326 119 317.5 Q109 309 98 298 Q95 285 91 273 Q87 261 81 249 Q76 240 70.5 232 Q65 224 57 216 Q50 211 43 211 Q33 211 29 219 Q28 221 27.5 221.5 Q27 222 26 224 L25 224 Q24 216 24 208 Q24 200 23 192 Q21 166 18.5 141 Q16 116 11 90 Q9 81 8 72.5 Q7 64 5 56 Q3 50 1 47 Q-3 42 -10 43 Q-18 44 -19 52 Q-21 58 -21 62 Q-23 78 -22.5 93 Q-22 108 -20 123 Q-18 146 -15.5 168 Q-13 190 -11 212 Q-7 244 -4 276.5 Q-1 309 3 341 Q5 357 8 372 Q11 387 14 403 Q15 408 15 414 Q15 420 16 425 Q16 427 17 428 Q20 425 20 426 L26 402 Q26 399 27 397 Q31 404 37 410 Q38 414 43 416 Q46 418 52 419.5 Q58 421 66 417 Q66 417 67 416 Q68 416 68.5 415.5 Q69 415 70 415 L76 409 L77 409 L77 408 Q78 408 78 407.5 Q78 407 79 407 L79 406 Q80 406 80 405 Q88 396 92.5 383 Q97 370 98.5 357.5 Q100 345 100 334.5 Q100 324 100 318 Q104 320 107 322 Q110 324 112 326 Q115 328 117 329 Z M28 297 L26 262 L28 260 Q29 259 34 259 Q43 272 61 287 Q62 291 66 301 Q71 318 73 332.5 Q75 347 74 358 Q73 370 70 380 Q68 386 66.5 391.5 Q65 397 62 402 Q54 416 45 404 Q42 399 39 393.5 Q36 388 32 383 Q28 378 28 368 Q29 358 29 348.5 Q29 339 29 330 Q29 322 28.5 314 Q28 306 28 298 L28 297 Z " />
<glyph glyph-name="q" unicode="q" horiz-adv-x="159" d="M139 311 Q143 316 149 323 Q155 330 161 335.5 Q167 341 172 344.5 Q177 348 179 347 Q165 332 152 315 Q141 301 129 283.5 Q117 266 109 249 L108 248 Q106 244 105 241 Q104 238 103 234 Q102 233 102 232 Q102 231 101 229 L86 92 L85 82 Q84 76 82.5 67.5 Q81 59 78.5 52.5 Q76 46 72 42 Q68 38 62 40 Q53 44 50 57 Q45 86 48.5 114.5 Q52 143 60 169 Q60 172 60.5 175 Q61 178 61 181 Q66 211 69.5 240.5 Q73 270 77 300 Q80 313 80 327 Q78 322 75.5 316 Q73 310 71 305 Q64 291 58 278 Q52 265 45 252 Q41 244 34 237 Q30 233 23 231 Q16 229 10.5 233.5 Q5 238 3 246 Q-1 260 -2 273 Q-3 286 -2 300 Q-1 335 13 368 Q21 385 32.5 396.5 Q44 408 62 415 Q67 416 71 416 Q75 416 80 417 Q85 417 87 420 Q87 421 89 423 Q94 428 100 426 Q105 425 107 418 Q108 410 109 403 Q110 396 110 388 Q112 361 110.5 334.5 Q109 308 107 281 L106 268 Q114 281 122 291 Q130 301 133 305 L139 311 Z M28 277 Q39 311 51 344.5 Q63 378 81 410 Q76 408 76 408 Q49 398 40 371 Q35 355 32.5 339.5 Q30 324 29 307 Q28 299 27.5 292 Q27 285 27 277 L28 277 Z " />
<glyph glyph-name="s" unicode="s" horiz-adv-x="120" d="M125 345 Q133 348 135 347 Q134 346 132 345 Q130 344 128 342.5 Q126 341 124 339 Q99 318 81 295 Q63 272 52 257 Q59 231 60.5 213 Q62 195 62 193 Q62 188 62 183 Q62 178 61 173 Q59 154 54 136.5 Q49 119 36 104 Q23 90 6 87 Q-5 85 -13 93 Q-28 106 -30 127 Q-32 143 -28.5 157.5 Q-25 172 -20 186 Q-5 227 20 262 Q-2 305 -8 340 Q-11 355 -10.5 370 Q-10 385 -5 397 Q0 409 11 417.5 Q22 426 42 428 L52 428 Q57 428 63 427 Q69 426 75 424 Q84 421 88 409 Q88 408 87.5 407 Q87 406 87 405 Q85 406 83 408 Q80 416 71 418 Q60 419 49.5 417.5 Q39 416 30 408 Q19 398 16 386 Q13 374 15 360 Q17 351 20 343.5 Q23 336 27 328 L33 313 Q41 296 45 282 Q55 292 75 309.5 Q95 327 115 339 Q117 341 120 342 Q123 343 125 345 Z M28 166 Q31 186 29 212 Q26 209 26 208 Q22 203 19 197 Q16 191 13 186 Q6 173 1 160.5 Q-4 148 -6 134 Q-8 125 -6 116 Q-3 104 7 112 Q10 115 14 121 Q25 140 28 166 Z " />
<glyph glyph-name="t" unicode="t" horiz-adv-x="122" d="M163 522 Q171 516 166 509 Q157 495 140.5 491 Q124 487 110 485 Q99 484 87.5 484.5 Q76 485 65 488 Q64 480 63.5 474 Q63 468 63 465 Q55 405 48 346.5 Q41 288 40 227 L40 224 Q41 221 42 217.5 Q43 214 47 216 Q49 216 49 217 Q50 217 51 218 Q70 229 85.5 250.5 Q101 272 112 294 Q124 320 134 348 Q137 348 136.5 342.5 Q136 337 134.5 329.5 Q133 322 130 314 Q127 306 125 300 Q123 296 122 293 Q120 288 114.5 275.5 Q109 263 100 248.5 Q91 234 79.5 219.5 Q68 205 55 196 L54 195 L53 195 Q36 184 27 189.5 Q18 195 13 203 L13 204 Q9 212 7.5 220.5 Q6 229 4 237 Q0 266 1 293.5 Q2 321 6 349 Q11 387 18 423.5 Q25 460 35 497 Q35 498 35.5 499 Q36 500 36 502 Q22 506 8.5 509.5 Q-5 513 -19 516 Q-24 517 -28 516.5 Q-32 516 -37 516 Q-50 515 -59 501 Q-60 500 -62 498.5 Q-64 497 -65 498 Q-68 500 -66.5 501.5 Q-65 503 -64 505 Q-55 520 -37 523 Q-23 525 -10 523.5 Q3 522 17 520 Q25 518 37 516 Q41 515 42 518 Q47 535 50.5 553 Q54 571 59 588 Q60 590 61 590.5 Q62 591 63 593 Q64 591 64.5 590.5 Q65 590 66 588 Q70 570 69.5 552.5 Q69 535 67 517 L67 516 L67 508 Q85 502 108 504 Q114 505 120 506 Q126 507 132 509 Q137 511 142 512.5 Q147 514 149 518 Q154 527 163 522 Z " />
<glyph glyph-name="u" unicode="u" horiz-adv-x="210" d="M225 348 Q228 348 227.5 342 Q227 336 225 328.5 Q223 321 220.5 312 Q218 303 216 297 Q215 295 214.5 293.5 Q214 292 213 290 Q210 283 202 265 Q194 247 182 227.5 Q170 208 154.5 192.5 Q139 177 121 175 L120 175 L119 175 L117 175 Q110 175 104 178 Q97 181 91 187 Q86 191 85 196 Q78 208 77 217 Q75 223 74.5 229.5 Q74 236 73 243 Q68 235 62 229 Q57 224 49.5 218.5 Q42 213 34 211 L32 211 Q22 209 13 213.5 Q4 218 -1 228 Q-8 242 -8 260 Q-8 279 -7 297.5 Q-6 316 -1 334 Q2 351 5.5 367 Q9 383 13 400 Q15 404 16 407 Q17 410 19 414 Q19 415 23 415 Q23 414 23.5 413.5 Q24 413 24 412 Q23 402 22.5 393 Q22 384 21 375 Q20 346 19.5 318.5 Q19 291 18 263 Q18 257 18.5 250.5 Q19 244 20 238 Q20 236 21 235.5 Q22 235 23 233 Q27 235 28 237 Q33 247 37.5 256.5 Q42 266 47 277 Q55 297 63 316 Q71 335 79 355 Q87 371 94 386 Q101 401 109 417 Q110 418 110 418.5 Q110 419 111 420 Q116 428 124 426 Q132 424 132 415 Q132 407 131.5 398.5 Q131 390 130 382 Q127 360 124 338 Q121 316 118 294 L118 292 L118 276 Q117 267 117 258 Q117 249 117 240 Q117 238 117 231.5 Q117 225 118 218.5 Q119 212 121 206.5 Q123 201 126 202 Q149 207 167 230.5 Q185 254 198 280 Q213 311 225 348 Z " />
<glyph glyph-name="v" unicode="v" horiz-adv-x="148" d="M158 346 Q160 349 164 347 Q163 345 161 343 Q159 341 157 339.5 Q155 338 153 336 Q151 334 144.5 333 Q138 332 125 335 Q122 335 120 336 L119 336 Q119 336 118 337 Q115 338 109.5 340 Q104 342 98 347 Q95 345 93.5 343 Q92 341 91 340 Q91 340 89 336 Q76 306 65 275.5 Q54 245 46 213 L40 186 Q38 182 38 182 Q36 175 29 174 Q20 174 17 180 Q12 186 11 193 Q4 213 2 234 Q0 255 0 275 Q0 302 2 329 Q4 356 7 382 Q9 390 10.5 396.5 Q12 403 14 411 Q9 410 5 409 Q1 408 -4 407 Q-8 405 -8 409 Q-8 411 -4.5 412.5 Q-1 414 0 414 Q10 416 15 418 Q25 419 26 412 Q28 398 29 384 Q30 370 30 356 Q31 339 31.5 322.5 Q32 306 33 289 Q33 289 34 288 Q34 289 36 293 Q41 308 47 322 Q53 336 62 350 Q63 351 63 351.5 Q63 352 64 353 Q71 361 77.5 364 Q84 367 90 367 Q96 367 103 363 Q107 361 110 358 Q113 355 116 353 Q124 348 136.5 343 Q149 338 158 346 Z " />
<glyph glyph-name="w" unicode="w" horiz-adv-x="262" d="M230 318 Q222 318 216 322 Q210 326 205.5 332 Q201 338 198.5 344 Q196 350 195 353 L195 355 Q193 351 193 350 Q181 322 169 294.5 Q157 267 145 240 Q142 232 137.5 225.5 Q133 219 128 213 Q123 207 116 204 Q108 200 100.5 203 Q93 206 90 213 Q86 222 84.5 231 Q83 240 82 249 Q80 263 80 277 Q80 291 79 305 L79 308 L78 309 Q76 304 74.5 299 Q73 294 71 289 Q62 266 52 245 Q50 241 46.5 237 Q43 233 38 231 Q31 227 23.5 229.5 Q16 232 13 239 Q10 244 8.5 250 Q7 256 5 262 Q-5 302 -5 345 Q-4 355 -4 364.5 Q-4 374 -3 383 Q-3 383 -2 389.5 Q-1 396 1 403.5 Q3 411 5 417.5 Q7 424 10 424 L12 424 Q15 421 15 418 Q16 414 16 410.5 Q16 407 17 402 Q19 384 21 366 Q23 348 25 330 Q27 316 28 302 Q29 288 31 274 Q32 273 32 272 Q32 271 33 269 Q35 274 35.5 278 Q36 282 38 287 Q43 308 49.5 328.5 Q56 349 65 369 Q68 375 72 381.5 Q76 388 80 394 Q82 397 85 399 Q90 402 95 400 Q100 398 102 393 Q103 388 103.5 383.5 Q104 379 105 374 L111 293 Q112 282 112.5 270 Q113 258 113 247 Q113 246 114 245 Q115 246 115 247 Q115 248 116 249 Q122 267 128 285 Q134 303 141 321 Q148 338 155 355 Q162 372 170 389 Q174 399 182 410 Q183 414 187 416 Q197 421 203 412 Q205 408 205 407 Q210 390 213.5 374.5 Q217 359 221 342 L224 336 Q226 331 231 329 Q236 327 241 327 Q243 328 244.5 328 Q246 328 248 329 Q249 330 250 330 Q251 330 252 331 Q260 336 270 347 L272 345 Q270 339 266 335 Q263 331 258 327 Q253 323 245 321 Q239 318 232 318 L230 318 Z " />
<glyph glyph-name="x" unicode="x" horiz-adv-x="155" d="M186 452 Q188 443 179 440 Q170 435 163.5 429 Q157 423 149 417 Q126 396 106.5 372.5 Q87 349 69 324 Q66 319 62.5 314.5 Q59 310 56 305 Q55 304 55 300 Q59 278 65 263 Q70 250 77.5 241.5 Q85 233 96 241 Q113 249 126.5 266 Q140 283 150 301 Q161 322 170 347 Q175 346 170.5 332 Q166 318 163 309 L160 303 Q157 295 144.5 271.5 Q132 248 112 231 Q106 226 97 221.5 Q88 217 77 217 Q74 218 70.5 218.5 Q67 219 65 221 Q60 222 57 226 L57 227 Q50 232 46 239.5 Q42 247 39 254 Q35 262 33 269 Q28 261 23.5 253.5 Q19 246 14 238 Q6 225 -1.5 212.5 Q-9 200 -17 188 L-20 182 Q-21 182 -21.5 181.5 Q-22 181 -23 181 Q-23 182 -23.5 182.5 Q-24 183 -24 184 Q-22 193 -19.5 202.5 Q-17 212 -13 221 Q-8 234 -3.5 246 Q1 258 6 270 Q9 278 13 285.5 Q17 293 21 301 Q23 305 22 309 Q15 340 10 370.5 Q5 401 4 433 Q4 438 4 442.5 Q4 447 3 452 Q3 452 2 454 Q0 452 -2.5 450.5 Q-5 449 -7 447 Q-13 441 -17 438 L-20 438 Q-20 441 -19 442 Q-16 445 -12.5 448 Q-9 451 -6 455 L0 458 Q7 461 10 454 Q12 449 13.5 444 Q15 439 17 434 Q22 417 27 401 Q32 385 37 368 Q39 361 40.5 354.5 Q42 348 44 340 Q45 342 47 344 Q58 362 71 379.5 Q84 397 99 413 Q111 426 124.5 436.5 Q138 447 155 455 Q160 457 164.5 458 Q169 459 174 460 Q184 462 186 452 Z " />
<glyph glyph-name="y" unicode="y" horiz-adv-x="174" d="M176 345 Q184 348 186 347 Q185 346 183 345 Q181 344 179.5 342.5 Q178 341 176 339 Q151 319 133 296.5 Q115 274 104 258 L100 226 Q97 204 92.5 182.5 Q88 161 83 140 Q78 122 71 105 Q64 88 54 73 Q49 67 44.5 62 Q40 57 34 53 Q14 45 1 62 Q-9 78 -9 98 Q-9 100 -9.5 102.5 Q-10 105 -9 108 Q-8 129 -3.5 147.5 Q1 166 8 182 Q13 195 19.5 205.5 Q26 216 33 225 L34 225 Q34 227 35 227 Q35 227 37 229 L37 230 Q42 236 46.5 241 Q51 246 56 251 Q63 257 69 262.5 Q75 268 81 273 L82 279 L82 284 L84 302 Q84 304 84.5 304.5 Q85 305 85 306 L85 309 Q85 313 86 316.5 Q87 320 88 324 L87 325 Q85 322 83.5 319 Q82 316 80 314 Q64 291 42 272 Q33 263 22 262 Q2 259 -3 280 Q-5 289 -4.5 297.5 Q-4 306 -2 314 Q2 339 11.5 361 Q21 383 35 403 L47 421 Q48 423 48.5 423 Q49 423 50 424 Q50 423 50.5 422 Q51 421 50 419 Q45 405 40 391 Q35 377 30 363 Q25 348 22 332.5 Q19 317 16 301 Q15 296 15 292 Q15 288 15 283 Q15 281 17 279 Q17 280 18 280 Q19 280 20 281 Q28 289 35 296.5 Q42 304 48 312 Q62 331 74.5 349.5 Q87 368 101 387 L104 390 Q107 397 113 393 Q118 391 118 385 Q118 380 117.5 374.5 Q117 369 116 364 L113 334 L108 293 Q119 304 135 317 Q151 330 166 339 Q168 341 171 342 Q174 343 176 345 Z M61 181 Q64 192 66.5 203.5 Q69 215 71 227 L70 227 L69 226 Q47 198 34 167 Q26 150 21.5 133 Q17 116 16 98 Q15 93 15.5 89 Q16 85 16 81 Q17 79 18 78 Q19 77 20 75 Q21 76 22.5 76.5 Q24 77 24 78 Q30 87 34 95 Q50 136 61 181 Z " />
<glyph glyph-name="z" unicode="z" horiz-adv-x="165" d="M176 345 Q176 345 176 342.5 Q176 340 171 334 Q166 328 154.5 317.5 Q143 307 122 289 Q119 269 115 248 Q111 230 105 208 Q99 186 89 163 Q87 160 85.5 156.5 Q84 153 82 149 Q70 126 55.5 105 Q41 84 19 67 Q14 62 7.5 59 Q1 56 -6 51 Q-7 51 -7.5 50.5 Q-8 50 -9 50 Q-26 45 -31 59 Q-37 73 -34 87 Q-30 105 -22.5 122.5 Q-15 140 -7 157 Q31 226 89 282 L91 282 Q93 284 93.5 285.5 Q94 287 96 289 Q99 291 101 294 Q103 304 104 308 Q104 310 103 311 Q100 311 92.5 306 Q85 301 74 292.5 Q63 284 47 273.5 Q31 263 11 254 Q-4 247 -1 259 Q2 271 15 291.5 Q28 312 46.5 336.5 Q65 361 79 379 L100 403 Q81 389 64 377 Q50 366 34.5 355.5 Q19 345 11 339 Q5 335 1 337 Q-7 342 0.5 350 Q8 358 22 368 Q42 385 60 396 Q75 406 90.5 413 Q106 420 114 418 Q120 416 117 409 Q115 399 113 395 Q105 377 93.5 360 Q82 343 70 326 Q67 321 63 315.5 Q59 310 56 305 Q55 304 55 302 Q58 305 61.5 307.5 Q65 310 69 312 Q75 315 81.5 318.5 Q88 322 94 325 Q102 327 107 327 Q118 329 120 319 Q121 317 121 315.5 Q121 314 122 312 L122 308 L122 306 L175 345 L176 345 Z M49 166 Q56 178 61 189 Q66 198 69 207.5 Q72 217 70 223 Q52 200 38 177 Q26 157 14.5 134 Q3 111 0 91 Q14 110 26.5 128.5 Q39 147 49 166 Z " />
<glyph glyph-name="A" unicode="A" horiz-adv-x="385" d="M289 166 L328 166 L346 166 Q362 164 362 149 Q362 135 346 133 Q333 132 320.5 132 Q308 132 294 131 Q289 131 289 125 Q290 93 293.5 61 Q297 29 305 -3 Q310 -23 317.5 -43 Q325 -63 338 -81 Q341 -86 345 -90.5 Q349 -95 353 -100 Q370 -119 396 -111 Q416 -103 431 -90 Q450 -77 465 -61 Q480 -45 493 -27 Q500 -18 510.5 -16.5 Q521 -15 530 -22 Q537 -27 538 -35.5 Q539 -44 533 -52 Q521 -68 508 -82 Q495 -96 479 -109 Q466 -120 452.5 -129 Q439 -138 423 -144 Q405 -152 386.5 -153 Q368 -154 349 -146 Q335 -141 324 -132.5 Q313 -124 304 -113 Q287 -93 276 -70.5 Q265 -48 259 -24 Q249 13 245 49.5 Q241 86 241 124 Q241 129 235 129 Q213 127 191 126.5 Q169 126 146 125 Q141 125 139 120 L75 -8 Q67 -24 57 -39.5 Q47 -55 35 -69 Q28 -77 21 -82.5 Q14 -88 4 -93 Q-12 -101 -29 -97.5 Q-46 -94 -57 -80 Q-66 -67 -69.5 -53.5 Q-73 -40 -74 -26 Q-76 -1 -73.5 23 Q-71 47 -66 72 Q-58 107 -46.5 142 Q-35 177 -18 209 Q-7 231 6 252 Q19 273 36 291 Q67 324 111 334 Q139 342 165 333 Q167 332 170 331 Q173 330 175 329 Q179 339 181 343 Q199 394 216.5 444 Q234 494 251 545 Q263 579 274 611.5 Q285 644 296 678 Q299 686 303 691 Q309 701 322 698 Q327 696 330.5 692.5 Q334 689 334 684 Q334 668 334 652.5 Q334 637 332 621 Q330 596 327 572 Q324 548 322 523 Q319 502 316 481 Q313 460 311 439 Q308 418 305.5 396.5 Q303 375 301 354 Q299 334 297.5 315 Q296 296 294 276 Q292 249 291 222 Q290 195 289 169 L289 166 Z M88 124 Q87 124 86 125 L86 123 Q84 117 78 120 Q75 120 71 122 Q66 124 66 127 Q66 130 70 132 Q75 134 80.5 135.5 Q86 137 91 139 Q96 141 97 143 Q117 183 133.5 222.5 Q150 262 166 303 Q168 312 160 314 Q159 314 158 314.5 Q157 315 156 315 Q133 318 117 310 Q99 299 85 286 Q71 273 59 257 Q40 233 27 205 Q14 177 3 148 Q-8 119 -15 89 Q-22 59 -25 29 Q-28 -1 -28 -29 Q-28 -35 -27 -41 Q-26 -47 -24 -53 Q-21 -63 -13 -56 Q-10 -54 -7.5 -51.5 Q-5 -49 -3 -47 Q6 -37 13 -26 Q20 -15 25 -4 Q41 27 55.5 57.5 Q70 88 86 119 Q86 120 88 124 Z M265 429 Q239 359 213 289.5 Q187 220 154 152 Q177 155 198.5 158 Q220 161 241 163 Q243 230 249.5 296.5 Q256 363 265 429 Z " />
<glyph glyph-name="B" unicode="B" horiz-adv-x="377" d="M355 221 Q360 167 359 132.5 Q358 98 353 79 Q346 39 329.5 5 Q313 -29 288 -58 Q272 -79 251 -86 Q230 -94 216.5 -82.5 Q203 -71 204 -45 Q204 -27 208.5 -11.5 Q213 4 221 19 Q235 45 252 67.5 Q269 90 289 110 Q294 115 298.5 119.5 Q303 124 308 128 Q315 135 315 143 Q316 171 315.5 198 Q315 225 309 252 Q307 261 305 268 Q303 275 295 282 Q288 269 281 261 Q271 244 259.5 230 Q248 216 234 205 Q221 195 207 195 Q186 193 184 221 Q184 248 198 268 Q209 279 219.5 289.5 Q230 300 242 308 Q244 310 247 312 Q250 314 251 318 Q267 353 279.5 391 Q292 429 298 468 Q303 500 304.5 533 Q306 566 302 599 Q300 610 297 622 Q285 652 258 639 Q244 634 234 623.5 Q224 613 213 601 Q190 572 172.5 540.5 Q155 509 141 474 Q118 417 101.5 358 Q85 299 77 237 Q71 193 68.5 150 Q66 107 67 62 Q68 35 68.5 7 Q69 -21 71 -48 Q73 -74 77.5 -99.5 Q82 -125 86 -151 Q86 -153 85.5 -154 Q85 -155 85 -157 Q80 -155 80 -154 Q57 -111 45 -63.5 Q33 -16 28 34 Q24 74 23.5 113.5 Q23 153 25 194 Q33 293 56 385 Q67 431 82 474.5 Q97 518 117 559 Q134 592 154.5 620.5 Q175 649 203 671 Q217 682 230.5 689 Q244 696 260 699 Q285 703 303 691 Q321 679 334 656 Q345 637 349.5 616 Q354 595 356 572 Q358 540 356.5 509 Q355 478 350 447 Q345 415 336 384 Q327 353 315 324 Q314 322 313.5 320 Q313 318 311 315 Q334 299 342.5 274 Q351 249 355 221 Z M236 -47 Q254 -31 265.5 -9.5 Q277 12 287 37 Q283 32 279.5 28.5 Q276 25 273 21 Q262 9 254 -3 Q246 -15 239 -29 Q237 -33 236 -37 Q235 -41 234 -46 Q234 -46 236 -47 Z " />
<glyph glyph-name="C" unicode="C" horiz-adv-x="495" d="M20 138 Q20 171 23.5 203.5 Q27 236 33 269 Q41 315 55.5 358 Q70 401 90 443 Q125 517 182 578 Q201 600 222 619 Q243 638 266 654 Q289 670 313.5 681 Q338 692 365 697 Q390 701 413.5 699 Q437 697 460 688 Q476 681 486.5 670 Q497 659 501 641 Q505 618 499 593 Q489 550 459 514 Q448 503 438.5 491 Q429 479 419 468 Q411 460 403 452.5 Q395 445 387 437 Q385 435 385 435 Q380 433 379 436 Q379 440 380 441 Q382 444 385 447 Q388 450 390 452 Q398 459 403.5 467.5 Q409 476 414 485 Q423 500 431.5 515.5 Q440 531 449 547 Q457 562 463 578 Q469 594 471 611 Q472 616 472 620.5 Q472 625 472 630 Q471 645 458 651 Q450 655 441.5 656.5 Q433 658 425 660 Q393 665 363.5 656.5 Q334 648 307 631 Q281 615 259 595.5 Q237 576 217 553 Q169 501 137 440 Q105 379 87 309 Q75 263 68.5 217 Q62 171 64 123 Q65 91 70.5 59.5 Q76 28 89 -1 Q113 -59 170 -74 Q210 -84 250 -64 Q274 -52 295 -35.5 Q316 -19 335 1 Q359 26 379 54 Q399 82 417 111 Q429 129 442 151 Q447 159 455 161.5 Q463 164 471 159 Q487 148 479 128 Q469 108 458 89.5 Q447 71 435 53 Q415 22 391.5 -6 Q368 -34 341 -58 Q321 -77 298 -92 Q275 -107 249 -116 Q154 -146 83 -75 Q65 -56 54 -33 Q43 -10 35 16 Q27 45 23.5 75.5 Q20 106 20 138 Z " />
<glyph glyph-name="D" unicode="D" horiz-adv-x="447" d="M71 73 Q73 73 74 72.5 Q75 72 76 72 Q76 70 74 68 Q68 63 65 70 Q60 88 54 106.5 Q48 125 43 144 Q40 155 38.5 166 Q37 177 36 188 Q34 208 33 228.5 Q32 249 31 269 Q31 298 36 325.5 Q41 353 49 380 Q59 412 72 443.5 Q85 475 102 504 Q119 533 139.5 559 Q160 585 186 608 Q208 628 231.5 645 Q255 662 284 676 Q300 684 316 689 Q332 694 350 696 Q384 701 408 687 Q419 680 425.5 671.5 Q432 663 436 652 Q441 638 442.5 624 Q444 610 445 596 Q447 568 444 540.5 Q441 513 436 485 Q430 454 423.5 423 Q417 392 410 360 L410 357 Q415 356 420 356 Q425 356 430 355 Q433 354 436.5 354 Q440 354 443 352 Q458 345 453 331 Q448 318 430 318 L404 318 Q400 318 399 314 Q392 286 385.5 258.5 Q379 231 372 204 Q359 154 345 106 Q331 58 313 10 Q305 -12 296 -32.5 Q287 -53 275 -73 Q267 -86 258 -97.5 Q249 -109 236 -119 Q228 -126 218 -131.5 Q208 -137 196 -139 Q174 -145 153 -135 Q139 -130 129 -121.5 Q119 -113 111 -102 Q100 -87 94.5 -71 Q89 -55 86 -38 Q81 -3 86 30 Q91 63 104 96 Q122 145 154 191 Q175 221 199.5 248.5 Q224 276 256 300 Q300 333 355 349 Q359 349 359 353 Q366 382 373 411.5 Q380 441 386 471 Q393 504 397 538 Q401 572 399 606 Q398 617 397 626.5 Q396 636 392 647 Q391 647 391 649 Q383 667 358 663 Q332 657 306 643 Q258 617 221.5 584.5 Q185 552 157 512 Q133 477 116 439.5 Q99 402 86 363 Q81 345 76.5 327 Q72 309 71 291 Q68 252 68 212 Q68 187 69 162.5 Q70 138 71 114 L71 78 L71 73 Z M347 303 L345 303 Q344 303 343.5 302.5 Q343 302 342 302 Q314 290 292.5 273.5 Q271 257 251 237 Q173 159 143 62 Q135 36 132.5 9 Q130 -18 136 -45 Q139 -57 143.5 -68 Q148 -79 157 -90 Q164 -98 173 -103 Q178 -107 182.5 -106.5 Q187 -106 192 -103 Q197 -98 202 -94 Q207 -90 211 -85 Q223 -71 231.5 -55.5 Q240 -40 247 -24 Q268 23 282.5 70 Q297 117 311 165 Q320 196 327.5 227 Q335 258 343 290 Q345 293 345.5 296.5 Q346 300 347 303 Z " />
<glyph glyph-name="E" unicode="E" horiz-adv-x="392" d="M351 164 Q360 156 362 147 Q364 138 363.5 130 Q363 122 360.5 116.5 Q358 111 358 110 Q347 93 335.5 77.5 Q324 62 311 47 Q288 18 263.5 -7.5 Q239 -33 210 -55 Q193 -69 174 -79.5 Q155 -90 133 -95 Q116 -99 99 -99 Q82 -99 66 -91 Q39 -79 35 -51 Q30 -19 35.5 11.5 Q41 42 52 72 Q67 113 89 150 Q111 187 140 219 Q145 224 150 229.5 Q155 235 160 241 Q149 243 140 243.5 Q131 244 122 246 Q102 250 82.5 256 Q63 262 46 275 Q5 307 3 359 Q0 450 46 527 Q75 575 112 612.5 Q149 650 199 676 Q285 722 374 678 Q394 668 405 652.5 Q416 637 417 614 Q417 579 396 554 Q360 511 304 514 Q302 514 298 518 Q300 519 301.5 520 Q303 521 305 521 Q356 527 384 573 Q397 591 395 617 Q394 630 382 640 Q355 659 321 661 Q293 663 268 655.5 Q243 648 220 632 Q126 568 82 467 Q71 442 64.5 415.5 Q58 389 58 361 Q58 355 58 349 Q58 343 60 337 Q63 324 72 318 Q81 312 92 309 Q160 287 227 302 Q232 304 235.5 306.5 Q239 309 243 311 Q258 321 273.5 328 Q289 335 308 337 Q313 338 324 336 Q343 331 336 313 Q333 302 325 294 Q309 278 289.5 268.5 Q270 259 249 251 Q240 248 234 242 Q152 163 110 56 Q100 33 94 9 Q88 -15 83 -40 Q82 -48 90 -48 Q113 -48 136 -35 Q160 -22 180 -4.5 Q200 13 218 33 Q244 61 266 90.5 Q288 120 308 152 Q309 152 309 153 Q310 155 314 159.5 Q318 164 324 167 Q330 170 336.5 170 Q343 170 351 164 Z " />
<glyph glyph-name="F" unicode="F" horiz-adv-x="350" d="M299 674 Q300 666 301.5 659.5 Q303 653 303 645 Q304 627 304.5 609.5 Q305 592 305 575 Q305 560 304.5 545.5 Q304 531 303 517 L303 512 L317 512 Q338 511 358.5 508.5 Q379 506 399 501 Q410 499 420.5 498 Q431 497 442 496 Q447 495 450.5 495 Q454 495 458 494 Q459 494 462 491 Q461 491 460 490.5 Q459 490 458 490 Q449 490 440.5 489.5 Q432 489 423 490 Q411 490 399.5 490.5 Q388 491 376 491 Q359 491 341.5 491 Q324 491 307 489 Q302 488 301 483 Q299 444 297 404.5 Q295 365 293 326 Q291 276 287 227 Q284 192 277.5 158.5 Q271 125 262 91 Q255 68 249 45.5 Q243 23 235 0 Q230 -17 221.5 -34 Q213 -51 200 -66 Q193 -74 185.5 -80.5 Q178 -87 168 -92 Q137 -105 106 -93 Q87 -85 75 -73.5 Q63 -62 53 -48 Q40 -28 33 -6 Q26 16 21 39 Q13 82 11.5 124.5 Q10 167 15 211 Q21 279 46 339 Q54 359 64.5 378.5 Q75 398 90 416 Q142 477 230 500 Q234 502 238 502.5 Q242 503 246 504 Q250 505 250 508 Q252 546 252.5 582.5 Q253 619 251 657 L251 677 Q251 680 247 680 Q218 684 190 687 Q162 690 133 693 Q111 695 89 695.5 Q67 696 44 692 Q26 689 8.5 684 Q-9 679 -25 671 Q-31 668 -37 664.5 Q-43 661 -49 657 Q-60 647 -59 636 Q-58 630 -57 624.5 Q-56 619 -55 613 Q-55 611 -55.5 610.5 Q-56 610 -56 608 Q-57 609 -58 609.5 Q-59 610 -60 611 Q-62 615 -64 625 Q-65 628 -65 631.5 Q-65 635 -66 639 Q-68 652 -60.5 661.5 Q-53 671 -42 679 Q-22 694 2 703 Q26 712 52 717 Q77 722 102 723 Q127 724 153 722 Q176 721 199 719 Q222 717 245 715 Q249 715 251 717 Q256 727 267 725 Q279 725 282 716 Q285 712 290 712 Q363 706 437 706 Q466 706 493.5 707.5 Q521 709 549 714 Q575 719 600 724 Q625 729 649 738 Q655 739 662 743 Q681 750 691 736 Q701 722 683 712 Q667 702 649.5 696 Q632 690 613 685 Q568 673 523.5 669 Q479 665 432 666 Q399 667 366 669 Q333 671 300 674 L299 674 Z M248 474 L246 474 Q201 459 168 434.5 Q135 410 113 375 Q96 347 86 317.5 Q76 288 71 257 Q66 236 64.5 214.5 Q63 193 62 172 Q60 134 63 97.5 Q66 61 76 25 Q81 8 86.5 -7.5 Q92 -23 102 -38 Q106 -44 111 -49.5 Q116 -55 124 -59 Q137 -66 148 -58 L156 -50 Q166 -40 172 -28.5 Q178 -17 183 -5 Q193 21 199.5 47.5 Q206 74 213 100 Q228 158 234 214 Q236 239 237.5 264 Q239 289 241 315 Q243 350 244.5 386 Q246 422 248 457 L248 474 Z " />
<glyph glyph-name="G" unicode="G" horiz-adv-x="507" d="M441 292 Q446 294 451 295.5 Q456 297 461 299 Q470 302 478.5 298.5 Q487 295 490 287 Q494 279 490 271 Q486 263 477 259 Q467 254 457.5 249.5 Q448 245 438 240 Q434 237 434 233 Q431 201 428 168 Q425 135 422 102 L410 -6 Q408 -24 404 -42 Q400 -60 392 -77 Q388 -87 382.5 -96 Q377 -105 369 -113 Q344 -138 310 -125 Q273 -111 251 -74 Q244 -63 239.5 -51 Q235 -39 233 -26 Q231 -13 232.5 -1.5 Q234 10 237 22 Q247 61 264 97 Q281 133 304 166 Q321 191 340.5 213 Q360 235 383 254 Q386 257 392 261 Q396 264 398 271 Q400 288 403 305.5 Q406 323 409 341 L409 343 Q405 338 402 333 Q399 328 396 323 Q375 292 354 260.5 Q333 229 311 198 Q283 157 245 122 Q225 104 203 90 Q181 76 154 69 Q96 53 52 89 Q25 112 19 149 Q16 166 15.5 182.5 Q15 199 17 216 Q25 288 49.5 353 Q74 418 112 478 Q148 535 192 583 Q236 631 287 673 Q326 706 370 723 Q413 740 454 721 Q464 716 473 709.5 Q482 703 490 695 Q493 692 495 691 Q496 689 497 688 Q498 687 496 685 Q494 683 489 685 Q484 689 480 692.5 Q476 696 471 699 Q444 715 411 707 Q388 702 369 691.5 Q350 681 332 668 Q308 649 286 628.5 Q264 608 244 585 Q211 550 182.5 513.5 Q154 477 131 435 Q106 390 88.5 343.5 Q71 297 63 246 Q59 226 57.5 206.5 Q56 187 59 167 Q60 160 62 153 Q64 146 66 139 Q72 125 83.5 118 Q95 111 109 109 Q125 106 139.5 109.5 Q154 113 168 121 Q188 132 205 146 Q222 160 237 177 Q260 202 278.5 228.5 Q297 255 315 282 L405 420 Q417 437 429.5 454 Q442 471 456 487 L465 499 Q473 511 487 504 Q500 497 495 483 Q493 480 491 474 Q480 452 472 429 Q464 406 459 383 Q454 361 450 339 Q446 317 442 295 Q442 293 441 292 Z M389 199 Q388 199 388 200 Q380 192 373 183.5 Q366 175 359 167 Q331 132 310.5 93 Q290 54 278 10 Q276 1 274.5 -8 Q273 -17 275 -25 Q285 -63 320 -82 Q322 -84 323.5 -84.5 Q325 -85 327 -86 Q335 -89 342 -82 Q344 -78 346 -75 Q348 -72 350 -67 Q353 -59 355.5 -51 Q358 -43 360 -34 Q367 -8 370 17.5 Q373 43 376 69 Q379 97 381.5 124 Q384 151 387 178 Q388 183 388.5 188.5 Q389 194 389 199 Z " />
<glyph glyph-name="H" unicode="H" horiz-adv-x="499" d="M313 209 Q306 205 300 202 Q294 199 287 195 Q265 184 242 176.5 Q219 169 196 161 Q188 158 188 152 Q188 134 188 116.5 Q188 99 187 81 Q186 53 184 25 Q182 -3 175 -30 Q167 -67 150 -95 Q135 -121 105 -128 Q69 -136 39 -113 Q22 -100 11 -83.5 Q0 -67 -7 -47 Q-17 -20 -16.5 7 Q-16 34 -8 60 Q2 95 23 120 Q44 145 75 163 Q108 181 140 192 Q144 193 144 198 Q145 226 145 253.5 Q145 281 147 309 Q148 370 153 432 Q155 458 157.5 484 Q160 510 162 536 L162 538 L159 535 Q141 508 120 483.5 Q99 459 74 438 Q61 426 46 417.5 Q31 409 14 401 Q3 396 -7.5 392 Q-18 388 -29 384 Q-36 381 -39 386 Q-43 392 -35 395 Q-12 405 8 422 Q30 440 49 460.5 Q68 481 86 503 Q109 530 126.5 560 Q144 590 161 620 Q169 634 176 647 Q183 660 190 674 Q195 682 198 690 Q201 698 205 706 Q208 712 213 717 Q223 726 232 720 Q237 718 240 712 Q243 706 241 701 Q239 692 236.5 683 Q234 674 231 666 Q229 660 226.5 654.5 Q224 649 222 644 Q217 633 214.5 621 Q212 609 210 598 Q205 569 202.5 540 Q200 511 198 482 Q196 458 195 434.5 Q194 411 193 387 Q190 340 190 292 Q189 272 189 252.5 Q189 233 189 213 L189 209 Q195 211 200.5 212.5 Q206 214 211 216 Q239 226 265 238.5 Q291 251 315 268 Q318 269 319 275 Q323 323 330 369 Q337 415 347 462 Q355 500 366 537.5 Q377 575 393 611 Q401 628 410 645 Q419 662 432 676 Q454 703 484 714 Q504 721 521.5 713.5 Q539 706 550 689 Q555 680 557.5 671 Q560 662 562 652 Q566 627 563.5 602.5 Q561 578 556 554 Q539 480 504 416.5 Q469 353 419 296 Q407 282 394 269.5 Q381 257 367 246 Q364 243 364 240 Q362 211 361 183 Q360 155 359 126 Q359 100 360 74.5 Q361 49 363 23 Q364 7 367.5 -8.5 Q371 -24 379 -38 Q383 -45 387 -51.5 Q391 -58 397 -63 Q404 -68 411 -66 Q430 -63 437 -80 Q440 -87 437 -94 Q434 -101 426 -104 Q414 -109 402.5 -107.5 Q391 -106 380 -100 Q365 -91 354 -79 Q343 -67 335 -53 Q327 -39 322.5 -23.5 Q318 -8 316 8 Q313 33 312 57 Q311 81 311 106 Q311 131 312 156 Q313 181 314 206 Q314 208 313 209 Z M371 318 L373 318 Q373 319 375 321 Q392 338 405.5 356.5 Q419 375 432 395 Q457 432 475.5 471.5 Q494 511 505 555 Q511 578 514.5 602 Q518 626 516 651 Q516 656 515 661 Q514 666 512 671 Q509 678 502 676 Q495 673 489 669 Q483 665 478 660 Q465 649 457 635 Q449 621 442 607 Q427 575 416.5 541.5 Q406 508 398 474 Q391 442 385.5 411 Q380 380 375 348 Q373 340 372.5 333 Q372 326 371 318 Z M143 142 Q142 142 141.5 141.5 Q141 141 140 141 Q126 136 113.5 129.5 Q101 123 90 115 Q53 89 39.5 54 Q26 19 33 -25 Q37 -55 64 -79 Q76 -90 89.5 -87 Q103 -84 109 -75 Q113 -70 115.5 -65 Q118 -60 120 -55 Q128 -32 132.5 -7.5 Q137 17 139 42 Q141 61 141.5 80 Q142 99 143 118 L143 142 Z " />
<glyph glyph-name="I" unicode="I" horiz-adv-x="196" d="M182 669 Q187 654 188 639 Q189 624 189 609 Q189 574 185 539.5 Q181 505 176 470 Q173 444 169.5 417 Q166 390 162 364 Q161 357 160 351 Q159 345 158 338 Q155 315 151.5 291 Q148 267 145 244 Q145 236 143.5 227.5 Q142 219 140 211 L140 207 Q138 199 137.5 190.5 Q137 182 135 174 Q133 155 130 136.5 Q127 118 124 100 Q119 68 114 36 Q109 4 101 -28 Q96 -48 89 -67 Q82 -86 71 -103 Q65 -112 58 -120 Q51 -128 41 -133 Q24 -142 6 -136 Q-12 -130 -22 -112 Q-30 -98 -34 -83 Q-38 -68 -40 -52 Q-42 -31 -40 -10 Q-38 11 -33 32 Q-27 61 -17 88.5 Q-7 116 7 142 Q44 212 94 270 Q99 276 101.5 283 Q104 290 106 298 Q114 351 121 402.5 Q128 454 136 507 Q139 530 141.5 554 Q144 578 146 601 Q148 615 147.5 628 Q147 641 144 655 Q142 663 140 666 Q137 675 129 672 Q123 670 117 668.5 Q111 667 106 665 Q37 635 -4 573 Q-17 553 -26.5 532 Q-36 511 -41 488 Q-48 459 -40 426 Q-34 405 -12 405 Q0 405 11.5 407.5 Q23 410 34 413 Q36 413 42 415 Q42 415 46 413 Q43 410 44 410 Q31 405 19 399.5 Q7 394 -7 392 Q-27 390 -42 397.5 Q-57 405 -66 428 Q-74 446 -74.5 464 Q-75 482 -72 500 Q-66 533 -52.5 562.5 Q-39 592 -19 618 Q16 666 70 695 Q95 708 120 711 Q142 713 158.5 702 Q175 691 182 669 Z M79 114 Q81 132 84 149.5 Q87 167 89 185 L88 186 Q87 184 85 182 Q80 174 74.5 165 Q69 156 64 148 Q45 117 31 84 Q17 51 9 16 Q4 -4 2 -23 Q0 -42 4 -62 Q6 -70 8 -78.5 Q10 -87 12 -95 Q15 -103 21 -97 Q23 -94 25.5 -91 Q28 -88 30 -85 Q39 -66 45 -47 Q51 -28 56 -8 Q64 22 69 52.5 Q74 83 79 114 Z " />
<glyph glyph-name="J" unicode="J" horiz-adv-x="260" d="M444 692 Q457 687 455 673 Q454 667 450 663 Q446 659 440 661 Q405 666 371.5 664 Q338 662 303 662 Q292 662 280 661.5 Q268 661 257 660 L240 660 Q238 660 236 659.5 Q234 659 232 659 L228 659 Q228 644 227 621.5 Q226 599 224.5 577.5 Q223 556 222 540 Q221 524 221 523 Q221 506 219.5 490.5 Q218 475 217 459 Q215 433 213.5 406 Q212 379 209 353 Q209 346 208 340 Q207 334 207 327 Q205 304 203 280 Q201 256 199 233 Q200 225 199 216.5 Q198 208 197 200 L197 196 Q196 188 195.5 179.5 Q195 171 193 163 Q192 144 191 125.5 Q190 107 188 89 Q184 57 181 25 Q178 -7 172 -39 Q167 -59 161.5 -78 Q156 -97 146 -114 Q141 -123 134.5 -131 Q128 -139 118 -144 Q101 -153 83 -147 Q65 -141 54 -123 Q45 -109 40 -94 Q35 -79 32 -63 Q29 -42 30 -21 Q31 0 34 21 Q39 50 47.5 77.5 Q56 105 68 131 Q84 166 103.5 198 Q123 230 147 259 Q156 272 158 287 Q161 335 165 381 Q169 427 173 475 Q173 484 174 488 Q174 490 174.5 492 Q175 494 174 496 Q176 509 177 522 Q178 535 178 549 Q179 570 179 589 Q179 608 180 623 Q180 641 181 656 Q173 655 166 654.5 Q159 654 152 653 Q148 653 145.5 652.5 Q143 652 139 652 Q135 651 131.5 651 Q128 651 123 650 Q95 648 68 645 Q41 642 13 640 Q-2 639 -18 640.5 Q-34 642 -51 643 L-63 643 Q-64 643 -68 645 Q-64 649 -64 649 Q-50 652 -36.5 655.5 Q-23 659 -9 661 Q16 667 43 673 Q70 679 96 684 Q98 684 99.5 684.5 Q101 685 103 685 Q105 685 106 686 Q117 688 127 689.5 Q137 691 148 693 Q166 695 184.5 697 Q203 699 218 700.5 Q233 702 243.5 703 Q254 704 256 704 Q276 706 297 707 Q318 708 338 708 Q360 708 381 706.5 Q402 705 423 699 Q433 698 444 692 Z M141 103 Q143 121 144.5 138.5 Q146 156 148 174 L146 175 Q146 173 144 171 Q134 155 124 137 Q107 106 95 73 Q83 40 77 5 Q74 -15 73 -34 Q72 -53 77 -73 Q79 -81 81.5 -89.5 Q84 -98 87 -106 Q90 -114 96 -108 Q102 -100 104 -96 Q112 -77 117.5 -58 Q123 -39 126 -19 Q136 41 141 103 Z " />
<glyph glyph-name="K" unicode="K" horiz-adv-x="364" d="M478 653 Q488 645 482 636 Q478 627 461 629 Q453 630 446 629 Q439 628 432 626 Q416 621 403 613 Q390 605 378 597 Q338 570 308.5 538 Q279 506 256 471 Q243 451 230.5 431 Q218 411 206 391 Q206 390 205.5 389.5 Q205 389 206 387 Q208 388 208 388.5 Q208 389 210 389 Q218 394 226.5 397 Q235 400 246 402 Q265 404 279 393 Q287 386 291.5 379.5 Q296 373 300 365 Q308 348 310 332.5 Q312 317 311 301 Q310 272 305.5 244 Q301 216 296 187 Q291 153 287 119.5 Q283 86 283 51 Q283 31 284.5 10 Q286 -11 291 -32 Q294 -49 305 -62 Q312 -71 325 -68 Q336 -65 343 -60.5 Q350 -56 356 -51 Q364 -44 370.5 -37 Q377 -30 384 -22 Q392 -13 408 -14 Q422 -17 431 -26 Q436 -35 431 -40 Q420 -54 405.5 -67 Q391 -80 370 -89 Q363 -92 355 -94.5 Q347 -97 337 -97 Q295 -100 265 -72 Q255 -61 250 -50.5 Q245 -40 240 -29 Q235 -14 234 1.5 Q233 17 232 32 Q231 71 235.5 108.5 Q240 146 248 184 Q260 238 269 292 Q272 306 273.5 320 Q275 334 272 348 Q268 365 260 382 Q256 391 245 387 Q238 384 231 381 Q224 378 218 374 Q212 370 206.5 366 Q201 362 195 358 Q187 352 182.5 345.5 Q178 339 175 332 Q165 307 154 283 Q143 259 133 234 Q116 191 107 151 Q103 134 102 117.5 Q101 101 99 84 Q96 61 93 38.5 Q90 16 86 -7 Q86 -7 84 -11 Q81 -21 66 -19 Q59 -18 53.5 -14 Q48 -10 47 -5 Q45 2 44 8.5 Q43 15 42 22 Q40 57 43 90.5 Q46 124 51 157 Q56 197 61.5 236 Q67 275 72 315 Q77 357 81 399.5 Q85 442 90 485 Q92 514 93.5 542.5 Q95 571 97 600 Q98 615 98 630 Q98 645 98 660 Q98 661 96 665 Q95 664 94.5 663 Q94 662 93 661 Q88 657 85 654 Q82 651 78 647 Q70 636 60 626 Q55 621 50.5 615.5 Q46 610 41 605 Q31 593 21 580.5 Q11 568 1 556 Q-1 554 -3.5 551.5 Q-6 549 -8 547 L-12 547 Q-14 549 -13 549 Q-8 573 1.5 595 Q11 617 26 637 Q55 675 72 686.5 Q89 698 96 700 L97 700 L101 700 Q109 700 115.5 697 Q122 694 126 687 Q134 669 137 654 Q142 636 142 618 Q142 600 142 582 Q141 552 140 522.5 Q139 493 137 464 Q135 439 133.5 414.5 Q132 390 130 365 Q130 362 129 361 L130 361 Q134 367 135 370 Q156 411 178.5 450 Q201 489 230 527 Q250 553 274.5 577 Q299 601 328 622 Q342 633 358.5 641.5 Q375 650 395 656 Q408 660 420.5 662 Q433 664 448 663 Q457 662 465 660 Q473 658 478 653 Z " />
<glyph glyph-name="L" unicode="L" horiz-adv-x="192" d="M108 540 Q106 541 103.5 541.5 Q101 542 99 543 Q98 544 95 549 Q99 551 101 551 Q103 551 105.5 550 Q108 549 110 548 Q112 559 115 570 Q118 581 121 592 Q128 612 135.5 632 Q143 652 156 669 Q165 682 176 690 Q187 698 202 700 Q221 703 234.5 690.5 Q248 678 249 657 Q249 636 241.5 618 Q234 600 222 584 Q194 548 156 538 Q151 537 151 531 Q148 514 145 498.5 Q142 483 140 466 Q132 418 126 369.5 Q120 321 112 272 Q103 212 92.5 152 Q82 92 67 33 Q62 12 55 -7 Q48 -26 40 -46 Q40 -46 38 -50 Q42 -49 45 -49 Q48 -49 51 -48 Q92 -42 131.5 -39 Q171 -36 212 -41 Q269 -46 322 -59.5 Q375 -73 426 -100 Q453 -114 479 -130 Q505 -146 529 -166 Q538 -174 546 -183 Q551 -190 551 -199 Q552 -208 545.5 -212.5 Q539 -217 531 -213 Q519 -207 507 -201 Q495 -195 483 -188 Q458 -175 433.5 -162 Q409 -149 385 -136 Q342 -116 297.5 -103 Q253 -90 206 -83 Q165 -78 125 -77.5 Q85 -77 44 -79 Q39 -79 34.5 -79 Q30 -79 25 -80 Q20 -82 17 -85 Q13 -90 10 -94.5 Q7 -99 3 -103 Q-2 -108 -8 -111 Q-14 -114 -22 -111 Q-35 -107 -33 -94 Q-33 -86 -30 -78 Q-24 -61 -17.5 -43.5 Q-11 -26 -4 -9 Q9 28 18 65.5 Q27 103 35 141 Q46 195 55 247.5 Q64 300 74 354 Q82 399 90.5 444.5 Q99 490 107 536 Q107 537 107.5 537.5 Q108 538 108 540 Z M155 555 Q161 559 161 559 Q200 584 215 628 Q218 636 218.5 643.5 Q219 651 220 659 Q222 670 211 668 Q208 668 202 666 Q190 660 185 647 Q180 635 175 622 Q170 609 166 596 Q163 587 160.5 576.5 Q158 566 155 555 Z " />
<glyph glyph-name="M" unicode="M" horiz-adv-x="535" d="M119 606 Q116 602 113.5 599 Q111 596 108 592 Q91 566 73.5 540 Q56 514 39 488 Q29 474 20.5 459.5 Q12 445 2 431 Q1 429 -0.5 429 Q-2 429 -4 428 Q-4 430 -5 431 Q-6 432 -5 434 Q16 491 43 545 Q54 566 65.5 586 Q77 606 93 623 Q99 630 105.5 635.5 Q112 641 119 646 Q129 654 138.5 651 Q148 648 153 637 Q157 629 157 619.5 Q157 610 156 601 Q155 585 153.5 569.5 Q152 554 150 538 Q146 509 142.5 479 Q139 449 135 419 Q132 396 132 373 Q134 378 135 383 Q136 388 138 393 Q146 417 154.5 440 Q163 463 176 486 Q183 498 191 509 Q199 520 210 528 Q224 538 235.5 535.5 Q247 533 255 520 Q261 511 263.5 500 Q266 489 268 477 L280 378 Q284 348 287 318 Q290 288 294 258 Q296 250 296.5 241 Q297 232 298 224 Q298 222 300 220 Q303 234 306 247 Q309 260 311 273 Q322 325 335 375.5 Q348 426 367 476 Q381 513 398.5 548.5 Q416 584 439 617 Q449 632 460.5 645 Q472 658 487 668 Q501 678 512 677 Q527 674 531 661 Q534 643 530 628 Q526 607 521.5 586.5 Q517 566 513 545 Q506 512 499.5 479.5 Q493 447 488 414 Q468 289 461 165 Q459 130 459.5 95.5 Q460 61 464 26 Q466 2 471 -21 Q476 -44 486 -66 Q491 -75 495.5 -83 Q500 -91 507 -99 Q515 -105 523 -103 Q533 -99 542 -104 Q551 -109 554 -119 Q557 -129 552 -138.5 Q547 -148 537 -152 Q506 -163 479 -144 Q464 -133 454 -118 Q444 -103 436 -86 Q425 -63 420 -38 Q415 -13 412 13 Q407 64 408 115.5 Q409 167 414 218 Q418 252 421.5 286 Q425 320 430 354 Q436 398 443.5 440.5 Q451 483 461 527 Q464 540 467.5 553 Q471 566 474 580 L474 583 Q469 575 465 568 Q461 561 457 553 Q409 465 383 369 Q375 339 367.5 308.5 Q360 278 352 248 Q347 227 341.5 207 Q336 187 328 167 Q323 153 316 145 Q305 131 291 131.5 Q277 132 269 147 Q263 158 260 169.5 Q257 181 254 193 Q246 235 241.5 276.5 Q237 318 233 360 Q231 387 228 414.5 Q225 442 223 470 Q223 471 221 475 L212 457 Q194 415 180 373 Q166 331 158 286 Q153 261 149 236 Q145 211 140 186 Q138 177 135 168 Q132 159 130 150 Q127 141 115 134 Q110 130 103.5 131.5 Q97 133 92 138 Q86 145 83.5 152.5 Q81 160 79 168 Q73 200 75 236 Q77 284 81 331.5 Q85 379 92 427 Q97 462 103 496 Q109 530 114 565 Q116 575 117 585 Q118 595 120 605 L119 606 Z " />
<glyph glyph-name="N" unicode="N" horiz-adv-x="388" d="M120 281 Q122 288 125 295 Q128 302 130 310 Q149 364 173 414 Q197 464 224 514 Q236 536 249 558 Q262 580 278 601 Q284 609 291 616 Q298 623 306 630 Q318 640 328 633.5 Q338 627 340 616 Q343 601 343 584 Q343 564 342 543.5 Q341 523 340 503 Q338 467 337 431.5 Q336 396 335 360 Q332 270 335 181 Q338 105 350 30 Q355 3 361.5 -23.5 Q368 -50 377 -76 Q380 -84 384 -91.5 Q388 -99 393 -106 Q398 -113 406 -110 Q416 -107 424 -112 Q432 -117 435 -126 Q438 -136 433.5 -144 Q429 -152 419 -155 Q401 -161 386.5 -156 Q372 -151 359 -138 Q348 -126 341 -111.5 Q334 -97 328 -82 Q318 -56 312.5 -28.5 Q307 -1 302 28 Q291 92 288.5 156 Q286 220 287 286 Q288 318 288.5 349 Q289 380 291 412 Q293 438 294.5 463.5 Q296 489 298 515 Q299 524 299.5 533 Q300 542 301 552 Q300 550 300 550 Q282 517 263.5 484.5 Q245 452 228 418 Q205 373 186 326 Q167 279 151 231 Q141 199 132 168.5 Q123 138 113 106 Q108 91 103.5 76.5 Q99 62 94 47 Q87 31 71 34 Q55 36 55 53 Q55 102 61 153 Q63 179 66 204 Q69 229 72 255 Q75 283 78.5 310.5 Q82 338 86 367 Q92 409 100 450.5 Q108 492 118 534 Q126 564 133.5 593.5 Q141 623 149 653 Q151 658 153 668 Q150 663 147 659.5 Q144 656 141 652 Q122 628 103.5 604 Q85 580 65 557 Q57 547 47 538 Q37 529 28 519 Q20 509 12.5 499 Q5 489 -3 478 Q-5 475 -6.5 470.5 Q-8 466 -10 462 Q-12 456 -14 454 Q-14 453 -19 451 Q-19 453 -20 454 Q-21 455 -20 457 Q-10 483 2.5 507 Q15 531 30 554 Q47 582 65.5 607.5 Q84 633 104 659 Q114 673 126 684.5 Q138 696 150 709 Q156 713 163 717 Q179 724 183 708 Q186 700 186 691.5 Q186 683 185 675 L170 597 Q160 549 151 502.5 Q142 456 135 408 Q131 376 127.5 345.5 Q124 315 119 283 L119 281 L120 281 Z " />
<glyph glyph-name="O" unicode="O" horiz-adv-x="557" d="M46 43 Q37 116 51 190 Q52 198 53.5 205 Q55 212 57 220 Q57 224 54 225 Q39 235 38 252 Q36 279 37.5 306 Q39 333 44 359 Q50 399 61 436.5 Q72 474 89 509 Q112 555 143.5 593 Q175 631 217 660 Q241 677 268 688 Q295 699 325 704 Q350 708 374.5 705 Q399 702 425 691 Q466 672 495 628 Q512 600 520.5 571 Q529 542 531 511 Q536 461 530.5 413.5 Q525 366 514 320 Q481 184 411 69 Q360 -17 278 -64 Q261 -75 241 -82.5 Q221 -90 199 -92 Q176 -95 154.5 -92 Q133 -89 112 -76 Q95 -67 83.5 -53 Q72 -39 64 -22 Q51 9 46 43 Z M92 319 Q93 320 93 320 Q94 322 95 324 Q96 326 97 328 Q112 354 130.5 375 Q149 396 174 412 Q217 442 273 414 Q300 400 303 372 Q303 371 302 370 Q301 369 301 367 Q299 369 298 369.5 Q297 370 296 372 Q295 374 293 380 Q292 395 276 400 Q261 405 247 406 Q233 407 219 401 Q188 386 166 358 Q144 333 130 303.5 Q116 274 106 241 Q94 199 89 155 Q84 111 89 65 Q90 49 92.5 33 Q95 17 102 1 Q107 -13 116 -23.5 Q125 -34 139 -39 Q161 -47 186 -44 Q204 -41 220.5 -34 Q237 -27 253 -18 Q326 26 370 103 Q394 143 412.5 185 Q431 227 446 272 Q463 323 473 376 Q483 429 483 486 Q482 510 478 534 Q474 558 464 581 Q458 595 450 608 Q442 621 429 632 Q412 644 394.5 649 Q377 654 359 654 Q340 654 323.5 649.5 Q307 645 290 638 Q262 625 238.5 606.5 Q215 588 195 566 Q162 529 140 486.5 Q118 444 105 395 Q100 376 97 357.5 Q94 339 92 319 Z " />
<glyph glyph-name="P" unicode="P" horiz-adv-x="637" d="M607 548 Q622 489 621 433 Q618 347 572 272 Q550 235 521.5 203.5 Q493 172 458 144 Q436 127 412.5 112 Q389 97 363 86 Q335 73 305 66 Q275 59 242 59 Q225 59 209.5 61 Q194 63 178 67 Q177 68 176 68 Q175 68 173 69 Q171 62 169 52 Q163 17 157.5 -19 Q152 -55 146 -91 Q142 -111 139 -130.5 Q136 -150 133 -170 Q132 -175 131 -179 Q130 -183 128 -188 Q125 -202 108 -199 Q93 -196 91 -180 Q91 -143 96 -107 Q101 -71 106 -36 Q111 -6 117 24 Q123 54 128 83 Q129 87 125 90 Q68 124 42 181 Q34 197 31 213 Q28 229 27 246 Q25 286 35 322 Q45 358 64 392 Q69 400 78.5 402.5 Q88 405 99 400 Q110 395 113 385.5 Q116 376 111 368 Q101 349 94 329.5 Q87 310 83 288 Q78 265 79 243 Q80 221 89 198 Q103 162 136 137 Q136 137 137 136 L138 136 Q167 254 191.5 371 Q216 488 233 609 Q231 607 227.5 606 Q224 605 222 603 Q203 592 184 580.5 Q165 569 146 558 Q136 551 126.5 545 Q117 539 108 531 Q94 521 83 507 Q80 503 78.5 499 Q77 495 75 491 Q73 485 70 486 Q67 488 67 489.5 Q67 491 67 493 Q71 513 81 529.5 Q91 546 105 560 Q134 590 168.5 612.5 Q203 635 242 654 Q245 656 247 659 Q251 670 254.5 680.5 Q258 691 261 702 Q262 704 262 706 Q262 708 263 710 Q263 710 266 713 Q267 711 268 710.5 Q269 710 269 708 Q269 698 268.5 688 Q268 678 267 667 Q267 667 268 665 Q275 667 282 670 Q289 673 296 675 Q326 684 356.5 690 Q387 696 419 698 Q466 700 506.5 680.5 Q547 661 574 623 Q585 605 593 586.5 Q601 568 607 548 Z M506 266 Q544 317 560.5 373.5 Q577 430 568 495 Q566 507 563.5 519 Q561 531 559 543 Q554 560 548.5 575 Q543 590 532 605 Q501 650 446 657 Q432 659 419.5 658.5 Q407 658 394 656 Q361 652 330 644 Q299 636 270 625 Q266 623 266 621 Q265 616 264.5 611.5 Q264 607 263 602 Q259 564 254 526 Q249 488 244 450 Q239 413 232.5 376 Q226 339 218 302 Q209 256 200 210 Q191 164 180 118 Q178 113 184 112 Q203 107 220.5 105.5 Q238 104 256 106 Q286 109 313.5 118.5 Q341 128 366 142 Q409 166 443.5 197.5 Q478 229 506 266 Z " />
<glyph glyph-name="Q" unicode="Q" horiz-adv-x="315" d="M195 111 Q193 106 190.5 101.5 Q188 97 186 92 Q181 79 174 67.5 Q167 56 157 46 Q149 37 138.5 31 Q128 25 113 24 Q93 22 76.5 30.5 Q60 39 47 53 Q36 65 29.5 78.5 Q23 92 18 106 Q7 136 3 166 Q-1 196 -1 226 Q-1 266 2 307 Q5 343 14.5 377 Q24 411 38 444 Q52 479 74 505 Q80 513 87 519 Q94 525 105 529 L111 529 Q109 525 109 525 Q100 520 96 509 Q91 494 86 479 Q81 464 76 449 Q71 435 67 420.5 Q63 406 59 391 Q51 361 47 330.5 Q43 300 44 268 Q44 240 45.5 212.5 Q47 185 52 157 Q56 138 61 119.5 Q66 101 76 83 Q81 73 88 66 Q96 56 106 63 Q114 67 118 72 Q122 77 126 84 Q137 101 143.5 120 Q150 139 157 159 Q159 166 161.5 172 Q164 178 166 184 Q168 190 166 195 Q153 235 148 274 Q143 313 141 353 Q139 382 140.5 410 Q142 438 146 467 Q151 503 160 538 Q169 573 186 605 Q197 626 212.5 645 Q228 664 250 678 Q258 683 266.5 687 Q275 691 286 693 Q306 695 321 685.5 Q336 676 341 659 Q345 642 345 626 Q345 610 343 594 Q338 561 329 529 Q320 497 310 465 Q291 404 272 343.5 Q253 283 234 222 Q232 216 230 210 Q228 204 226 197 Q224 192 226 188 Q234 165 242.5 142 Q251 119 261 96 Q283 40 296 -16 Q309 -72 312 -129 Q313 -140 312 -150 Q311 -160 306 -170 Q301 -181 287 -179 Q272 -179 267 -167 Q265 -164 265 -160.5 Q265 -157 265 -154 Q265 -149 265.5 -145 Q266 -141 265 -136 Q259 -106 252.5 -76 Q246 -46 239 -16 Q233 12 223.5 39.5 Q214 67 202 95 Q200 99 199 102.5 Q198 106 196 111 L195 111 Z M297 656 L296 657 Q294 656 293.5 656 Q293 656 291 655 Q286 651 281 647.5 Q276 644 272 639 Q255 623 244 604.5 Q233 586 225 566 Q213 536 207 504 Q201 472 198 440 Q195 408 196 375 Q197 342 200 309 Q200 306 201 304 Q203 306 203 307 Q214 342 224 376 Q234 410 244 444 Q258 491 271.5 537.5 Q285 584 294 632 L297 656 Z " />
<glyph glyph-name="R" unicode="R" horiz-adv-x="382" d="M205 331 Q211 326 217.5 321 Q224 316 230 311 Q244 299 252.5 284 Q261 269 269 252 Q278 228 285 203.5 Q292 179 297 155 Q303 129 309 104 Q315 79 323 54 Q331 33 341 14.5 Q351 -4 367 -19 Q377 -27 387 -32.5 Q397 -38 410 -40 Q426 -41 439 -34 Q453 -27 463 -18.5 Q473 -10 484 1 Q487 4 489.5 7 Q492 10 495 14 Q502 21 511.5 22 Q521 23 529 16 Q537 10 538 0.5 Q539 -9 532 -17 Q518 -34 502.5 -48.5 Q487 -63 467 -74 Q438 -90 410 -87.5 Q382 -85 355 -68 Q330 -51 314 -29 Q298 -7 287 21 Q278 45 271.5 69.5 Q265 94 260 120 Q254 150 248 179 Q242 208 231 237 Q221 266 203 287 Q195 296 184 301.5 Q173 307 162 312 Q159 313 156 314 Q153 315 149 317 Q148 314 148 310.5 Q148 307 147 303 Q145 267 142 230.5 Q139 194 137 158 Q135 117 133.5 77 Q132 37 130 -4 Q129 -22 127.5 -40 Q126 -58 124 -75 Q122 -92 107 -92 Q92 -92 89 -76 Q81 -30 84 12 Q85 42 86.5 72 Q88 102 90 132 Q92 161 94.5 190 Q97 219 99 248 Q101 275 104 302.5 Q107 330 110 358 Q114 390 118.5 420.5 Q123 451 128 483 Q134 515 140.5 547.5 Q147 580 154 612 Q156 622 158.5 631.5 Q161 641 164 651 Q164 653 164.5 654.5 Q165 656 165 658 Q161 655 158 652.5 Q155 650 152 647 Q138 634 125.5 621.5 Q113 609 99 597 L27 534 Q22 529 17 524.5 Q12 520 9 514 Q7 510 3 511 Q0 513 2 518 Q12 538 27 556 Q38 570 48.5 584 Q59 598 71 612 Q88 632 106.5 651 Q125 670 148 685 Q160 693 172 698 Q185 703 193.5 697 Q202 691 201 677 Q201 661 196 641 Q176 542 163 445 Q160 422 157.5 398 Q155 374 152 350 L152 347 Q156 349 159.5 352 Q163 355 167 357 L233 399 Q259 418 282 440 Q305 462 323 490 Q334 507 342 525.5 Q350 544 355 564 Q357 572 355 580 Q355 590 345 588 Q336 587 328 583.5 Q320 580 312 576 Q306 573 302 569 Q282 555 261.5 541.5 Q241 528 224 511 Q216 503 209.5 495 Q203 487 196 479 Q194 477 192 475.5 Q190 474 188 474 Q182 472 178.5 477 Q175 482 177 488 Q180 499 186 510 Q208 548 238 576 Q268 604 308 621 Q327 630 349 630 Q372 629 384.5 616 Q397 603 399 581 Q401 563 396.5 546.5 Q392 530 385 513 Q368 470 340 435.5 Q312 401 276 373 Q244 348 207 332 Q205 331 205 331 Z " />
<glyph glyph-name="S" unicode="S" horiz-adv-x="441" d="M477 604 Q477 576 471.5 550.5 Q466 525 458 499 Q444 457 424 418 Q404 379 375 344 Q360 326 343 309 Q337 303 328.5 302.5 Q320 302 314 307 Q307 312 306.5 320 Q306 328 311 335 Q320 347 329.5 359 Q339 371 349 384 Q371 414 387 446.5 Q403 479 414 514 Q430 557 431 600 Q431 614 429 628 Q427 642 422 656 Q411 682 388.5 693.5 Q366 705 337 698 Q299 688 263 663 Q233 642 207.5 616.5 Q182 591 161 562 Q144 539 130.5 516 Q117 493 106 468 Q92 436 87.5 403 Q83 370 89 335 Q95 293 121 258 Q164 194 233 151 Q245 143 257.5 136 Q270 129 281 121 Q289 116 296.5 110 Q304 104 309 96 Q317 83 317 71 Q317 54 312 38.5 Q307 23 299 8 Q282 -21 261.5 -47 Q241 -73 215 -96 Q204 -105 191 -112 Q178 -119 163 -123 Q148 -128 134 -126.5 Q120 -125 108 -115 Q100 -109 95.5 -101.5 Q91 -94 87 -86 Q80 -72 78 -56.5 Q76 -41 78 -25 Q84 35 113 92 Q119 106 129 116 Q142 127 157 119 Q158 118 158 117.5 Q158 117 159 116 Q158 115 155 115 Q154 115 153.5 115.5 Q153 116 152 116 Q141 121 136 112 Q131 102 128 93 Q123 70 119.5 47 Q116 24 112 1 Q106 -39 117 -73 Q119 -77 120.5 -80.5 Q122 -84 124 -87 Q130 -95 143 -93 Q155 -91 165.5 -85.5 Q176 -80 185 -72 Q199 -61 209.5 -49.5 Q220 -38 230 -25 Q242 -8 253 8.5 Q264 25 272 44 Q274 49 275 54 Q276 59 278 64 Q281 73 274 79 Q268 84 262 87.5 Q256 91 250 95 Q233 106 215 116.5 Q197 127 180 139 Q106 191 67 264 Q47 300 42 344 Q37 388 46.5 429 Q56 470 76 509 Q96 548 122 583.5 Q148 619 180 651 Q203 673 228 691.5 Q253 710 282 724 Q299 732 316.5 737 Q334 742 353 743 Q388 745 417.5 727.5 Q447 710 461 680 Q470 661 473.5 642 Q477 623 477 604 Z " />
<glyph glyph-name="T" unicode="T" horiz-adv-x="200" d="M557 743 Q565 735 561 723 Q546 686 506 663 Q486 651 463.5 644 Q441 637 417 632 Q381 624 344 622 Q307 620 269 621 Q237 622 206 623.5 Q175 625 144 628 L140 628 Q140 620 140.5 612.5 Q141 605 140 597 Q138 574 136.5 550.5 Q135 527 132 503 Q129 471 127 438 Q125 405 125 372 Q125 353 125.5 334.5 Q126 316 126 297 Q126 292 131 291 Q168 280 179 252 Q181 250 181 248 Q181 246 180.5 245.5 Q180 245 180 243 Q176 245 175 246 Q169 256 158 264 Q144 276 127 276 L127 263 Q129 234 131.5 204 Q134 174 136 145 Q138 121 141 97.5 Q144 74 146 50 Q149 23 149 -4.5 Q149 -32 144 -60 Q141 -74 136.5 -88 Q132 -102 121 -115 Q109 -132 87 -141 Q65 -150 39 -145 Q16 -141 -2 -124 Q-14 -113 -22 -100 Q-30 -87 -35 -73 Q-49 -41 -52.5 -7.5 Q-56 26 -54 60 Q-52 108 -38 150 Q-30 177 -17.5 202 Q-5 227 15 250 Q26 262 39 272 Q52 282 69 289 Q72 290 72 291 Q72 292 72 294 Q72 312 71.5 330.5 Q71 349 71 367 Q71 408 73.5 448.5 Q76 489 81 530 Q84 553 87.5 576.5 Q91 600 95 623 Q96 626 92.5 630 Q89 634 84 634 Q45 639 6.5 643 Q-32 647 -72 647 Q-86 646 -100.5 646 Q-115 646 -129 643 Q-151 639 -169 625 Q-177 620 -178 613 Q-179 606 -177 598 Q-176 596 -176 595 Q-176 594 -175 592 Q-175 587 -179 586 Q-183 585 -185 589 Q-190 603 -188.5 614.5 Q-187 626 -175 637 Q-164 648 -149.5 654.5 Q-135 661 -119 666 Q-99 671 -78 673 Q-57 675 -35 675 Q-7 676 21 674 Q49 672 77 670 Q132 665 186.5 661.5 Q241 658 297 660 Q332 661 365.5 664.5 Q399 668 431 678 Q448 683 462 689 Q476 695 488 705 Q505 719 511 736 Q515 749 533 751 Q548 752 557 743 Z M88 -75 Q95 -57 96.5 -38.5 Q98 -20 98 -1 Q97 31 93 63 Q89 95 85 127 L76 214 L73 259 L72 260 Q67 255 62 251 Q57 247 53 242 Q40 228 31.5 213 Q23 198 16 182 Q2 149 -3.5 115.5 Q-9 82 -9 47 Q-9 19 -4.5 -9 Q0 -37 11 -63 Q15 -73 20.5 -82.5 Q26 -92 35 -100 Q44 -109 55 -108.5 Q66 -108 75 -99 Q78 -98 79 -95 Q81 -90 83.5 -85 Q86 -80 88 -75 Z " />
<glyph glyph-name="U" unicode="U" horiz-adv-x="397" d="M157 -1 Q159 3 161 6.5 Q163 10 165 14 Q175 37 181.5 60.5 Q188 84 194 107 Q209 163 224.5 218 Q240 273 257 328 Q268 359 278.5 390 Q289 421 302 451 Q313 476 325.5 500 Q338 524 352 547 Q353 549 354 550.5 Q355 552 356 554 Q364 564 378 559 Q384 557 388.5 552.5 Q393 548 393 542 Q394 532 391 522 Q377 479 368 435 Q359 391 351 346 Q344 304 338.5 261.5 Q333 219 329 175 Q326 131 323.5 88 Q321 45 323 0 Q324 -23 325.5 -46 Q327 -69 332 -92 Q333 -98 335 -104.5 Q337 -111 339 -117 Q346 -132 360 -126 Q367 -124 373.5 -120.5 Q380 -117 387 -113 Q397 -107 408.5 -110 Q420 -113 426 -124 Q430 -131 429 -138 Q428 -145 422 -150 Q408 -159 393.5 -165.5 Q379 -172 360 -171 Q323 -169 302 -139 Q292 -125 287.5 -111 Q283 -97 280 -82 Q273 -53 271 -24 Q269 5 270 34 Q270 79 273 123 Q276 167 281 212 Q281 214 280 215 Q278 211 278 209 Q267 171 256 132.5 Q245 94 234 55 Q228 36 221.5 18 Q215 0 205 -17 Q202 -22 199 -26 Q196 -30 192 -34 Q178 -48 160 -46.5 Q142 -45 126 -29 Q112 -16 104 -2 Q96 12 89 28 Q75 61 67.5 94.5 Q60 128 55 163 Q50 204 47 244 Q44 284 42 325 Q39 385 39.5 444 Q40 503 42 562 Q43 587 43 611.5 Q43 636 43 662 Q43 673 41.5 683.5 Q40 694 38 705 Q36 713 33.5 714.5 Q31 716 23 714 Q13 710 3.5 706.5 Q-6 703 -16 698 Q-27 692 -37.5 686 Q-48 680 -58 672 Q-60 670 -61 668 Q-62 666 -64 664 Q-70 658 -76 662 Q-81 665 -78 673 Q-73 682 -65.5 689.5 Q-58 697 -50 704 Q-36 715 -21 723.5 Q-6 732 11 737 Q21 740 32 740 Q43 741 52 736 Q61 731 66 720 Q73 706 78 688 Q83 664 83.5 640 Q84 616 85 592 Q85 548 85 504.5 Q85 461 86 417 Q86 366 89.5 316 Q93 266 99 215 Q102 186 106 158 Q110 130 117 102 Q122 81 128 59.5 Q134 38 144 18 Q146 13 149 8.5 Q152 4 155 -1 L157 -1 Z " />
<glyph glyph-name="V" unicode="V" horiz-adv-x="357" d="M18 586 Q14 582 6 576 L-47 523 Q-53 517 -60 511 Q-67 505 -75 499 Q-77 497 -79.5 496 Q-82 495 -84 493 Q-87 493 -88 494 Q-90 496 -88 498 Q-85 502 -82 505 Q-79 508 -76 512 Q-72 516 -69 520 Q-66 524 -63 529 Q-50 549 -35 565.5 Q-20 582 -2 596 Q5 601 14 606 Q33 614 41 596 Q46 585 50 569 Q54 544 58 519.5 Q62 495 65 470 Q71 419 76.5 370 Q82 321 90 271 Q111 132 147 0 Q152 -20 157.5 -39 Q163 -58 169 -78 Q169 -80 171 -82 Q172 -78 174 -68 Q181 -29 187 10 Q193 49 201 88 Q215 150 228.5 211 Q242 272 256 334 Q265 373 274.5 412 Q284 451 294 490 Q305 532 317 572.5 Q329 613 348 652 Q353 662 358.5 671.5 Q364 681 370 691 Q383 711 403 699 Q411 694 413.5 685 Q416 676 411 667 Q397 641 387 613 Q377 585 368 556 Q355 518 345.5 478.5 Q336 439 326 400 Q315 358 305 316.5 Q295 275 284 233 Q271 181 259.5 129.5 Q248 78 237 25 Q232 -4 226.5 -32 Q221 -60 215 -89 Q213 -99 209.5 -108 Q206 -117 203 -126 Q198 -139 188 -145 Q178 -150 168.5 -149 Q159 -148 153 -140 Q143 -128 134 -111 Q122 -88 114.5 -63 Q107 -38 100 -12 Q89 36 79 83 Q69 130 61 178 Q55 216 50 253.5 Q45 291 40 329 Q35 370 32.5 410 Q30 450 27 491 Q25 514 23 536.5 Q21 559 19 582 Q19 584 18 586 Z " />
<glyph glyph-name="X" unicode="X" horiz-adv-x="277" d="M430 744 Q435 742 431 736 Q425 725 419 714.5 Q413 704 406 693 Q392 670 375.5 649 Q359 628 342 606 Q302 555 265.5 502.5 Q229 450 197 394 Q190 382 184 370 Q178 358 172 347 Q170 341 171 339 Q197 267 223.5 197 Q250 127 276 55 Q293 9 311 -35.5 Q329 -80 349 -125 Q354 -136 358 -148 Q362 -160 367 -172 Q371 -184 363 -194 Q355 -204 341 -204 Q325 -203 319 -189 Q295 -127 270.5 -66.5 Q246 -6 225 57 Q206 114 186.5 169 Q167 224 147 281 Q146 283 144 289 Q141 282 138 276.5 Q135 271 133 265 Q95 181 67 94 Q50 42 32.5 -10 Q15 -62 -2 -115 Q-2 -116 -4 -122 Q-10 -138 -29 -136 Q-37 -134 -41.5 -128.5 Q-46 -123 -44 -115 Q-42 -101 -39.5 -88 Q-37 -75 -33 -62 Q-9 23 20.5 104.5 Q50 186 85 267 Q93 286 102.5 304.5 Q112 323 121 342 Q122 344 122 346 Q122 348 122 350 Q108 388 93 425.5 Q78 463 61 501 Q45 533 27.5 564 Q10 595 -13 624 Q-20 634 -27.5 643 Q-35 652 -46 659 Q-47 660 -47 664 L-42 664 Q-20 651 -0.5 636.5 Q19 622 36 603 Q44 594 51 584 Q58 574 65 564 Q85 533 101.5 500.5 Q118 468 132 434 Q137 425 140.5 415.5 Q144 406 148 397 Q148 396 149 394 Q151 398 153 401.5 Q155 405 157 408 Q187 459 221 506.5 Q255 554 293 600 Q310 620 327 640.5 Q344 661 362 681 Q376 697 391.5 712 Q407 727 422 742 Q427 746 430 744 Z " />
<glyph glyph-name="Y" unicode="Y" horiz-adv-x="511" d="M136 653 Q131 646 126 639 Q121 632 116 625 Q99 600 82.5 576 Q66 552 49 527 Q29 499 -3 474 Q-8 471 -11.5 468 Q-15 465 -20 462 L-22 460 Q-27 458 -31 462 Q-34 465 -32 469 Q-31 471 -27 473 Q-19 479 -13 487.5 Q-7 496 -1 505 Q17 535 35.5 566 Q54 597 73 629 Q84 646 94.5 662.5 Q105 679 119 694 Q125 700 131.5 705.5 Q138 711 143 716 Q145 718 151 720 Q159 723 166 720 Q173 717 175 709 Q178 701 178 694.5 Q178 688 176 681 Q171 652 165.5 623 Q160 594 154 565 Q145 522 136.5 479 Q128 436 121 392 Q116 354 113.5 315.5 Q111 277 114 238 Q115 222 116.5 206.5 Q118 191 119 174 Q120 166 126 155 Q130 143 142 149 Q157 154 167 168 Q182 183 194 199.5 Q206 216 217 233 Q237 265 256.5 298 Q276 331 295 363 Q326 417 358.5 469 Q391 521 425 572 Q439 592 452.5 612.5 Q466 633 479 653 Q487 663 493 673 Q499 683 507 693 Q514 704 524 705 Q538 705 545 697 Q554 688 548 677 Q540 663 532.5 649 Q525 635 517 621 Q509 612 504.5 602 Q500 592 496 581 Q486 550 479 519 Q472 488 468 456 Q457 384 450 312 Q448 299 447 286.5 Q446 274 444 261 L444 258 Q445 257 446 257 L447 257 Q464 254 467 239 Q470 224 456 219 Q446 215 441 214 Q438 213 436 208 L418 112 Q411 80 402.5 48 Q394 16 380 -15 Q372 -33 362.5 -50.5 Q353 -68 339 -83 Q331 -91 321.5 -98 Q312 -105 301 -109 Q294 -111 288.5 -112 Q283 -113 275 -111 Q262 -107 254 -94 Q249 -87 247 -80 Q245 -73 243 -66 Q231 1 255 62 Q277 122 320 176 Q350 211 391 235 Q395 239 395 242 Q399 274 402.5 306 Q406 338 410 370 Q414 399 418 427 Q422 455 426 484 Q426 488 426 488 Q424 484 421 480 Q418 476 415 471 Q386 426 359 380 Q332 334 305 288 Q288 259 270 230.5 Q252 202 232 176 Q222 163 212 151.5 Q202 140 189 129 Q171 114 152 110 Q135 106 119.5 113 Q104 120 94 134 Q81 153 76 177 Q72 200 71 223 Q70 246 70 269 Q70 322 76.5 373 Q83 424 96 475 Q105 518 115 561.5 Q125 605 136 650 Q136 653 136 653 Z M383 174 L382 175 Q378 171 374.5 168 Q371 165 368 161 Q342 134 323.5 104.5 Q305 75 294 40 Q277 -7 283 -57 L286 -72 Q290 -70 290 -70 Q294 -65 298 -60.5 Q302 -56 306 -51 Q320 -32 330 -11 Q340 10 348 32 Q358 62 365.5 92 Q373 122 379 153 Q380 158 381 163.5 Q382 169 383 174 Z " />
<glyph glyph-name="Z" unicode="Z" horiz-adv-x="390" d="M463 680 Q458 678 453 677 Q448 676 443 674 Q414 665 384 656.5 Q354 648 324 639 Q294 630 264.5 621 Q235 612 205 602 Q182 594 159.5 585 Q137 576 114 567 Q102 563 89.5 559.5 Q77 556 66 551 Q58 549 50.5 545.5 Q43 542 35 539 Q29 538 26 541 Q21 546 24 551 Q25 553 29 557 Q35 562 41.5 565.5 Q48 569 55 574 Q66 580 76.5 587 Q87 594 98 599 Q115 607 132.5 614 Q150 621 167 628 Q196 638 223.5 647.5 Q251 657 280 666 Q311 676 341 685.5 Q371 695 403 705 Q420 710 436.5 713.5 Q453 717 470 718 Q486 720 497 715 Q503 712 506 705 Q509 698 507 690 Q504 679 497 670 Q488 659 478.5 648.5 Q469 638 458 627 Q420 585 385 542 Q350 499 315 453 Q295 427 274.5 402.5 Q254 378 234 352 Q234 351 233 350 Q241 352 245 352 Q256 354 266 354.5 Q276 355 287 353 Q328 345 346 300 Q356 278 357.5 255 Q359 232 356 208 Q352 179 343 154 Q334 129 320 106 Q303 77 283 51 Q263 25 241 2 Q212 -28 181.5 -54.5 Q151 -81 118 -104 Q104 -114 89.5 -121.5 Q75 -129 59 -133 Q52 -135 45 -135 Q38 -135 31 -133 Q9 -127 3 -102 Q-1 -88 0 -75 Q1 -62 4 -49 Q11 -23 23.5 -2 Q36 19 51 38 Q90 84 142 113 Q179 135 219 145 Q233 149 247.5 150.5 Q262 152 276 153 Q290 153 293 139 Q294 139 294 137 Q295 138 295 138 Q306 158 313.5 179 Q321 200 323 224 Q325 237 323.5 250 Q322 263 319 276 Q307 315 273 315 Q253 316 235.5 311.5 Q218 307 200 299 Q198 298 195.5 297 Q193 296 191 295 Q182 292 175 286.5 Q168 281 161 274 Q138 251 114 231 Q90 211 64 194 Q58 191 53 191 Q45 192 41.5 199 Q38 206 41 214 Q44 219 47 223.5 Q50 228 52 232 Q68 250 85 265 Q102 280 120 294 Q126 299 132.5 302.5 Q139 306 144 311 Q150 316 155.5 321.5 Q161 327 166 332 Q200 367 231 405 Q262 443 292 481 Q328 528 365 571.5 Q402 615 441 656 Q446 662 452 667.5 Q458 673 464 679 L463 680 Z M278 110 L274 110 Q259 110 244 107.5 Q229 105 215 100 Q191 92 168.5 80 Q146 68 125 53 Q88 26 62 -9 Q43 -36 36 -67 Q35 -72 35 -77.5 Q35 -83 35 -88 Q35 -94 41 -94 Q46 -94 48 -93 Q60 -91 71 -85.5 Q82 -80 93 -73 Q112 -60 130 -45.5 Q148 -31 166 -16 Q192 7 216 32.5 Q240 58 262 88 Q266 93 270 98.5 Q274 104 278 110 Z " />
<glyph glyph-name="zero" unicode="0" horiz-adv-x="192" d="M86 535 Q95 541 104 542 Q113 543 122 541 Q159 535 170 499 Q173 490 173.5 480 Q174 470 173 460 Q164 352 109 259 Q92 229 66 215 Q48 203 31 209 Q17 214 10 223.5 Q3 233 0 247 Q-3 260 -3 272.5 Q-3 285 -1 298 Q1 332 6.5 364.5 Q12 397 22 429 Q29 451 38 471.5 Q47 492 59 511 Q65 520 71 528.5 Q77 537 82 545 L91 554 L94 554 L94 550 Q92 546 90 542.5 Q88 539 86 535 Z M82 525 Q80 519 80 518 Q76 507 73 496 Q70 485 67 474 Q62 459 58 444.5 Q54 430 50 415 Q43 390 39.5 365 Q36 340 33 315 Q31 301 30 288.5 Q29 276 28 263 Q28 258 29 253 Q30 248 32 243 Q35 235 42 239 Q53 245 61 252 Q72 263 79.5 277.5 Q87 292 93 307 Q107 339 116.5 373.5 Q126 408 134 443 Q136 453 137.5 463 Q139 473 138 484 Q137 493 131.5 499 Q126 505 118 505 Q114 505 111 504 Q108 503 105 502 Q97 500 91.5 503.5 Q86 507 84 515 Q83 517 83 519.5 Q83 522 82 525 Z " />
<glyph glyph-name="one" unicode="1" horiz-adv-x="122" d="M61 533 Q57 528 53 524 Q49 520 45 515 L18 488 Q16 486 15 485.5 Q14 485 12 483 Q9 483 8 484 L8 487 Q19 501 29 515 Q39 529 52 542 Q54 544 57 546.5 Q60 549 62 551 Q67 555 71.5 553.5 Q76 552 78 546 Q82 534 84 521 Q86 501 85 482 Q84 463 83 444 L77 357 Q76 340 75 322.5 Q74 305 73 288 Q72 275 71.5 262 Q71 249 70 235 L82 238 Q88 239 94 240 Q100 241 105 242 Q106 243 109 243 Q114 243 115 239 Q116 234 111 232 Q103 230 97 228 Q90 226 83.5 225 Q77 224 71 222 Q67 220 67 220 Q61 214 54 216 L49 216 Q39 214 29.5 212 Q20 210 10 208 Q9 208 8 207.5 Q7 207 6 207 Q3 207 2 208 Q3 209 3 209.5 Q3 210 4 211 Q5 212 6 212 Q7 212 8 213 Q16 216 25 219.5 Q34 223 42 226 Q44 227 44 227 Q43 233 42 239 Q41 245 41 250 Q40 266 40 281.5 Q40 297 40 313 Q40 337 42.5 361 Q45 385 47 408 Q51 437 54.5 467 Q58 497 61 526 Q61 528 61.5 529.5 Q62 531 62 533 L61 533 Z " />
<glyph glyph-name="two" unicode="2" horiz-adv-x="205" d="M84 306 Q116 305 143 295 Q170 285 196 269 Q206 262 203 253 Q200 240 184 245 Q170 250 157.5 255.5 Q145 261 131 266 Q119 271 107 274 Q95 277 82 276 Q73 276 69 268 Q59 247 45 225 Q39 214 27 208 Q12 201 7 218 Q5 225 6.5 231 Q8 237 10 243 Q16 261 28 276 Q29 278 30 279.5 Q31 281 32 283 Q45 320 57.5 357.5 Q70 395 79 433 Q84 454 86.5 475 Q89 496 88 517 Q87 520 86 522.5 Q85 525 84 528 Q81 526 78.5 525.5 Q76 525 74 523 Q65 516 60 507 Q55 498 50 488 Q43 471 37 454 Q31 437 24 420 Q23 418 23 415.5 Q23 413 22 411 Q21 410 20.5 409 Q20 408 19 407 Q16 410 16 411 Q15 419 14.5 428 Q14 437 16 445 Q22 488 44 523 Q55 542 75 549 Q95 557 108 539 Q116 525 118 506 Q121 477 117.5 448 Q114 419 107 390 Q102 370 96 349.5 Q90 329 85 309 Q84 308 84 306 Z " />
<glyph glyph-name="three" unicode="3" horiz-adv-x="180" d="M58 392 Q67 394 76 395.5 Q85 397 94 399 Q103 401 112.5 400.5 Q122 400 131 397 Q164 384 166 346 Q167 312 150 282 Q139 262 124 245.5 Q109 229 89 217 Q80 212 69.5 208.5 Q59 205 48 207 Q33 208 23 225 Q19 235 27 240 Q36 245 42 238 Q47 233 49 233 Q51 233 56 235 Q65 239 72 244.5 Q79 250 86 256 Q103 273 116 292.5 Q129 312 136 335 Q138 340 138 344 Q138 348 138 352 Q136 374 117 374 Q101 375 82 372 Q73 370 64 368 Q55 366 46 364 Q42 362 38 362 Q28 360 23 366 Q18 372 21 381 Q24 389 27 395.5 Q30 402 35 409 Q46 429 58.5 448.5 Q71 468 83 488 Q89 499 94.5 511 Q100 523 106 534 Q107 536 107 537 Q107 538 108 539 L108 543 Q104 541 101 540 Q98 539 95 537 Q74 523 55 501 Q54 500 50 498 L50 504 Q52 507 54.5 510.5 Q57 514 59 517 Q67 526 74 534 Q81 542 92 547 Q99 551 108 553 Q113 555 117.5 551.5 Q122 548 123 543 Q124 530 123 518 Q121 504 116 492 Q111 480 104 468 Q94 450 83.5 432.5 Q73 415 62 398 Q60 394 58 392 Z " />
<glyph glyph-name="four" unicode="4" horiz-adv-x="175" d="M103 336 Q94 334 85.5 332 Q77 330 68 328 Q59 326 50 325.5 Q41 325 32 324 Q30 323 28 323.5 Q26 324 24 324 Q-1 326 5 348 Q12 371 21 390 Q34 416 47.5 441.5 Q61 467 77 492 Q86 506 94.5 519.5 Q103 533 111 547 Q112 548 112.5 549 Q113 550 114 551 Q116 553 119 553 Q119 552 119.5 551 Q120 550 120 549 Q117 538 114.5 528 Q112 518 109 508 Q100 481 88 455.5 Q76 430 62 404 Q56 392 50 380 Q44 368 37 356 Q36 355 36 354 Q36 353 34 351 Q42 353 49 354 Q56 355 64 357 Q74 359 83.5 360.5 Q93 362 103 364 Q108 366 108 370 Q112 398 115 426 Q118 454 121 483 Q123 493 124 503 Q125 513 126 523 L126 528 Q127 530 127.5 530.5 Q128 531 129 533 Q132 530 132 529 Q134 523 135.5 517 Q137 511 138 504 Q142 478 144.5 452.5 Q147 427 146 401 Q145 382 143.5 364 Q142 346 140 327 Q138 306 137 285.5 Q136 265 134 244 Q133 238 132.5 231.5 Q132 225 131 219 Q128 206 116 206 Q105 206 103 219 Q100 234 100 248 Q100 268 100 289 Q100 310 103 331 L103 336 Z " />
<glyph glyph-name="five" unicode="5" horiz-adv-x="177" d="M23 520 Q30 507 32 494.5 Q34 482 35 469 Q36 455 36.5 442.5 Q37 430 38 416 Q39 418 41 420 Q52 434 63 446.5 Q74 459 89 467 Q94 470 99 471.5 Q104 473 110 475 Q126 480 136 465 Q143 457 145.5 447.5 Q148 438 150 427 Q155 388 145.5 353 Q136 318 116 285 Q96 251 67 228 Q57 220 46 215 Q35 210 22 208 Q15 207 8 208 Q0 210 -2 221 Q-2 232 7 235 Q21 239 31.5 247 Q42 255 52 266 Q69 286 84 307.5 Q99 329 109 355 Q124 398 120 442 Q119 452 116.5 453 Q114 454 106 449 Q95 442 86 433 Q77 424 69 414 L39 375 L37 373 Q35 370 32 367 Q29 364 24 366 Q15 369 15 380 L12 449 Q11 463 11 477 Q11 491 11 505 Q11 509 9 517 Q6 529 17 534 Q31 540 45.5 544 Q60 548 76 551 Q91 553 106.5 553 Q122 553 138 551 Q142 551 143 550 Q144 550 146 548 Q143 545 143 545 Q138 544 133.5 544 Q129 544 124 543 Q108 540 93 536.5 Q78 533 62 529 Q52 527 43 524.5 Q34 522 23 520 Z " />
<glyph glyph-name="six" unicode="6" horiz-adv-x="175" d="M87 288 L82 288 Q74 288 68.5 293 Q63 298 64 306 Q66 335 75.5 361 Q85 387 108 407 Q114 413 123 415 Q133 419 140.5 414.5 Q148 410 150 400 Q151 395 151.5 389 Q152 383 151 377 Q149 341 138 308.5 Q127 276 109 245 Q98 226 79 214 Q62 203 44.5 207.5 Q27 212 18 231 Q4 259 7 288 Q8 302 8 315.5 Q8 329 10 343 Q14 380 28 416 Q33 428 37.5 440.5 Q42 453 47 465 Q65 503 93 532 Q107 546 124 552 Q125 552 126 551.5 Q127 551 128 551 Q128 548 127 547 Q116 540 109 529.5 Q102 519 97 508 Q80 472 67.5 435 Q55 398 50 358 Q47 341 45 323 Q43 305 42 287 Q42 277 44 267 Q46 257 48 247 Q49 234 60 243 Q70 253 76 264 Q82 275 87 288 Z M114 367 Q114 368 113 368 Q105 350 102 333 L103 332 Q106 341 109 350 Q112 359 114 367 Z " />
<glyph glyph-name="seven" unicode="7" horiz-adv-x="175" d="M79 388 L74 388 L52 388 Q46 388 46 391 Q46 392 48 392.5 Q50 393 52 393 Q59 393 65 393 Q71 393 77 394 Q82 394 83 397 Q94 432 106 466.5 Q118 501 130 536 L130 538 L109 535 Q80 530 51.5 529.5 Q23 529 -6 533 Q-10 534 -20 536 Q-20 536 -23 539 Q-22 539 -21.5 539.5 Q-21 540 -19 540 Q30 541 78 549 Q92 551 105.5 551.5 Q119 552 133 553 Q153 554 153 538 Q152 529 151.5 520 Q151 511 149 502 Q144 476 137 450 Q130 424 123 398 Q122 395 121 391.5 Q120 388 119 385 Q109 350 100 314.5 Q91 279 82 244 Q81 238 80.5 232 Q80 226 80 220 Q80 210 69 207 Q57 205 52 215 Q48 220 47.5 226 Q47 232 47 238 Q46 271 55 306 Q60 326 66 345 Q72 364 78 384 Q79 385 79 388 Z " />
<glyph glyph-name="eight" unicode="8" horiz-adv-x="165" d="M125 361 Q127 361 127.5 360.5 Q128 360 129 360 Q148 352 148 336 Q148 326 146 317 Q144 308 141 299 Q133 279 120.5 263.5 Q108 248 92 234 Q83 226 73.5 219.5 Q64 213 52 209 Q38 205 27 209 Q7 215 6 234 Q5 249 7.5 263.5 Q10 278 15 292 Q24 322 41 352 Q44 356 47 359 Q50 362 52 366 Q55 369 53 371 Q45 385 43.5 400.5 Q42 416 44 432 Q49 457 58 480.5 Q67 504 83 524 Q87 530 92 535 Q97 540 103 545 Q106 548 116 552 Q129 556 137 545 Q142 537 144 528 Q146 519 148 511 Q156 451 137 396 Q134 388 131 379.5 Q128 371 125 361 Z M63 360 Q50 328 42.5 296 Q35 264 31 231 Q39 233 44 235 Q51 241 58 246.5 Q65 252 72 258 Q105 292 119 332 Q121 338 115 341 Q109 343 106 343 Q104 344 103 343.5 Q102 343 100 344 Q90 348 80.5 350.5 Q71 353 63 360 Z M116 519 L115 518 L113 516 Q85 472 73 420 Q71 412 70.5 404 Q70 396 72 388 L79 388 L76 382 Q71 377 78 373 Q80 372 82.5 371.5 Q85 371 87 369 Q91 367 93 372 Q115 435 116 498 L116 519 Z " />
<glyph glyph-name="nine" unicode="9" horiz-adv-x="175" d="M117 431 Q110 423 103.5 415.5 Q97 408 90 400 Q85 394 78.5 389 Q72 384 64 382 Q47 376 34.5 385 Q22 394 23 411 Q24 462 60 502 Q69 513 78.5 523.5 Q88 534 101 542 Q109 546 114 548 Q120 552 130 548 Q140 561 150 549 Q151 547 151.5 544.5 Q152 542 153 540 Q153 535 152.5 530 Q152 525 152 520 Q152 514 151.5 508 Q151 502 151 496 Q154 452 148 408 Q146 387 143 366 Q140 345 135 324 Q131 304 125.5 285 Q120 266 111 248 Q106 238 100 229.5 Q94 221 85 215 Q65 200 45 214 Q11 236 1 273 Q-1 279 2 284 Q5 289 11 291 Q25 296 30 282 Q35 270 42 260.5 Q49 251 60 243 Q64 241 65 241 Q66 241 68 245 Q76 256 80.5 268 Q85 280 89 293 Q99 324 105 356 Q111 388 116 420 Q116 423 116.5 426 Q117 429 117 431 Z M127 544 Q125 543 123.5 543 Q122 543 121 541 Q114 535 107.5 528.5 Q101 522 94 515 Q62 480 50 433 Q48 427 47 421.5 Q46 416 45 410 Q45 406 47 404 Q49 403 54 405 Q59 407 60 410 L78 431 Q90 448 99 466 Q108 484 116 504 Q120 514 123 523.5 Q126 533 127 544 Z " />
<glyph glyph-name="numbersign" unicode="&#x23;" horiz-adv-x="465" d="M154 394 Q142 395 133 397 Q119 400 119 414 Q121 425 131 428 L161 434 Q166 434 168 440 Q176 463 183 487 Q190 511 197 535 Q199 541 199 547.5 Q199 554 194 559 Q194 559 194 564 Q195 563 196 563 Q197 563 198 562 Q204 557 206 546 Q209 523 207 500 Q205 477 202 454 Q202 451 201.5 448.5 Q201 446 201 443 L201 441 Q207 443 211 443 Q222 445 233.5 448 Q245 451 256 453 Q260 453 260 456 Q269 479 277.5 503 Q286 527 295 550 Q295 551 299 555 Q300 553 301 552 Q302 551 302 549 Q302 541 301.5 532.5 Q301 524 300 516 Q298 502 297 487.5 Q296 473 294 458 Q302 459 308.5 459.5 Q315 460 323 461 Q345 463 367 463.5 Q389 464 411 460 Q413 459 415 459 Q417 459 419 457 Q429 454 429 443 Q431 431 419 428 Q413 426 406.5 424.5 Q400 423 393 421 Q367 416 340.5 411.5 Q314 407 288 402 Q286 402 283 399 Q281 388 278.5 376.5 Q276 365 274 353 L274 350 Q281 352 287 354 Q293 356 299 358 Q322 364 345 368 Q368 372 391 374 Q408 376 411 361 Q413 347 397 342 Q365 333 332 324 Q299 315 267 306 Q262 305 260 300 L242 240 Q241 238 240.5 236.5 Q240 235 239 233 Q233 221 220 223 Q206 227 207 240 Q208 251 209 261.5 Q210 272 212 283 Q212 286 214 292 Q208 290 202.5 289 Q197 288 191 287 Q185 285 179 284 Q173 283 166 281 Q162 281 162 277 Q157 262 152.5 247.5 Q148 233 143 218 Q141 216 140 213 Q139 210 137 208 Q130 198 120 202 Q109 206 111 218 Q113 228 115 238 Q117 248 119 259 Q120 263 120.5 267 Q121 271 122 276 Q120 276 117.5 275.5 Q115 275 113 275 Q96 274 78.5 273.5 Q61 273 44 275 L34 275 Q33 275 32 276 Q31 277 29 277 Q33 281 34 281 Q38 283 42 283 Q46 283 51 285 L126 303 Q130 305 131 309 Q135 324 138.5 339 Q142 354 147 369 Q149 375 150.5 381 Q152 387 154 394 Z M241 395 Q239 395 239 395.5 Q239 396 238 396 Q227 395 216 394.5 Q205 394 194 394 Q190 393 189 389 Q187 376 184 363.5 Q181 351 178 338 Q176 333 175 328.5 Q174 324 173 319 L175 319 L220 334 Q223 334 223 338 Q225 343 226 348 Q227 353 229 358 Q232 367 235 376.5 Q238 386 241 395 Z " />
<glyph glyph-name="dollar" unicode="&#x24;" horiz-adv-x="405" d="M278 528 Q276 504 275 481 Q274 458 272 434 Q273 434 277 432 Q297 426 313.5 413.5 Q330 401 341 381 Q351 364 351 347.5 Q351 331 344 314 Q337 298 326.5 287 Q316 276 304 266 Q277 246 242 235 Q238 234 237 228 Q235 213 234 197.5 Q233 182 231 167 Q230 165 230 163.5 Q230 162 229 160 Q226 147 214 149 Q209 151 204.5 155 Q200 159 199 166 Q198 175 197.5 184.5 Q197 194 197 204 Q196 209 196.5 214 Q197 219 197 224 Q194 224 191.5 223.5 Q189 223 187 223 Q114 217 58 273 Q49 282 44 291 Q39 299 40 308 Q41 317 47 322 Q53 327 62 326 Q71 325 76 317 Q85 303 97 296.5 Q109 290 122 285 Q159 269 198 277 Q202 277 202 281 Q208 308 214 334.5 Q220 361 226 388 Q227 390 227 392 Q227 394 228 397 Q221 397 215.5 397.5 Q210 398 204 399 Q193 401 181.5 403 Q170 405 159 411 Q152 416 146.5 421.5 Q141 427 139 436 Q137 445 139 455 Q144 475 153.5 490 Q163 505 175 519 Q186 532 199 541 Q212 550 229 555 Q236 557 243 557 Q250 557 257 558 Q261 558 261 562 L267 604 Q267 608 269 612 Q270 613 271 613 L272 613 Q274 611 274 609 Q271 597 273 584 Q275 571 276 558 Q276 555 279 555 Q314 545 344 515 Q352 507 359 498.5 Q366 490 371 479 Q373 474 375 468 Q377 462 379 457 Q379 456 377 452 Q376 453 375 453.5 Q374 454 373 456 Q359 483 338.5 500 Q318 517 292 526 Q288 527 284.5 527 Q281 527 278 528 Z M256 526 Q246 524 238.5 520 Q231 516 224 511 Q202 493 181 464 Q178 459 175 454 Q172 449 169 444 Q173 443 176 442 Q179 441 182 441 Q194 440 206.5 439.5 Q219 439 232 439 Q235 438 237 443 Q240 456 243 469 Q246 482 249 495 Q251 503 252.5 510.5 Q254 518 256 526 Z M248 291 Q250 293 250 292 Q278 303 298 323 Q303 328 306.5 333.5 Q310 339 312 347 Q314 359 307 366 Q299 377 288.5 383 Q278 389 266 392 Q261 366 257 341.5 Q253 317 248 291 Z " />
<glyph glyph-name="percent" unicode="&#x25;" horiz-adv-x="267" d="M265 560 Q260 552 255.5 543.5 Q251 535 247 527 Q234 500 220 473.5 Q206 447 192 421 Q166 372 140.5 324.5 Q115 277 92 227 Q85 214 71 214 Q58 214 52 225 Q46 236 52 247 Q62 265 71 283 Q80 301 91 318 Q114 357 137 395 Q160 433 185 471 Q195 488 207 502.5 Q219 517 231 532 Q235 538 239 543.5 Q243 549 248 554 Q251 557 254.5 559.5 Q258 562 261 564 Q264 564 265 563 L265 560 Z M84 391 Q66 389 55.5 399.5 Q45 410 50 428 Q58 462 86 480 Q98 488 111 486 Q124 484 135 474 Q137 479 139 484.5 Q141 490 143 495 Q140 496 138 496 Q136 496 134 497 Q125 500 125 509 Q127 519 136 519 Q150 521 158 513 Q166 505 165 491 Q165 476 157 458 Q149 441 138 426 Q127 411 110 400 Q98 393 84 391 Z M66 423 Q66 414 74 414 Q86 414 94 422 Q105 431 113 442 Q121 453 129 465 Q131 467 129 470 Q124 477 113 477 Q107 477 102.5 476 Q98 475 93 470 Q89 467 86 463 Q83 459 80 455 Q75 447 71 439.5 Q67 432 66 423 Z M194 325 Q208 327 218 317 Q223 311 221 301 Q210 257 171 241 Q168 240 162 240 Q138 240 140 262 Q142 288 158.5 304.5 Q175 321 194 325 Z M199 293 Q201 296 205 304 Q194 305 194 317 Q191 315 187 313 Q158 297 152 263 Q150 253 160 256 Q164 256 170 260 Q178 267 186 275 Q194 283 199 293 Z " />
<glyph glyph-name="at" unicode="&#x40;" horiz-adv-x="522" d="M285 301 Q276 290 267 283 Q259 275 249.5 268 Q240 261 229 258 Q220 255 208 255 Q197 256 190 264.5 Q183 273 183 286 Q183 307 192 325 Q209 358 233 384 Q257 410 292 426 Q326 442 358 428 Q379 418 385 398 Q387 395 387.5 391.5 Q388 388 389 385 Q390 384 389 383 Q388 382 388 381 Q386 381 384 383 Q383 385 382.5 386.5 Q382 388 381 390 Q377 405 364.5 413.5 Q352 422 333 418 Q312 412 294 396 Q254 361 228 317 Q224 311 221.5 304.5 Q219 298 216 291 Q215 290 215 286 Q219 288 222 289.5 Q225 291 227 293 L257 317 Q269 327 285 336 Q294 341 300.5 337.5 Q307 334 309 323 Q310 318 310 314 Q310 310 310 305 Q309 297 309 290 Q309 283 309 275 Q309 263 320 261 Q334 256 348 261 Q375 267 392 287 Q409 307 421 328.5 Q433 350 439 376 Q442 391 443.5 406 Q445 421 441 436 Q428 480 389 508 Q369 522 346.5 528.5 Q324 535 301.5 534 Q279 533 257.5 525.5 Q236 518 219 505 Q178 473 149 434 Q120 395 103 346 Q99 335 97 323 Q95 311 93 300 Q89 245 134 208 Q152 194 172.5 184.5 Q193 175 215 168 Q234 162 237 144 Q239 129 228 119 Q217 109 203 113 Q171 122 142 137 Q113 152 88 175 Q28 231 40 316 Q45 358 62.5 395 Q80 432 106 465 Q123 488 141.5 508 Q160 528 183 545 Q246 591 324 584 Q367 580 400.5 559.5 Q434 539 459 504 Q498 448 483 385 Q468 313 418 265 Q405 253 390 244.5 Q375 236 357 233 Q329 227 304 241 Q293 246 289 255.5 Q285 265 284 276 Q284 281 284.5 286 Q285 291 285 296 L285 301 Z " />
<glyph glyph-name="exclam" unicode="&#x21;" horiz-adv-x="157" d="M104 590 Q109 566 110 541.5 Q111 517 109 492 Q108 466 106 440.5 Q104 415 102 389 Q100 359 97 329 Q94 299 92 269 Q90 255 89.5 240 Q89 225 87 210 Q85 196 71 196 Q65 196 60 199.5 Q55 203 54 210 Q52 217 52 224 Q52 231 52 238 Q50 264 51 290.5 Q52 317 56 343 Q60 377 65 410 Q70 443 75 477 Q77 493 81 508.5 Q85 524 88 540 Q90 554 92 568.5 Q94 583 96 597 Q96 601 100 609 Q100 610 101.5 610 Q103 610 104 611 Q105 609 105 606 Q105 602 104 598 Q103 594 104 590 Z M65 118 Q73 118 78 113 Q83 108 83 101 Q84 94 79 89.5 Q74 85 67 85 Q59 85 54 90 Q49 95 48 102 Q48 109 53 113.5 Q58 118 65 118 Z " />
<glyph glyph-name="asciitilde" unicode="&#x7e;" horiz-adv-x="517" d="M284 306 Q262 307 239 316 Q216 325 198 346 Q189 356 183.5 368 Q178 380 173 392 Q170 400 167 407.5 Q164 415 161 423 Q156 434 152 435.5 Q148 437 137 433 Q126 428 116.5 421 Q107 414 98 406 Q90 400 82 393.5 Q74 387 66 380 Q62 376 59 372.5 Q56 369 56 362 Q56 363 53 360 Q51 362 51 363 Q51 366 50.5 369.5 Q50 373 52 375 Q80 427 129 451 Q134 453 139.5 454 Q145 455 150 456 Q169 459 182 441 Q187 434 190 427 Q193 420 197 412 Q202 402 206 391.5 Q210 381 217 373 Q233 352 254.5 346.5 Q276 341 301 346 Q321 350 337.5 359 Q354 368 369 381 Q387 395 404 410 Q421 425 438 440 Q458 457 473 439 Q478 432 478 424 Q478 416 472 410 Q447 384 419.5 362 Q392 340 360 323 Q343 315 324 310 Q305 305 284 306 Z " />
<glyph glyph-name="quotesingle" unicode="&#x27;" horiz-adv-x="155" d="M84 644 Q96 645 106 645 Q114 644 121 642 Q128 640 128 632 Q128 629 127 627 L127 625 L124 619 Q122 614 118 608.5 Q114 603 107 596 Q106 594 104 592 Q102 589 98 585 L76 557 Q75 556 74 555.5 Q73 555 72 554 Q71 555 70.5 556 Q70 557 69 558 Q70 560 70 561 Q70 562 71 564 Q72 566 72.5 569 Q73 572 75 574 Q76 574 76 575 L83 592 Q83 592 84 594 Q84 595 85 596 Q83 595 79 595 Q71 595 67 600 Q64 605 65 611 Q67 622 70.5 631 Q74 640 84 644 Z " />
<glyph glyph-name="asciicircum" unicode="&#x5e;" horiz-adv-x="225" d="M133 515 Q130 510 126.5 506.5 Q123 503 121 498 Q107 478 93.5 458.5 Q80 439 66 419 Q58 408 50.5 398 Q43 388 35 377 Q34 376 34 375.5 Q34 375 33 374 Q31 373 30.5 373 Q30 373 28 372 Q28 377 28 377 Q31 388 37 397 Q47 417 56.5 436 Q66 455 77 474 Q85 488 94.5 501 Q104 514 115 525 Q117 528 120 530 Q142 549 154 526 Q159 518 160.5 508 Q162 498 164 488 L179 401 L182 389 Q185 379 178 374 Q169 368 164 376 Q161 382 158 387.5 Q155 393 153 400 Q147 416 144.5 433 Q142 450 140 467 Q138 478 137 488 Q136 498 135 509 Q135 509 133 515 Z " />
<glyph glyph-name="ampersand" unicode="&#x26;" horiz-adv-x="507" d="M147 465 Q131 481 128 503 Q126 514 127.5 525.5 Q129 537 131 549 Q136 567 143 583 Q150 599 164 612 Q181 630 201.5 631 Q222 632 239 622 Q256 611 254 587 Q253 581 253 574.5 Q253 568 253 562 Q253 560 252 559.5 Q251 559 251 557 Q248 560 248 561 Q247 566 247 570.5 Q247 575 247 580 Q247 601 237.5 608.5 Q228 616 210 616 Q191 615 178 595 Q160 571 155 537 Q154 529 153.5 521 Q153 513 155 505 Q158 492 165 486 Q169 483 173 481 Q177 479 183 481 Q204 488 224 482 Q234 477 231 468 Q229 463 226 460 Q215 451 203 451 Q196 451 190 451.5 Q184 452 178 452 Q173 452 169 449 Q154 438 143 423 Q132 408 123 391 Q109 365 100 337 Q91 309 86 280 Q83 264 80.5 248 Q78 232 78 215 Q77 175 94 149 Q111 123 143 109 Q154 104 165 100.5 Q176 97 187 98 Q221 98 247 114.5 Q273 131 292 162 Q304 181 312 201.5 Q320 222 325 244 Q329 260 331 275.5 Q333 291 335 307 Q335 310 335.5 312.5 Q336 315 336 318 Q315 332 292.5 335 Q270 338 245 326 Q237 322 229.5 318.5 Q222 315 214 309 Q213 308 209 306 Q208 306 207 306.5 Q206 307 205 307 Q206 308 206 309 Q206 310 207 311 Q223 325 240.5 336 Q258 347 279 351 Q302 355 326 346 Q346 338 366.5 334.5 Q387 331 409 330 Q432 330 444 349 Q450 359 458 353 Q465 347 459 338 Q442 307 411 306 Q404 306 397.5 306.5 Q391 307 383 307 L379 307 L379 302 Q379 216 338 143 Q295 64 210 47 Q189 43 169.5 46.5 Q150 50 131 58 Q82 78 55 124 Q34 162 35 206 Q38 256 50 302 Q62 348 86 393 Q109 434 143 461 Q146 462 147 465 Z " />
<glyph glyph-name="parenright" unicode="&#x29;" horiz-adv-x="181" d="M96 422 Q96 445 94 467 Q92 489 86 510 Q81 530 74.5 550 Q68 570 59 589 Q54 601 46 606 Q44 608 44 611 Q48 611 49 610 Q57 605 63 598 Q69 591 75 583 Q91 560 103.5 535.5 Q116 511 124 484 Q131 462 133 439 Q135 416 135 393 Q134 365 130 337.5 Q126 310 119 283 Q109 248 99.5 214 Q90 180 78 146 Q70 127 62 110 Q54 93 43 76 Q35 61 18 66 Q3 69 1 85 Q1 92 3 98 Q18 127 29.5 156.5 Q41 186 51 216 Q60 244 68.5 272 Q77 300 85 329 Q97 376 96 422 Z " />
<glyph glyph-name="parenleft" unicode="&#x28;" horiz-adv-x="197" d="M44 298 Q45 341 53.5 377 Q62 413 76 447 Q108 522 164 578 Q167 581 170 584 Q173 587 176 591 Q191 605 206 593 Q221 579 208 563 Q194 543 179 523 Q164 503 150 483 Q127 451 112 414.5 Q97 378 89 340 Q85 320 84.5 300.5 Q84 281 84 261 Q85 236 88 212 Q91 188 99 165 Q105 145 116 127 Q127 109 141 92 Q147 84 157 84 Q160 84 160 83 Q160 83 163 80 Q162 80 161.5 79 Q161 78 160 78 Q155 80 149.5 80.5 Q144 81 140 83 Q127 91 116.5 102 Q106 113 97 125 Q56 181 48 254 Q47 267 46 278.5 Q45 290 44 298 Z " />
<glyph glyph-name="braceright" unicode="&#x7d;" horiz-adv-x="222" d="M141 376 L129 376 Q118 377 116 387 Q117 416 117 444.5 Q117 473 117 502 Q117 519 117 535 Q117 551 113 568 Q111 573 110 577.5 Q109 582 106 586 Q97 603 73 605 L53 605 Q52 605 48 607 Q50 608 50.5 609 Q51 610 53 610 Q59 610 65.5 610.5 Q72 611 79 611 Q91 610 100.5 604.5 Q110 599 117 591 Q125 581 128.5 570 Q132 559 135 547 Q146 502 143 458 Q142 443 140.5 427.5 Q139 412 138 397 Q138 395 137.5 393.5 Q137 392 137 390 Q145 391 153 391.5 Q161 392 169 394 Q173 394 181 396 Q190 398 192 391 Q192 386 183 383 Q170 381 162 377 Q153 373 150 367 Q147 361 145 353 Q141 331 138.5 310 Q136 289 132 268 Q130 258 127.5 249 Q125 240 123 230 Q108 176 77 126 Q69 112 57 100.5 Q45 89 28 81 Q20 76 10.5 73.5 Q1 71 -7 73 Q-21 74 -30 81 Q-39 88 -44 99 Q-48 109 -49 114 Q-51 124 -40 128 Q-28 131 -23 121 Q-21 116 -19.5 112 Q-18 108 -16 104 Q-9 91 4 98 Q9 100 13.5 103 Q18 106 22 110 Q48 133 62 164 Q63 166 64 167.5 Q65 169 66 171 Q80 193 88 216 Q96 239 104 262 Q115 306 128 345 Q130 353 133.5 360.5 Q137 368 141 376 Z " />
<glyph glyph-name="braceleft" unicode="&#x7b;" horiz-adv-x="247" d="M96 380 Q100 381 105 381.5 Q110 382 115 383 Q126 383 129 374 Q129 371 129.5 368 Q130 365 130 362 Q128 350 127 338 Q126 326 124 315 Q120 296 117.5 278 Q115 260 113 242 Q110 215 110 188 Q111 168 116 150 Q121 132 129 115 Q134 105 141 98 Q154 86 142 74 Q135 69 127 68.5 Q119 68 113 73 Q102 81 94.5 91.5 Q87 102 82 114 Q72 137 70 160.5 Q68 184 71 209 Q77 274 104 339 Q106 344 107.5 349.5 Q109 355 111 360 Q112 362 111.5 364.5 Q111 367 111 369 L108 369 Q87 365 67 353 Q62 350 55 347 Q47 344 44 349 Q41 354 45 358 Q49 361 55 367 Q65 375 69 385 Q73 395 78 406 Q85 428 90 449.5 Q95 471 100 493 Q103 510 107.5 527 Q112 544 121 561 Q142 601 191 608 Q198 609 204.5 608.5 Q211 608 218 607 Q219 607 219.5 606 Q220 605 222 604 Q220 603 218.5 602 Q217 601 216 601 Q204 601 193 598 Q182 595 171 590 Q152 582 144 562 Q138 549 135.5 536 Q133 523 131 510 Q129 485 124 461 Q119 437 111 413 Q108 405 104 396.5 Q100 388 96 380 Z " />
<glyph glyph-name="bracketright" unicode="&#x5d;" horiz-adv-x="222" d="M70 88 Q68 102 70 114 Q71 131 71 147.5 Q71 164 73 181 Q74 216 78.5 251.5 Q83 287 89 322 Q94 351 100 379 Q106 407 111 436 Q121 497 147 559 Q151 570 156.5 580.5 Q162 591 167 602 Q164 602 160.5 601.5 Q157 601 152 601 Q138 600 125 599 Q112 598 98 598 Q93 597 88.5 598 Q84 599 79 600 Q76 600 74 602 Q73 602 73 603 L73 604 Q76 606 77 605 Q87 603 97.5 605 Q108 607 119 607 Q133 608 145.5 609 Q158 610 172 611 Q188 613 179 602 Q174 594 170.5 586 Q167 578 165 569 Q161 550 157.5 532 Q154 514 151 495 Q148 473 146 452 Q144 431 142 410 Q140 396 138.5 382.5 Q137 369 136 355 Q132 321 127.5 287 Q123 253 115 218 Q112 197 108.5 176 Q105 155 101 133 Q97 112 87 86 Q86 77 73 77 Q62 76 50 75.5 Q38 75 27 74 Q16 73 7 72 Q-2 71 -12 70 Q-17 69 -20 73 Q-20 79 -14 81 Q-4 83 6 84 Q16 85 27 87 Q38 88 48.5 88 Q59 88 70 88 Z " />
<glyph glyph-name="bracketleft" unicode="&#x5b;" horiz-adv-x="202" d="M43 86 Q52 87 60.5 87 Q69 87 77 88 Q116 91 153 85 Q160 84 160 78 Q158 72 151 72 Q140 71 129 71 Q118 71 107 71 Q93 70 79.5 70 Q66 70 52 70 Q47 70 41.5 70.5 Q36 71 31 72 Q22 73 19 84 Q19 89 19.5 93 Q20 97 20 102 Q22 128 26.5 154 Q31 180 37 206 Q42 222 44 237.5 Q46 253 49 270 Q54 307 59 343.5 Q64 380 69 417 Q72 437 75.5 457.5 Q79 478 81 498 Q83 515 86 530.5 Q89 546 91 563 Q91 566 92 569 Q93 572 93 574 Q97 593 117 598 Q156 610 196 607 Q202 607 208 606.5 Q214 606 220 606 Q221 606 221.5 605 Q222 604 223 604 Q220 601 219 601 Q213 601 207 601 Q201 601 196 600 Q176 598 157 595 Q138 592 119 587 Q118 587 117 586.5 Q116 586 115 586 Q106 583 106 575 Q106 563 106 550.5 Q106 538 105 526 Q104 504 104 482.5 Q104 461 102 440 Q100 398 96 357.5 Q92 317 88 276 Q85 242 78.5 209 Q72 176 63 144 Q58 130 53.5 116.5 Q49 103 43 89 L43 86 Z " />
<glyph glyph-name="bar" unicode="&#x7c;" horiz-adv-x="197" d="M116 391 Q115 359 114.5 329 Q114 299 113 269 Q111 245 109.5 221 Q108 197 106 173 Q104 145 101.5 118 Q99 91 97 64 Q96 56 95 49 Q94 42 93 34 L93 22 Q93 13 88 11 Q83 7 77 11 Q69 17 68 26 Q66 35 65 43.5 Q64 52 63 61 Q61 83 60.5 104 Q60 125 62 146 Q64 165 65.5 183 Q67 201 69 219 Q71 239 72.5 257.5 Q74 276 75 296 Q77 341 79.5 384 Q82 427 84 472 Q85 487 85 501.5 Q85 516 87 531 Q88 547 89 562 Q90 577 92 593 Q94 608 95 623 Q96 638 98 652 L98 657 Q99 659 101 661 Q101 660 102 659 Q103 658 103 657 Q103 649 103 642 Q103 635 104 627 Q106 614 106.5 602 Q107 590 109 578 Q113 547 114.5 516.5 Q116 486 116 455 L116 391 Z " />
<glyph glyph-name="question" unicode="&#x3f;" horiz-adv-x="257" d="M262 592 Q268 565 255 536 Q246 517 237 498.5 Q228 480 218 462 Q202 432 186 402.5 Q170 373 153 342 Q133 306 120.5 267 Q108 228 97 188 Q96 186 96 184 Q96 182 95 180 Q90 167 79 169 Q67 171 65 184 Q64 190 64.5 196 Q65 202 64 205 Q66 247 75.5 282.5 Q85 318 101 353 Q118 390 139.5 424.5 Q161 459 184 494 Q203 524 220 557 Q225 564 226.5 571.5 Q228 579 229 587 Q230 597 227 601 Q224 605 214 604 Q200 602 186 600.5 Q172 599 158 595 Q135 588 113 579 Q91 570 70 557 Q58 550 54 540 Q54 540 51 537 Q48 540 48 541 Q50 545 51.5 549.5 Q53 554 55 556 Q63 564 70.5 571.5 Q78 579 86 585 Q109 601 133 613.5 Q157 626 183 631 Q206 636 226 633 Q240 631 250 620 Q260 609 262 592 Z M72 108 Q84 108 92.5 99.5 Q101 91 101 79 Q102 67 93.5 58.5 Q85 50 73 50 Q61 50 52.5 59 Q44 68 43 80 Q44 92 52 100 Q60 108 72 108 Z " />
<glyph glyph-name="asterisk" unicode="&#x2a;" horiz-adv-x="220" d="M208 577 Q217 575 217 569 Q217 562 208 562 Q193 561 178 560.5 Q163 560 148 560 L144 560 Q146 556 149 555 L182 525 L185 522 Q189 517 185 513 Q181 509 176 513 Q171 518 166 521.5 Q161 525 156 530 Q148 538 140.5 544.5 Q133 551 125 559 Q124 543 123 527.5 Q122 512 121 496 Q120 486 114 485 Q105 485 105 495 Q105 507 105 518.5 Q105 530 106 542 L106 549 Q92 537 87 525 L87 523 Q83 513 75 516 Q67 519 72 529 Q79 548 96 563 Q90 565 84.5 565.5 Q79 566 74 568 Q72 569 70.5 569 Q69 569 67 571 Q65 571 65 574 Q67 576 69 576 Q77 573 86 573 Q95 573 104 573 Q116 575 110 584 Q105 592 100.5 600 Q96 608 91 616 Q90 616 90 618 L90 619 Q92 621 94 620 Q98 618 99 616 Q106 605 116 596 L122 632 Q122 633 124 637 Q125 636 126.5 635.5 Q128 635 128 633 Q129 629 129 622 Q129 614 128.5 605.5 Q128 597 128 588 Q138 593 147 597.5 Q156 602 165 607 Q166 607 166 608 Q168 608 169.5 608.5 Q171 609 173 609 L173 607 Q173 606 174 605 Q172 600 169 600 Q167 600 167 599 Q160 594 153 588.5 Q146 583 138 576 Q143 577 147 577 Q151 577 156 577 L206 577 L208 577 L208 577 Z " />
<glyph glyph-name="underscore" unicode="&#x5f;" horiz-adv-x="412" d="M336 81 Q339 73 333 69 Q327 65 323 65 L200 62 Q180 61 160 60 Q140 59 120 58 Q97 58 73.5 57.5 Q50 57 27 57 Q19 57 12 60 Q10 60 8 64 Q8 67 12 67 Q31 72 49.5 76 Q68 80 87 84 Q126 92 165 96.5 Q204 101 244 99 Q253 98 262.5 98 Q272 98 282 97 Q292 95 302.5 94 Q313 93 324 91 Q333 89 336 81 Z " />
<glyph glyph-name="hyphen" unicode="&#x2d;" horiz-adv-x="300" d="M240 355 Q242 354 244 353 Q246 352 245 350 Q244 347 242.5 348 Q241 349 239 350 Q237 350 235 350.5 Q233 351 231 350 Q218 348 205.5 346.5 Q193 345 180 343 Q160 339 140.5 336 Q121 333 101 333 Q89 333 77 334 Q65 335 53 336 Q45 338 45 346 Q43 356 53 356 Q59 357 65.5 357 Q72 357 78 358 Q107 359 135 359.5 Q163 360 191 361 L200 361 L200 362 L239 356 L240 355 L240 355 Z " />
<glyph glyph-name="plus" unicode="&#x2b;" horiz-adv-x="337" d="M150 327 Q142 326 135 325.5 Q128 325 120 325 Q106 325 92 325.5 Q78 326 64 326 Q62 326 59.5 325.5 Q57 325 55 325 Q52 325 51 326 Q51 329 52 329 Q55 332 59 332 Q82 337 103.5 340.5 Q125 344 148 348 Q153 350 153 353 Q153 370 155.5 387 Q158 404 161 421 Q162 426 163 431 Q164 436 166 441 Q166 441 171 444 L171 438 Q169 430 168.5 423.5 Q168 417 169 409 Q171 396 171.5 384 Q172 372 174 359 L174 353 Q181 355 187.5 355.5 Q194 356 200 357 Q216 358 231.5 358 Q247 358 263 358 Q268 358 272.5 357.5 Q277 357 282 357 Q294 355 294 347 Q294 340 283 338 Q257 336 231 333.5 Q205 331 179 329 Q177 329 175 328 Q176 326 176 323 Q175 300 175 278.5 Q175 257 174 235 Q174 230 172.5 224.5 Q171 219 170 214 Q167 206 158 206 Q150 208 150 217 L150 308 L150 327 Z " />
<glyph glyph-name="equal" unicode="&#x3d;" horiz-adv-x="357" d="M308 301 Q310 301 310.5 300 Q311 299 313 298 Q311 298 310 297 Q309 296 308 296 Q291 295 273.5 295.5 Q256 296 239 295 Q220 294 201.5 292.5 Q183 291 164 289 Q143 287 122 286.5 Q101 286 80 285 L80 286 Q72 286 68 287 Q57 289 57 299 Q57 308 68 310 Q80 312 91.5 313 Q103 314 115 315 Q160 320 203 316 Q246 312 290 304 L308 301 Z M85 368 Q85 366 81 366 Q81 367 80.5 367.5 Q80 368 80 370 Q80 378 88 380 Q97 382 106 384 Q115 386 124 387 Q141 389 158 390 Q175 391 192 391 Q209 392 226.5 390.5 Q244 389 262 388 Q268 387 274 386.5 Q280 386 286 386 Q288 386 290 385 Q298 383 298 376 Q298 369 289 368 Q283 367 277 367 Q271 367 265 367 Q242 368 219.5 368.5 Q197 369 174 370 L174 371 Q157 372 139.5 373 Q122 374 105 375 Q98 375 94 374 Q87 372 85 368 Z " />
<glyph glyph-name="greater" unicode="&#x3e;" horiz-adv-x="317" d="M246 342 Q229 356 212 363 L128 399 Q118 404 108 408 Q98 412 87 417 Q85 418 79 420 Q78 420 75 423 Q78 426 80 426 Q86 425 92 424.5 Q98 424 104 422 Q131 414 157 404.5 Q183 395 209 384 Q231 375 250 358 Q259 351 260 343 Q260 334 255 332 Q238 322 222.5 313 Q207 304 191 295 Q153 273 115.5 252 Q78 231 40 210 Q37 208 31 206 Q22 203 17 209 Q12 216 20 222 Q33 233 46 243.5 Q59 254 73 263 Q105 285 140 301 Q175 317 212 331 Q219 333 225.5 335 Q232 337 239 339 Q243 341 246 342 Z " />
<glyph glyph-name="less" unicode="&#x3c;" horiz-adv-x="335" d="M102 310 Q126 303 148 292 Q170 281 191 268 Q206 259 220.5 249 Q235 239 250 229 L256 223 Q262 215 258 209 Q253 201 244 206 Q236 211 227.5 214.5 Q219 218 211 223 Q187 237 163 250.5 Q139 264 115 278 Q107 283 98.5 287.5 Q90 292 80 294 Q74 294 71 295 Q63 295 60 301 Q55 309 61 314 Q67 322 74 326 Q103 349 135 367.5 Q167 386 202 400 Q222 408 242.5 415 Q263 422 283 430 Q285 431 290 431 Q292 431 293 430.5 Q294 430 295 430 Q293 427 292 426 Q288 424 284 422 Q280 420 276 418 Q264 410 252 402.5 Q240 395 228 387 Q197 368 166.5 349.5 Q136 331 106 313 Q104 311 102 310 Z " />
<glyph glyph-name="slash" unicode="&#x2f;" horiz-adv-x="333" d="M-32 11 Q-34 17 -34 19 Q-34 22 -33.5 25 Q-33 28 -28 30 Q-26 30 -26 34 L76 232 Q112 302 148 371.5 Q184 441 216 513 Q230 543 243 573.5 Q256 604 270 635 Q275 644 281 650 Q287 656 296 657 Q299 656 307 656 Q314 654 318 650 Q325 639 315 606.5 Q305 574 284 529.5 Q263 485 233.5 432 Q204 379 172.5 325 Q141 271 110 220.5 Q79 170 54.5 131 Q30 92 14.5 68 Q-1 44 -1 44 Q-3 41 -6 38 Q-9 35 -11 32 Q-15 27 -18 23 Q-21 19 -25 15 Q-26 13 -32 11 Z " />
<glyph glyph-name="fraction" unicode="&#x2044;" horiz-adv-x="157" d="M-106 11 Q-108 17 -108 19 Q-108 22 -107.5 25 Q-107 28 -102 30 Q-100 30 -100 34 L2 232 Q38 302 74 371.5 Q110 441 142 513 Q156 543 169 573.5 Q182 604 196 635 Q201 644 207 650 Q213 656 222 657 Q225 656 233 656 Q240 654 244 650 Q251 639 241 606.5 Q231 574 210 529.5 Q189 485 159.5 432 Q130 379 98.5 325 Q67 271 36 220.5 Q5 170 -19.5 131 Q-44 92 -59.5 68 Q-75 44 -75 44 Q-77 41 -80 38 Q-83 35 -85 32 Q-89 27 -92 23 Q-95 19 -99 15 Q-100 13 -106 11 Z " />
<glyph glyph-name="colon" unicode="&#x3a;" horiz-adv-x="202" d="M105 352 Q93 352 84.5 361 Q76 370 77 382 Q78 394 86.5 402.5 Q95 411 107 410 Q119 410 127 401.5 Q135 393 135 381 Q134 369 125.5 360.5 Q117 352 105 352 Z M110 319 Q130 313 122 293 Q116 274 96 264 Q88 262 86 262 Q84 262 82 262.5 Q80 263 78 263 L78 264 Q65 268 63 279 Q61 290 61 295 Q64 312 75 318 Q76 319 77 319 Q78 319 79 320 L80 320 Q82 320 82.5 320.5 Q83 321 84 321 L86 321 Q88 321 90.5 321.5 Q93 322 95 322 Q99 321 102.5 321 Q106 321 110 319 Z " />
<glyph glyph-name="semicolon" unicode="&#x3b;" horiz-adv-x="180" d="M114 409 Q131 406 127 389 Q119 361 94 354 Q86 352 78 356 Q70 360 66 368 Q64 372 64 375 L64 376 Q64 377 65 383 Q66 389 71 395 Q76 401 85.5 405.5 Q95 410 112 409 L113 409 L114 409 Z M72 321 Q84 323 94 322 Q102 321 109 318 Q116 315 116 307 Q116 303 115 300 L115 299 Q114 297 112 291 Q107 280 95 265 Q94 263 93.5 262.5 Q93 262 92 260 Q90 258 86 252 L64 220 Q63 218 62 218 Q61 218 60 217 Q59 218 58.5 219 Q58 220 57 221 Q58 223 58 224.5 Q58 226 59 228 Q61 236 63 240 Q64 240 64 241 L71 260 Q71 260 72 262 Q72 263 73 265 Q71 264 67 264 Q59 264 55 270 Q52 275 53 283 Q55 295 58.5 305.5 Q62 316 72 321 Z " />
<glyph glyph-name="quotedbl" unicode="&#x22;" horiz-adv-x="207" d="M91 651 Q103 654 113 653 Q121 652 128 648.5 Q135 645 135 637 Q135 633 134 631 L134 629 Q133 627 131 621 Q129 616 125 609.5 Q121 603 114 595 Q113 593 112.5 592.5 Q112 592 111 590 Q109 588 108 586.5 Q107 585 105 583 L83 550 Q82 549 81 548.5 Q80 548 79 547 Q78 549 76 551 Q77 553 77 555 Q77 557 78 559 Q79 561 79.5 564 Q80 567 82 570 Q83 570 83 572 L90 590 Q90 590 91 592 Q91 593 92 595 Q90 594 86 594 Q78 594 74 600 Q71 605 72 613 Q74 626 77.5 636 Q81 646 91 651 Z M159 648 Q171 650 181 649 Q189 648 196.5 645.5 Q204 643 204 636 Q204 634 203.5 633 Q203 632 203 630 Q202 629 202 628 Q202 625 199 622 Q197 617 193 611.5 Q189 606 182 598 Q181 597 180.5 596 Q180 595 179 594 Q175 590 173 587 L151 558 Q150 557 149 557 Q148 557 147 556 Q145 558 144 560 Q146 564 146 566 Q148 568 148.5 571 Q149 574 151 576 L151 577 L159 594 L161 598 Q158 597 154 597 Q146 597 142 603 Q140 608 141 614 Q142 625 146 634 Q150 643 159 648 Z " />
<glyph glyph-name="comma" unicode="&#x2c;" horiz-adv-x="155" d="M47 282 Q47 282 55.5 283 Q64 284 73.5 283.5 Q83 283 91 280 Q99 277 99 268 Q99 264 98 262 Q97 262 97 260 Q96 258 96 256.5 Q96 255 94 252 Q91 247 86.5 240.5 Q82 234 75 226 Q73 225 70 222 Q68 220 67 218 Q66 216 64 214 L38 182 Q38 181 33 179 Q32 180 31.5 181 Q31 182 30 183 Q31 185 31.5 186.5 Q32 188 33 190 Q34 192 35 195.5 Q36 199 38 201 L38 203 L47 221 Q47 221 48 223 Q48 224 49 226 Q45 225 41 225 Q34 225 28 231 Q25 236 26 244 Q28 257 32 267 Q36 277 47 282 Z " />
<glyph glyph-name="period" unicode="&#x2e;" horiz-adv-x="155" d="M57 283 Q79 277 71 254 Q61 231 42 224 Q36 221 31 221 Q28 221 26.5 221.5 Q25 222 23 223 L22 223 Q8 227 6 239 Q4 251 5 257 Q6 268 10 273.5 Q14 279 19 281 Q23 283 24 283 Q25 283 26 284 Q27 284 28 284.5 Q29 285 30 285 L31 285 Q34 285 36 285.5 Q38 286 41 286 Q45 285 49 285 Q53 285 57 283 Z " />
<glyph glyph-name="grave" unicode="&#x60;" horiz-adv-x="220" d="M75 610 Q77 609 78.5 608.5 Q80 608 82 606 L163 537 Q168 532 173.5 527.5 Q179 523 184 518 L188 514 Q194 508 188 501 Q185 494 176 498 Q172 500 168.5 502 Q165 504 161 506 Q118 537 84 575 Q79 580 75 583.5 Q71 587 67 592 Q61 598 64 604 Q67 610 75 610 Z " />
<glyph glyph-name="backslash" unicode="&#x5c;" horiz-adv-x="417" d="M357 11 Q349 13 347 15 Q334 24 326 39 Q316 54 310 69.5 Q304 85 297 101 Q278 146 259 189.5 Q240 233 222 278 Q196 340 166.5 400 Q137 460 108 521 Q96 546 85.5 571.5 Q75 597 64 623 Q62 630 60 636.5 Q58 643 56 650 Q55 653 55 659 Q55 664 61 662 Q66 660 64 656 Q63 655 65 650 Q70 642 75 633.5 Q80 625 86 617 Q116 575 141.5 533 Q167 491 190 448 Q220 394 246 339 Q272 284 298 228 Q314 192 327 155.5 Q340 119 351 81 Q356 67 359.5 53 Q363 39 368 25 Q371 13 357 11 Z " />
<glyph glyph-name="W" unicode="W" horiz-adv-x="497" d="M111 356 L117 410 Q124 462 132 513.5 Q140 565 155 616 Q160 630 166 643.5 Q172 657 177 671 Q183 684 196 682 Q209 680 212 667 Q214 657 215 647 Q216 637 216 626 Q215 584 214 541.5 Q213 499 213 457 Q212 399 211.5 341.5 Q211 284 213 227 Q214 121 240 19 Q242 8 246 -3 Q250 -14 255 -25 Q259 -36 269 -45 Q278 -54 290 -54 Q302 -54 312 -45 Q323 -34 328.5 -22 Q334 -10 339 4 Q347 28 352 52 Q357 76 361 101 Q368 147 371.5 192.5 Q375 238 379 284 Q381 320 384 356.5 Q387 393 390 429 Q395 486 401 542 Q407 598 417 655 Q418 662 418.5 668 Q419 674 420 680 Q423 698 439 700 Q457 700 460 682 Q462 673 463 663.5 Q464 654 464 644 Q465 613 463 583 Q461 553 458 522 Q455 494 452.5 467 Q450 440 447 412 Q442 361 438 311 Q434 261 429 210 Q426 173 421 137 Q416 101 409 65 Q404 43 398.5 21 Q393 -1 384 -22 Q377 -38 368.5 -52 Q360 -66 347 -77 Q327 -96 299 -98.5 Q271 -101 248 -87 Q228 -76 215.5 -58.5 Q203 -41 195 -21 Q185 2 179.5 26.5 Q174 51 170 76 Q162 135 159.5 193.5 Q157 252 159 312 L159 357 Q157 349 156 340.5 Q155 332 153 324 Q150 306 147 288.5 Q144 271 136 254 Q131 238 120 231 Q112 227 103.5 228.5 Q95 230 90 237 Q84 245 80.5 254.5 Q77 264 75 274 Q68 297 65.5 320 Q63 343 61 367 Q60 392 60 416.5 Q60 441 59 466 Q59 468 58 469 Q56 464 54.5 460 Q53 456 51 451 Q37 409 23 369 Q9 329 -5 287 Q-8 279 -11 271 Q-14 263 -17 255 Q-18 254 -19 253.5 Q-20 253 -21 252 Q-22 254 -23 255 Q-24 256 -24 258 Q-25 275 -22.5 290.5 Q-20 306 -18 323 Q-13 363 -4 401.5 Q5 440 17 478 Q25 500 33 521 Q41 542 52 562 Q54 564 56 569 Q63 579 73 578 Q86 576 90 566 Q92 556 94.5 546 Q97 536 98 525 Q101 487 103.5 450 Q106 413 109 375 Q109 370 109.5 365.5 Q110 361 110 356 L111 356 Z " />
<glyph glyph-name="o" unicode="o" horiz-adv-x="111" d="M121 319 Q120 317 116 310.5 Q112 304 105 296.5 Q98 289 88 283 Q78 277 65 276 Q63 265 59 254 Q55 245 49.5 235 Q44 225 36 220 L30 217 Q29 216 26 216 Q24 215 20 215 Q4 215 -3 230 Q-5 235 -6 239 Q-7 243 -7 248 Q-9 272 -7.5 295.5 Q-6 319 3 341 Q7 349 11 357 Q15 365 20 373 Q21 374 20 376 Q20 380 21 382 L24 385 Q26 386 30 387 Q34 388 42 385 Q51 383 55 378 Q59 373 61 369 Q63 361 65 352.5 Q67 344 68 336 Q68 334 69 322 Q70 310 68 294 Q78 297 87 302 Q95 307 103 315.5 Q111 324 116 338 Q116 339 118 343 Q119 345 119 347 Q122 346 124 342 Q128 335 121 319 Z M25 271 Q26 272 26 274 Q26 278 27 282 Q19 286 16 289 L16 269 Q16 258 16 250.5 Q16 243 17 241 Q21 248 23 256 Q25 266 25 271 Z M31 357 Q31 360 30.5 363 Q30 366 25 368 Q23 358 23 353 L22 351 Q20 347 20 343 Q18 328 21 320 L21 319 Q23 315 24 312.5 Q25 310 26 308 Q27 307 28 306.5 Q29 306 30 305 Q31 314 31.5 323.5 Q32 333 31 341 L31 357 Z " />
<glyph glyph-name="n" unicode="n" horiz-adv-x="200" d="M216 348 Q218 348 217.5 342 Q217 336 215.5 328.5 Q214 321 211 312 Q208 303 206 297 Q206 294 204 290 Q201 283 193 265 Q185 247 173 227.5 Q161 208 145.5 192.5 Q130 177 112 175 L111 175 L110 175 L108 175 Q94 175 82 187 Q80 189 78.5 191.5 Q77 194 75 196 Q69 208 67 220 Q65 232 65 245 Q66 268 67 290 Q68 312 69 335 Q69 338 68 339 Q67 337 65 331 Q58 310 51.5 289 Q45 268 37 247 Q35 239 31.5 232 Q28 225 25 218 Q19 206 8 208 Q-5 210 -5 223 Q-5 237 -5.5 251.5 Q-6 266 -5 280 Q-3 309 1.5 338 Q6 367 12 396 Q13 403 15.5 411 Q18 419 21 425.5 Q24 432 27.5 435 Q31 438 35 434 Q39 428 40 423 Q41 419 41 415 Q41 411 41 407 Q41 402 41.5 398.5 Q42 395 43 390 Q45 394 45 395 Q51 406 57.5 417.5 Q64 429 73 438 Q76 440 79.5 442.5 Q83 445 87 446 L95 446 Q98 444 101 438.5 Q104 433 106 418 Q108 403 108 377.5 Q108 352 104 310 Q101 277 100.5 256 Q100 235 101.5 222.5 Q103 210 106 204.5 Q109 199 114 199 L117 199 Q126 201 135.5 208.5 Q145 216 152 224 Q155 227 157.5 230 Q160 233 163 237 Q175 254 185 273 Q195 292 202 309 Q210 328 216 348 Z " />
</font>
</svg>
