<?xml version="1.0" encoding="UTF-8"?>
<svg xmlns="http://www.w3.org/2000/svg" xmlns:xlink="http://www.w3.org/1999/xlink" version="1.2" >
<font id="Supartiny">
<font-face  font-family="Supartiny" units-per-em="1000" ascent="750" descent="-250" font-style="normal" font-weight="400" font-stretch="normal" cap-height="700" x-height="500" underline-position="-75" underline-thickness="50" />
<missing-glyph  horiz-adv-x="246" d="" />
<glyph glyph-name="NULL" d="" />
<glyph glyph-name="CR" unicode="&#xd;" horiz-adv-x="246" d="" />
<glyph glyph-name="space" unicode="&#x20;" horiz-adv-x="246" d="" />
<glyph glyph-name="exclam" unicode="&#x21;" horiz-adv-x="273" d="M240 523 C240 523 173 429 136 364 C100 300 51 197 51 197 L87 197 C87 197 217 459 258 506 C258 506 265 520 240 523 L240 523 Z M37 168 C16 139 27 119 40 118 C54 116 83 139 69 163 C56 188 37 168 37 168 L37 168 Z " />
<glyph glyph-name="quotedbl" unicode="&#x22;" horiz-adv-x="219" d="M112 615 C112 615 114 588 103 576 C91 565 78 546 92 545 C106 543 119 560 127 579 C135 598 127 617 112 615 L112 615 Z M163 624 C163 624 163 597 149 581 C135 565 125 548 137 544 C150 540 155 547 170 570 C185 592 194 625 163 624 L163 624 Z " />
<glyph glyph-name="numbersign" unicode="&#x23;" horiz-adv-x="324" d="M251 338 C249 346 237 349 208 348 C221 374 239 407 239 407 C239 407 238 411 234 409 L205 348 C199 348 192 348 185 347 C177 347 169 347 161 346 C177 379 198 423 198 423 C198 423 198 426 194 426 C194 426 178 391 157 346 C125 345 102 344 99 338 C99 338 98 329 120 327 C126 326 136 326 148 326 C143 316 138 304 133 293 C98 293 69 293 60 293 C60 293 44 276 73 274 C83 274 103 274 124 274 C95 212 69 155 69 150 C69 150 74 147 76 152 C78 156 106 224 127 274 C142 274 158 274 172 275 C158 243 135 191 124 174 C124 174 123 167 127 173 C130 179 159 237 159 237 C159 237 167 255 176 275 C197 275 212 275 212 275 C212 275 228 273 232 281 C235 289 221 294 185 294 C190 306 195 317 196 322 C197 324 198 326 199 329 C221 330 240 331 240 331 C240 331 252 329 251 338 L251 338 Z M183 300 C183 300 182 298 180 294 C177 294 173 294 169 294 C157 294 146 293 136 293 C141 306 146 316 148 321 C149 323 150 325 151 326 C165 327 181 328 196 328 L183 300 L183 300 Z " />
<glyph glyph-name="dollar" unicode="&#x24;" horiz-adv-x="340" d="M268 477 C258 480 248 481 238 480 C257 519 269 544 269 544 C269 544 277 566 255 567 L208 477 C160 466 120 437 113 423 C105 407 132 392 158 380 L110 289 L72 206 C-29 236 19 300 19 300 L15 297 C-11 249 22 214 69 201 L39 136 C39 136 62 113 69 133 C71 138 82 161 99 195 C152 191 211 212 224 269 C236 322 212 352 185 372 C203 410 221 446 235 475 C258 477 266 471 266 471 L249 462 C280 469 268 477 268 477 L268 477 Z M223 291 C224 260 188 188 101 199 C123 245 153 308 183 367 C206 352 222 323 223 291 L223 291 Z M161 386 C133 400 109 408 119 423 C138 451 173 463 204 470 L161 386 L161 386 Z " />
<glyph glyph-name="percent" unicode="&#x25;" horiz-adv-x="273" d="M96 389 C111 390 136 411 143 432 C150 452 158 489 121 497 C121 497 78 472 66 439 C54 406 80 388 96 389 L96 389 Z M94 443 C109 475 134 482 134 482 C140 485 152 480 142 440 C132 400 102 396 98 395 C94 395 79 411 94 443 L94 443 Z M228 479 L140 374 L7 190 C7 190 12 186 19 196 C26 206 146 374 146 374 C146 374 241 475 228 479 L228 479 Z M144 283 C135 283 145 278 145 278 C145 278 152 265 152 258 C152 251 154 207 111 198 C111 198 104 231 139 256 C139 256 149 271 129 271 C129 271 101 256 91 222 C80 188 114 188 128 201 C143 214 150 221 154 238 C159 256 153 284 144 283 L144 283 Z " />
<glyph glyph-name="ampersand" unicode="&#x26;" horiz-adv-x="301" d="M279 499 L229 402 C229 402 163 419 131 365 C100 311 161 312 161 312 C161 312 88 296 67 251 C45 206 127 212 149 227 L92 121 C92 121 94 116 99 125 C105 133 149 223 158 235 C158 235 74 217 86 260 C97 303 175 308 175 308 C175 308 185 310 185 314 C185 314 131 314 150 360 C169 405 215 400 229 396 L232 397 L284 499 L279 499 L279 499 Z " />
<glyph glyph-name="quotesingle" unicode="&#x27;" horiz-adv-x="145" d="M85 635 C85 635 87 608 76 596 C64 585 50 566 65 565 C79 563 92 580 100 599 C108 618 100 637 85 635 L85 635 Z " />
<glyph glyph-name="parenleft" unicode="&#x28;" horiz-adv-x="226" d="M235 499 C235 499 126 425 76 312 C25 199 79 99 79 99 L86 102 C86 102 -10 256 243 488 L235 499 L235 499 Z " />
<glyph glyph-name="parenright" unicode="&#x29;" horiz-adv-x="203" d="M107 477 C107 477 154 473 77 296 C1 119 -56 91 -56 91 L-49 91 C-49 91 45 162 112 314 C179 467 123 485 123 485 C123 485 110 481 107 477 L107 477 Z " />
<glyph glyph-name="asterisk" unicode="&#x2a;" horiz-adv-x="187" d="M185 591 C170 583 156 574 141 565 C149 581 156 598 162 614 C164 620 157 620 155 614 C148 597 141 581 133 564 C129 576 125 589 122 602 C121 606 113 602 114 597 C118 584 122 571 126 558 C113 558 100 557 86 555 C81 555 80 547 85 547 C97 549 108 550 119 550 C95 533 71 515 47 497 C43 493 46 487 50 491 C75 510 100 529 125 546 C113 521 101 495 90 469 C88 464 95 464 98 469 C108 493 120 518 131 542 C133 535 136 527 138 519 C140 511 143 502 142 492 C141 487 149 489 150 494 C151 504 149 512 146 520 C144 530 141 539 139 548 C138 548 138 549 138 549 C147 549 157 549 166 548 C171 548 174 557 169 557 C160 557 151 557 142 557 C156 567 171 576 186 584 C191 587 190 594 185 591 L185 591 Z " />
<glyph glyph-name="plus" unicode="&#x2b;" horiz-adv-x="313" d="M242 302 C223 305 202 303 181 302 C201 336 225 381 191 375 L152 299 C151 299 150 299 149 299 C134 299 117 297 102 298 C92 298 79 299 77 308 C77 310 72 307 73 305 C74 296 84 294 93 293 C107 292 123 293 138 294 C142 294 146 295 150 295 L104 207 C104 207 100 193 114 194 C127 196 155 254 174 289 C175 291 177 294 179 297 C182 297 185 297 189 298 C206 299 223 300 239 298 C242 297 244 302 242 302 L242 302 Z " />
<glyph glyph-name="comma" unicode="&#x2c;" horiz-adv-x="246" d="M92 177 C92 177 99 153 89 138 C79 123 64 109 78 104 C93 98 100 106 111 129 C122 151 109 195 92 177 L92 177 Z " />
<glyph glyph-name="hyphen" unicode="&#x2d;" horiz-adv-x="301" d="M225 301 C173 301 120 301 68 301 C65 301 65 297 68 297 C120 297 173 297 225 297 C228 297 228 301 225 301 L225 301 Z " />
<glyph glyph-name="period" unicode="&#x2e;" horiz-adv-x="227" d="M89 168 C89 168 79 160 80 142 C80 125 95 108 108 129 C121 149 114 169 89 168 L89 168 Z " />
<glyph glyph-name="slash" unicode="&#x2f;" horiz-adv-x="273" d="M240 648 C199 521 157 394 116 268 C87 180 58 93 30 6 C29 3 33 2 34 4 C75 131 117 258 158 384 C187 472 216 559 244 646 C245 649 241 650 240 648 L240 648 L240 648 Z " />
<glyph glyph-name="zero" unicode="0" horiz-adv-x="283" d="M246 441 C244 463 238 484 223 496 C211 506 190 504 179 491 C177 489 180 484 182 487 C190 497 203 498 213 495 C225 492 233 479 237 465 C242 450 243 432 242 416 C242 399 239 382 235 366 C227 333 212 304 195 279 C177 254 156 231 136 210 C129 204 122 197 115 191 C90 172 75 172 67 175 C53 185 28 217 79 326 C144 469 184 468 184 468 L176 481 C176 481 158 505 79 389 C39 332 21 270 21 224 C24 148 59 150 87 165 C100 172 112 182 124 192 C124 192 124 192 124 192 L124 192 C146 212 163 232 163 232 L163 232 C172 243 181 254 190 265 C226 311 251 374 246 441 L246 441 Z " />
<glyph glyph-name="one" unicode="1" horiz-adv-x="271" d="M86 166 C80 165 63 162 63 162 L227 491 C227 491 227 491 227 491 C237 511 229 510 229 510 C219 510 213 507 210 505 C171 467 133 429 93 392 C91 390 95 387 97 389 C134 423 169 460 206 494 L38 156 L17 152 C17 152 15 151 15 149 C15 147 90 164 90 164 C90 164 91 168 86 166 L86 166 Z " />
<glyph glyph-name="two" unicode="2" horiz-adv-x="297" d="M174 158 C169 156 136 150 116 159 C102 167 82 175 70 180 C125 241 327 490 233 510 C233 510 233 510 232 510 C230 511 227 511 224 511 C224 511 224 511 223 511 C191 512 158 497 133 479 C105 459 78 429 74 393 C73 390 78 390 78 393 C82 427 109 456 136 476 C160 493 190 507 220 507 L220 507 C220 507 251 509 228 455 C208 410 114 243 46 186 C25 188 -13 188 -19 171 C-28 148 23 133 61 171 C62 172 65 175 67 177 C75 175 82 173 89 169 C146 137 177 159 177 159 C177 159 178 160 174 158 L174 158 Z M6 166 C-41 166 -4 185 41 182 C28 172 16 166 6 166 L6 166 Z " />
<glyph glyph-name="three" unicode="3" horiz-adv-x="383" d="M289 326 C308 388 226 370 226 370 C226 370 308 433 316 479 C316 479 316 481 316 484 C316 507 277 510 268 510 C242 510 214 503 193 483 C179 470 156 436 180 424 C182 423 184 428 182 429 C161 439 187 473 199 482 C221 500 249 507 276 505 C285 504 289 502 291 501 C291 500 291 500 292 499 C292 499 292 499 292 499 L292 499 C300 490 305 458 185 362 L185 362 C185 362 177 343 195 347 C195 347 195 347 195 347 C224 355 257 360 259 341 C262 307 182 163 43 155 C43 155 -6 158 9 188 C16 203 28 213 39 219 C39 219 38 219 38 220 C23 213 4 203 2 188 C-2 162 18 152 42 149 C53 148 88 156 127 171 C132 173 230 213 274 293 C280 304 285 316 289 326 C289 326 289 326 289 326 L289 326 Z " />
<glyph glyph-name="four" unicode="4" horiz-adv-x="321" d="M277 522 L274 515 C271 513 268 511 265 508 C260 503 254 499 249 495 C237 486 226 477 215 468 C192 449 169 431 145 412 C104 379 60 347 28 304 C28 304 28 304 28 304 C28 304 28 304 28 304 C25 302 28 298 30 300 C55 317 88 320 117 324 C140 327 163 329 186 331 L108 168 C108 168 121 142 130 161 C135 170 174 252 212 333 C220 334 228 334 235 335 C238 336 238 340 235 340 C228 339 222 338 215 338 C255 422 295 504 295 504 C295 504 306 526 277 522 L277 522 Z M117 328 C91 325 62 322 38 310 C70 348 110 378 148 409 C171 427 194 445 217 463 C228 472 238 481 249 490 C254 494 260 498 265 502 C267 503 268 504 270 506 L188 335 C164 333 141 332 117 328 L117 328 Z " />
<glyph glyph-name="five" unicode="5" horiz-adv-x="401" d="M361 499 C317 496 273 494 230 490 C229 491 228 491 227 490 C217 489 206 488 196 487 C194 486 193 482 195 482 C205 483 214 484 223 485 C188 426 144 373 108 315 C107 314 106 313 105 312 C102 310 105 307 107 309 C108 309 108 310 108 310 C109 310 110 310 110 311 C110 311 111 311 111 312 C128 323 147 329 165 334 C176 336 186 339 197 341 C208 342 219 342 230 342 C248 341 267 340 284 333 C284 332 285 332 286 332 C308 318 343 271 204 226 C42 174 -13 195 -10 205 C-8 216 8 221 8 221 C8 225 -8 224 -16 205 C-24 187 32 177 87 177 C141 177 295 226 313 273 C319 289 317 303 311 313 C307 322 300 330 290 335 C274 343 255 345 236 346 C224 347 212 347 199 345 C189 344 178 341 167 338 C149 334 132 329 116 320 C152 376 195 428 228 485 C272 489 316 492 360 494 C363 494 363 499 361 499 L361 499 Z " />
<glyph glyph-name="six" unicode="6" horiz-adv-x="351" d="M232 328 C220 327 205 318 193 310 C174 299 156 285 138 271 C122 258 106 245 90 230 C85 225 80 220 75 215 C76 227 79 243 89 264 C121 333 189 449 279 487 L279 487 C279 487 279 487 279 487 C284 489 290 491 296 493 C306 497 317 501 318 501 C319 501 319 502 319 502 C319 505 318 509 317 513 C314 517 308 519 299 518 C299 518 167 501 59 256 C59 256 46 218 54 192 C37 173 21 153 6 132 C4 128 6 126 9 129 C24 149 39 169 55 188 C57 184 59 180 62 177 L62 177 C83 157 128 183 128 183 L128 183 C139 189 150 195 161 202 C185 216 210 237 230 261 C241 275 261 301 255 317 C252 327 241 329 232 328 L232 328 Z M223 259 C203 237 179 218 157 205 C145 198 133 191 121 185 C118 184 116 183 114 182 C98 175 89 177 85 181 C80 186 75 194 75 209 C76 210 78 212 80 214 C107 241 136 265 164 285 C179 296 194 306 209 314 C223 322 239 327 248 318 C262 306 234 271 223 259 L223 259 Z " />
<glyph glyph-name="seven" unicode="7" horiz-adv-x="317" d="M274 491 C274 491 274 492 274 492 C274 492 274 493 274 492 C269 497 263 499 256 500 C255 500 254 500 253 501 L253 501 C201 500 150 500 98 499 C98 498 97 496 96 495 C147 495 198 496 250 496 L35 192 C35 192 34 171 47 169 C59 168 255 458 274 487 C274 487 274 488 274 488 C274 487 274 488 274 489 C274 490 274 491 274 491 L274 491 Z " />
<glyph glyph-name="eight" unicode="8" horiz-adv-x="316" d="M166 344 C161 340 179 326 179 326 C179 326 326 454 287 492 C248 530 139 439 139 439 C124 426 70 387 136 344 C201 301 193 261 183 237 C173 213 74 160 25 182 C-24 204 124 319 134 328 C144 336 130 341 130 341 C51 348 -16 194 21 179 C58 163 204 194 193 275 C181 357 45 356 143 437 C241 517 263 494 269 464 C276 434 170 348 166 344 L166 344 Z " />
<glyph glyph-name="nine" unicode="9" horiz-adv-x="340" d="M279 481 C279 481 265 437 239 382 C224 369 206 358 187 353 C167 348 140 351 134 374 C130 387 134 401 139 413 C144 426 152 438 161 449 C178 469 202 486 227 493 C235 495 244 495 253 495 C258 496 270 496 270 487 C270 485 274 485 274 487 C275 504 246 500 236 499 C211 496 188 481 170 465 C151 447 135 425 130 399 C126 379 130 358 150 350 C167 343 187 347 203 354 C214 359 224 365 234 372 C203 309 158 234 103 201 C103 201 103 201 103 201 C77 182 53 181 41 181 C40 181 38 181 37 182 C35 182 35 182 35 182 C25 184 21 190 17 199 C12 215 18 232 27 246 C37 260 50 271 64 281 C81 292 102 300 123 300 C126 300 126 305 123 305 C101 305 79 296 61 284 C45 274 31 260 21 245 C11 229 8 211 15 194 C16 191 18 188 20 185 L20 185 C20 185 21 182 27 180 C29 179 30 179 31 178 C32 178 32 178 33 178 C40 176 52 175 69 177 C69 177 69 177 69 177 C92 180 124 190 159 217 C206 254 259 326 301 461 C301 461 310 477 279 481 L279 481 Z " />
<glyph glyph-name="colon" unicode="&#x3a;" horiz-adv-x="219" d="M138 334 C139 348 135 358 120 358 C105 358 100 348 101 337 C103 326 115 317 123 316 C123 316 138 320 138 334 L138 334 Z M83 290 C83 290 76 280 77 264 C79 249 89 242 98 244 C108 246 109 256 110 267 C110 278 101 291 83 290 L83 290 Z " />
<glyph glyph-name="semicolon" unicode="&#x3b;" horiz-adv-x="270" d="M148 370 C148 370 137 372 129 358 C129 358 114 329 140 320 C167 312 168 367 148 370 L148 370 Z M104 293 C104 293 112 284 107 269 C101 254 87 236 101 233 C115 230 124 241 130 259 C137 276 122 304 104 293 L104 293 Z " />
<glyph glyph-name="less" unicode="&#x3c;" horiz-adv-x="336" d="M302 446 L59 252 L167 116 C167 116 178 113 180 124 C181 135 82 250 82 250 L310 433 C310 433 316 446 302 446 L302 446 Z " />
<glyph glyph-name="equal" unicode="&#x3d;" horiz-adv-x="320" d="M98 344 C114 343 230 346 242 344 C254 343 254 351 248 358 C241 366 209 366 188 366 C167 366 89 367 83 370 C83 370 81 346 98 344 L98 344 Z M219 279 C219 279 219 278 219 278 C219 278 230 273 219 279 L219 279 Z M217 307 C177 306 56 299 50 304 C50 304 44 295 50 289 C56 283 52 280 120 283 C187 286 248 293 261 286 C262 285 262 285 262 285 C262 287 256 308 217 307 L217 307 Z " />
<glyph glyph-name="greater" unicode="&#x3e;" horiz-adv-x="301" d="M114 425 C114 425 101 421 104 417 C108 412 205 313 205 313 L8 133 C8 133 8 126 16 126 C23 126 40 139 55 152 C70 166 225 303 225 303 C225 303 231 306 229 314 L114 425 L114 425 Z " />
<glyph glyph-name="question" unicode="&#x3f;" horiz-adv-x="359" d="M54 118 C31 104 26 83 43 76 C61 68 70 93 73 110 C77 127 54 118 54 118 L54 118 Z M272 510 C272 510 271 510 270 510 C268 510 265 510 262 510 C255 510 248 509 241 508 C187 499 143 458 143 458 L143 458 C143 456 142 455 142 453 C142 453 203 513 276 507 C349 500 265 405 242 384 C219 363 70 233 58 131 C58 131 82 131 84 137 C86 142 95 207 205 322 C316 438 356 510 272 510 L272 510 Z " />
<glyph glyph-name="at" unicode="&#x40;" horiz-adv-x="344" d="M113 211 C144 204 212 256 240 318 C267 381 250 447 199 457 C199 457 89 495 -18 293 C-126 92 103 32 208 154 L207 156 C207 156 144 84 53 104 C-38 123 -31 248 60 358 C150 469 204 458 226 437 C248 416 255 361 235 320 C216 280 156 209 118 217 C80 225 119 295 119 295 L117 297 C117 297 78 230 55 235 C32 240 63 301 79 319 C96 336 144 370 152 346 L154 346 C154 346 155 374 115 350 C76 327 72 317 57 293 C42 270 37 234 52 230 C68 227 99 266 99 266 C99 266 82 218 113 211 L113 211 Z " />
<glyph glyph-name="A" unicode="A" horiz-adv-x="652" d="M555 189 C563 199 571 208 579 218 L667 325 L662 328 L586 234 C586 234 586 233 586 233 C582 229 578 224 575 220 L572 216 C509 139 439 68 371 -5 C347 -31 322 -56 295 -78 C281 -90 267 -101 251 -110 C241 -115 230 -121 218 -123 L218 -123 C218 -123 218 -123 218 -123 C215 -124 212 -124 210 -124 C209 -124 208 -124 207 -125 C182 -126 173 -112 170 -100 C169 -94 169 -88 169 -82 C169 -81 169 -80 169 -80 L169 -80 C170 -76 171 -72 171 -69 C173 -59 175 -49 177 -39 C186 -8 200 22 214 51 C214 51 214 51 214 51 C215 52 216 53 216 54 C216 55 217 55 217 56 L217 56 L217 56 C221 62 226 68 230 73 L230 73 C246 90 298 164 335 219 C349 240 363 260 376 281 C376 281 376 281 376 281 L376 281 C390 303 403 325 414 346 C414 347 415 349 416 351 C417 353 425 370 420 374 C416 378 398 355 398 355 C349 289 275 182 224 83 C223 82 223 82 223 82 C223 81 223 81 222 80 C220 75 217 70 215 65 L215 65 C182 27 153 -6 130 -31 C112 -50 33 -128 -26 -90 C-27 -89 -29 -88 -30 -87 C-84 -50 -144 57 0 252 C183 500 444 588 461 594 C477 600 472 607 472 607 C404 583 363 571 326 566 C299 563 266 562 251 562 C250 562 249 562 249 562 C211 561 162 561 146 561 C120 561 5 563 3 563 C-15 562 -34 562 -54 561 L-55 561 L-55 561 C-56 561 -58 561 -60 561 C-77 560 -93 559 -109 558 L-109 558 L-109 558 C-436 533 -444 390 -443 386 C-442 381 -440 375 -440 375 L-435 378 C-428 476 -288 526 -151 548 C-115 553 -36 563 59 560 C60 560 61 560 62 560 C105 559 177 558 234 559 C234 559 307 558 366 568 C89 449 -29 300 -75 222 L-75 222 C-75 222 -87 203 -100 175 C-106 162 -113 147 -118 132 C-132 91 -142 26 -109 -38 C-105 -45 -101 -51 -97 -57 C-84 -77 -68 -92 -47 -102 C-37 -107 -26 -111 -15 -112 C-14 -112 -14 -112 -13 -112 C-13 -112 -12 -113 -11 -113 C-11 -113 -11 -113 -11 -113 C-8 -113 -5 -113 -2 -113 C-2 -113 -2 -113 -1 -113 C32 -113 63 -97 83 -84 C121 -57 161 -14 201 35 C201 35 201 35 201 35 L201 35 C201 35 201 35 201 35 C200 34 200 34 200 33 C201 35 202 36 203 37 C190 10 178 -17 171 -47 C168 -57 167 -67 165 -77 C165 -79 165 -80 165 -82 C165 -84 162 -140 222 -127 C230 -125 238 -121 246 -118 C278 -102 306 -77 331 -52 C353 -32 373 -10 393 12 C412 32 431 52 450 72 C471 95 493 118 514 142 C528 157 541 173 555 188 L555 188 L555 189 L555 189 Z M414 365 C414 365 391 322 355 262 C308 186 232 86 232 86 C270 160 335 276 414 365 L414 365 Z M231 84 C231 85 232 85 232 86 L232 85 C232 85 231 85 231 84 C231 84 231 84 231 84 L231 84 L231 84 C231 84 231 84 231 84 L231 84 Z " />
<glyph glyph-name="B" unicode="B" horiz-adv-x="442" d="M454 329 C407 288 354 253 303 216 C278 198 253 179 228 160 C214 150 199 140 185 131 C184 139 183 147 182 155 C175 195 154 239 115 257 C95 266 74 267 53 264 C53 264 53 265 54 265 C53 265 53 265 53 265 C55 266 56 267 58 268 C71 277 111 307 157 347 C289 464 333 561 335 566 C382 685 332 727 279 694 C285 701 288 705 288 705 C217 676 174 662 132 655 C130 654 69 642 -50 642 C-64 641 -80 640 -96 639 C-301 626 -312 563 -315 549 C-317 535 -306 526 -306 526 C-304 527 -307 531 -307 531 C-314 545 -309 555 -309 555 C-301 576 -279 593 -249 607 C-248 607 -246 608 -244 609 C-244 609 -184 639 -15 640 C154 642 215 675 215 675 L211 669 L-254 -88 L-226 -88 C-226 -88 -119 76 -18 235 C2 246 24 254 46 258 C67 263 89 262 110 254 C131 246 146 229 158 210 C172 185 179 157 181 128 C171 121 161 115 150 108 C124 92 98 76 71 61 C49 48 27 37 6 24 C-30 2 -67 -22 -93 -57 C-105 -73 -114 -92 -117 -112 C-120 -130 -120 -153 -108 -168 C-87 -196 -41 -186 -13 -179 C37 -166 79 -136 113 -98 C142 -64 161 -23 173 20 C182 54 188 90 185 126 C194 132 203 137 212 144 C237 161 262 181 287 199 C344 241 404 279 458 325 C460 327 457 330 454 329 L454 329 Z M-14 242 C54 350 119 453 146 501 C192 583 242 649 269 682 C269 682 283 698 305 702 L305 702 C305 702 349 714 346 643 C344 572 310 530 305 523 C305 523 305 523 305 523 C267 464 175 347 36 261 C28 259 21 257 15 255 C5 251 -4 247 -14 242 L-14 242 Z M180 79 C175 34 162 -11 140 -50 C117 -95 78 -132 34 -156 C14 -167 -9 -174 -31 -178 C-49 -182 -68 -184 -85 -179 C-128 -166 -116 -105 -100 -76 C-78 -37 -41 -10 -4 12 C15 24 34 35 53 46 C81 61 107 76 134 92 C150 102 165 112 181 123 C182 108 181 93 180 79 L180 79 Z " />
<glyph glyph-name="C" unicode="C" horiz-adv-x="582" d="M497 609 C476 607 379 589 267 535 C232 540 191 547 140 557 C-22 587 -433 708 -459 490 C-459 490 -462 466 -449 466 C-449 466 -445 466 -447 468 C-449 470 -462 481 -453 511 C-443 541 -424 585 -343 605 C-262 626 -154 608 -154 608 C-154 608 -41 594 15 580 C62 568 201 541 259 531 C186 495 108 444 41 373 C-107 215 -111 66 -109 26 L-109 26 C-109 26 -114 -153 85 -138 C85 -138 86 -138 86 -138 C86 -138 86 -138 86 -138 C89 -138 91 -138 94 -138 L94 -138 C192 -126 296 -11 296 -11 C299 -8 302 -5 305 -2 C327 19 349 42 370 64 C449 149 520 239 594 327 C596 329 592 332 591 330 C510 233 433 135 345 44 C324 22 302 1 280 -20 C269 -31 257 -43 244 -53 L244 -53 C244 -53 244 -53 244 -54 C238 -58 232 -63 227 -68 C218 -74 209 -80 200 -85 C169 -106 128 -129 95 -132 C54 -136 -2 -131 -37 -70 C-40 -64 -139 123 86 353 C153 421 233 481 310 525 C335 523 369 522 403 523 C403 523 403 523 403 523 C449 525 489 537 510 545 C516 548 522 550 528 552 L528 552 C569 569 596 581 597 598 C598 618 511 611 497 609 L497 609 Z M434 529 C398 525 364 525 317 529 C391 571 462 598 514 603 C704 623 503 536 434 529 L434 529 Z " />
<glyph glyph-name="D" unicode="D" horiz-adv-x="468" d="M477 325 C426 276 368 238 306 204 C337 265 359 330 366 398 C370 434 372 478 350 509 C329 540 289 549 254 550 C216 552 178 550 141 542 C128 539 114 535 101 530 C94 528 88 525 82 522 C83 521 84 520 84 518 C88 520 91 522 95 524 C101 526 107 528 114 530 C79 480 38 410 -7 311 C-15 294 -22 278 -29 263 L-29 262 L-29 262 C-43 228 -54 198 -61 173 L-100 63 L-55 77 C-55 77 29 316 103 455 C119 485 135 514 152 539 C164 541 176 543 188 544 C206 546 225 547 244 546 C263 546 283 544 301 538 C318 533 334 523 345 509 C355 495 360 477 362 460 C365 439 364 416 361 394 C358 366 352 339 344 312 C333 273 317 236 299 200 C266 182 233 166 199 150 C150 127 100 105 51 81 C8 59 -36 36 -69 0 C-101 -34 -118 -78 -116 -125 C-115 -148 -108 -180 -80 -184 C-69 -186 -58 -183 -47 -179 C-34 -174 -21 -167 -9 -159 C18 -141 42 -120 66 -98 C86 -79 106 -59 126 -40 C165 0 202 42 235 88 C260 122 283 159 302 197 C358 227 411 260 459 301 C466 308 473 315 481 321 C483 323 479 327 477 325 L477 325 Z M273 154 C243 104 208 58 170 14 C144 -16 116 -43 88 -71 C66 -92 44 -113 20 -132 C-3 -150 -28 -170 -57 -178 C-67 -181 -78 -182 -88 -178 C-99 -173 -104 -162 -107 -151 C-113 -130 -113 -107 -109 -86 C-105 -64 -95 -42 -82 -23 C-54 17 -12 43 31 65 C79 90 129 112 178 135 C217 154 257 172 295 193 C288 180 281 167 273 154 L273 154 Z " />
<glyph glyph-name="E" unicode="E" horiz-adv-x="432" d="M442 326 C392 225 317 136 233 60 C200 31 165 3 129 -23 C103 -43 77 -61 50 -78 C19 -97 -13 -115 -48 -124 C-60 -128 -72 -130 -85 -130 C-145 -126 -158 -91 -153 -49 L-153 -49 C-153 -49 -153 -49 -153 -49 C-153 -49 -153 -49 -153 -49 C-145 23 -108 74 -93 92 C-93 92 -93 92 -93 92 C-92 93 -91 93 -91 94 C-88 97 -86 99 -86 99 L-86 99 C-7 184 132 232 164 241 L165 246 C165 246 34 220 44 344 C48 402 101 461 167 506 C188 496 233 475 283 469 C283 469 284 469 284 468 C286 468 287 468 288 468 C289 468 290 468 291 468 C292 468 292 468 292 468 C293 468 294 467 295 467 C374 461 413 507 424 523 C427 527 430 531 432 536 C481 628 287 610 143 528 C24 588 -107 674 -174 668 C-266 660 -253 577 -253 577 C-250 629 -223 650 -199 658 L-199 658 C-199 658 -167 672 -111 651 C-111 651 -111 651 -111 651 C-18 619 117 529 132 525 C133 525 135 524 136 524 C63 481 5 421 -1 350 C-1 350 -18 257 125 237 C-135 165 -178 42 -185 -2 C-185 -5 -185 -7 -186 -9 C-186 -14 -186 -18 -186 -21 L-186 -21 C-186 -22 -186 -22 -186 -22 C-187 -48 -182 -69 -173 -84 C-146 -138 -90 -135 -90 -135 L-90 -135 C-60 -136 -30 -125 -3 -112 C56 -85 109 -44 160 -5 C250 62 331 143 394 236 C414 264 431 294 446 324 C448 327 444 329 442 326 L442 326 Z M390 592 C493 587 402 441 266 476 C238 484 207 496 175 512 C249 561 337 594 390 592 L390 592 Z " />
<glyph glyph-name="F" unicode="F" horiz-adv-x="408" d="M353 644 C348 644 343 644 338 643 C338 643 293 646 234 620 C194 602 163 578 139 556 C118 536 98 512 79 483 C33 492 -105 518 -190 532 C-193 532 -197 533 -201 533 C-201 533 -201 533 -201 533 C-210 535 -219 536 -227 537 C-264 541 -293 538 -300 537 C-340 530 -386 514 -387 477 C-387 477 -386 477 -385 478 C-386 479 -386 481 -385 483 L-385 483 C-385 483 -385 483 -385 484 C-385 485 -384 486 -384 487 C-381 496 -368 516 -327 529 C-324 530 -320 531 -317 532 C-317 532 -317 532 -317 532 C-311 533 -306 534 -302 535 C-291 536 -280 537 -267 537 C-207 537 29 488 76 479 C67 465 59 450 50 434 L50 434 C50 434 50 434 50 434 C43 420 36 405 29 388 C21 370 10 346 -1 319 C-14 291 -27 262 -37 235 C-56 236 -75 236 -94 235 C-114 233 -136 227 -150 212 C-152 209 -149 206 -147 208 C-129 227 -102 230 -77 231 C-64 231 -52 231 -39 230 C-39 229 -40 228 -40 226 C-41 223 -42 220 -43 218 C-47 209 -50 201 -53 192 C-53 192 -53 192 -53 192 L-53 192 C-64 159 -75 124 -85 91 C-86 89 -86 87 -87 85 C-100 42 -185 -215 -252 -225 C-253 -225 -253 -225 -253 -225 C-253 -225 -253 -225 -253 -225 C-254 -225 -255 -225 -255 -225 C-256 -225 -256 -225 -256 -225 C-272 -226 -284 -215 -287 -190 C-287 -190 -298 -226 -258 -229 C-251 -229 -245 -228 -239 -226 C-238 -225 -236 -225 -235 -224 L-235 -224 L-235 -224 C-230 -222 -225 -219 -220 -216 C-216 -213 -213 -210 -209 -207 L-209 -207 L-209 -207 C-196 -196 -183 -180 -171 -163 L-171 -163 L-171 -163 C-117 -86 -77 32 -77 32 C-59 84 -35 153 -7 222 C-7 222 -7 222 -7 222 C-7 223 -7 224 -6 225 C-6 225 -6 225 -6 225 C-6 226 -6 226 -5 227 C3 226 11 225 20 224 C51 219 82 214 114 211 C141 209 167 208 194 210 C236 213 277 221 315 239 C356 258 391 288 419 324 C421 326 417 328 415 326 C384 285 342 253 294 235 C248 218 200 213 152 213 C99 214 48 225 -4 231 C32 321 73 411 110 473 C198 462 479 436 497 547 C507 609 438 644 353 644 L353 644 Z M493 552 C484 477 367 460 223 468 C161 471 129 474 112 476 C123 494 133 509 143 521 C229 627 332 630 354 631 C377 631 503 626 493 552 L493 552 Z " />
<glyph glyph-name="G" unicode="G" horiz-adv-x="591" d="M600 329 C562 283 517 243 466 210 C419 180 367 158 312 152 C299 150 287 149 274 150 C282 164 290 179 298 194 C484 554 505 578 505 578 L486 592 C486 592 196 290 65 290 C-66 290 30 471 221 544 C221 544 292 575 358 602 C420 617 468 631 475 641 C476 641 476 641 476 642 C483 655 425 635 348 603 C314 596 281 590 264 587 C216 580 10 561 -48 549 C-106 537 -360 478 -353 353 C-353 353 -352 474 -81 538 C-81 538 5 559 119 565 C174 568 258 581 331 596 C294 581 253 563 214 546 C82 487 -2 390 -2 340 C-2 289 70 187 448 543 C448 543 309 271 245 150 C245 150 -128 156 -221 -27 C-226 -37 -238 -68 -232 -111 C-219 -201 -153 -226 -114 -226 C-72 -226 94 -172 271 144 C271 144 271 144 271 144 C271 144 271 145 272 145 C382 143 484 205 561 279 C576 294 590 309 604 325 C605 328 602 331 600 329 L600 329 Z M468 640 C468 633 424 621 376 610 C425 630 468 646 468 640 L468 640 Z M-113 -217 C-262 -217 -322 45 28 122 C28 122 121 143 241 144 C178 25 34 -217 -113 -217 L-113 -217 Z " />
<glyph glyph-name="H" unicode="H" horiz-adv-x="467" d="M474 326 C421 281 370 234 318 188 C292 164 267 141 241 118 C218 97 196 76 173 57 C151 37 127 18 102 2 C90 -5 78 -12 66 -19 C55 -24 44 -29 32 -32 C27 -33 6 -36 27 1 C28 2 28 3 29 4 C57 51 132 188 206 323 C301 339 380 350 380 350 L380 352 C380 352 291 339 207 326 C295 489 381 649 381 649 L356 656 C356 656 259 474 177 321 C125 313 78 306 62 304 C50 302 32 298 13 293 C62 395 100 469 105 476 C112 488 226 682 226 682 L201 686 C201 686 192 670 179 646 C153 627 91 592 -47 566 C-247 528 -275 433 -271 407 C-271 407 -260 521 -53 561 C86 588 149 621 176 641 C129 559 34 395 30 384 C27 378 7 335 -17 286 C-64 275 -111 263 -111 263 L-112 257 C-101 264 -66 273 -18 283 C-51 216 -90 136 -96 122 C-108 97 -171 -110 -323 -142 C-323 -142 -337 -148 -322 -147 C-306 -145 -182 -123 -91 76 C-56 152 -20 226 10 289 C61 299 120 309 176 319 C135 242 98 174 79 140 C57 102 36 66 19 31 L19 31 C19 31 -25 -39 19 -39 C27 -39 36 -36 44 -33 C57 -28 69 -22 81 -15 C107 -1 131 16 154 35 C177 53 199 73 220 94 C246 117 271 139 296 162 C347 209 399 255 452 301 C460 308 469 315 477 322 C480 324 477 328 474 326 L474 326 Z " />
<glyph glyph-name="I" unicode="I" horiz-adv-x="336" d="M348 328 C275 232 196 141 109 58 C67 17 22 -23 -24 -60 C-49 -80 -74 -101 -101 -120 C-115 -131 -143 -150 -170 -160 C-211 -174 -195 -135 -191 -125 C-141 -21 217 679 217 679 L184 684 L179 675 C163 668 90 641 -19 618 C-19 618 -223 564 -248 549 C-273 534 -298 508 -296 500 C-294 492 -290 492 -290 492 C-290 492 -306 508 -252 543 C-199 576 120 642 178 671 L-219 -106 C-230 -130 -240 -170 -195 -170 C-159 -168 -112 -134 -90 -118 C-63 -97 -36 -76 -10 -54 C36 -17 81 23 123 65 C206 146 282 233 352 326 C353 328 349 330 348 328 L348 328 Z " />
<glyph glyph-name="J" unicode="J" horiz-adv-x="294" d="M305 328 C256 292 209 252 151 232 C122 223 93 218 63 220 C38 221 14 226 -10 229 C-4 242 1 255 7 268 C126 530 258 738 74 673 C74 673 -37 641 -99 468 L-97 469 C-97 469 -28 655 98 675 C108 676 124 673 122 643 C121 638 120 632 119 625 C118 623 118 620 117 618 C116 616 116 613 115 610 C108 581 93 539 67 477 C66 476 65 475 65 474 C64 472 64 471 63 469 C35 406 1 321 -39 233 C-355 301 -429 113 -456 34 C-484 -45 -515 -197 -374 -197 C-241 -197 -126 -17 -14 222 C-14 222 -14 222 -14 222 C-13 223 -13 224 -12 225 C13 222 38 217 63 215 C93 214 122 218 150 227 C208 246 256 286 304 322 C305 323 306 324 307 324 C309 326 307 330 305 328 L305 328 Z M-41 228 L-45 220 C-45 220 -47 215 -50 207 C-90 115 -233 -188 -382 -188 C-466 -188 -484 -123 -468 -46 C-458 41 -403 147 -329 200 C-329 200 -329 200 -329 200 C-321 205 -312 211 -303 215 C-300 217 -296 219 -292 220 C-288 222 -284 224 -280 225 C-180 261 -45 231 -40 230 C-40 230 -41 229 -41 228 L-41 228 Z " />
<glyph glyph-name="K" unicode="K" horiz-adv-x="640" d="M95 597 C51 587 -46 581 -119 599 C-191 617 -287 613 -318 575 C-349 537 -332 521 -325 518 C-325 518 -341 525 -324 559 C-307 593 -259 609 -195 606 C-131 602 -80 586 -31 585 C19 585 70 584 127 603 C127 603 30 400 -9 303 C-48 206 -131 -123 -252 -122 C-252 -122 -290 -126 -290 -79 C-290 -79 -302 -127 -255 -128 C-209 -128 -136 -122 -38 139 C59 400 187 644 187 644 C187 644 139 607 95 597 L95 597 Z M657 329 C563 253 480 164 408 67 C374 22 341 -25 305 -69 C269 -113 229 -153 183 -186 C166 -198 139 -215 118 -204 C106 -198 102 -183 100 -171 C98 -154 100 -137 102 -121 C105 -103 109 -86 113 -68 C116 -56 119 -43 121 -30 C123 -19 123 -8 124 3 C125 32 125 61 122 91 C120 119 115 148 102 174 C92 193 76 209 55 212 C132 245 284 343 330 372 C379 402 469 485 500 518 C531 551 552 595 545 605 C538 615 538 605 538 605 C501 446 165 271 42 212 C26 211 10 203 -4 195 C-7 193 -4 190 -2 191 C12 199 28 207 44 208 C44 208 44 208 44 208 C44 208 44 208 44 208 C55 208 65 206 75 200 C96 186 105 158 111 135 C118 105 120 74 120 44 C120 30 120 16 119 2 C119 -9 118 -20 117 -30 C114 -44 111 -57 108 -70 C104 -87 100 -105 97 -123 C95 -139 94 -156 96 -172 C97 -184 101 -197 111 -205 C127 -216 148 -211 164 -203 C176 -197 187 -189 198 -180 C209 -172 220 -163 230 -154 C273 -118 308 -74 342 -30 C377 17 410 65 447 110 C485 157 526 202 570 245 C599 273 629 300 661 325 C663 327 660 330 657 329 L657 329 Z " />
<glyph glyph-name="L" unicode="L" horiz-adv-x="230" d="M208 -146 C208 -146 122 -140 -15 -66 C-66 -39 -106 -22 -137 -13 C-50 137 183 625 183 625 C183 625 203 675 166 645 C128 615 67 555 -48 518 C-163 482 -187 489 -236 491 C-285 492 -303 493 -339 450 C-374 407 -389 306 -380 303 C-380 303 -374 476 -267 490 C-267 490 -58 449 151 628 C151 628 -56 206 -100 112 C-117 76 -139 30 -161 -7 C-199 -1 -220 -11 -233 -32 C-257 -74 -216 -124 -160 -48 C-155 -42 -148 -30 -139 -16 C-114 -22 -89 -31 -69 -42 C-8 -73 265 -250 425 -73 L425 -72 C425 -72 348 -167 208 -146 L208 -146 Z M-232 -60 C-235 -18 -203 -7 -163 -12 C-197 -68 -227 -105 -232 -60 L-232 -60 Z " />
<glyph glyph-name="M" unicode="M" horiz-adv-x="715" d="M727 328 C678 284 631 240 582 197 C534 152 484 109 436 66 C392 26 348 -13 305 -54 C297 -61 288 -68 279 -74 C274 -77 269 -79 264 -79 C260 -78 251 -75 250 -58 C248 12 317 163 358 247 C369 268 381 292 395 322 C488 517 503 614 503 614 L487 615 C487 615 180 199 119 194 C71 191 210 451 273 564 L273 564 C273 564 273 564 273 564 C275 568 277 572 279 575 C284 587 288 604 270 610 C259 614 242 603 225 588 C209 571 188 548 164 522 C164 522 164 522 164 522 C164 522 164 522 164 522 C115 467 54 396 4 329 C-100 191 -222 92 -249 84 C-277 77 -301 110 -363 110 C-425 109 -467 54 -470 44 C-474 34 -473 27 -473 27 C-473 27 -469 28 -469 30 C-468 32 -476 51 -420 88 C-365 125 -310 97 -291 88 C-271 78 -249 77 -249 77 C-160 78 204 523 261 593 C260 593 8 189 105 190 L105 190 C108 190 111 189 114 190 C180 190 477 594 477 594 C470 543 380 355 316 223 C316 223 316 223 316 223 C313 217 310 211 307 206 C286 162 234 48 227 -27 L227 -27 C227 -27 217 -83 265 -83 L265 -83 C269 -83 272 -82 275 -81 C294 -73 308 -57 322 -43 C345 -22 368 -2 390 19 C439 63 488 106 537 150 C586 193 634 238 682 281 C698 296 714 310 730 324 C733 326 729 330 727 328 L727 328 Z " />
<glyph glyph-name="N" unicode="N" horiz-adv-x="669" d="M680 328 C652 291 623 255 588 224 C555 195 514 173 469 174 C444 175 419 183 398 196 C378 208 364 227 355 248 C419 360 475 478 497 563 L497 563 C497 563 497 564 497 564 C497 566 498 569 498 571 L499 571 C499 572 499 573 499 574 C499 574 499 574 499 574 C499 575 500 577 500 578 C500 579 500 580 500 580 C501 582 501 584 501 588 C502 589 502 591 502 592 C502 592 502 592 502 592 C503 608 503 635 489 640 C469 645 448 617 445 613 C419 575 394 535 375 492 C354 444 341 393 338 340 C337 311 339 279 349 251 C275 119 178 -30 109 -40 C109 -40 81 -44 80 48 C78 140 80 264 95 337 C111 411 174 730 95 676 L86 638 C86 638 38 464 19 397 C19 396 17 391 12 374 C12 372 12 372 12 371 C11 370 11 369 11 366 C3 332 -11 263 -31 126 C-42 73 -54 21 -67 -18 L-67 -18 C-67 -18 -72 -35 -83 -56 C-83 -56 -83 -56 -83 -57 C-83 -57 -84 -57 -84 -58 C-84 -58 -84 -58 -84 -59 C-98 -84 -121 -113 -156 -125 C-184 -137 -216 -131 -258 -110 C-333 -72 -400 -3 -523 -62 C-523 -62 -587 -96 -571 -134 C-571 -134 -573 -103 -538 -78 L-538 -78 C-538 -78 -538 -78 -538 -77 C-531 -73 -523 -68 -514 -64 C-482 -50 -424 -34 -357 -61 C-352 -63 -347 -65 -343 -67 C-343 -67 -343 -67 -343 -67 C-342 -68 -341 -68 -340 -69 C-340 -69 -340 -69 -340 -69 C-339 -69 -338 -70 -338 -70 C-295 -92 -264 -126 -197 -134 C-121 -142 -82 -67 -72 -43 C-45 22 -29 111 -15 194 L1 289 L5 315 C8 332 12 348 15 362 C54 511 98 662 98 662 C98 662 101 560 66 388 C54 334 47 268 43 202 C43 201 43 200 43 199 C43 199 43 199 43 199 C43 192 43 185 43 179 C41 109 50 -49 107 -49 C152 -49 219 37 254 88 C286 135 320 188 352 243 C358 230 366 218 376 207 C393 190 416 180 440 174 C461 169 483 169 504 173 C542 181 576 206 604 232 C634 260 659 293 684 326 C686 328 682 330 680 328 L680 328 Z M352 256 C345 278 342 301 342 324 C342 351 345 379 351 406 C367 480 404 546 447 608 C454 617 468 632 482 629 C494 627 495 610 494 596 C494 596 494 596 494 596 C494 591 493 584 492 578 C492 578 492 578 492 578 C491 576 491 575 491 575 C491 574 491 574 491 574 C489 566 488 561 488 561 L488 561 C478 521 462 480 450 453 C440 429 402 347 352 256 L352 256 Z " />
<glyph glyph-name="O" unicode="O" horiz-adv-x="776" d="M784 327 C748 285 705 248 658 219 C634 204 608 192 582 184 L549 176 C546 176 543 175 539 175 C498 171 471 183 452 200 C456 209 460 218 463 224 C463 224 463 224 463 224 C491 292 516 361 541 425 C581 529 590 594 587 635 C587 636 586 638 586 639 C580 696 547 702 539 702 C529 702 479 681 437 610 C436 609 434 605 433 603 C413 568 395 521 384 460 C368 371 370 298 388 245 L388 245 C390 240 391 236 393 231 C393 231 394 231 394 231 C394 231 394 231 394 231 C404 209 421 195 439 186 L418 139 C326 -47 214 -183 65 -193 C-108 -205 -175 -56 -80 148 C15 351 356 564 373 573 C384 579 383 586 380 590 C379 592 376 594 367 592 C-289 453 -304 163 -304 163 C-300 158 -298 168 -298 168 C-259 304 -174 364 -44 446 C84 527 333 581 341 583 C337 582 270 564 28 350 C-222 129 -230 -246 56 -201 C237 -173 344 -32 423 133 C423 133 423 133 423 133 C423 134 424 135 425 137 C426 140 428 144 429 147 C429 147 429 147 429 147 C434 157 440 170 445 183 C452 180 459 178 466 176 C474 173 483 171 491 170 C498 169 504 169 511 169 C515 169 517 169 517 169 L517 169 C549 169 582 177 612 190 C680 219 739 268 788 323 C790 326 786 329 784 327 L784 327 Z M467 607 L467 607 C467 607 467 607 467 607 C467 607 467 608 467 608 C468 608 468 610 469 613 C470 613 470 613 470 613 C470 613 470 613 470 613 C470 613 470 613 470 613 C470 613 470 613 470 613 C470 613 470 614 470 614 C471 616 472 618 473 620 C473 620 473 620 473 620 C495 664 519 693 540 693 C567 694 580 674 582 640 C582 640 582 640 582 640 C582 639 582 638 582 637 C582 637 582 637 582 637 C582 637 582 636 582 636 L582 636 C582 636 582 635 582 635 C582 634 582 633 582 632 C582 632 582 632 582 632 C583 550 530 395 462 236 C461 234 460 232 459 230 L448 204 C436 216 429 230 425 240 C388 341 421 506 467 607 L467 607 Z " />
<glyph glyph-name="P" unicode="P" horiz-adv-x="509" d="M518 325 C487 281 442 247 396 220 C347 190 294 168 238 155 C200 147 160 142 120 144 C142 153 171 178 171 178 L171 178 C269 254 408 431 405 518 C403 610 280 609 174 522 C203 586 222 631 222 631 L189 635 C189 635 118 591 33 584 C-53 578 -67 594 -155 586 C-244 579 -385 555 -387 466 C-387 466 -380 593 -70 583 C-70 583 57 558 177 621 C177 621 150 555 109 461 C30 376 -40 267 -101 160 C-179 25 -262 -187 -215 -185 C-168 -183 -53 17 26 192 C70 291 127 417 168 509 C222 555 276 582 326 581 C516 577 306 286 157 171 C122 145 107 145 105 145 C96 146 87 147 79 148 C76 149 75 144 77 144 C87 142 97 141 106 140 L106 140 C107 140 107 140 107 140 C157 136 208 143 257 155 C311 170 362 193 410 223 C452 249 493 282 522 323 C524 325 520 327 518 325 L518 325 Z M-218 -177 C-253 -148 -88 234 102 444 C-3 200 -185 -207 -218 -177 L-218 -177 Z " />
<glyph glyph-name="Q" unicode="Q" horiz-adv-x="718" d="M444 -166 C443 -166 443 -166 443 -166 C442 -166 440 -166 439 -166 C375 -167 354 -136 348 -124 C337 -98 331 -60 330 -17 C455 108 551 277 565 333 C587 426 630 624 476 606 C362 594 274 184 299 -37 C257 -75 141 -167 55 -155 C-54 -139 -101 -6 -25 167 C51 339 283 677 490 668 C490 668 519 667 511 677 C511 677 494 695 461 694 C429 692 317 679 102 460 C-112 241 -181 -152 54 -161 C138 -165 223 -115 300 -45 C302 -56 303 -66 305 -76 C309 -94 315 -108 321 -119 C326 -127 350 -163 406 -168 C408 -169 409 -169 411 -169 C411 -169 412 -169 412 -169 C417 -169 422 -169 427 -170 C439 -170 538 -171 637 -126 L638 -124 C638 -124 554 -164 444 -166 L444 -166 Z M375 388 C375 388 415 590 503 600 C590 611 605 460 547 306 C498 177 371 36 330 -8 C326 156 375 388 375 388 L375 388 Z " />
<glyph glyph-name="R" unicode="R" horiz-adv-x="426" d="M435 326 C417 300 397 275 377 250 C358 223 338 197 317 171 C298 147 278 122 260 97 C251 85 242 72 234 59 C225 47 216 35 207 23 C203 17 199 11 194 6 C189 -1 185 -8 180 -14 C171 -27 160 -38 149 -50 C128 -72 106 -95 80 -110 C66 -118 51 -124 35 -124 C21 -124 7 -115 -3 -105 C-23 -87 -33 -62 -42 -38 C-49 -18 -55 2 -62 22 C-68 40 -74 59 -82 76 C-76 86 -69 97 -63 107 C-59 109 -55 111 -51 113 C-50 114 -47 116 -44 117 C-44 117 -44 117 -44 117 C-40 120 -28 127 -26 128 C-26 129 -26 129 -26 129 C32 166 106 229 181 335 C181 335 181 335 181 335 C196 356 211 379 225 403 C263 465 307 557 293 618 C272 713 120 645 120 645 C65 618 -27 578 -130 422 C-130 422 -129 422 -129 422 C-59 525 50 640 194 664 C425 703 200 282 -27 132 C-27 132 -27 132 -27 132 C-32 129 -37 126 -42 123 C-42 123 -42 123 -42 123 C-44 122 -45 121 -47 120 L-47 120 L-47 120 C-51 117 -54 115 -58 114 C-59 113 -59 113 -59 113 C-57 117 -55 120 -53 124 L-49 130 C74 342 150 582 148 598 C144 626 107 598 107 598 C40 396 -30 245 -96 133 C-97 131 -98 129 -99 127 C-103 120 -107 113 -111 107 C-113 103 -115 100 -117 97 C-119 94 -121 91 -122 89 C-124 85 -126 82 -128 79 C-259 -125 -365 -176 -385 -182 C-415 -193 -437 -142 -437 -142 L-440 -142 C-439 -148 -437 -154 -435 -160 C-427 -180 -403 -207 -341 -182 C-340 -181 -339 -181 -338 -181 C-338 -181 -337 -180 -337 -180 C-243 -140 -157 -42 -85 71 C-80 60 -76 47 -72 35 C-66 20 -61 5 -55 -11 C-47 -36 -39 -62 -26 -84 C-14 -105 7 -126 32 -128 C60 -131 87 -113 108 -96 C120 -86 131 -75 142 -64 C153 -53 163 -41 173 -30 C183 -18 192 -5 201 7 C210 19 219 30 227 42 C236 54 244 67 253 80 C262 93 271 105 281 118 C301 143 321 168 341 194 C357 215 373 237 390 258 C406 280 424 301 439 324 C441 326 437 328 435 326 L435 326 Z " />
<glyph glyph-name="S" unicode="S" horiz-adv-x="459" d="M470 328 C420 291 374 249 323 213 C302 199 281 186 260 173 C233 157 112 98 112 98 L112 98 C106 95 100 93 94 90 C103 111 110 131 115 147 C125 183 134 250 87 295 C77 304 64 312 50 320 C45 322 42 324 38 326 C38 326 37 326 36 326 C-31 358 -110 374 -99 431 C-79 528 233 674 261 686 C282 695 307 709 313 721 C313 721 313 721 313 721 C314 722 313 724 312 726 C312 726 312 727 312 727 C312 727 311 728 311 728 C307 735 298 736 294 736 C193 737 -119 740 -207 723 L-207 723 C-239 719 -270 714 -298 707 C-317 702 -336 695 -355 688 C-363 685 -370 682 -376 679 C-392 673 -407 665 -423 657 C-594 566 -598 434 -598 434 C-598 434 -541 686 -192 721 C-191 721 -190 721 -188 721 C-187 721 -187 721 -186 722 C-182 722 -178 722 -174 723 C-171 723 -169 723 -166 723 C-165 723 -164 724 -163 724 C-160 724 -156 724 -153 724 C-152 725 -150 725 -149 725 C-147 725 -145 725 -142 725 C-141 725 -141 725 -140 725 C-138 726 -137 726 -135 726 C-133 726 -131 726 -129 726 C-125 726 -121 726 -118 726 C-118 726 -118 727 -118 727 C-27 733 103 736 286 732 C285 731 285 731 285 731 C274 728 263 724 252 720 C251 720 250 719 249 719 C249 719 248 719 248 719 C247 718 246 718 245 718 C244 717 243 717 242 717 L242 717 C242 717 242 717 242 717 L242 717 C241 717 241 716 241 716 C240 716 239 715 238 715 C237 715 237 715 237 715 C229 711 222 708 215 706 L191 696 C79 645 -36 567 -101 505 C-114 492 -186 416 -96 366 C-94 365 -92 364 -90 363 C-90 363 -89 363 -89 363 C-88 362 -87 362 -85 361 C-38 337 22 319 56 304 C117 280 122 222 116 179 L111 152 C107 137 103 127 103 127 L103 127 C100 116 97 108 97 108 C94 102 92 95 89 88 C-44 25 -148 -28 -148 -28 C-148 -28 -255 -96 -322 -154 C-331 -161 -359 -190 -337 -218 C-325 -233 -296 -233 -268 -228 C-170 -206 -89 -155 -27 -92 L-27 -92 C28 -40 65 24 88 77 C101 83 113 89 125 95 C125 95 125 95 125 95 C132 99 144 105 157 112 C190 129 223 146 254 165 C260 168 265 171 271 174 C271 174 271 175 271 175 L271 175 C292 187 312 200 332 215 C357 232 381 252 405 271 C427 289 449 307 472 324 C474 326 472 330 470 328 L470 328 Z M12 -36 C-121 -186 -203 -199 -265 -207 C-327 -216 -292 -116 46 56 C59 62 71 69 84 75 C68 39 45 1 12 -36 L12 -36 Z " />
<glyph glyph-name="T" unicode="T" horiz-adv-x="504" d="M615 650 C600 698 536 709 471 706 L472 707 C282 707 204 634 204 634 L204 634 C201 633 199 631 196 629 C52 660 -80 675 -204 581 C-204 581 -224 565 -230 545 C-237 525 -233 507 -223 515 C-223 515 -237 518 -222 552 C-207 586 -118 648 27 648 C85 647 139 637 191 625 C151 594 68 512 5 339 C-30 242 -70 116 -107 12 C-135 -2 -161 -18 -184 -39 C-211 -62 -232 -91 -239 -126 C-243 -144 -248 -183 -225 -192 C-222 -194 -219 -195 -216 -195 C-197 -195 -142 -170 -74 23 C-60 30 -47 35 -33 41 C5 57 43 72 80 88 C193 138 305 192 411 255 C447 277 482 299 516 323 C519 325 516 329 514 327 C412 256 303 198 192 145 C142 121 92 97 41 76 C3 60 -35 46 -72 29 C-63 55 -54 84 -44 117 C11 308 88 509 223 618 C285 603 346 589 413 590 C425 589 449 589 479 591 C489 592 498 593 507 595 C521 597 537 599 553 603 C557 604 561 605 565 606 C565 606 565 606 565 606 L565 606 C599 614 610 627 614 644 C615 646 615 648 615 650 L615 650 Z M-213 -186 C-213 -186 -218 -186 -223 -181 C-226 -177 -230 -171 -233 -163 C-235 -153 -236 -138 -233 -117 C-232 -113 -231 -110 -229 -107 C-214 -69 -184 -41 -151 -19 C-138 -10 -124 -2 -110 6 C-149 -103 -186 -187 -213 -186 L-213 -186 Z M549 605 C530 600 489 593 405 595 C405 595 405 595 405 595 C405 595 404 595 404 595 C397 595 390 595 382 596 L382 596 C358 598 311 604 228 622 C288 669 360 697 447 699 C646 702 637 635 549 605 L549 605 Z " />
<glyph glyph-name="U" unicode="U" horiz-adv-x="612" d="M622 327 C624 329 628 327 626 325 C598 288 572 250 546 212 C521 175 496 137 470 100 C437 51 403 1 364 -44 C346 -65 327 -85 304 -101 C286 -114 263 -125 241 -122 C210 -118 204 -84 205 -59 C205 -41 208 -24 212 -6 L212 -6 L212 -6 C214 2 217 11 220 19 L240 83 L240 83 C254 128 264 152 269 165 C239 111 110 -100 -27 -89 C-184 -77 -94 144 -68 195 C-42 246 146 595 146 595 C146 595 82 581 7 572 C-69 563 -217 541 -229 485 L-234 479 C-234 479 -244 510 -183 535 C-121 559 -42 572 -33 573 C-23 573 141 586 159 611 C176 635 174 626 185 623 C195 620 192 608 188 602 C184 596 -255 -84 -14 -84 C227 -84 447 568 447 568 L455 566 C455 566 377 379 359 337 C352 321 313 248 279 166 C279 166 278 165 278 164 C278 163 277 162 277 161 C273 151 263 124 251 94 C250 89 248 85 247 80 C242 67 238 56 235 49 C235 49 235 49 235 49 C234 46 234 44 233 42 C233 42 233 42 233 42 L233 42 C231 37 230 33 228 28 C228 28 228 27 228 26 C227 25 227 24 226 22 C220 4 215 -13 213 -24 C210 -42 207 -62 211 -81 C213 -94 218 -108 230 -114 C248 -124 272 -115 289 -106 C313 -92 333 -72 351 -52 C371 -29 390 -5 408 19 C482 120 547 228 622 327 L622 327 Z " />
<glyph glyph-name="V" unicode="V" horiz-adv-x="380" d="M686 747 C570 710 466 643 369 571 C276 501 189 423 111 336 C69 290 30 242 -7 193 L-2 214 C0 222 2 228 3 233 C19 292 124 668 124 668 C124 668 110 667 88 660 C66 653 6 630 -202 628 C-410 627 -417 519 -397 527 C-397 527 -408 540 -374 570 C-340 600 -290 623 -163 625 C-37 626 69 645 89 656 C89 656 11 346 -61 120 C-127 25 -240 -146 -168 -145 C-98 -145 -44 44 -15 158 L-10 181 C50 263 116 339 188 410 C273 494 367 569 467 634 C536 678 609 718 687 743 C690 744 689 748 686 747 L686 747 Z M-161 -111 C-194 -112 -145 -13 -67 100 C-106 -20 -141 -111 -161 -111 L-161 -111 Z " />
<glyph glyph-name="W" unicode="W" horiz-adv-x="629" d="M634 326 C601 279 557 240 509 208 C477 186 443 168 408 153 C389 145 369 139 349 135 C350 137 352 139 353 142 C443 295 454 437 449 520 L449 520 C449 520 448 588 424 597 C406 603 390 593 380 584 C380 584 380 584 380 584 C380 584 380 584 380 583 C377 581 375 579 374 577 L374 577 C368 570 363 562 358 554 C345 535 336 514 326 493 C317 472 308 451 300 429 C278 372 261 312 255 251 C251 213 243 157 283 135 C298 127 316 126 332 128 C335 128 337 128 339 129 C246 -28 104 -166 41 -156 C-47 -142 171 282 177 297 C184 311 199 348 188 354 C176 361 169 349 169 349 C169 349 -86 -102 -144 -102 C-202 -102 -65 144 -65 144 C-65 144 180 597 199 631 C218 665 211 708 184 671 C157 633 44 607 10 602 C-24 597 -211 611 -278 606 C-345 601 -335 554 -335 554 L-329 557 C-328 580 -318 586 -318 586 C-273 617 -165 595 -36 597 C92 600 174 655 174 655 C174 655 -70 190 -72 186 C-73 182 -252 -134 -174 -134 C-96 -134 140 286 140 286 C140 286 93 190 45 80 C-3 -30 -67 -185 16 -185 C98 -185 218 -83 346 130 C361 132 376 136 390 141 C424 154 457 170 488 189 C545 224 599 269 638 324 C639 326 635 329 634 326 L634 326 Z M342 133 C326 131 310 131 295 135 C248 150 255 209 259 247 C265 309 282 370 304 428 C313 450 322 472 331 493 C341 514 351 535 363 554 C370 565 378 576 388 585 C392 589 406 598 422 593 C438 589 443 549 444 529 C447 479 442 406 419 313 C405 255 377 193 342 133 L342 133 Z " />
<glyph glyph-name="X" unicode="X" horiz-adv-x="362" d="M366 327 C347 305 325 287 305 267 C287 247 269 227 250 207 C231 188 211 169 189 152 C179 144 168 137 156 131 C148 126 137 121 127 123 C112 125 106 143 103 156 C98 176 97 197 94 218 C87 275 80 332 79 389 C79 390 80 390 80 390 C80 390 80 391 80 391 C195 550 296 630 313 640 C338 655 352 656 348 674 C345 692 331 683 331 683 C238 629 151 538 73 433 C49 567 13 638 13 638 C13 638 -38 572 -96 557 C-153 542 -178 590 -217 587 C-256 584 -270 550 -270 550 C-270 550 -264 533 -260 550 C-256 566 -232 578 -232 578 C-212 589 -168 563 -132 552 C-132 552 -132 552 -132 552 C-92 541 -36 582 -8 606 C2 615 8 621 8 621 C39 566 59 500 71 429 C-65 245 -172 20 -229 -113 C-232 -119 -239 -140 -222 -141 C-203 -141 -188 -121 -185 -114 C-164 -66 -135 -2 -96 84 C-42 204 18 303 75 383 C76 323 84 264 91 204 C94 185 95 164 101 145 C106 132 114 119 130 118 C140 117 149 122 157 126 C169 132 180 140 190 147 C212 163 231 182 250 201 C269 220 287 240 305 260 C314 270 324 279 333 288 C344 299 355 309 365 320 C367 321 368 323 369 324 C371 326 368 330 366 327 L366 327 Z " />
<glyph glyph-name="Y" unicode="Y" horiz-adv-x="471" d="M480 327 C394 272 297 239 200 212 C250 320 315 468 352 555 C351 555 349 555 348 556 C311 492 247 405 159 373 C147 368 135 364 123 360 C108 355 92 354 77 354 C55 354 32 364 31 388 C27 411 35 456 83 545 C132 637 152 677 157 696 C156 698 155 700 153 701 C146 708 133 710 125 707 C125 707 124 707 124 707 C-91 618 -223 688 -270 691 C-316 694 -367 644 -367 644 L-363 641 C-322 678 -292 685 -270 686 C-248 688 -169 658 -80 658 C-3 658 97 690 123 699 C119 683 111 658 94 630 C65 582 -84 343 65 343 C214 343 324 510 324 510 C324 510 270 365 194 211 C180 207 166 204 152 200 C87 183 20 177 -44 158 C-63 152 -82 145 -100 136 C-130 124 -157 105 -179 79 C-196 58 -209 35 -217 12 C-217 12 -217 12 -217 12 C-218 10 -219 7 -220 5 C-253 -89 -219 -177 -120 -161 C13 -140 83 3 133 83 C133 83 133 83 133 83 C140 94 149 111 149 111 L162 135 C162 135 162 135 162 135 L180 172 L180 172 C186 183 191 195 197 207 C201 208 205 209 209 210 C265 226 320 244 374 267 C411 283 448 301 482 323 C484 325 482 329 480 327 L480 327 Z M179 180 L160 144 L160 144 L134 97 C82 3 24 -80 -32 -121 C-32 -121 -32 -121 -32 -121 C-71 -156 -241 -208 -226 -48 C-211 112 -48 152 -48 152 L-48 152 C-3 166 44 173 90 182 C124 188 158 196 192 206 C187 197 183 188 179 180 L179 180 Z " />
<glyph glyph-name="Z" unicode="Z" horiz-adv-x="265" d="M-236 600 C-236 600 -236 600 -236 600 C-236 600 -236 600 -236 600 L-236 600 Z M250 703 C250 703 206 656 115 648 C25 640 -30 647 -50 648 C-69 648 -227 685 -236 600 C-236 602 -227 658 -135 650 C-41 641 150 622 236 685 C236 685 -66 223 -93 183 C-110 157 -173 42 -268 -39 C-348 -32 -536 -38 -547 -103 C-558 -177 -354 -149 -261 -69 C-256 -65 -250 -59 -243 -51 C-215 -55 -186 -60 -155 -67 C78 -118 182 -103 223 -87 L224 -83 C224 -83 188 -99 108 -98 C30 -97 -178 -56 -236 -44 C-107 102 271 675 271 675 C271 675 277 711 250 703 L250 703 Z M-462 -120 C-462 -120 -529 -116 -521 -90 C-515 -69 -432 -33 -279 -47 C-331 -90 -393 -120 -462 -120 L-462 -120 Z " />
<glyph glyph-name="bracketleft" unicode="&#x5b;" horiz-adv-x="250" d="M188 473 L-2 92 L59 100 L60 103 L19 99 L218 480 L256 483 L257 487 L191 479 L188 473 L188 473 Z " />
<glyph glyph-name="backslash" unicode="&#x5c;" horiz-adv-x="321" d="M45 646 C84 519 122 392 161 264 C187 178 213 91 239 4 C240 2 244 3 244 6 C205 133 167 260 128 388 C102 474 76 561 49 648 C49 650 44 649 45 646 L45 646 L45 646 Z " />
<glyph glyph-name="bracketright" unicode="&#x5d;" horiz-adv-x="242" d="M125 464 L185 468 C185 468 18 138 0 93 L-54 90 C-54 90 -58 87 -56 86 C-54 86 20 89 20 89 L207 473 L126 470 L125 464 L125 464 Z " />
<glyph glyph-name="asciicircum" unicode="&#x5e;" horiz-adv-x="207" d="M188 575 L170 635 C168 641 160 662 147 652 C128 639 80 605 49 585 C49 585 35 574 38 570 C42 566 48 558 62 567 C63 567 63 567 64 567 C64 568 64 568 64 568 C100 590 160 635 160 635 L179 568 C179 568 191 565 188 575 C188 575 188 575 188 575 L188 575 Z " />
<glyph glyph-name="underscore" unicode="&#x5f;" horiz-adv-x="281" d="M187 159 C135 159 82 159 30 159 C27 159 27 154 30 154 C82 154 135 154 187 154 C190 154 190 159 187 159 L187 159 Z " />
<glyph glyph-name="grave" unicode="&#x60;" horiz-adv-x="164" d="M96 604 C94 612 87 639 89 643 C89 643 66 637 66 630 C66 624 81 584 81 579 C80 575 89 577 95 581 C101 586 98 597 96 604 L96 604 Z " />
<glyph glyph-name="a" unicode="a" horiz-adv-x="361" d="M375 327 C327 286 276 248 229 205 C208 186 186 166 161 151 C149 144 135 139 121 138 C93 137 110 214 111 219 C117 239 126 262 136 286 C178 340 213 402 216 415 C219 422 220 426 219 430 C218 433 216 436 210 438 C210 438 210 438 210 438 C209 438 208 438 207 439 C207 439 172 457 95 254 C95 253 94 253 94 253 C94 253 93 252 93 252 C93 252 93 252 93 252 C80 239 68 225 54 213 C41 202 21 187 3 190 C-6 192 -30 206 6 295 C49 399 100 418 110 417 C114 416 118 413 122 409 C124 407 127 410 125 413 C111 429 87 419 71 410 C53 398 39 381 26 364 C10 344 -3 321 -13 297 C-22 275 -29 251 -27 227 C-26 213 -21 199 -10 190 C2 182 18 185 30 191 C46 198 59 211 71 223 C78 229 84 236 91 243 C73 192 64 136 115 133 C116 133 118 133 119 133 L119 133 C137 133 155 142 169 151 C205 173 234 205 266 232 C303 263 342 293 378 324 C381 326 377 329 375 327 L375 327 Z M210 432 C210 432 212 436 214 429 C219 409 192 375 161 324 C155 315 149 307 142 299 C169 358 202 418 210 432 L210 432 Z " />
<glyph glyph-name="b" unicode="b" horiz-adv-x="260" d="M272 326 C229 300 190 269 147 243 C119 227 89 212 58 203 C55 214 52 224 45 233 C38 243 29 251 19 257 C179 357 377 628 243 628 C132 628 20 380 -20 277 C-35 281 -52 283 -64 275 C-72 270 -79 261 -80 252 C-82 243 -79 235 -74 227 C-67 217 -57 208 -46 202 C-50 183 -56 161 -59 138 C-59 138 -59 138 -59 138 C-60 120 -57 89 -18 89 C-18 89 -18 89 -18 89 L-18 89 C1 89 18 103 30 118 C43 132 53 150 58 170 C60 179 60 189 58 199 C78 204 96 212 115 221 C172 249 221 289 275 322 C277 323 275 327 272 326 L272 326 Z M144 521 L144 521 C144 521 144 521 144 521 C147 527 150 532 153 537 C169 561 205 607 255 611 C288 612 303 585 243 497 C154 364 53 287 15 260 C13 261 11 262 10 263 C53 360 111 464 144 521 L144 521 Z M8 259 C9 259 10 258 11 257 C9 256 7 255 6 254 C6 256 7 257 8 259 L8 259 Z M3 248 C7 250 11 252 15 255 C29 245 42 233 49 217 C51 212 52 207 53 202 C36 198 19 195 1 195 C-4 195 -10 196 -16 197 C-10 213 -3 230 3 248 L3 248 Z M-59 218 C-67 224 -74 233 -76 243 C-78 253 -71 264 -63 270 C-52 278 -36 277 -22 273 C-25 265 -28 257 -30 252 C-30 252 -37 233 -44 207 C-50 210 -55 213 -59 218 L-59 218 Z M46 152 C38 132 24 114 6 102 C1 99 -7 95 -15 94 C-17 94 -21 94 -24 95 C-25 95 -26 96 -27 97 C-27 97 -27 97 -27 97 C-33 100 -39 108 -36 124 C-36 124 -36 124 -36 124 C-33 144 -27 167 -17 192 C-9 191 0 190 7 191 C20 191 32 193 44 195 C47 196 51 197 54 198 C57 182 53 166 46 152 L46 152 Z " />
<glyph glyph-name="c" unicode="c" horiz-adv-x="298" d="M306 326 C266 287 221 251 172 222 C148 208 123 195 97 184 C76 176 56 166 33 161 C24 159 15 158 6 159 L6 159 C6 159 6 159 6 159 C6 159 5 159 5 159 C4 159 4 159 4 159 C2 159 1 159 0 159 C-1 160 -2 160 -4 160 C-4 160 -4 160 -4 160 C-4 160 -4 160 -4 160 C-5 161 -6 161 -7 162 C-8 162 -8 162 -9 162 C-33 172 -31 202 -31 202 L-31 202 C-31 214 -27 231 -15 252 C38 348 104 397 104 397 C104 397 114 407 126 417 C149 422 182 441 147 449 C145 449 144 449 142 449 L142 449 C142 449 113 456 39 372 C8 336 -26 293 -44 255 C-49 246 -57 226 -57 206 L-57 206 C-57 206 -58 202 -57 196 C-55 189 -52 181 -47 175 C-38 164 -21 154 10 154 L10 154 C37 154 67 167 91 176 C141 197 188 224 231 256 C259 277 285 299 309 323 C312 325 308 328 306 326 L306 326 Z M157 436 C155 429 142 424 131 421 C145 433 159 443 157 436 L157 436 Z " />
<glyph glyph-name="d" unicode="d" horiz-adv-x="370" d="M380 325 C358 305 335 285 311 265 C290 246 268 229 245 212 C222 196 197 181 171 170 C166 168 162 167 157 165 C130 155 122 169 120 174 C117 183 115 198 117 222 C117 222 117 222 117 223 C118 235 121 249 124 265 C125 265 125 265 125 265 C125 266 125 267 126 269 C126 269 126 269 126 269 C127 275 129 281 131 288 C139 296 146 304 154 312 C174 334 194 356 212 380 C230 405 248 430 263 457 C274 476 285 496 291 517 C294 528 295 542 288 550 L288 550 C288 550 285 552 280 554 C280 554 280 554 280 555 C280 555 280 555 280 555 C280 555 280 555 280 555 C268 560 243 564 213 524 C202 509 176 470 147 406 C146 403 145 400 143 398 C143 398 143 398 143 398 C126 361 109 316 92 263 C90 259 89 254 88 250 L88 250 C88 250 88 250 88 250 C88 249 87 248 87 246 C76 235 65 223 53 213 C41 202 21 187 3 190 C-7 192 -31 206 6 295 C48 399 99 418 109 417 C114 416 118 414 121 410 C123 407 126 411 124 413 C110 429 86 419 71 410 C53 399 38 381 26 365 C10 344 -3 321 -13 297 C-22 276 -30 251 -28 227 C-27 213 -22 199 -11 191 C1 182 17 186 30 191 C45 199 59 211 71 223 C76 228 80 233 85 237 C85 237 85 237 85 237 C84 233 83 229 83 226 C83 226 83 226 83 226 C80 208 77 180 86 163 C87 161 89 158 91 156 C91 156 91 156 92 156 C96 152 102 150 111 150 C121 150 131 153 140 155 C192 169 238 200 280 233 C316 262 350 292 383 322 C386 324 382 327 380 325 L380 325 Z M194 440 C207 466 230 510 261 540 C264 542 286 561 289 534 C290 523 284 509 281 502 C271 477 256 453 242 431 C225 405 207 380 187 356 C170 336 152 317 134 298 C154 357 184 420 194 440 L194 440 Z " />
<glyph glyph-name="e" unicode="e" horiz-adv-x="256" d="M259 326 C213 289 169 250 121 215 C98 199 74 184 49 170 C32 161 14 152 -5 147 C-45 137 -43 177 -41 188 C-37 214 -21 243 -13 257 C20 263 127 289 151 347 C179 416 75 421 2 326 C2 326 0 324 -3 319 C-3 319 -18 300 -33 275 C-46 252 -63 216 -62 183 C-62 181 -61 180 -61 179 C-61 177 -61 175 -60 173 C-60 171 -60 170 -59 168 C-56 151 -42 140 -25 139 C-5 139 15 148 32 157 C118 199 189 263 262 323 C265 325 262 328 259 326 L259 326 Z M-9 264 C-5 270 52 356 100 379 L100 379 C157 406 150 359 150 359 L150 359 C149 328 89 281 -9 263 C-9 263 -9 263 -9 264 L-9 264 Z " />
<glyph glyph-name="f" unicode="f" horiz-adv-x="276" d="M290 327 C241 291 186 263 134 232 C108 217 82 202 56 186 C31 171 5 155 -20 139 C-28 133 -35 128 -43 123 C-39 135 -37 142 -37 142 C-25 172 -8 214 13 262 C13 264 14 266 16 268 C16 269 17 271 17 272 C17 272 17 272 17 272 C17 272 17 272 17 272 C17 272 17 272 17 273 C18 273 18 274 18 274 C19 276 20 278 21 280 C23 285 25 289 27 294 L40 324 C41 325 42 327 43 329 C98 392 148 459 202 522 C220 543 237 565 251 589 C257 599 275 627 263 639 C263 639 263 639 263 639 C262 639 262 639 262 639 C262 639 262 639 262 639 C262 639 262 640 262 640 C260 641 256 644 247 643 C134 643 6 336 6 336 L6 336 C2 326 -3 316 -7 307 C-12 295 -17 284 -22 273 C-22 273 -22 273 -22 273 C-22 270 -23 268 -25 266 C-42 225 -54 190 -62 162 C-69 139 -77 115 -83 92 C-84 91 -86 90 -87 89 C-92 85 -102 78 -101 70 C-100 63 -97 57 -94 50 C-96 42 -98 34 -100 25 C-112 -27 -121 -81 -126 -134 L-126 -134 C-126 -134 -126 -150 -120 -147 C-114 -144 -108 -138 -103 -132 C-99 -126 -96 -120 -93 -114 C-85 -96 -80 -76 -77 -55 C-75 -35 -75 -15 -78 5 C-65 48 -53 90 -45 115 C-40 119 -36 122 -31 126 C-6 143 19 159 45 174 C97 205 149 235 201 265 C232 283 263 302 292 323 C294 325 292 329 290 327 L290 327 Z M63 372 L79 405 C114 473 150 537 185 581 C185 581 185 581 185 581 C200 600 215 616 229 626 C232 629 236 631 239 633 C244 636 257 643 261 633 C261 633 261 632 261 632 C261 632 262 631 262 631 C263 622 258 612 255 606 C243 580 225 557 207 535 C201 528 196 521 190 515 C181 506 173 495 165 484 C155 472 145 460 136 448 C108 413 79 378 50 344 C54 353 58 362 63 372 L63 372 Z M-95 67 C-96 71 -96 72 -94 76 C-92 80 -89 83 -85 85 C-88 76 -90 67 -92 58 C-93 61 -94 64 -95 67 L-95 67 Z M-91 -96 C-95 -110 -102 -125 -112 -137 C-108 -106 -95 -56 -81 -6 C-80 -13 -80 -20 -80 -27 C-80 -50 -84 -74 -91 -96 L-91 -96 Z " />
<glyph glyph-name="g" unicode="g" horiz-adv-x="322" d="M325 325 C267 238 183 168 84 133 C69 128 55 124 40 120 C100 210 147 309 170 395 C170 395 162 409 149 402 C149 402 142 384 129 354 L125 347 C125 346 125 346 125 346 C125 346 125 346 125 346 L120 335 C76 289 -5 210 -4 264 C-3 339 159 433 159 433 L158 437 C158 437 -28 347 -23 266 C-19 199 55 258 113 320 L110 315 C84 260 45 185 -4 113 C-4 113 -4 112 -4 112 C-27 107 -50 101 -72 94 C-113 81 -154 66 -192 45 C-228 24 -263 -4 -281 -43 C-287 -56 -290 -70 -291 -85 C-291 -92 -291 -103 -289 -111 C-286 -119 -275 -133 -236 -120 C-236 -120 -236 -120 -236 -120 L-236 -120 C-234 -119 -232 -119 -230 -118 C-227 -117 -224 -116 -222 -115 C-187 -103 -149 -84 -114 -53 C-114 -53 -114 -53 -114 -53 C-110 -49 -106 -46 -102 -43 C-54 -1 -9 51 31 107 C31 108 31 109 32 109 C32 109 32 109 32 109 C33 111 35 113 36 114 C36 114 36 114 36 114 C36 114 36 115 36 115 C36 115 36 115 36 115 C36 115 36 115 36 115 C55 119 75 125 93 132 C190 168 272 238 329 323 C331 325 327 327 325 325 L325 325 Z M-10 104 L-17 93 C-17 93 -17 93 -17 93 C-18 92 -19 90 -20 89 L-20 89 L-20 89 C-52 43 -88 -1 -127 -37 C-131 -41 -134 -44 -138 -48 C-144 -52 -150 -57 -156 -61 C-167 -69 -179 -77 -190 -84 C-207 -94 -224 -102 -242 -109 C-243 -110 -245 -110 -247 -111 C-248 -112 -250 -112 -252 -113 C-281 -123 -285 -107 -286 -101 L-286 -102 C-286 -101 -286 -101 -286 -101 C-286 -101 -286 -101 -286 -101 L-286 -99 C-286 -95 -286 -91 -286 -89 C-286 -74 -283 -59 -277 -45 C-259 -6 -222 22 -185 43 C-147 64 -106 79 -65 92 C-46 98 -27 102 -8 106 C-8 105 -9 105 -10 104 L-10 104 Z " />
<glyph glyph-name="h" unicode="h" horiz-adv-x="340" d="M356 328 C271 240 196 143 106 60 C94 48 82 35 68 26 C62 22 54 17 48 21 C40 25 44 37 45 44 C47 52 50 61 53 69 C57 82 61 96 66 109 C78 138 92 166 104 195 C111 210 117 225 123 240 C130 258 136 277 141 296 C144 310 147 328 141 342 C135 355 122 358 110 356 C88 353 68 340 50 327 C46 324 41 321 37 317 C38 320 39 323 41 326 C96 389 146 456 200 519 C218 540 235 562 249 586 C255 596 272 624 260 636 C260 636 260 636 260 636 C260 636 260 636 260 636 C260 636 260 636 260 636 C260 636 260 637 260 637 C258 638 253 641 245 640 C202 640 151 574 151 574 L151 574 C109 525 55 442 -9 304 C-44 227 -63 172 -70 133 C-70 131 -70 130 -70 129 C-71 123 -72 117 -73 112 C-73 111 -73 110 -73 108 C-65 109 -57 109 -50 110 C-49 111 -49 112 -49 113 C-39 141 -17 197 11 261 C12 261 12 261 12 261 C12 262 12 262 12 262 C12 262 12 262 12 262 C13 265 14 267 16 270 C16 269 15 269 15 269 C15 270 16 271 16 272 C16 272 17 273 17 273 C17 273 17 273 17 273 C22 285 27 296 32 308 C36 311 40 314 43 317 C59 328 75 339 92 346 C105 351 122 357 133 346 C144 336 140 314 137 302 C134 282 127 264 120 245 C114 230 108 215 102 200 C90 173 76 145 65 117 C59 102 54 88 49 73 C47 65 44 58 42 50 C39 38 34 15 53 15 C60 15 67 19 72 23 C79 28 86 34 92 40 C109 56 127 72 143 89 C165 111 186 133 206 155 C257 212 306 270 359 325 C361 327 358 330 356 328 L356 328 Z M66 380 C68 385 70 389 73 393 C108 464 147 532 183 578 C183 578 183 578 183 578 C198 597 212 613 226 623 C230 626 233 628 237 630 C241 633 255 640 259 630 C259 630 259 629 259 629 C259 629 259 628 259 628 C261 619 256 609 253 603 C240 577 222 554 204 532 C199 525 193 518 187 512 C178 503 171 492 162 481 C153 469 143 457 133 445 C105 410 77 375 47 341 C54 354 60 367 66 380 L66 380 Z " />
<glyph glyph-name="i" unicode="i" horiz-adv-x="168" d="M81 449 C107 440 112 486 96 491 C96 491 87 495 80 488 C80 488 56 459 81 449 L81 449 Z M181 327 C169 315 158 304 147 292 C108 253 67 215 19 188 C8 182 -4 177 -15 172 C-15 172 -16 172 -16 172 C-16 172 -16 172 -16 171 C-26 167 -29 170 -30 170 C-31 173 -32 176 -31 181 C-27 195 80 420 80 420 C80 420 64 429 56 425 C56 425 -21 299 -47 220 L-47 220 C-47 220 -54 205 -57 189 C-57 189 -57 189 -57 189 C-59 177 -60 159 -43 159 C-27 159 1 174 1 174 L1 174 C48 195 88 229 125 264 C146 284 165 304 184 324 C183 325 182 326 181 327 L181 327 Z " />
<glyph glyph-name="j" unicode="j" horiz-adv-x="208" d="M55 433 C80 423 87 470 71 475 C71 475 62 479 55 472 C55 472 29 442 55 433 L55 433 Z M211 325 C152 238 68 168 -31 133 C-45 128 -60 124 -75 120 C-14 210 32 309 55 395 C55 395 47 409 35 402 C35 402 27 384 14 354 L10 347 C10 346 10 346 10 346 C10 346 10 346 10 346 L-4 315 C-31 260 -70 185 -118 113 C-118 113 -119 112 -119 112 C-142 107 -164 101 -187 94 C-228 81 -269 66 -306 45 C-342 24 -377 -4 -395 -43 C-402 -56 -404 -70 -405 -85 C-406 -92 -406 -103 -403 -111 C-400 -119 -390 -133 -351 -120 C-351 -120 -350 -120 -350 -120 L-350 -120 C-349 -119 -347 -119 -345 -118 C-342 -117 -339 -116 -336 -115 C-301 -103 -263 -84 -228 -53 C-228 -53 -228 -53 -228 -53 C-224 -49 -220 -46 -216 -43 C-169 -1 -123 51 -84 107 C-83 108 -83 109 -83 109 C-83 109 -83 109 -82 109 C-81 111 -80 113 -78 114 C-79 114 -79 114 -79 114 C-79 114 -79 115 -79 115 C-79 115 -79 115 -79 115 C-79 115 -79 115 -79 115 C-59 119 -40 125 -21 132 C76 168 157 238 215 323 C216 325 213 327 211 325 L211 325 Z M-124 104 L-132 93 C-132 93 -132 93 -132 93 C-133 92 -134 90 -135 89 L-135 89 L-135 89 C-167 43 -203 -1 -241 -37 C-245 -41 -249 -44 -253 -48 C-259 -52 -265 -57 -271 -61 C-282 -69 -293 -77 -305 -84 C-321 -94 -339 -102 -356 -109 C-358 -110 -359 -110 -361 -111 C-363 -112 -365 -112 -366 -113 C-395 -123 -400 -107 -401 -101 L-401 -102 C-401 -101 -401 -101 -401 -101 C-401 -101 -401 -101 -401 -101 L-401 -99 C-401 -95 -401 -91 -401 -89 C-400 -74 -398 -59 -392 -45 C-373 -6 -336 22 -299 43 C-261 64 -220 79 -179 92 C-160 98 -141 102 -122 106 C-123 105 -123 105 -124 104 L-124 104 Z " />
<glyph glyph-name="k" unicode="k" horiz-adv-x="327" d="M339 327 C295 278 254 228 204 185 C180 164 152 143 120 133 C108 130 96 129 84 133 C71 137 61 146 55 158 C47 174 46 193 46 210 C46 231 49 252 53 273 C58 302 66 330 73 358 C82 364 91 369 100 374 C131 391 165 406 201 411 C203 411 203 416 201 415 C165 410 131 396 100 379 C89 373 78 367 68 360 C113 414 156 470 201 523 C219 544 236 566 250 590 C256 600 274 628 262 640 C262 640 262 640 262 640 C262 640 261 640 261 640 C261 640 261 640 261 640 C261 640 261 641 261 641 C259 642 255 645 246 644 C203 644 153 578 153 578 L153 578 C111 529 57 446 -7 308 C-43 231 -61 176 -68 137 C-68 135 -69 134 -69 133 C-69 133 -69 133 -69 133 C-58 138 -47 144 -35 149 C-23 180 -6 223 15 271 C16 272 17 274 18 276 C18 276 18 277 18 277 C18 277 18 277 18 277 C26 295 34 312 42 330 C47 336 52 341 56 346 C60 349 64 352 68 355 C61 328 54 301 49 274 C45 254 42 233 41 212 C41 195 42 177 49 161 C59 136 83 123 109 126 C139 131 167 150 190 168 C245 210 289 263 334 315 C336 318 339 321 342 324 C344 326 340 329 339 327 L339 327 Z M74 397 C110 468 148 536 184 582 C184 582 184 582 184 582 C199 601 214 617 228 627 C231 630 235 632 238 634 C243 637 257 644 260 634 C260 634 260 633 261 633 C261 633 261 632 261 632 C263 623 257 613 254 607 C242 581 224 558 206 536 C200 529 195 522 189 516 C180 507 172 496 164 485 C154 473 145 461 135 449 C108 416 82 383 54 350 C53 350 52 349 50 348 C56 360 62 372 68 384 C69 389 71 393 74 397 L74 397 Z " />
<glyph glyph-name="l" unicode="l" horiz-adv-x="334" d="M346 328 C332 314 317 301 302 288 C281 269 259 251 238 232 C197 193 156 153 111 119 C91 105 71 91 50 79 C44 76 38 73 32 70 L32 70 C32 70 32 70 31 70 C27 68 23 66 18 64 C7 59 -10 54 -22 54 C-42 54 -69 64 -48 118 C-38 147 -15 205 14 271 C15 273 16 275 17 276 C17 277 17 278 17 278 C17 278 17 278 17 278 C25 295 33 313 41 331 C97 394 146 461 200 524 C218 545 235 567 249 591 C255 601 273 629 261 641 C261 641 261 641 261 641 C261 641 260 641 260 641 C260 641 260 641 260 641 C260 641 260 641 260 641 C258 643 254 645 245 645 C202 645 152 578 152 578 L152 578 C110 529 56 447 -8 309 C-44 232 -62 177 -69 138 C-69 136 -70 135 -70 133 C-71 128 -72 122 -72 117 C-74 78 -55 53 -28 50 C-4 47 34 65 47 72 C48 73 49 73 50 74 C50 74 50 74 50 74 C52 75 55 77 57 78 C81 92 104 108 125 125 C168 158 207 196 246 233 C281 264 318 293 351 326 C349 327 348 327 346 328 L346 328 Z M67 385 C68 390 70 394 73 398 C109 469 147 537 183 583 C183 583 183 583 183 583 C198 602 213 618 227 628 C230 630 234 633 237 635 C242 638 256 644 259 635 C259 634 259 634 260 634 C260 634 260 633 260 633 C262 624 257 614 253 607 C241 582 223 559 205 537 C199 530 194 523 188 517 C179 508 171 497 163 486 C153 474 144 462 134 450 C106 415 78 379 48 345 C54 359 60 372 67 385 L67 385 Z " />
<glyph glyph-name="m" unicode="m" horiz-adv-x="477" d="M482 327 C453 305 424 284 395 263 C370 245 344 227 320 208 C298 191 275 173 251 158 C235 148 216 137 197 132 L197 132 C197 132 194 131 190 130 C190 130 190 130 189 130 L190 130 C176 127 149 127 171 173 L171 173 C185 205 222 280 261 356 C262 359 268 371 271 377 C272 379 273 381 273 382 C276 392 277 411 241 405 C240 405 240 405 240 405 C240 405 240 405 240 405 L240 405 C239 405 239 405 239 405 L239 405 C235 404 229 403 223 401 C222 401 222 401 222 401 C196 392 175 375 157 358 C151 352 145 346 140 341 C150 367 154 399 110 377 L110 377 C95 370 81 359 68 349 C55 340 42 330 30 319 L72 408 L34 395 L-72 175 C-65 176 -59 178 -52 179 C-46 180 -40 181 -35 181 L15 289 L25 309 C35 318 46 327 57 336 C72 348 87 359 104 369 C106 370 115 375 122 378 C123 376 123 373 121 367 C113 345 71 250 60 225 C60 224 59 222 58 220 C68 222 79 224 89 226 C90 227 90 227 90 228 C90 228 90 228 90 228 C107 268 124 307 130 316 C131 319 133 323 135 328 C142 337 150 345 159 353 C178 372 201 391 231 399 C232 399 233 399 236 400 C237 400 239 401 240 401 C252 401 240 380 240 378 C240 378 240 378 240 378 C240 378 240 378 240 378 C210 325 183 274 171 250 C157 221 141 187 134 160 C134 159 134 159 134 158 C134 158 134 158 134 157 C134 157 134 157 134 157 C133 156 133 156 133 155 C126 119 164 121 182 124 C185 125 188 126 190 126 C203 129 216 135 227 140 C280 166 321 205 366 238 C406 266 446 295 485 324 C488 325 485 328 482 327 L482 327 Z " />
<glyph glyph-name="n" unicode="n" horiz-adv-x="401" d="M414 328 C385 306 356 285 327 264 C302 246 276 228 252 209 C230 192 207 174 183 159 C167 149 148 139 129 133 L129 133 C129 133 126 132 123 131 C122 131 122 131 122 131 L122 131 C108 128 81 128 103 174 C117 206 155 281 193 357 C194 359 197 366 200 372 C216 404 191 407 180 406 C179 406 172 406 166 404 C165 404 165 404 165 404 C164 403 162 403 160 402 C149 398 140 391 130 386 C119 379 109 372 99 364 C79 348 62 330 44 312 C34 301 22 291 12 280 L16 291 L25 308 L25 308 L31 320 L31 320 L31 321 L35 329 L74 410 L36 397 L-70 177 C-64 178 -57 179 -51 181 C-45 182 -39 182 -33 183 L6 269 C18 280 29 291 41 302 C57 319 73 336 91 351 C108 366 126 378 146 390 C153 394 161 398 169 400 C183 404 174 383 173 382 C172 381 172 380 172 380 C172 380 172 379 172 379 C172 379 172 379 172 379 C142 326 115 275 103 251 C89 222 73 188 66 161 C66 161 66 160 66 160 C66 159 66 159 66 159 C66 158 66 158 66 158 C66 157 65 157 65 156 C58 120 96 123 114 126 C117 126 120 127 123 127 C135 131 148 136 159 141 C212 167 253 206 298 239 C338 267 378 296 417 325 C420 327 417 330 414 328 L414 328 Z " />
<glyph glyph-name="o" unicode="o" horiz-adv-x="338" d="M347 326 C313 297 275 272 236 252 C216 241 195 232 173 225 C153 218 129 211 107 216 C107 216 108 216 108 216 C107 216 107 216 107 216 C164 267 206 343 191 388 C188 394 185 400 182 404 C182 404 182 404 182 404 C182 404 182 404 182 404 C176 412 169 417 163 419 C161 420 159 420 158 420 C157 420 157 421 156 421 C145 423 135 419 133 418 C127 415 121 411 116 406 C108 397 102 388 95 378 C82 358 72 335 65 311 C60 294 59 277 64 259 C68 243 76 228 90 219 C93 217 97 215 100 214 C87 202 72 192 56 184 C56 184 56 184 56 184 C55 184 55 184 54 183 C39 176 -9 158 -9 201 C-8 230 12 276 37 327 C79 415 118 419 119 419 C119 419 119 419 119 419 C119 419 125 423 119 425 C117 425 110 428 100 428 C67 428 38 388 30 376 C0 328 -49 240 -32 193 L-32 193 C-32 193 -16 144 49 178 L49 178 C68 186 86 198 103 213 C103 213 103 212 103 212 C124 206 148 212 169 219 C191 225 212 235 233 245 C275 266 314 293 350 323 C352 325 349 328 347 326 L347 326 Z M95 220 C79 228 70 246 67 262 C63 279 65 295 69 310 C75 332 84 352 95 370 C101 379 106 387 112 395 C118 402 125 409 133 414 C139 417 145 418 152 417 L152 417 C152 417 152 417 152 417 C155 417 157 416 160 416 C160 416 160 416 161 415 C161 415 161 415 161 415 C190 405 188 367 188 367 L188 367 C188 365 188 363 187 361 C184 331 155 264 104 217 C101 218 98 219 95 220 L95 220 Z " />
<glyph glyph-name="p" unicode="p" horiz-adv-x="334" d="M348 327 C315 310 285 289 251 276 C233 268 214 265 194 263 C176 262 159 262 141 261 C142 262 143 262 145 263 C154 267 162 272 171 278 C191 289 210 303 227 320 C241 334 257 353 259 375 C260 394 249 410 234 415 C224 419 213 417 203 416 C191 413 179 409 167 404 C143 394 121 379 100 363 C79 348 60 331 42 312 C34 304 26 295 19 286 L73 398 C68 398 64 397 59 396 C53 395 47 394 40 393 C48 394 40 393 38 393 C37 392 35 392 33 392 C33 392 33 392 33 392 L-159 9 L-155 7 C-145 3 -121 -3 -113 14 L-7 233 C-7 231 -6 229 -5 228 C0 221 11 221 18 222 C44 223 70 232 94 241 C107 245 120 250 132 256 C153 258 173 257 194 259 C213 260 233 264 251 271 C286 284 317 306 350 323 C353 324 350 328 348 327 L348 327 Z M107 250 C82 241 57 232 32 228 C22 226 11 224 2 228 C-1 229 -3 231 -3 234 C-4 242 3 249 8 252 C13 254 18 255 23 256 C31 258 38 258 45 259 C59 260 73 260 86 259 C99 259 112 258 125 258 C119 255 113 252 107 250 L107 250 Z M133 262 C115 262 97 264 80 264 C66 264 52 264 39 263 C28 262 16 261 6 256 C5 255 4 255 3 254 L10 268 C21 282 32 296 44 309 C63 329 83 346 104 361 C126 378 149 392 174 402 C186 407 198 411 211 412 C221 414 232 413 241 407 C248 402 253 393 255 384 C257 373 253 361 248 353 C235 331 216 314 197 300 C178 286 158 275 137 264 C136 263 135 263 133 262 L133 262 Z " />
<glyph glyph-name="q" unicode="q" horiz-adv-x="386" d="M393 327 C368 307 343 287 319 266 C297 247 276 228 252 211 C232 197 211 184 188 177 C188 178 188 179 188 181 C188 182 187 184 188 185 C188 186 187 193 186 197 C183 212 177 226 162 233 C155 236 148 238 141 238 C189 324 230 400 230 400 C230 400 241 412 200 415 C200 415 196 405 187 390 C172 375 158 359 144 344 C131 330 116 319 101 309 C87 299 74 291 60 283 C47 276 32 268 16 267 C11 267 5 268 2 272 C-5 282 2 296 7 304 C11 313 16 321 22 328 L34 341 C44 349 53 357 63 364 C106 397 156 422 208 439 C239 449 270 457 302 462 C305 462 304 467 301 466 C269 461 237 454 207 444 L207 444 C130 420 10 355 -9 308 C-28 261 13 262 13 262 C19 262 27 264 33 266 C61 275 87 294 112 311 C138 329 158 352 178 375 C158 338 127 281 96 223 C87 217 81 209 77 198 C76 194 77 191 78 188 C39 115 4 47 -5 22 C-7 13 -10 4 -12 -5 C-15 -14 -33 -96 31 -91 C31 -91 31 -91 31 -91 C31 -91 31 -91 31 -91 C36 -90 42 -89 46 -88 C54 -84 62 -80 69 -76 C85 -67 95 -53 106 -40 C123 -18 137 5 150 29 C161 52 171 77 178 102 C184 125 190 148 189 172 C195 174 201 177 207 180 C259 203 302 246 344 282 C361 296 379 310 397 324 C399 326 396 329 393 327 L393 327 Z M110 182 C111 184 112 185 112 185 L112 185 C120 201 129 217 138 233 C149 234 161 231 169 223 C176 216 180 206 181 197 C182 194 183 189 183 186 C183 186 183 186 183 186 C183 186 183 185 184 185 C183 183 183 182 183 181 C183 181 183 181 183 181 C183 181 183 181 183 181 L183 181 C183 179 184 177 184 176 C183 175 183 175 182 175 C160 169 136 167 114 172 C111 173 109 174 106 175 C107 176 107 177 108 178 C108 178 108 178 108 178 C108 179 109 180 110 182 L110 182 Z M90 212 C88 206 84 201 82 195 C82 201 86 207 90 212 L90 212 Z M183 148 C180 121 172 96 163 71 C152 46 141 21 127 -2 C113 -24 98 -45 79 -63 C76 -67 70 -70 65 -73 C39 -88 25 -79 19 -74 C18 -73 17 -72 16 -71 L16 -71 C5 -56 -3 -28 22 21 C38 49 67 105 100 165 C100 165 101 165 102 166 C103 167 103 169 104 171 C117 166 130 165 144 165 C157 165 171 167 184 171 C184 163 184 156 183 148 L183 148 Z " />
<glyph glyph-name="r" unicode="r" horiz-adv-x="370" d="M378 326 C341 278 296 238 252 197 C210 159 166 121 113 99 C110 98 108 97 106 96 C53 77 54 115 55 126 C59 156 79 209 106 260 C153 347 199 412 206 426 C212 437 188 429 181 427 C180 427 179 427 179 426 C160 404 142 382 121 362 C106 349 89 338 72 327 C60 320 33 304 22 319 C17 327 22 338 25 346 C29 356 34 365 38 374 C38 374 51 389 32 391 C13 393 -36 310 33 309 C33 309 34 309 35 309 L35 309 C43 309 52 312 58 315 C76 323 92 335 107 346 C127 360 144 378 160 397 C134 358 108 319 85 279 C71 254 59 228 50 202 C44 187 40 171 37 155 C35 142 33 120 40 106 C41 104 42 102 43 100 C52 84 69 82 85 86 C108 90 129 101 149 112 C173 126 195 143 217 160 C245 184 272 209 299 234 C329 261 357 291 381 323 C383 325 380 328 378 326 L378 326 Z " />
<glyph glyph-name="s" unicode="s" horiz-adv-x="251" d="M259 327 C204 271 132 232 54 223 C54 226 53 230 53 231 C52 233 52 234 51 236 L45 254 C45 254 45 254 45 254 C45 255 45 256 44 257 L44 257 C44 257 44 257 44 257 C42 263 40 269 39 275 C39 275 38 275 38 275 C38 275 38 276 38 277 C36 288 34 299 35 310 C35 321 36 333 40 343 C45 354 52 364 61 373 C69 380 77 386 86 391 C103 401 121 409 139 417 C140 418 142 419 143 419 C113 417 70 389 48 373 C48 373 48 373 48 373 C27 357 8 340 0 324 C-1 321 -2 319 -2 317 C-3 316 -3 315 -3 314 C-4 313 -4 312 -4 311 C-12 285 3 254 10 243 C10 241 11 240 12 239 C13 237 14 235 15 234 C17 228 20 223 22 216 C12 213 2 210 -8 206 C-27 198 -52 181 -49 160 C-48 149 -40 145 -30 144 L-30 144 C-28 144 -26 144 -25 145 C-11 146 26 151 45 181 C47 184 48 186 50 189 C50 189 50 189 50 190 C50 190 50 190 50 190 L50 190 C54 200 55 210 55 218 C133 228 207 267 262 323 C264 325 261 329 259 327 L259 327 Z M24 188 C24 188 24 187 24 187 C23 184 22 182 21 180 C17 168 4 148 -27 149 L-27 149 C-35 149 -42 152 -44 160 C-47 169 -39 180 -31 187 C-20 198 -4 203 10 208 C14 209 19 211 23 212 C25 204 26 196 24 188 L24 188 L24 188 Z " />
<glyph glyph-name="t" unicode="t" horiz-adv-x="250" d="M302 511 C243 511 185 511 127 511 C156 570 178 613 178 613 L155 613 C155 613 131 568 100 511 C34 511 -32 511 -98 511 C-101 511 -105 511 -108 511 C-111 511 -111 507 -108 507 C-40 507 29 507 97 507 C55 430 3 333 -14 296 C-29 266 -45 230 -53 201 C-54 200 -54 199 -54 199 C-54 198 -54 198 -54 198 C-54 197 -54 197 -54 197 C-55 196 -55 196 -55 195 C-64 156 -31 152 -15 152 C-12 152 -10 152 -7 152 C4 154 15 157 26 162 C74 181 112 219 154 247 C191 272 228 297 264 323 C267 325 264 329 262 327 C235 308 208 289 181 271 C158 255 134 239 112 222 C91 206 70 190 47 177 C33 169 16 160 -2 157 L-2 157 C-2 157 -4 157 -7 157 C-7 157 -8 156 -8 156 L-8 156 C-20 156 -43 160 -20 209 L-20 209 C1 257 74 404 125 507 C180 507 236 507 292 507 C295 507 298 507 302 507 C304 507 304 511 302 511 L302 511 Z " />
<glyph glyph-name="u" unicode="u" horiz-adv-x="395" d="M404 328 C362 290 315 258 269 226 C243 208 216 190 189 173 C178 166 167 158 155 152 C151 151 147 149 144 148 C117 141 132 197 132 197 C146 241 148 254 183 325 C184 326 185 328 186 330 C186 330 186 330 186 330 C186 330 186 331 187 331 C217 393 254 466 254 466 L229 466 C229 466 196 415 166 356 C141 329 115 302 89 276 C77 263 64 251 51 240 C37 228 22 216 6 209 C2 207 -1 206 -5 205 C-49 197 89 434 89 434 C79 437 68 435 63 434 C62 434 61 434 60 433 C32 390 10 343 -13 297 C-22 279 -31 261 -36 242 C-39 229 -41 213 -29 204 C-18 196 -3 200 8 205 C24 212 39 224 53 236 C86 264 116 297 147 329 C151 333 155 338 159 342 C156 335 153 328 149 322 C148 320 116 256 106 208 C106 208 106 208 106 207 C104 191 98 173 103 157 C108 137 132 139 148 145 C160 149 171 156 183 163 C195 171 208 179 220 187 C247 205 273 223 299 242 C336 269 374 295 407 325 C406 326 405 327 404 328 L404 328 Z " />
<glyph glyph-name="v" unicode="v" horiz-adv-x="318" d="M273 406 C291 428 307 450 322 474 C331 490 341 508 344 527 C346 539 344 553 332 559 C317 566 299 549 290 540 C269 520 252 495 236 470 C217 441 200 410 186 379 C174 352 162 324 156 295 C155 290 155 285 154 281 C154 280 153 280 153 279 C112 238 70 197 25 160 C13 150 1 139 -13 132 C-16 130 -19 128 -22 127 C-28 124 -40 119 -47 126 C-52 132 -53 143 -42 166 C-29 197 9 272 47 348 C48 351 52 358 55 364 C43 363 32 361 20 360 C-7 310 -32 265 -42 243 C-52 222 -64 198 -72 177 C-72 175 -77 161 -79 153 C-79 153 -79 153 -79 152 C-79 152 -80 151 -80 151 C-80 151 -80 150 -80 150 C-80 150 -80 149 -80 149 C-80 149 -80 148 -80 148 C-81 144 -81 141 -81 139 L-81 139 C-81 96 -42 111 -17 124 C-12 127 -7 130 -1 134 C1 135 2 136 2 136 L2 136 C6 139 11 143 16 146 C59 180 98 219 137 257 C143 263 148 268 154 274 C154 261 157 248 169 239 C189 221 219 234 239 246 C269 263 295 287 319 311 C324 316 329 321 334 326 C333 327 332 328 330 329 C319 318 308 307 297 296 C273 274 245 250 214 239 C203 235 190 232 179 237 C169 242 162 252 159 262 C158 267 158 273 159 279 C199 319 238 362 273 406 L273 406 Z M160 291 C163 304 166 317 171 330 C182 361 196 392 212 421 C228 451 246 480 266 506 C274 517 283 527 293 537 C300 543 307 550 316 554 C321 556 327 557 332 553 C337 550 339 545 340 540 C343 524 334 507 327 493 C315 470 300 449 285 428 C247 378 204 331 159 286 C160 288 160 289 160 291 L160 291 Z " />
<glyph glyph-name="w" unicode="w" horiz-adv-x="418" d="M425 327 C401 305 377 285 351 266 C335 255 319 245 302 237 C287 230 271 225 254 224 C241 223 228 227 218 236 C249 276 278 318 305 361 C321 387 337 414 349 443 C358 463 367 485 365 507 C364 525 351 539 333 538 C318 537 305 526 295 516 C282 502 272 486 262 470 C254 456 247 441 240 426 C234 412 227 398 221 384 C212 363 204 342 199 321 C195 301 192 280 197 261 C200 251 205 242 212 235 C200 220 188 204 175 189 C169 182 163 175 156 169 C146 160 133 150 119 145 L119 145 C114 143 108 142 104 142 L104 142 C104 142 104 142 104 142 C102 142 101 142 99 142 C45 148 83 264 110 332 C115 348 122 364 130 379 C130 379 130 379 130 379 L130 379 C132 383 133 386 135 389 C135 389 120 404 115 398 C115 398 115 398 114 397 C104 385 94 373 84 362 C79 356 74 351 69 345 L69 345 L13 286 L41 363 C41 364 41 364 42 365 L42 365 L42 365 C47 380 52 395 54 411 C45 410 35 408 26 407 C18 374 2 330 -8 302 L-8 302 L-19 274 C-21 269 -21 267 -19 265 C-17 262 -12 263 -6 265 C-6 265 -6 265 -6 265 C-5 265 -4 265 -3 266 C5 269 11 275 14 278 L15 279 C15 279 15 279 15 279 L93 366 C95 368 97 370 99 372 C99 372 99 372 99 372 C97 367 95 363 93 359 C92 356 91 352 89 349 C89 349 89 348 89 348 C89 348 89 348 89 348 C88 347 88 346 87 345 C87 344 87 344 87 343 C78 320 32 194 72 152 C81 142 94 137 108 138 C130 140 149 157 165 171 C177 183 187 196 198 210 C204 217 210 225 216 232 C219 230 222 227 225 226 C238 219 253 218 267 221 C283 224 299 231 314 238 C331 247 347 258 362 269 C386 286 407 304 428 323 C431 325 427 328 425 327 L425 327 Z M216 240 C215 239 215 239 215 239 C202 253 198 272 199 290 C200 313 207 335 214 356 C221 375 230 394 238 412 C252 441 266 471 285 497 C298 515 329 548 353 527 C365 515 361 493 357 478 C350 452 337 426 324 402 C293 345 255 291 216 240 L216 240 Z " />
<glyph glyph-name="x" unicode="x" horiz-adv-x="292" d="M300 326 C281 312 263 298 246 282 C222 262 199 241 174 222 C150 204 125 188 98 177 C84 172 68 167 51 167 C22 167 13 196 14 233 C61 274 107 314 152 358 C154 360 151 363 149 361 C105 319 60 279 14 240 C17 310 51 406 51 406 L13 402 L0 325 C-5 301 -11 276 -13 251 C-13 240 -14 228 -12 217 L-121 123 C-123 121 -120 117 -118 119 C-82 151 -47 181 -11 211 C-9 199 -3 188 5 179 C23 160 52 161 75 166 C104 172 130 186 153 202 C182 221 209 244 235 267 C258 287 282 306 306 325 L300 326 Z M306 325 L300 326 L306 325 Z " />
<glyph glyph-name="y" unicode="y" horiz-adv-x="323" d="M326 325 C267 238 183 168 84 133 C70 128 55 124 40 120 C100 209 147 308 170 393 C162 392 154 391 145 391 C142 383 136 370 129 354 L126 347 C126 346 125 346 125 346 C125 346 125 346 125 346 L121 335 C120 335 120 335 120 335 C120 335 120 334 120 334 C118 329 116 324 113 319 L111 315 C98 289 83 259 66 227 C53 219 37 211 21 207 L21 207 C21 207 19 206 16 205 C15 205 15 205 15 205 L15 205 C2 203 -23 202 -2 246 C8 269 33 320 61 375 C49 373 37 371 24 370 C13 348 3 330 -2 318 C-15 291 -31 259 -37 233 C-37 233 -37 232 -37 232 C-37 232 -38 231 -38 231 C-38 231 -38 230 -38 230 C-38 230 -38 229 -38 229 C-45 195 -9 197 7 200 C10 200 13 201 16 202 C28 205 39 209 50 215 C55 217 58 219 62 221 C43 186 21 149 -3 113 C-3 113 -3 112 -4 112 C-27 107 -49 101 -72 94 C-113 81 -153 66 -191 45 C-227 24 -262 -4 -280 -43 C-286 -56 -289 -70 -290 -85 C-290 -92 -291 -103 -288 -111 C-285 -119 -275 -133 -236 -120 C-235 -120 -235 -120 -235 -120 L-235 -120 C-233 -119 -231 -119 -230 -118 C-226 -117 -224 -116 -221 -115 C-186 -103 -148 -84 -113 -53 C-113 -53 -113 -53 -113 -53 C-109 -49 -105 -46 -101 -43 C-53 -1 -8 51 31 107 C32 108 32 109 32 109 C33 109 33 109 33 109 C34 111 35 113 37 114 C37 114 36 114 36 114 C36 114 36 115 37 115 C37 115 37 115 37 115 C37 115 37 115 37 115 C56 119 75 125 94 132 C191 168 273 238 330 323 C332 325 328 327 326 325 L326 325 Z M-9 104 L-16 93 C-16 93 -16 93 -16 93 C-17 92 -18 90 -19 89 L-20 89 L-20 89 C-52 43 -88 -1 -126 -37 C-130 -41 -134 -44 -138 -48 C-144 -52 -150 -57 -156 -61 C-167 -69 -178 -77 -190 -84 C-206 -94 -223 -102 -241 -109 C-243 -110 -244 -110 -246 -111 C-248 -112 -249 -112 -251 -113 C-280 -123 -285 -107 -285 -101 L-285 -102 C-285 -101 -285 -101 -285 -101 C-285 -101 -285 -101 -285 -101 L-285 -99 C-286 -95 -286 -91 -286 -89 C-285 -74 -283 -59 -276 -45 C-258 -6 -221 22 -184 43 C-146 64 -105 79 -64 92 C-45 98 -26 102 -7 106 C-8 105 -8 105 -9 104 L-9 104 Z " />
<glyph glyph-name="z" unicode="z" horiz-adv-x="360" d="M368 328 C319 292 272 254 226 214 C205 196 184 179 161 165 C150 158 138 152 125 148 C115 145 102 141 90 144 C79 147 74 157 69 166 C64 175 59 184 50 190 C42 194 33 197 23 198 C50 221 255 400 268 414 C270 417 271 418 271 420 C270 426 232 413 232 413 L232 413 C211 409 191 401 171 393 C149 384 128 375 107 365 C90 357 74 348 57 341 C16 324 -10 346 -16 334 C-22 321 -12 320 -12 320 C-12 320 -12 320 -11 320 C8 319 28 324 46 332 C66 339 85 349 104 358 C125 368 147 378 168 387 C189 396 210 403 231 409 C195 370 151 341 111 308 C88 288 65 267 42 247 C31 237 19 227 7 217 C-4 207 -16 199 -25 187 C-26 187 -26 186 -26 186 C-27 184 -25 182 -23 183 C-3 195 26 197 46 186 C63 177 64 156 79 145 C96 132 122 141 140 149 C164 159 185 175 206 191 C231 212 255 234 280 255 C310 279 339 302 370 324 C372 326 370 329 368 328 L368 328 Z " />
<glyph glyph-name="braceleft" unicode="&#x7b;" horiz-adv-x="262" d="M247 458 C247 458 255 482 228 477 C201 472 173 434 147 394 C122 353 74 282 59 277 L64 272 C64 272 111 299 68 210 C26 121 14 67 79 113 L78 115 C78 115 48 89 57 120 C67 150 136 295 98 293 C98 293 153 361 177 406 C200 451 234 481 238 472 C242 463 244 456 244 456 L247 458 L247 458 Z " />
<glyph glyph-name="bar" unicode="&#x7c;" horiz-adv-x="246" d="M112 647 C112 514 112 380 112 247 C112 166 112 86 112 5 C112 2 116 2 116 5 C116 138 116 272 116 405 C116 486 116 566 116 647 C116 650 112 650 112 647 L112 647 Z " />
<glyph glyph-name="braceright" unicode="&#x7d;" horiz-adv-x="239" d="M145 470 C145 470 102 460 114 445 C114 445 117 462 142 462 C167 462 148 435 122 365 C96 294 97 294 99 291 C101 289 78 286 28 174 C-22 62 -29 97 -29 97 C-29 97 -33 76 -13 88 C8 100 51 172 77 225 C104 279 126 278 126 278 C126 278 118 295 131 328 C145 361 206 477 145 470 L145 470 Z " />
<glyph glyph-name="asciitilde" unicode="&#x7e;" horiz-adv-x="484" d="M381 313 C380 316 376 313 377 311 C385 296 360 288 349 285 C331 280 313 280 294 285 C267 292 243 307 216 315 C202 319 188 322 174 324 C162 326 148 327 136 325 C115 323 52 302 83 273 C85 271 88 274 86 276 C60 301 120 320 138 321 C167 323 197 317 225 308 C251 298 275 284 302 278 C321 275 340 277 358 283 C371 287 389 297 381 313 L381 313 Z " />
<glyph glyph-name="cent" unicode="&#xa2;" horiz-adv-x="359" d="M295 398 C295 398 294 411 250 406 C248 405 247 405 245 405 C257 428 265 444 265 444 C265 444 275 460 269 460 C269 460 256 435 239 404 C191 392 94 345 68 288 C47 242 74 204 132 203 C122 180 114 161 118 159 C118 159 122 158 124 165 C125 168 131 183 139 203 C159 204 182 208 208 218 L209 221 C209 221 175 209 143 211 C154 239 170 274 186 300 C200 322 217 353 232 381 C255 387 275 391 287 388 C287 388 298 392 295 398 L295 398 Z M179 293 C173 283 152 244 136 211 C120 213 104 218 93 230 C60 267 88 298 117 326 C135 344 184 367 227 379 C206 341 185 302 179 293 L179 293 Z " />
<glyph glyph-name="sterling" unicode="&#xa3;" horiz-adv-x="329" d="M227 151 C224 148 207 134 184 134 C161 135 157 133 136 146 C115 159 82 170 47 155 C47 155 100 222 121 274 C124 280 127 286 131 294 C144 294 157 294 166 294 C193 295 205 289 208 292 C210 295 205 295 205 295 C177 298 153 299 133 298 C163 358 227 457 270 454 C270 454 285 457 288 433 L290 434 C290 434 287 483 262 477 C237 472 178 431 145 370 C134 351 121 325 106 296 C62 291 42 280 42 280 C38 275 46 277 46 277 C62 287 83 291 104 293 C72 230 34 161 10 146 C10 146 3 134 12 139 C21 144 71 157 97 157 C124 156 138 129 158 129 C177 129 213 129 229 149 C229 149 230 153 227 151 L227 151 Z " />
<glyph glyph-name="Euro" unicode="&#x20ac;" horiz-adv-x="364" d="M302 422 C284 422 210 387 155 337 C139 337 122 338 107 338 C104 339 102 334 105 334 C120 333 135 333 150 333 C141 324 132 315 125 306 C120 300 116 294 112 288 C98 289 84 289 69 290 C67 290 65 286 68 286 C82 285 96 284 109 284 C71 219 79 137 232 183 C232 183 72 153 115 243 C122 257 130 270 138 283 C179 282 219 282 260 282 C263 282 264 286 261 286 C221 286 181 287 141 288 C154 304 167 319 181 333 C202 333 223 333 244 333 C247 333 248 338 245 338 C225 338 206 337 186 337 C224 371 267 393 301 399 C301 399 319 402 319 396 C319 396 323 422 302 422 L302 422 Z " />
</font>
</svg>
