<?xml version="1.0" encoding="UTF-8"?>
<svg xmlns="http://www.w3.org/2000/svg" xmlns:xlink="http://www.w3.org/1999/xlink" version="1.2" >
<font id="Astronout">
<font-face  font-family="Astronout" units-per-em="1000" ascent="750" descent="-250" font-style="normal" font-weight="400" font-stretch="normal" cap-height="700" x-height="500" underline-position="-75" underline-thickness="50" />
<missing-glyph  horiz-adv-x="158" d="" />
<glyph glyph-name="NULL" d="" />
<glyph glyph-name="nonmarkingreturn" unicode="&#xd;" horiz-adv-x="158" d="" />
<glyph glyph-name="space" unicode="&#x20;" horiz-adv-x="158" d="" />
<glyph glyph-name="e" unicode="e" horiz-adv-x="92" d="M106 193 Q110 186 102 180 Q97 176 92.5 172.5 Q88 169 83 165 Q78 162 73 159 Q68 156 63 153 Q56 149 48.5 146 Q41 143 33 141 Q25 139 16 139 Q7 139 0 144 Q-8 150 -9.5 158 Q-11 166 -9 175 Q-7 183 -4 189.5 Q-1 196 3 204 Q7 211 11.5 218 Q16 225 22 230 Q29 237 38 241 Q47 245 56 242 Q67 239 70.5 229.5 Q74 220 69 211 Q61 197 45 192 Q29 187 15 184 Q13 180 11 172 Q9 164 10 162 Q11 161 11 161 L11 160 L12 160 Q12 159 13 159 Q14 159 15 158 Q19 158 22 158.5 Q25 159 29 160 Q43 164 57 172 Q62 175 66.5 178 Q71 181 76 184 Q81 187 84.5 190.5 Q88 194 92 197 Q101 202 106 193 Z M52 223 Q47 226 40 220.5 Q33 215 30 211 Q29 209 27 207 Q30 208 33.5 208.5 Q37 209 40 211 Q46 214 51 219 L53 222 L52 223 Z " />
<glyph glyph-name="f" unicode="f" horiz-adv-x="108" d="M129 530 Q133 529 135.5 525.5 Q138 522 136 518 L127 494 Q109 448 92.5 402 Q76 356 60 309 Q43 262 27.5 216 Q12 170 -5 124 L-14 100 Q17 123 48 146.5 Q79 170 108 196 Q116 202 122 196 Q124 193 124.5 188.5 Q125 184 122 182 Q87 152 50.5 124.5 Q14 97 -22 69 L-22 67 Q-17 55 -15 42 Q-13 29 -14 15 Q-16 -20 -29 -52.5 Q-42 -85 -59 -115 Q-90 -170 -130 -222 Q-135 -229 -142.5 -226 Q-150 -223 -148 -215 L-143 -192 Q-129 -128 -104.5 -68 Q-80 -8 -54 52 L-54 53 Q-52 55 -48 66 Q-46 71 -44 77 Q-42 81 -38 91 Q-32 106 -26 121 Q-20 136 -15 152 Q17 246 49 338.5 Q81 431 117 523 Q121 533 129 530 Z M-52 -56 Q-42 -32 -36.5 -5.5 Q-31 21 -36 47 Q-59 -8 -81.5 -62 Q-104 -116 -118 -173 Q-99 -145 -82 -116 Q-65 -87 -52 -56 Z " />
<glyph glyph-name="g" unicode="g" horiz-adv-x="116" d="M133 193 Q136 185 128 180 Q121 174 114 168 Q107 162 99 156 Q85 144 73 132 Q61 120 49 107 Q45 93 41 80 Q37 67 33 54 Q24 31 16 8 Q8 -15 0 -38 Q-2 -49 -5 -60 Q-8 -71 -13 -82 Q-18 -92 -23 -101.5 Q-28 -111 -36 -118 Q-43 -124 -53.5 -125.5 Q-64 -127 -72 -122 Q-85 -114 -85 -95 Q-85 -73 -76 -52.5 Q-67 -32 -57 -13 Q-52 -2 -46.5 8 Q-41 18 -34 27 Q-27 38 -20 47 Q-13 56 -7 66 Q1 79 11.5 91.5 Q22 104 33 116 Q38 133 42.5 149 Q47 165 51 182 Q45 174 35 165 Q29 160 22 158.5 Q15 157 8 160 Q3 163 1 169 Q-1 175 -2 182 Q0 196 6 207 Q12 218 24 225 Q34 230 45 231 Q56 232 65 226 L71 250 Q74 259 83.5 256.5 Q93 254 90 245 Q83 221 76 196.5 Q69 172 62 148 Q76 162 89.5 174 Q103 186 119 197 Q123 199 127 197.5 Q131 196 133 193 Z M29 187 Q35 192 40 198.5 Q45 205 50 211 Q48 213 45 211 Q41 211 33 207 Q27 203 22 197 Q17 191 15 183 Q15 181 15 179 Q15 177 17 178 Q23 179 29 187 Z M-14 -29 Q-6 -6 0.5 17 Q7 40 15 63 Q18 66 17 68 Q6 55 -1.5 42.5 Q-9 30 -19 16 Q-24 6 -30 -4 Q-36 -14 -42 -25 Q-51 -45 -60 -67 Q-62 -72 -63 -77.5 Q-64 -83 -65 -89 Q-65 -90 -65.5 -93.5 Q-66 -97 -65 -99 Q-65 -103 -64 -104 L-63 -105 Q-64 -104 -63 -104.5 Q-62 -105 -62 -106 L-59 -106 L-56 -106 Q-53 -106 -51 -105 Q-43 -100 -38.5 -90.5 Q-34 -81 -30 -73 Q-25 -62 -21.5 -51 Q-18 -40 -14 -29 Z " />
<glyph glyph-name="h" unicode="h" horiz-adv-x="132" d="M131 195 Q134 198 137.5 197.5 Q141 197 144 194.5 Q147 192 147.5 188 Q148 184 145 181 Q136 171 126 163 Q116 155 105 147 L84 132 Q79 130 74 127.5 Q69 125 63 124 Q52 124 47 133 Q42 142 46 152 L52 176 Q52 178 52.5 179 Q53 180 53 182 Q32 171 17 151.5 Q2 132 -10 111 Q-13 106 -18.5 107 Q-24 108 -27 112 Q-28 113 -28 116 Q-28 119 -26 123 Q-25 125 -24.5 126.5 Q-24 128 -23 130 Q-22 132 -22 133 Q-22 134 -21 136 Q-19 142 -19 143 L-16 152 Q-13 156 -13 161 Q15 240 42 319 Q69 398 96 477 Q99 486 108.5 483.5 Q118 481 115 472 L13 175 Q35 197 62 207 Q67 209 70.5 206 Q74 203 74 198 Q74 187 71.5 177 Q69 167 67 157 Q66 154 65 150 Q64 146 64 144 L66 144 Q75 149 83.5 155 Q92 161 100 167 Q117 179 131 195 Z " />
<glyph glyph-name="i" unicode="i" horiz-adv-x="83" d="M82 195 Q89 202 96 195 Q103 188 96 181 Q85 172 74.5 163.5 Q64 155 52 148 Q47 145 41 141.5 Q35 138 29 136 Q24 134 18 133 Q12 132 6 135 Q-8 143 -6.5 159 Q-5 175 -2 187 Q0 194 2 200.5 Q4 207 6 213 Q8 219 10.5 225 Q13 231 14 238 Q16 247 26 245 Q33 242 33 233 Q31 222 26.5 211.5 Q22 201 19 190 Q17 183 16 177 Q15 171 14 165 Q13 162 13 156 Q13 155 13.5 155 Q14 155 14 154 Q14 153 15 152 L16 152 Q18 152 18.5 152.5 Q19 153 20 153 Q22 154 24 155 Q26 156 28 157 Q33 160 38 162.5 Q43 165 48 169 Q57 174 65.5 180.5 Q74 187 82 195 Z M54 393 Q50 391 46.5 393.5 Q43 396 42 400 Q39 408 49 412 Q59 415 68.5 418.5 Q78 422 87 426 Q91 427 94.5 424.5 Q98 422 99 419 Q102 411 93 407 Q83 403 73.5 400 Q64 397 54 393 Z " />
<glyph glyph-name="j" unicode="j" horiz-adv-x="64" d="M64 197 Q67 199 71 197.5 Q75 196 77 193 Q81 186 74 180 Q54 166 39 151 Q27 140 16.5 129 Q6 118 -5 107 Q-8 98 -11 89 Q-14 80 -16 71 Q-23 50 -30 29 Q-37 8 -45 -13 Q-49 -24 -52.5 -36 Q-56 -48 -61 -59 Q-66 -72 -72 -85 Q-78 -98 -86 -109 Q-94 -120 -104 -124 Q-113 -127 -124 -125 Q-134 -122 -138.5 -114 Q-143 -106 -143 -96 Q-143 -85 -140.5 -75 Q-138 -65 -134 -55 Q-125 -31 -113 -10 Q-109 -2 -105 5.5 Q-101 13 -96 21 Q-88 35 -77.5 48.5 Q-67 62 -56 76 Q-48 87 -39.5 96.5 Q-31 106 -23 116 Q-11 157 0.5 197 Q12 237 23 277 Q26 286 35.5 283.5 Q45 281 42 272 L12 164 Q10 160 9.5 156.5 Q9 153 7 148 Q21 162 34.5 174 Q48 186 64 197 Z M-61 -1 Q-55 16 -49 33.5 Q-43 51 -38 68 Q-47 57 -55.5 45.5 Q-64 34 -72 23 Q-83 6 -92.5 -11.5 Q-102 -29 -110 -47 Q-111 -49 -112 -52 Q-112 -53 -114 -57 Q-116 -63 -118 -68 Q-120 -73 -121 -78 Q-122 -83 -123 -88 L-123 -89 L-123 -90 L-123 -92 L-123 -96 L-123 -100 L-123 -101 Q-123 -102 -122 -103 Q-122 -103 -121 -105 Q-120 -105 -120 -106 L-118 -106 L-115 -106 L-112 -106 Q-110 -106 -110 -106 Q-108 -104 -108 -104 L-107 -103 Q-106 -103 -106 -102.5 Q-106 -102 -105 -102 Q-103 -100 -102 -98 L-101 -97 Q-101 -96 -100.5 -96 Q-100 -96 -100 -95 Q-92 -83 -87 -70.5 Q-82 -58 -77 -45 Q-72 -34 -69 -23 Q-66 -12 -61 -1 Z M71 401 Q80 404 82.5 394.5 Q85 385 76 382 Q67 378 58 374 Q49 370 39 366 Q31 361 26 369 Q24 372 25 376 Q26 380 29 382 Q40 387 50 392 Q60 397 71 401 Z " />
<glyph glyph-name="k" unicode="k" horiz-adv-x="150" d="M149 194 Q151 198 155 198.5 Q159 199 162 197 Q165 195 166.5 191.5 Q168 188 166 184 L156 167 Q146 153 135.5 139.5 Q125 126 111 115 Q95 102 77 102 L74 102 Q68 102 66 103 Q65 103 65 103.5 Q65 104 64 104 Q54 107 47 116 L47 117 Q45 119 44 121 Q36 130 31.5 140.5 Q27 151 24 161 Q20 172 18 184 L17 182 L17 183 L-7 111 Q-10 102 -19.5 105 Q-29 108 -26 117 Q-18 141 -10 165.5 Q-2 190 6 214 Q11 231 15 240 Q29 284 43 327 Q57 370 71 413 Q74 422 83.5 419.5 Q93 417 90 408 Q77 369 64.5 330 Q52 291 39 251 Q54 263 69.5 273.5 Q85 284 101 294 Q109 299 113.5 290.5 Q118 282 111 277 Q89 263 68 248.5 Q47 234 28 216 L36 189 L43 167 Q44 167 44 166 Q44 163 45 162 L46 160 Q46 158 47 157 L47 156 Q47 156 49 152 Q49 151 49.5 150.5 Q50 150 50 149 Q52 147 53 144 Q54 141 56 138 Q58 134 60 132 L61 130 L62 129 L66 126 L66 125 Q67 125 68 124 Q69 124 69 123.5 Q69 123 70 123 Q70 123 71 122 L74 122 L76 122 L81 122 Q85 123 91 126 Q103 133 114 145 Q125 156 133 168.5 Q141 181 149 194 Z " />
<glyph glyph-name="l" unicode="l" horiz-adv-x="89" d="M6 146 Q4 137 2 128 Q0 119 1 110 L1 108 Q1 107 2 106 Q2 103 3 102 Q3 101 4 100 L4 99 L5 99 L6 99 L7 99 Q7 99 9 100 L11 101 Q13 102 14.5 103 Q16 104 18 105 Q18 105 19 106 Q19 106 21 107 L24 110 L31 117 Q36 122 39.5 125.5 Q43 129 47 134 Q54 143 60 151 Q66 159 73 169 Q77 175 81 181 Q85 187 88 194 Q90 198 94 198.5 Q98 199 101 197 Q104 195 105.5 191.5 Q107 188 105 184 Q98 171 89.5 159 Q81 147 73 136 Q66 128 60 120 Q54 112 46 105 Q41 99 35 93.5 Q29 88 21 84 Q13 80 4.5 79.5 Q-4 79 -10 86 Q-19 98 -18.5 113 Q-18 128 -15 141 Q-4 187 11.5 232 Q27 277 43 322 Q60 369 75.5 415 Q91 461 108 508 Q125 555 141 601 Q157 647 174 695 Q177 703 186 702 Q195 699 193 690 Q169 622 145 555.5 Q121 489 98 421 Q90 398 82 374.5 Q74 351 66 328 Q58 304 49.5 280.5 Q41 257 33 234 Q25 212 18.5 190 Q12 168 6 146 Z " />
<glyph glyph-name="m" unicode="m" horiz-adv-x="189" d="M203 195 Q211 187 203 181 Q196 175 189 168.5 Q182 162 176 155 L164 140 L163 140 Q163 139 161 137 Q150 126 143.5 127 Q137 128 135 130 Q135 131 134 131 Q132 133 132 137 Q133 149 135 160.5 Q137 172 140 183 Q142 194 144.5 206 Q147 218 149 229 Q150 234 151 240 Q152 246 152 252 L152 253 Q149 251 145 246.5 Q141 242 138 239 Q132 231 126 221.5 Q120 212 115 203 Q107 189 100.5 174 Q94 159 84 146 Q81 142 76 138.5 Q71 135 64 135 Q63 136 61 136 Q60 136 58 138 Q54 142 54 145 Q55 159 58 172.5 Q61 186 66 200 Q68 207 70.5 213 Q73 219 74 226 Q74 227 74.5 228.5 Q75 230 75 231 L74 231 Q73 231 71 229 Q66 226 61.5 221.5 Q57 217 52 212 Q47 207 43.5 202 Q40 197 36 192 Q28 181 21.5 169.5 Q15 158 7 147 Q2 141 -5 143.5 Q-12 146 -10 155 Q-6 172 -2 189.5 Q2 207 9 224 Q13 234 21 231 Q25 230 27.5 226.5 Q30 223 28 219 Q25 214 24 208 Q24 209 24.5 209 Q25 209 25 210 Q37 225 47 234 Q53 239 59 244.5 Q65 250 73 251 Q78 251 82 250.5 Q86 250 89 246 Q94 239 94 233 Q95 225 93 218.5 Q91 212 89 205 Q86 197 83 189 Q80 181 78 172 Q83 180 86.5 188.5 Q90 197 94 205 Q105 226 118 243 Q122 249 126 254 Q130 259 135 264 Q140 268 145 271 Q150 274 156 274 Q165 273 168 267.5 Q171 262 171.5 255 Q172 248 170.5 240.5 Q169 233 169 227 Q169 231 168.5 227 Q168 223 168 222 Q168 221 167.5 220 Q167 219 167 217 Q165 209 165 206 Q163 200 162.5 194.5 Q162 189 160 183 Q160 183 159 182 Q159 180 157.5 173.5 Q156 167 156 164 Q155 163 155 160 Q157 162 158.5 164 Q160 166 162 168 Q168 176 175 182 Q182 188 189 195 Q197 201 203 195 Z " />
<glyph glyph-name="n" unicode="n" horiz-adv-x="114" d="M127 193 Q131 186 124 180 Q110 169 97.5 155.5 Q85 142 66 137 Q61 135 57.5 138 Q54 141 54 146 Q54 156 56 165.5 Q58 175 61 184 Q63 190 64.5 196 Q66 202 68 208 Q70 213 72 219.5 Q74 226 74 231 Q72 231 71 230 L69 228 L67 227 Q65 225 63 223.5 Q61 222 59 220 Q54 215 50.5 211 Q47 207 43 202 Q32 190 24.5 175.5 Q17 161 7 148 Q2 142 -5.5 144.5 Q-13 147 -11 156 Q-6 173 -2 190.5 Q2 208 9 225 Q13 235 21 232 Q24 231 27 227.5 Q30 224 28 220 Q26 217 25.5 214.5 Q25 212 23 209 Q25 211 27.5 214 Q30 217 32 219 Q37 224 41.5 229 Q46 234 51 239 Q56 243 61 246.5 Q66 250 73 251 Q80 253 85.5 249.5 Q91 246 93 238 Q94 225 89 209 Q87 203 85.5 197 Q84 191 82 186 Q80 180 78.5 174 Q77 168 75 162 Q79 164 82 167 Q85 170 88 173 Q95 179 101 185.5 Q107 192 114 197 Q117 199 121 197.5 Q125 196 127 193 Z " />
<glyph glyph-name="o" unicode="o" horiz-adv-x="112" d="M124 191 Q126 182 117 179 Q108 176 97.5 173 Q87 170 76 169 L70 169 Q69 167 69 166.5 Q69 166 68 164 Q63 156 57.5 149 Q52 142 46 135 Q40 130 32.5 125.5 Q25 121 17 119 Q6 117 -2 122 Q-10 127 -13 138 Q-16 149 -13.5 159.5 Q-11 170 -7 180 Q3 203 16 219 Q22 227 30 234 Q38 241 49 243 Q59 243 61 236 Q63 226 54 224 Q46 223 41.5 218 Q37 213 32 208 Q27 202 22.5 195 Q18 188 14 181 Q11 174 8.5 166.5 Q6 159 5 151 Q5 149 5.5 145.5 Q6 142 8 140 L10 138 L11 138 L13 138 Q25 140 34 150.5 Q43 161 49 171 L51 174 Q40 178 39 189 Q37 199 44.5 206 Q52 213 60 212 L63 212 Q67 210 70 208 Q73 207 74 204 Q74 203 75 203 Q77 197 77 195 L77 190 L77 189 L79 189 Q95 192 112 198 Q121 200 124 191 Z " />
<glyph glyph-name="p" unicode="p" horiz-adv-x="121" d="M134 193 Q138 186 131 180 Q115 169 96.5 161.5 Q78 154 59 148 Q48 145 37 143 Q26 141 15 141 L10 141 Q4 141 2 142 L2 140 L-99 -174 L-100 -175 Q-100 -177 -103.5 -182.5 Q-107 -188 -113 -186 Q-121 -182 -120 -175 Q-120 -173 -119.5 -172 Q-119 -171 -119 -170 L-47 52 Q-46 53 -46 54 L-23 125 L-9 168 Q-9 170 -8 170 L-8 171 Q-7 176 -3 186 L19 258 L20 261 Q24 271 32 268 Q41 266 39 256 Q36 248 33.5 241 Q31 234 29 226 L26 217 Q36 222 48 225 Q60 228 68 219 Q78 207 71.5 193.5 Q65 180 57 171 Q56 170 55.5 169 Q55 168 54 167 Q60 169 67 171.5 Q74 174 82 176 Q85 178 88.5 179 Q92 180 95 182 Q110 189 121 197 Q124 199 128 198 Q132 197 134 193 Z M10 167 Q17 166 24.5 170.5 Q32 175 37.5 180 Q43 185 46.5 190 Q50 195 50 195 Q52 199 52 199 L54 203 L54 204 Q54 205 52 205 L50 205 Q48 205 44 203 Q34 200 23 191 L20 189 L16 185 L10 167 Z " />
<glyph glyph-name="q" unicode="q" horiz-adv-x="97" d="M62 259 Q63 263 66.5 264.5 Q70 266 73.5 265 Q77 264 79.5 260.5 Q82 257 81 253 Q79 248 77.5 242.5 Q76 237 74 232 L-65 -205 Q-66 -207 -69 -211.5 Q-72 -216 -80 -216 L-82 -216 Q-87 -214 -86.5 -209.5 Q-86 -205 -85 -203 L25 144 Q27 151 29.5 157 Q32 163 34 170 L38 185 Q33 181 29 177 Q25 174 20 172 Q15 170 10 172 L9 172 L8 172 Q2 175 2 179 Q-3 193 1.5 206 Q6 219 16 228 Q24 236 35 241.5 Q46 247 58 245 L62 259 Z M20 193 Q27 196 32.5 201.5 Q38 207 43 212 Q48 218 52 226 L42 223 Q33 219 27 212 Q18 204 18 192 Q19 192 20 193 Z " />
<glyph glyph-name="r" unicode="r" horiz-adv-x="72" d="M72 194 Q74 198 78 198.5 Q82 199 85 197 Q88 195 89.5 191.5 Q91 188 89 184 Q81 170 74 156.5 Q67 143 59 129 Q55 123 51.5 116.5 Q48 110 43 105 Q39 101 33 97 Q27 93 20 95 Q13 97 11 103 Q9 109 9 116 Q9 131 12 148 Q14 156 16 164 Q18 172 21 180 Q22 182 23 185 Q24 188 25 190 L23 190 L22 190 Q21 190 20.5 190.5 Q20 191 19 191 L4 145 Q1 136 -8 139 Q-17 142 -15 151 Q-14 152 -14 155 Q-13 157 -10 167.5 Q-7 178 -5 183 Q-3 188 -2 191.5 Q-1 195 1 199 L0 200 Q-1 201 -3 205 Q-4 206 -4 207 Q-7 216 -6 224 Q-6 235 5 239 Q18 241 24 232 Q29 223 26 209 Q30 209 33.5 208.5 Q37 208 41 208 Q48 206 48 198 L48 195 Q46 190 44.5 186.5 Q43 183 41 178 Q39 171 37 164.5 Q35 158 33 152 Q31 145 30 138.5 Q29 132 29 124 Q29 122 28.5 121 Q28 120 28 118 Q28 119 29 119 Q31 121 32 123 Q33 125 35 127 Q38 132 41.5 137.5 Q45 143 48 148 Q54 159 60 170.5 Q66 182 72 194 Z M11 222 Q10 222 12 215 L12 219 Q12 222 11 222 Z " />
<glyph glyph-name="s" unicode="s" horiz-adv-x="95" d="M106 195 Q109 192 109.5 187.5 Q110 183 106 181 Q83 162 53 148 Q48 146 44.5 144.5 Q41 143 37 141 Q37 139 36 139 Q35 128 31 117.5 Q27 107 17 102 Q6 96 -2.5 103.5 Q-11 111 -10 122 Q-9 133 -0.5 140 Q8 147 16 152 Q14 163 10 172 Q6 181 3 190 Q0 199 -1 209 Q-3 224 2 236 Q4 244 8 250 Q12 256 19 259 Q27 262 35 258 Q43 254 46 247 Q53 231 43.5 217 Q34 203 24 193 L23 192 Q25 188 26 184 Q27 180 29 176 Q33 166 34 161 Q40 163 45.5 166 Q51 169 56 171 Q66 176 75 181.5 Q84 187 93 195 Q100 201 106 195 Z M19 221 Q19 219 18 219 L18 215 Q20 217 22 221 Q26 224 28 230 Q29 231 29 233 L30 234 L30 235 L30 236 Q30 237 29 237 Q29 238 28 239 Q27 239 26 240 Q25 241 26 240 Q25 240 24.5 239.5 Q24 239 25 239 Q23 237 23 236 Q23 236 22 235 L22 234 Q21 231 20 228 Q19 225 19 222 L19 221 Z M9 121 Q10 121 11 122 L14 128 Q10 124 9 121 Z " />
<glyph glyph-name="t" unicode="t" horiz-adv-x="60" d="M200 316 Q164 312 128 309 Q92 306 56 302 Q42 264 29.5 225.5 Q17 187 4 149 Q-11 101 -26.5 55 Q-42 9 -57 -38 L-87 -132 Q-94 -155 -100.5 -178.5 Q-107 -202 -115 -225 Q-118 -234 -127.5 -231.5 Q-137 -229 -134 -220 Q-124 -190 -115 -159.5 Q-106 -129 -97 -99 Q-88 -69 -78 -39 Q-68 -9 -58 21 Q-13 160 35 300 L-114 285 Q-124 285 -124 295 Q-124 303 -114 305 L42 320 L69 395 Q73 405 81 402 Q90 400 88 390 Q81 373 75 356 Q69 339 63 322 L197 335 L201 335 Q204 335 207.5 333.5 Q211 332 211 327 Q212 321 209 319 Q206 317 203 316 L200 316 L200 316 Z " />
<glyph glyph-name="u" unicode="u" horiz-adv-x="117" d="M115 195 Q121 202 128 195.5 Q135 189 129 182 Q121 173 113.5 165 Q106 157 96 150 Q88 145 77 142 Q66 139 56 144 Q49 147 47 154 Q45 152 43 151 Q41 150 39 148 Q32 143 22 136 Q12 129 2 133 Q-11 138 -10 150.5 Q-9 163 -6 174 Q-2 188 2 202.5 Q6 217 11 231 Q14 240 23 238 Q33 234 30 226 Q25 213 21.5 200.5 Q18 188 14 174 Q13 170 12 166.5 Q11 163 10 159 L10 152 L11 153 Q12 153 13.5 154 Q15 155 17 156 Q20 158 23 160 Q26 162 29 164 Q37 170 43.5 177.5 Q50 185 54 194 Q55 195 55 197 Q58 206 67 204 Q77 200 74 192 Q74 190 72 186 Q70 182 69 178.5 Q68 175 66 170 Q66 167 65 166 L65 164 L65 161 L66 161 Q65 161 67 160 Q69 160 70 161 Q75 161 77 162 Q82 164 90 170 Q103 182 115 195 Z M65 161 Q65 161 66 160 L65 161 Z " />
<glyph glyph-name="v" unicode="v" horiz-adv-x="123" d="M153 306 Q156 310 159.5 310 Q163 310 166 308.5 Q169 307 170 303.5 Q171 300 168 296 Q140 257 115 216.5 Q90 176 66 134 Q59 121 53 108 Q47 95 39 82 Q32 70 23.5 57.5 Q15 45 1 40 Q-3 38 -6 40.5 Q-9 43 -10 46 Q-17 64 -15 84 Q-13 104 -9 122 Q-6 145 -2.5 167.5 Q1 190 4 213 Q5 217 9 219 Q13 221 17 219 Q24 218 22 207 Q19 186 16 165 Q13 144 9 122 Q7 108 5 93.5 Q3 79 5 65 Q7 67 8 68.5 Q9 70 11 72 Q16 78 19 84.5 Q22 91 26 98 Q33 111 39 123.5 Q45 136 53 149 Q76 190 100 229 Q124 268 153 306 Z " />
<glyph glyph-name="w" unicode="w" horiz-adv-x="156" d="M164 191 Q166 181 157 179 Q144 177 131 176 Q118 175 105 173 Q102 173 100 172 Q100 172 100 172 Q98 171 97.5 170 Q97 169 96 168 Q92 164 88.5 160.5 Q85 157 80 154 Q74 150 66.5 149 Q59 148 54 155 Q51 158 51 160 Q50 160 50 159 Q44 151 38 143 Q32 135 26 127 Q22 122 18 118 Q14 114 10 110 Q7 107 3.5 104 Q0 101 -4 99 Q-9 97 -14.5 97.5 Q-20 98 -23 104 Q-26 109 -25.5 115 Q-25 121 -23 127 Q-21 138 -17.5 148 Q-14 158 -10 169 Q-3 190 5.5 209.5 Q14 229 24 249 Q28 257 36.5 252 Q45 247 41 239 Q21 201 8 163 Q5 153 1.5 143.5 Q-2 134 -4 123 Q4 131 11.5 140.5 Q19 150 26 159 Q32 167 37.5 174.5 Q43 182 47 191 Q51 198 58 195.5 Q65 193 65 186 Q66 182 66 179 Q66 176 67 172 Q67 172 68 170 L68 169 Q68 170 69 170 Q72 172 75 175 Q78 178 81 180 Q86 186 91 189 Q99 193 110 193 Q121 195 131 195.5 Q141 196 152 198 Q161 200 164 191 Z " />
<glyph glyph-name="x" unicode="x" horiz-adv-x="136" d="M137 195 Q143 202 150 195 Q157 188 150 181 Q136 165 122.5 149 Q109 133 95 118 Q87 110 79 103 Q71 96 60 94 Q40 89 25 103 Q21 107 18 110.5 Q15 114 12 118 Q3 102 -7 90 Q-14 79 -20 68.5 Q-26 58 -29 46 Q-32 37 -41 39.5 Q-50 42 -48 52 Q-44 65 -38 76.5 Q-32 88 -24 99 Q-17 109 -10.5 119 Q-4 129 3 139 Q-2 159 -1 180 Q0 201 0 221 Q1 231 10.5 231 Q20 231 20 221 Q19 207 17.5 191 Q16 175 18 160 Q45 196 76 227 Q83 233 90 226.5 Q97 220 90 213 Q55 178 24 136 Q29 125 37 119 Q44 112 51 112.5 Q58 113 64.5 117 Q71 121 76.5 127.5 Q82 134 87 139 Q100 153 112 167 Q124 181 137 195 Z " />
<glyph glyph-name="y" unicode="y" horiz-adv-x="112" d="M125 195 Q130 189 121 182 Q117 180 114 177 Q111 174 108 172 Q71 140 36 101 Q23 63 9 25.5 Q-5 -12 -19 -50 Q-24 -61 -28.5 -71.5 Q-33 -82 -38 -93 Q-43 -102 -49 -111 Q-55 -120 -64 -128 Q-72 -134 -84 -136 Q-96 -138 -104 -133 Q-111 -128 -112.5 -120 Q-114 -112 -112 -104 Q-111 -96 -108.5 -88 Q-106 -80 -103 -72 Q-98 -61 -93 -50.5 Q-88 -40 -82 -29 Q-71 -8 -57 11.5 Q-43 31 -28 51 Q-17 65 -6 78.5 Q5 92 17 106 Q19 113 21.5 120 Q24 127 26 134 Q17 129 8 130 Q-6 133 -9 146 Q-12 157 -9 168.5 Q-6 180 -2 190 Q0 196 2.5 202 Q5 208 8 214 Q9 216 10 219 Q11 222 12 224 Q13 225 13 227 Q13 227 14 229 Q18 238 26 235 Q30 234 32.5 230.5 Q35 227 33 223 Q30 215 26 207 Q22 199 19 191 Q17 186 15.5 180.5 Q14 175 12 170 Q10 164 10 161 Q9 159 9 154 L9 153 L9 152 Q10 152 10 151 L10 150 Q11 150 12 149 L13 149 Q21 150 28 159.5 Q35 169 40 180 L41 180 Q45 190 46 194 Q47 197 49.5 203.5 Q52 210 54 218 L60 236 Q60 237 60.5 237 Q61 237 61 238 Q64 247 73.5 244.5 Q83 242 80 233 Q77 224 73.5 215 Q70 206 67 197 Q66 193 65 190 Q64 187 63 183 L62 182 L62 181 Q60 177 59.5 173.5 Q59 170 57 166 L57 165 Q55 159 54 157 L54 156 Q53 151 49 141 Q63 156 78.5 169.5 Q94 183 111 196 Q114 199 118.5 198.5 Q123 198 125 195 Z M-13 21 Q-10 30 -6.5 39.5 Q-3 49 0 58 Q-7 50 -13 41.5 Q-19 33 -26 24 Q-40 4 -52.5 -16 Q-65 -36 -75 -57 Q-80 -66 -83.5 -75.5 Q-87 -85 -90 -94 Q-92 -104 -92 -108 Q-92 -115 -90 -117 Q-85 -121 -78 -116 Q-71 -111 -67 -105 Q-54 -86 -47 -67 Q-38 -45 -30 -23 Q-22 -1 -13 21 Z " />
<glyph glyph-name="z" unicode="z" horiz-adv-x="120" d="M90 241 Q101 244 104.5 242.5 Q108 241 110 237 Q111 233 110 226 Q110 224 107 221 Q96 211 83.5 202 Q71 193 59 183 Q66 183 74 180 Q90 173 88 155 Q86 140 78 125.5 Q70 111 60 98 Q33 60 -1 32 Q-7 27 -14 21.5 Q-21 16 -29 11 Q-37 7 -45.5 4 Q-54 1 -62 6 Q-73 13 -68.5 29.5 Q-64 46 -58 57 Q-56 61 -52 62.5 Q-48 64 -45 63.5 Q-42 63 -40.5 59.5 Q-39 56 -41 52 L-47 37 Q-47 35 -47.5 34 Q-48 33 -49 31 L-49 28 L-49 26 L-49 24 Q-49 24 -49 23 L-48 23 L-47 23 L-45 24 Q-44 24 -40 26 Q-36 28 -33 30.5 Q-30 33 -26 35 Q8 59 36 95 Q41 102 45 108 Q49 114 54 121 Q58 127 61.5 134.5 Q65 142 67 147 Q69 151 69 154 Q69 154 68 155 L68 157 L68 158 L67 159 L67 160 Q67 161 65 161 L62 162 Q61 163 58 163 L48 163 Q43 163 37.5 162.5 Q32 162 27 161 Q21 160 19.5 166.5 Q18 173 23 178 Q34 187 45.5 195.5 Q57 204 68 213 Q70 214 71 214.5 Q72 215 74 217 Q57 212 40.5 206.5 Q24 201 8 194 Q-1 191 -4 198 Q-6 201 -4 205 Q-2 209 1 211 Q23 220 45 227 Q67 234 90 241 Z " />
<glyph glyph-name="d" unicode="d" horiz-adv-x="138" d="M209 555 Q212 564 221.5 561.5 Q231 559 228 550 Q212 503 197 457.5 Q182 412 165 366 Q163 360 161 356 L39 -1 Q38 -6 34.5 -7.5 Q31 -9 27.5 -8 Q24 -7 21.5 -4 Q19 -1 20 4 L102 257 L81 224 Q81 223 80 222 Q73 212 67 202.5 Q61 193 54 183 Q47 175 38.5 166.5 Q30 158 18 156 Q6 155 0 163.5 Q-6 172 -4 183 Q-2 194 3.5 203.5 Q9 213 17 221 Q26 230 41.5 238.5 Q57 247 70 242 Q90 274 107.5 305.5 Q125 337 140 372 Q160 417 176.5 462.5 Q193 508 209 555 Z M47 207 Q50 211 52.5 215 Q55 219 58 224 Q54 222 51.5 221.5 Q49 221 46 219 Q28 209 20 194 Q18 190 16 186 Q14 182 15 177 L15 176 Q15 175 16 175 L16 176 Q17 175 18.5 176 Q20 177 21 177 Q29 182 35.5 190.5 Q42 199 47 207 Z " />
<glyph glyph-name="A" unicode="A" horiz-adv-x="341" d="M400 591 Q405 571 398 550 Q396 539 393 529 Q390 519 387 508 Q380 485 371 463.5 Q362 442 353 420 Q344 398 333.5 376 Q323 354 315 331 Q311 320 308 309 Q305 298 301 287 Q296 275 292 263.5 Q288 252 284 240 Q278 223 272 207 Q266 191 261 174 L288 183 Q292 185 295.5 182.5 Q299 180 300 176 Q302 167 293 164 Q283 161 273 158 Q263 155 253 151 Q253 150 252.5 150 Q252 150 252 149 Q237 103 222.5 57.5 Q208 12 194 -34 Q191 -43 181.5 -40 Q172 -37 175 -28 Q189 14 202 55.5 Q215 97 229 139 Q229 141 229.5 142 Q230 143 230 145 Q209 138 188 132.5 Q167 127 146 121 Q110 110 74 98 Q38 86 4 69 Q-7 48 -22 25 Q-25 20 -28 15 Q-31 10 -34 5 Q-39 -6 -44 -14 Q-47 -17 -51 -25 Q-52 -27 -52.5 -29 Q-53 -31 -55 -33 Q-57 -37 -60 -41 Q-63 -45 -65 -50 Q-76 -68 -88.5 -85.5 Q-101 -103 -115 -118 Q-123 -126 -130.5 -133.5 Q-138 -141 -147 -147 Q-156 -152 -167.5 -154.5 Q-179 -157 -189 -153 Q-201 -150 -206 -140 Q-210 -132 -208 -119 Q-206 -109 -201 -99 Q-196 -89 -191 -80 Q-188 -75 -184.5 -69.5 Q-181 -64 -178 -59 Q-176 -56 -172 -52 Q-170 -50 -169 -48 Q-168 -46 -166 -44 Q-161 -36 -154.5 -28.5 Q-148 -21 -141 -13 Q-116 15 -85.5 37.5 Q-55 60 -22 78 L-10 84 Q-2 98 5.5 111.5 Q13 125 21 139 Q44 179 67.5 219 Q91 259 116 299 Q141 340 166.5 379.5 Q192 419 219 458 Q226 468 232.5 478.5 Q239 489 247 498 Q255 506 261 515 Q267 524 273 532 Q287 549 301 565 Q315 581 332 595 Q340 602 349 607 Q358 612 369 613 Q381 615 389 609 Q394 606 396 601 Q398 596 400 591 Z M-49 18 Q-44 26 -38.5 34.5 Q-33 43 -28 52 Q-76 25 -115 -14 Q-122 -21 -128.5 -27.5 Q-135 -34 -141 -42 Q-144 -46 -146.5 -49.5 Q-149 -53 -152 -58 Q-155 -62 -158.5 -65.5 Q-162 -69 -164 -74 Q-170 -83 -175.5 -92.5 Q-181 -102 -186 -113 Q-190 -123 -189 -130 Q-186 -133 -187 -133 Q-181 -135 -178 -135 Q-168 -135 -160 -132 Q-155 -130 -151.5 -126.5 Q-148 -123 -145 -120 Q-129 -107 -116 -89 Q-109 -81 -103 -72.5 Q-97 -64 -92 -56 Q-89 -51 -86 -46.5 Q-83 -42 -80 -37 Q-78 -33 -75 -29 Q-72 -25 -70 -20 Q-68 -18 -67.5 -15 Q-67 -12 -65 -10 L-59 -1 Q-56 4 -53.5 8.5 Q-51 13 -49 18 Z M376 542 Q379 552 381.5 561.5 Q384 571 382 581 Q381 584 379.5 588.5 Q378 593 376 593 Q371 596 362 592 Q353 587 345.5 580.5 Q338 574 330 567 Q315 552 301 535.5 Q287 519 275 502 Q272 497 268.5 493 Q265 489 261 484 Q257 480 254 475.5 Q251 471 248 466 Q241 456 234.5 446 Q228 436 220 426 Q167 348 119.5 268 Q72 188 25 106 Q23 104 22.5 102 Q22 100 20 98 Q44 108 68.5 116.5 Q93 125 118 133 Q148 142 178 150 Q208 158 238 167 Q243 183 248.5 199 Q254 215 260 231 Q268 254 276.5 277 Q285 300 292 323 Q299 346 309 367.5 Q319 389 329 412 Q338 434 347 455.5 Q356 477 363 499 Q367 510 370 520.5 Q373 531 376 542 Z " />
<glyph glyph-name="B" unicode="B" horiz-adv-x="374" d="M453 634 Q467 613 462 587.5 Q457 562 447 541 Q436 516 420 493.5 Q404 471 387 451 Q380 443 374 435.5 Q368 428 360 421 Q329 393 293 369 Q274 357 254 346.5 Q234 336 214 327 L241 318 Q257 311 271.5 302 Q286 293 299 281 Q323 258 336 228.5 Q349 199 347 166 Q345 132 333.5 101 Q322 70 305 41 Q272 -15 226 -57 Q179 -99 128 -127 Q114 -135 99.5 -141 Q85 -147 70 -151 Q56 -154 42.5 -155 Q29 -156 15 -152 Q1 -148 -8.5 -137.5 Q-18 -127 -23.5 -114.5 Q-29 -102 -31.5 -87.5 Q-34 -73 -35 -59 Q-37 -30 -33 -2.5 Q-29 25 -24 54 Q-22 63 -12 61 Q-5 58 -5 49 Q-10 23 -13 -1.5 Q-16 -26 -16 -52 Q-15 -66 -14 -78 Q-13 -90 -8 -103 Q-7 -105 -6 -107.5 Q-5 -110 -3 -113 Q1 -119 2 -120 Q4 -122 5.5 -123.5 Q7 -125 9 -127 L11 -128 L13 -130 Q14 -130 14.5 -130.5 Q15 -131 16 -131 Q28 -136 40 -135.5 Q52 -135 64 -132 Q91 -126 119 -110 Q145 -96 168.5 -79 Q192 -62 214 -42 Q237 -20 256.5 5 Q276 30 292 57 Q308 84 318.5 114.5 Q329 145 328 177 Q327 191 324 205 Q321 219 313 232 Q305 246 294 258 Q283 270 269 280 Q241 300 209 308 Q200 310 191 311 Q182 312 173 311 Q165 309 157 306 Q149 303 141 301 Q133 299 129.5 306.5 Q126 314 134 319 Q150 328 168 330 L169 330 Q182 335 194 339.5 Q206 344 218 350 Q254 366 290 391 Q306 402 321.5 414 Q337 426 351 440 Q368 457 381.5 474.5 Q395 492 408 511 Q412 517 415.5 523 Q419 529 422 535 Q425 540 428 546.5 Q431 553 433 558 Q436 564 437.5 570 Q439 576 441 582 Q442 584 442 588 Q442 589 443 590 L443 592 L443 603 L443 606 L443 607 Q442 608 442 611 Q441 613 441 614 Q441 615 440 616 L440 618 Q440 618 439 619 Q438 621 437.5 621.5 Q437 622 436 624 Q436 624 435 625 Q435 626 434 626 Q433 628 431 630 Q429 632 429 632 L427 633 L418 639 L416 639 Q416 639 414 640 Q412 641 409 641 Q408 641 407 642 L404 642 L398 642 Q394 642 393 641 L391 641 L388 641 Q360 635 336 620 Q310 606 284 586 Q261 568 239 548 Q217 528 197 505 Q171 474 149 440 Q127 406 110 370 Q77 299 66 220 Q66 211 57 211 Q53 211 49.5 213.5 Q46 216 47 220 Q54 289 82 353 Q98 391 118 427 Q138 463 164 495 Q184 521 206.5 544 Q229 567 254 587 Q278 607 304 624.5 Q330 642 359 653 Q372 658 385 660 Q398 662 412 660 Q437 657 453 634 Z " />
<glyph glyph-name="C" unicode="C" horiz-adv-x="274" d="M284 582 Q285 570 284 560 Q282 546 278.5 532.5 Q275 519 270 505 Q259 479 247.5 454.5 Q236 430 223 405 Q221 401 217.5 400.5 Q214 400 211 402 Q208 404 206 407.5 Q204 411 206 415 Q214 429 221 444 Q228 459 235 474 Q248 500 257 530 Q259 536 261 542.5 Q263 549 264 556 Q264 558 265 559 L265 561 L265 566 L265 575 Q264 576 264 577 L264 579 L264 581 Q263 582 263 582.5 Q263 583 262 584 L260 584 Q260 583 258 583 L256 581 L255 581 L255 580 Q247 575 243 568 Q241 566 239.5 564.5 Q238 563 236 561 Q236 560 235 559 L234 558 Q233 556 231 554 Q227 549 224 544.5 Q221 540 218 535 Q206 517 193 495 Q188 487 184 479 Q180 471 175 462 Q172 457 170 452 Q169 451 169 450 L169 452 L169 453 Q169 451 168 450 L169 450 L168 450 L168 449 L168 448 Q156 427 145 405.5 Q134 384 123 362 Q103 320 84.5 277.5 Q66 235 49 190 Q33 150 19 104 Q12 83 6 61 Q0 39 -2 17 Q-5 -6 -4 -24 Q-3 -30 -3 -34.5 Q-3 -39 -1 -45 Q0 -47 0.5 -49 Q1 -51 2 -53 L2 -54 Q2 -55 3 -56 Q4 -57 4 -57.5 Q4 -58 5 -59 Q5 -59 6 -61 Q6 -61 8 -63 Q9 -63 9 -64 Q10 -64 11 -65 Q11 -65 13 -66 L14 -66 Q14 -66 15 -67 L17 -67 L18 -67 L22 -67 L24 -67 Q26 -67 27 -66.5 Q28 -66 30 -66 Q34 -64 36 -64 Q37 -63 37.5 -63 Q38 -63 39 -62 Q40 -62 40.5 -61.5 Q41 -61 42 -61 Q51 -56 58 -51 Q64 -47 66 -45 Q67 -45 67 -44 Q68 -44 69 -43 Q72 -42 73 -39 Q83 -32 90 -24 Q108 -8 124 10 Q139 27 152 44 Q165 61 178 81 Q183 88 186.5 94.5 Q190 101 194 108 Q195 109 195 109.5 Q195 110 196 111 Q196 112 196.5 113 Q197 114 196 112 Q197 114 198 116.5 Q199 119 200 121 Q200 122 201 123 Q201 124 201.5 124.5 Q202 125 202 126 Q203 128 203 129 Q203 130 204 132 Q206 136 208 144 Q212 155 212 167 L212 170 L212 172 Q211 172 211 173 L211 174 Q209 176 210 176 L209 176 L208 177 L206 177 L203 177 L201 177 L200 177 Q200 176 199 176 Q193 173 188 168 Q179 159 172 145 Q166 136 158 142 Q154 144 153.5 147.5 Q153 151 155 155 Q161 169 173.5 182 Q186 195 202 197 Q218 199 226 186 Q230 181 231 175 Q232 169 232 164 Q231 150 226.5 137 Q222 124 217 112 Q215 108 215 106 Q214 106 214 105 Q215 107 214.5 105.5 Q214 104 213 103 Q213 102 211 98 Q209 95 207.5 92 Q206 89 204 86 Q193 67 180.5 50 Q168 33 154 17 Q139 -2 123 -19.5 Q107 -37 89 -52 Q75 -64 58 -74.5 Q41 -85 22 -87 Q3 -88 -7 -75 Q-17 -62 -21 -45 Q-29 -4 -20 36 Q-11 76 2 114 Q31 204 68 289.5 Q105 375 150 457 Q152 460 153 462.5 Q154 465 156 468 Q163 482 172 497 Q183 517 195.5 536.5 Q208 556 222 574 Q228 581 234 587.5 Q240 594 248 599 Q254 603 262 603.5 Q270 604 275 598 Q277 596 277 595 Q278 595 277 596 Q277 595 277.5 595 Q278 595 278 594 Q280 592 280 591 Q282 588 284 582 Z M168 449 Q168 448 167.5 447.5 Q167 447 168 449 Z M262 584 Q263 583 263 582.5 Q263 582 262 584 L262 584 Z " />
<glyph glyph-name="D" unicode="D" horiz-adv-x="320" d="M408 462 Q410 447 406.5 432 Q403 417 398 403 Q393 389 387 376.5 Q381 364 374 351 Q357 320 335.5 292.5 Q314 265 289 239 Q235 183 170 140 Q105 97 34 65 Q17 21 1 -22 Q-15 -65 -33 -108 Q-36 -116 -44.5 -114 Q-53 -112 -51 -103 Q-39 -27 -17 43 Q-47 31 -77 22 Q-99 16 -121 12 Q-143 8 -166 6 Q-176 5 -185.5 5.5 Q-195 6 -204 8 Q-212 10 -219 13.5 Q-226 17 -229 25 Q-234 34 -232.5 43 Q-231 52 -227 60 Q-221 74 -212 85 Q-203 96 -193 107 Q-186 114 -179.5 107.5 Q-173 101 -179 94 Q-195 76 -206 60 Q-207 58 -208 55.5 Q-209 53 -210 50 Q-211 50 -211 49 Q-211 48 -212 47 Q-212 45 -213 43 L-213 41 L-213 38 L-213 37 L-213 35 L-212 34 Q-212 33 -211 33 Q-211 32 -210.5 32 Q-210 32 -210 31 L-209 31 Q-207 29 -206 29 Q-206 29 -205 28 Q-202 28 -198 26 L-194 26 L-193 25 L-192 25 L-183 25 L-163 25 Q-159 26 -152 26 Q-151 27 -149 27 L-148 27 Q-145 27 -143 28 Q-138 29 -132 29.5 Q-126 30 -121 32 Q-98 37 -75.5 43.5 Q-53 50 -31 58 L-10 67 Q2 103 16 138.5 Q30 174 47 208 Q64 246 88 285 Q92 292 96 298.5 Q100 305 105 312 Q135 390 163.5 467 Q192 544 215 624 Q216 629 219.5 630.5 Q223 632 226.5 631 Q230 630 232 626.5 Q234 623 233 619 Q233 616 232 614 Q214 550 192 488.5 Q170 427 146 365 Q153 373 160 380.5 Q167 388 175 396 Q213 436 257 469 Q277 483 298.5 494 Q320 505 343 508 Q366 510 385 497.5 Q404 485 408 462 Z M54 178 Q32 130 14 77 Q16 79 18 79 L54 178 Z M-5 18 Q-1 27 2 36 Q5 45 9 54 Q8 53 6 53 Q3 44 0.5 35 Q-2 26 -5 18 Z M385 424 Q389 437 389 451 Q389 458 388 463 Q387 466 386.5 467.5 Q386 469 384 472 Q382 474 382.5 474 Q383 474 381 476 Q380 477 379 477.5 Q378 478 377 479 Q377 480 376 480 L375 481 Q374 482 373.5 482 Q373 482 372 483 Q368 485 368 485 L367 485 Q366 485 365 486 Q359 488 357 488 L356 488 L354 488 L350 488 L345 488 L342 488 Q337 487 332.5 486 Q328 485 323 483 Q318 481 314 479.5 Q310 478 304 475 Q299 472 293.5 469 Q288 466 283 462 Q260 448 240 431 Q220 414 200 394 Q184 377 168.5 360 Q153 343 138 325 L135 322 Q135 321 134 320 Q133 318 130 315 Q128 312 126 309 Q124 306 122 302 Q117 291 112.5 279 Q108 267 103 255 Q88 214 73 173.5 Q58 133 43 91 Q58 99 73 106.5 Q88 114 103 122 Q169 160 229 209.5 Q289 259 333 322 Q341 334 348.5 346 Q356 358 363 371 Q370 384 375.5 397 Q381 410 385 424 Z " />
<glyph glyph-name="E" unicode="E" horiz-adv-x="265" d="M487 547 Q489 538 480 535 Q470 533 468 542 Q467 546 466.5 550 Q466 554 465 558 Q464 560 464 561 Q464 562 463 564 Q463 565 462.5 565.5 Q462 566 462 567 Q460 569 459.5 571.5 Q459 574 457 576 Q456 578 455.5 578.5 Q455 579 454 581 Q454 581 453 582 L452 583 L446 589 L444 591 L443 591 L440 594 Q438 595 436 596 Q434 597 432 598 L430 599 L429 599 Q425 601 425 601 Q419 603 415 603 Q414 604 410 604 L409 604 Q408 604 408 604.5 Q408 605 407 605 L397 605 Q391 605 385 605 Q379 605 374 604 L371 604 Q369 604 369 603 L363 603 L351 600 Q345 598 338.5 597 Q332 596 326 594 Q298 585 272.5 574 Q247 563 221 549 Q197 535 173.5 520.5 Q150 506 128 489 Q123 486 119 483 Q115 480 110 476 Q104 471 98.5 466 Q93 461 87 456 Q72 442 58 426.5 Q44 411 32 394 Q15 368 6 340 Q-3 312 -1 281 Q1 253 10.5 226 Q20 199 32 174 Q39 160 46 147.5 Q53 135 60 122 Q67 109 77 96 Q79 94 79.5 93 Q80 92 82 90 Q84 89 86 87 Q87 87 88 86 Q89 86 90 85.5 Q91 85 90 85 L91 85 Q92 85 92 84 Q100 84 102 77 Q104 70 97 66 Q94 64 91 62 Q88 60 84 58 Q70 49 56.5 40 Q43 31 29 20 Q16 9 4 -2.5 Q-8 -14 -17 -28 Q-24 -40 -27 -52 L-27 -54 L-27 -56 L-27 -60 L-27 -61 L-27 -62 Q-26 -64 -26 -66 Q-25 -67 -25 -68 Q-25 -68 -24 -69 Q-24 -69 -22 -70 Q-22 -70 -20 -72 Q-20 -72 -19 -73 Q-16 -73 -15 -74 L-12 -74 L-11 -74 Q-11 -75 -9 -75 L0 -75 Q2 -74 5 -74 L6 -74 L8 -74 Q14 -72 19.5 -71 Q25 -70 31 -68 Q44 -64 55 -59.5 Q66 -55 78 -49 Q89 -43 100 -37 Q111 -31 122 -23 Q128 -20 132 -16 L133 -16 Q133 -16 135 -14 L138 -11 Q142 -8 145 -5 Q148 -2 151 1 Q153 4 157.5 4 Q162 4 165 1 Q171 -5 165 -12 Q160 -19 154 -24 Q148 -29 141 -34 Q120 -49 97 -61.5 Q74 -74 49 -83 Q38 -87 26.5 -89.5 Q15 -92 3 -94 Q-6 -95 -15.5 -93.5 Q-25 -92 -33 -87 Q-44 -78 -46 -66.5 Q-48 -55 -44.5 -42.5 Q-41 -30 -33.5 -18.5 Q-26 -7 -19 1 Q0 23 23.5 40.5 Q47 58 72 73 Q64 80 58.5 88.5 Q53 97 48 105 Q33 130 19 156.5 Q5 183 -5 211 Q-15 239 -19.5 268 Q-24 297 -18 327 Q-11 362 8 392 Q27 422 51 448 Q72 470 95.5 489 Q119 508 144 525 Q168 541 193 555.5 Q218 570 244 582 Q270 594 296 604 Q322 614 350 620 Q373 625 396 625 Q419 625 441 616 Q461 606 472.5 587.5 Q484 569 487 547 Z " />
<glyph glyph-name="F" unicode="F" horiz-adv-x="298" d="M620 649 Q630 649 630 639 Q630 631 620 629 Q545 621 471 614 Q397 607 322 599 Q284 595 246.5 591.5 Q209 588 171 584 Q166 566 160.5 548 Q155 530 149 512 Q137 477 124 441.5 Q111 406 97 371 Q161 379 224.5 385.5 Q288 392 352 397 Q357 397 359 394 Q361 391 361 387.5 Q361 384 358.5 380.5 Q356 377 352 377 Q286 373 220.5 365.5 Q155 358 89 350 Q70 302 51 254 Q32 206 15 157 Q-2 111 -16 64.5 Q-30 18 -44 -30 Q-58 -78 -71.5 -125.5 Q-85 -173 -98 -221 Q-99 -226 -102.5 -227 Q-106 -228 -109.5 -227 Q-113 -226 -115.5 -223 Q-118 -220 -116 -215 Q-108 -180 -98.5 -146.5 Q-89 -113 -79 -78 Q-65 -30 -50 17 Q-35 64 -21 112 Q-7 158 10 201.5 Q27 245 44 290 Q50 304 56 318.5 Q62 333 67 348 Q43 344 18.5 341 Q-6 338 -30 335 Q-40 335 -40 345 Q-40 353 -30 355 Q-4 358 22.5 361.5 Q49 365 75 368 Q96 422 115 475 Q134 528 150 582 Q93 577 37.5 571 Q-18 565 -75 560 Q-79 559 -82 562 Q-85 565 -85 569 Q-85 579 -75 579 Q-17 585 40.5 590.5 Q98 596 156 602 Q159 613 161.5 624 Q164 635 167 646 Q168 651 171.5 652.5 Q175 654 178.5 653 Q182 652 184.5 648.5 Q187 645 186 641 Q184 632 181.5 623 Q179 614 176 604 Q188 606 199.5 606.5 Q211 607 223 609 Q323 619 421.5 628.5 Q520 638 620 649 Z " />
<glyph glyph-name="G" unicode="G" horiz-adv-x="438" d="M454 406 Q461 404 459 395 Q457 389 456 385 Q441 326 422 269.5 Q403 213 382 156 Q377 141 372 131 Q371 128 368.5 122 Q366 116 363 108.5 Q360 101 357 93 Q354 85 352 80 Q342 54 331.5 29.5 Q321 5 310 -21 Q307 -29 303 -37 Q299 -45 296 -53 Q288 -73 279 -91 Q271 -107 261.5 -124 Q252 -141 241 -154 Q239 -156 237.5 -158 Q236 -160 234 -162 Q226 -170 217 -172 L216 -172 L215 -172 Q209 -172 205 -168 Q201 -164 199 -160 Q187 -139 187 -114 Q185 -73 205 -38 Q225 -3 252 26 Q269 43 286.5 59.5 Q304 76 324 90 Q328 93 332 96 Q336 99 340 102 Q365 165 387 227.5 Q409 290 428 355 Q426 353 424 351 Q422 349 420 347 Q410 335 400.5 325 Q391 315 380 304 Q360 284 339.5 264 Q319 244 297 226 Q280 213 263 200.5 Q246 188 227 177 Q209 166 189.5 156 Q170 146 148 142 Q137 140 128 139 Q119 138 108 140 Q100 142 91.5 145 Q83 148 76 153 Q69 158 62 168 Q59 172 56 175 Q53 178 51 183 Q46 193 43 203.5 Q40 214 38 225 Q32 266 48 309 Q61 349 85 387 Q96 406 108.5 423 Q121 440 135 457 Q147 473 160.5 488 Q174 503 188 517 Q203 531 218.5 544.5 Q234 558 251 569 Q268 582 286.5 594 Q305 606 325 614 Q348 625 368 628 Q379 630 390.5 629.5 Q402 629 413 624 Q430 617 440.5 602 Q451 587 455 568 Q455 559 448 556 Q438 554 436 563 Q433 577 425 590 Q417 603 402 608 Q392 611 382 610 Q372 609 362 607 Q345 603 325 593 Q320 591 314.5 588 Q309 585 304 582 Q298 578 294 576 Q292 574 290.5 573 Q289 572 287 570 Q278 565 269.5 559 Q261 553 253 547 Q236 535 221.5 521.5 Q207 508 193 494 Q179 480 166 465 Q153 450 141 434 Q128 417 116 399.5 Q104 382 93 362 Q84 344 75 324.5 Q66 305 60.5 285 Q55 265 55 244.5 Q55 224 63 204 Q65 199 67 194 Q69 189 73 185 Q76 181 78 177 Q80 175 81 174.5 Q82 174 83 172 Q96 160 112 159 Q121 157 130 158 Q139 159 148 161 Q159 164 168.5 168 Q178 172 188 177 Q226 197 259.5 222 Q293 247 324 276 Q355 304 384 336 Q389 340 392.5 344 Q396 348 400 353 Q402 355 403.5 357.5 Q405 360 407 362 Q409 364 410.5 365 Q412 366 413 368 Q421 377 428 385.5 Q435 394 441 403 Q443 407 447 407.5 Q451 408 454 406 Z M316 43 Q319 49 321.5 55 Q324 61 326 67 Q318 61 310 54 Q302 47 294 40 Q285 32 276.5 23.5 Q268 15 260 6 Q246 -8 236 -24 Q225 -40 217.5 -57 Q210 -74 207 -93 Q204 -120 212 -142 L213 -143 Q213 -144 213.5 -144.5 Q214 -145 214 -147 L215 -147 Q215 -148 216 -148 Q216 -149 218 -149 L219 -149 L220 -149 Q225 -147 235 -130.5 Q245 -114 255 -95 Q266 -73 278 -45 Q280 -41 280 -41 Q287 -25 293 -13 Q298 1 304 15 Q310 29 316 43 Z " />
<glyph glyph-name="H" unicode="H" horiz-adv-x="308" d="M404 656 Q406 665 415.5 662.5 Q425 660 423 650 Q414 611 402 572.5 Q390 534 377 496 Q362 451 346 406 Q330 361 315 315 Q313 307 310.5 300.5 Q308 294 306 286 Q304 281 302.5 276 Q301 271 299 266 Q278 200 254 134 Q222 43 189 -47 Q156 -137 128 -230 Q127 -235 123.5 -236 Q120 -237 116.5 -236.5 Q113 -236 110.5 -233 Q108 -230 110 -225 Q121 -185 133.5 -146.5 Q146 -108 160 -69 Q189 15 219.5 97 Q250 179 278 263 Q240 258 202.5 252.5 Q165 247 127 243 Q107 186 86.5 129.5 Q66 73 49 15 Q46 6 36.5 8.5 Q27 11 30 20 Q47 77 66.5 131.5 Q86 186 106 241 Q68 238 32 238 Q22 239 22 248.5 Q22 258 32 258 Q72 258 113 261 Q121 281 127.5 301.5 Q134 322 141 342 Q149 365 156 387 Q163 409 171 432 Q186 477 201.5 521.5 Q217 566 228 612 Q229 616 232.5 617.5 Q236 619 239.5 618.5 Q243 618 245.5 614.5 Q248 611 247 607 Q233 548 212.5 492 Q192 436 173 378 Q164 349 154.5 320.5 Q145 292 134 263 Q172 268 209.5 273 Q247 278 285 283 Q286 287 288 293 Q302 339 317.5 384 Q333 429 349 474 Q365 519 379 564 Q393 609 404 656 Z " />
<glyph glyph-name="I" unicode="I" horiz-adv-x="116" d="M268 630 Q278 630 278 620 Q278 612 268 610 Q251 608 233.5 605 Q216 602 199 599 Q177 521 152.5 444.5 Q128 368 102 291 Q71 200 39 111.5 Q7 23 -26 -67 Q-12 -65 1.5 -62.5 Q15 -60 29 -58 Q39 -58 39 -68 Q39 -76 29 -78 Q-5 -82 -38.5 -89.5 Q-72 -97 -107 -93 Q-117 -93 -117 -83 Q-117 -79 -114.5 -76 Q-112 -73 -107 -74 Q-92 -76 -77 -74.5 Q-62 -73 -48 -71 Q-20 6 7.5 81.5 Q35 157 62 234 Q94 324 123 414 Q152 504 178 596 Q145 590 112 590 Q102 590 102 599.5 Q102 609 112 609 Q152 609 190.5 617 Q229 625 268 630 Z " />
<glyph glyph-name="J" unicode="J" horiz-adv-x="256" d="M442 627 Q451 627 451 617 Q451 609 442 607 Q423 605 405 603.5 Q387 602 369 600 Q356 553 342 507 Q328 461 313 415 Q299 370 284 326 Q269 282 252 237 Q252 236 249 229.5 Q246 223 242.5 213 Q239 203 234 191.5 Q229 180 225 169 Q213 138 200.5 108.5 Q188 79 174 50 Q154 7 132 -34 Q110 -75 83 -113 Q71 -130 58 -145.5 Q45 -161 29 -175 Q14 -188 -3.5 -197 Q-21 -206 -41 -207 Q-59 -208 -76.5 -200 Q-94 -192 -105 -178 Q-129 -151 -132 -113 Q-134 -91 -131 -68.5 Q-128 -46 -121 -25 Q-108 18 -82 56 Q-55 93 -18 117 Q1 130 21.5 139.5 Q42 149 63 157 Q100 171 138 179.5 Q176 188 214 193 Q219 207 224 220 Q229 233 234 247 Q298 419 348 598 Q329 596 310 594 Q291 592 271 590 Q261 590 261 600 Q261 608 271 610 Q314 614 356.5 618 Q399 622 442 627 Z M160 66 Q172 92 183.5 119 Q195 146 206 172 Q183 169 160 164.5 Q137 160 114 153 Q92 147 70.5 139.5 Q49 132 29 122 Q9 112 -9 100.5 Q-27 89 -43 73 Q-58 57 -70 38.5 Q-82 20 -91 0 Q-110 -43 -113 -86 Q-114 -103 -111 -121 Q-108 -139 -99 -155 Q-90 -169 -77 -178 Q-64 -187 -47 -188 Q-28 -189 -12 -180 Q4 -171 17 -159 Q33 -145 46 -129.5 Q59 -114 70 -97 Q97 -59 118.5 -17.5 Q140 24 160 66 Z " />
<glyph glyph-name="K" unicode="K" horiz-adv-x="190" d="M484 -194 Q492 -199 487 -207 Q482 -215 474 -210 Q442 -190 412.5 -166.5 Q383 -143 354 -117 Q325 -91 295.5 -65 Q266 -39 236 -13 Q217 3 199 18.5 Q181 34 162 50 Q144 65 126.5 80 Q109 95 92 109 Q72 125 53 141.5 Q34 158 18 178 Q7 146 -3.5 115.5 Q-14 85 -25 53 Q-28 45 -37 47.5 Q-46 50 -43 59 Q-32 94 -20 128 Q-8 162 4 197 Q-6 212 -10 225 Q-12 228 -10 231 Q-8 234 -6 236 Q2 241 9 245 Q16 249 24 253 Q55 342 87 430 Q119 518 152 607 Q154 616 164 613 Q167 612 169.5 608.5 Q172 605 170 601 Q154 558 138.5 515 Q123 472 107 428 Q92 387 77.5 347.5 Q63 308 49 267 Q100 294 149 322 Q198 350 241 389 Q302 443 350 510 Q398 577 420 657 Q421 661 424.5 662.5 Q428 664 431.5 663 Q435 662 437 659 Q439 656 438 651 Q419 581 380 520.5 Q341 460 290 409 Q230 348 154 302 Q126 285 97 270 Q68 255 39 239 Q36 229 32.5 219.5 Q29 210 26 200 Q29 195 33 190.5 Q37 186 41 181 Q52 169 63.5 158.5 Q75 148 88 137 Q101 126 113.5 116 Q126 106 139 95 Q153 82 168 70 Q183 58 198 45 Q235 13 271.5 -18.5 Q308 -50 344 -82 Q377 -112 411.5 -141 Q446 -170 484 -194 Z M11 224 Q12 223 12 222.5 Q12 222 13 221 Q13 224 14 225 Q13 225 12.5 224.5 Q12 224 11 224 Z " />
<glyph glyph-name="L" unicode="L" horiz-adv-x="132" d="M548 17 Q552 18 554.5 15 Q557 12 557 8 Q557 -2 548 -2 Q477 -8 408 -20 Q339 -32 269 -42 Q219 -49 170 -55 Q121 -61 71 -67 Q46 -70 21.5 -73 Q-3 -76 -27 -80 Q-40 -82 -52 -83 Q-64 -84 -76 -86 Q-88 -88 -100 -90 Q-112 -92 -124 -91 Q-134 -89 -134 -81 Q-134 -71 -124 -71 Q-109 -72 -91 -69 Q-85 -68 -79 -67 Q-73 -66 -67 -65 Q-63 -54 -59.5 -43.5 Q-56 -33 -51 -22 Q-19 69 14.5 158.5 Q48 248 80 339 Q112 430 141 520.5 Q170 611 193 705 Q194 709 197.5 710.5 Q201 712 204.5 711.5 Q208 711 210.5 707.5 Q213 704 212 700 Q207 682 202.5 664 Q198 646 193 628 Q167 534 136.5 444 Q106 354 74 263 Q44 181 14 100 Q-16 19 -45 -62 Q-30 -60 -14.5 -58 Q1 -56 16 -54 Q51 -50 86 -46 Q121 -42 156 -37 Q205 -31 254 -24.5 Q303 -18 351 -10 Q401 -2 449.5 5.5 Q498 13 548 17 Z " />
<glyph glyph-name="M" unicode="M" horiz-adv-x="654" d="M649 472 Q651 437 649 403 Q647 369 642 334 Q632 268 613 201 Q600 156 584 112 Q568 68 552.5 24 Q537 -20 523 -64 Q509 -108 499 -154 Q498 -159 494.5 -160 Q491 -161 487.5 -160.5 Q484 -160 481.5 -157 Q479 -154 480 -149 Q499 -61 531 22 Q563 105 589 191 Q609 257 621.5 326 Q634 395 630 464 Q628 495 622 526 Q616 557 602 583 Q595 595 587.5 605.5 Q580 616 570 624 Q568 626 568 626 L567 626 Q565 628 563 629 Q561 630 559.5 631 Q558 632 556 633 Q555 633 554.5 633.5 Q554 634 553 634 Q550 637 550 636 Q548 637 546 637 Q544 637 542 638 Q541 638 540 638.5 Q539 639 538 639 L535 639 Q532 640 528 640 L519 640 Q517 640 516.5 639.5 Q516 639 515 639 L513 639 L512 639 Q507 638 503 637.5 Q499 637 495 635 Q489 633 485 631 Q484 631 483 630 L482 630 Q480 630 478 628 Q468 623 458.5 618 Q449 613 440 606 Q422 594 404 577 Q363 540 329 497.5 Q295 455 266 409 Q252 389 240 367.5 Q228 346 217 324 Q215 319 212.5 314.5 Q210 310 208 305 Q207 303 207 302 Q207 301 206 299 Q205 298 205 297 Q203 291 202 289 L196 274 Q194 264 192 259 Q191 254 187.5 253 Q184 252 180.5 252.5 Q177 253 174.5 256 Q172 259 173 264 L176 273 Q176 275 178 279 Q183 298 186 317 Q189 336 190 356 Q190 362 190 368 Q190 374 189 379 Q188 381 188 384 Q188 387 186 389 L186 392 L185 392 L185 393 Q185 394 183 396 Q183 397 182 398 L182 399 Q180 401 178 402 L176 404 L175 404 Q174 404 174 405 Q172 405 171.5 405.5 Q171 406 169 406 L167 406 Q165 408 162 406 L160 406 Q157 406 155 405 Q154 405 153 404 L151 404 Q149 403 143 399 Q139 397 135.5 393.5 Q132 390 127 385 Q118 375 111 364 Q104 353 97 341 Q86 320 76.5 299.5 Q67 279 61 256 Q60 251 56.5 250 Q53 249 49.5 249.5 Q46 250 43.5 253 Q41 256 42 261 Q42 262 42.5 262.5 Q43 263 43 264 Q50 287 60 310 Q70 333 82 354 Q89 366 96.5 377.5 Q104 389 114 399 Q131 419 153 425 Q164 427 175.5 424.5 Q187 422 195 413 Q204 402 206.5 389.5 Q209 377 210 364 Q210 356 209 351 Q231 393 257 432 Q287 477 322 520 Q357 563 399 599 Q417 614 436 627 Q455 640 477 649 Q494 656 513 658.5 Q532 661 550 656 Q573 649 590 632 Q607 615 618 595 Q633 567 640 535.5 Q647 504 649 472 Z " />
<glyph glyph-name="N" unicode="N" horiz-adv-x="522" d="M532 569 Q538 541 538.5 513.5 Q539 486 537 458 Q531 393 516 330 Q499 260 476.5 192 Q454 124 429 56 Q406 -5 383 -65.5 Q360 -126 340 -188 Q337 -197 327.5 -194.5 Q318 -192 321 -183 L330 -156 Q352 -93 375.5 -30.5 Q399 32 422 96 Q446 163 468 230.5 Q490 298 504 368 Q510 398 514 428 Q518 458 519 489 Q520 516 517.5 541 Q515 566 506 591 Q504 597 502.5 600.5 Q501 604 499 609 Q494 618 490 624 L489 624 L489 625 L488 626 L485 629 Q483 632 480 634 Q480 635 478.5 635.5 Q477 636 478 636 Q476 638 476 638 L470 641 Q469 642 468.5 642 Q468 642 467 643 L465 643 Q461 645 459 645 Q458 645 457 645.5 Q456 646 455 646 L453 646 Q451 646 450 646.5 Q449 647 447 647 Q442 647 439 646 L436 646 L435 646 L434 646 Q424 644 419 642 Q417 641 414.5 641 Q412 641 410 639 Q409 639 408.5 638.5 Q408 638 406 638 Q406 638 405 637 L404 637 Q399 635 395.5 633 Q392 631 387 629 Q370 619 352 606 Q350 604 349 603.5 Q348 603 347 602 Q346 602 345 601 Q345 600 344 600 L343 600 L335 592 Q330 588 325.5 584.5 Q321 581 316 577 Q306 568 297 559 Q288 550 279 541 Q203 462 142 366 Q128 344 114.5 322 Q101 300 89 277 Q84 267 79.5 257 Q75 247 70 237 Q70 236 69.5 236 Q69 236 69 235 L69 234 L69 233 Q67 229 67 228 Q65 222 63 220 L57 202 Q56 197 52.5 196 Q49 195 45.5 195.5 Q42 196 39.5 199 Q37 202 39 207 Q45 231 54 255 Q83 345 116.5 433.5 Q150 522 173 614 Q174 618 177.5 619.5 Q181 621 184.5 620 Q188 619 190.5 616 Q193 613 192 608 Q189 596 185.5 584 Q182 572 179 559 Q163 505 144.5 452.5 Q126 400 106 347 Q117 366 129.5 384 Q142 402 154 420 Q186 465 221.5 507.5 Q257 550 299 587 Q332 618 372 643 Q388 652 405 658.5 Q422 665 441 666 Q474 668 497 645 Q512 630 520 609.5 Q528 589 532 569 Z " />
<glyph glyph-name="O" unicode="O" horiz-adv-x="404" d="M401 464 Q411 380 396 297 Q381 214 353 136 Q339 98 322.5 60 Q306 22 289 -15 Q274 -48 255.5 -80.5 Q237 -113 211 -137 Q199 -148 185 -156.5 Q171 -165 155.5 -170 Q140 -175 124 -174.5 Q108 -174 93 -166 Q79 -158 69.5 -145.5 Q60 -133 54 -119 Q46 -100 43.5 -80 Q41 -60 43 -40 Q45 3 57.5 42.5 Q70 82 82 123 Q90 146 97.5 169.5 Q105 193 114 216 Q99 222 85 231 Q71 240 60 253 Q37 277 26.5 308 Q16 339 14 371 Q9 445 47 508 Q84 572 145 608 Q173 626 207 635 Q221 640 237 642.5 Q253 645 269 643 Q284 641 298.5 636.5 Q313 632 326 624 Q338 616 347.5 605 Q357 594 365 582 Q381 555 389 525 Q397 495 401 464 Z M383 367 Q385 401 384 434.5 Q383 468 375 501 Q369 529 357.5 555 Q346 581 324 600 Q304 618 276 623 Q262 625 247 623.5 Q232 622 218 618 Q186 610 157 592.5 Q128 575 105 552 Q81 527 63.5 497.5 Q46 468 38 434 Q33 417 32.5 399 Q32 381 34 363 Q36 348 39.5 332.5 Q43 317 50 303 Q56 290 63.5 279 Q71 268 82 259 Q90 251 100.5 244.5 Q111 238 121 234 Q128 250 134.5 266 Q141 282 149 299 Q158 318 167 337 Q176 356 187 375 Q201 402 216 427 Q223 439 232.5 452 Q242 465 253 475.5 Q264 486 277.5 492.5 Q291 499 307 498 Q312 498 314.5 495 Q317 492 317 488 Q317 484 314.5 481.5 Q312 479 307 479 Q294 479 286 475 Q276 470 266 460 Q255 450 247 438.5 Q239 427 231 414 Q212 382 195.5 349.5 Q179 317 164 284 Q150 255 140 227 Q163 221 185.5 220.5 Q208 220 231 225 Q235 226 238.5 223.5 Q242 221 242.5 217.5 Q243 214 241.5 210.5 Q240 207 236 206 Q210 201 184 201 Q158 201 133 209 Q113 157 98 109 Q92 89 85.5 70.5 Q79 52 74 32 Q69 11 65.5 -9.5 Q62 -30 62 -52 Q62 -70 65.5 -88.5 Q69 -107 78 -123 Q92 -149 117 -154 Q129 -156 142 -154 Q150 -152 157 -149.5 Q164 -147 171 -143 Q185 -135 197 -123.5 Q209 -112 220 -98 Q243 -69 258.5 -36 Q274 -3 288 30 Q296 49 304.5 68 Q313 87 321 107 Q329 127 336.5 148 Q344 169 350 190 Q364 233 372.5 277.5 Q381 322 383 367 Z " />
<glyph glyph-name="P" unicode="P" horiz-adv-x="380" d="M573 571 Q573 552 568 534 Q563 516 555 499 Q536 456 506 417 Q474 372 435 331.5 Q396 291 351 258 Q331 243 310 230 Q289 217 266 206 Q246 198 226 192 Q206 186 184 187 Q166 188 147.5 195 Q129 202 118 217 Q114 208 111 199 Q108 190 104 181 Q72 94 35 9.5 Q-2 -75 -44 -157 Q-46 -161 -50 -161.5 Q-54 -162 -57 -160 Q-62 -158 -62 -149 Q-54 -88 -36 -29.5 Q-18 29 5 86 Q46 186 104 282 Q104 286 105 289 Q107 304 112.5 319 Q118 334 127 347 Q132 356 140 351 Q142 349 143 349 Q166 420 188 491.5 Q210 563 231 635 Q232 639 235.5 640.5 Q239 642 242.5 641 Q246 640 248.5 637 Q251 634 250 629 Q242 604 235 579 Q228 554 220 528 Q209 493 198.5 459 Q188 425 177 390 Q194 413 211.5 435.5 Q229 458 249 478 Q263 492 277.5 505 Q292 518 306 531 Q326 548 346 563.5 Q366 579 387 593 Q407 607 427.5 618 Q448 629 470 637 Q487 643 506 645 Q525 647 541 637 Q558 627 565 608.5 Q572 590 573 571 Z M-15 -54 Q19 19 49 93 Q79 167 106 243 Q106 245 105 246 Q91 221 78 196.5 Q65 172 52 146 Q26 89 4.5 31.5 Q-17 -26 -31 -87 Q-26 -79 -22.5 -70.5 Q-19 -62 -15 -54 Z M553 577 Q553 578 552.5 578.5 Q552 579 552 580 Q552 584 551 585 Q551 589 549 595 Q548 597 548 597.5 Q548 598 547 600 L547 601 L546 602 Q545 606 542 610 Q542 610 541 612 Q539 614 538 614 Q536 616 536 617 Q535 617 535 617.5 Q535 618 534 618 Q532 619 531 620 Q530 621 528 622 L527 622 L526 622 Q525 623 524.5 623 Q524 623 523 624 Q520 624 519 625 L516 625 L510 625 L501 625 L500 625 L499 625 Q498 624 495 624 Q487 623 476 619 Q470 617 466 615 Q466 615 464 614 L463 614 Q462 613 461 613 Q460 613 458 612 Q453 610 448 607 Q443 604 438 602 Q427 596 417 589.5 Q407 583 396 576 L375 561 Q370 557 365.5 553.5 Q361 550 356 546 Q338 532 320.5 517 Q303 502 286 486 Q270 471 255.5 455.5 Q241 440 227 423 Q208 400 191 376.5 Q174 353 157 328 Q149 306 142 285 Q135 264 127 242 Q130 231 137 224 Q140 221 146 218 Q148 216 149.5 215.5 Q151 215 153 214 Q154 214 154 213.5 Q154 213 155 213 L156 213 Q156 213 160 211 Q162 210 164 210 Q166 210 168 209 Q169 209 170 208.5 Q171 208 172 208 L175 208 Q178 207 183 207 Q188 207 192 207 Q196 207 201 208 L204 208 L205 208 Q208 208 209 209 Q213 209 219 211 Q224 212 229 213 Q234 214 239 216 Q241 218 244 218.5 Q247 219 249 220 Q254 222 258 224 Q263 226 268.5 229 Q274 232 279 234 Q327 260 367.5 294.5 Q408 329 443 369 Q461 389 477 409.5 Q493 430 507 453 Q520 471 531 494 Q533 496 533.5 498.5 Q534 501 536 504 Q537 505 537 506 Q537 507 538 509 Q538 509 539 511 L539 512 Q541 517 542.5 521 Q544 525 546 530 Q548 535 549 539 Q550 543 551 548 Q551 550 551.5 552 Q552 554 552 556 Q552 557 553 558 L553 562 L553 577 Z " />
<glyph glyph-name="Q" unicode="Q" horiz-adv-x="425" d="M473 550 Q474 526 471.5 502 Q469 478 464 455 Q455 407 441.5 360.5 Q428 314 412 268 Q395 223 375 180 Q355 137 330 95 Q318 75 305 56 Q292 37 277 20 Q265 5 251.5 -9 Q238 -23 222 -35 Q224 -85 229 -134 Q234 -183 245 -231 Q246 -236 243.5 -239 Q241 -242 237 -242.5 Q233 -243 230 -242 Q227 -241 226 -236 Q215 -189 210 -142 Q205 -95 203 -47 Q186 -57 167.5 -63 Q149 -69 129 -67 Q107 -65 88 -56 Q69 -47 55 -29 Q42 -11 36.5 11 Q31 33 29 55 Q27 80 28.5 104 Q30 128 34 152 Q42 200 55.5 246 Q69 292 88 337 Q97 359 107.5 380 Q118 401 131 421 Q143 440 157 458 Q171 476 189 489 Q192 491 196 490 Q200 489 202 486 Q207 478 199 472 Q189 465 181.5 456.5 Q174 448 166 439 Q158 428 151.5 417.5 Q145 407 138 396 Q115 354 97.5 309.5 Q80 265 68 219 Q62 196 57 172.5 Q52 149 50 125 Q47 102 46.5 78 Q46 54 51 31 Q56 11 65 -7.5 Q74 -26 92 -37 Q111 -48 132 -48 Q153 -48 173 -40 Q181 -37 188 -33.5 Q195 -30 203 -25 Q202 -20 202 -12 Q201 86 212.5 183.5 Q224 281 248 376 Q254 399 261 422 Q268 445 277 468 Q286 490 296 512 Q306 534 317 554 Q328 573 340 591.5 Q352 610 369 624 Q377 631 387 636.5 Q397 642 408 642 Q431 642 445 626 Q460 612 466 591 Q472 570 473 550 Z M454 528 Q455 548 452 569 Q449 590 437 607 Q422 627 405 622 Q388 617 372.5 600.5 Q357 584 345 563 Q333 542 327 531 Q305 489 289 444 Q273 399 262 352 Q251 304 243 257 Q235 210 230 161 Q221 77 221 -10 Q232 -2 242 10 Q258 26 271.5 43.5 Q285 61 298 80 Q349 159 384 248 Q392 271 399.5 294.5 Q407 318 415 341 Q422 364 428.5 387.5 Q435 411 440 434 Q445 457 448.5 480.5 Q452 504 454 528 Z " />
<glyph glyph-name="R" unicode="R" horiz-adv-x="350" d="M481 -195 Q483 -197 483.5 -201.5 Q484 -206 481 -208 Q470 -216 458 -223.5 Q446 -231 433 -235 Q420 -239 406 -239.5 Q392 -240 379 -235 Q347 -223 327.5 -194 Q308 -165 295 -135 Q278 -94 268 -51 Q258 -8 250 36 Q242 81 237.5 125.5 Q233 170 231 215 Q230 232 229.5 249.5 Q229 267 230 284 Q230 296 230.5 308 Q231 320 233 331 Q234 337 239 337.5 Q244 338 248 336 L249 335 Q249 335 250 334 Q251 334 251.5 333.5 Q252 333 253 333 Q255 332 255.5 331.5 Q256 331 258 330 L259 330 Q260 329 262 329 Q264 328 264.5 328 Q265 328 267 327 L269 327 L271 327 L276 327 L279 327 L280 327 Q282 327 283 327.5 Q284 328 286 328 Q288 329 289.5 329.5 Q291 330 293 331 L295 331 Q296 331 296 332 Q297 332 297.5 332.5 Q298 333 299 333 Q303 335 306.5 337 Q310 339 313 342 Q315 343 315.5 343.5 Q316 344 318 345 L319 346 L320 346 Q324 350 327 352 Q331 356 334.5 359 Q338 362 341 366 Q345 370 348.5 374 Q352 378 355 382 Q357 384 357 385 L358 386 Q359 388 361 390 Q363 392 364.5 394.5 Q366 397 368 399 Q375 409 381 419 Q387 429 392 439 Q414 481 426 526 Q427 531 428 536.5 Q429 542 430 548 Q430 549 430.5 550 Q431 551 431 553 L431 554 L431 557 Q432 560 432 567 Q434 576 432 586 Q432 593 431 596 L431 597 L431 598 Q431 601 430 603 Q429 607 428.5 611 Q428 615 426 619 Q426 619 425 620 L425 621 Q423 625 423 625 Q422 627 421 628 Q420 629 419 631 Q418 632 418 633 L417 633 Q417 634 415 636 Q411 640 409 641 Q409 642 408 643 L407 643 Q405 645 404 645 Q401 647 397 649 L395 650 Q394 650 393.5 650.5 Q393 651 392 651 Q390 651 389.5 651.5 Q389 652 387 652 Q379 654 378 654 L366 654 Q361 654 357 653 Q344 651 334 646 Q324 641 313 634 Q289 619 269 598 Q249 577 231 554 Q198 512 171 464 Q140 411 118 357 Q104 309 91 261 Q78 213 61 166 Q57 157 48.5 159.5 Q40 162 42 171 Q49 221 63.5 268 Q78 315 98 361 Q118 430 142 495.5 Q166 561 208 619 Q214 626 221 622 Q225 620 226 616 Q227 612 225 609 Q181 547 156 477 Q172 505 190.5 532 Q209 559 230 584 Q249 606 270 625.5 Q291 645 316 659 Q339 670 363.5 673 Q388 676 411 664 Q429 653 438.5 636.5 Q448 620 450.5 600.5 Q453 581 451 561 Q449 541 445 523 Q440 500 431 477.5 Q422 455 411 434 Q389 390 359 357 Q346 343 331 330.5 Q316 318 297 312 Q272 303 250 313 Q250 303 249 298 L249 254 Q250 212 253.5 170.5 Q257 129 262 87 Q262 84 263 83 L263 81 L263 76 Q265 70 265 65 Q266 59 266.5 53.5 Q267 48 269 42 Q271 31 273 19 Q275 7 277 -4 Q282 -26 287 -47.5 Q292 -69 300 -91 Q303 -100 306 -109.5 Q309 -119 314 -128 L314 -130 Q315 -131 315 -132 Q317 -136 317 -137 Q318 -139 319 -141 Q320 -143 321 -145 Q323 -149 325 -153 Q327 -157 329 -161 Q331 -165 333.5 -168.5 Q336 -172 338 -175 Q340 -177 341 -178.5 Q342 -180 343 -182 Q345 -184 345 -185 L347 -187 Q353 -195 357 -198 Q361 -202 363 -203 Q363 -205 365 -205 Q365 -206 366 -206 Q370 -209 378 -213 Q380 -215 381 -215 Q381 -215 382 -216 Q384 -216 388 -218 Q390 -218 391 -218.5 Q392 -219 394 -219 Q395 -220 397 -220 L398 -220 L412 -220 L415 -220 Q415 -220 417 -219 Q419 -219 420.5 -218.5 Q422 -218 424 -218 Q426 -217 427.5 -216.5 Q429 -216 431 -215 Q433 -215 433.5 -214.5 Q434 -214 435 -214 Q436 -214 436 -213.5 Q436 -213 437 -213 Q441 -211 444.5 -209 Q448 -207 452 -205 L461 -199 Q463 -197 464 -197 Q466 -195 466 -195 L467 -195 Q475 -187 481 -195 Z " />
<glyph glyph-name="S" unicode="S" horiz-adv-x="312" d="M562 644 Q566 634 556 632 Q520 625 483.5 620 Q447 615 411 610 Q356 602 302 591 Q248 580 195 561 Q172 553 150.5 543 Q129 533 109 518 Q108 517 107 516.5 Q106 516 105 515 Q104 515 103 514 Q102 513 101 513 Q99 511 97.5 509.5 Q96 508 94 506 Q90 502 86.5 498.5 Q83 495 80 491 Q79 490 78.5 490 Q78 490 77 489 L77 488 Q75 486 74 484 Q72 482 71.5 480.5 Q71 479 69 477 Q67 475 66.5 472.5 Q66 470 64 468 Q64 467 63.5 465.5 Q63 464 63 465 Q62 463 62 461 Q60 456 59 451.5 Q58 447 57 442 L56 440 L56 438 L56 432 L56 419 Q57 392 68 365 Q79 337 96 311.5 Q113 286 131 261 Q150 235 168.5 209.5 Q187 184 203 156 Q218 130 228 101.5 Q238 73 238 42 Q238 20 231 2 Q224 -18 210 -38 Q195 -61 176 -81 Q157 -101 135 -118 Q113 -136 89 -150.5 Q65 -165 39 -175 Q16 -183 -7.5 -185 Q-31 -187 -54 -177 Q-76 -169 -86 -151 Q-91 -143 -92.5 -133.5 Q-94 -124 -93 -115 Q-90 -91 -77.5 -69.5 Q-65 -48 -51 -28 Q-34 -6 -16 14.5 Q2 35 22 55 Q37 69 52 82.5 Q67 96 84 108 Q93 113 98 104 Q102 97 94 91 Q92 89 90.5 88 Q89 87 87 85 Q85 85 85 84 Q84 84 84 83.5 Q84 83 83 83 Q80 80 78 79 Q72 74 66 69 Q60 64 55 59 Q28 33 2 6 Q-16 -14 -32 -34.5 Q-48 -55 -60 -79 Q-63 -85 -65 -89 Q-67 -93 -69 -98 Q-70 -100 -70.5 -103 Q-71 -106 -72 -108 Q-72 -111 -73 -113 L-73 -116 Q-74 -119 -74 -125 Q-74 -127 -73 -129 L-73 -131 Q-73 -132 -72.5 -133 Q-72 -134 -72 -135 L-72 -137 Q-72 -138 -71 -138 L-68 -144 Q-67 -144 -67 -145 L-66 -146 L-63 -149 L-61 -151 L-60 -151 Q-58 -153 -56 -154 Q-50 -158 -47 -159 Q-46 -159 -45 -160 Q-45 -160 -44 -161 Q-42 -161 -41 -161.5 Q-40 -162 -39 -162 Q-36 -163 -33.5 -163.5 Q-31 -164 -28 -165 L-27 -165 L-25 -165 L-20 -165 Q-14 -167 -8 -165 L-3 -165 L0 -165 L1 -165 Q27 -160 50 -149.5 Q73 -139 94 -124 Q141 -94 176 -51 Q185 -41 191 -32 Q195 -27 198 -22 Q201 -17 204 -12 Q205 -9 206 -6.5 Q207 -4 209 -1 Q210 0 210 1 Q210 2 211 3 L211 4 Q211 4 212 6 Q214 11 215 15 Q216 19 217 24 Q217 25 217.5 25 Q218 25 218 26 L218 27 L218 30 L218 42 Q218 50 218 56.5 Q218 63 216 70 Q214 84 209 97.5 Q204 111 198 124 Q184 153 166.5 178.5 Q149 204 130 230 Q111 255 93 280.5 Q75 306 61 334 Q48 360 40.5 388.5 Q33 417 38 446 Q41 468 52.5 486.5 Q64 505 80.5 520 Q97 535 116 546 Q135 557 155 566 Q206 589 260 601.5 Q314 614 368 623 Q422 632 471 638 Q491 641 510.5 643.5 Q530 646 550 650 Q560 652 562 644 Z " />
<glyph glyph-name="T" unicode="T" horiz-adv-x="145" d="M558 678 Q562 679 565.5 677 Q569 675 569.5 671.5 Q570 668 568.5 664.5 Q567 661 563 660 Q531 651 497.5 645.5 Q464 640 430 635 Q407 632 383.5 629 Q360 626 336 624 Q312 621 287.5 617.5 Q263 614 239 611 Q234 610 228 609.5 Q222 609 217 608 Q215 600 212.5 592 Q210 584 207 576 Q178 482 146 391.5 Q114 301 81 209 Q64 163 48 117.5 Q32 72 17 26 Q9 3 2 -20 Q-5 -43 -13 -66 Q-20 -89 -26.5 -111.5 Q-33 -134 -43 -156 Q-45 -160 -49 -160.5 Q-53 -161 -57 -159 Q-64 -156 -60 -146 Q-57 -138 -54 -130.5 Q-51 -123 -49 -115 Q-34 -69 -19.5 -23.5 Q-5 22 11 68 Q27 114 42.5 159.5 Q58 205 75 251 Q107 339 138 427 Q169 515 196 605 Q182 603 168.5 601.5 Q155 600 141 598 Q129 596 117 594.5 Q105 593 93 591 Q81 589 69.5 587 Q58 585 46 585 Q36 585 36 595 Q36 605 46 605 Q62 605 78 607.5 Q94 610 111 613 Q128 615 144.5 617.5 Q161 620 178 622 Q226 629 274.5 635.5 Q323 642 372 647 Q419 653 465.5 659.5 Q512 666 558 678 Z " />
<glyph glyph-name="U" unicode="U" horiz-adv-x="355" d="M477 737 Q486 735 484 725 Q481 716 477.5 707 Q474 698 471 689 Q469 679 465 670 Q461 661 457 651 Q456 646 454.5 642 Q453 638 451 634 Q438 598 424 562 Q410 526 396 491 Q379 446 361 401.5 Q343 357 326 312 Q309 268 292 224.5 Q275 181 258 136 Q226 49 198.5 -39 Q171 -127 158 -220 Q157 -224 153 -226 Q149 -228 146 -227 Q137 -224 139 -215 Q147 -155 162 -96.5 Q177 -38 196 19 Q202 36 207.5 51.5 Q213 67 219 83 Q210 68 200.5 53.5 Q191 39 180 25 Q161 -2 136 -26 Q124 -37 111 -48 Q98 -59 82 -63 Q73 -65 64 -63.5 Q55 -62 47 -57 Q34 -47 30 -35 Q23 -20 22.5 -3.5 Q22 13 22 29 Q24 52 27 74.5 Q30 97 34 119 Q44 170 58 218.5 Q72 267 87 316 Q94 336 100.5 355.5 Q107 375 113 395 Q117 406 121 418 Q125 430 128 442 Q131 451 140 448.5 Q149 446 147 437 Q147 433 146 431 Q135 396 123.5 362.5 Q112 329 101 294 Q85 245 72 196.5 Q59 148 50 97 Q47 86 45.5 74.5 Q44 63 42 52 L42 49 L42 48 Q42 46 41.5 45.5 Q41 45 41 43 Q42 41 41.5 38 Q41 35 41 33 Q41 28 40.5 23.5 Q40 19 40 14 Q41 10 41 6 Q41 2 41 -3 Q41 -5 41.5 -7 Q42 -9 42 -11 L42 -12 Q42 -13 42.5 -14 Q43 -15 43 -16 Q45 -20 47 -28 L48 -29 L48 -30 Q48 -30 49 -32 Q50 -34 52 -36 Q52 -37 53 -37 Q53 -38 54 -39 Q55 -40 56 -40 Q56 -41 57 -41 Q57 -41 59 -42 Q59 -43 61 -43 Q62 -44 64 -44 Q67 -45 72 -45 Q75 -44 78.5 -43.5 Q82 -43 84 -41 Q99 -34 111 -23 Q137 0 158 28 Q179 56 198 87 Q239 156 268 229.5 Q297 303 326 377 Q363 464 398 551 Q406 573 414.5 594 Q423 615 431 637 Q440 660 448.5 683.5 Q457 707 465 730 Q469 740 477 737 Z " />
<glyph glyph-name="V" unicode="V" horiz-adv-x="295" d="M476 637 Q481 645 489.5 640 Q498 635 493 627 Q472 593 451.5 560 Q431 527 411 493 Q385 451 360.5 409 Q336 367 312 323 Q267 239 226 151 Q206 108 186.5 65.5 Q167 23 148 -21 Q131 -61 113.5 -100.5 Q96 -140 70 -175 Q65 -181 59 -179.5 Q53 -178 52 -170 Q41 -81 41 8.5 Q41 98 48 188 Q56 284 68.5 378 Q81 472 96 567 Q97 571 101 573 Q105 575 108 574 Q117 571 115 562 Q100 469 87.5 377.5 Q75 286 68 192 Q61 107 60.5 24 Q60 -59 68 -143 Q83 -120 95 -95 Q107 -70 118 -44 Q155 43 193.5 128 Q232 213 276 297 Q322 385 373 468.5 Q424 552 476 637 Z " />
<glyph glyph-name="W" unicode="W" horiz-adv-x="778" d="M803 482 Q817 456 821 428.5 Q825 401 820 372 Q815 343 802 315 Q789 287 772 262 Q737 208 690 162 Q643 116 591 77 Q571 61 550 46.5 Q529 32 506 18 Q479 1 450.5 -13.5 Q422 -28 391 -36 Q364 -44 335.5 -43.5 Q307 -43 284 -26 Q270 -16 263.5 -1 Q257 14 254 30.5 Q251 47 251.5 64 Q252 81 253 96 Q254 110 254.5 123 Q255 136 257 150 Q257 153 257.5 156.5 Q258 160 258 163 Q245 143 232.5 123.5 Q220 104 206 84 Q183 52 158 21 Q133 -10 105 -39 Q80 -64 53.5 -85.5 Q27 -107 -3 -124 Q-17 -131 -23.5 -126.5 Q-30 -122 -33 -117 Q-35 -111 -37 -101 Q-37 -94 -36 -87.5 Q-35 -81 -34 -74 Q-31 -57 -28 -40 Q-25 -23 -21 -6 Q-10 40 4.5 83.5 Q19 127 33 172 Q47 213 60.5 252.5 Q74 292 89 332 Q119 413 156.5 490.5 Q194 568 246 638 Q252 645 259 641 Q262 639 263.5 635 Q265 631 262 628 Q245 605 229.5 580.5 Q214 556 200 530 Q158 455 126.5 375.5 Q95 296 68 215 Q54 172 39.5 129.5 Q25 87 12 44 Q5 21 0 -1.5 Q-5 -24 -10 -47 Q-12 -58 -13.5 -68 Q-15 -78 -17 -89 L-17 -100 Q-17 -102 -14.5 -104.5 Q-12 -107 -4 -103 Q-2 -101 -1 -101 L-1 -100 Q46 -71 84.5 -32 Q123 7 156 50 Q180 80 202 112 Q224 144 244 177 L265 213 Q265 214 265.5 214.5 Q266 215 266 216 Q272 245 283 276 Q294 307 317 328 Q322 333 328 329.5 Q334 326 333 319 Q330 300 323 283 Q316 266 308 249 Q302 238 296 227 Q290 216 284 205 Q283 203 283 201.5 Q283 200 282 198 Q277 169 275.5 140 Q274 111 272 82 Q271 66 271.5 50 Q272 34 277 18 Q279 12 282 5.5 Q285 -1 290 -6 Q293 -8 295.5 -10 Q298 -12 301 -14 Q303 -16 306 -16 Q310 -18 310 -18 Q322 -23 334 -24 Q346 -25 359 -23 Q373 -21 387.5 -16.5 Q402 -12 416 -7 Q445 4 471.5 19.5 Q498 35 523 52 Q545 66 565.5 81.5 Q586 97 606 113 Q659 157 701 203 Q723 226 742 252 Q761 278 776 307 Q789 331 797 358 Q805 385 803 412 Q803 425 799.5 438 Q796 451 791 462 Q779 489 756 509 Q730 534 698 548.5 Q666 563 631 569 Q595 576 557.5 574 Q520 572 485 561 Q476 558 473.5 567.5 Q471 577 480 580 Q514 591 554 593 Q592 595 629.5 589 Q667 583 702 568 Q733 554 759.5 532.5 Q786 511 803 482 Z " />
<glyph glyph-name="X" unicode="X" horiz-adv-x="296" d="M590 720 Q593 723 597 722.5 Q601 722 603.5 719 Q606 716 606.5 712.5 Q607 709 604 706 Q559 667 514.5 627.5 Q470 588 426 547 Q365 491 307 433.5 Q249 376 193 314 Q191 311 186 306 Q206 231 233.5 158.5 Q261 86 291 14 Q293 10 290.5 6.5 Q288 3 284 2 Q276 -1 272 9 Q249 65 226.5 121.5 Q204 178 186 236 Q182 249 178 262 Q174 275 171 288 Q122 233 77 175.5 Q32 118 -8 55 Q-52 -12 -88.5 -83 Q-125 -154 -151 -230 Q-155 -239 -163 -236 Q-167 -235 -169.5 -231.5 Q-172 -228 -170 -224 Q-150 -166 -123.5 -110.5 Q-97 -55 -66 -1 Q-24 70 24 136 Q72 202 125 265 Q145 289 165 311 Q148 377 140.5 444 Q133 511 141 578 Q143 588 151 588 Q161 588 161 578 Q153 518 158.5 459 Q164 400 177 342 Q178 339 178.5 335.5 Q179 332 180 329 Q222 375 264.5 418.5 Q307 462 352 505 Q410 561 469.5 614 Q529 667 590 720 Z " />
<glyph glyph-name="Y" unicode="Y" horiz-adv-x="479" d="M588 651 Q592 659 600.5 655 Q609 651 606 643 Q598 620 589.5 596.5 Q581 573 571 550 Q562 527 552.5 505 Q543 483 533 461 Q510 401 489 342 Q468 283 448 223 Q437 189 425 155.5 Q413 122 402 87 Q398 73 394 60.5 Q390 48 385 34 Q383 26 381 22 Q380 19 377 9 Q374 -1 369.5 -13 Q365 -25 361 -37 Q357 -49 355 -55 Q347 -78 338 -100 Q329 -122 319 -144 Q312 -161 304 -178 Q296 -195 285 -210 Q278 -220 267 -227.5 Q256 -235 245 -224 Q231 -211 231.5 -193 Q232 -175 239 -159 Q249 -136 263 -116 Q277 -96 293 -77 Q305 -63 318 -50 Q331 -37 345 -25 Q353 -3 359.5 18 Q366 39 374 61 Q392 118 411 174 Q430 230 450 287 Q455 303 460 316 Q446 292 432.5 269 Q419 246 404 223 Q392 204 379.5 186 Q367 168 354 149 Q343 133 331 117.5 Q319 102 305 88 Q279 60 248.5 37.5 Q218 15 182 2 Q159 -7 133 -11 Q107 -15 82 -10 Q69 -8 57 -1.5 Q45 5 37 16 Q17 40 16.5 72 Q16 104 21 133 Q29 176 43.5 216.5 Q58 257 75 297 Q95 343 117 387 Q139 431 162 476 Q183 515 205.5 554 Q228 593 251 632 Q265 656 279.5 679.5 Q294 703 308 727 Q310 731 314 731.5 Q318 732 321 730 Q324 728 325.5 724.5 Q327 721 325 717 Q321 713 320 709 Q304 682 288 655.5 Q272 629 256 602 Q232 562 209.5 522 Q187 482 165 441 L120 351 Q115 340 110 328.5 Q105 317 100 306 Q90 286 82 263 Q66 224 52 180 Q50 170 47.5 160.5 Q45 151 43 141 Q41 136 40.5 132 Q40 128 39 123 Q39 120 38 119 L38 116 Q38 114 37.5 112 Q37 110 37 108 Q36 100 36 92.5 Q36 85 36 77 Q36 72 37 69 L37 66 L37 65 Q38 60 40 52 Q41 50 41 49 Q41 48 42 46 Q42 45 42.5 44.5 Q43 44 43 43 L43 42 Q45 40 46 37 Q47 34 49 32 Q50 31 50 30.5 Q50 30 51 29 Q52 27 53 26.5 Q54 26 55 25 Q56 23 57 22.5 Q58 22 59 21 L60 20 Q61 20 61 19.5 Q61 19 62 19 Q66 15 72 13 L73 13 L74 12 Q76 12 77 11 Q79 11 83 9 Q85 9 86.5 8.5 Q88 8 90 8 L93 8 Q94 8 95 7 L111 7 Q145 8 177 20.5 Q209 33 236 53 Q268 75 293.5 103.5 Q319 132 340 163 Q366 201 390.5 238.5 Q415 276 438 316 Q459 354 478.5 392 Q498 430 515 468 Q532 515 550 560 Q568 605 588 651 Z M313 -110 Q318 -99 321.5 -88.5 Q325 -78 330 -67 Q323 -74 316.5 -80.5 Q310 -87 304 -94 Q288 -113 275 -133 Q272 -138 269 -143 Q266 -148 263 -153 Q262 -155 261 -157.5 Q260 -160 259 -163 Q258 -163 258 -164 Q258 -165 257 -165 Q257 -167 256.5 -167.5 Q256 -168 256 -170 Q254 -174 253 -177.5 Q252 -181 252 -186 L251 -189 L251 -193 L251 -197 L251 -198 Q252 -199 252 -202 Q253 -202 253 -203 Q255 -207 255 -208 Q256 -208 258 -210 L258 -211 Q259 -210 260 -210 L260 -209 Q261 -208 262 -207.5 Q263 -207 264 -206 Q264 -206 266 -204 Q266 -203 267 -202 Q268 -201 268.5 -200 Q269 -199 270 -198 Q274 -192 278 -185 Q288 -166 295 -150 Q301 -141 304 -130 Q305 -129 305 -128.5 Q305 -128 306 -127 L306 -126 Q308 -122 308 -120 Q310 -118 310.5 -115 Q311 -112 313 -110 Z " />
<glyph glyph-name="Z" unicode="Z" horiz-adv-x="302" d="M620 643 Q628 644 630 636 Q632 628 625 625 Q584 606 546 582.5 Q508 559 472 532 Q434 504 399 473.5 Q364 443 331 411 Q303 385 276.5 359 Q250 333 223 306 Q169 253 119.5 195.5 Q70 138 33 72 Q15 39 1 4.5 Q-13 -30 -21 -67 Q-23 -79 -24.5 -91 Q-26 -103 -25 -116 L-25 -121 L-25 -122 Q-25 -122 -24 -124 Q-24 -126 -22 -132 Q-22 -135 -21 -136 Q-21 -137 -20 -138 L-17 -144 Q-17 -145 -16 -146 L-14 -148 Q-13 -150 -12 -150.5 Q-11 -151 -10 -153 L-9 -153 L-8 -154 Q-7 -154 -6.5 -154.5 Q-6 -155 -5 -155 Q-5 -155 -3 -157 L-2 -157 Q4 -159 5 -159 Q6 -159 6.5 -159.5 Q7 -160 8 -160 L10 -160 Q17 -162 25 -160 L33 -160 L35 -159 Q38 -159 40 -158 Q50 -156 57 -154 Q62 -152 66.5 -151 Q71 -150 76 -148 Q78 -147 80.5 -146 Q83 -145 86 -144 Q87 -144 87 -143.5 Q87 -143 88 -143 L89 -143 Q91 -141 93 -141 Q133 -123 169 -100 Q177 -95 185.5 -89.5 Q194 -84 202 -78 Q205 -76 208.5 -73 Q212 -70 216 -68 Q218 -66 219.5 -65.5 Q221 -65 223 -63 Q224 -62 224.5 -62 Q225 -62 226 -61 Q226 -61 227 -60 Q234 -55 241 -60 Q243 -62 243.5 -66.5 Q244 -71 241 -74 Q199 -105 158 -130 Q139 -141 119.5 -150 Q100 -159 80 -167 Q63 -173 45 -177.5 Q27 -182 10 -180 Q2 -178 -5.5 -176.5 Q-13 -175 -19 -170 Q-33 -160 -39 -143 Q-48 -121 -45 -96 Q-42 -71 -37 -49 Q-18 28 23 95 Q64 162 115 221 Q139 249 164.5 275 Q190 301 216 327 Q244 354 271 381 Q298 408 326 434 Q361 466 396 496 Q431 526 469 554 Q518 591 570 619 Q516 614 461 611.5 Q406 609 352 605 Q257 598 164.5 583 Q72 568 -18 534 Q-26 531 -30 541 Q-31 550 -23 553 Q44 578 113.5 593 Q183 608 254 616 Q345 626 436.5 630 Q528 634 620 643 Z " />
<glyph glyph-name="exclam" unicode="&#x21;" horiz-adv-x="116" d="M197 642 Q199 646 203 646.5 Q207 647 210 645 Q213 643 214.5 639.5 Q216 636 214 632 Q195 601 183.5 566 Q172 531 162 496 Q157 479 152 461 Q147 443 142 425 L118 347 L55 161 L25 68 Q17 45 10 22.5 Q3 0 0 -23 Q-2 -33 -10 -33 Q-20 -33 -20 -23 Q-17 0 -10.5 21.5 Q-4 43 4 65 Q11 88 18 109.5 Q25 131 32 153 Q47 198 62 241.5 Q77 285 91 330 Q99 352 106 374 Q113 396 120 418 Q126 437 131 456 Q136 475 141 494 Q152 532 164 570 Q176 608 197 642 Z M-22 -74 Q-17 -67 -8.5 -71.5 Q0 -76 -5 -84 Q-10 -91 -15 -98 Q-20 -105 -25 -112 Q-30 -120 -38.5 -115 Q-47 -110 -42 -102 Q-37 -95 -32 -88.5 Q-27 -82 -22 -74 Z " />
<glyph glyph-name="quotedbl" unicode="&#x22;" horiz-adv-x="132" d="M137 563 Q135 559 131 558 Q127 557 124 559 Q115 563 119 572 Q123 581 126.5 591 Q130 601 133 610 Q135 613 139 614.5 Q143 616 146 615 Q154 611 151 602 Q148 592 144 583 Q140 574 137 563 Z M98 563 Q96 559 92 558 Q88 557 85 559 Q76 563 80 572 Q84 581 87.5 591 Q91 601 94 610 Q96 613 100 614.5 Q104 616 107 615 Q115 611 112 602 Q109 592 105 583 Q101 574 98 563 Z " />
<glyph glyph-name="numbersign" unicode="&#x23;" horiz-adv-x="246" d="M209 184 Q219 184 219 174 Q219 166 209 164 Q200 163 191 162.5 Q182 162 172 160 Q166 140 159.5 120 Q153 100 146 80 Q143 71 134 73 Q125 76 127 85 Q134 103 139.5 121 Q145 139 151 157 Q137 155 122.5 153 Q108 151 94 149 Q77 107 64 67 Q63 62 59.5 61 Q56 60 52.5 60.5 Q49 61 46.5 64 Q44 67 46 72 Q51 92 58 110.5 Q65 129 72 147 Q63 147 54 146.5 Q45 146 36 146 Q27 146 27 156 Q27 166 36 166 Q47 166 58 166 Q69 166 80 168 Q87 182 91 194 Q81 194 76 195 Q67 195 67 204 Q67 208 69.5 211.5 Q72 215 76 214 Q82 213 87.5 213 Q93 213 99 213 Q105 230 111 246 Q117 262 122 279 Q125 288 134 285.5 Q143 283 141 274 Q131 242 120 215 Q134 216 147 218.5 Q160 221 174 224 Q179 238 185 251 Q191 264 197 277 Q199 281 203 282 Q207 283 210 281 Q213 279 214.5 275.5 Q216 272 214 268 Q209 258 205 248.5 Q201 239 197 229 Q200 229 206 231 Q216 233 218.5 223.5 Q221 214 212 212 Q206 210 200 209.5 Q194 209 189 207 Q186 200 183.5 193.5 Q181 187 179 180 Q187 182 194 182.5 Q201 183 209 184 Z M102 170 Q116 172 130 173.5 Q144 175 158 177 Q160 184 162 190 Q164 196 166 202 Q152 200 139 198 Q126 196 112 194 Q110 188 107.5 182 Q105 176 102 170 Z " />
<glyph glyph-name="dollar" unicode="&#x24;" horiz-adv-x="220" d="M246 652 Q238 628 229 603.5 Q220 579 212 554 Q204 532 197 510.5 Q190 489 183 467 Q195 463 207 456.5 Q219 450 228 441.5 Q237 433 241.5 421.5 Q246 410 243 396 Q241 386 232 389 Q223 392 225 401 Q227 413 219 424 Q207 436 192 443 Q188 445 184.5 446 Q181 447 176 449 Q157 393 138.5 338.5 Q120 284 102 228 Q120 201 135 171 Q140 161 143 151.5 Q146 142 150 132 Q156 114 159 96 Q160 86 159 76 Q158 66 154 57 Q147 37 130 20 Q118 9 103.5 0 Q89 -9 72 -11 Q45 -16 22 -5 Q5 -55 -11.5 -104 Q-28 -153 -45 -203 Q-48 -211 -57.5 -208.5 Q-67 -206 -64 -197 Q-56 -173 -47.5 -148.5 Q-39 -124 -30 -99 Q-22 -73 -13 -47 Q-4 -21 5 5 Q-13 18 -20 38 Q-22 42 -19.5 45.5 Q-17 49 -13 50 Q-5 53 -1 43 L-1 42 Q0 41 0 40 Q1 39 1 38.5 Q1 38 2 37 Q3 35 5 33 Q5 30 6 30 Q10 26 12 25 Q29 76 46 125.5 Q63 175 80 226 Q67 246 54.5 266 Q42 286 31 308 Q21 328 13.5 348.5 Q6 369 6 391 Q6 402 8.5 412.5 Q11 423 16 432 Q30 454 52 463 Q78 475 107 476.5 Q136 478 164 472 L227 658 Q230 666 239.5 663.5 Q249 661 246 652 Z M108 180 Q104 187 100.5 193 Q97 199 94 205 Q91 197 88.5 190 Q86 183 84 176 Q70 135 56 94.5 Q42 54 28 13 Q37 9 48 7 L52 7 L57 7 L66 7 Q73 8 84 12 Q94 16 103 22.5 Q112 29 120 37 Q127 45 132 53.5 Q137 62 139 73 Q141 81 140 90 Q139 99 137 108 Q132 127 125 145 Q118 163 108 180 Z M98 279 Q113 323 128 366.5 Q143 410 158 454 Q148 456 138.5 457 Q129 458 119 457 Q105 457 89 454.5 Q73 452 61 446 Q53 442 50 440 Q49 439 48.5 439 Q48 439 47 438 L46 437 Q44 435 42 434 Q41 433 40.5 432 Q40 431 38 430 Q38 429 37.5 429 Q37 429 37 428 L36 427 Q34 425 33.5 423 Q33 421 31 419 Q31 418 30 417 L30 416 Q29 414 29 413.5 Q29 413 28 411 Q28 408 26 402 L26 401 L26 398 L26 393 L26 384 Q26 380 27 379 L27 377 L27 375 Q29 367 29 365 Q31 360 32.5 354.5 Q34 349 36 344 Q36 343 38 339 Q38 338 38.5 337.5 Q39 337 39 336 L39 335 Q41 332 43 326 Q45 322 47.5 318 Q50 314 52 309 Q60 293 69 278.5 Q78 264 88 249 Q90 257 93 264 Q96 271 98 279 Z " />
<glyph glyph-name="percent" unicode="&#x25;" horiz-adv-x="292" d="M148 321 Q143 316 137.5 318.5 Q132 321 131 327 Q131 333 132 339 Q133 345 137 350 Q140 355 143 358.5 Q146 362 149 366 Q156 373 163 369 Q166 367 167 363 Q168 359 166 356 Q166 352 165 350 Q163 346 162 342.5 Q161 339 159 335 Q154 324 148 321 Z M286 403 Q293 410 299.5 403 Q306 396 300 389 Q262 352 228 313 Q194 274 162 232 Q107 160 56 87 Q5 14 -47 -60 Q-52 -69 -61 -64 Q-69 -58 -64 -51 Q-33 -6 -3 37.5 Q27 81 59 125 Q111 198 166.5 268.5 Q222 339 286 403 Z M128 60 Q136 63 140 53 Q145 39 145.5 22.5 Q146 6 143 -8 Q139 -23 130 -36.5 Q121 -50 105 -52 Q95 -54 93 -45 Q88 -22 97 -1 Q106 20 116 40 Q118 45 123 45 Q122 46 122 46.5 Q122 47 121 48 Q119 52 121.5 55.5 Q124 59 128 60 Z M125 0 Q126 5 126 9 Q126 13 126 18 Q121 7 116.5 -4.5 Q112 -16 111 -28 Q113 -27 114 -25.5 Q115 -24 116 -23 Q120 -18 121.5 -12.5 Q123 -7 125 0 Z " />
<glyph glyph-name="ampersand" unicode="&#x26;" horiz-adv-x="302" d="M276 512 Q282 504 281.5 493 Q281 482 278 472 Q271 449 259 428 Q247 407 234 387 Q212 352 188.5 320 Q165 288 139 256 Q144 235 148 214 Q152 193 158 173 L161 164 Q169 173 177.5 182 Q186 191 194 201 Q197 204 201.5 203.5 Q206 203 208 201 Q214 195 208 187 Q198 177 189.5 167 Q181 157 171 147 Q169 145 168 143 Q181 108 194 73 Q207 38 206 -2 Q205 -7 202 -9 Q199 -11 195 -11 Q191 -11 188.5 -9 Q186 -7 186 -2 Q188 30 179 56 Q174 75 167 92 Q160 109 153 127 Q129 100 103 74 Q86 57 68.5 39.5 Q51 22 31 7 Q23 -1 13 -7.5 Q3 -14 -7 -18 Q-18 -22 -27 -18 Q-36 -14 -36 -1 Q-36 9 -32.5 19.5 Q-29 30 -24 39 Q-19 50 -13.5 60.5 Q-8 71 -3 82 Q22 125 50 165.5 Q78 206 107 245 Q110 249 113 252.5 Q116 256 118 259 Q116 264 115.5 269 Q115 274 114 279 Q107 299 104 325 Q99 348 99.5 370.5 Q100 393 108 416 Q124 458 158 485 Q176 499 197 509.5 Q218 520 241 522 Q250 524 259.5 522 Q269 520 276 512 Z M124 234 L124 235 Q122 233 121 231 Q120 229 118 227 Q103 207 88.5 187.5 Q74 168 60 147 Q46 127 34 106 Q22 85 10 63 Q4 52 -1 42 Q-6 32 -11 21 Q-13 16 -15 11.5 Q-17 7 -17 2 L-17 -1 Q-17 -1 -15 0 Q-5 2 4 9 Q13 16 21 23 Q30 31 39.5 39.5 Q49 48 57 56 Q81 78 102.5 101 Q124 124 146 147 Q138 168 133.5 189.5 Q129 211 124 234 Z M247 447 Q252 457 256.5 467 Q261 477 261 488 Q262 496 259 500 Q256 504 247 504 Q226 503 205 491 Q186 483 169 470 Q152 457 141 440 Q128 421 123 399.5 Q118 378 120 356 Q121 336 125 317.5 Q129 299 134 280 Q157 310 180 341 Q203 372 223 405 Q230 416 236 426 Q242 436 247 447 Z " />
<glyph glyph-name="quotesingle" unicode="&#x27;" horiz-adv-x="144" d="M121 563 Q119 559 115 558 Q111 557 108 559 Q99 563 103 572 Q107 581 110.5 591 Q114 601 117 610 Q119 613 123 614.5 Q127 616 130 615 Q138 611 135 602 Q132 592 128 583 Q124 574 121 563 Z " />
<glyph glyph-name="parenleft" unicode="&#x28;" horiz-adv-x="142" d="M361 672 Q368 679 375 672.5 Q382 666 375 659 Q334 618 298 574 Q262 530 230 482 Q132 339 66 178 Q55 153 47 129 Q39 105 33 79 Q26 53 21.5 26.5 Q17 0 15 -27 Q12 -53 15 -80 Q15 -84 16 -86 Q16 -89 15.5 -87.5 Q15 -86 16 -88 L16 -91 Q17 -93 17 -96 Q17 -99 18 -102 Q20 -107 21.5 -113 Q23 -119 25 -124 Q25 -124 26 -125 Q26 -127 27 -128 Q27 -130 29 -132 Q31 -134 31.5 -136.5 Q32 -139 34 -141 Q37 -145 40 -148 Q42 -150 43.5 -151.5 Q45 -153 47 -155 L49 -157 L50 -157 Q51 -158 52 -158.5 Q53 -159 54 -160 Q60 -164 63 -165 Q64 -165 65 -166 Q66 -166 67 -167 Q69 -167 70 -167.5 Q71 -168 72 -168 L84 -171 Q94 -173 90 -183 Q88 -191 78 -189 Q43 -184 20 -155 Q9 -141 4 -124.5 Q-1 -108 -3 -91 Q-7 -64 -5.5 -36.5 Q-4 -9 0 18 Q9 68 24 119 Q34 151 46.5 182 Q59 213 73 243 Q108 321 153 398 Q198 473 249 542 Q300 611 361 672 Z " />
<glyph glyph-name="parenright" unicode="&#x29;" horiz-adv-x="206" d="M140 660 Q139 665 142 667.5 Q145 670 149 670 Q159 670 159 660 Q168 564 168 465 Q168 405 163 345 Q158 285 145 225 Q132 165 110.5 107 Q89 49 55 -3 Q-17 -116 -133 -180 Q-137 -182 -140.5 -181 Q-144 -180 -146 -177 Q-148 -174 -147.5 -170 Q-147 -166 -143 -164 Q-94 -136 -51.5 -99 Q-9 -62 23 -16 Q59 35 83 90.5 Q107 146 121 206 Q135 265 141 324.5 Q147 384 149 444 Q150 499 147.5 552.5 Q145 606 140 660 Z " />
<glyph glyph-name="asterisk" unicode="&#x2a;" horiz-adv-x="154" d="M233 576 Q236 571 230 565 Q215 555 199.5 545 Q184 535 169 526 Q172 526 175 526.5 Q178 527 181 527 Q189 527 189 519 Q189 511 181 510 Q172 509 163 509 Q154 509 144 508 Q148 497 151 487.5 Q154 478 158 469 Q160 465 157.5 462 Q155 459 153 459 Q145 456 143 464 Q136 477 134 488 Q132 484 128 474 Q126 465 119 469 Q116 469 113.5 472 Q111 475 113 479 Q115 483 116.5 486.5 Q118 490 120 495 Q116 493 115 493 Q99 483 89 469 Q84 463 77 467 Q70 471 75 478 Q86 495 104 504 Q100 504 98 503 Q95 503 92.5 506 Q90 509 90 512 Q90 518 98 520 Q104 521 110.5 521.5 Q117 522 124 523 Q121 534 119.5 544 Q118 554 116 565 Q114 573 122 575 Q124 576 127.5 574.5 Q131 573 131 570 L137 540 Q141 551 144.5 561.5 Q148 572 151 583 Q153 591 160.5 588.5 Q168 586 166 578 Q164 567 160 556 Q156 545 152 534 Q169 545 187 556 Q205 567 222 579 Q230 583 233 576 Z " />
<glyph glyph-name="plus" unicode="&#x2b;" horiz-adv-x="320" d="M290 204 Q291 200 289 196 Q287 192 283 192 Q252 187 221.5 182.5 Q191 178 160 175 Q150 150 141.5 126 Q133 102 126 76 Q125 71 121.5 70 Q118 69 114.5 69.5 Q111 70 108.5 73 Q106 76 108 81 Q114 105 122 127.5 Q130 150 138 173 Q118 172 97.5 172.5 Q77 173 57 176 Q48 178 50 188 Q53 197 62 195 Q102 189 146 194 Q157 220 166 246.5 Q175 273 183 301 Q184 305 187.5 306.5 Q191 308 194.5 307 Q198 306 200 303 Q202 300 201 295 Q194 269 185.5 244.5 Q177 220 168 196 L169 196 Q196 199 223 202.5 Q250 206 278 210 Q287 212 290 204 Z " />
<glyph glyph-name="comma" unicode="&#x2c;" horiz-adv-x="70" d="M40 104 Q44 103 46.5 99.5 Q49 96 47 92 L41 74 Q39 65 29 67 Q20 69 22 79 L28 97 Q31 106 40 104 Z " />
<glyph glyph-name="hyphen" unicode="&#x2d;" horiz-adv-x="220" d="M168 205 Q178 205 178 195.5 Q178 186 168 186 L59 186 Q49 186 49 195.5 Q49 205 59 205 L168 205 L168 205 Z " />
<glyph glyph-name="period" unicode="&#x2e;" horiz-adv-x="76" d="M24 105 Q34 105 34 95 Q34 85 24 85 Q14 85 14 95 Q14 105 24 105 Z " />
<glyph glyph-name="slash" unicode="&#x2f;" horiz-adv-x="223" d="M331 706 Q333 711 337 712 Q341 713 344.5 710.5 Q348 708 349.5 703.5 Q351 699 349 694 Q321 631 290 564 Q242 463 192 365.5 Q142 268 91 169 Q40 70 -9 -28 Q-58 -126 -103 -229 Q-105 -234 -109 -235 Q-113 -236 -116 -233.5 Q-119 -231 -120.5 -226.5 Q-122 -222 -120 -217 Q-106 -184 -91 -151.5 Q-76 -119 -61 -87 Q-13 14 37.5 112 Q88 210 139 309 Q190 407 238 505 Q286 603 331 706 Z " />
<glyph glyph-name="zero" unicode="0" horiz-adv-x="336" d="M319 451 Q331 390 323 327.5 Q315 265 291 208 Q277 177 259 148.5 Q241 120 215 97 Q202 85 188 75 Q174 65 158 57 Q144 51 129 47 Q114 43 98 45 Q70 48 52 66 Q32 87 26 115 Q18 148 22 182.5 Q26 217 36 249 Q47 286 64 320.5 Q81 355 102 387 Q122 417 146.5 444 Q171 471 200 493 Q203 496 207 494.5 Q211 493 213 490 Q217 483 210 477 Q173 449 144 412 Q96 350 68 281 Q55 249 47 215.5 Q39 182 41 147 Q42 133 45 119 Q48 105 55 94 Q61 84 70 76 Q73 74 78 71 Q83 68 87 67 Q91 65 94 65 Q96 65 97 64 L98 64 L110 64 Q117 64 124 66 Q131 68 138 70 Q154 75 168 84 Q182 93 195 104 Q220 126 238.5 153.5 Q257 181 271 212 Q285 242 293 274.5 Q301 307 305 340 Q307 356 307 371 Q307 386 306 402 Q305 408 304.5 414 Q304 420 303 425 L303 429 L303 430 Q303 432 302.5 432.5 Q302 433 302 435 Q301 438 301 441 Q301 444 300 447 Q298 453 296.5 459 Q295 465 293 471 Q292 474 291 476 Q290 478 289.5 478.5 Q289 479 288 481 Q288 482 286 486 L284 488 L284 489 Q282 490 281.5 491 Q281 492 280 493 Q279 493 279 494 Q278 494 277 495 Q276 496 275 496 L274 496 Q273 497 270 497 L269 497 Q267 499 267 497 L265 497 L263 497 Q258 496 253 492 Q249 490 245.5 491.5 Q242 493 240 496 Q238 499 238.5 503 Q239 507 243 509 Q257 517 271 516.5 Q285 516 296 504 Q306 493 311 479 Q316 465 319 451 Z " />
<glyph glyph-name="one" unicode="1" horiz-adv-x="176" d="M179 541 Q185 546 191 542.5 Q197 539 196 531 Q193 512 187 494 Q181 476 175 458 Q168 440 162 421.5 Q156 403 149 385 Q132 339 115 293.5 Q98 248 81 201 Q73 178 64.5 155 Q56 132 48 109 Q44 98 40.5 86 Q37 74 34 63 Q32 52 29.5 42 Q27 32 24 21 Q30 22 36 22.5 Q42 23 48 25 Q57 25 60 18 Q61 14 59 10 Q57 6 53 6 Q34 3 16 0 Q-2 -3 -21 -1 Q-31 1 -31 9 Q-31 13 -28.5 16.5 Q-26 20 -21 19 Q-9 18 4 19 Q9 39 13.5 59.5 Q18 80 25 100 Q31 119 37.5 137.5 Q44 156 51 175 Q68 222 85 267.5 Q102 313 119 359 Q127 382 135 404.5 Q143 427 151 450 Q156 464 161 478 Q166 492 170 506 L149 485 Q146 482 142.5 482.5 Q139 483 136 485.5 Q133 488 132.5 492 Q132 496 135 499 Q146 510 157 520.5 Q168 531 179 541 Z " />
<glyph glyph-name="two" unicode="2" horiz-adv-x="290" d="M296 481 Q301 467 302.5 451 Q304 435 303 420 Q302 390 292 360 Q285 343 276 327 Q267 311 256 297 Q232 263 203 232 Q174 201 142 173 Q110 145 78 118 Q64 107 50 94.5 Q36 82 25 67 Q10 48 -3 22 Q55 24 112 28.5 Q169 33 226 42 Q236 44 238 36 Q240 32 238 28 Q236 24 232 24 Q169 13 107 8.5 Q45 4 -18 2 Q-22 2 -25.5 5.5 Q-29 9 -27 14 Q-25 19 -23 23.5 Q-21 28 -19 33 Q-5 63 19 90 Q32 104 46.5 116.5 Q61 129 75 142 Q108 169 139.5 197 Q171 225 199 257 Q213 272 225.5 288 Q238 304 249 321 Q254 329 258.5 337 Q263 345 268 354 Q270 358 270.5 360 Q271 362 273 367 Q274 370 275 373 Q276 376 277 379 Q284 407 284 439 Q283 453 280.5 466 Q278 479 270 490 L268 492 Q267 493 267 493.5 Q267 494 266 495 Q265 495 264 496 L263 497 Q260 499 257.5 500.5 Q255 502 253 503 Q250 503 246 505 L243 505 L241 505 L236 505 L233 505 L231 505 Q217 503 206 496.5 Q195 490 185 482 Q161 462 147 437 Q140 426 135 415.5 Q130 405 128 393 Q126 384 116 386 Q107 389 109 398 Q112 415 122 432 Q135 459 156 481 Q167 492 178.5 501.5 Q190 511 204 517 Q217 522 230.5 524 Q244 526 258 521 Q285 511 296 481 Z " />
<glyph glyph-name="three" unicode="3" horiz-adv-x="362" d="M327 244 Q334 210 322.5 177.5 Q311 145 292 118 Q271 89 245 64 Q219 39 188 21 Q172 12 156 5.5 Q140 -1 123 -4 Q108 -7 91.5 -7.5 Q75 -8 60 -3 Q34 7 21.5 30 Q9 53 4 79 Q0 105 0.5 130.5 Q1 156 4 182 Q4 191 14 191 Q17 191 20.5 188.5 Q24 186 23 182 Q21 159 20 135 Q19 111 22 90 Q23 84 24 78 Q25 72 27 66 Q29 58 31 54 Q32 50 35 46 Q36 41 41 36 Q41 35 42 34 L43 33 Q44 31 46 29 Q53 22 62 18 Q64 17 67.5 16 Q71 15 73 14 Q77 13 79 13 Q81 13 85 12 Q93 12 100.5 12 Q108 12 116 14 Q133 17 149 23.5 Q165 30 179 38 Q239 75 279 133 Q296 158 306 189.5 Q316 221 305 251 Q300 264 291.5 275 Q283 286 273 297 Q260 309 247 320 Q234 331 221 343 Q218 345 218.5 349.5 Q219 354 221 356 Q241 378 260.5 400 Q280 422 294 448 L300 460 Q300 460 301 462 L301 463 L302 463 Q302 465 302.5 466 Q303 467 303 468 Q306 474 306 479 Q306 479 307 480 L307 481 L307 486 L307 488 Q306 490 306 492 L305 492 L305 494 Q304 495 304 496 L303 496 Q301 498 297.5 500.5 Q294 503 290 503 Q277 503 267 497 Q260 492 254 487.5 Q248 483 243 477 Q233 467 225 456 Q217 445 209 434 Q203 427 195 430 Q192 432 191 436.5 Q190 441 192 444 Q205 462 219 480 Q233 498 253 511 Q263 517 274 520.5 Q285 524 296 522 Q304 520 311.5 515 Q319 510 322 502 Q327 492 326 481.5 Q325 471 321 461 Q316 448 310 437 Q304 426 296 415 Q284 398 270 382 Q256 366 242 350 Q244 348 246.5 346 Q249 344 251 342 Q274 322 297.5 299 Q321 276 327 244 Z " />
<glyph glyph-name="four" unicode="4" horiz-adv-x="246" d="M301 532 Q303 536 306.5 537 Q310 538 313 536 Q316 534 318 530 Q320 526 318 522 Q293 471 273 419.5 Q253 368 235 314 Q219 269 204 225 Q189 181 173 136 Q156 89 140.5 43.5 Q125 -2 113 -50 Q112 -55 108.5 -56 Q105 -57 101.5 -56.5 Q98 -56 95.5 -53 Q93 -50 94 -45 Q108 9 126 60 Q144 111 162 163 Q153 156 144.5 150 Q136 144 126 139 Q116 133 102.5 126.5 Q89 120 75.5 117 Q62 114 49 117 Q36 120 27 133 Q17 146 18.5 164 Q20 182 24 196 Q30 219 39 241 Q48 263 59 285 Q72 310 86 333.5 Q100 357 115 380 Q129 402 143 423 Q157 444 173 464 Q183 477 193.5 490 Q204 503 216 514 Q220 517 224 516.5 Q228 516 230.5 513.5 Q233 511 233.5 507 Q234 503 230 500 Q222 494 215 485 Q209 478 203 471.5 Q197 465 192 457 Q192 456 191 455 L189 453 Q188 452 187.5 451 Q187 450 186 449 Q184 447 182.5 444.5 Q181 442 179 440 Q175 435 172 430 Q169 425 165 420 Q134 377 106 329 L79 281 Q76 275 73 269 Q70 263 68 257 L62 245 Q60 241 60 240 Q59 239 59 237 Q58 237 58 236 Q49 215 43 194 Q42 189 41 185 Q40 181 40 176 L39 175 L39 173 L39 169 L39 162 L39 158 L39 155 Q39 153 39.5 152.5 Q40 152 40 150 Q40 149 40.5 148.5 Q41 148 41 147 L42 146 Q42 146 43 144 Q43 144 44 143 Q46 140 49 138 Q50 138 51 137 L53 137 Q54 136 58 136 Q58 135 60 135 L62 135 Q66 135 68 136 L69 136 L70 136 L73 136 Q75 137 76 137 Q77 137 79 138 Q105 146 127.5 162 Q150 178 172 195 L173 195 Q202 281 231.5 366 Q261 451 301 532 Z " />
<glyph glyph-name="five" unicode="5" horiz-adv-x="216" d="M277 521 Q287 521 287 511.5 Q287 502 277 501 Q249 500 222 496 Q195 492 168 489 Q148 439 130.5 389.5 Q113 340 95 289 Q103 297 110.5 302.5 Q118 308 128 310 Q140 313 150.5 308.5 Q161 304 166 293 Q171 282 172.5 269.5 Q174 257 174 244 Q173 215 168.5 186.5 Q164 158 153 132 Q123 61 58 16 Q32 -3 2 -17 Q-9 -23 -25 -27.5 Q-41 -32 -52 -21 Q-58 -14 -51.5 -7 Q-45 0 -38 -7 L-37 -8 L-36 -8 L-35 -8 Q-32 -8 -32 -8 L-30 -8 L-27 -8 Q-25 -7 -23 -6.5 Q-21 -6 -19 -5 Q-11 -3 -3.5 1 Q4 5 12 10 Q43 27 70 50 Q97 73 117 105 Q126 119 133 134.5 Q140 150 145 167 Q148 181 149.5 193 Q151 205 153 219 Q154 231 154.5 243.5 Q155 256 153 269 L153 271 Q153 272 152.5 272.5 Q152 273 152 274 Q152 276 151.5 276.5 Q151 277 151 279 Q151 280 150.5 281 Q150 282 150 283 L148 286 Q148 287 147.5 287 Q147 287 147 288 Q147 288 146 289 L145 290 Q144 291 143 291 Q142 292 140.5 292 Q139 292 140 292 L138 292 L136 292 Q135 292 134 291.5 Q133 291 131 291 Q129 290 127.5 289.5 Q126 289 123 287 Q117 283 111.5 277.5 Q106 272 101 267 Q92 256 84 245 Q76 234 70 221 Q67 213 58.5 217 Q50 221 53 229 Q78 297 101.5 365 Q125 433 152 501 Q155 508 161 508 Q190 511 219 515 Q248 519 277 521 Z " />
<glyph glyph-name="six" unicode="6" horiz-adv-x="272" d="M309 506 Q312 504 312 499.5 Q312 495 309 493 Q302 486 298 483 Q235 430 174.5 372 Q114 314 72 242 Q72 241 71 240 Q104 246 134 236 Q163 225 182.5 200.5 Q202 176 207 145 Q209 131 209 117 Q209 103 204 90 Q200 80 195 70.5 Q190 61 185 52 Q171 30 153 10 Q135 -10 112 -23 Q92 -36 70 -35 Q56 -33 46.5 -25 Q37 -17 29 -6 Q7 24 4.5 61.5 Q2 99 9 134 Q17 169 31 202.5 Q45 236 65 267 Q109 337 170.5 395 Q232 453 295 506 Q302 513 309 506 Z M64 219 Q62 217 60 219 Q47 193 38 166.5 Q29 140 25 111 Q23 94 23 76.5 Q23 59 28 42 Q33 23 41 11 Q43 7 45.5 3.5 Q48 0 50 -2 Q51 -4 52 -4.5 Q53 -5 54 -6 L57 -9 Q58 -10 62 -12 Q62 -12 64 -13 Q66 -14 66.5 -14 Q67 -14 69 -15 L71 -15 L77 -15 L80 -15 Q83 -15 89 -13 Q98 -10 107 -4 Q116 2 126 11 Q143 28 157.5 47 Q172 66 183 89 L183 90 Q183 91 183.5 91 Q184 91 184 92 Q184 93 184.5 93.5 Q185 94 185 96 Q187 100 187 102 Q190 117 189 130 Q187 161 172 183 Q156 206 129 217 Q99 227 64 219 Z " />
<glyph glyph-name="seven" unicode="7" horiz-adv-x="284" d="M343 528 Q348 528 351 524 Q354 520 352 515 Q339 482 322.5 451 Q306 420 287 389 Q267 357 245.5 326.5 Q224 296 203 265 L197 256 Q217 258 236.5 260 Q256 262 276 264 Q280 265 283 261.5 Q286 258 286 255 Q286 245 276 245 Q253 242 229.5 239.5 Q206 237 183 235 Q161 203 140 171.5 Q119 140 97 108 Q71 68 45.5 27.5 Q20 -13 -3 -55 Q-5 -59 -9 -59.5 Q-13 -60 -16 -58 Q-19 -56 -20.5 -52.5 Q-22 -49 -20 -45 Q19 26 64 92.5 Q109 159 154 227 Q155 228 155.5 229 Q156 230 157 231 Q139 229 121 226 Q103 223 85 218 Q80 217 77 219.5 Q74 222 73.5 225.5 Q73 229 74 232.5 Q75 236 80 237 Q103 242 126 246 Q149 250 172 253 Q192 283 213 313 Q234 343 254 374 Q274 406 293.5 439 Q313 472 328 507 Q274 502 219.5 497 Q165 492 110 487 Q101 487 101 497 Q101 505 110 507 Q229 516 343 528 Z " />
<glyph glyph-name="eight" unicode="8" horiz-adv-x="288" d="M341 487 Q351 475 351.5 460 Q352 445 347 431 Q339 411 327 392.5 Q315 374 302 357 Q277 322 250 289.5 Q223 257 195 225 Q198 218 201 211.5 Q204 205 207 197 Q214 178 215.5 157.5 Q217 137 211 117 Q206 99 195.5 82.5 Q185 66 173 52 Q163 40 150.5 28 Q138 16 124 6.5 Q110 -3 94 -7.5 Q78 -12 61 -8 Q47 -5 35 4 Q23 13 17 26 Q12 37 11 49.5 Q10 62 12 74 Q17 103 31.5 129 Q46 155 62 179 Q76 201 91.5 222 Q107 243 120 266 Q122 270 126 270.5 Q130 271 133 269 Q136 267 137.5 263.5 Q139 260 137 256 Q129 242 120 229.5 Q111 217 103 204 Q86 180 69 155 Q52 130 41 102 Q36 91 33 79 Q30 67 30 56 L30 50 L30 48 Q30 48 31 46 Q31 43 33 37 Q33 37 34 35 Q35 35 35 33 Q36 32 36.5 31 Q37 30 38 29 Q38 29 39 27 Q40 27 40 26 Q42 25 42.5 24 Q43 23 44 22 Q55 12 68 10.5 Q81 9 95 14 Q110 20 123 30 Q136 40 147 51 Q158 64 168 77.5 Q178 91 186 106 Q204 143 191 183 Q186 198 179 213 Q174 213 171.5 217.5 Q169 222 171 227 Q167 234 163.5 240.5 Q160 247 156 253 Q145 270 135.5 285.5 Q126 301 118 318 Q108 336 101.5 355.5 Q95 375 93 395 Q91 415 96 434.5 Q101 454 113 470 Q133 496 164.5 507 Q196 518 228 519 Q244 520 259 518 Q274 516 290 513 Q304 510 318 504 Q332 498 341 487 Z M332 454 Q333 461 331 466 L331 467 Q330 468 330 469 Q329 470 329 470.5 Q329 471 328 472 L327 473 Q319 482 308 486 Q296 492 281 494.5 Q266 497 252 499 Q223 501 192 495.5 Q161 490 139 470 Q126 458 119.5 441.5 Q113 425 112 407 Q111 388 117 369.5 Q123 351 132 334 Q140 317 149.5 301 Q159 285 169 268 Q173 262 177 256 Q181 250 185 243 Q200 261 215.5 278.5 Q231 296 246 315 Q260 332 273.5 350 Q287 368 299 387 Q310 404 322 424 Q326 432 329 439.5 Q332 447 332 454 Z " />
<glyph glyph-name="nine" unicode="9" horiz-adv-x="268" d="M298 521 Q302 520 303.5 516.5 Q305 513 304.5 509.5 Q304 506 300.5 503.5 Q297 501 293 502 Q292 502 291.5 502.5 Q291 503 289 503 L288 503 L281 503 L278 503 Q278 502 277 502 L275 502 Q273 502 271.5 501.5 Q270 501 268 501 Q264 499 263 499 Q262 498 260 498 L259 497 Q257 496 254.5 495 Q252 494 250 493 Q245 490 240 486.5 Q235 483 230 480 Q222 473 212 464 Q202 455 194 446 Q186 437 180 428 Q174 419 167 408 Q165 403 162 398 Q162 396 160 394 L160 392 Q160 392 159 391 Q158 389 156 383 Q156 380 155 379 L155 376 L155 371 Q155 370 156 369 Q156 368 157 368 L158 368 Q158 368 159 367 L160 367 L160 368 L162 368 Q163 369 163.5 369 Q164 369 165 370 Q166 370 168 372 L169 373 Q170 374 170.5 374 Q171 374 172 375 L181 384 Q198 402 212.5 423.5 Q227 445 242 465 Q242 467 244 467 Q247 475 255 473 Q264 470 262 461 Q253 400 238 342 Q227 300 213.5 259.5 Q200 219 183 179 Q165 138 144 101 Q136 86 126.5 71.5 Q117 57 105 43 Q86 21 63 5 Q53 -2 42.5 -6.5 Q32 -11 20 -12 Q9 -13 0 -9 Q-9 -5 -14 4 Q-22 16 -23 30.5 Q-24 45 -23 58 Q-21 68 -13 68 Q-3 68 -3 58 Q-4 50 -4.5 42 Q-5 34 -3 27 Q-2 25 -2 24 Q-2 23 -1 21 Q-1 20 0 19 L0 18 Q1 16 1.5 15.5 Q2 15 3 13 L4 12 L6 10 Q7 9 9 9 Q9 8 10 8 L11 8 Q12 7 13 7 L14 7 L18 7 L21 7 Q27 9 30 9 Q35 11 39 13 Q43 15 48 19 Q54 22 58.5 25.5 Q63 29 68 33 Q94 56 112 85.5 Q130 115 146 146 Q178 212 200 281 Q222 350 236 422 Q231 416 226.5 409.5 Q222 403 217 397 Q209 386 200 375 Q191 364 180 356 Q172 351 163 348.5 Q154 346 146 352 Q138 358 136.5 366 Q135 374 136.5 383 Q138 392 142 401 Q146 410 150 416 Q174 460 214 492 Q231 506 253 516.5 Q275 527 298 521 Z M159 367 Q157 368 157.5 368 Q158 368 159 367 Z " />
<glyph glyph-name="colon" unicode="&#x3a;" horiz-adv-x="130" d="M95 237 Q97 232 97 226.5 Q97 221 94 216 Q92 211 88 210 Q85 208 81 208 L77 208 Q71 210 69 213 Q64 216 64 223 Q64 229 67 234 Q69 235 69.5 236 Q70 237 72 239 Q74 240 75 241 Q76 242 78 243 Q82 246 87 244 Q93 242 95 237 Z M60 153 Q66 145 66 139 Q66 131 60 127 Q58 125 56 124 Q54 123 52 121 L47 121 Q44 120 40 122 Q37 124 35 127 Q34 129 34 132 L34 136 Q34 139 36 141 Q37 143 37.5 143.5 Q38 144 39 146 Q41 148 43 149 Q43 150 44 150 Q44 151 46 153 Q52 159 60 153 Z " />
<glyph glyph-name="semicolon" unicode="&#x3b;" horiz-adv-x="124" d="M82 243 Q88 245 92 241 Q96 237 94 231 Q92 221 83.5 214 Q75 207 64 209 Q59 210 55.5 214 Q52 218 53 223 Q54 233 65 242 Q72 248 78 242 Q80 243 82 243 Z M50 155 Q56 160 62.5 155.5 Q69 151 66 144 Q68 142 66 139 Q57 116 42 97 Q40 94 35.5 94.5 Q31 95 28 97 Q22 103 28 111 Q37 122 41 131 Q37 137 40 142 Q42 146 45 149 Q48 152 50 155 Z " />
<glyph glyph-name="less" unicode="&#x3c;" horiz-adv-x="304" d="M297 305 Q299 302 298 298 Q297 294 293 292 Q277 284 260.5 278 Q244 272 227 265 L164 238 Q138 227 111.5 216.5 Q85 206 57 199 Q65 192 72.5 185 Q80 178 88 171 Q101 160 112.5 148 Q124 136 136 125 Q156 106 177.5 89 Q199 72 210 47 Q213 38 206 34 Q203 32 199 33 Q195 34 193 37 Q182 61 161 77.5 Q140 94 122 112 Q110 123 98.5 134.5 Q87 146 74 157 Q63 168 52 178 Q41 188 28 196 Q23 199 23.5 205.5 Q24 212 30 214 Q63 219 95 230.5 Q127 242 157 256 Q174 263 189.5 270 Q205 277 221 284 Q237 290 252.5 295.5 Q268 301 284 308 Q292 314 297 305 Z " />
<glyph glyph-name="equal" unicode="&#x3d;" horiz-adv-x="272" d="M79 215 Q70 215 70 225 Q70 232 79 234 Q117 229 156 230.5 Q195 232 234 229 Q243 228 243 219 Q243 210 234 210 Q195 213 156 212 Q117 211 79 215 Z M45 151 Q42 150 39 153.5 Q36 157 36 162 Q36 166 39 168 Q42 170 45 170 Q87 165 128 164 Q169 163 211 165 Q219 165 219 156 Q219 147 211 146 Q169 144 128 145 Q87 146 45 151 Z " />
<glyph glyph-name="greater" unicode="&#x3e;" horiz-adv-x="300" d="M255 207 Q259 205 259.5 199.5 Q260 194 257 191 Q244 180 229 171.5 Q214 163 199 155 Q183 147 167 141 Q151 135 135 127 Q117 118 99.5 108 Q82 98 65 87 Q29 64 -2 38 Q-9 31 -16 38 Q-18 40 -18.5 44.5 Q-19 49 -16 51 Q1 65 18 78 Q35 91 53 103 Q70 114 87.5 124 Q105 134 122 142 Q139 150 155 156.5 Q171 163 188 171 Q199 177 210.5 182.5 Q222 188 232 196 Q190 218 149.5 239.5 Q109 261 71 289 Q64 296 68 303 Q70 306 74 307 Q78 308 81 306 Q122 276 166 253 Q210 230 255 207 Z " />
<glyph glyph-name="question" unicode="&#x3f;" horiz-adv-x="306" d="M337 594 Q353 578 361 557.5 Q369 537 369 514 Q368 485 357 458 Q346 431 331 408 Q296 354 249.5 312 Q203 270 158 226 Q137 206 116 183.5 Q95 161 78 136.5 Q61 112 49.5 85 Q38 58 34 28 Q32 19 24 19 Q20 19 16.5 21.5 Q13 24 14 28 Q18 56 27.5 81.5 Q37 107 51 130 Q84 184 130.5 227 Q177 270 223 314 Q245 335 266 357 Q287 379 305 404 Q322 429 334 454 Q337 460 339.5 466.5 Q342 473 344 480 Q346 486 347 492.5 Q348 499 349 504 Q349 510 349.5 516 Q350 522 349 528 Q349 528 348 529 L348 532 Q348 534 347.5 534.5 Q347 535 347 537 Q345 543 344 547 Q344 548 342 552 L342 553 Q342 553 341 555 Q339 559 336 563 Q334 567 333 568 Q333 568 332 570 L331 571 Q329 573 328 574.5 Q327 576 325 578 L318 585 Q317 586 316.5 586 Q316 586 315 587 L312 589 Q303 596 295 599 Q294 600 293.5 600 Q293 600 292 601 L291 601 Q290 602 289 602 Q288 602 287 603 L278 606 Q275 607 272.5 607 Q270 607 268 608 Q266 608 265 608.5 Q264 609 263 609 L261 609 L260 609 Q255 610 249.5 610 Q244 610 239 610 Q236 610 234 609 L230 609 Q227 609 221 607 Q200 603 184 592 Q179 589 176 587 Q173 585 169 580 Q163 574 161 571 Q158 568 155 564 Q147 553 143 542.5 Q139 532 136 519 Q135 514 131.5 513 Q128 512 124.5 512.5 Q121 513 118.5 516 Q116 519 117 524 Q123 551 138.5 574.5 Q154 598 179 612 Q216 633 261 628.5 Q306 624 337 594 Z M17 -50 Q19 -51 21 -57 Q21 -69 13 -80 Q9 -85 3 -84.5 Q-3 -84 -5 -77 Q-7 -70 -4.5 -63.5 Q-2 -57 1 -51 Q7 -43 15 -48 Q15 -48 17 -50 Z " />
<glyph glyph-name="at" unicode="&#x40;" horiz-adv-x="426" d="M400 318 Q411 298 409 276 Q407 253 399 232 Q391 211 377 193 Q365 178 349.5 164 Q334 150 314 145 Q296 140 281 149 Q271 154 264 168 Q256 163 247 160 Q238 157 230 161 Q219 165 224 175 Q235 194 249 210 Q263 226 282 237 Q290 241 294.5 233 Q299 225 291 220 Q269 207 253 184 Q259 188 261 190 Q266 194 271 192.5 Q276 191 278 186 Q278 184 278.5 183 Q279 182 279 181 L279 180 Q280 180 280 179 Q281 177 281.5 175.5 Q282 174 284 172 Q284 172 285 171 Q286 170 286 169.5 Q286 169 287 168 Q288 168 288 167.5 Q288 167 289 167 L290 166 Q291 165 291.5 165 Q292 165 293 164 L294 164 Q295 163 299 163 L300 163 L303 163 L306 163 L307 163 Q309 164 310.5 164 Q312 164 314 165 Q315 165 316 166 Q318 166 320 168 Q322 169 324 170 Q326 171 328 172 Q330 174 332 175 L334 177 Q338 180 341.5 183 Q345 186 349 190 Q351 192 352.5 194 Q354 196 356 198 Q359 202 361 205 Q369 215 373 224 Q377 230 378 234 L382 242 L388 263 Q388 266 389 268 L389 269 L389 272 Q389 274 389.5 276.5 Q390 279 389 281 L389 287 L389 289 L389 290 Q388 292 388 294.5 Q388 297 387 299 Q386 301 386 302 Q386 303 385 304 L385 305 Q384 306 384 307 Q382 309 381.5 311 Q381 313 379 315 Q378 315 378 316 Q378 316 378 317 Q377 318 376 318 Q375 320 373 322 Q372 323 371.5 324 Q371 325 369 326 Q369 326 367 327 L367 328 L366 328 Q361 332 355 335.5 Q349 339 344 341 Q317 352 288.5 349.5 Q260 347 232 337 Q200 326 170 307.5 Q140 289 115.5 264.5 Q91 240 73 210.5 Q55 181 46 147 Q41 128 40 108.5 Q39 89 43 70 Q52 34 73 2 Q81 -11 91 -23 Q101 -35 115 -44 Q144 -64 176 -55 Q180 -54 183.5 -56.5 Q187 -59 187.5 -62.5 Q188 -66 186.5 -69.5 Q185 -73 181 -74 Q154 -82 128 -73 Q106 -65 87 -46 Q49 -10 32 39 Q17 80 22 122 Q27 164 46 202 Q77 263 134 306 Q160 326 190.5 341 Q221 356 253 363 Q282 370 311.5 368.5 Q341 367 367 351 Q390 338 400 318 Z " />
<glyph glyph-name="bracketleft" unicode="&#x5b;" horiz-adv-x="104" d="M277 675 Q282 674 283.5 670.5 Q285 667 284 663.5 Q283 660 279.5 657.5 Q276 655 272 656 Q256 660 245 650 Q238 644 235 636 Q232 628 229 620 Q222 600 212 577 Q210 572 207.5 566 Q205 560 203 555 Q202 554 202 553 L202 552 Q202 550 201.5 549.5 Q201 549 201 547 Q199 544 197 538 Q195 533 193 528 Q191 523 189 517 Q187 512 185 508 Q183 504 181 499 Q177 487 173 475.5 Q169 464 164 452 L131 359 Q114 313 98 267 Q82 221 66 174 Q49 128 33 82 Q17 36 1 -12 Q-3 -23 -6.5 -34 Q-10 -45 -14 -56 Q-16 -61 -20 -69 Q-21 -71 -21 -72 Q-21 -73 -22 -74 Q-23 -75 -23 -76 L-23 -77 Q-23 -81 -27 -87 Q-28 -90 -29 -93 Q-30 -96 -31 -98 Q-39 -117 -46.5 -135 Q-54 -153 -59 -173 Q-52 -173 -48 -174 Q-44 -174 -41.5 -177 Q-39 -180 -39 -184 Q-39 -188 -41.5 -190.5 Q-44 -193 -48 -193 Q-62 -193 -73 -189 Q-81 -186 -80 -177 Q-75 -154 -66 -131.5 Q-57 -109 -47 -87 Q-46 -84 -45 -81 Q-44 -78 -43 -75 Q-42 -74 -42 -70 Q-40 -66 -39 -65 Q-37 -59 -34.5 -53.5 Q-32 -48 -30 -42 Q-25 -31 -21.5 -19 Q-18 -7 -14 4 Q18 98 50.5 190 Q83 282 116 376 Q124 399 132.5 422.5 Q141 446 150 469 Q154 480 158 492 Q162 504 167 515 Q169 520 170.5 524.5 Q172 529 174 534 Q176 539 178 544 Q180 549 182 554 Q183 555 183 559 L186 565 Q187 567 188 569.5 Q189 572 190 575 Q192 580 194.5 585.5 Q197 591 199 597 Q204 608 208 619 Q212 630 216 642 Q224 661 240.5 670.5 Q257 680 277 675 Z " />
<glyph glyph-name="backslash" unicode="&#x5c;" horiz-adv-x="468" d="M102 702 Q100 711 109 714 Q118 715 121 707 Q139 655 158 603.5 Q177 552 197 501 Q232 410 269.5 321 Q307 232 345 142 Q383 51 422 -37.5 Q461 -126 499 -216 Q504 -224 496 -229 Q493 -231 489 -230.5 Q485 -230 483 -226 Q460 -174 438.5 -123 Q417 -72 394 -20 Q355 70 317 159 Q279 248 242 339 Q204 430 169 519.5 Q134 609 102 702 Z " />
<glyph glyph-name="bracketright" unicode="&#x5d;" horiz-adv-x="94" d="M165 652 Q160 652 157.5 654.5 Q155 657 155 661 Q155 665 157.5 668 Q160 671 165 671 Q172 671 179 671 Q186 671 193 672 Q203 672 203 662 Q200 642 194.5 622.5 Q189 603 181 583 Q173 564 166 545.5 Q159 527 152 508 Q136 463 120 417.5 Q104 372 89 327 Q81 304 74.5 281 Q68 258 60 235 Q52 212 44.5 190 Q37 168 29 146 Q21 123 12.5 101 Q4 79 -3 56 Q-19 9 -30 -35 Q-37 -58 -43 -81 Q-49 -104 -57 -127 Q-62 -138 -65.5 -149.5 Q-69 -161 -74 -172 Q-76 -178 -79.5 -183 Q-83 -188 -90 -189 Q-95 -191 -100.5 -190.5 Q-106 -190 -111 -189 Q-116 -189 -118.5 -186 Q-121 -183 -121 -179 Q-121 -175 -118.5 -172.5 Q-116 -170 -111 -170 Q-106 -170 -101.5 -171 Q-97 -172 -92 -170 Q-92 -170 -96 -172 Q-95 -171 -94.5 -170 Q-94 -169 -93 -168 Q-95 -172 -95 -172 Q-89 -158 -83.5 -143 Q-78 -128 -73 -113 Q-68 -98 -64 -83.5 Q-60 -69 -56 -54 Q-43 -8 -30 37.5 Q-17 83 2 128 Q7 139 10 150 Q13 161 17 172 Q21 183 25 194.5 Q29 206 33 217 Q41 240 48 262.5 Q55 285 63 308 Q70 331 78 353.5 Q86 376 94 399 Q102 422 109.5 444 Q117 466 125 489 Q133 511 141 533 Q149 555 157 576 Q165 597 172.5 618 Q180 639 183 662 L193 652 L165 652 L165 652 Z " />
<glyph glyph-name="asciicircum" unicode="&#x5e;" horiz-adv-x="166" d="M240 656 Q245 660 250.5 655 Q256 650 254 645 Q248 621 237 598.5 Q226 576 221 551 Q219 542 209 544 Q202 547 202 556 Q205 573 212 589 Q219 605 226 621 Q187 593 153 555 Q150 551 146.5 551.5 Q143 552 140 554.5 Q137 557 136.5 561 Q136 565 139 569 Q161 594 187 615 Q213 636 240 656 Z " />
<glyph glyph-name="underscore" unicode="&#x5f;" horiz-adv-x="166" d="M136 121 Q146 121 146 111.5 Q146 102 136 102 L27 102 Q17 102 17 111.5 Q17 121 27 121 L136 121 L136 121 Z " />
<glyph glyph-name="grave" unicode="&#x60;" horiz-adv-x="98" d="M84 567 Q89 561 80.5 557 Q72 553 67 560 Q56 574 44 587.5 Q32 601 21 615 Q19 618 20.5 620.5 Q22 623 25 624.5 Q28 626 32 626 Q36 626 38 623 Q49 608 61 594.5 Q73 581 84 567 Z " />
<glyph glyph-name="braceleft" unicode="&#x7b;" horiz-adv-x="184" d="M372 674 Q376 675 379.5 672.5 Q383 670 384 666 Q385 662 383.5 659 Q382 656 377 655 Q349 649 331 627 Q313 605 299 582 Q282 553 268.5 523 Q255 493 243 462 Q227 417 211 373 Q195 329 172 288 Q161 268 148 250.5 Q135 233 119 216 Q109 205 98 196 Q87 187 76 178 Q87 178 97 177.5 Q107 177 118 177 Q122 177 125.5 174.5 Q129 172 128 168 L128 164 Q126 141 119 119 Q112 97 103 75.5 Q94 54 84.5 33 Q75 12 68 -9 Q60 -30 56 -52.5 Q52 -75 54 -98 Q56 -119 68 -136 Q78 -151 97 -160 Q101 -162 101.5 -166 Q102 -170 100 -173 Q98 -176 94.5 -177.5 Q91 -179 87 -177 Q83 -175 80 -173 Q77 -171 73 -169 Q65 -162 58 -154.5 Q51 -147 46 -138 Q35 -117 34 -94 Q32 -71 36.5 -48.5 Q41 -26 49 -4 Q57 18 66.5 38.5 Q76 59 85 81 Q93 99 99 118.5 Q105 138 108 158 L47 158 Q39 159 38 165.5 Q37 172 42 177 Q68 195 91.5 217 Q115 239 134 265 Q153 291 167.5 320.5 Q182 350 194 381 Q211 426 226.5 470.5 Q242 515 263 558 Q273 577 284 595.5 Q295 614 309 631 Q321 646 336.5 657.5 Q352 669 372 674 Z " />
<glyph glyph-name="bar" unicode="&#x7c;" horiz-adv-x="118" d="M225 701 Q229 711 237 708 Q240 707 243 703.5 Q246 700 244 696 Q209 608 178 514 Q162 468 147.5 422 Q133 376 118 330 Q104 283 88.5 237.5 Q73 192 56 145 Q24 51 -7.5 -42 Q-39 -135 -69 -229 Q-72 -238 -81.5 -235.5 Q-91 -233 -88 -224 Q-73 -176 -57.5 -130 Q-42 -84 -26 -36 Q5 58 37.5 149.5 Q70 241 100 335 Q129 428 159 519 Q189 610 225 701 Z " />
<glyph glyph-name="braceright" unicode="&#x7d;" horiz-adv-x="162" d="M226 646 Q233 636 233 623.5 Q233 611 231 600 Q227 577 216 554 Q213 549 211 543.5 Q209 538 207 533 Q204 528 201.5 522.5 Q199 517 196 512 Q175 468 151.5 425.5 Q128 383 108 338 Q101 323 95.5 306.5 Q90 290 89 274 Q88 260 91.5 248.5 Q95 237 107 229 Q109 229 109.5 228.5 Q110 228 111 228 Q114 225 114 222 L114 220 Q114 220 114 216 L114 215 L113 215 Q113 214 112.5 214 Q112 214 112 213 Q110 211 108.5 209.5 Q107 208 105 206 Q90 190 80.5 170.5 Q71 151 65 131 Q59 108 55 84.5 Q51 61 46 38 Q42 15 36.5 -7.5 Q31 -30 20 -52 Q9 -73 -4 -92.5 Q-17 -112 -32 -130 Q-46 -148 -62 -163 Q-70 -171 -78 -177.5 Q-86 -184 -97 -188 Q-101 -190 -104.5 -187.5 Q-108 -185 -109 -181 Q-111 -172 -102 -169 Q-91 -165 -82.5 -156.5 Q-74 -148 -66 -140 Q-57 -130 -49 -120.5 Q-41 -111 -33 -100 Q-20 -82 -8 -62.5 Q4 -43 12 -21 Q20 2 24 25.5 Q28 49 32 72 Q39 107 49 143.5 Q59 180 82 209 L82 211 Q82 212 83 213 Q83 218 86 221 Q75 231 72 245 Q69 259 70 274 Q71 289 75 304.5 Q79 320 84 332 Q93 355 104 376 Q115 397 126 419 Q137 442 149 463 Q161 484 172 507 Q177 517 182 527 Q187 537 192 548 Q195 553 197 558.5 Q199 564 201 569 Q205 576 208 588 Q211 598 213 608.5 Q215 619 212 629 Q210 638 202 640 Q194 642 186 643 Q181 643 179 646 Q177 649 177 653 Q177 657 179 659.5 Q181 662 186 662 Q197 661 208 658.5 Q219 656 226 646 Z " />
<glyph glyph-name="asciitilde" unicode="&#x7e;" horiz-adv-x="258" d="M241 215 Q243 213 243.5 208.5 Q244 204 241 201 Q236 197 230.5 193 Q225 189 220 186 Q203 175 184 165.5 Q165 156 145 154 Q138 153 131 154.5 Q124 156 119 161 Q110 170 112 183 Q112 192 113 196 Q114 200 114 206 L114 208 L114 210 L113 210 L111 210 L105 210 Q91 207 78 197 Q65 187 56 176 Q53 173 48.5 173.5 Q44 174 42 176 Q36 182 42 190 Q48 198 56 204 Q68 216 85 224 Q93 227 102 229 Q111 231 119 229 Q134 223 134 206 Q134 200 132 192 L132 189 L132 188 L131 188 L131 183 L131 179 L131 178 Q131 177 132 176 L132 175 Q132 174 133 174 L134 174 Q134 174 136 173 L138 173 L144 173 Q149 174 153 175 Q157 176 162 178 Q197 190 227 215 Q234 222 241 215 Z " />
<glyph glyph-name="Euro" unicode="&#x20ac;" horiz-adv-x="453" d="M713 607 Q721 587 717.5 564 Q714 541 707 521 Q696 492 681 466.5 Q666 441 648 417 Q642 410 635 414 Q631 416 630 420 Q629 424 631 427 Q639 438 646.5 449 Q654 460 662 472 Q668 482 673.5 492.5 Q679 503 683 513 Q693 537 697 560 L697 563 L697 564 Q698 566 698 569 L698 579 L698 585 L697 588 Q697 593 696 596 Q695 597 695 598 Q695 599 694 601 L694 602 L694 603 Q692 605 691.5 606.5 Q691 608 690 610 Q689 610 688 611.5 Q687 613 688 613 L686 615 Q682 619 680 620 Q679 620 678 621 Q677 622 677 623 Q675 623 673 625 Q672 626 671 626 Q670 626 669 627 L668 627 Q668 627 666 628 Q664 629 661 629.5 Q658 630 656 631 Q654 631 653 631.5 Q652 632 651 632 L649 632 L647 632 Q632 634 618 632.5 Q604 631 590 628 Q571 624 552.5 619 Q534 614 517 606 Q485 592 455 573 Q425 554 399 531 Q348 486 309 429.5 Q270 373 239 312 Q237 307 234.5 301.5 Q232 296 229 290 Q280 298 331 304.5 Q382 311 434 316 Q438 317 441 314 Q444 311 444 307 Q444 297 434 297 Q431 297 430 296 Q377 291 325 284 Q273 277 220 269 Q212 253 206 236.5 Q200 220 194 203 Q243 212 295 218 Q299 219 301.5 215.5 Q304 212 304 208 Q304 199 295 199 Q267 195 240 191 Q213 187 187 182 Q174 143 165 102 Q156 61 157 19 Q158 10 158.5 1 Q159 -8 161 -18 Q163 -26 165 -34.5 Q167 -43 171 -51 Q185 -78 209 -88 Q221 -93 236 -95 Q251 -97 265 -96 Q283 -96 301.5 -94 Q320 -92 338 -90 Q342 -89 345 -92.5 Q348 -96 348 -99 Q348 -107 338 -109 Q315 -112 293 -114.5 Q271 -117 248 -116 Q229 -114 211 -109 Q193 -104 179 -92 Q166 -81 158 -67 Q150 -53 146 -37 Q141 -18 139 1 Q137 20 138 40 Q140 75 147 109.5 Q154 144 165 178 Q143 173 121.5 167.5 Q100 162 79 154 Q75 152 71.5 154.5 Q68 157 67 161 Q65 170 74 173 Q98 181 122.5 187.5 Q147 194 172 199 L175 208 Q180 222 185.5 237 Q191 252 197 266 Q157 260 118 253.5 Q79 247 40 240 Q30 238 28 247 Q24 257 34 259 Q36 259 38 259.5 Q40 260 42 260 Q84 267 124 273.5 Q164 280 206 287 Q243 372 298 448 Q340 506 394 553 Q448 600 516 626 Q533 634 551.5 639 Q570 644 589 648 Q603 651 618 652.5 Q633 654 648 652 Q659 650 669.5 647.5 Q680 645 689 638 Q706 626 713 607 Z " />
<glyph glyph-name="sterling" unicode="&#xa3;" horiz-adv-x="285" d="M565 -103 Q568 -105 569 -109.5 Q570 -114 568 -117 Q550 -140 527 -150 Q505 -161 477 -166 Q418 -178 360 -177 Q272 -177 188 -153 Q104 -129 29 -84 Q19 -79 9.5 -73 Q0 -67 -10 -61 Q-29 -77 -51 -84 Q-82 -96 -116 -83 Q-123 -80 -123 -73 Q-123 -56 -116 -37 Q-109 -18 -89 -14 Q-72 -11 -55.5 -16.5 Q-39 -22 -25 -30 Q-17 -34 -13 -37 Q-6 -30 -3 -26 Q5 -18 9.5 -11 Q14 -4 21 5 Q48 47 66.5 91 Q85 135 101 181 Q113 216 123.5 250 Q134 284 144 319 Q140 319 136.5 318.5 Q133 318 128 318 Q128 317 127 317 L126 317 L124 317 Q120 317 118 316 Q115 316 107 314 Q101 313 95.5 312.5 Q90 312 84 310 Q72 308 60 305 Q48 302 36 299 Q14 293 -7 286.5 Q-28 280 -50 272 Q-67 266 -82 259 Q-84 259 -84.5 258.5 Q-85 258 -86 258 Q-87 258 -87 257 Q-89 256 -90 256 Q-91 256 -93 255 Q-96 253 -102 251 Q-106 249 -109.5 250.5 Q-113 252 -115 255 Q-117 258 -116.5 261.5 Q-116 265 -112 267 Q-102 272 -92 276 Q-82 280 -71 285 Q-56 290 -40.5 295.5 Q-25 301 -9 306 Q14 313 37.5 319 Q61 325 84 330 Q101 333 117 335.5 Q133 338 150 339 Q152 349 155 358 Q158 367 160 376 Q165 396 170.5 415 Q176 434 182 454 Q186 468 190.5 481 Q195 494 201 508 Q209 528 218 547.5 Q227 567 239 585 Q244 593 251 603 Q258 613 266.5 621 Q275 629 285 633.5 Q295 638 307 635 Q318 632 326.5 623 Q335 614 340 603 Q345 590 344.5 575.5 Q344 561 342 547 Q337 518 328 490 Q319 462 307 436 Q305 432 300.5 431 Q296 430 293 432 Q285 437 290 446 Q294 454 296.5 461.5 Q299 469 303 478 Q308 493 313 508 Q318 523 321 539 Q323 547 323.5 553 Q324 559 325 567 L325 582 Q324 585 324 586.5 Q324 588 323 592 Q320 602 314 608 L310 612 L307 614 Q306 614 306 614.5 Q306 615 305 615 Q304 615 303 615.5 Q302 616 301 616 L300 616 L299 616 L297 616 Q295 616 294.5 615.5 Q294 615 293 615 Q293 615 292 614 L291 614 Q289 613 287 611 Q286 611 286 610.5 Q286 610 285 610 L284 609 Q280 608 277 603 Q269 595 262.5 586 Q256 577 250 566 Q244 555 238.5 544.5 Q233 534 228 523 Q226 518 224.5 514 Q223 510 221 505 L218 499 Q217 498 217 497 Q217 496 216 496 Q214 490 212 484 Q210 478 208 471 Q197 439 188 406 Q179 373 170 340 L173 340 Q190 339 207 336 Q224 333 236 321 Q249 309 249 292 Q249 275 244 260 Q241 252 232 253 Q223 255 225 265 Q227 268 227.5 271.5 Q228 275 229 278 Q229 279 229.5 279.5 Q230 280 230 281 L230 282 L230 287 L230 292 L230 295 Q230 295 228 299 Q228 300 227 301 Q227 302 225 304 L225 305 Q225 305 224 306 Q222 308 220 309 L219 310 Q217 312 215 312 Q214 313 213.5 313 Q213 313 212 314 L211 314 Q209 315 203 317 Q201 318 199 318 Q197 318 195 319 L191 319 Q189 319 189 320 L170 320 L165 320 Q163 316 163 312 Q148 262 132.5 212.5 Q117 163 97 115 Q79 68 55 25 Q45 6 33 -11.5 Q21 -29 7 -45 Q5 -45 5 -47 Q7 -49 9 -49.5 Q11 -50 13 -52 Q30 -62 47 -72 Q64 -82 81 -90 Q120 -110 160.5 -123.5 Q201 -137 243 -146 Q286 -154 329 -157 Q372 -160 415 -156 Q435 -154 454 -150.5 Q473 -147 492 -142 Q509 -137 524.5 -129 Q540 -121 551 -107 Q553 -104 557 -102.5 Q561 -101 565 -103 Z M-48 -62 Q-44 -61 -41 -58 Q-34 -55 -28 -50 Q-31 -49 -37 -45 Q-43 -43 -47.5 -41 Q-52 -39 -57 -37 Q-60 -36 -62.5 -35 Q-65 -34 -68 -34 Q-69 -33 -72 -33 L-76 -33 Q-78 -33 -78.5 -32.5 Q-79 -32 -81 -33 L-82 -33 L-84 -33 Q-85 -33 -85.5 -33.5 Q-86 -34 -88 -34 L-89 -35 L-90 -35 L-92 -37 Q-95 -40 -95 -40 L-96 -40 L-96 -41 Q-96 -41 -97 -43 Q-98 -43 -98 -45 L-99 -46 Q-103 -55 -103 -66 L-94 -69 L-91 -69 L-90 -69 Q-89 -69 -89 -69.5 Q-89 -70 -88 -70 L-81 -70 Q-75 -70 -73 -69 L-71 -69 L-68 -69 Q-63 -68 -53 -64 L-51 -64 Q-50 -63 -49.5 -63 Q-49 -63 -48 -62 Z " />
<glyph glyph-name="copyright" unicode="&#xa9;" horiz-adv-x="185" d="M157 549 Q161 553 166 549 Q172 545 166 539 Q161 536 156.5 533 Q152 530 147 527 Q143 525 138 524 Q133 523 129 525 Q121 528 121 535.5 Q121 543 124 549 Q130 562 142 571 Q151 576 159 573 Q164 571 165 565 Q166 559 163 554 Q162 552 159.5 551 Q157 550 155 552 Q150 555 152 561 L151 561 Q149 560 145 556 Q140 551 135 541 L135 540 Q134 539 134 538 L134 537 Q146 540 157 549 Z M193 570 Q195 562 194.5 554 Q194 546 191 538 Q179 507 146 501 Q134 498 120.5 498.5 Q107 499 98 508 Q88 518 90 534 Q93 548 100 562 Q108 574 118.5 584.5 Q129 595 143 598 Q148 600 153.5 600 Q159 600 164 600 Q170 600 173 598 Q177 602 181 599 Q188 594 190 586 Q192 578 193 570 Z M179 541 Q181 547 181.5 553.5 Q182 560 181 566 Q179 576 178 580 Q178 582 177.5 582 Q177 582 177 584 Q172 581 169 586 L168 586 Q167 587 166 587 L163 587 L152 587 Q143 586 136.5 582 Q130 578 124 572 Q119 567 115 561.5 Q111 556 109 549 Q107 543 104.5 536 Q102 529 104 523 Q107 512 120 511.5 Q133 511 142 513 Q147 514 153 516 Q159 518 164 522 Q173 530 179 541 Z " />
<glyph glyph-name="a" unicode="a" horiz-adv-x="134" d="M133 196 Q136 199 140 198.5 Q144 198 146.5 195 Q149 192 149.5 188.5 Q150 185 147 182 Q140 176 134 170 Q128 164 120 158 Q112 151 101.5 145.5 Q91 140 80 138 Q66 136 59.5 146 Q53 156 52 168 Q52 178 53 182 Q48 179 45 174 Q38 168 28 161.5 Q18 155 7 161 Q0 165 -2 172 Q-4 179 -2.5 187 Q-1 195 2.5 202.5 Q6 210 11 215 Q19 224 35 228.5 Q51 233 63 227 Q65 231 68 234.5 Q71 238 74 242 Q79 249 86 243.5 Q93 238 89 231 Q82 217 76 201.5 Q70 186 72 170 L72 164 Q73 163 73 162 L73 161 L75 159 Q74 160 75.5 158.5 Q77 157 75 158 L76 158 L77 158 L79 158 L82 158 Q83 159 84 159 Q85 159 86 160 L87 160 Q87 160 88 161 Q90 162 92 163 Q94 164 96 165 Q101 168 104.5 170.5 Q108 173 111 176 Q117 181 122.5 186 Q128 191 133 196 Z M51 210 Q49 211 47 211 L35 208 Q27 204 25 201 Q23 199 21.5 196.5 Q20 194 19 191 Q18 189 17.5 187 Q17 185 16 183 L16 182 L16 181 L16 180 L16 179 L16 178 L17 178 L18 178 Q19 179 20 179 L23 182 L24 182 Q26 184 26 184 Q29 185 30 188 Q35 191 38 196 Q44 202 47 206 Q48 207 48.5 208 Q49 209 51 210 Z " />
<glyph glyph-name="breve" unicode="&#x2d8;" horiz-adv-x="173" d="M198 578 Q206 573 201 565 Q196 554 187 544 Q178 534 164 534 Q150 534 140 544 Q130 554 123 565 Q121 569 122.5 572.5 Q124 576 127 578 Q130 580 134 579.5 Q138 579 140 575 Q147 563 154 558 Q159 553 165 554 Q168 554 170 555 Q172 557 172.5 557 Q173 557 175 559 Q180 566 185 575 Q187 579 191 579.5 Q195 580 198 578 Z " />
<glyph glyph-name="tilde" unicode="&#x2dc;" horiz-adv-x="180" d="M213 571 Q215 575 219 575.5 Q223 576 226 574 Q229 572 230.5 568.5 Q232 565 230 561 Q226 553 219.5 548.5 Q213 544 204 546 Q196 546 189.5 549 Q183 552 177 556 Q177 557 175.5 557.5 Q174 558 175 558 Q173 558 172.5 558.5 Q172 559 171 559 Q167 560 162 560 L161 560 L159 560 L158 560 L158 559 L157 559 L157 557 L157 555 Q158 550 155 547.5 Q152 545 148 545 Q138 545 138 555 Q136 572 152 578 Q157 580 163.5 580 Q170 580 176 578 Q182 576 187 573 Q192 570 198 567 Q203 565 206.5 565 Q210 565 213 571 Z " />
<glyph glyph-name="Atilde" unicode="&#xc3;" horiz-adv-x="341" d="M400 591 Q405 571 398 550 Q396 539 393 529 Q390 519 387 508 Q380 485 371 463.5 Q362 442 353 420 Q344 398 333.5 376 Q323 354 315 331 Q311 320 308 309 Q305 298 301 287 Q296 275 292 263.5 Q288 252 284 240 Q278 223 272 207 Q266 191 261 174 L288 183 Q292 185 295.5 182.5 Q299 180 300 176 Q302 167 293 164 Q283 161 273 158 Q263 155 253 151 Q253 150 252.5 150 Q252 150 252 149 Q237 103 222.5 57.5 Q208 12 194 -34 Q191 -43 181.5 -40 Q172 -37 175 -28 Q189 14 202 55.5 Q215 97 229 139 Q229 141 229.5 142 Q230 143 230 145 Q209 138 188 132.5 Q167 127 146 121 Q110 110 74 98 Q38 86 4 69 Q-7 48 -22 25 Q-25 20 -28 15 Q-31 10 -34 5 Q-39 -6 -44 -14 Q-47 -17 -51 -25 Q-52 -27 -52.5 -29 Q-53 -31 -55 -33 Q-57 -37 -60 -41 Q-63 -45 -65 -50 Q-76 -68 -88.5 -85.5 Q-101 -103 -115 -118 Q-123 -126 -130.5 -133.5 Q-138 -141 -147 -147 Q-156 -152 -167.5 -154.5 Q-179 -157 -189 -153 Q-201 -150 -206 -140 Q-210 -132 -208 -119 Q-206 -109 -201 -99 Q-196 -89 -191 -80 Q-188 -75 -184.5 -69.5 Q-181 -64 -178 -59 Q-176 -56 -172 -52 Q-170 -50 -169 -48 Q-168 -46 -166 -44 Q-161 -36 -154.5 -28.5 Q-148 -21 -141 -13 Q-116 15 -85.5 37.5 Q-55 60 -22 78 L-10 84 Q-2 98 5.5 111.5 Q13 125 21 139 Q44 179 67.5 219 Q91 259 116 299 Q141 340 166.5 379.5 Q192 419 219 458 Q226 468 232.5 478.5 Q239 489 247 498 Q255 506 261 515 Q267 524 273 532 Q287 549 301 565 Q315 581 332 595 Q340 602 349 607 Q358 612 369 613 Q381 615 389 609 Q394 606 396 601 Q398 596 400 591 Z M-49 18 Q-44 26 -38.5 34.5 Q-33 43 -28 52 Q-76 25 -115 -14 Q-122 -21 -128.5 -27.5 Q-135 -34 -141 -42 Q-144 -46 -146.5 -49.5 Q-149 -53 -152 -58 Q-155 -62 -158.5 -65.5 Q-162 -69 -164 -74 Q-170 -83 -175.5 -92.5 Q-181 -102 -186 -113 Q-190 -123 -189 -130 Q-186 -133 -187 -133 Q-181 -135 -178 -135 Q-168 -135 -160 -132 Q-155 -130 -151.5 -126.5 Q-148 -123 -145 -120 Q-129 -107 -116 -89 Q-109 -81 -103 -72.5 Q-97 -64 -92 -56 Q-89 -51 -86 -46.5 Q-83 -42 -80 -37 Q-78 -33 -75 -29 Q-72 -25 -70 -20 Q-68 -18 -67.5 -15 Q-67 -12 -65 -10 L-59 -1 Q-56 4 -53.5 8.5 Q-51 13 -49 18 Z M376 542 Q379 552 381.5 561.5 Q384 571 382 581 Q381 584 379.5 588.5 Q378 593 376 593 Q371 596 362 592 Q353 587 345.5 580.5 Q338 574 330 567 Q315 552 301 535.5 Q287 519 275 502 Q272 497 268.5 493 Q265 489 261 484 Q257 480 254 475.5 Q251 471 248 466 Q241 456 234.5 446 Q228 436 220 426 Q167 348 119.5 268 Q72 188 25 106 Q23 104 22.5 102 Q22 100 20 98 Q44 108 68.5 116.5 Q93 125 118 133 Q148 142 178 150 Q208 158 238 167 Q243 183 248.5 199 Q254 215 260 231 Q268 254 276.5 277 Q285 300 292 323 Q299 346 309 367.5 Q319 389 329 412 Q338 434 347 455.5 Q356 477 363 499 Q367 510 370 520.5 Q373 531 376 542 Z M395 700 Q397 704 401 704.5 Q405 705 408 703 Q411 701 412.5 697.5 Q414 694 412 690 Q408 682 401.5 677.5 Q395 673 386 675 Q378 675 371.5 678 Q365 681 359 685 Q359 686 357.5 686.5 Q356 687 357 687 Q355 687 354.5 687.5 Q354 688 353 688 Q349 689 344 689 L343 689 L341 689 L340 689 L340 688 L339 688 L339 686 L339 684 Q340 679 337 676.5 Q334 674 330 674 Q320 674 320 684 Q318 701 334 707 Q339 709 345.5 709 Q352 709 358 707 Q364 705 369 702 Q374 699 380 696 Q385 694 388.5 694 Q392 694 395 700 Z " />
<glyph glyph-name="dieresis" unicode="&#xa8;" horiz-adv-x="833" d="M393 656 Q403 656 403 646.5 Q403 637 393 637 Q384 637 384 646.5 Q384 656 393 656 Z M428 657 Q438 657 438 647 Q438 637 428 637 Q418 637 418 647 Q418 657 428 657 Z " />
<glyph glyph-name="Adieresis" unicode="&#xc4;" horiz-adv-x="341" d="M400 591 Q405 571 398 550 Q396 539 393 529 Q390 519 387 508 Q380 485 371 463.5 Q362 442 353 420 Q344 398 333.5 376 Q323 354 315 331 Q311 320 308 309 Q305 298 301 287 Q296 275 292 263.5 Q288 252 284 240 Q278 223 272 207 Q266 191 261 174 L288 183 Q292 185 295.5 182.5 Q299 180 300 176 Q302 167 293 164 Q283 161 273 158 Q263 155 253 151 Q253 150 252.5 150 Q252 150 252 149 Q237 103 222.5 57.5 Q208 12 194 -34 Q191 -43 181.5 -40 Q172 -37 175 -28 Q189 14 202 55.5 Q215 97 229 139 Q229 141 229.5 142 Q230 143 230 145 Q209 138 188 132.5 Q167 127 146 121 Q110 110 74 98 Q38 86 4 69 Q-7 48 -22 25 Q-25 20 -28 15 Q-31 10 -34 5 Q-39 -6 -44 -14 Q-47 -17 -51 -25 Q-52 -27 -52.5 -29 Q-53 -31 -55 -33 Q-57 -37 -60 -41 Q-63 -45 -65 -50 Q-76 -68 -88.5 -85.5 Q-101 -103 -115 -118 Q-123 -126 -130.5 -133.5 Q-138 -141 -147 -147 Q-156 -152 -167.5 -154.5 Q-179 -157 -189 -153 Q-201 -150 -206 -140 Q-210 -132 -208 -119 Q-206 -109 -201 -99 Q-196 -89 -191 -80 Q-188 -75 -184.5 -69.5 Q-181 -64 -178 -59 Q-176 -56 -172 -52 Q-170 -50 -169 -48 Q-168 -46 -166 -44 Q-161 -36 -154.5 -28.5 Q-148 -21 -141 -13 Q-116 15 -85.5 37.5 Q-55 60 -22 78 L-10 84 Q-2 98 5.5 111.5 Q13 125 21 139 Q44 179 67.5 219 Q91 259 116 299 Q141 340 166.5 379.5 Q192 419 219 458 Q226 468 232.5 478.5 Q239 489 247 498 Q255 506 261 515 Q267 524 273 532 Q287 549 301 565 Q315 581 332 595 Q340 602 349 607 Q358 612 369 613 Q381 615 389 609 Q394 606 396 601 Q398 596 400 591 Z M-49 18 Q-44 26 -38.5 34.5 Q-33 43 -28 52 Q-76 25 -115 -14 Q-122 -21 -128.5 -27.5 Q-135 -34 -141 -42 Q-144 -46 -146.5 -49.5 Q-149 -53 -152 -58 Q-155 -62 -158.5 -65.5 Q-162 -69 -164 -74 Q-170 -83 -175.5 -92.5 Q-181 -102 -186 -113 Q-190 -123 -189 -130 Q-186 -133 -187 -133 Q-181 -135 -178 -135 Q-168 -135 -160 -132 Q-155 -130 -151.5 -126.5 Q-148 -123 -145 -120 Q-129 -107 -116 -89 Q-109 -81 -103 -72.5 Q-97 -64 -92 -56 Q-89 -51 -86 -46.5 Q-83 -42 -80 -37 Q-78 -33 -75 -29 Q-72 -25 -70 -20 Q-68 -18 -67.5 -15 Q-67 -12 -65 -10 L-59 -1 Q-56 4 -53.5 8.5 Q-51 13 -49 18 Z M376 542 Q379 552 381.5 561.5 Q384 571 382 581 Q381 584 379.5 588.5 Q378 593 376 593 Q371 596 362 592 Q353 587 345.5 580.5 Q338 574 330 567 Q315 552 301 535.5 Q287 519 275 502 Q272 497 268.5 493 Q265 489 261 484 Q257 480 254 475.5 Q251 471 248 466 Q241 456 234.5 446 Q228 436 220 426 Q167 348 119.5 268 Q72 188 25 106 Q23 104 22.5 102 Q22 100 20 98 Q44 108 68.5 116.5 Q93 125 118 133 Q148 142 178 150 Q208 158 238 167 Q243 183 248.5 199 Q254 215 260 231 Q268 254 276.5 277 Q285 300 292 323 Q299 346 309 367.5 Q319 389 329 412 Q338 434 347 455.5 Q356 477 363 499 Q367 510 370 520.5 Q373 531 376 542 Z M366 713 Q376 713 376 703.5 Q376 694 366 694 Q357 694 357 703.5 Q357 713 366 713 Z M401 714 Q411 714 411 704 Q411 694 401 694 Q391 694 391 704 Q391 714 401 714 Z " />
<glyph glyph-name="circumflex" unicode="&#x2c6;" horiz-adv-x="185" d="M207 546 Q210 543 208.5 539 Q207 535 204 533 Q197 529 191 536 Q188 540 185.5 543.5 Q183 547 180 551 Q178 553 176.5 555 Q175 557 173 559 Q172 559 172 558 Q170 556 168 554.5 Q166 553 164 551 Q160 547 156 543.5 Q152 540 147 535 Q144 532 140 532.5 Q136 533 133.5 536 Q131 539 130.5 542.5 Q130 546 133 549 Q139 554 145 559 Q151 564 156 570 Q161 575 165.5 578 Q170 581 178 578 Q183 576 187 572 Q191 568 195 563 Q198 558 201 554.5 Q204 551 207 546 Z " />
<glyph glyph-name="Acircumflex" unicode="&#xc2;" horiz-adv-x="341" d="M400 591 Q405 571 398 550 Q396 539 393 529 Q390 519 387 508 Q380 485 371 463.5 Q362 442 353 420 Q344 398 333.5 376 Q323 354 315 331 Q311 320 308 309 Q305 298 301 287 Q296 275 292 263.5 Q288 252 284 240 Q278 223 272 207 Q266 191 261 174 L288 183 Q292 185 295.5 182.5 Q299 180 300 176 Q302 167 293 164 Q283 161 273 158 Q263 155 253 151 Q253 150 252.5 150 Q252 150 252 149 Q237 103 222.5 57.5 Q208 12 194 -34 Q191 -43 181.5 -40 Q172 -37 175 -28 Q189 14 202 55.5 Q215 97 229 139 Q229 141 229.5 142 Q230 143 230 145 Q209 138 188 132.5 Q167 127 146 121 Q110 110 74 98 Q38 86 4 69 Q-7 48 -22 25 Q-25 20 -28 15 Q-31 10 -34 5 Q-39 -6 -44 -14 Q-47 -17 -51 -25 Q-52 -27 -52.5 -29 Q-53 -31 -55 -33 Q-57 -37 -60 -41 Q-63 -45 -65 -50 Q-76 -68 -88.5 -85.5 Q-101 -103 -115 -118 Q-123 -126 -130.5 -133.5 Q-138 -141 -147 -147 Q-156 -152 -167.5 -154.5 Q-179 -157 -189 -153 Q-201 -150 -206 -140 Q-210 -132 -208 -119 Q-206 -109 -201 -99 Q-196 -89 -191 -80 Q-188 -75 -184.5 -69.5 Q-181 -64 -178 -59 Q-176 -56 -172 -52 Q-170 -50 -169 -48 Q-168 -46 -166 -44 Q-161 -36 -154.5 -28.5 Q-148 -21 -141 -13 Q-116 15 -85.5 37.5 Q-55 60 -22 78 L-10 84 Q-2 98 5.5 111.5 Q13 125 21 139 Q44 179 67.5 219 Q91 259 116 299 Q141 340 166.5 379.5 Q192 419 219 458 Q226 468 232.5 478.5 Q239 489 247 498 Q255 506 261 515 Q267 524 273 532 Q287 549 301 565 Q315 581 332 595 Q340 602 349 607 Q358 612 369 613 Q381 615 389 609 Q394 606 396 601 Q398 596 400 591 Z M-49 18 Q-44 26 -38.5 34.5 Q-33 43 -28 52 Q-76 25 -115 -14 Q-122 -21 -128.5 -27.5 Q-135 -34 -141 -42 Q-144 -46 -146.5 -49.5 Q-149 -53 -152 -58 Q-155 -62 -158.5 -65.5 Q-162 -69 -164 -74 Q-170 -83 -175.5 -92.5 Q-181 -102 -186 -113 Q-190 -123 -189 -130 Q-186 -133 -187 -133 Q-181 -135 -178 -135 Q-168 -135 -160 -132 Q-155 -130 -151.5 -126.5 Q-148 -123 -145 -120 Q-129 -107 -116 -89 Q-109 -81 -103 -72.5 Q-97 -64 -92 -56 Q-89 -51 -86 -46.5 Q-83 -42 -80 -37 Q-78 -33 -75 -29 Q-72 -25 -70 -20 Q-68 -18 -67.5 -15 Q-67 -12 -65 -10 L-59 -1 Q-56 4 -53.5 8.5 Q-51 13 -49 18 Z M376 542 Q379 552 381.5 561.5 Q384 571 382 581 Q381 584 379.5 588.5 Q378 593 376 593 Q371 596 362 592 Q353 587 345.5 580.5 Q338 574 330 567 Q315 552 301 535.5 Q287 519 275 502 Q272 497 268.5 493 Q265 489 261 484 Q257 480 254 475.5 Q251 471 248 466 Q241 456 234.5 446 Q228 436 220 426 Q167 348 119.5 268 Q72 188 25 106 Q23 104 22.5 102 Q22 100 20 98 Q44 108 68.5 116.5 Q93 125 118 133 Q148 142 178 150 Q208 158 238 167 Q243 183 248.5 199 Q254 215 260 231 Q268 254 276.5 277 Q285 300 292 323 Q299 346 309 367.5 Q319 389 329 412 Q338 434 347 455.5 Q356 477 363 499 Q367 510 370 520.5 Q373 531 376 542 Z M421 696 Q424 693 422.5 689 Q421 685 418 683 Q411 679 405 686 Q402 690 399.5 693.5 Q397 697 394 701 Q392 703 390.5 705 Q389 707 387 709 Q386 709 386 708 Q384 706 382 704.5 Q380 703 378 701 Q374 697 370 693.5 Q366 690 361 685 Q358 682 354 682.5 Q350 683 347.5 686 Q345 689 344.5 692.5 Q344 696 347 699 Q353 704 359 709 Q365 714 370 720 Q375 725 379.5 728 Q384 731 392 728 Q397 726 401 722 Q405 718 409 713 Q412 708 415 704.5 Q418 701 421 696 Z " />
<glyph glyph-name="acute" unicode="&#xb4;" horiz-adv-x="833" d="M362 665 Q366 667 370 665.5 Q374 664 375.5 661 Q377 658 376.5 654 Q376 650 372 648 Q361 643 351 635.5 Q341 628 330 623 Q325 621 321.5 622.5 Q318 624 316.5 627 Q315 630 315.5 634 Q316 638 320 640 Q331 645 341 652.5 Q351 660 362 665 Z " />
<glyph glyph-name="Aacute" unicode="&#xc1;" horiz-adv-x="341" d="M400 591 Q405 571 398 550 Q396 539 393 529 Q390 519 387 508 Q380 485 371 463.5 Q362 442 353 420 Q344 398 333.5 376 Q323 354 315 331 Q311 320 308 309 Q305 298 301 287 Q296 275 292 263.5 Q288 252 284 240 Q278 223 272 207 Q266 191 261 174 L288 183 Q292 185 295.5 182.5 Q299 180 300 176 Q302 167 293 164 Q283 161 273 158 Q263 155 253 151 Q253 150 252.5 150 Q252 150 252 149 Q237 103 222.5 57.5 Q208 12 194 -34 Q191 -43 181.5 -40 Q172 -37 175 -28 Q189 14 202 55.5 Q215 97 229 139 Q229 141 229.5 142 Q230 143 230 145 Q209 138 188 132.5 Q167 127 146 121 Q110 110 74 98 Q38 86 4 69 Q-7 48 -22 25 Q-25 20 -28 15 Q-31 10 -34 5 Q-39 -6 -44 -14 Q-47 -17 -51 -25 Q-52 -27 -52.5 -29 Q-53 -31 -55 -33 Q-57 -37 -60 -41 Q-63 -45 -65 -50 Q-76 -68 -88.5 -85.5 Q-101 -103 -115 -118 Q-123 -126 -130.5 -133.5 Q-138 -141 -147 -147 Q-156 -152 -167.5 -154.5 Q-179 -157 -189 -153 Q-201 -150 -206 -140 Q-210 -132 -208 -119 Q-206 -109 -201 -99 Q-196 -89 -191 -80 Q-188 -75 -184.5 -69.5 Q-181 -64 -178 -59 Q-176 -56 -172 -52 Q-170 -50 -169 -48 Q-168 -46 -166 -44 Q-161 -36 -154.5 -28.5 Q-148 -21 -141 -13 Q-116 15 -85.5 37.5 Q-55 60 -22 78 L-10 84 Q-2 98 5.5 111.5 Q13 125 21 139 Q44 179 67.5 219 Q91 259 116 299 Q141 340 166.5 379.5 Q192 419 219 458 Q226 468 232.5 478.5 Q239 489 247 498 Q255 506 261 515 Q267 524 273 532 Q287 549 301 565 Q315 581 332 595 Q340 602 349 607 Q358 612 369 613 Q381 615 389 609 Q394 606 396 601 Q398 596 400 591 Z M-49 18 Q-44 26 -38.5 34.5 Q-33 43 -28 52 Q-76 25 -115 -14 Q-122 -21 -128.5 -27.5 Q-135 -34 -141 -42 Q-144 -46 -146.5 -49.5 Q-149 -53 -152 -58 Q-155 -62 -158.5 -65.5 Q-162 -69 -164 -74 Q-170 -83 -175.5 -92.5 Q-181 -102 -186 -113 Q-190 -123 -189 -130 Q-186 -133 -187 -133 Q-181 -135 -178 -135 Q-168 -135 -160 -132 Q-155 -130 -151.5 -126.5 Q-148 -123 -145 -120 Q-129 -107 -116 -89 Q-109 -81 -103 -72.5 Q-97 -64 -92 -56 Q-89 -51 -86 -46.5 Q-83 -42 -80 -37 Q-78 -33 -75 -29 Q-72 -25 -70 -20 Q-68 -18 -67.5 -15 Q-67 -12 -65 -10 L-59 -1 Q-56 4 -53.5 8.5 Q-51 13 -49 18 Z M376 542 Q379 552 381.5 561.5 Q384 571 382 581 Q381 584 379.5 588.5 Q378 593 376 593 Q371 596 362 592 Q353 587 345.5 580.5 Q338 574 330 567 Q315 552 301 535.5 Q287 519 275 502 Q272 497 268.5 493 Q265 489 261 484 Q257 480 254 475.5 Q251 471 248 466 Q241 456 234.5 446 Q228 436 220 426 Q167 348 119.5 268 Q72 188 25 106 Q23 104 22.5 102 Q22 100 20 98 Q44 108 68.5 116.5 Q93 125 118 133 Q148 142 178 150 Q208 158 238 167 Q243 183 248.5 199 Q254 215 260 231 Q268 254 276.5 277 Q285 300 292 323 Q299 346 309 367.5 Q319 389 329 412 Q338 434 347 455.5 Q356 477 363 499 Q367 510 370 520.5 Q373 531 376 542 Z M398 723 Q402 725 406 723.5 Q410 722 411.5 719 Q413 716 412.5 712 Q412 708 408 706 Q397 701 387 693.5 Q377 686 366 681 Q361 679 357.5 680.5 Q354 682 352.5 685 Q351 688 351.5 692 Q352 696 356 698 Q367 703 377 710.5 Q387 718 398 723 Z " />
<glyph glyph-name="Agrave" unicode="&#xc0;" horiz-adv-x="341" d="M400 591 Q405 571 398 550 Q396 539 393 529 Q390 519 387 508 Q380 485 371 463.5 Q362 442 353 420 Q344 398 333.5 376 Q323 354 315 331 Q311 320 308 309 Q305 298 301 287 Q296 275 292 263.5 Q288 252 284 240 Q278 223 272 207 Q266 191 261 174 L288 183 Q292 185 295.5 182.5 Q299 180 300 176 Q302 167 293 164 Q283 161 273 158 Q263 155 253 151 Q253 150 252.5 150 Q252 150 252 149 Q237 103 222.5 57.5 Q208 12 194 -34 Q191 -43 181.5 -40 Q172 -37 175 -28 Q189 14 202 55.5 Q215 97 229 139 Q229 141 229.5 142 Q230 143 230 145 Q209 138 188 132.5 Q167 127 146 121 Q110 110 74 98 Q38 86 4 69 Q-7 48 -22 25 Q-25 20 -28 15 Q-31 10 -34 5 Q-39 -6 -44 -14 Q-47 -17 -51 -25 Q-52 -27 -52.5 -29 Q-53 -31 -55 -33 Q-57 -37 -60 -41 Q-63 -45 -65 -50 Q-76 -68 -88.5 -85.5 Q-101 -103 -115 -118 Q-123 -126 -130.5 -133.5 Q-138 -141 -147 -147 Q-156 -152 -167.5 -154.5 Q-179 -157 -189 -153 Q-201 -150 -206 -140 Q-210 -132 -208 -119 Q-206 -109 -201 -99 Q-196 -89 -191 -80 Q-188 -75 -184.5 -69.5 Q-181 -64 -178 -59 Q-176 -56 -172 -52 Q-170 -50 -169 -48 Q-168 -46 -166 -44 Q-161 -36 -154.5 -28.5 Q-148 -21 -141 -13 Q-116 15 -85.5 37.5 Q-55 60 -22 78 L-10 84 Q-2 98 5.5 111.5 Q13 125 21 139 Q44 179 67.5 219 Q91 259 116 299 Q141 340 166.5 379.5 Q192 419 219 458 Q226 468 232.5 478.5 Q239 489 247 498 Q255 506 261 515 Q267 524 273 532 Q287 549 301 565 Q315 581 332 595 Q340 602 349 607 Q358 612 369 613 Q381 615 389 609 Q394 606 396 601 Q398 596 400 591 Z M-49 18 Q-44 26 -38.5 34.5 Q-33 43 -28 52 Q-76 25 -115 -14 Q-122 -21 -128.5 -27.5 Q-135 -34 -141 -42 Q-144 -46 -146.5 -49.5 Q-149 -53 -152 -58 Q-155 -62 -158.5 -65.5 Q-162 -69 -164 -74 Q-170 -83 -175.5 -92.5 Q-181 -102 -186 -113 Q-190 -123 -189 -130 Q-186 -133 -187 -133 Q-181 -135 -178 -135 Q-168 -135 -160 -132 Q-155 -130 -151.5 -126.5 Q-148 -123 -145 -120 Q-129 -107 -116 -89 Q-109 -81 -103 -72.5 Q-97 -64 -92 -56 Q-89 -51 -86 -46.5 Q-83 -42 -80 -37 Q-78 -33 -75 -29 Q-72 -25 -70 -20 Q-68 -18 -67.5 -15 Q-67 -12 -65 -10 L-59 -1 Q-56 4 -53.5 8.5 Q-51 13 -49 18 Z M376 542 Q379 552 381.5 561.5 Q384 571 382 581 Q381 584 379.5 588.5 Q378 593 376 593 Q371 596 362 592 Q353 587 345.5 580.5 Q338 574 330 567 Q315 552 301 535.5 Q287 519 275 502 Q272 497 268.5 493 Q265 489 261 484 Q257 480 254 475.5 Q251 471 248 466 Q241 456 234.5 446 Q228 436 220 426 Q167 348 119.5 268 Q72 188 25 106 Q23 104 22.5 102 Q22 100 20 98 Q44 108 68.5 116.5 Q93 125 118 133 Q148 142 178 150 Q208 158 238 167 Q243 183 248.5 199 Q254 215 260 231 Q268 254 276.5 277 Q285 300 292 323 Q299 346 309 367.5 Q319 389 329 412 Q338 434 347 455.5 Q356 477 363 499 Q367 510 370 520.5 Q373 531 376 542 Z M407 681 Q412 675 403.5 671 Q395 667 390 674 Q379 688 367 701.5 Q355 715 344 729 Q342 732 343.5 734.5 Q345 737 348 738.5 Q351 740 355 740 Q359 740 361 737 Q372 722 384 708.5 Q396 695 407 681 Z " />
<glyph glyph-name="degree" unicode="&#xb0;" horiz-adv-x="108" d="M87 553 Q92 544 90 533 Q88 522 77 517 Q69 514 59 515.5 Q49 517 43 523 Q35 530 37 538 Q39 546 44 554 Q42 559 44.5 563 Q47 567 53 567 Q62 567 72 564.5 Q82 562 87 553 Z M69 535 Q71 537 71 540 Q71 543 69 544 Q65 546 63 546 Q61 544 59 542 Q57 540 57 538 L56 537 Q57 537 57 536.5 Q57 536 58 536 Q62 536 64 534 L68 534 Q69 534 69 535 Z " />
<glyph glyph-name="ring" unicode="&#x2da;" horiz-adv-x="161" d="M180 531 Q185 522 183 511 Q181 500 170 495 Q162 492 152 493.5 Q142 495 136 501 Q128 508 130 516 Q132 524 137 532 Q135 537 137.5 541 Q140 545 146 545 Q155 545 165 542.5 Q175 540 180 531 Z M162 513 Q164 515 164 518 Q164 521 162 522 Q158 524 156 524 Q154 522 152 520 Q150 518 150 516 L149 515 Q150 515 150 514.5 Q150 514 151 514 Q155 514 157 512 L161 512 Q162 512 162 513 Z " />
<glyph glyph-name="Aring" unicode="&#xc5;" horiz-adv-x="341" d="M400 591 Q405 571 398 550 Q396 539 393 529 Q390 519 387 508 Q380 485 371 463.5 Q362 442 353 420 Q344 398 333.5 376 Q323 354 315 331 Q311 320 308 309 Q305 298 301 287 Q296 275 292 263.5 Q288 252 284 240 Q278 223 272 207 Q266 191 261 174 L288 183 Q292 185 295.5 182.5 Q299 180 300 176 Q302 167 293 164 Q283 161 273 158 Q263 155 253 151 Q253 150 252.5 150 Q252 150 252 149 Q237 103 222.5 57.5 Q208 12 194 -34 Q191 -43 181.5 -40 Q172 -37 175 -28 Q189 14 202 55.5 Q215 97 229 139 Q229 141 229.5 142 Q230 143 230 145 Q209 138 188 132.5 Q167 127 146 121 Q110 110 74 98 Q38 86 4 69 Q-7 48 -22 25 Q-25 20 -28 15 Q-31 10 -34 5 Q-39 -6 -44 -14 Q-47 -17 -51 -25 Q-52 -27 -52.5 -29 Q-53 -31 -55 -33 Q-57 -37 -60 -41 Q-63 -45 -65 -50 Q-76 -68 -88.5 -85.5 Q-101 -103 -115 -118 Q-123 -126 -130.5 -133.5 Q-138 -141 -147 -147 Q-156 -152 -167.5 -154.5 Q-179 -157 -189 -153 Q-201 -150 -206 -140 Q-210 -132 -208 -119 Q-206 -109 -201 -99 Q-196 -89 -191 -80 Q-188 -75 -184.5 -69.5 Q-181 -64 -178 -59 Q-176 -56 -172 -52 Q-170 -50 -169 -48 Q-168 -46 -166 -44 Q-161 -36 -154.5 -28.5 Q-148 -21 -141 -13 Q-116 15 -85.5 37.5 Q-55 60 -22 78 L-10 84 Q-2 98 5.5 111.5 Q13 125 21 139 Q44 179 67.5 219 Q91 259 116 299 Q141 340 166.5 379.5 Q192 419 219 458 Q226 468 232.5 478.5 Q239 489 247 498 Q255 506 261 515 Q267 524 273 532 Q287 549 301 565 Q315 581 332 595 Q340 602 349 607 Q358 612 369 613 Q381 615 389 609 Q394 606 396 601 Q398 596 400 591 Z M-49 18 Q-44 26 -38.5 34.5 Q-33 43 -28 52 Q-76 25 -115 -14 Q-122 -21 -128.5 -27.5 Q-135 -34 -141 -42 Q-144 -46 -146.5 -49.5 Q-149 -53 -152 -58 Q-155 -62 -158.5 -65.5 Q-162 -69 -164 -74 Q-170 -83 -175.5 -92.5 Q-181 -102 -186 -113 Q-190 -123 -189 -130 Q-186 -133 -187 -133 Q-181 -135 -178 -135 Q-168 -135 -160 -132 Q-155 -130 -151.5 -126.5 Q-148 -123 -145 -120 Q-129 -107 -116 -89 Q-109 -81 -103 -72.5 Q-97 -64 -92 -56 Q-89 -51 -86 -46.5 Q-83 -42 -80 -37 Q-78 -33 -75 -29 Q-72 -25 -70 -20 Q-68 -18 -67.5 -15 Q-67 -12 -65 -10 L-59 -1 Q-56 4 -53.5 8.5 Q-51 13 -49 18 Z M376 542 Q379 552 381.5 561.5 Q384 571 382 581 Q381 584 379.5 588.5 Q378 593 376 593 Q371 596 362 592 Q353 587 345.5 580.5 Q338 574 330 567 Q315 552 301 535.5 Q287 519 275 502 Q272 497 268.5 493 Q265 489 261 484 Q257 480 254 475.5 Q251 471 248 466 Q241 456 234.5 446 Q228 436 220 426 Q167 348 119.5 268 Q72 188 25 106 Q23 104 22.5 102 Q22 100 20 98 Q44 108 68.5 116.5 Q93 125 118 133 Q148 142 178 150 Q208 158 238 167 Q243 183 248.5 199 Q254 215 260 231 Q268 254 276.5 277 Q285 300 292 323 Q299 346 309 367.5 Q319 389 329 412 Q338 434 347 455.5 Q356 477 363 499 Q367 510 370 520.5 Q373 531 376 542 Z M428 702 Q433 693 431 682 Q429 671 418 666 Q410 663 400 664.5 Q390 666 384 672 Q376 679 378 687 Q380 695 385 703 Q383 708 385.5 712 Q388 716 394 716 Q403 716 413 713.5 Q423 711 428 702 Z M410 684 Q412 686 412 689 Q412 692 410 693 Q406 695 404 695 Q402 693 400 691 Q398 689 398 687 L397 686 Q398 686 398 685.5 Q398 685 399 685 Q403 685 405 683 L409 683 Q410 683 410 684 Z " />
<glyph glyph-name="AE" unicode="&#xc6;" horiz-adv-x="606" d="M400 591 Q405 571 398 550 Q396 539 393 529 Q390 519 387 508 Q380 485 371 463.5 Q362 442 353 420 Q344 398 333.5 376 Q323 354 315 331 Q311 320 308 309 Q305 298 301 287 Q296 275 292 263.5 Q288 252 284 240 Q278 223 272 207 Q266 191 261 174 L288 183 Q292 185 295.5 182.5 Q299 180 300 176 Q302 167 293 164 Q283 161 273 158 Q263 155 253 151 Q253 150 252.5 150 Q252 150 252 149 Q237 103 222.5 57.5 Q208 12 194 -34 Q191 -43 181.5 -40 Q172 -37 175 -28 Q189 14 202 55.5 Q215 97 229 139 Q229 141 229.5 142 Q230 143 230 145 Q209 138 188 132.5 Q167 127 146 121 Q110 110 74 98 Q38 86 4 69 Q-7 48 -22 25 Q-25 20 -28 15 Q-31 10 -34 5 Q-39 -6 -44 -14 Q-47 -17 -51 -25 Q-52 -27 -52.5 -29 Q-53 -31 -55 -33 Q-57 -37 -60 -41 Q-63 -45 -65 -50 Q-76 -68 -88.5 -85.5 Q-101 -103 -115 -118 Q-123 -126 -130.5 -133.5 Q-138 -141 -147 -147 Q-156 -152 -167.5 -154.5 Q-179 -157 -189 -153 Q-201 -150 -206 -140 Q-210 -132 -208 -119 Q-206 -109 -201 -99 Q-196 -89 -191 -80 Q-188 -75 -184.5 -69.5 Q-181 -64 -178 -59 Q-176 -56 -172 -52 Q-170 -50 -169 -48 Q-168 -46 -166 -44 Q-161 -36 -154.5 -28.5 Q-148 -21 -141 -13 Q-116 15 -85.5 37.5 Q-55 60 -22 78 L-10 84 Q-2 98 5.5 111.5 Q13 125 21 139 Q44 179 67.5 219 Q91 259 116 299 Q141 340 166.5 379.5 Q192 419 219 458 Q226 468 232.5 478.5 Q239 489 247 498 Q255 506 261 515 Q267 524 273 532 Q287 549 301 565 Q315 581 332 595 Q340 602 349 607 Q358 612 369 613 Q381 615 389 609 Q394 606 396 601 Q398 596 400 591 Z M-49 18 Q-44 26 -38.5 34.5 Q-33 43 -28 52 Q-76 25 -115 -14 Q-122 -21 -128.5 -27.5 Q-135 -34 -141 -42 Q-144 -46 -146.5 -49.5 Q-149 -53 -152 -58 Q-155 -62 -158.5 -65.5 Q-162 -69 -164 -74 Q-170 -83 -175.5 -92.5 Q-181 -102 -186 -113 Q-190 -123 -189 -130 Q-186 -133 -187 -133 Q-181 -135 -178 -135 Q-168 -135 -160 -132 Q-155 -130 -151.5 -126.5 Q-148 -123 -145 -120 Q-129 -107 -116 -89 Q-109 -81 -103 -72.5 Q-97 -64 -92 -56 Q-89 -51 -86 -46.5 Q-83 -42 -80 -37 Q-78 -33 -75 -29 Q-72 -25 -70 -20 Q-68 -18 -67.5 -15 Q-67 -12 -65 -10 L-59 -1 Q-56 4 -53.5 8.5 Q-51 13 -49 18 Z M376 542 Q379 552 381.5 561.5 Q384 571 382 581 Q381 584 379.5 588.5 Q378 593 376 593 Q371 596 362 592 Q353 587 345.5 580.5 Q338 574 330 567 Q315 552 301 535.5 Q287 519 275 502 Q272 497 268.5 493 Q265 489 261 484 Q257 480 254 475.5 Q251 471 248 466 Q241 456 234.5 446 Q228 436 220 426 Q167 348 119.5 268 Q72 188 25 106 Q23 104 22.5 102 Q22 100 20 98 Q44 108 68.5 116.5 Q93 125 118 133 Q148 142 178 150 Q208 158 238 167 Q243 183 248.5 199 Q254 215 260 231 Q268 254 276.5 277 Q285 300 292 323 Q299 346 309 367.5 Q319 389 329 412 Q338 434 347 455.5 Q356 477 363 499 Q367 510 370 520.5 Q373 531 376 542 Z M828 547 Q830 538 821 535 Q811 533 809 542 Q808 546 807.5 550 Q807 554 806 558 Q805 560 805 561 Q805 562 804 564 Q804 565 803.5 565.5 Q803 566 803 567 Q801 569 800.5 571.5 Q800 574 798 576 Q797 578 796.5 578.5 Q796 579 795 581 Q795 581 794 582 L793 583 L787 589 L785 591 L784 591 L781 594 Q779 595 777 596 Q775 597 773 598 L771 599 L770 599 Q766 601 766 601 Q760 603 756 603 Q755 604 751 604 L750 604 Q749 604 749 604.5 Q749 605 748 605 L738 605 Q732 605 726 605 Q720 605 715 604 L712 604 Q710 604 710 603 L704 603 L692 600 Q686 598 679.5 597 Q673 596 667 594 Q639 585 613.5 574 Q588 563 562 549 Q538 535 514.5 520.5 Q491 506 469 489 Q464 486 460 483 Q456 480 451 476 Q445 471 439.5 466 Q434 461 428 456 Q413 442 399 426.5 Q385 411 373 394 Q356 368 347 340 Q338 312 340 281 Q342 253 351.5 226 Q361 199 373 174 Q380 160 387 147.5 Q394 135 401 122 Q408 109 418 96 Q420 94 420.5 93 Q421 92 423 90 Q425 89 427 87 Q428 87 429 86 Q430 86 431 85.5 Q432 85 431 85 L432 85 Q433 85 433 84 Q441 84 443 77 Q445 70 438 66 Q435 64 432 62 Q429 60 425 58 Q411 49 397.5 40 Q384 31 370 20 Q357 9 345 -2.5 Q333 -14 324 -28 Q317 -40 314 -52 L314 -54 L314 -56 L314 -60 L314 -61 L314 -62 Q315 -64 315 -66 Q316 -67 316 -68 Q316 -68 317 -69 Q317 -69 319 -70 Q319 -70 321 -72 Q321 -72 322 -73 Q325 -73 326 -74 L329 -74 L330 -74 Q330 -75 332 -75 L341 -75 Q343 -74 346 -74 L347 -74 L349 -74 Q355 -72 360.5 -71 Q366 -70 372 -68 Q385 -64 396 -59.5 Q407 -55 419 -49 Q430 -43 441 -37 Q452 -31 463 -23 Q469 -20 473 -16 L474 -16 Q474 -16 476 -14 L479 -11 Q483 -8 486 -5 Q489 -2 492 1 Q494 4 498.5 4 Q503 4 506 1 Q512 -5 506 -12 Q501 -19 495 -24 Q489 -29 482 -34 Q461 -49 438 -61.5 Q415 -74 390 -83 Q379 -87 367.5 -89.5 Q356 -92 344 -94 Q335 -95 325.5 -93.5 Q316 -92 308 -87 Q297 -78 295 -66.5 Q293 -55 296.5 -42.5 Q300 -30 307.5 -18.5 Q315 -7 322 1 Q341 23 364.5 40.5 Q388 58 413 73 Q405 80 399.5 88.5 Q394 97 389 105 Q374 130 360 156.5 Q346 183 336 211 Q326 239 321.5 268 Q317 297 323 327 Q330 362 349 392 Q368 422 392 448 Q413 470 436.5 489 Q460 508 485 525 Q509 541 534 555.5 Q559 570 585 582 Q611 594 637 604 Q663 614 691 620 Q714 625 737 625 Q760 625 782 616 Q802 606 813.5 587.5 Q825 569 828 547 Z " />
<glyph glyph-name="cedilla" unicode="&#xb8;" horiz-adv-x="121" d="M36 -14 Q38 -23 34 -29.5 Q30 -36 23 -41 Q16 -46 7.5 -49.5 Q-1 -53 -7 -55 Q-15 -58 -19 -48 Q-21 -39 -12 -36 Q2 -31 12 -25 Q13 -24 14 -23.5 Q15 -23 16 -21 L17 -20 L17 -19 Q17 -18 16 -17 L15 -17 L14 -17 L11 -17 L3 -17 Q-1 -17 -5 -16.5 Q-9 -16 -12 -12 Q-18 -5 -14.5 3.5 Q-11 12 -9 19 Q-8 23 -4.5 24.5 Q-1 26 2.5 25.5 Q6 25 8 21.5 Q10 18 9 14 L6 2 Q18 4 24 0 Q34 -3 36 -14 Z " />
<glyph glyph-name="Ccedilla" unicode="&#xc7;" horiz-adv-x="274" d="M284 582 Q285 570 284 560 Q282 546 278.5 532.5 Q275 519 270 505 Q259 479 247.5 454.5 Q236 430 223 405 Q221 401 217.5 400.5 Q214 400 211 402 Q208 404 206 407.5 Q204 411 206 415 Q214 429 221 444 Q228 459 235 474 Q248 500 257 530 Q259 536 261 542.5 Q263 549 264 556 Q264 558 265 559 L265 561 L265 566 L265 575 Q264 576 264 577 L264 579 L264 581 Q263 582 263 582.5 Q263 583 262 584 L260 584 Q260 583 258 583 L256 581 L255 581 L255 580 Q247 575 243 568 Q241 566 239.5 564.5 Q238 563 236 561 Q236 560 235 559 L234 558 Q233 556 231 554 Q227 549 224 544.5 Q221 540 218 535 Q206 517 193 495 Q188 487 184 479 Q180 471 175 462 Q172 457 170 452 Q169 451 169 450 L169 452 L169 453 Q169 451 168 450 L169 450 L168 450 L168 449 L168 448 Q156 427 145 405.5 Q134 384 123 362 Q103 320 84.5 277.5 Q66 235 49 190 Q33 150 19 104 Q12 83 6 61 Q0 39 -2 17 Q-5 -6 -4 -24 Q-3 -30 -3 -34.5 Q-3 -39 -1 -45 Q0 -47 0.5 -49 Q1 -51 2 -53 L2 -54 Q2 -55 3 -56 Q4 -57 4 -57.5 Q4 -58 5 -59 Q5 -59 6 -61 Q6 -61 8 -63 Q9 -63 9 -64 Q10 -64 11 -65 Q11 -65 13 -66 L14 -66 Q14 -66 15 -67 L17 -67 L18 -67 L22 -67 L24 -67 Q26 -67 27 -66.5 Q28 -66 30 -66 Q34 -64 36 -64 Q37 -63 37.5 -63 Q38 -63 39 -62 Q40 -62 40.5 -61.5 Q41 -61 42 -61 Q51 -56 58 -51 Q64 -47 66 -45 Q67 -45 67 -44 Q68 -44 69 -43 Q72 -42 73 -39 Q83 -32 90 -24 Q108 -8 124 10 Q139 27 152 44 Q165 61 178 81 Q183 88 186.5 94.5 Q190 101 194 108 Q195 109 195 109.5 Q195 110 196 111 Q196 112 196.5 113 Q197 114 196 112 Q197 114 198 116.5 Q199 119 200 121 Q200 122 201 123 Q201 124 201.5 124.5 Q202 125 202 126 Q203 128 203 129 Q203 130 204 132 Q206 136 208 144 Q212 155 212 167 L212 170 L212 172 Q211 172 211 173 L211 174 Q209 176 210 176 L209 176 L208 177 L206 177 L203 177 L201 177 L200 177 Q200 176 199 176 Q193 173 188 168 Q179 159 172 145 Q166 136 158 142 Q154 144 153.5 147.5 Q153 151 155 155 Q161 169 173.5 182 Q186 195 202 197 Q218 199 226 186 Q230 181 231 175 Q232 169 232 164 Q231 150 226.5 137 Q222 124 217 112 Q215 108 215 106 Q214 106 214 105 Q215 107 214.5 105.5 Q214 104 213 103 Q213 102 211 98 Q209 95 207.5 92 Q206 89 204 86 Q193 67 180.5 50 Q168 33 154 17 Q139 -2 123 -19.5 Q107 -37 89 -52 Q75 -64 58 -74.5 Q41 -85 22 -87 Q3 -88 -7 -75 Q-17 -62 -21 -45 Q-29 -4 -20 36 Q-11 76 2 114 Q31 204 68 289.5 Q105 375 150 457 Q152 460 153 462.5 Q154 465 156 468 Q163 482 172 497 Q183 517 195.5 536.5 Q208 556 222 574 Q228 581 234 587.5 Q240 594 248 599 Q254 603 262 603.5 Q270 604 275 598 Q277 596 277 595 Q278 595 277 596 Q277 595 277.5 595 Q278 595 278 594 Q280 592 280 591 Q282 588 284 582 Z M168 449 Q168 448 167.5 447.5 Q167 447 168 449 Z M262 584 Q263 583 263 582.5 Q263 582 262 584 L262 584 Z M64 -140 Q66 -149 62 -155.5 Q58 -162 51 -167 Q44 -172 35.5 -175.5 Q27 -179 21 -181 Q13 -184 9 -174 Q7 -165 16 -162 Q30 -157 40 -151 Q41 -150 42 -149.5 Q43 -149 44 -147 L45 -146 L45 -145 Q45 -144 44 -143 L43 -143 L42 -143 L39 -143 L31 -143 Q27 -143 23 -142.5 Q19 -142 16 -138 Q10 -131 13.5 -122.5 Q17 -114 19 -107 Q20 -103 23.5 -101.5 Q27 -100 30.5 -100.5 Q34 -101 36 -104.5 Q38 -108 37 -112 L34 -124 Q46 -122 52 -126 Q62 -129 64 -140 Z " />
<glyph glyph-name="Egrave" unicode="&#xc8;" horiz-adv-x="265" d="M487 547 Q489 538 480 535 Q470 533 468 542 Q467 546 466.5 550 Q466 554 465 558 Q464 560 464 561 Q464 562 463 564 Q463 565 462.5 565.5 Q462 566 462 567 Q460 569 459.5 571.5 Q459 574 457 576 Q456 578 455.5 578.5 Q455 579 454 581 Q454 581 453 582 L452 583 L446 589 L444 591 L443 591 L440 594 Q438 595 436 596 Q434 597 432 598 L430 599 L429 599 Q425 601 425 601 Q419 603 415 603 Q414 604 410 604 L409 604 Q408 604 408 604.5 Q408 605 407 605 L397 605 Q391 605 385 605 Q379 605 374 604 L371 604 Q369 604 369 603 L363 603 L351 600 Q345 598 338.5 597 Q332 596 326 594 Q298 585 272.5 574 Q247 563 221 549 Q197 535 173.5 520.5 Q150 506 128 489 Q123 486 119 483 Q115 480 110 476 Q104 471 98.5 466 Q93 461 87 456 Q72 442 58 426.5 Q44 411 32 394 Q15 368 6 340 Q-3 312 -1 281 Q1 253 10.5 226 Q20 199 32 174 Q39 160 46 147.5 Q53 135 60 122 Q67 109 77 96 Q79 94 79.5 93 Q80 92 82 90 Q84 89 86 87 Q87 87 88 86 Q89 86 90 85.5 Q91 85 90 85 L91 85 Q92 85 92 84 Q100 84 102 77 Q104 70 97 66 Q94 64 91 62 Q88 60 84 58 Q70 49 56.5 40 Q43 31 29 20 Q16 9 4 -2.5 Q-8 -14 -17 -28 Q-24 -40 -27 -52 L-27 -54 L-27 -56 L-27 -60 L-27 -61 L-27 -62 Q-26 -64 -26 -66 Q-25 -67 -25 -68 Q-25 -68 -24 -69 Q-24 -69 -22 -70 Q-22 -70 -20 -72 Q-20 -72 -19 -73 Q-16 -73 -15 -74 L-12 -74 L-11 -74 Q-11 -75 -9 -75 L0 -75 Q2 -74 5 -74 L6 -74 L8 -74 Q14 -72 19.5 -71 Q25 -70 31 -68 Q44 -64 55 -59.5 Q66 -55 78 -49 Q89 -43 100 -37 Q111 -31 122 -23 Q128 -20 132 -16 L133 -16 Q133 -16 135 -14 L138 -11 Q142 -8 145 -5 Q148 -2 151 1 Q153 4 157.5 4 Q162 4 165 1 Q171 -5 165 -12 Q160 -19 154 -24 Q148 -29 141 -34 Q120 -49 97 -61.5 Q74 -74 49 -83 Q38 -87 26.5 -89.5 Q15 -92 3 -94 Q-6 -95 -15.5 -93.5 Q-25 -92 -33 -87 Q-44 -78 -46 -66.5 Q-48 -55 -44.5 -42.5 Q-41 -30 -33.5 -18.5 Q-26 -7 -19 1 Q0 23 23.5 40.5 Q47 58 72 73 Q64 80 58.5 88.5 Q53 97 48 105 Q33 130 19 156.5 Q5 183 -5 211 Q-15 239 -19.5 268 Q-24 297 -18 327 Q-11 362 8 392 Q27 422 51 448 Q72 470 95.5 489 Q119 508 144 525 Q168 541 193 555.5 Q218 570 244 582 Q270 594 296 604 Q322 614 350 620 Q373 625 396 625 Q419 625 441 616 Q461 606 472.5 587.5 Q484 569 487 547 Z M454 700 Q459 694 450.5 690 Q442 686 437 693 Q426 707 414 720.5 Q402 734 391 748 Q389 751 390.5 753.5 Q392 756 395 757.5 Q398 759 402 759 Q406 759 408 756 Q419 741 431 727.5 Q443 714 454 700 Z " />
<glyph glyph-name="Eacute" unicode="&#xc9;" horiz-adv-x="265" d="M487 547 Q489 538 480 535 Q470 533 468 542 Q467 546 466.5 550 Q466 554 465 558 Q464 560 464 561 Q464 562 463 564 Q463 565 462.5 565.5 Q462 566 462 567 Q460 569 459.5 571.5 Q459 574 457 576 Q456 578 455.5 578.5 Q455 579 454 581 Q454 581 453 582 L452 583 L446 589 L444 591 L443 591 L440 594 Q438 595 436 596 Q434 597 432 598 L430 599 L429 599 Q425 601 425 601 Q419 603 415 603 Q414 604 410 604 L409 604 Q408 604 408 604.5 Q408 605 407 605 L397 605 Q391 605 385 605 Q379 605 374 604 L371 604 Q369 604 369 603 L363 603 L351 600 Q345 598 338.5 597 Q332 596 326 594 Q298 585 272.5 574 Q247 563 221 549 Q197 535 173.5 520.5 Q150 506 128 489 Q123 486 119 483 Q115 480 110 476 Q104 471 98.5 466 Q93 461 87 456 Q72 442 58 426.5 Q44 411 32 394 Q15 368 6 340 Q-3 312 -1 281 Q1 253 10.5 226 Q20 199 32 174 Q39 160 46 147.5 Q53 135 60 122 Q67 109 77 96 Q79 94 79.5 93 Q80 92 82 90 Q84 89 86 87 Q87 87 88 86 Q89 86 90 85.5 Q91 85 90 85 L91 85 Q92 85 92 84 Q100 84 102 77 Q104 70 97 66 Q94 64 91 62 Q88 60 84 58 Q70 49 56.5 40 Q43 31 29 20 Q16 9 4 -2.5 Q-8 -14 -17 -28 Q-24 -40 -27 -52 L-27 -54 L-27 -56 L-27 -60 L-27 -61 L-27 -62 Q-26 -64 -26 -66 Q-25 -67 -25 -68 Q-25 -68 -24 -69 Q-24 -69 -22 -70 Q-22 -70 -20 -72 Q-20 -72 -19 -73 Q-16 -73 -15 -74 L-12 -74 L-11 -74 Q-11 -75 -9 -75 L0 -75 Q2 -74 5 -74 L6 -74 L8 -74 Q14 -72 19.5 -71 Q25 -70 31 -68 Q44 -64 55 -59.5 Q66 -55 78 -49 Q89 -43 100 -37 Q111 -31 122 -23 Q128 -20 132 -16 L133 -16 Q133 -16 135 -14 L138 -11 Q142 -8 145 -5 Q148 -2 151 1 Q153 4 157.5 4 Q162 4 165 1 Q171 -5 165 -12 Q160 -19 154 -24 Q148 -29 141 -34 Q120 -49 97 -61.5 Q74 -74 49 -83 Q38 -87 26.5 -89.5 Q15 -92 3 -94 Q-6 -95 -15.5 -93.5 Q-25 -92 -33 -87 Q-44 -78 -46 -66.5 Q-48 -55 -44.5 -42.5 Q-41 -30 -33.5 -18.5 Q-26 -7 -19 1 Q0 23 23.5 40.5 Q47 58 72 73 Q64 80 58.5 88.5 Q53 97 48 105 Q33 130 19 156.5 Q5 183 -5 211 Q-15 239 -19.5 268 Q-24 297 -18 327 Q-11 362 8 392 Q27 422 51 448 Q72 470 95.5 489 Q119 508 144 525 Q168 541 193 555.5 Q218 570 244 582 Q270 594 296 604 Q322 614 350 620 Q373 625 396 625 Q419 625 441 616 Q461 606 472.5 587.5 Q484 569 487 547 Z M437 740 Q441 742 445 740.5 Q449 739 450.5 736 Q452 733 451.5 729 Q451 725 447 723 Q436 718 426 710.5 Q416 703 405 698 Q400 696 396.5 697.5 Q393 699 391.5 702 Q390 705 390.5 709 Q391 713 395 715 Q406 720 416 727.5 Q426 735 437 740 Z " />
<glyph glyph-name="Ecircumflex" unicode="&#xca;" horiz-adv-x="265" d="M487 547 Q489 538 480 535 Q470 533 468 542 Q467 546 466.5 550 Q466 554 465 558 Q464 560 464 561 Q464 562 463 564 Q463 565 462.5 565.5 Q462 566 462 567 Q460 569 459.5 571.5 Q459 574 457 576 Q456 578 455.5 578.5 Q455 579 454 581 Q454 581 453 582 L452 583 L446 589 L444 591 L443 591 L440 594 Q438 595 436 596 Q434 597 432 598 L430 599 L429 599 Q425 601 425 601 Q419 603 415 603 Q414 604 410 604 L409 604 Q408 604 408 604.5 Q408 605 407 605 L397 605 Q391 605 385 605 Q379 605 374 604 L371 604 Q369 604 369 603 L363 603 L351 600 Q345 598 338.5 597 Q332 596 326 594 Q298 585 272.5 574 Q247 563 221 549 Q197 535 173.5 520.5 Q150 506 128 489 Q123 486 119 483 Q115 480 110 476 Q104 471 98.5 466 Q93 461 87 456 Q72 442 58 426.5 Q44 411 32 394 Q15 368 6 340 Q-3 312 -1 281 Q1 253 10.5 226 Q20 199 32 174 Q39 160 46 147.5 Q53 135 60 122 Q67 109 77 96 Q79 94 79.5 93 Q80 92 82 90 Q84 89 86 87 Q87 87 88 86 Q89 86 90 85.5 Q91 85 90 85 L91 85 Q92 85 92 84 Q100 84 102 77 Q104 70 97 66 Q94 64 91 62 Q88 60 84 58 Q70 49 56.5 40 Q43 31 29 20 Q16 9 4 -2.5 Q-8 -14 -17 -28 Q-24 -40 -27 -52 L-27 -54 L-27 -56 L-27 -60 L-27 -61 L-27 -62 Q-26 -64 -26 -66 Q-25 -67 -25 -68 Q-25 -68 -24 -69 Q-24 -69 -22 -70 Q-22 -70 -20 -72 Q-20 -72 -19 -73 Q-16 -73 -15 -74 L-12 -74 L-11 -74 Q-11 -75 -9 -75 L0 -75 Q2 -74 5 -74 L6 -74 L8 -74 Q14 -72 19.5 -71 Q25 -70 31 -68 Q44 -64 55 -59.5 Q66 -55 78 -49 Q89 -43 100 -37 Q111 -31 122 -23 Q128 -20 132 -16 L133 -16 Q133 -16 135 -14 L138 -11 Q142 -8 145 -5 Q148 -2 151 1 Q153 4 157.5 4 Q162 4 165 1 Q171 -5 165 -12 Q160 -19 154 -24 Q148 -29 141 -34 Q120 -49 97 -61.5 Q74 -74 49 -83 Q38 -87 26.5 -89.5 Q15 -92 3 -94 Q-6 -95 -15.5 -93.5 Q-25 -92 -33 -87 Q-44 -78 -46 -66.5 Q-48 -55 -44.5 -42.5 Q-41 -30 -33.5 -18.5 Q-26 -7 -19 1 Q0 23 23.5 40.5 Q47 58 72 73 Q64 80 58.5 88.5 Q53 97 48 105 Q33 130 19 156.5 Q5 183 -5 211 Q-15 239 -19.5 268 Q-24 297 -18 327 Q-11 362 8 392 Q27 422 51 448 Q72 470 95.5 489 Q119 508 144 525 Q168 541 193 555.5 Q218 570 244 582 Q270 594 296 604 Q322 614 350 620 Q373 625 396 625 Q419 625 441 616 Q461 606 472.5 587.5 Q484 569 487 547 Z M450 712 Q453 709 451.5 705 Q450 701 447 699 Q440 695 434 702 Q431 706 428.5 709.5 Q426 713 423 717 Q421 719 419.5 721 Q418 723 416 725 Q415 725 415 724 Q413 722 411 720.5 Q409 719 407 717 Q403 713 399 709.5 Q395 706 390 701 Q387 698 383 698.5 Q379 699 376.5 702 Q374 705 373.5 708.5 Q373 712 376 715 Q382 720 388 725 Q394 730 399 736 Q404 741 408.5 744 Q413 747 421 744 Q426 742 430 738 Q434 734 438 729 Q441 724 444 720.5 Q447 717 450 712 Z " />
<glyph glyph-name="Edieresis" unicode="&#xcb;" horiz-adv-x="265" d="M487 547 Q489 538 480 535 Q470 533 468 542 Q467 546 466.5 550 Q466 554 465 558 Q464 560 464 561 Q464 562 463 564 Q463 565 462.5 565.5 Q462 566 462 567 Q460 569 459.5 571.5 Q459 574 457 576 Q456 578 455.5 578.5 Q455 579 454 581 Q454 581 453 582 L452 583 L446 589 L444 591 L443 591 L440 594 Q438 595 436 596 Q434 597 432 598 L430 599 L429 599 Q425 601 425 601 Q419 603 415 603 Q414 604 410 604 L409 604 Q408 604 408 604.5 Q408 605 407 605 L397 605 Q391 605 385 605 Q379 605 374 604 L371 604 Q369 604 369 603 L363 603 L351 600 Q345 598 338.5 597 Q332 596 326 594 Q298 585 272.5 574 Q247 563 221 549 Q197 535 173.5 520.5 Q150 506 128 489 Q123 486 119 483 Q115 480 110 476 Q104 471 98.5 466 Q93 461 87 456 Q72 442 58 426.5 Q44 411 32 394 Q15 368 6 340 Q-3 312 -1 281 Q1 253 10.5 226 Q20 199 32 174 Q39 160 46 147.5 Q53 135 60 122 Q67 109 77 96 Q79 94 79.5 93 Q80 92 82 90 Q84 89 86 87 Q87 87 88 86 Q89 86 90 85.5 Q91 85 90 85 L91 85 Q92 85 92 84 Q100 84 102 77 Q104 70 97 66 Q94 64 91 62 Q88 60 84 58 Q70 49 56.5 40 Q43 31 29 20 Q16 9 4 -2.5 Q-8 -14 -17 -28 Q-24 -40 -27 -52 L-27 -54 L-27 -56 L-27 -60 L-27 -61 L-27 -62 Q-26 -64 -26 -66 Q-25 -67 -25 -68 Q-25 -68 -24 -69 Q-24 -69 -22 -70 Q-22 -70 -20 -72 Q-20 -72 -19 -73 Q-16 -73 -15 -74 L-12 -74 L-11 -74 Q-11 -75 -9 -75 L0 -75 Q2 -74 5 -74 L6 -74 L8 -74 Q14 -72 19.5 -71 Q25 -70 31 -68 Q44 -64 55 -59.5 Q66 -55 78 -49 Q89 -43 100 -37 Q111 -31 122 -23 Q128 -20 132 -16 L133 -16 Q133 -16 135 -14 L138 -11 Q142 -8 145 -5 Q148 -2 151 1 Q153 4 157.5 4 Q162 4 165 1 Q171 -5 165 -12 Q160 -19 154 -24 Q148 -29 141 -34 Q120 -49 97 -61.5 Q74 -74 49 -83 Q38 -87 26.5 -89.5 Q15 -92 3 -94 Q-6 -95 -15.5 -93.5 Q-25 -92 -33 -87 Q-44 -78 -46 -66.5 Q-48 -55 -44.5 -42.5 Q-41 -30 -33.5 -18.5 Q-26 -7 -19 1 Q0 23 23.5 40.5 Q47 58 72 73 Q64 80 58.5 88.5 Q53 97 48 105 Q33 130 19 156.5 Q5 183 -5 211 Q-15 239 -19.5 268 Q-24 297 -18 327 Q-11 362 8 392 Q27 422 51 448 Q72 470 95.5 489 Q119 508 144 525 Q168 541 193 555.5 Q218 570 244 582 Q270 594 296 604 Q322 614 350 620 Q373 625 396 625 Q419 625 441 616 Q461 606 472.5 587.5 Q484 569 487 547 Z M380 718 Q390 718 390 708.5 Q390 699 380 699 Q371 699 371 708.5 Q371 718 380 718 Z M415 719 Q425 719 425 709 Q425 699 415 699 Q405 699 405 709 Q405 719 415 719 Z " />
<glyph glyph-name="Igrave" unicode="&#xcc;" horiz-adv-x="116" d="M268 630 Q278 630 278 620 Q278 612 268 610 Q251 608 233.5 605 Q216 602 199 599 Q177 521 152.5 444.5 Q128 368 102 291 Q71 200 39 111.5 Q7 23 -26 -67 Q-12 -65 1.5 -62.5 Q15 -60 29 -58 Q39 -58 39 -68 Q39 -76 29 -78 Q-5 -82 -38.5 -89.5 Q-72 -97 -107 -93 Q-117 -93 -117 -83 Q-117 -79 -114.5 -76 Q-112 -73 -107 -74 Q-92 -76 -77 -74.5 Q-62 -73 -48 -71 Q-20 6 7.5 81.5 Q35 157 62 234 Q94 324 123 414 Q152 504 178 596 Q145 590 112 590 Q102 590 102 599.5 Q102 609 112 609 Q152 609 190.5 617 Q229 625 268 630 Z M223 683 Q228 677 219.5 673 Q211 669 206 676 Q195 690 183 703.5 Q171 717 160 731 Q158 734 159.5 736.5 Q161 739 164 740.5 Q167 742 171 742 Q175 742 177 739 Q188 724 200 710.5 Q212 697 223 683 Z " />
<glyph glyph-name="Iacute" unicode="&#xcd;" horiz-adv-x="116" d="M268 630 Q278 630 278 620 Q278 612 268 610 Q251 608 233.5 605 Q216 602 199 599 Q177 521 152.5 444.5 Q128 368 102 291 Q71 200 39 111.5 Q7 23 -26 -67 Q-12 -65 1.5 -62.5 Q15 -60 29 -58 Q39 -58 39 -68 Q39 -76 29 -78 Q-5 -82 -38.5 -89.5 Q-72 -97 -107 -93 Q-117 -93 -117 -83 Q-117 -79 -114.5 -76 Q-112 -73 -107 -74 Q-92 -76 -77 -74.5 Q-62 -73 -48 -71 Q-20 6 7.5 81.5 Q35 157 62 234 Q94 324 123 414 Q152 504 178 596 Q145 590 112 590 Q102 590 102 599.5 Q102 609 112 609 Q152 609 190.5 617 Q229 625 268 630 Z M204 727 Q208 729 212 727.5 Q216 726 217.5 723 Q219 720 218.5 716 Q218 712 214 710 Q203 705 193 697.5 Q183 690 172 685 Q167 683 163.5 684.5 Q160 686 158.5 689 Q157 692 157.5 696 Q158 700 162 702 Q173 707 183 714.5 Q193 722 204 727 Z " />
<glyph glyph-name="Icircumflex" unicode="&#xce;" horiz-adv-x="116" d="M268 630 Q278 630 278 620 Q278 612 268 610 Q251 608 233.5 605 Q216 602 199 599 Q177 521 152.5 444.5 Q128 368 102 291 Q71 200 39 111.5 Q7 23 -26 -67 Q-12 -65 1.5 -62.5 Q15 -60 29 -58 Q39 -58 39 -68 Q39 -76 29 -78 Q-5 -82 -38.5 -89.5 Q-72 -97 -107 -93 Q-117 -93 -117 -83 Q-117 -79 -114.5 -76 Q-112 -73 -107 -74 Q-92 -76 -77 -74.5 Q-62 -73 -48 -71 Q-20 6 7.5 81.5 Q35 157 62 234 Q94 324 123 414 Q152 504 178 596 Q145 590 112 590 Q102 590 102 599.5 Q102 609 112 609 Q152 609 190.5 617 Q229 625 268 630 Z M237 699 Q240 696 238.5 692 Q237 688 234 686 Q227 682 221 689 Q218 693 215.5 696.5 Q213 700 210 704 Q208 706 206.5 708 Q205 710 203 712 Q202 712 202 711 Q200 709 198 707.5 Q196 706 194 704 Q190 700 186 696.5 Q182 693 177 688 Q174 685 170 685.5 Q166 686 163.5 689 Q161 692 160.5 695.5 Q160 699 163 702 Q169 707 175 712 Q181 717 186 723 Q191 728 195.5 731 Q200 734 208 731 Q213 729 217 725 Q221 721 225 716 Q228 711 231 707.5 Q234 704 237 699 Z " />
<glyph glyph-name="Idieresis" unicode="&#xcf;" horiz-adv-x="116" d="M268 630 Q278 630 278 620 Q278 612 268 610 Q251 608 233.5 605 Q216 602 199 599 Q177 521 152.5 444.5 Q128 368 102 291 Q71 200 39 111.5 Q7 23 -26 -67 Q-12 -65 1.5 -62.5 Q15 -60 29 -58 Q39 -58 39 -68 Q39 -76 29 -78 Q-5 -82 -38.5 -89.5 Q-72 -97 -107 -93 Q-117 -93 -117 -83 Q-117 -79 -114.5 -76 Q-112 -73 -107 -74 Q-92 -76 -77 -74.5 Q-62 -73 -48 -71 Q-20 6 7.5 81.5 Q35 157 62 234 Q94 324 123 414 Q152 504 178 596 Q145 590 112 590 Q102 590 102 599.5 Q102 609 112 609 Q152 609 190.5 617 Q229 625 268 630 Z M176 718 Q186 718 186 708.5 Q186 699 176 699 Q167 699 167 708.5 Q167 718 176 718 Z M211 719 Q221 719 221 709 Q221 699 211 699 Q201 699 201 709 Q201 719 211 719 Z " />
<glyph glyph-name="Ntilde" unicode="&#xd1;" horiz-adv-x="522" d="M532 569 Q538 541 538.5 513.5 Q539 486 537 458 Q531 393 516 330 Q499 260 476.5 192 Q454 124 429 56 Q406 -5 383 -65.5 Q360 -126 340 -188 Q337 -197 327.5 -194.5 Q318 -192 321 -183 L330 -156 Q352 -93 375.5 -30.5 Q399 32 422 96 Q446 163 468 230.5 Q490 298 504 368 Q510 398 514 428 Q518 458 519 489 Q520 516 517.5 541 Q515 566 506 591 Q504 597 502.5 600.5 Q501 604 499 609 Q494 618 490 624 L489 624 L489 625 L488 626 L485 629 Q483 632 480 634 Q480 635 478.5 635.5 Q477 636 478 636 Q476 638 476 638 L470 641 Q469 642 468.5 642 Q468 642 467 643 L465 643 Q461 645 459 645 Q458 645 457 645.5 Q456 646 455 646 L453 646 Q451 646 450 646.5 Q449 647 447 647 Q442 647 439 646 L436 646 L435 646 L434 646 Q424 644 419 642 Q417 641 414.5 641 Q412 641 410 639 Q409 639 408.5 638.5 Q408 638 406 638 Q406 638 405 637 L404 637 Q399 635 395.5 633 Q392 631 387 629 Q370 619 352 606 Q350 604 349 603.5 Q348 603 347 602 Q346 602 345 601 Q345 600 344 600 L343 600 L335 592 Q330 588 325.5 584.5 Q321 581 316 577 Q306 568 297 559 Q288 550 279 541 Q203 462 142 366 Q128 344 114.5 322 Q101 300 89 277 Q84 267 79.5 257 Q75 247 70 237 Q70 236 69.5 236 Q69 236 69 235 L69 234 L69 233 Q67 229 67 228 Q65 222 63 220 L57 202 Q56 197 52.5 196 Q49 195 45.5 195.5 Q42 196 39.5 199 Q37 202 39 207 Q45 231 54 255 Q83 345 116.5 433.5 Q150 522 173 614 Q174 618 177.5 619.5 Q181 621 184.5 620 Q188 619 190.5 616 Q193 613 192 608 Q189 596 185.5 584 Q182 572 179 559 Q163 505 144.5 452.5 Q126 400 106 347 Q117 366 129.5 384 Q142 402 154 420 Q186 465 221.5 507.5 Q257 550 299 587 Q332 618 372 643 Q388 652 405 658.5 Q422 665 441 666 Q474 668 497 645 Q512 630 520 609.5 Q528 589 532 569 Z M487 734 Q489 738 493 738.5 Q497 739 500 737 Q503 735 504.5 731.5 Q506 728 504 724 Q500 716 493.5 711.5 Q487 707 478 709 Q470 709 463.5 712 Q457 715 451 719 Q451 720 449.5 720.5 Q448 721 449 721 Q447 721 446.5 721.5 Q446 722 445 722 Q441 723 436 723 L435 723 L433 723 L432 723 L432 722 L431 722 L431 720 L431 718 Q432 713 429 710.5 Q426 708 422 708 Q412 708 412 718 Q410 735 426 741 Q431 743 437.5 743 Q444 743 450 741 Q456 739 461 736 Q466 733 472 730 Q477 728 480.5 728 Q484 728 487 734 Z " />
<glyph glyph-name="Ograve" unicode="&#xd2;" horiz-adv-x="404" d="M401 464 Q411 380 396 297 Q381 214 353 136 Q339 98 322.5 60 Q306 22 289 -15 Q274 -48 255.5 -80.5 Q237 -113 211 -137 Q199 -148 185 -156.5 Q171 -165 155.5 -170 Q140 -175 124 -174.5 Q108 -174 93 -166 Q79 -158 69.5 -145.5 Q60 -133 54 -119 Q46 -100 43.5 -80 Q41 -60 43 -40 Q45 3 57.5 42.5 Q70 82 82 123 Q90 146 97.5 169.5 Q105 193 114 216 Q99 222 85 231 Q71 240 60 253 Q37 277 26.5 308 Q16 339 14 371 Q9 445 47 508 Q84 572 145 608 Q173 626 207 635 Q221 640 237 642.5 Q253 645 269 643 Q284 641 298.5 636.5 Q313 632 326 624 Q338 616 347.5 605 Q357 594 365 582 Q381 555 389 525 Q397 495 401 464 Z M383 367 Q385 401 384 434.5 Q383 468 375 501 Q369 529 357.5 555 Q346 581 324 600 Q304 618 276 623 Q262 625 247 623.5 Q232 622 218 618 Q186 610 157 592.5 Q128 575 105 552 Q81 527 63.5 497.5 Q46 468 38 434 Q33 417 32.5 399 Q32 381 34 363 Q36 348 39.5 332.5 Q43 317 50 303 Q56 290 63.5 279 Q71 268 82 259 Q90 251 100.5 244.5 Q111 238 121 234 Q128 250 134.5 266 Q141 282 149 299 Q158 318 167 337 Q176 356 187 375 Q201 402 216 427 Q223 439 232.5 452 Q242 465 253 475.5 Q264 486 277.5 492.5 Q291 499 307 498 Q312 498 314.5 495 Q317 492 317 488 Q317 484 314.5 481.5 Q312 479 307 479 Q294 479 286 475 Q276 470 266 460 Q255 450 247 438.5 Q239 427 231 414 Q212 382 195.5 349.5 Q179 317 164 284 Q150 255 140 227 Q163 221 185.5 220.5 Q208 220 231 225 Q235 226 238.5 223.5 Q242 221 242.5 217.5 Q243 214 241.5 210.5 Q240 207 236 206 Q210 201 184 201 Q158 201 133 209 Q113 157 98 109 Q92 89 85.5 70.5 Q79 52 74 32 Q69 11 65.5 -9.5 Q62 -30 62 -52 Q62 -70 65.5 -88.5 Q69 -107 78 -123 Q92 -149 117 -154 Q129 -156 142 -154 Q150 -152 157 -149.5 Q164 -147 171 -143 Q185 -135 197 -123.5 Q209 -112 220 -98 Q243 -69 258.5 -36 Q274 -3 288 30 Q296 49 304.5 68 Q313 87 321 107 Q329 127 336.5 148 Q344 169 350 190 Q364 233 372.5 277.5 Q381 322 383 367 Z M293 684 Q298 678 289.5 674 Q281 670 276 677 Q265 691 253 704.5 Q241 718 230 732 Q228 735 229.5 737.5 Q231 740 234 741.5 Q237 743 241 743 Q245 743 247 740 Q258 725 270 711.5 Q282 698 293 684 Z " />
<glyph glyph-name="Oacute" unicode="&#xd3;" horiz-adv-x="404" d="M401 464 Q411 380 396 297 Q381 214 353 136 Q339 98 322.5 60 Q306 22 289 -15 Q274 -48 255.5 -80.5 Q237 -113 211 -137 Q199 -148 185 -156.5 Q171 -165 155.5 -170 Q140 -175 124 -174.5 Q108 -174 93 -166 Q79 -158 69.5 -145.5 Q60 -133 54 -119 Q46 -100 43.5 -80 Q41 -60 43 -40 Q45 3 57.5 42.5 Q70 82 82 123 Q90 146 97.5 169.5 Q105 193 114 216 Q99 222 85 231 Q71 240 60 253 Q37 277 26.5 308 Q16 339 14 371 Q9 445 47 508 Q84 572 145 608 Q173 626 207 635 Q221 640 237 642.5 Q253 645 269 643 Q284 641 298.5 636.5 Q313 632 326 624 Q338 616 347.5 605 Q357 594 365 582 Q381 555 389 525 Q397 495 401 464 Z M383 367 Q385 401 384 434.5 Q383 468 375 501 Q369 529 357.5 555 Q346 581 324 600 Q304 618 276 623 Q262 625 247 623.5 Q232 622 218 618 Q186 610 157 592.5 Q128 575 105 552 Q81 527 63.5 497.5 Q46 468 38 434 Q33 417 32.5 399 Q32 381 34 363 Q36 348 39.5 332.5 Q43 317 50 303 Q56 290 63.5 279 Q71 268 82 259 Q90 251 100.5 244.5 Q111 238 121 234 Q128 250 134.5 266 Q141 282 149 299 Q158 318 167 337 Q176 356 187 375 Q201 402 216 427 Q223 439 232.5 452 Q242 465 253 475.5 Q264 486 277.5 492.5 Q291 499 307 498 Q312 498 314.5 495 Q317 492 317 488 Q317 484 314.5 481.5 Q312 479 307 479 Q294 479 286 475 Q276 470 266 460 Q255 450 247 438.5 Q239 427 231 414 Q212 382 195.5 349.5 Q179 317 164 284 Q150 255 140 227 Q163 221 185.5 220.5 Q208 220 231 225 Q235 226 238.5 223.5 Q242 221 242.5 217.5 Q243 214 241.5 210.5 Q240 207 236 206 Q210 201 184 201 Q158 201 133 209 Q113 157 98 109 Q92 89 85.5 70.5 Q79 52 74 32 Q69 11 65.5 -9.5 Q62 -30 62 -52 Q62 -70 65.5 -88.5 Q69 -107 78 -123 Q92 -149 117 -154 Q129 -156 142 -154 Q150 -152 157 -149.5 Q164 -147 171 -143 Q185 -135 197 -123.5 Q209 -112 220 -98 Q243 -69 258.5 -36 Q274 -3 288 30 Q296 49 304.5 68 Q313 87 321 107 Q329 127 336.5 148 Q344 169 350 190 Q364 233 372.5 277.5 Q381 322 383 367 Z M277 740 Q281 742 285 740.5 Q289 739 290.5 736 Q292 733 291.5 729 Q291 725 287 723 Q276 718 266 710.5 Q256 703 245 698 Q240 696 236.5 697.5 Q233 699 231.5 702 Q230 705 230.5 709 Q231 713 235 715 Q246 720 256 727.5 Q266 735 277 740 Z " />
<glyph glyph-name="Ocircumflex" unicode="&#xd4;" horiz-adv-x="404" d="M401 464 Q411 380 396 297 Q381 214 353 136 Q339 98 322.5 60 Q306 22 289 -15 Q274 -48 255.5 -80.5 Q237 -113 211 -137 Q199 -148 185 -156.5 Q171 -165 155.5 -170 Q140 -175 124 -174.5 Q108 -174 93 -166 Q79 -158 69.5 -145.5 Q60 -133 54 -119 Q46 -100 43.5 -80 Q41 -60 43 -40 Q45 3 57.5 42.5 Q70 82 82 123 Q90 146 97.5 169.5 Q105 193 114 216 Q99 222 85 231 Q71 240 60 253 Q37 277 26.5 308 Q16 339 14 371 Q9 445 47 508 Q84 572 145 608 Q173 626 207 635 Q221 640 237 642.5 Q253 645 269 643 Q284 641 298.5 636.5 Q313 632 326 624 Q338 616 347.5 605 Q357 594 365 582 Q381 555 389 525 Q397 495 401 464 Z M383 367 Q385 401 384 434.5 Q383 468 375 501 Q369 529 357.5 555 Q346 581 324 600 Q304 618 276 623 Q262 625 247 623.5 Q232 622 218 618 Q186 610 157 592.5 Q128 575 105 552 Q81 527 63.5 497.5 Q46 468 38 434 Q33 417 32.5 399 Q32 381 34 363 Q36 348 39.5 332.5 Q43 317 50 303 Q56 290 63.5 279 Q71 268 82 259 Q90 251 100.5 244.5 Q111 238 121 234 Q128 250 134.5 266 Q141 282 149 299 Q158 318 167 337 Q176 356 187 375 Q201 402 216 427 Q223 439 232.5 452 Q242 465 253 475.5 Q264 486 277.5 492.5 Q291 499 307 498 Q312 498 314.5 495 Q317 492 317 488 Q317 484 314.5 481.5 Q312 479 307 479 Q294 479 286 475 Q276 470 266 460 Q255 450 247 438.5 Q239 427 231 414 Q212 382 195.5 349.5 Q179 317 164 284 Q150 255 140 227 Q163 221 185.5 220.5 Q208 220 231 225 Q235 226 238.5 223.5 Q242 221 242.5 217.5 Q243 214 241.5 210.5 Q240 207 236 206 Q210 201 184 201 Q158 201 133 209 Q113 157 98 109 Q92 89 85.5 70.5 Q79 52 74 32 Q69 11 65.5 -9.5 Q62 -30 62 -52 Q62 -70 65.5 -88.5 Q69 -107 78 -123 Q92 -149 117 -154 Q129 -156 142 -154 Q150 -152 157 -149.5 Q164 -147 171 -143 Q185 -135 197 -123.5 Q209 -112 220 -98 Q243 -69 258.5 -36 Q274 -3 288 30 Q296 49 304.5 68 Q313 87 321 107 Q329 127 336.5 148 Q344 169 350 190 Q364 233 372.5 277.5 Q381 322 383 367 Z M312 708 Q315 705 313.5 701 Q312 697 309 695 Q302 691 296 698 Q293 702 290.5 705.5 Q288 709 285 713 Q283 715 281.5 717 Q280 719 278 721 Q277 721 277 720 Q275 718 273 716.5 Q271 715 269 713 Q265 709 261 705.5 Q257 702 252 697 Q249 694 245 694.5 Q241 695 238.5 698 Q236 701 235.5 704.5 Q235 708 238 711 Q244 716 250 721 Q256 726 261 732 Q266 737 270.5 740 Q275 743 283 740 Q288 738 292 734 Q296 730 300 725 Q303 720 306 716.5 Q309 713 312 708 Z " />
<glyph glyph-name="Otilde" unicode="&#xd5;" horiz-adv-x="404" d="M401 464 Q411 380 396 297 Q381 214 353 136 Q339 98 322.5 60 Q306 22 289 -15 Q274 -48 255.5 -80.5 Q237 -113 211 -137 Q199 -148 185 -156.5 Q171 -165 155.5 -170 Q140 -175 124 -174.5 Q108 -174 93 -166 Q79 -158 69.5 -145.5 Q60 -133 54 -119 Q46 -100 43.5 -80 Q41 -60 43 -40 Q45 3 57.5 42.5 Q70 82 82 123 Q90 146 97.5 169.5 Q105 193 114 216 Q99 222 85 231 Q71 240 60 253 Q37 277 26.5 308 Q16 339 14 371 Q9 445 47 508 Q84 572 145 608 Q173 626 207 635 Q221 640 237 642.5 Q253 645 269 643 Q284 641 298.5 636.5 Q313 632 326 624 Q338 616 347.5 605 Q357 594 365 582 Q381 555 389 525 Q397 495 401 464 Z M383 367 Q385 401 384 434.5 Q383 468 375 501 Q369 529 357.5 555 Q346 581 324 600 Q304 618 276 623 Q262 625 247 623.5 Q232 622 218 618 Q186 610 157 592.5 Q128 575 105 552 Q81 527 63.5 497.5 Q46 468 38 434 Q33 417 32.5 399 Q32 381 34 363 Q36 348 39.5 332.5 Q43 317 50 303 Q56 290 63.5 279 Q71 268 82 259 Q90 251 100.5 244.5 Q111 238 121 234 Q128 250 134.5 266 Q141 282 149 299 Q158 318 167 337 Q176 356 187 375 Q201 402 216 427 Q223 439 232.5 452 Q242 465 253 475.5 Q264 486 277.5 492.5 Q291 499 307 498 Q312 498 314.5 495 Q317 492 317 488 Q317 484 314.5 481.5 Q312 479 307 479 Q294 479 286 475 Q276 470 266 460 Q255 450 247 438.5 Q239 427 231 414 Q212 382 195.5 349.5 Q179 317 164 284 Q150 255 140 227 Q163 221 185.5 220.5 Q208 220 231 225 Q235 226 238.5 223.5 Q242 221 242.5 217.5 Q243 214 241.5 210.5 Q240 207 236 206 Q210 201 184 201 Q158 201 133 209 Q113 157 98 109 Q92 89 85.5 70.5 Q79 52 74 32 Q69 11 65.5 -9.5 Q62 -30 62 -52 Q62 -70 65.5 -88.5 Q69 -107 78 -123 Q92 -149 117 -154 Q129 -156 142 -154 Q150 -152 157 -149.5 Q164 -147 171 -143 Q185 -135 197 -123.5 Q209 -112 220 -98 Q243 -69 258.5 -36 Q274 -3 288 30 Q296 49 304.5 68 Q313 87 321 107 Q329 127 336.5 148 Q344 169 350 190 Q364 233 372.5 277.5 Q381 322 383 367 Z M297 731 Q299 735 303 735.5 Q307 736 310 734 Q313 732 314.5 728.5 Q316 725 314 721 Q310 713 303.5 708.5 Q297 704 288 706 Q280 706 273.5 709 Q267 712 261 716 Q261 717 259.5 717.5 Q258 718 259 718 Q257 718 256.5 718.5 Q256 719 255 719 Q251 720 246 720 L245 720 L243 720 L242 720 L242 719 L241 719 L241 717 L241 715 Q242 710 239 707.5 Q236 705 232 705 Q222 705 222 715 Q220 732 236 738 Q241 740 247.5 740 Q254 740 260 738 Q266 736 271 733 Q276 730 282 727 Q287 725 290.5 725 Q294 725 297 731 Z " />
<glyph glyph-name="Odieresis" unicode="&#xd6;" horiz-adv-x="404" d="M401 464 Q411 380 396 297 Q381 214 353 136 Q339 98 322.5 60 Q306 22 289 -15 Q274 -48 255.5 -80.5 Q237 -113 211 -137 Q199 -148 185 -156.5 Q171 -165 155.5 -170 Q140 -175 124 -174.5 Q108 -174 93 -166 Q79 -158 69.5 -145.5 Q60 -133 54 -119 Q46 -100 43.5 -80 Q41 -60 43 -40 Q45 3 57.5 42.5 Q70 82 82 123 Q90 146 97.5 169.5 Q105 193 114 216 Q99 222 85 231 Q71 240 60 253 Q37 277 26.5 308 Q16 339 14 371 Q9 445 47 508 Q84 572 145 608 Q173 626 207 635 Q221 640 237 642.5 Q253 645 269 643 Q284 641 298.5 636.5 Q313 632 326 624 Q338 616 347.5 605 Q357 594 365 582 Q381 555 389 525 Q397 495 401 464 Z M383 367 Q385 401 384 434.5 Q383 468 375 501 Q369 529 357.5 555 Q346 581 324 600 Q304 618 276 623 Q262 625 247 623.5 Q232 622 218 618 Q186 610 157 592.5 Q128 575 105 552 Q81 527 63.5 497.5 Q46 468 38 434 Q33 417 32.5 399 Q32 381 34 363 Q36 348 39.5 332.5 Q43 317 50 303 Q56 290 63.5 279 Q71 268 82 259 Q90 251 100.5 244.5 Q111 238 121 234 Q128 250 134.5 266 Q141 282 149 299 Q158 318 167 337 Q176 356 187 375 Q201 402 216 427 Q223 439 232.5 452 Q242 465 253 475.5 Q264 486 277.5 492.5 Q291 499 307 498 Q312 498 314.5 495 Q317 492 317 488 Q317 484 314.5 481.5 Q312 479 307 479 Q294 479 286 475 Q276 470 266 460 Q255 450 247 438.5 Q239 427 231 414 Q212 382 195.5 349.5 Q179 317 164 284 Q150 255 140 227 Q163 221 185.5 220.5 Q208 220 231 225 Q235 226 238.5 223.5 Q242 221 242.5 217.5 Q243 214 241.5 210.5 Q240 207 236 206 Q210 201 184 201 Q158 201 133 209 Q113 157 98 109 Q92 89 85.5 70.5 Q79 52 74 32 Q69 11 65.5 -9.5 Q62 -30 62 -52 Q62 -70 65.5 -88.5 Q69 -107 78 -123 Q92 -149 117 -154 Q129 -156 142 -154 Q150 -152 157 -149.5 Q164 -147 171 -143 Q185 -135 197 -123.5 Q209 -112 220 -98 Q243 -69 258.5 -36 Q274 -3 288 30 Q296 49 304.5 68 Q313 87 321 107 Q329 127 336.5 148 Q344 169 350 190 Q364 233 372.5 277.5 Q381 322 383 367 Z M253 737 Q263 737 263 727.5 Q263 718 253 718 Q244 718 244 727.5 Q244 737 253 737 Z M288 738 Q298 738 298 728 Q298 718 288 718 Q278 718 278 728 Q278 738 288 738 Z " />
<glyph glyph-name="Oslash" unicode="&#xd8;" horiz-adv-x="404" d="M401 464 Q411 380 396 297 Q381 214 353 136 Q339 98 322.5 60 Q306 22 289 -15 Q274 -48 255.5 -80.5 Q237 -113 211 -137 Q199 -148 185 -156.5 Q171 -165 155.5 -170 Q140 -175 124 -174.5 Q108 -174 93 -166 Q79 -158 69.5 -145.5 Q60 -133 54 -119 Q46 -100 43.5 -80 Q41 -60 43 -40 Q45 3 57.5 42.5 Q70 82 82 123 Q90 146 97.5 169.5 Q105 193 114 216 Q99 222 85 231 Q71 240 60 253 Q37 277 26.5 308 Q16 339 14 371 Q9 445 47 508 Q84 572 145 608 Q173 626 207 635 Q221 640 237 642.5 Q253 645 269 643 Q284 641 298.5 636.5 Q313 632 326 624 Q338 616 347.5 605 Q357 594 365 582 Q381 555 389 525 Q397 495 401 464 Z M383 367 Q385 401 384 434.5 Q383 468 375 501 Q369 529 357.5 555 Q346 581 324 600 Q304 618 276 623 Q262 625 247 623.5 Q232 622 218 618 Q186 610 157 592.5 Q128 575 105 552 Q81 527 63.5 497.5 Q46 468 38 434 Q33 417 32.5 399 Q32 381 34 363 Q36 348 39.5 332.5 Q43 317 50 303 Q56 290 63.5 279 Q71 268 82 259 Q90 251 100.5 244.5 Q111 238 121 234 Q128 250 134.5 266 Q141 282 149 299 Q158 318 167 337 Q176 356 187 375 Q201 402 216 427 Q223 439 232.5 452 Q242 465 253 475.5 Q264 486 277.5 492.5 Q291 499 307 498 Q312 498 314.5 495 Q317 492 317 488 Q317 484 314.5 481.5 Q312 479 307 479 Q294 479 286 475 Q276 470 266 460 Q255 450 247 438.5 Q239 427 231 414 Q212 382 195.5 349.5 Q179 317 164 284 Q150 255 140 227 Q163 221 185.5 220.5 Q208 220 231 225 Q235 226 238.5 223.5 Q242 221 242.5 217.5 Q243 214 241.5 210.5 Q240 207 236 206 Q210 201 184 201 Q158 201 133 209 Q113 157 98 109 Q92 89 85.5 70.5 Q79 52 74 32 Q69 11 65.5 -9.5 Q62 -30 62 -52 Q62 -70 65.5 -88.5 Q69 -107 78 -123 Q92 -149 117 -154 Q129 -156 142 -154 Q150 -152 157 -149.5 Q164 -147 171 -143 Q185 -135 197 -123.5 Q209 -112 220 -98 Q243 -69 258.5 -36 Q274 -3 288 30 Q296 49 304.5 68 Q313 87 321 107 Q329 127 336.5 148 Q344 169 350 190 Q364 233 372.5 277.5 Q381 322 383 367 Z M418 706 Q420 711 424 712 Q428 713 431.5 710.5 Q435 708 436.5 703.5 Q438 699 436 694 Q408 631 377 564 Q329 463 279 365.5 Q229 268 178 169 Q127 70 78 -28 Q29 -126 -16 -229 Q-18 -234 -22 -235 Q-26 -236 -29 -233.5 Q-32 -231 -33.5 -226.5 Q-35 -222 -33 -217 Q-19 -184 -4 -151.5 Q11 -119 26 -87 Q74 14 124.5 112 Q175 210 226 309 Q277 407 325 505 Q373 603 418 706 Z " />
<glyph glyph-name="Ugrave" unicode="&#xd9;" horiz-adv-x="355" d="M477 737 Q486 735 484 725 Q481 716 477.5 707 Q474 698 471 689 Q469 679 465 670 Q461 661 457 651 Q456 646 454.5 642 Q453 638 451 634 Q438 598 424 562 Q410 526 396 491 Q379 446 361 401.5 Q343 357 326 312 Q309 268 292 224.5 Q275 181 258 136 Q226 49 198.5 -39 Q171 -127 158 -220 Q157 -224 153 -226 Q149 -228 146 -227 Q137 -224 139 -215 Q147 -155 162 -96.5 Q177 -38 196 19 Q202 36 207.5 51.5 Q213 67 219 83 Q210 68 200.5 53.5 Q191 39 180 25 Q161 -2 136 -26 Q124 -37 111 -48 Q98 -59 82 -63 Q73 -65 64 -63.5 Q55 -62 47 -57 Q34 -47 30 -35 Q23 -20 22.5 -3.5 Q22 13 22 29 Q24 52 27 74.5 Q30 97 34 119 Q44 170 58 218.5 Q72 267 87 316 Q94 336 100.5 355.5 Q107 375 113 395 Q117 406 121 418 Q125 430 128 442 Q131 451 140 448.5 Q149 446 147 437 Q147 433 146 431 Q135 396 123.5 362.5 Q112 329 101 294 Q85 245 72 196.5 Q59 148 50 97 Q47 86 45.5 74.5 Q44 63 42 52 L42 49 L42 48 Q42 46 41.5 45.5 Q41 45 41 43 Q42 41 41.5 38 Q41 35 41 33 Q41 28 40.5 23.5 Q40 19 40 14 Q41 10 41 6 Q41 2 41 -3 Q41 -5 41.5 -7 Q42 -9 42 -11 L42 -12 Q42 -13 42.5 -14 Q43 -15 43 -16 Q45 -20 47 -28 L48 -29 L48 -30 Q48 -30 49 -32 Q50 -34 52 -36 Q52 -37 53 -37 Q53 -38 54 -39 Q55 -40 56 -40 Q56 -41 57 -41 Q57 -41 59 -42 Q59 -43 61 -43 Q62 -44 64 -44 Q67 -45 72 -45 Q75 -44 78.5 -43.5 Q82 -43 84 -41 Q99 -34 111 -23 Q137 0 158 28 Q179 56 198 87 Q239 156 268 229.5 Q297 303 326 377 Q363 464 398 551 Q406 573 414.5 594 Q423 615 431 637 Q440 660 448.5 683.5 Q457 707 465 730 Q469 740 477 737 Z M356 682 Q361 676 352.5 672 Q344 668 339 675 Q328 689 316 702.5 Q304 716 293 730 Q291 733 292.5 735.5 Q294 738 297 739.5 Q300 741 304 741 Q308 741 310 738 Q321 723 333 709.5 Q345 696 356 682 Z " />
<glyph glyph-name="Uacute" unicode="&#xda;" horiz-adv-x="355" d="M477 737 Q486 735 484 725 Q481 716 477.5 707 Q474 698 471 689 Q469 679 465 670 Q461 661 457 651 Q456 646 454.5 642 Q453 638 451 634 Q438 598 424 562 Q410 526 396 491 Q379 446 361 401.5 Q343 357 326 312 Q309 268 292 224.5 Q275 181 258 136 Q226 49 198.5 -39 Q171 -127 158 -220 Q157 -224 153 -226 Q149 -228 146 -227 Q137 -224 139 -215 Q147 -155 162 -96.5 Q177 -38 196 19 Q202 36 207.5 51.5 Q213 67 219 83 Q210 68 200.5 53.5 Q191 39 180 25 Q161 -2 136 -26 Q124 -37 111 -48 Q98 -59 82 -63 Q73 -65 64 -63.5 Q55 -62 47 -57 Q34 -47 30 -35 Q23 -20 22.5 -3.5 Q22 13 22 29 Q24 52 27 74.5 Q30 97 34 119 Q44 170 58 218.5 Q72 267 87 316 Q94 336 100.5 355.5 Q107 375 113 395 Q117 406 121 418 Q125 430 128 442 Q131 451 140 448.5 Q149 446 147 437 Q147 433 146 431 Q135 396 123.5 362.5 Q112 329 101 294 Q85 245 72 196.5 Q59 148 50 97 Q47 86 45.5 74.5 Q44 63 42 52 L42 49 L42 48 Q42 46 41.5 45.5 Q41 45 41 43 Q42 41 41.5 38 Q41 35 41 33 Q41 28 40.5 23.5 Q40 19 40 14 Q41 10 41 6 Q41 2 41 -3 Q41 -5 41.5 -7 Q42 -9 42 -11 L42 -12 Q42 -13 42.5 -14 Q43 -15 43 -16 Q45 -20 47 -28 L48 -29 L48 -30 Q48 -30 49 -32 Q50 -34 52 -36 Q52 -37 53 -37 Q53 -38 54 -39 Q55 -40 56 -40 Q56 -41 57 -41 Q57 -41 59 -42 Q59 -43 61 -43 Q62 -44 64 -44 Q67 -45 72 -45 Q75 -44 78.5 -43.5 Q82 -43 84 -41 Q99 -34 111 -23 Q137 0 158 28 Q179 56 198 87 Q239 156 268 229.5 Q297 303 326 377 Q363 464 398 551 Q406 573 414.5 594 Q423 615 431 637 Q440 660 448.5 683.5 Q457 707 465 730 Q469 740 477 737 Z M350 734 Q354 736 358 734.5 Q362 733 363.5 730 Q365 727 364.5 723 Q364 719 360 717 Q349 712 339 704.5 Q329 697 318 692 Q313 690 309.5 691.5 Q306 693 304.5 696 Q303 699 303.5 703 Q304 707 308 709 Q319 714 329 721.5 Q339 729 350 734 Z " />
<glyph glyph-name="Ucircumflex" unicode="&#xdb;" horiz-adv-x="355" d="M477 737 Q486 735 484 725 Q481 716 477.5 707 Q474 698 471 689 Q469 679 465 670 Q461 661 457 651 Q456 646 454.5 642 Q453 638 451 634 Q438 598 424 562 Q410 526 396 491 Q379 446 361 401.5 Q343 357 326 312 Q309 268 292 224.5 Q275 181 258 136 Q226 49 198.5 -39 Q171 -127 158 -220 Q157 -224 153 -226 Q149 -228 146 -227 Q137 -224 139 -215 Q147 -155 162 -96.5 Q177 -38 196 19 Q202 36 207.5 51.5 Q213 67 219 83 Q210 68 200.5 53.5 Q191 39 180 25 Q161 -2 136 -26 Q124 -37 111 -48 Q98 -59 82 -63 Q73 -65 64 -63.5 Q55 -62 47 -57 Q34 -47 30 -35 Q23 -20 22.5 -3.5 Q22 13 22 29 Q24 52 27 74.5 Q30 97 34 119 Q44 170 58 218.5 Q72 267 87 316 Q94 336 100.5 355.5 Q107 375 113 395 Q117 406 121 418 Q125 430 128 442 Q131 451 140 448.5 Q149 446 147 437 Q147 433 146 431 Q135 396 123.5 362.5 Q112 329 101 294 Q85 245 72 196.5 Q59 148 50 97 Q47 86 45.5 74.5 Q44 63 42 52 L42 49 L42 48 Q42 46 41.5 45.5 Q41 45 41 43 Q42 41 41.5 38 Q41 35 41 33 Q41 28 40.5 23.5 Q40 19 40 14 Q41 10 41 6 Q41 2 41 -3 Q41 -5 41.5 -7 Q42 -9 42 -11 L42 -12 Q42 -13 42.5 -14 Q43 -15 43 -16 Q45 -20 47 -28 L48 -29 L48 -30 Q48 -30 49 -32 Q50 -34 52 -36 Q52 -37 53 -37 Q53 -38 54 -39 Q55 -40 56 -40 Q56 -41 57 -41 Q57 -41 59 -42 Q59 -43 61 -43 Q62 -44 64 -44 Q67 -45 72 -45 Q75 -44 78.5 -43.5 Q82 -43 84 -41 Q99 -34 111 -23 Q137 0 158 28 Q179 56 198 87 Q239 156 268 229.5 Q297 303 326 377 Q363 464 398 551 Q406 573 414.5 594 Q423 615 431 637 Q440 660 448.5 683.5 Q457 707 465 730 Q469 740 477 737 Z M363 698 Q366 695 364.5 691 Q363 687 360 685 Q353 681 347 688 Q344 692 341.5 695.5 Q339 699 336 703 Q334 705 332.5 707 Q331 709 329 711 Q328 711 328 710 Q326 708 324 706.5 Q322 705 320 703 Q316 699 312 695.5 Q308 692 303 687 Q300 684 296 684.5 Q292 685 289.5 688 Q287 691 286.5 694.5 Q286 698 289 701 Q295 706 301 711 Q307 716 312 722 Q317 727 321.5 730 Q326 733 334 730 Q339 728 343 724 Q347 720 351 715 Q354 710 357 706.5 Q360 703 363 698 Z " />
<glyph glyph-name="Udieresis" unicode="&#xdc;" horiz-adv-x="355" d="M477 737 Q486 735 484 725 Q481 716 477.5 707 Q474 698 471 689 Q469 679 465 670 Q461 661 457 651 Q456 646 454.5 642 Q453 638 451 634 Q438 598 424 562 Q410 526 396 491 Q379 446 361 401.5 Q343 357 326 312 Q309 268 292 224.5 Q275 181 258 136 Q226 49 198.5 -39 Q171 -127 158 -220 Q157 -224 153 -226 Q149 -228 146 -227 Q137 -224 139 -215 Q147 -155 162 -96.5 Q177 -38 196 19 Q202 36 207.5 51.5 Q213 67 219 83 Q210 68 200.5 53.5 Q191 39 180 25 Q161 -2 136 -26 Q124 -37 111 -48 Q98 -59 82 -63 Q73 -65 64 -63.5 Q55 -62 47 -57 Q34 -47 30 -35 Q23 -20 22.5 -3.5 Q22 13 22 29 Q24 52 27 74.5 Q30 97 34 119 Q44 170 58 218.5 Q72 267 87 316 Q94 336 100.5 355.5 Q107 375 113 395 Q117 406 121 418 Q125 430 128 442 Q131 451 140 448.5 Q149 446 147 437 Q147 433 146 431 Q135 396 123.5 362.5 Q112 329 101 294 Q85 245 72 196.5 Q59 148 50 97 Q47 86 45.5 74.5 Q44 63 42 52 L42 49 L42 48 Q42 46 41.5 45.5 Q41 45 41 43 Q42 41 41.5 38 Q41 35 41 33 Q41 28 40.5 23.5 Q40 19 40 14 Q41 10 41 6 Q41 2 41 -3 Q41 -5 41.5 -7 Q42 -9 42 -11 L42 -12 Q42 -13 42.5 -14 Q43 -15 43 -16 Q45 -20 47 -28 L48 -29 L48 -30 Q48 -30 49 -32 Q50 -34 52 -36 Q52 -37 53 -37 Q53 -38 54 -39 Q55 -40 56 -40 Q56 -41 57 -41 Q57 -41 59 -42 Q59 -43 61 -43 Q62 -44 64 -44 Q67 -45 72 -45 Q75 -44 78.5 -43.5 Q82 -43 84 -41 Q99 -34 111 -23 Q137 0 158 28 Q179 56 198 87 Q239 156 268 229.5 Q297 303 326 377 Q363 464 398 551 Q406 573 414.5 594 Q423 615 431 637 Q440 660 448.5 683.5 Q457 707 465 730 Q469 740 477 737 Z M325 727 Q335 727 335 717.5 Q335 708 325 708 Q316 708 316 717.5 Q316 727 325 727 Z M360 728 Q370 728 370 718 Q370 708 360 708 Q350 708 350 718 Q350 728 360 728 Z " />
<glyph glyph-name="Yacute" unicode="&#xdd;" horiz-adv-x="479" d="M588 651 Q592 659 600.5 655 Q609 651 606 643 Q598 620 589.5 596.5 Q581 573 571 550 Q562 527 552.5 505 Q543 483 533 461 Q510 401 489 342 Q468 283 448 223 Q437 189 425 155.5 Q413 122 402 87 Q398 73 394 60.5 Q390 48 385 34 Q383 26 381 22 Q380 19 377 9 Q374 -1 369.5 -13 Q365 -25 361 -37 Q357 -49 355 -55 Q347 -78 338 -100 Q329 -122 319 -144 Q312 -161 304 -178 Q296 -195 285 -210 Q278 -220 267 -227.5 Q256 -235 245 -224 Q231 -211 231.5 -193 Q232 -175 239 -159 Q249 -136 263 -116 Q277 -96 293 -77 Q305 -63 318 -50 Q331 -37 345 -25 Q353 -3 359.5 18 Q366 39 374 61 Q392 118 411 174 Q430 230 450 287 Q455 303 460 316 Q446 292 432.5 269 Q419 246 404 223 Q392 204 379.5 186 Q367 168 354 149 Q343 133 331 117.5 Q319 102 305 88 Q279 60 248.5 37.5 Q218 15 182 2 Q159 -7 133 -11 Q107 -15 82 -10 Q69 -8 57 -1.5 Q45 5 37 16 Q17 40 16.5 72 Q16 104 21 133 Q29 176 43.5 216.5 Q58 257 75 297 Q95 343 117 387 Q139 431 162 476 Q183 515 205.5 554 Q228 593 251 632 Q265 656 279.5 679.5 Q294 703 308 727 Q310 731 314 731.5 Q318 732 321 730 Q324 728 325.5 724.5 Q327 721 325 717 Q321 713 320 709 Q304 682 288 655.5 Q272 629 256 602 Q232 562 209.5 522 Q187 482 165 441 L120 351 Q115 340 110 328.5 Q105 317 100 306 Q90 286 82 263 Q66 224 52 180 Q50 170 47.5 160.5 Q45 151 43 141 Q41 136 40.5 132 Q40 128 39 123 Q39 120 38 119 L38 116 Q38 114 37.5 112 Q37 110 37 108 Q36 100 36 92.5 Q36 85 36 77 Q36 72 37 69 L37 66 L37 65 Q38 60 40 52 Q41 50 41 49 Q41 48 42 46 Q42 45 42.5 44.5 Q43 44 43 43 L43 42 Q45 40 46 37 Q47 34 49 32 Q50 31 50 30.5 Q50 30 51 29 Q52 27 53 26.5 Q54 26 55 25 Q56 23 57 22.5 Q58 22 59 21 L60 20 Q61 20 61 19.5 Q61 19 62 19 Q66 15 72 13 L73 13 L74 12 Q76 12 77 11 Q79 11 83 9 Q85 9 86.5 8.5 Q88 8 90 8 L93 8 Q94 8 95 7 L111 7 Q145 8 177 20.5 Q209 33 236 53 Q268 75 293.5 103.5 Q319 132 340 163 Q366 201 390.5 238.5 Q415 276 438 316 Q459 354 478.5 392 Q498 430 515 468 Q532 515 550 560 Q568 605 588 651 Z M313 -110 Q318 -99 321.5 -88.5 Q325 -78 330 -67 Q323 -74 316.5 -80.5 Q310 -87 304 -94 Q288 -113 275 -133 Q272 -138 269 -143 Q266 -148 263 -153 Q262 -155 261 -157.5 Q260 -160 259 -163 Q258 -163 258 -164 Q258 -165 257 -165 Q257 -167 256.5 -167.5 Q256 -168 256 -170 Q254 -174 253 -177.5 Q252 -181 252 -186 L251 -189 L251 -193 L251 -197 L251 -198 Q252 -199 252 -202 Q253 -202 253 -203 Q255 -207 255 -208 Q256 -208 258 -210 L258 -211 Q259 -210 260 -210 L260 -209 Q261 -208 262 -207.5 Q263 -207 264 -206 Q264 -206 266 -204 Q266 -203 267 -202 Q268 -201 268.5 -200 Q269 -199 270 -198 Q274 -192 278 -185 Q288 -166 295 -150 Q301 -141 304 -130 Q305 -129 305 -128.5 Q305 -128 306 -127 L306 -126 Q308 -122 308 -120 Q310 -118 310.5 -115 Q311 -112 313 -110 Z M491 737 Q495 739 499 737.5 Q503 736 504.5 733 Q506 730 505.5 726 Q505 722 501 720 Q490 715 480 707.5 Q470 700 459 695 Q454 693 450.5 694.5 Q447 696 445.5 699 Q444 702 444.5 706 Q445 710 449 712 Q460 717 470 724.5 Q480 732 491 737 Z " />
<glyph glyph-name="agrave" unicode="&#xe0;" horiz-adv-x="134" d="M133 196 Q136 199 140 198.5 Q144 198 146.5 195 Q149 192 149.5 188.5 Q150 185 147 182 Q140 176 134 170 Q128 164 120 158 Q112 151 101.5 145.5 Q91 140 80 138 Q66 136 59.5 146 Q53 156 52 168 Q52 178 53 182 Q48 179 45 174 Q38 168 28 161.5 Q18 155 7 161 Q0 165 -2 172 Q-4 179 -2.5 187 Q-1 195 2.5 202.5 Q6 210 11 215 Q19 224 35 228.5 Q51 233 63 227 Q65 231 68 234.5 Q71 238 74 242 Q79 249 86 243.5 Q93 238 89 231 Q82 217 76 201.5 Q70 186 72 170 L72 164 Q73 163 73 162 L73 161 L75 159 Q74 160 75.5 158.5 Q77 157 75 158 L76 158 L77 158 L79 158 L82 158 Q83 159 84 159 Q85 159 86 160 L87 160 Q87 160 88 161 Q90 162 92 163 Q94 164 96 165 Q101 168 104.5 170.5 Q108 173 111 176 Q117 181 122.5 186 Q128 191 133 196 Z M51 210 Q49 211 47 211 L35 208 Q27 204 25 201 Q23 199 21.5 196.5 Q20 194 19 191 Q18 189 17.5 187 Q17 185 16 183 L16 182 L16 181 L16 180 L16 179 L16 178 L17 178 L18 178 Q19 179 20 179 L23 182 L24 182 Q26 184 26 184 Q29 185 30 188 Q35 191 38 196 Q44 202 47 206 Q48 207 48.5 208 Q49 209 51 210 Z M103 345 Q108 339 99.5 335 Q91 331 86 338 Q75 352 63 365.5 Q51 379 40 393 Q38 396 39.5 398.5 Q41 401 44 402.5 Q47 404 51 404 Q55 404 57 401 Q68 386 80 372.5 Q92 359 103 345 Z " />
<glyph glyph-name="aacute" unicode="&#xe1;" horiz-adv-x="134" d="M133 196 Q136 199 140 198.5 Q144 198 146.5 195 Q149 192 149.5 188.5 Q150 185 147 182 Q140 176 134 170 Q128 164 120 158 Q112 151 101.5 145.5 Q91 140 80 138 Q66 136 59.5 146 Q53 156 52 168 Q52 178 53 182 Q48 179 45 174 Q38 168 28 161.5 Q18 155 7 161 Q0 165 -2 172 Q-4 179 -2.5 187 Q-1 195 2.5 202.5 Q6 210 11 215 Q19 224 35 228.5 Q51 233 63 227 Q65 231 68 234.5 Q71 238 74 242 Q79 249 86 243.5 Q93 238 89 231 Q82 217 76 201.5 Q70 186 72 170 L72 164 Q73 163 73 162 L73 161 L75 159 Q74 160 75.5 158.5 Q77 157 75 158 L76 158 L77 158 L79 158 L82 158 Q83 159 84 159 Q85 159 86 160 L87 160 Q87 160 88 161 Q90 162 92 163 Q94 164 96 165 Q101 168 104.5 170.5 Q108 173 111 176 Q117 181 122.5 186 Q128 191 133 196 Z M51 210 Q49 211 47 211 L35 208 Q27 204 25 201 Q23 199 21.5 196.5 Q20 194 19 191 Q18 189 17.5 187 Q17 185 16 183 L16 182 L16 181 L16 180 L16 179 L16 178 L17 178 L18 178 Q19 179 20 179 L23 182 L24 182 Q26 184 26 184 Q29 185 30 188 Q35 191 38 196 Q44 202 47 206 Q48 207 48.5 208 Q49 209 51 210 Z M78 396 Q82 398 86 396.5 Q90 395 91.5 392 Q93 389 92.5 385 Q92 381 88 379 Q77 374 67 366.5 Q57 359 46 354 Q41 352 37.5 353.5 Q34 355 32.5 358 Q31 361 31.5 365 Q32 369 36 371 Q47 376 57 383.5 Q67 391 78 396 Z " />
<glyph glyph-name="acircumflex" unicode="&#xe2;" horiz-adv-x="134" d="M133 196 Q136 199 140 198.5 Q144 198 146.5 195 Q149 192 149.5 188.5 Q150 185 147 182 Q140 176 134 170 Q128 164 120 158 Q112 151 101.5 145.5 Q91 140 80 138 Q66 136 59.5 146 Q53 156 52 168 Q52 178 53 182 Q48 179 45 174 Q38 168 28 161.5 Q18 155 7 161 Q0 165 -2 172 Q-4 179 -2.5 187 Q-1 195 2.5 202.5 Q6 210 11 215 Q19 224 35 228.5 Q51 233 63 227 Q65 231 68 234.5 Q71 238 74 242 Q79 249 86 243.5 Q93 238 89 231 Q82 217 76 201.5 Q70 186 72 170 L72 164 Q73 163 73 162 L73 161 L75 159 Q74 160 75.5 158.5 Q77 157 75 158 L76 158 L77 158 L79 158 L82 158 Q83 159 84 159 Q85 159 86 160 L87 160 Q87 160 88 161 Q90 162 92 163 Q94 164 96 165 Q101 168 104.5 170.5 Q108 173 111 176 Q117 181 122.5 186 Q128 191 133 196 Z M51 210 Q49 211 47 211 L35 208 Q27 204 25 201 Q23 199 21.5 196.5 Q20 194 19 191 Q18 189 17.5 187 Q17 185 16 183 L16 182 L16 181 L16 180 L16 179 L16 178 L17 178 L18 178 Q19 179 20 179 L23 182 L24 182 Q26 184 26 184 Q29 185 30 188 Q35 191 38 196 Q44 202 47 206 Q48 207 48.5 208 Q49 209 51 210 Z M102 342 Q105 339 103.5 335 Q102 331 99 329 Q92 325 86 332 Q83 336 80.5 339.5 Q78 343 75 347 Q73 349 71.5 351 Q70 353 68 355 Q67 355 67 354 Q65 352 63 350.5 Q61 349 59 347 Q55 343 51 339.5 Q47 336 42 331 Q39 328 35 328.5 Q31 329 28.5 332 Q26 335 25.5 338.5 Q25 342 28 345 Q34 350 40 355 Q46 360 51 366 Q56 371 60.5 374 Q65 377 73 374 Q78 372 82 368 Q86 364 90 359 Q93 354 96 350.5 Q99 347 102 342 Z " />
<glyph glyph-name="atilde" unicode="&#xe3;" horiz-adv-x="134" d="M133 196 Q136 199 140 198.5 Q144 198 146.5 195 Q149 192 149.5 188.5 Q150 185 147 182 Q140 176 134 170 Q128 164 120 158 Q112 151 101.5 145.5 Q91 140 80 138 Q66 136 59.5 146 Q53 156 52 168 Q52 178 53 182 Q48 179 45 174 Q38 168 28 161.5 Q18 155 7 161 Q0 165 -2 172 Q-4 179 -2.5 187 Q-1 195 2.5 202.5 Q6 210 11 215 Q19 224 35 228.5 Q51 233 63 227 Q65 231 68 234.5 Q71 238 74 242 Q79 249 86 243.5 Q93 238 89 231 Q82 217 76 201.5 Q70 186 72 170 L72 164 Q73 163 73 162 L73 161 L75 159 Q74 160 75.5 158.5 Q77 157 75 158 L76 158 L77 158 L79 158 L82 158 Q83 159 84 159 Q85 159 86 160 L87 160 Q87 160 88 161 Q90 162 92 163 Q94 164 96 165 Q101 168 104.5 170.5 Q108 173 111 176 Q117 181 122.5 186 Q128 191 133 196 Z M51 210 Q49 211 47 211 L35 208 Q27 204 25 201 Q23 199 21.5 196.5 Q20 194 19 191 Q18 189 17.5 187 Q17 185 16 183 L16 182 L16 181 L16 180 L16 179 L16 178 L17 178 L18 178 Q19 179 20 179 L23 182 L24 182 Q26 184 26 184 Q29 185 30 188 Q35 191 38 196 Q44 202 47 206 Q48 207 48.5 208 Q49 209 51 210 Z M90 356 Q92 360 96 360.5 Q100 361 103 359 Q106 357 107.5 353.5 Q109 350 107 346 Q103 338 96.5 333.5 Q90 329 81 331 Q73 331 66.5 334 Q60 337 54 341 Q54 342 52.5 342.5 Q51 343 52 343 Q50 343 49.5 343.5 Q49 344 48 344 Q44 345 39 345 L38 345 L36 345 L35 345 L35 344 L34 344 L34 342 L34 340 Q35 335 32 332.5 Q29 330 25 330 Q15 330 15 340 Q13 357 29 363 Q34 365 40.5 365 Q47 365 53 363 Q59 361 64 358 Q69 355 75 352 Q80 350 83.5 350 Q87 350 90 356 Z " />
<glyph glyph-name="adieresis" unicode="&#xe4;" horiz-adv-x="134" d="M133 196 Q136 199 140 198.5 Q144 198 146.5 195 Q149 192 149.5 188.5 Q150 185 147 182 Q140 176 134 170 Q128 164 120 158 Q112 151 101.5 145.5 Q91 140 80 138 Q66 136 59.5 146 Q53 156 52 168 Q52 178 53 182 Q48 179 45 174 Q38 168 28 161.5 Q18 155 7 161 Q0 165 -2 172 Q-4 179 -2.5 187 Q-1 195 2.5 202.5 Q6 210 11 215 Q19 224 35 228.5 Q51 233 63 227 Q65 231 68 234.5 Q71 238 74 242 Q79 249 86 243.5 Q93 238 89 231 Q82 217 76 201.5 Q70 186 72 170 L72 164 Q73 163 73 162 L73 161 L75 159 Q74 160 75.5 158.5 Q77 157 75 158 L76 158 L77 158 L79 158 L82 158 Q83 159 84 159 Q85 159 86 160 L87 160 Q87 160 88 161 Q90 162 92 163 Q94 164 96 165 Q101 168 104.5 170.5 Q108 173 111 176 Q117 181 122.5 186 Q128 191 133 196 Z M51 210 Q49 211 47 211 L35 208 Q27 204 25 201 Q23 199 21.5 196.5 Q20 194 19 191 Q18 189 17.5 187 Q17 185 16 183 L16 182 L16 181 L16 180 L16 179 L16 178 L17 178 L18 178 Q19 179 20 179 L23 182 L24 182 Q26 184 26 184 Q29 185 30 188 Q35 191 38 196 Q44 202 47 206 Q48 207 48.5 208 Q49 209 51 210 Z M41 333 Q51 333 51 323.5 Q51 314 41 314 Q32 314 32 323.5 Q32 333 41 333 Z M76 334 Q86 334 86 324 Q86 314 76 314 Q66 314 66 324 Q66 334 76 334 Z " />
<glyph glyph-name="aring" unicode="&#xe5;" horiz-adv-x="134" d="M133 196 Q136 199 140 198.5 Q144 198 146.5 195 Q149 192 149.5 188.5 Q150 185 147 182 Q140 176 134 170 Q128 164 120 158 Q112 151 101.5 145.5 Q91 140 80 138 Q66 136 59.5 146 Q53 156 52 168 Q52 178 53 182 Q48 179 45 174 Q38 168 28 161.5 Q18 155 7 161 Q0 165 -2 172 Q-4 179 -2.5 187 Q-1 195 2.5 202.5 Q6 210 11 215 Q19 224 35 228.5 Q51 233 63 227 Q65 231 68 234.5 Q71 238 74 242 Q79 249 86 243.5 Q93 238 89 231 Q82 217 76 201.5 Q70 186 72 170 L72 164 Q73 163 73 162 L73 161 L75 159 Q74 160 75.5 158.5 Q77 157 75 158 L76 158 L77 158 L79 158 L82 158 Q83 159 84 159 Q85 159 86 160 L87 160 Q87 160 88 161 Q90 162 92 163 Q94 164 96 165 Q101 168 104.5 170.5 Q108 173 111 176 Q117 181 122.5 186 Q128 191 133 196 Z M51 210 Q49 211 47 211 L35 208 Q27 204 25 201 Q23 199 21.5 196.5 Q20 194 19 191 Q18 189 17.5 187 Q17 185 16 183 L16 182 L16 181 L16 180 L16 179 L16 178 L17 178 L18 178 Q19 179 20 179 L23 182 L24 182 Q26 184 26 184 Q29 185 30 188 Q35 191 38 196 Q44 202 47 206 Q48 207 48.5 208 Q49 209 51 210 Z M81 332 Q86 323 84 312 Q82 301 71 296 Q63 293 53 294.5 Q43 296 37 302 Q29 309 31 317 Q33 325 38 333 Q36 338 38.5 342 Q41 346 47 346 Q56 346 66 343.5 Q76 341 81 332 Z M63 314 Q65 316 65 319 Q65 322 63 323 Q59 325 57 325 Q55 323 53 321 Q51 319 51 317 L50 316 Q51 316 51 315.5 Q51 315 52 315 Q56 315 58 313 L62 313 Q63 313 63 314 Z " />
<glyph glyph-name="ae" unicode="&#xe6;" horiz-adv-x="226" d="M133 196 Q136 199 140 198.5 Q144 198 146.5 195 Q149 192 149.5 188.5 Q150 185 147 182 Q140 176 134 170 Q128 164 120 158 Q112 151 101.5 145.5 Q91 140 80 138 Q66 136 59.5 146 Q53 156 52 168 Q52 178 53 182 Q48 179 45 174 Q38 168 28 161.5 Q18 155 7 161 Q0 165 -2 172 Q-4 179 -2.5 187 Q-1 195 2.5 202.5 Q6 210 11 215 Q19 224 35 228.5 Q51 233 63 227 Q65 231 68 234.5 Q71 238 74 242 Q79 249 86 243.5 Q93 238 89 231 Q82 217 76 201.5 Q70 186 72 170 L72 164 Q73 163 73 162 L73 161 L75 159 Q74 160 75.5 158.5 Q77 157 75 158 L76 158 L77 158 L79 158 L82 158 Q83 159 84 159 Q85 159 86 160 L87 160 Q87 160 88 161 Q90 162 92 163 Q94 164 96 165 Q101 168 104.5 170.5 Q108 173 111 176 Q117 181 122.5 186 Q128 191 133 196 Z M51 210 Q49 211 47 211 L35 208 Q27 204 25 201 Q23 199 21.5 196.5 Q20 194 19 191 Q18 189 17.5 187 Q17 185 16 183 L16 182 L16 181 L16 180 L16 179 L16 178 L17 178 L18 178 Q19 179 20 179 L23 182 L24 182 Q26 184 26 184 Q29 185 30 188 Q35 191 38 196 Q44 202 47 206 Q48 207 48.5 208 Q49 209 51 210 Z M240 193 Q244 186 236 180 Q231 176 226.5 172.5 Q222 169 217 165 Q212 162 207 159 Q202 156 197 153 Q190 149 182.5 146 Q175 143 167 141 Q159 139 150 139 Q141 139 134 144 Q126 150 124.5 158 Q123 166 125 175 Q127 183 130 189.5 Q133 196 137 204 Q141 211 145.5 218 Q150 225 156 230 Q163 237 172 241 Q181 245 190 242 Q201 239 204.5 229.5 Q208 220 203 211 Q195 197 179 192 Q163 187 149 184 Q147 180 145 172 Q143 164 144 162 Q145 161 145 161 L145 160 L146 160 Q146 159 147 159 Q148 159 149 158 Q153 158 156 158.5 Q159 159 163 160 Q177 164 191 172 Q196 175 200.5 178 Q205 181 210 184 Q215 187 218.5 190.5 Q222 194 226 197 Q235 202 240 193 Z M186 223 Q181 226 174 220.5 Q167 215 164 211 Q163 209 161 207 Q164 208 167.5 208.5 Q171 209 174 211 Q180 214 185 219 L187 222 L186 223 Z " />
<glyph glyph-name="ccedilla" unicode="&#xe7;" horiz-adv-x="96" d="M97 196 Q104 202 110.5 195.5 Q117 189 110 182 Q100 173 90 164 Q80 155 69 147 Q58 138 44 129.5 Q30 121 16 119 Q9 118 1.5 119.5 Q-6 121 -11 127 Q-23 143 -16 165 Q-13 176 -7.5 185.5 Q-2 195 5 204 Q12 212 19.5 220 Q27 228 37 233 Q42 235 47 237 Q52 239 58 238 Q63 238 68 236 Q73 234 75 229 Q79 220 75 212 Q71 204 65 197 Q62 194 58.5 194.5 Q55 195 52 197.5 Q49 200 48.5 204 Q48 208 51 211 Q56 216 57 219 Q54 219 53 218 Q44 216 37 209.5 Q30 203 24 197 Q18 189 13 181 Q8 173 5 164 Q1 157 1 147 Q2 146 2 144 L3 142 Q3 141 4 140 L4 139 L6 139 Q6 138 7 138 L9 138 Q11 138 13 138.5 Q15 139 18 140 Q26 142 38 149 Q55 159 69 171 Q83 183 97 196 Z M67 72 Q69 63 65 56.5 Q61 50 54 45 Q47 40 38.5 36.5 Q30 33 24 31 Q16 28 12 38 Q10 47 19 50 Q33 55 43 61 Q44 62 45 62.5 Q46 63 47 65 L48 66 L48 67 Q48 68 47 69 L46 69 L45 69 L42 69 L34 69 Q30 69 26 69.5 Q22 70 19 74 Q13 81 16.5 89.5 Q20 98 22 105 Q23 109 26.5 110.5 Q30 112 33.5 111.5 Q37 111 39 107.5 Q41 104 40 100 L37 88 Q49 90 55 86 Q65 83 67 72 Z " />
<glyph glyph-name="egrave" unicode="&#xe8;" horiz-adv-x="92" d="M106 193 Q110 186 102 180 Q97 176 92.5 172.5 Q88 169 83 165 Q78 162 73 159 Q68 156 63 153 Q56 149 48.5 146 Q41 143 33 141 Q25 139 16 139 Q7 139 0 144 Q-8 150 -9.5 158 Q-11 166 -9 175 Q-7 183 -4 189.5 Q-1 196 3 204 Q7 211 11.5 218 Q16 225 22 230 Q29 237 38 241 Q47 245 56 242 Q67 239 70.5 229.5 Q74 220 69 211 Q61 197 45 192 Q29 187 15 184 Q13 180 11 172 Q9 164 10 162 Q11 161 11 161 L11 160 L12 160 Q12 159 13 159 Q14 159 15 158 Q19 158 22 158.5 Q25 159 29 160 Q43 164 57 172 Q62 175 66.5 178 Q71 181 76 184 Q81 187 84.5 190.5 Q88 194 92 197 Q101 202 106 193 Z M52 223 Q47 226 40 220.5 Q33 215 30 211 Q29 209 27 207 Q30 208 33.5 208.5 Q37 209 40 211 Q46 214 51 219 L53 222 L52 223 Z M76 297 Q81 291 72.5 287 Q64 283 59 290 Q48 304 36 317.5 Q24 331 13 345 Q11 348 12.5 350.5 Q14 353 17 354.5 Q20 356 24 356 Q28 356 30 353 Q41 338 53 324.5 Q65 311 76 297 Z " />
<glyph glyph-name="eacute" unicode="&#xe9;" horiz-adv-x="92" d="M106 193 Q110 186 102 180 Q97 176 92.5 172.5 Q88 169 83 165 Q78 162 73 159 Q68 156 63 153 Q56 149 48.5 146 Q41 143 33 141 Q25 139 16 139 Q7 139 0 144 Q-8 150 -9.5 158 Q-11 166 -9 175 Q-7 183 -4 189.5 Q-1 196 3 204 Q7 211 11.5 218 Q16 225 22 230 Q29 237 38 241 Q47 245 56 242 Q67 239 70.5 229.5 Q74 220 69 211 Q61 197 45 192 Q29 187 15 184 Q13 180 11 172 Q9 164 10 162 Q11 161 11 161 L11 160 L12 160 Q12 159 13 159 Q14 159 15 158 Q19 158 22 158.5 Q25 159 29 160 Q43 164 57 172 Q62 175 66.5 178 Q71 181 76 184 Q81 187 84.5 190.5 Q88 194 92 197 Q101 202 106 193 Z M52 223 Q47 226 40 220.5 Q33 215 30 211 Q29 209 27 207 Q30 208 33.5 208.5 Q37 209 40 211 Q46 214 51 219 L53 222 L52 223 Z M64 329 Q68 331 72 329.5 Q76 328 77.5 325 Q79 322 78.5 318 Q78 314 74 312 Q63 307 53 299.5 Q43 292 32 287 Q27 285 23.5 286.5 Q20 288 18.5 291 Q17 294 17.5 298 Q18 302 22 304 Q33 309 43 316.5 Q53 324 64 329 Z " />
<glyph glyph-name="ecircumflex" unicode="&#xea;" horiz-adv-x="92" d="M106 193 Q110 186 102 180 Q97 176 92.5 172.5 Q88 169 83 165 Q78 162 73 159 Q68 156 63 153 Q56 149 48.5 146 Q41 143 33 141 Q25 139 16 139 Q7 139 0 144 Q-8 150 -9.5 158 Q-11 166 -9 175 Q-7 183 -4 189.5 Q-1 196 3 204 Q7 211 11.5 218 Q16 225 22 230 Q29 237 38 241 Q47 245 56 242 Q67 239 70.5 229.5 Q74 220 69 211 Q61 197 45 192 Q29 187 15 184 Q13 180 11 172 Q9 164 10 162 Q11 161 11 161 L11 160 L12 160 Q12 159 13 159 Q14 159 15 158 Q19 158 22 158.5 Q25 159 29 160 Q43 164 57 172 Q62 175 66.5 178 Q71 181 76 184 Q81 187 84.5 190.5 Q88 194 92 197 Q101 202 106 193 Z M52 223 Q47 226 40 220.5 Q33 215 30 211 Q29 209 27 207 Q30 208 33.5 208.5 Q37 209 40 211 Q46 214 51 219 L53 222 L52 223 Z M82 321 Q85 318 83.5 314 Q82 310 79 308 Q72 304 66 311 Q63 315 60.5 318.5 Q58 322 55 326 Q53 328 51.5 330 Q50 332 48 334 Q47 334 47 333 Q45 331 43 329.5 Q41 328 39 326 Q35 322 31 318.5 Q27 315 22 310 Q19 307 15 307.5 Q11 308 8.5 311 Q6 314 5.5 317.5 Q5 321 8 324 Q14 329 20 334 Q26 339 31 345 Q36 350 40.5 353 Q45 356 53 353 Q58 351 62 347 Q66 343 70 338 Q73 333 76 329.5 Q79 326 82 321 Z " />
<glyph glyph-name="edieresis" unicode="&#xeb;" horiz-adv-x="92" d="M106 193 Q110 186 102 180 Q97 176 92.5 172.5 Q88 169 83 165 Q78 162 73 159 Q68 156 63 153 Q56 149 48.5 146 Q41 143 33 141 Q25 139 16 139 Q7 139 0 144 Q-8 150 -9.5 158 Q-11 166 -9 175 Q-7 183 -4 189.5 Q-1 196 3 204 Q7 211 11.5 218 Q16 225 22 230 Q29 237 38 241 Q47 245 56 242 Q67 239 70.5 229.5 Q74 220 69 211 Q61 197 45 192 Q29 187 15 184 Q13 180 11 172 Q9 164 10 162 Q11 161 11 161 L11 160 L12 160 Q12 159 13 159 Q14 159 15 158 Q19 158 22 158.5 Q25 159 29 160 Q43 164 57 172 Q62 175 66.5 178 Q71 181 76 184 Q81 187 84.5 190.5 Q88 194 92 197 Q101 202 106 193 Z M52 223 Q47 226 40 220.5 Q33 215 30 211 Q29 209 27 207 Q30 208 33.5 208.5 Q37 209 40 211 Q46 214 51 219 L53 222 L52 223 Z M28 316 Q38 316 38 306.5 Q38 297 28 297 Q19 297 19 306.5 Q19 316 28 316 Z M63 317 Q73 317 73 307 Q73 297 63 297 Q53 297 53 307 Q53 317 63 317 Z " />
<glyph glyph-name="igrave" unicode="&#xec;" horiz-adv-x="83" d="M82 195 Q89 202 96 195 Q103 188 96 181 Q85 172 74.5 163.5 Q64 155 52 148 Q47 145 41 141.5 Q35 138 29 136 Q24 134 18 133 Q12 132 6 135 Q-8 143 -6.5 159 Q-5 175 -2 187 Q0 194 2 200.5 Q4 207 6 213 Q8 219 10.5 225 Q13 231 14 238 Q16 247 26 245 Q33 242 33 233 Q31 222 26.5 211.5 Q22 201 19 190 Q17 183 16 177 Q15 171 14 165 Q13 162 13 156 Q13 155 13.5 155 Q14 155 14 154 Q14 153 15 152 L16 152 Q18 152 18.5 152.5 Q19 153 20 153 Q22 154 24 155 Q26 156 28 157 Q33 160 38 162.5 Q43 165 48 169 Q57 174 65.5 180.5 Q74 187 82 195 Z M75 325 Q80 319 71.5 315 Q63 311 58 318 Q47 332 35 345.5 Q23 359 12 373 Q10 376 11.5 378.5 Q13 381 16 382.5 Q19 384 23 384 Q27 384 29 381 Q40 366 52 352.5 Q64 339 75 325 Z " />
<glyph glyph-name="ograve" unicode="&#xf2;" horiz-adv-x="111" d="M123 191 Q125 182 116 179 Q107 176 96.5 173 Q86 170 75 169 L69 169 Q68 167 68 166.5 Q68 166 67 164 Q62 156 56.5 149 Q51 142 45 135 Q39 130 31.5 125.5 Q24 121 16 119 Q5 117 -3 122 Q-11 127 -14 138 Q-17 149 -14.5 159.5 Q-12 170 -8 180 Q2 203 15 219 Q21 227 29 234 Q37 241 48 243 Q58 243 60 236 Q62 226 53 224 Q45 223 40.5 218 Q36 213 31 208 Q26 202 21.5 195 Q17 188 13 181 Q10 174 7.5 166.5 Q5 159 4 151 Q4 149 4.5 145.5 Q5 142 7 140 L9 138 L10 138 L12 138 Q24 140 33 150.5 Q42 161 48 171 L50 174 Q39 178 38 189 Q36 199 43.5 206 Q51 213 59 212 L62 212 Q66 210 69 208 Q72 207 73 204 Q73 203 74 203 Q76 197 76 195 L76 190 L76 189 L78 189 Q94 192 111 198 Q120 200 123 191 Z M102 316 Q107 310 98.5 306 Q90 302 85 309 Q74 323 62 336.5 Q50 350 39 364 Q37 367 38.5 369.5 Q40 372 43 373.5 Q46 375 50 375 Q54 375 56 372 Q67 357 79 343.5 Q91 330 102 316 Z " />
<glyph glyph-name="iacute" unicode="&#xed;" horiz-adv-x="83" d="M82 195 Q89 202 96 195 Q103 188 96 181 Q85 172 74.5 163.5 Q64 155 52 148 Q47 145 41 141.5 Q35 138 29 136 Q24 134 18 133 Q12 132 6 135 Q-8 143 -6.5 159 Q-5 175 -2 187 Q0 194 2 200.5 Q4 207 6 213 Q8 219 10.5 225 Q13 231 14 238 Q16 247 26 245 Q33 242 33 233 Q31 222 26.5 211.5 Q22 201 19 190 Q17 183 16 177 Q15 171 14 165 Q13 162 13 156 Q13 155 13.5 155 Q14 155 14 154 Q14 153 15 152 L16 152 Q18 152 18.5 152.5 Q19 153 20 153 Q22 154 24 155 Q26 156 28 157 Q33 160 38 162.5 Q43 165 48 169 Q57 174 65.5 180.5 Q74 187 82 195 Z M70 362 Q74 364 78 362.5 Q82 361 83.5 358 Q85 355 84.5 351 Q84 347 80 345 Q69 340 59 332.5 Q49 325 38 320 Q33 318 29.5 319.5 Q26 321 24.5 324 Q23 327 23.5 331 Q24 335 28 337 Q39 342 49 349.5 Q59 357 70 362 Z " />
<glyph glyph-name="icircumflex" unicode="&#xee;" horiz-adv-x="83" d="M82 195 Q89 202 96 195 Q103 188 96 181 Q85 172 74.5 163.5 Q64 155 52 148 Q47 145 41 141.5 Q35 138 29 136 Q24 134 18 133 Q12 132 6 135 Q-8 143 -6.5 159 Q-5 175 -2 187 Q0 194 2 200.5 Q4 207 6 213 Q8 219 10.5 225 Q13 231 14 238 Q16 247 26 245 Q33 242 33 233 Q31 222 26.5 211.5 Q22 201 19 190 Q17 183 16 177 Q15 171 14 165 Q13 162 13 156 Q13 155 13.5 155 Q14 155 14 154 Q14 153 15 152 L16 152 Q18 152 18.5 152.5 Q19 153 20 153 Q22 154 24 155 Q26 156 28 157 Q33 160 38 162.5 Q43 165 48 169 Q57 174 65.5 180.5 Q74 187 82 195 Z M80 341 Q83 338 81.5 334 Q80 330 77 328 Q70 324 64 331 Q61 335 58.5 338.5 Q56 342 53 346 Q51 348 49.5 350 Q48 352 46 354 Q45 354 45 353 Q43 351 41 349.5 Q39 348 37 346 Q33 342 29 338.5 Q25 335 20 330 Q17 327 13 327.5 Q9 328 6.5 331 Q4 334 3.5 337.5 Q3 341 6 344 Q12 349 18 354 Q24 359 29 365 Q34 370 38.5 373 Q43 376 51 373 Q56 371 60 367 Q64 363 68 358 Q71 353 74 349.5 Q77 346 80 341 Z " />
<glyph glyph-name="oacute" unicode="&#xf3;" horiz-adv-x="111" d="M123 191 Q125 182 116 179 Q107 176 96.5 173 Q86 170 75 169 L69 169 Q68 167 68 166.5 Q68 166 67 164 Q62 156 56.5 149 Q51 142 45 135 Q39 130 31.5 125.5 Q24 121 16 119 Q5 117 -3 122 Q-11 127 -14 138 Q-17 149 -14.5 159.5 Q-12 170 -8 180 Q2 203 15 219 Q21 227 29 234 Q37 241 48 243 Q58 243 60 236 Q62 226 53 224 Q45 223 40.5 218 Q36 213 31 208 Q26 202 21.5 195 Q17 188 13 181 Q10 174 7.5 166.5 Q5 159 4 151 Q4 149 4.5 145.5 Q5 142 7 140 L9 138 L10 138 L12 138 Q24 140 33 150.5 Q42 161 48 171 L50 174 Q39 178 38 189 Q36 199 43.5 206 Q51 213 59 212 L62 212 Q66 210 69 208 Q72 207 73 204 Q73 203 74 203 Q76 197 76 195 L76 190 L76 189 L78 189 Q94 192 111 198 Q120 200 123 191 Z M80 344 Q84 346 88 344.5 Q92 343 93.5 340 Q95 337 94.5 333 Q94 329 90 327 Q79 322 69 314.5 Q59 307 48 302 Q43 300 39.5 301.5 Q36 303 34.5 306 Q33 309 33.5 313 Q34 317 38 319 Q49 324 59 331.5 Q69 339 80 344 Z " />
<glyph glyph-name="idieresis" unicode="&#xef;" horiz-adv-x="83" d="M82 195 Q89 202 96 195 Q103 188 96 181 Q85 172 74.5 163.5 Q64 155 52 148 Q47 145 41 141.5 Q35 138 29 136 Q24 134 18 133 Q12 132 6 135 Q-8 143 -6.5 159 Q-5 175 -2 187 Q0 194 2 200.5 Q4 207 6 213 Q8 219 10.5 225 Q13 231 14 238 Q16 247 26 245 Q33 242 33 233 Q31 222 26.5 211.5 Q22 201 19 190 Q17 183 16 177 Q15 171 14 165 Q13 162 13 156 Q13 155 13.5 155 Q14 155 14 154 Q14 153 15 152 L16 152 Q18 152 18.5 152.5 Q19 153 20 153 Q22 154 24 155 Q26 156 28 157 Q33 160 38 162.5 Q43 165 48 169 Q57 174 65.5 180.5 Q74 187 82 195 Z M26 323 Q36 323 36 313.5 Q36 304 26 304 Q17 304 17 313.5 Q17 323 26 323 Z M61 324 Q71 324 71 314 Q71 304 61 304 Q51 304 51 314 Q51 324 61 324 Z " />
<glyph glyph-name="ntilde" unicode="&#xf1;" horiz-adv-x="114" d="M127 193 Q131 186 124 180 Q110 169 97.5 155.5 Q85 142 66 137 Q61 135 57.5 138 Q54 141 54 146 Q54 156 56 165.5 Q58 175 61 184 Q63 190 64.5 196 Q66 202 68 208 Q70 213 72 219.5 Q74 226 74 231 Q72 231 71 230 L69 228 L67 227 Q65 225 63 223.5 Q61 222 59 220 Q54 215 50.5 211 Q47 207 43 202 Q32 190 24.5 175.5 Q17 161 7 148 Q2 142 -5.5 144.5 Q-13 147 -11 156 Q-6 173 -2 190.5 Q2 208 9 225 Q13 235 21 232 Q24 231 27 227.5 Q30 224 28 220 Q26 217 25.5 214.5 Q25 212 23 209 Q25 211 27.5 214 Q30 217 32 219 Q37 224 41.5 229 Q46 234 51 239 Q56 243 61 246.5 Q66 250 73 251 Q80 253 85.5 249.5 Q91 246 93 238 Q94 225 89 209 Q87 203 85.5 197 Q84 191 82 186 Q80 180 78.5 174 Q77 168 75 162 Q79 164 82 167 Q85 170 88 173 Q95 179 101 185.5 Q107 192 114 197 Q117 199 121 197.5 Q125 196 127 193 Z M94 337 Q96 341 100 341.5 Q104 342 107 340 Q110 338 111.5 334.5 Q113 331 111 327 Q107 319 100.5 314.5 Q94 310 85 312 Q77 312 70.5 315 Q64 318 58 322 Q58 323 56.5 323.5 Q55 324 56 324 Q54 324 53.5 324.5 Q53 325 52 325 Q48 326 43 326 L42 326 L40 326 L39 326 L39 325 L38 325 L38 323 L38 321 Q39 316 36 313.5 Q33 311 29 311 Q19 311 19 321 Q17 338 33 344 Q38 346 44.5 346 Q51 346 57 344 Q63 342 68 339 Q73 336 79 333 Q84 331 87.5 331 Q91 331 94 337 Z " />
</font>
</svg>
