<?xml version="1.0" encoding="UTF-8"?>
<svg xmlns="http://www.w3.org/2000/svg" xmlns:xlink="http://www.w3.org/1999/xlink" version="1.2" >
<font id="Afattal">
<font-face  font-family="Afattal" units-per-em="1000" ascent="750" descent="-250" font-style="normal" font-weight="400" font-stretch="normal" cap-height="700" x-height="500" underline-position="-75" underline-thickness="50" />
<missing-glyph  horiz-adv-x="132" d="" />
<glyph glyph-name="NULL" d="" />
<glyph glyph-name="nonmarkingreturn" unicode="&#xd;" horiz-adv-x="132" d="" />
<glyph glyph-name="space" unicode="&#x20;" horiz-adv-x="132" d="" />
<glyph glyph-name="A" unicode="A" horiz-adv-x="633" d="M603 286 Q614 286 624.5 285.5 Q635 285 643 280 Q643 280 646 277 Q641 275 638 277 Q635 279 631 279 L616 279 Q612 279 608 279 Q604 279 600 278 Q599 276 598 275.5 Q597 275 596 273 Q548 182 496 93.5 Q444 5 388 -84 L331 -174 L295 -234 Q291 -244 283 -239 Q280 -238 283 -233 Q285 -228 287 -224 Q289 -220 291 -215 Q301 -198 310.5 -180 Q320 -162 330 -145 Q341 -126 350.5 -107.5 Q360 -89 371 -70 Q390 -37 409 -4 Q428 29 447 62 Q476 115 505 166.5 Q534 218 561 271 Q561 273 562 274 Q561 274 560.5 274.5 Q560 275 558 275 Q538 273 517 270.5 Q496 268 476 265 Q455 263 434 260 Q413 257 392 254 Q385 253 379 252 Q373 251 367 250 Q362 250 355 243 L307 186 Q273 148 237.5 111 Q202 74 164 39 Q139 17 114 -3.5 Q89 -24 61 -42 Q47 -52 32 -60.5 Q17 -69 1 -76 Q-20 -85 -42 -88 Q-82 -91 -92 -60 Q-100 -36 -92 -9 Q-87 17 -74 40 Q-61 63 -42 86 Q-21 112 4 132.5 Q29 153 58 170 Q116 203 180 222 Q209 231 237 237 Q265 243 294 248 Q302 249 311 250 Q320 251 328 253 Q332 254 335 255 Q338 256 341 260 Q367 294 393.5 327.5 Q420 361 446 395 Q488 448 528.5 499.5 Q569 551 613 602 Q628 621 649 642 Q654 647 660 652.5 Q666 658 672 663 Q671 664 669 668 Q661 679 650 686.5 Q639 694 627 700 Q610 708 592.5 712.5 Q575 717 556 720 Q508 727 456 723 Q420 721 382.5 714 Q345 707 307 693 Q278 682 251.5 667 Q225 652 199 631 Q175 611 155.5 588.5 Q136 566 122 540 Q99 498 98 459 Q98 398 156 389 Q183 384 212 390.5 Q241 397 272 411 Q302 425 329 445 Q356 465 379 492 Q391 506 400.5 521 Q410 536 415 552 Q420 567 420 578 Q422 598 411.5 609.5 Q401 621 381 623 Q361 625 340 619 Q319 613 297 602 Q280 592 264.5 580 Q249 568 236 552 Q221 534 216 517 Q211 500 219 491 Q227 482 245 487 Q252 489 258 491.5 Q264 494 270 499 Q284 507 294.5 517.5 Q305 528 312 542 Q316 549 316 556 Q317 562 311 562 Q298 560 289 554 Q287 553 285.5 551 Q284 549 282 547 Q281 548 280 548 Q279 548 278 549 Q271 557 283 563 Q300 573 313 572 Q327 570 330.5 559.5 Q334 549 326 534 Q324 531 321.5 527.5 Q319 524 317 520 Q300 500 281 488.5 Q262 477 240 475 Q208 472 200 500 Q197 509 200 519 Q203 529 209 539 Q214 547 220 554 Q226 561 233 568 Q259 593 287.5 609.5 Q316 626 348 632 Q392 641 417 618 Q443 594 429 551 Q423 531 411.5 512 Q400 493 384 476 Q302 390 200 376 Q152 370 120 390 Q71 421 88 492 Q100 543 131.5 585 Q163 627 211 661 Q241 682 272 696.5 Q303 711 335 720 Q358 728 380 732 Q402 736 424 738 Q473 744 521 741 Q549 739 575 734.5 Q601 730 625 720 Q719 680 706 563 Q697 501 671 433 Q647 373 617 313 Q613 306 610 299.5 Q607 293 603 286 Z M327 244 Q319 242 312 241.5 Q305 241 297 239 Q232 228 170 208 Q141 199 113.5 187 Q86 175 58 158 Q18 133 -13.5 101.5 Q-45 70 -65 28 Q-84 -10 -81 -42 Q-79 -59 -71 -69 Q-61 -81 -41 -78 Q-22 -74 0 -63 Q14 -56 26.5 -48 Q39 -40 53 -31 Q83 -9 111 15.5 Q139 40 166 66 Q209 108 248 151.5 Q287 195 324 240 Q326 242 327 244 Z M567 283 Q568 285 569 287.5 Q570 290 571 292 Q584 318 596.5 344 Q609 370 621 396 Q635 425 646 453 Q657 481 667 510 Q672 525 676.5 540 Q681 555 683 570 Q687 590 686.5 608 Q686 626 681 643 Q680 645 680 646.5 Q680 648 679 650 Q670 641 667 637 Q648 614 630 592 Q612 570 594 547 Q538 475 483.5 404.5 Q429 334 372 263 Q370 261 370 260 Q419 266 468 272 Q517 278 567 283 Z " />
<glyph glyph-name="c" unicode="c" horiz-adv-x="187" d="M188 208 Q189 206 189 205 Q189 203 187 201 Q148 170 118 148.5 Q88 127 65 112.5 Q42 98 25.5 90 Q9 82 -2 78 Q-6 77 -10 76 Q-14 75 -18 75 Q-23 75 -27 75.5 Q-31 76 -36 78 Q-40 80 -43 87 Q-44 90 -44 97 Q-44 119 -33 143 Q-30 151 -26.5 159 Q-23 167 -19 175 Q-18 179 -15 183 Q-13 187 -9.5 193 Q-6 199 -1 207 L3 213 Q6 217 6 217 Q9 222 12.5 227.5 Q16 233 20 238 Q45 271 80 299 Q93 309 110 317 Q124 323 137 322 Q142 322 147 319 Q162 312 152 294 Q150 292 149 290 Q142 282 136.5 282 Q131 282 127 284.5 Q123 287 120.5 291 Q118 295 118 296 Q116 296 118 298 Q119 298 120 299 Q122 298 124 296 L125 294 Q127 297 129 299.5 Q131 302 131 306 Q124 304 117.5 300 Q111 296 106 292 Q100 287 93 282 L78 267 Q61 249 47 230 Q33 211 21 191 Q13 176 5 161.5 Q-3 147 -8 131 Q-11 123 -14.5 113 Q-18 103 -17 94 Q-17 91 -15 89 Q-13 86 -8 86 Q-3 86 3 88 Q8 90 16 94 Q21 96 24.5 98 Q28 100 32 102 Q40 106 49 112 Q54 114 58 117 Q62 120 67 123 Q81 131 95.5 141.5 Q110 152 124 161 Q132 167 140 173 Q148 179 156 185 Q164 191 172 196.5 Q180 202 188 208 Z " />
<glyph glyph-name="d" unicode="d" horiz-adv-x="205" d="M303 562 Q308 559 306 553 Q303 546 299.5 539.5 Q296 533 293 527 Q272 487 249 448 Q226 409 202 371 Q188 348 174.5 326 Q161 304 147 281 Q140 270 134.5 260 Q129 250 124 239 Q85 163 51 87 Q46 76 42 65.5 Q38 55 33 44 Q31 41 26.5 28.5 Q22 16 16.5 1 Q11 -14 6.5 -28.5 Q2 -43 1 -51 L59 20 L146 130 L152 139 L153 140 Q158 147 163 153 Q168 159 173 166 Q181 176 187.5 185 Q194 194 202 203 L206 208 Q206 207 207 206 Q207 205 207.5 204.5 Q208 204 207 202 Q206 201 205.5 200 Q205 199 203 197 L164 144 L123 90 L13 -51 Q8 -57 4 -61 Q0 -65 -5 -68 Q-10 -71 -15 -71 L-17 -71 L-19 -71 Q-28 -69 -28.5 -58.5 Q-29 -48 -27 -40 Q-25 -30 -22.5 -20.5 Q-20 -11 -17 -2 Q-9 21 0 44.5 Q9 68 19 91 Q24 104 30 116 Q36 128 42 141 Q42 142 42.5 143 Q43 144 43 145 Q43 145 42 146 Q41 145 40.5 144 Q40 143 39 142 Q35 139 31.5 136 Q28 133 24 131 Q9 120 -6 125 Q-21 130 -23 142 Q-25 152 -22 162 Q-20 167 -19 171.5 Q-18 176 -16 181 Q-9 195 -0.5 208.5 Q8 222 10 224 Q18 235 26.5 244.5 Q35 254 46 263 Q49 265 52 268 Q55 271 59 273 Q73 282 86.5 285.5 Q100 289 115 284 Q116 286 117 288 Q118 290 119 292 Q177 397 244 497 Q251 508 258 518.5 Q265 529 273 540 Q277 545 281 549.5 Q285 554 289 559 Q297 567 303 562 Z M107 269 Q108 271 108 271.5 Q108 272 109 274 Q106 277 101 275 Q98 273 94.5 271.5 Q91 270 88 268 Q80 263 74 256 Q54 236 39 213.5 Q24 191 13 167 Q8 154 8 141 Q13 144 16.5 146.5 Q20 149 24 151 Q35 160 45.5 170 Q56 180 65 191 Q67 193 69 197 Q79 215 88 233 Q97 251 107 269 Z M215 403 Q229 424 242 445.5 Q255 467 266 489 Q252 468 239 446.5 Q226 425 215 403 Z " />
<glyph glyph-name="e" unicode="e" horiz-adv-x="209" d="M211 205 Q211 203 209 201 Q131 152 86.5 132.5 Q42 113 20 108 Q2 105 -7 108.5 Q-16 112 -19 116 Q-27 126 -25 140 Q-25 151 -22.5 160.5 Q-20 170 -15 180 Q-12 186 -8.5 192 Q-5 198 -3 203 Q8 228 35 260 Q43 272 53 280 Q74 303 98 314 Q106 318 114 320.5 Q122 323 131 324 Q145 324 155 317 Q173 305 164 281 Q153 253 127 237 Q106 223 87 230 Q79 233 76 239.5 Q73 246 73 253 Q73 261 75 271 L67 261 L67 260 Q63 257 57 249 Q41 228 28.5 206.5 Q16 185 7 161 Q6 159 6 158 Q6 157 5 155 Q3 148 1 136 Q-1 127 5 121 Q8 118 12 117.5 Q16 117 21 117 Q31 119 35 120 L53 126 Q58 128 62.5 130 Q67 132 72 134 Q77 136 82.5 138.5 Q88 141 93 144 Q98 146 103.5 149 Q109 152 114 154 Q120 157 125 160 Q130 163 135 165 Q140 168 145 170.5 Q150 173 155 176 Q160 178 164 181 Q168 184 173 186 Q177 188 180.5 190.5 Q184 193 189 195 Q191 197 194 198.5 Q197 200 200 202 Q202 204 204 204.5 Q206 205 208 207 Q209 207 209.5 207.5 Q210 208 211 208 L211 205 Z M87 263 Q87 260 86.5 257.5 Q86 255 87 252 Q88 249 89.5 245.5 Q91 242 95 243 Q104 245 111 249 Q137 267 148 292 Q148 293 148.5 293.5 Q149 294 149 295 Q149 296 149.5 296.5 Q150 297 150 298 Q150 302 149 306.5 Q148 311 142 311 L140 311 L139 311 Q137 311 136 310.5 Q135 310 133 310 Q128 308 123.5 306.5 Q119 305 114 302 Q113 301 109 299 Q104 295 101.5 292.5 Q99 290 97 289 Q94 284 91 277.5 Q88 271 87 263 Z " />
<glyph glyph-name="f" unicode="f" horiz-adv-x="181" d="M274 564 Q282 558 282 545 Q282 530 276 514 Q270 498 261.5 483.5 Q253 469 242 455 Q225 429 205.5 405 Q186 381 164 358 Q151 345 138 333.5 Q125 322 110 311 Q102 305 94.5 300 Q87 295 79 292 Q75 291 73 287 Q66 274 59 261.5 Q52 249 45 237 Q8 168 -25 100 L-30 89 L-35 79 L-9 94 L183 208 L183 205 Q183 202 181 202 L179 200 L171 195 L-36 67 L-36 57 Q-35 44 -34.5 28 Q-34 12 -36 -1 Q-37 -10 -38 -19.5 Q-39 -29 -41 -39 Q-45 -59 -52 -77.5 Q-59 -96 -72 -114 Q-85 -131 -98 -142 Q-113 -154 -130 -149 Q-141 -146 -143 -133 Q-144 -122 -141 -109 Q-138 -94 -133.5 -79.5 Q-129 -65 -124 -50 Q-109 -9 -90.5 31 Q-72 71 -52 111 L-27 159 Q-10 191 7.5 223 Q25 255 44 287 Q70 331 97 373.5 Q124 416 154 458 Q168 478 183.5 497 Q199 516 217 534 Q223 540 229.5 546 Q236 552 243 558 Q246 561 254 565 Q265 570 274 564 Z M-46 5 Q-44 17 -45 28.5 Q-46 40 -47 52 Q-48 51 -48 50 Q-75 -7 -99 -64 Q-109 -88 -113 -110 Q-115 -115 -115 -120 Q-115 -125 -116 -130 Q-116 -132 -115.5 -132.5 Q-115 -133 -115 -135 Q-110 -130 -106 -127 Q-102 -124 -98 -119 Q-84 -105 -74.5 -88 Q-65 -71 -58 -53 Q-53 -39 -50.5 -24.5 Q-48 -10 -46 5 Z M271 529 Q272 534 272.5 539.5 Q273 545 272 550 Q272 556 265 552 Q260 550 258 548 Q252 543 246 538 Q240 533 235 527 Q202 491 172 447 Q148 412 126 376 Q104 340 83 303 Q83 303 81 299 Q83 301 84 301 Q85 301 86 302 Q92 307 98 311.5 Q104 316 110 321 Q130 336 147 353.5 Q164 371 180 389 Q200 412 217 434.5 Q234 457 249 482 Q263 503 271 529 Z " />
<glyph glyph-name="g" unicode="g" horiz-adv-x="225" d="M224 203 Q218 200 200 190 Q182 180 161 169 Q140 158 121 147.5 Q102 137 95 131 Q93 127 93 127 Q93 127 92 126 L92 125 Q80 101 68 76.5 Q56 52 42 28 Q28 3 12 -20.5 Q-4 -44 -22 -67 Q-31 -78 -40.5 -89 Q-50 -100 -61 -110 Q-69 -116 -76.5 -121 Q-84 -126 -93 -129 Q-108 -137 -123 -132 Q-146 -126 -143 -100 Q-143 -94 -141 -88 Q-139 -82 -137 -76 Q-132 -62 -124 -50 Q-116 -38 -108 -26 Q-102 -18 -96 -11 Q-90 -4 -83 4 Q-78 10 -72.5 15.5 Q-67 21 -62 26 Q-54 34 -47 40.5 Q-40 47 -32 54 Q-22 62 -12.5 69.5 Q-3 77 7 85 Q18 94 30 102.5 Q42 111 55 119 L108 222 Q106 220 105 219.5 Q104 219 103 217 Q88 203 73 190.5 Q58 178 41 167 Q38 165 35.5 164 Q33 163 30 161 Q19 155 9 159 Q-10 165 -7 189 Q-2 209 8 226 Q27 262 62 289 Q79 303 98 309 Q124 315 138 301 Q146 294 145 285 Q145 280 143 277 Q141 272 136 274 Q132 276 132 281 L132 290 Q130 301 118 298 Q111 297 102 293 Q94 289 88 284 Q82 279 76 274 Q59 257 45.5 238 Q32 219 24 197 Q22 192 21 186.5 Q20 181 19 176 Q18 175 18 171 L27 174 Q41 179 58 191 Q71 199 82.5 209 Q94 219 105 229 Q108 231 113 236 Q124 243 127 234 Q128 232 128 226 Q127 216 124.5 206.5 Q122 197 119 187 Q117 182 114.5 176 Q112 170 110 164 Q110 162 107.5 157.5 Q105 153 103 148 Q157 179 226 208 L226 206 Q226 203 224 203 Z M38 87 Q40 90 41 92.5 Q42 95 44 98 Q43 97 42 97 Q30 88 18 79.5 Q6 71 -5 62 Q-16 53 -27 43.5 Q-38 34 -49 23 Q-56 17 -62 10.5 Q-68 4 -75 -3 Q-95 -26 -110 -50 Q-118 -62 -124 -75.5 Q-130 -89 -132 -103 Q-132 -107 -131.5 -111 Q-131 -115 -129 -118 Q-126 -123 -119 -122 Q-110 -119 -102 -113 Q-90 -104 -78 -90 Q-64 -75 -52.5 -59 Q-41 -43 -30 -27 Q-11 1 5 29 Q21 57 37 86 Q37 86 38 87 Z " />
<glyph glyph-name="h" unicode="h" horiz-adv-x="210" d="M308 596 Q309 595 309 591 Q309 575 303 559 Q297 544 288.5 529 Q280 514 269 500 Q236 451 191 403 Q178 390 165 378.5 Q152 367 138 356 Q133 353 129.5 350 Q126 347 122 345 Q121 345 120.5 344.5 Q120 344 119 344 Q112 340 107 338 Q102 336 98 334 L89 319 L88 318 L88 317 L87 317 Q85 310 80 304 L80 303 Q78 301 78 300 L77 299 Q51 254 27.5 208 Q4 162 -19 115 Q-17 117 -16 117.5 Q-15 118 -14 120 Q21 156 60 188 Q65 192 71 196 Q77 200 83 204 Q87 207 97 211 Q114 216 112 200 Q112 195 110 190 Q108 185 106 180 Q98 162 88 143.5 Q78 125 67 107 Q57 88 44 66 Q40 58 38 55 L211 208 Q212 207 212 206 L212 202 Q208 200 205 197 Q202 194 199 191 Q195 188 188 181 Q185 178 181.5 175 Q178 172 175 169 Q171 166 167.5 162.5 Q164 159 160 156 Q155 152 151.5 148.5 Q148 145 144 142 Q139 138 135.5 134.5 Q132 131 127 127 Q123 123 119 119.5 Q115 116 111 112 Q106 108 102.5 105 Q99 102 95 98 Q91 95 87.5 91.5 Q84 88 80 85 Q77 82 73.5 79 Q70 76 67 73 Q64 70 56 64 Q54 62 52 60 Q50 58 48 56 Q44 53 40 50 Q36 47 31 46 Q26 45 24 48.5 Q22 52 23 56 Q23 59 24 61.5 Q25 64 26 66 Q38 87 50.5 107.5 Q63 128 75 148 Q87 167 96 187 Q98 191 99 195 Q100 199 101 204 L101 206 Q95 204 92 202 Q87 199 81.5 195.5 Q76 192 71 188 Q8 138 -41 71 Q-46 65 -49 59 Q-52 53 -55 46 Q-60 35 -66 25.5 Q-72 16 -77 5 Q-78 3 -78 2.5 Q-78 2 -79 0 Q-88 -14 -102 -11 Q-106 -10 -104 -5 Q-83 38 -63.5 81 Q-44 124 -22 167 Q15 239 53.5 309 Q92 379 137 449 Q168 498 206 545 Q217 556 227 567.5 Q237 579 249 590 Q256 595 263 600.5 Q270 606 278 609 Q290 614 298 611 Q299 610 302 608.5 Q305 607 307 602 Q307 601 307.5 600 Q308 599 308 597 L308 596 Z M298 575 Q300 585 300 589 Q300 596 297 596.5 Q294 597 291 595 Q283 591 280 588 Q271 581 263.5 573.5 Q256 566 248 558 Q219 524 193 488 Q145 418 102 343 Q108 345 114 349 Q120 353 125 356 Q133 362 137 366 Q174 396 207 435 Q245 477 276 527 Q284 539 289.5 550.5 Q295 562 298 575 Z " />
<glyph glyph-name="i" unicode="i" horiz-adv-x="116" d="M76 343 Q70 343 66.5 347 Q63 351 63 356.5 Q63 362 66.5 366 Q70 370 76 370 Q83 370 86 366 Q89 362 89 356.5 Q89 351 86 347 Q83 343 76 343 Z M-40 65 Q-41 64 -49 58 Q-57 52 -65 54 Q-70 56 -72 59 Q-74 61 -74 67 Q-73 74 -70 80.5 Q-67 87 -65 92 Q-58 106 -51 119.5 Q-44 133 -36 147 L-34 151 Q-33 153 -22 172.5 Q-11 192 2 215.5 Q15 239 26.5 259.5 Q38 280 40 283 Q47 282 50 273 Q52 268 51 262.5 Q50 257 48 251 Q42 230 28 206 Q17 185 6 164.5 Q-5 144 -16 124 Q-22 113 -28 101 Q-34 89 -40 77 Q-41 75 -41.5 73.5 Q-42 72 -43 70 L117 208 Q118 207 118 205 Q118 201 117 200 L-40 65 Z " />
<glyph glyph-name="j" unicode="j" horiz-adv-x="125" d="M67 351 Q60 351 57 355 Q54 359 54 364.5 Q54 370 57.5 374 Q61 378 67 378 Q74 378 77 374 Q80 370 80 364.5 Q80 359 77 355 Q74 351 67 351 Z M126 208 Q127 207 127 206 Q127 203 126 202 Q125 201 114.5 193.5 Q104 186 88 175 Q72 164 54 151 Q36 138 20 127 Q4 116 -7.5 108 Q-19 100 -20 99 Q-27 85 -28 82 Q-38 62 -49 42 Q-60 22 -71 2 Q-96 -40 -124.5 -77.5 Q-153 -115 -186 -149 Q-194 -157 -201.5 -164 Q-209 -171 -217 -179 Q-219 -181 -220.5 -182 Q-222 -183 -224 -185 Q-234 -193 -243.5 -198.5 Q-253 -204 -264 -206 Q-266 -205 -271 -205 L-272 -204 Q-283 -200 -280 -181 Q-278 -173 -275 -164 Q-272 -155 -268 -147 Q-256 -124 -241.5 -104 Q-227 -84 -210 -64 Q-179 -29 -146 3 Q-113 35 -78 62 Q-70 67 -64 78 Q-50 106 -36.5 133 Q-23 160 -10 188 Q-1 208 8 226.5 Q17 245 26 265 L29 271 Q33 276 36 275 Q44 273 42 265 Q40 253 38 246 Q33 226 26 205.5 Q19 185 10 165 Q8 160 6 156 Q4 152 2 147 Q1 145 -3.5 134.5 Q-8 124 -14 112 L19 135 L126 208 Z M-82 47 Q-81 48 -81 49 Q-82 49 -82 48 Q-86 46 -87 44 Q-119 17 -148 -12.5 Q-177 -42 -204 -75 Q-215 -88 -225.5 -102 Q-236 -116 -244 -131 Q-251 -142 -256.5 -153.5 Q-262 -165 -265 -176 Q-266 -181 -266.5 -185 Q-267 -189 -265 -194 Q-262 -192 -258.5 -190 Q-255 -188 -253 -186 Q-246 -180 -239.5 -174.5 Q-233 -169 -226 -163 Q-207 -143 -190.5 -122 Q-174 -101 -158 -78 Q-137 -48 -118 -16.5 Q-99 15 -82 47 Z " />
<glyph glyph-name="k" unicode="k" horiz-adv-x="195" d="M258 549 Q260 545 259.5 540.5 Q259 536 258 531 Q257 523 253 512 Q247 497 238.5 482 Q230 467 219 453 Q202 428 182.5 403.5 Q163 379 141 356 Q128 343 115 331.5 Q102 320 87 309 L78 303 Q78 302 77.5 301 Q77 300 77 299 L76 298 Q75 296 74.5 295.5 Q74 295 73 293 L59 265 Q59 265 58 264 L58 263 Q50 249 43 234 Q36 219 28 205 L-1 145 Q1 147 2 147 L104 233 Q104 237 108 233 Q109 230 107 228 L69 192 Q68 191 62.5 177.5 Q57 164 50.5 147 Q44 130 37.5 114.5 Q31 99 29 93 Q28 90 27 87 Q26 84 25 81 Q23 75 22 73 Q6 31 -5 -15 Q-5 -17 -5.5 -18.5 Q-6 -20 -6 -22 L-6 -26 L196 208 Q196 207 197 205 Q197 200 197 200 L0 -31 L-1 -33 Q-3 -35 -8.5 -40 Q-14 -45 -19 -44 L-20 -44 Q-20 -44 -24 -42 Q-28 -39 -28.5 -34.5 Q-29 -30 -28 -25 Q-28 -22 -27.5 -19 Q-27 -16 -26 -12 Q-24 2 -20 17 Q-18 25 -16 31.5 Q-14 38 -12 46 Q-1 76 10 102 L10 104 Q13 110 16 116 Q19 122 21 128 L35 158 L29 152 Q14 136 -0.5 120.5 Q-15 105 -29 88 Q-35 80 -43 80 Q-48 80 -50 81 Q-58 83 -57.5 89 Q-57 95 -55 98 Q-49 111 -42 124 Q-40 129 -37.5 133.5 Q-35 138 -33 143 L-21 168 Q14 237 50.5 304 Q87 371 127 437 Q138 457 150.5 476 Q163 495 177 514 Q185 524 192.5 533.5 Q200 543 211 551 Q216 556 222 559 Q228 563 237 564.5 Q246 566 252 561 Q258 556 258 549 Z M248 528 Q250 538 250 542 Q250 547 247 549 Q244 551 240.5 549 Q237 547 235 545 Q228 540 222 533.5 Q216 527 210 521 Q208 519 206.5 516.5 Q205 514 203 511 Q185 490 169 463 Q146 427 126.5 391 Q107 355 87 319 Q124 349 157 388 Q195 430 226 480 Q234 492 239.5 503.5 Q245 515 248 528 Z " />
<glyph glyph-name="l" unicode="l" horiz-adv-x="164" d="M272 572 Q285 563 284 547 Q283 531 278 519 Q272 503 263.5 488.5 Q255 474 245 460 Q227 434 207.5 410 Q188 386 166 363 Q153 350 140 338.5 Q127 327 113 316 Q108 313 104.5 310 Q101 307 97 305 Q96 304 95.5 304 Q95 304 94 303 L93 303 Q91 301 89.5 300.5 Q88 300 86 299 Q84 298 81 297 Q78 296 75 295 Q73 291 72 290 Q69 284 66 278 Q63 272 60 267 Q58 262 56 258 Q54 254 52 249 Q45 235 38.5 222 Q32 209 25 195 Q11 167 -1 140 Q-14 113 -26 84 Q-32 70 -37.5 55 Q-43 40 -47 25 Q-50 15 -49 6 Q-35 14 -16 31 Q3 48 14 59 Q32 76 49.5 93.5 Q67 111 85 128 L113 156 L165 208 Q166 207 167 205 Q168 202 167 199 Q167 196 164 196 Q160 191 156.5 187.5 Q153 184 149 179 L96 126 L8 38 L4 35 Q0 31 -8 23.5 Q-16 16 -25.5 8.5 Q-35 1 -44.5 -5 Q-54 -11 -61 -12 L-66 -12 L-67 -12 Q-68 -11 -71 -11 L-71 -10 L-73 -10 Q-74 -10 -74 -9 L-75 -9 Q-82 -2 -82 7 Q-82 16 -79 27 Q-73 52 -62 79 Q-57 90 -52.5 100.5 Q-48 111 -43 122 Q-40 128 -35 139 Q-30 150 -24.5 161 Q-19 172 -15 181 Q-11 190 -10 191 Q17 245 45.5 298.5 Q74 352 105 406 Q121 434 137.5 460.5 Q154 487 174 513 Q179 520 185 527 Q191 534 197 541 Q198 542 205.5 550 Q213 558 223.5 565 Q234 572 246.5 575.5 Q259 579 271 573 L272 572 Z M268 520 Q274 536 273.5 544.5 Q273 553 270 556.5 Q267 560 263 560 Q259 560 258 560 Q249 558 239 549 Q229 540 219.5 529.5 Q210 519 203 509.5 Q196 500 194 497 Q192 494 189.5 491 Q187 488 185 484 Q128 395 80 304 Q91 309 100 316 Q103 318 106 320.5 Q109 323 113 326 Q132 341 149 358.5 Q166 376 182 395 Q202 417 219.5 439.5 Q237 462 251 487 Q263 505 268 520 Z " />
<glyph glyph-name="m" unicode="m" horiz-adv-x="319" d="M324 204 Q325 202 323 198 Q321 196 318.5 193 Q316 190 314 188 Q310 183 306.5 179.5 Q303 176 299 171 L281 150 L260 126 Q254 119 248.5 113 Q243 107 237 100 Q232 94 226 87.5 Q220 81 215 74 Q211 69 207 65 Q203 61 199 56 Q196 53 193.5 50 Q191 47 188 44 Q183 38 178 32.5 Q173 27 168 21 Q163 16 158.5 10.5 Q154 5 149 0 Q144 -4 139 -5.5 Q134 -7 130 -1 Q128 3 128 7.5 Q128 12 128 17 Q130 31 135.5 43 Q141 55 146 67 Q148 71 149 74.5 Q150 78 152 83 Q154 86 154.5 89 Q155 92 157 95 L165 115 Q174 135 183 155 Q192 175 201 195 L246 288 Q249 291 249 296 Q248 295 247 294.5 Q246 294 244 292 Q229 279 214.5 264.5 Q200 250 186 236 Q158 206 134 174 Q110 142 87 107 L63 71 Q61 69 59.5 66 Q58 63 56 61 Q52 57 48 57 Q39 56 33.5 61.5 Q28 67 28 75 Q29 86 34 97 Q54 142 73.5 186 Q93 230 117 273 Q120 279 123 285 Q126 291 129 296 Q129 297 129.5 298 Q130 299 130 300 Q128 299 127.5 298.5 Q127 298 125 297 Q108 284 93.5 270 Q79 256 65 241 Q26 197 -1 148 Q-3 146 -5 142 Q-8 135 -15 137 Q-23 139 -26 141 Q-32 143 -28 150 Q-25 158 -22 165 Q-19 172 -15 180 Q-1 211 14.5 240 Q30 269 49 297 L58 309 Q62 313 64 313 Q69 315 71.5 312.5 Q74 310 72 305 Q67 290 58 273 Q53 264 48.5 254.5 Q44 245 39 236 Q37 232 37 231 Q40 233 42 236 Q59 255 78 272.5 Q97 290 118 306 Q123 309 127 312 Q131 315 136 317 Q140 320 147 320 Q154 321 158 316.5 Q162 312 160 305 Q158 294 154 287 Q148 273 141 258.5 Q134 244 127 230 Q113 201 100 172 Q87 143 74 114 Q73 113 73 111 Q75 113 75.5 114 Q76 115 78 117 Q98 145 119.5 171.5 Q141 198 164 224 Q198 264 239 299 Q244 303 248.5 306.5 Q253 310 258 314 Q261 316 263.5 317 Q266 318 269 317 Q274 317 277 314 Q280 311 279 306 Q278 301 277 296 Q276 291 274 286 Q267 272 260.5 258 Q254 244 247 230 Q217 168 190 107 Q189 106 189 105 Q187 102 181.5 87.5 Q176 73 168 56 Q159 37 149 12 L322 208 L324 204 Z " />
<glyph glyph-name="n" unicode="n" horiz-adv-x="191" d="M192 208 Q193 207 194 205 Q196 201 194 199 Q192 197 190.5 195.5 Q189 194 187 192 Q184 188 180.5 184.5 Q177 181 173 177 Q168 172 164 167 Q160 162 155 157 Q150 151 144 145 Q138 139 133 133 Q128 127 122 120.5 Q116 114 110 108 Q104 101 98 95 Q92 89 87 82 Q81 76 75.5 70 Q70 64 64 58 Q59 53 54.5 47.5 Q50 42 45 37 Q41 32 37.5 28.5 Q34 25 30 20 Q25 14 19.5 8.5 Q14 3 9 -2 Q5 -5 2 -8.5 Q-1 -12 -5 -14 Q-11 -17 -18 -17 Q-24 -15 -25 -11 Q-27 -6 -25.5 1 Q-24 8 -22 13 Q-18 23 -14 32 Q-10 41 -5 51 Q8 78 22.5 105 Q37 132 51 159 Q65 186 81 213 Q97 240 114 267 Q118 274 122 280.5 Q126 287 130 294 Q131 295 131 295.5 Q131 296 132 297 Q128 295 128 295 Q91 260 57.5 222 Q24 184 -5 142 Q-7 138 -9.5 134.5 Q-12 131 -14 128 Q-18 121 -25 121 Q-34 121 -39 125 Q-45 129 -41 136 L-38 142 L39 280 Q43 287 50 294 Q55 299 62 299 Q71 297 67 289 Q60 275 53 260 Q46 245 39 231 Q38 229 37 226.5 Q36 224 35 221 Q38 224 39 226 Q58 246 77.5 265 Q97 284 117 302 Q123 307 129.5 312 Q136 317 142 322 L157 331 Q165 336 171 331 Q177 327 174 321 Q172 317 170.5 313 Q169 309 167 305 Q156 287 145.5 269 Q135 251 124 232 Q101 193 79 153.5 Q57 114 36 73 Q33 67 27 55.5 Q21 44 16 32 Q9 18 2 3 L192 208 L192 208 Z " />
<glyph glyph-name="o" unicode="o" horiz-adv-x="208" d="M211 206 Q212 205 210 203 Q192 190 169 185 Q146 180 131 178 Q129 174 129 172 Q126 164 117.5 148 Q109 132 94.5 115.5 Q80 99 59 85.5 Q38 72 10 69 Q-6 68 -15 73 Q-24 78 -28.5 85.5 Q-33 93 -34.5 102 Q-36 111 -36 117 Q-34 135 -29 150 Q-28 153 -27 156 Q-26 159 -25 161 Q-17 182 -6 200.5 Q5 219 7 222 Q17 237 28 251 Q39 265 52 277 Q73 297 88.5 302 Q104 307 109 308 L112 308 Q113 308 114 307 Q115 306 115 304 Q115 301 113 301 Q107 299 100 292.5 Q93 286 90 283 Q39 224 12 156 Q7 144 4.5 132.5 Q2 121 2 109 Q0 97 5 86 Q7 82 12 83 Q27 88 40 96 Q55 106 66 117 Q76 128 84 139.5 Q92 151 99 163 Q100 164 101 167 Q102 170 106 178 Q80 182 70 196 Q69 197 68.5 198 Q68 199 67 200 Q58 216 64 235 Q70 254 88 266 Q99 274 109.5 273 Q120 272 128 264 Q137 253 139 237 Q140 217 136 195 Q135 193 135 192 Q135 191 134 189 L134 188 Q134 187 133.5 186 Q133 185 133 184 Q166 187 188 197 Q199 201 209 208 L211 206 Z M121 235 Q122 240 121.5 245.5 Q121 251 118 256 Q117 257 117 257.5 Q117 258 116 259 Q111 264 104 260 Q89 252 83 238 Q81 234 80 230.5 Q79 227 78 223 Q77 214 82 201.5 Q87 189 109 185 Q110 188 111 191.5 Q112 195 113 198 Q114 201 115 204 Q116 207 117 211 Q119 217 120 223 Q121 229 121 235 Z " />
<glyph glyph-name="p" unicode="p" horiz-adv-x="246" d="M247 208 Q248 206 248 203 Q248 197 246 196 Q192 161 150 138 Q108 115 77.5 101.5 Q47 88 28 81.5 Q9 75 1 73 Q-16 63 -26.5 58.5 Q-37 54 -43 52 Q-50 49 -54 50 L-173 -162 Q-177 -168 -181 -173 Q-185 -178 -190.5 -181.5 Q-196 -185 -201 -186 Q-213 -188 -208 -177 Q-204 -168 -200.5 -159 Q-197 -150 -192 -141 Q-186 -130 -180.5 -118.5 Q-175 -107 -169 -96 Q-160 -79 -150.5 -62.5 Q-141 -46 -132 -29 Q-124 -15 -117 -1 Q-110 13 -102 27 Q-89 50 -77 72.5 Q-65 95 -52 118 Q-45 130 -38.5 142.5 Q-32 155 -24 167 L9 226 Q10 227 10 227.5 Q10 228 11 229 Q17 239 22.5 248.5 Q28 258 34 267 L36 271 L37 272 L57 305 Q58 307 61 309 Q65 312 72 310 L73 309 Q77 307 74 301 L62 274 Q61 273 61 272 L18 186 Q21 189 22 191 Q34 208 47.5 224 Q61 240 78 255 Q109 284 146 293 Q154 295 161 295 Q168 295 174 293 Q198 286 193 257 Q191 246 185.5 236.5 Q180 227 173 217 Q160 200 145.5 184.5 Q131 169 115 155 Q81 126 47 103 Q41 98 35.5 95 Q30 92 25 88 Q72 106 112.5 127 Q153 148 183 166 Q218 187 247 208 Z M-18 76 Q-8 83 2 89 Q12 95 22 102 Q55 128 84.5 156 Q114 184 140 215 Q147 223 153 231.5 Q159 240 164 249 Q167 257 169.5 264 Q172 271 171 278 Q171 287 160 287 Q150 287 135 282 Q110 273 87 253 Q57 226 33 193 Q19 174 6 154.5 Q-7 135 -19 115 Q-27 103 -33 91 Q-39 79 -46 66 Q-43 67 -39 69 Q-35 71 -30.5 72 Q-26 73 -20 75 Q-19 75 -18 76 Z " />
<glyph glyph-name="q" unicode="q" horiz-adv-x="210" d="M211 208 Q212 207 213.5 205.5 Q215 204 213 202 L209 198 Q206 195 203 192 Q200 189 197 185 Q105 84 26 -25 Q8 -51 -9.5 -76 Q-27 -101 -45 -127 Q-50 -132 -53 -138 Q-59 -145 -66 -144 Q-68 -144 -69 -143.5 Q-70 -143 -72 -143 Q-79 -140 -76 -132 Q-73 -123 -69.5 -113 Q-66 -103 -62 -94 Q-32 -25 1.5 41.5 Q35 108 73 174 Q75 178 75 179 L71 175 Q66 170 60.5 164 Q55 158 49 153 Q44 149 40 146 Q36 143 31 140 Q21 134 7 137 Q5 137 -1 139 Q-16 146 -16 163 L-16 168 L-16 169 Q-16 170 -15.5 170.5 Q-15 171 -15 172 Q-13 185 -7 197 Q-1 209 3 217 Q13 233 24.5 247 Q36 261 50 272 Q66 285 82 289 Q105 294 122 284 Q129 279 129 273 Q130 269 126 266 Q122 263 118 265 Q117 266 116.5 267 Q116 268 115 269 Q114 270 114 271 Q114 272 113 274 Q111 277 107 277 Q94 279 83 269 Q71 260 64 252 Q33 220 20 181 Q18 175 17 169.5 Q16 164 16 158 L22 161 Q53 180 77 205 Q89 217 100.5 229.5 Q112 242 123 254 Q125 256 125.5 257.5 Q126 259 128 261 Q130 265 133 268.5 Q136 272 138 276 Q143 283 152 280 Q161 277 158 268 Q156 260 152 254 Q144 237 135 221.5 Q126 206 116 190 Q50 79 -7 -38 Q-13 -49 -18 -60 Q-20 -63 -19 -64 Q-17 -62 -17 -61 Q21 -11 60 36.5 Q99 84 141 132 Q149 142 158 151.5 Q167 161 176 171 L211 208 L211 208 Z " />
<glyph glyph-name="r" unicode="r" horiz-adv-x="213" d="M214 208 Q215 206 215 204 Q215 199 214 198 L120 58 Q118 54 115 50.5 Q112 47 110 43 Q100 29 86.5 9 Q73 -11 57.5 -31 Q42 -51 26 -70 Q10 -89 -4 -101 Q-9 -106 -15.5 -109.5 Q-22 -113 -30 -115 Q-38 -117 -44.5 -112 Q-51 -107 -52 -98 Q-53 -92 -52 -85 Q-51 -72 -48 -59.5 Q-45 -47 -40 -35 Q-28 0 -12 34 Q4 68 23 101 Q31 117 39 129 L39 131 Q54 156 68.5 180 Q83 204 99 229 Q103 235 106 240 Q109 245 111 249 Q114 253 116 257 L104 245 Q92 234 80 224 Q68 214 54 205 Q50 203 46.5 201 Q43 199 39 197 Q30 193 19 193 Q11 195 6.5 198.5 Q2 202 0 205 Q-1 205 -1 206 Q-8 217 -3 233 Q2 253 13 269 Q24 285 40 299 Q49 308 62 311 Q67 312 75 310 Q88 306 85 290 Q83 286 81.5 282 Q80 278 78 274 Q67 252 50 238 Q45 232 38 229 Q32 225 29 230 Q31 231 32 232 Q33 233 35 234 Q48 246 58 259.5 Q68 273 73 290 Q75 294 75 298 Q75 299 74.5 299.5 Q74 300 74 301 Q72 302 71 301 Q69 300 67 299 Q65 298 63 296 Q61 294 57 288 Q52 280 47 272.5 Q42 265 37 257 Q29 242 22 223 Q21 221 21 220 Q21 219 20 217 Q20 216 19.5 212 Q19 208 21 205 Q27 205 29 206 Q39 209 45 213 Q53 218 61.5 224 Q70 230 78 236 Q89 244 99 252.5 Q109 261 119 269 Q124 273 131.5 277 Q139 281 145 278 Q147 278 147 277 L148 277 Q149 276 149.5 275 Q150 274 151 273 Q153 269 152.5 265.5 Q152 262 151 259 Q148 250 144 242 Q137 231 130.5 220.5 Q124 210 117 199 Q106 182 95 164.5 Q84 147 73 129 Q52 94 33.5 59 Q15 24 -1 -12 Q-8 -29 -13.5 -44.5 Q-19 -60 -23 -77 Q-24 -82 -25 -87.5 Q-26 -93 -25 -99 Q-19 -95 -17 -93 Q-8 -85 0.5 -76 Q9 -67 17 -58 Q19 -55 24 -50 Q25 -49 34.5 -37 Q44 -25 57.5 -7 Q71 11 86.5 31 Q102 51 114 69 Q123 82 131.5 94.5 Q140 107 149 119 Q161 138 174 156 Q187 174 201 192 L214 208 L214 208 Z " />
<glyph glyph-name="s" unicode="s" horiz-adv-x="152" d="M54 167 Q72 178 97 188.5 Q122 199 154 208 L154 205 Q154 202 152 202 Q141 199 114 189.5 Q87 180 55 161 L55 159 Q56 154 55.5 138 Q55 122 44 99 Q44 98 43.5 97.5 Q43 97 43 95 Q28 64 8.5 36.5 Q-11 9 -37 -15 Q-45 -22 -52.5 -27.5 Q-60 -33 -69 -38 Q-74 -40 -79.5 -42 Q-85 -44 -90 -45 Q-100 -45 -104 -42 Q-109 -39 -110 -34.5 Q-111 -30 -111 -25 Q-111 -19 -110 -13.5 Q-109 -8 -107 -3 Q-105 0 -104.5 3 Q-104 6 -102 9 Q-89 34 -73 56 Q-57 78 -37 98 L-29 106 Q-21 114 -11.5 122.5 Q-2 131 8 139 L19 147 L19 150 Q20 153 20 160 Q19 166 17.5 172.5 Q16 179 13 184 L1 205 Q-2 210 -4.5 216 Q-7 222 -9 228 Q-11 236 -9 242.5 Q-7 249 -4 255 Q11 284 36 303 Q43 308 50 311 Q60 315 71 311 Q78 307 81 302 Q83 296 80 287 Q77 280 71 274 Q62 265 51 264 Q42 262 39 268 Q42 268 43 269 Q53 270 61 278 Q64 283 66.5 288 Q69 293 69 298 Q69 307 61 302 Q55 298 52 295 Q31 273 22 245 Q17 230 24 219 Q26 214 29 210.5 Q32 207 35 203 Q38 198 41 194 Q44 190 46 185 Q48 183 48.5 180.5 Q49 178 51 176 Q51 175 52.5 171.5 Q54 168 54 167 Z M10 110 Q12 115 13 119 Q14 123 15 127 Q16 131 17 136 L14 133 Q11 132 7 128 Q5 126 2.5 124.5 Q0 123 -3 121 Q-6 118 -9 115.5 Q-12 113 -14 110 Q-18 107 -21 104 Q-24 101 -28 98 Q-32 94 -35 90.5 Q-38 87 -42 83 Q-50 75 -56 66 Q-60 61 -63.5 57 Q-67 53 -70 48 Q-74 43 -77 38 Q-80 33 -83 28 Q-84 27 -84 26.5 Q-84 26 -85 25 Q-90 17 -94 8 Q-98 -1 -101 -10 Q-102 -14 -103 -17.5 Q-104 -21 -104 -25 Q-104 -27 -103.5 -30 Q-103 -33 -99 -34 Q-97 -34 -94.5 -33 Q-92 -32 -90 -31 Q-89 -30 -88 -29.5 Q-87 -29 -85 -27 L-70 -15 Q-62 -7 -54.5 2.5 Q-47 12 -39 22 Q-24 42 -11 64 Q2 86 10 110 Z " />
<glyph glyph-name="t" unicode="t" horiz-adv-x="151" d="M356 421 Q361 421 361 418 L361 416 L323 414 Q317 413 311.5 413 Q306 413 301 412 L235 406 Q223 405 210.5 404 Q198 403 186 401 Q176 400 166.5 399.5 Q157 399 148 398 Q142 397 138.5 394.5 Q135 392 132 387 Q127 378 122 369 Q117 360 112 352 Q89 310 67 268.5 Q45 227 25 185 Q12 159 0.5 134 Q-11 109 -22 83 Q-27 72 -31 60.5 Q-35 49 -39 37 Q-44 25 -45 12 L41 97 L152 208 Q153 207 153 205 Q153 200 151 198 L144 190 Q144 190 143 189 Q141 187 139 185 Q137 183 135 181 L121 167 Q116 162 112 157.5 Q108 153 103 148 L81 126 Q75 120 69.5 114 Q64 108 58 102 Q52 96 46.5 90 Q41 84 35 78 L14 57 Q9 52 5 47.5 Q1 43 -4 38 Q-7 35 -10 31.5 Q-13 28 -17 25 Q-21 20 -25 15.5 Q-29 11 -34 7 Q-38 5 -42 2.5 Q-46 0 -51 1 Q-62 3 -66 13.5 Q-70 24 -70 33 Q-68 52 -61 74 Q-54 96 -51 103 Q-46 117 -40 129.5 Q-34 142 -28 155 Q-25 160 -21 169 Q-17 178 -12.5 187 Q-8 196 -4 203.5 Q0 211 1 213 Q24 257 48 300 Q72 343 98 386 Q100 390 102 393 Q98 392 93 392 Q78 390 62.5 388.5 Q47 387 32 385 Q16 383 0.5 381 Q-15 379 -31 377 Q-43 376 -54.5 375 Q-66 374 -77 373 Q-94 371 -110.5 369.5 Q-127 368 -144 366 Q-155 365 -165.5 364.5 Q-176 364 -187 363 Q-192 363 -191 366 Q-116 377 -42 385 Q32 393 107 401 Q111 408 115 414.5 Q119 421 123 428 Q141 456 162 485 Q166 490 170.5 495.5 Q175 501 180 506 Q188 516 197 521 Q207 527 215 522 Q220 518 219 512 Q219 503 212 493 Q207 482 200.5 472 Q194 462 186 451 Q178 440 169.5 430 Q161 420 153 409 Q153 408 151 406 Q156 406 161 406.5 Q166 407 171 407 Q181 409 191 409.5 Q201 410 211 411 L271 417 Q280 418 289 418.5 Q298 419 307 419 Q318 420 328 420.5 Q338 421 349 421 Q351 421 351.5 421.5 Q352 422 354 421 L356 421 Z M208 509 Q205 506 196.5 493.5 Q188 481 178.5 466 Q169 451 160.5 437.5 Q152 424 150 418 L152 420 Q157 426 161 431.5 Q165 437 170 442 Q189 467 203 493 Q205 497 206.5 500.5 Q208 504 208 509 Z " />
<glyph glyph-name="u" unicode="u" horiz-adv-x="195" d="M196 208 Q197 207 198 205 Q200 201 196 196 Q194 194 194 194 Q192 191 189.5 188.5 Q187 186 185 183 L170 165 Q165 159 160.5 153 Q156 147 151 141 Q145 135 139.5 128.5 Q134 122 129 115 Q124 108 118 101.5 Q112 95 107 88 L106 88 Q106 87 105 86 Q98 78 92 70 Q86 62 79 54 Q67 39 53 25 Q50 21 44 16 Q38 11 32 13 Q22 16 22 27 Q20 41 25 54.5 Q30 68 35 80 Q38 88 41 94.5 Q44 101 47 109 Q65 149 86 190 L97 209 L90 202 Q87 199 84.5 196 Q82 193 81 192 Q70 181 54 165.5 Q38 150 23 139 Q3 126 -4 131.5 Q-11 137 -13 142 Q-14 144 -14 149 Q-15 153 -14.5 157 Q-14 161 -13 166 Q-11 176 -7.5 187.5 Q-4 199 -0.5 208.5 Q3 218 6 224.5 Q9 231 9 232 Q25 266 48 302 Q52 308 58 316 Q64 322 69 319 Q74 316 71 309 Q63 294 56 278.5 Q49 263 42 247 Q23 209 13 173 Q13 171 12 166 Q11 161 10.5 156 Q10 151 11 147.5 Q12 144 15 146 Q26 152 34.5 159.5 Q43 167 51 175 Q62 185 71.5 195.5 Q81 206 90 217 Q99 228 107.5 237.5 Q116 247 124 258 Q127 262 129.5 266 Q132 270 135 274 Q140 282 145.5 290 Q151 298 156 306 Q158 308 158 309 Q163 314 168 313 Q174 310 171 303 Q169 299 167.5 295.5 Q166 292 164 288 Q147 259 130.5 229 Q114 199 99 169 Q87 144 76 119.5 Q65 95 55 70 L46 46 Q44 41 43 35 Q42 29 40 24 L196 208 L196 208 Z " />
<glyph glyph-name="v" unicode="v" horiz-adv-x="178" d="M211 381 Q210 376 207.5 372 Q205 368 202 364 Q199 359 195.5 354 Q192 349 189 344 Q181 333 173.5 321.5 Q166 310 158 299 Q148 284 138 269 Q128 254 117 239 Q102 217 86.5 195 Q71 173 55 152 Q36 126 16.5 101.5 Q-3 77 -26 55 Q-34 46 -45 40 Q-54 36 -57 45 Q-60 54 -56 68 Q-50 94 -40.5 118 Q-31 142 -20 166 Q-9 190 2 213.5 Q13 237 24 260 Q29 269 34.5 278.5 Q40 288 46 297 Q48 301 52 302 Q56 304 60 301 Q62 299 60 291 Q39 234 12.5 179.5 Q-14 125 -30 66 Q-20 75 -11 85 Q8 106 26 131 Q61 178 95.5 226 Q130 274 164 324 Q174 338 183 352.5 Q192 367 203 381 Q205 386 208 386 Q213 386 211 381 Z " />
<glyph glyph-name="w" unicode="w" horiz-adv-x="263" d="M288 349 Q292 349 291 345 Q290 341 287.5 337 Q285 333 283 329 Q279 324 276 319.5 Q273 315 269 310 Q262 299 254.5 288 Q247 277 239 266 Q229 252 219.5 238 Q210 224 200 210 Q184 188 169 167 Q154 146 138 125 Q130 114 121.5 103.5 Q113 93 105 82 Q95 70 85 58 Q75 46 64 35 Q55 27 41.5 18 Q28 9 16 16 Q9 20 9 29 Q9 37 11.5 45.5 Q14 54 17 63 Q28 93 43.5 123.5 Q59 154 77 184 Q93 212 109 236 Q109 237 109.5 237 Q110 237 110 238 L113 243 L108 237 Q103 233 99 229 Q95 225 91 221 L58 191 Q49 183 39.5 174.5 Q30 166 21 158 Q16 154 11.5 150.5 Q7 147 2 143 Q-4 138 -13 135.5 Q-22 133 -26 141 Q-28 144 -28 152 Q-26 158 -23.5 164 Q-21 170 -19 176 Q-15 184 -11 192 Q-7 200 -3 208 Q2 217 7 225.5 Q12 234 17 242 L35 272 Q38 277 41 281.5 Q44 286 48 291 Q49 292 50 294 Q51 296 54 299 L54 300 L55 300 Q60 305 67 304 Q77 304 74 295 Q72 288 68 281 Q60 267 52.5 253 Q45 239 37 225 L1 156 Q0 155 -2 151 Q5 155 9 159 Q34 179 57 200 Q80 221 102 243 L105 246 Q110 252 116 258 Q122 264 127 269 L139 281 Q143 287 150 287 Q154 287 154 283.5 Q154 280 152 276 Q150 272 148 267.5 Q146 263 145 262 L130 238 Q112 208 95 178 Q78 148 64 118 Q49 89 41 65 Q39 58 37 51.5 Q35 45 35 38 Q35 36 35.5 32.5 Q36 29 39 29 Q40 30 42 30 Q47 32 51 36 Q55 40 59 43 Q63 47 66.5 50.5 Q70 54 73 59 Q82 70 91.5 81 Q101 92 109 103 Q144 149 177.5 195 Q211 241 245 289 Q255 303 264 316.5 Q273 330 283 344 Q285 349 288 349 Z " />
<glyph glyph-name="x" unicode="x" horiz-adv-x="157" d="M159 201 Q157 199 153 195.5 Q149 192 146 190 Q142 187 139 184 Q136 181 132 178 Q128 174 124.5 170.5 Q121 167 116 163 Q111 159 107.5 155.5 Q104 152 99 148 Q94 143 90 139.5 Q86 136 81 132 Q76 127 72 123.5 Q68 120 63 116 Q59 112 55.5 109 Q52 106 47 102 Q44 99 40.5 96 Q37 93 34 90 Q31 88 28.5 85 Q26 82 23 80 Q15 74 11 73 Q3 70 -5 75 Q-7 76 -9 80 L-10 80 Q-12 84 -13 87 Q-15 92 -15 98 Q-15 104 -15 111 L-15 135 Q-15 135 -17 133 Q-35 110 -52.5 87.5 Q-70 65 -86 42 Q-91 36 -94 29.5 Q-97 23 -101 17 Q-103 13 -105 13 Q-109 13 -107 18 Q-104 30 -97 39 Q-81 63 -62 89 Q-51 105 -39 120.5 Q-27 136 -15 152 Q-12 154 -10 160 Q-7 178 -3.5 196 Q0 214 4 232 Q8 249 10.5 264.5 Q13 280 14 296 Q14 301 14.5 305.5 Q15 310 13 315 Q8 313 6 311 Q5 311 3 309 Q1 308 -3 310 Q-4 311 -2 315 Q8 328 21 322 Q27 319 30 311 Q32 304 33 297.5 Q34 291 35 283 Q35 268 34 253.5 Q33 239 31 224 Q29 216 28 206 L32 210 Q54 239 78 265 Q102 291 128 316 Q134 322 138 325 Q145 330 153 324 L149 320 Q123 291 96.5 262.5 Q70 234 44 205 Q39 200 35.5 195.5 Q32 191 27 186 Q22 181 21.5 173.5 Q21 166 20 160 Q15 137 14 117 L14 98 Q14 96 15.5 90.5 Q17 85 15 84 L158 208 Q158 206 159 205 Q159 201 159 201 Z " />
<glyph glyph-name="y" unicode="y" horiz-adv-x="184" d="M187 204 Q187 202 186.5 200 Q186 198 184 197 L64 129 Q50 104 37.5 80.5 Q25 57 13 35 Q11 31 8.5 27 Q6 23 4 19 L1 13 Q-15 -14 -31 -34 Q-47 -54 -59.5 -68 Q-72 -82 -81 -90 Q-90 -98 -92 -100 Q-107 -111 -122 -121 Q-137 -131 -151 -136 Q-162 -140 -170 -140.5 Q-178 -141 -183 -139.5 Q-188 -138 -191 -136 Q-194 -134 -195 -132 Q-199 -128 -199 -119 Q-200 -110 -198 -101.5 Q-196 -93 -192 -84 Q-183 -60 -167.5 -39 Q-152 -18 -132 1 Q-95 37 -48 68 Q-29 81 -10 93.5 Q9 106 29 120 Q34 124 36 126 Q50 152 63.5 176.5 Q77 201 91 226 L103 247 L112 264 Q96 247 81 232 Q68 219 53 206.5 Q38 194 26 186 Q13 178 7.5 180 Q2 182 0 184 Q-3 187 -3 192 Q-4 198 -1.5 205.5 Q1 213 3 221 Q6 230 9 239 Q17 257 27 275 Q37 293 50 310 Q52 312 53.5 313.5 Q55 315 57 317 Q65 325 71 319 Q73 315 70 312 Q67 305 63.5 298.5 Q60 292 57 285 Q51 272 44.5 259.5 Q38 247 32 233 Q28 225 25.5 216 Q23 207 22 198 Q22 195 21 192 Q32 197 41 205 Q67 226 87 249 Q96 258 104.5 267.5 Q113 277 121 288 Q122 290 125 292 Q128 295 134 295 Q139 294 142 292 Q144 290 145 286.5 Q146 283 142 276 Q140 273 134 261 Q128 249 118 231 Q108 213 96 190 Q84 167 71 143 L187 208 L187 204 Z M12 83 Q17 94 25 106 Q20 104 13 99.5 Q6 95 4 94 Q-4 87 -15 81 Q-37 66 -58 50.5 Q-79 35 -99 18 Q-116 3 -132 -13.5 Q-148 -30 -161 -49 Q-178 -76 -184 -101 Q-187 -111 -185 -121 Q-182 -139 -162 -131 Q-151 -126 -143 -121 Q-123 -108 -105 -90 Q-87 -73 -72.5 -54.5 Q-58 -36 -45 -16 Q-29 8 -15.5 32.5 Q-2 57 12 83 Z " />
<glyph glyph-name="z" unicode="z" horiz-adv-x="202" d="M204 204 Q204 200 202 200 Q197 197 184.5 191 Q172 185 155 176.5 Q138 168 117.5 156.5 Q97 145 77 132 Q71 117 63 100 Q55 83 46 66 Q34 42 17 16 Q14 11 10.5 5.5 Q7 0 3 -5 Q-1 -11 -5 -17.5 Q-9 -24 -14 -29 Q-28 -48 -43 -64.5 Q-58 -81 -74 -95 Q-99 -117 -123 -129 Q-138 -137 -150 -135 Q-157 -134 -162 -127 Q-170 -116 -162 -92 Q-156 -77 -147 -61 Q-137 -44 -126.5 -30.5 Q-116 -17 -105 -4 Q-90 13 -75 26.5 Q-60 40 -45 53 Q-26 69 -8 82 Q10 95 28 109 L37 115 Q45 134 51.5 148.5 Q58 163 61 171 Q65 177 63 183 Q61 187 55.5 185.5 Q50 184 48 182 Q31 174 15 164 Q12 162 9 160 Q6 158 2 156 Q-1 155 -2 156 L-2 157 Q-4 159 -4 163 L-4 167 L128 304 Q113 296 99 285.5 Q85 275 72 264 Q54 249 37 232 Q19 216 3 198 Q0 194 -3 197.5 Q-6 201 -3 205 Q5 215 14 223.5 Q23 232 32 241 Q41 249 49.5 257 Q58 265 68 273 Q82 286 98 297 Q114 308 131 316 Q133 317 137 318.5 Q141 320 144.5 320 Q148 320 150.5 317.5 Q153 315 153 309 Q152 308 152 304 Q151 299 147 295 Q145 293 144 291 L46 189 Q52 192 58 194 Q70 197 79 195 Q85 193 88 186.5 Q91 180 88 166 Q86 161 85 156.5 Q84 152 82 146 Q101 157 131.5 174 Q162 191 204 208 L204 204 Z M-147 -116 Q-122 -107 -97 -83.5 Q-72 -60 -49 -30 Q-26 0 -6.5 33.5 Q13 67 28 97 Q14 87 1.5 77.5 Q-11 68 -25 58 Q-39 47 -51.5 36 Q-64 25 -78 12 Q-93 -3 -107 -20.5 Q-121 -38 -135 -60 Q-139 -67 -142.5 -73.5 Q-146 -80 -149 -88 Q-151 -93 -152 -97 Q-153 -101 -154 -106 Q-155 -110 -154 -114 Q-153 -118 -147 -116 Z " />
<glyph glyph-name="zero" unicode="0" horiz-adv-x="178" d="M150 315 Q156 312 163.5 297.5 Q171 283 162 244 Q156 221 140.5 188 Q125 155 101.5 122.5 Q78 90 49 62.5 Q20 35 -13 22 Q-38 12 -48 17.5 Q-58 23 -60 29 Q-62 34 -63 38.5 Q-64 43 -64 48 Q-64 65 -58 83 Q-40 137 -5 191 Q12 217 31 240.5 Q50 264 72 286 Q85 299 99 310 Q111 318 120 321 Q127 322 130 316 Q130 315 129 315 Q112 301 97.5 285 Q83 269 69 252 Q47 226 28 198 Q9 170 -7 141 Q-25 108 -34 75 Q-36 65 -37.5 56 Q-39 47 -37 39 Q-35 30 -31.5 28 Q-28 26 -18 28 Q-13 30 -7.5 32.5 Q-2 35 4 39 Q27 53 51 78 Q106 136 139 205 Q154 236 157 267 Q158 276 157 285 Q156 297 151.5 302 Q147 307 145 308 L144 309 Q143 309 141 307 Q138 305 136 307 Q134 309 135 312 Q137 317 141 317 Q145 317 150 315 Z " />
<glyph glyph-name="one" unicode="1" horiz-adv-x="86" d="M87 332 Q89 332 91.5 331.5 Q94 331 96 326 Q97 322 94 314 Q89 302 83.5 290.5 Q78 279 72 268 Q46 220 19.5 172 Q-7 124 -35 76 Q-43 61 -52 46.5 Q-61 32 -70 18 Q-72 15 -74.5 12 Q-77 9 -79 7 Q-79 6 -79.5 6 Q-80 6 -80 5 Q-86 3 -91 6 Q-94 8 -93 13 Q-91 21 -88 27.5 Q-85 34 -81 41 Q-58 83 -34.5 124.5 Q-11 166 12 208 Q25 231 38 254.5 Q51 278 64 301 Q65 302 65 302.5 Q65 303 66 304 L73 318 L52 305 Q51 305 51 307 Q51 309 54 311 Q56 313 57 313.5 Q58 314 59 316 Q62 318 70.5 324 Q79 330 87 332 Z " />
<glyph glyph-name="two" unicode="2" horiz-adv-x="140" d="M123 286 Q126 268 119 250 Q114 234 105.5 220 Q97 206 88 192 Q52 143 9 104 Q-3 93 -16 82 Q-29 71 -42 60 L-45 57 Q-47 56 -50 53 L-62 42 L37 56 Q37 51 33 49 Q31 47 29 46.5 Q27 46 25 45 L22 45 L-74 30 L-75 30 Q-84 30 -89 41 Q-92 48 -84 54 Q-73 63 -63 71.5 Q-53 80 -43 89 Q12 138 60 198 Q82 224 96 253 Q99 260 101.5 266.5 Q104 273 106 281 Q108 290 106 295 L106 296 Q103 303 94 301 Q85 299 80 297 Q65 290 51 276 Q50 275 49.5 274 Q49 273 48 272 L48 275 Q48 280 53 285 Q59 291 63 294 Q69 298 73 300 Q75 302 76 302 Q81 305 86 307 Q94 311 106 311 Q114 310 119 301 Q123 294 123 286 Z " />
<glyph glyph-name="three" unicode="3" horiz-adv-x="160" d="M106 312 Q120 321 127.5 321.5 Q135 322 138 319 Q141 316 141 312 Q141 308 141 308 Q140 306 139.5 303 Q139 300 137 298 L125 280 Q118 272 111.5 264 Q105 256 98 248 Q96 246 95.5 244.5 Q95 243 93 241 Q95 239 95 239 Q131 210 116 152 Q95 74 22 22 Q-5 2 -33 4 Q-56 7 -64 25 Q-75 50 -69 81 Q-67 92 -62 103 Q-52 121 -34 131 Q-31 134 -28 132 Q-24 129 -30 125 Q-43 115 -50 103 Q-57 91 -59 77 Q-63 54 -55 33 Q-50 20 -31 23 Q-24 24 -17.5 27 Q-11 30 -3 35 Q33 57 60 92 Q86 123 99 159 Q105 175 105 190 Q105 198 102 206 Q100 209 97 213.5 Q94 218 86 222 Q84 224 83 224 Q82 224 81 225 Q77 227 73.5 228 Q70 229 65 231 Q61 234 61 240 Q63 244 63 244 L92 273 L101 282 Q106 287 109.5 292 Q113 297 118 302 Q122 308 125 310 Q118 310 108 304 Q98 298 96 296 Q87 290 79 282 Q77 281 76.5 280 Q76 279 75 278 Q70 273 69.5 271 Q69 269 67 263 Q64 263 63 264 Q61 271 69 282 Q77 293 106 312 Z " />
<glyph glyph-name="four" unicode="4" horiz-adv-x="163" d="M179 321 Q183 317 182 314 L182 312 Q182 311 181.5 311 Q181 311 181 310 L181 309 L162 276 Q161 273 157 267 Q149 253 142 240.5 Q135 228 127 214 Q119 200 111.5 186.5 Q104 173 96 159 Q88 145 80.5 131.5 Q73 118 65 104 L38 56 Q33 47 28.5 38.5 Q24 30 19 21 Q17 18 15 15 Q13 12 11 8 Q11 8 10 7 L6 1 Q2 -5 -1 -1 Q-3 1 -3 4 Q-3 11 0 19 Q7 31 13 43.5 Q19 56 25 69 Q39 92 51.5 116 Q64 140 77 163 L91 189 Q81 187 71 186 Q61 185 51 183 L21 180 Q13 179 6 179.5 Q-1 180 -6 186 Q-6 186 -8 190 Q-10 197 -5.5 203 Q-1 209 1 211 L111 325 Q118 330 123 325 Q125 323 125 322 L12 189 L43 192 Q52 192 61 192.5 Q70 193 79 194 L95 196 Q98 201 101 206 Q104 211 106 216 Q118 237 130 258.5 Q142 280 156 300 Q161 309 170 318 Q174 323 179 321 Z " />
<glyph glyph-name="five" unicode="5" horiz-adv-x="140" d="M127 320 Q128 320 128 318 Q128 318 128 314 L82 307 L34 221 Q32 219 32 217 Q31 216 31 215.5 Q31 215 30 214 Q33 214 35 215 Q43 217 50.5 219 Q58 221 65 221 Q78 221 85 212 Q92 203 91 188 Q91 182 89 172 Q84 145 69.5 120 Q55 95 37 74 Q22 57 3.5 43.5 Q-15 30 -37 22 Q-48 19 -58 18 Q-68 17 -78 19 Q-88 21 -92 29 Q-97 38 -86 49 Q-83 52 -80 51 Q-76 48 -79 43 Q-81 40 -82 37.5 Q-83 35 -83 32 Q-69 27 -54.5 32.5 Q-40 38 -28 45 Q-10 56 5 71 Q20 86 33 103 Q60 136 74 177 Q76 182 77 187 Q78 192 78 197 Q78 207 71 208 Q63 210 55 207 Q32 201 12 184 Q4 176 -1 181 Q-3 183 -7 189 Q-8 191 -8 195 L56 311 L127 320 L127 320 Z " />
<glyph glyph-name="six" unicode="6" horiz-adv-x="115" d="M110 316 Q114 319 117 318 Q120 317 120 313 Q120 310 118 308 Q116 305 114.5 303 Q113 301 111 299 Q91 275 71.5 250 Q52 225 35 199 Q25 185 16 170 Q7 155 -2 141 Q-2 140 -2.5 140 Q-3 140 -3 139 L-8 130 Q6 139 18 143 Q28 147 37.5 147.5 Q47 148 51 139 Q54 131 46 113.5 Q38 96 24 77 Q10 58 -8.5 41.5 Q-27 25 -44 19 Q-56 15 -61.5 18.5 Q-67 22 -69 25 Q-72 33 -71 41 Q-71 51 -66 64 Q-60 82 -51.5 99.5 Q-43 117 -32 134 Q-14 163 5 191.5 Q24 220 46 248 Q59 264 72.5 279.5 Q86 295 101 309 Q103 311 105.5 312.5 Q108 314 110 316 Z M-5 124 Q-11 119 -16 114 Q-21 109 -24 101 Q-24 101 -25 100 Q-31 87 -36.5 74.5 Q-42 62 -46 50 Q-47 46 -48 42 Q-49 38 -49 34 Q-49 29 -42.5 31 Q-36 33 -34 35 Q-29 37 -25 40 Q-21 43 -16 46 Q12 70 33 105 L33 106 Q36 112 38.5 118 Q41 124 43 131 Q43 133 42.5 135.5 Q42 138 39 140 L38 140 L37 140 L30 140 Q26 139 20 137 Q13 135 7 131.5 Q1 128 -5 124 Z " />
<glyph glyph-name="seven" unicode="7" horiz-adv-x="145" d="M160 314 Q162 308 159.5 302.5 Q157 297 155 292 Q154 290 151 287 L151 286 Q149 284 148 284 L118 247 Q110 236 101.5 226 Q93 216 84 206 Q78 198 72 191 Q66 184 60 177 L47 161 L50 161 Q58 161 65.5 161.5 Q73 162 81 163 Q83 163 85.5 162.5 Q88 162 91 162 Q93 162 95 159 L41 154 Q18 126 -4 97.5 Q-26 69 -49 40 L-80 -1 Q-82 -3 -85 -4 Q-91 -6 -96 -1 Q-95 1 -94 2.5 Q-93 4 -92 6 L13 151 L-33 147 Q-33 149 -30 151 Q-28 152 -26.5 152 Q-25 152 -23 153 Q-15 154 -6.5 155 Q2 156 10 157 Q15 157 20 163 Q35 184 51 204 Q67 224 83 244 L144 315 L48 302 L48 303 Q48 306 50 308 L52 308 Q57 309 61 309.5 Q65 310 69 311 Q77 312 83.5 313 Q90 314 98 316 Q105 317 112 318 Q119 319 127 321 Q131 321 139 323 L141 323 L143 323 Q146 324 151 323.5 Q156 323 158 319 Q158 319 160 315 L160 314 L160 314 Z " />
<glyph glyph-name="eight" unicode="8" horiz-adv-x="146" d="M162 303 Q163 290 155 273 Q147 256 135 238.5 Q123 221 110 205.5 Q97 190 88 180 Q71 163 55.5 146.5 Q40 130 23 113 Q18 107 12.5 101.5 Q7 96 2 91 Q1 86 1.5 82 Q2 78 1 73 Q1 66 0 59 Q-1 52 -4 45 Q-8 29 -23 19 Q-54 -1 -82 -4 L-89 -4 Q-100 -2 -104.5 4 Q-109 10 -111 15 Q-113 24 -110 33 Q-107 42 -103 48 Q-102 50 -101 52 Q-100 54 -99 56 Q-88 73 -75 88.5 Q-62 104 -47 117 Q-42 120 -38.5 123 Q-35 126 -31 129 Q-22 134 -16 133 L-16 139 Q-14 148 -14 157 Q-14 166 -12 175 Q-10 188 -4.5 200.5 Q1 213 9 226 Q20 246 34 263.5 Q48 281 65 296 Q89 317 114 326 Q135 334 147.5 325.5 Q160 317 162 303 Z M-15 68 Q-13 82 -14 95 Q-15 108 -16 122 L-16 128 Q-23 126 -33 120 Q-41 115 -53 104 Q-65 93 -80 74 Q-82 70 -84.5 67 Q-87 64 -89 61 Q-92 56 -94.5 51 Q-97 46 -99 41 Q-101 36 -103 26 Q-103 23 -102.5 20.5 Q-102 18 -101 15 Q-99 10 -96 9 Q-92 6 -82 6 Q-77 7 -73 7.5 Q-69 8 -65 10 Q-50 15 -38 23 Q-23 32 -18 49 Q-15 58 -15 68 Z M1 98 Q47 145 81 185 Q96 202 109.5 219.5 Q123 237 132.5 252.5 Q142 268 146.5 280 Q151 292 148 299 Q146 304 141 305 Q136 306 132 305 Q130 305 128 304 Q111 299 94 287 Q54 257 24 210 Q12 192 6 172 Q3 162 2 153 Q1 144 0 136 Q-1 121 0 108 L1 98 Z " />
<glyph glyph-name="nine" unicode="9" horiz-adv-x="165" d="M164 318 Q170 314 167 303 Q163 293 158.5 283 Q154 273 149 263 Q134 234 118.5 205.5 Q103 177 86 149 Q81 141 75.5 132.5 Q70 124 64 116 Q40 82 22.5 66 Q5 50 2 48 Q-2 45 -5.5 42.5 Q-9 40 -14 37 Q-22 32 -31.5 28 Q-41 24 -52 24 Q-63 25 -69 32 Q-75 39 -75 50 L-75 57 Q-74 67 -69.5 75.5 Q-65 84 -57 92 Q-52 97 -44 102 L-44 99 Q-53 90 -63 75 Q-73 60 -66 46 Q-64 43 -59.5 40.5 Q-55 38 -47 42 Q-43 43 -39 46 L-37 48 Q-16 61 2 85 Q14 99 24 113.5 Q34 128 44 144 Q58 164 70 184.5 Q82 205 95 226 Q95 226 96 228 L100 234 Q93 228 86 224 Q80 220 72 216 Q64 212 57 210 Q47 207 42 210 Q37 213 35 217 Q31 226 34 236 Q35 246 40 257 Q54 284 76 300 Q84 305 93 309 Q105 312 112 307.5 Q119 303 122 295 Q126 286 126 275 L148 318 Q149 320 152 321 Q157 323 164 318 Z M116 263 Q120 275 119 287 Q117 298 110 300.5 Q103 303 92 296 Q87 293 83.5 289.5 Q80 286 76 282 Q60 264 50 240 Q48 235 47 225.5 Q46 216 56 216 Q61 216 67 220 Q80 225 90 233 Q100 241 109 251 Q114 256 116 263 Z " />
<glyph glyph-name="dollar" unicode="&#x24;" horiz-adv-x="263" d="M211 355 Q235 354 243.5 341 Q252 328 248 308 Q245 295 236 282 Q234 279 228 273 Q224 269 218 270 Q218 270 220 274 Q234 301 233 323 Q231 350 200 347 L198 347 L126 214 Q130 202 132.5 190 Q135 178 136 164 Q139 137 132 110 Q117 50 58 6 Q31 -14 4 -23 Q2 -24 1 -24 Q0 -24 -1 -25 L-44 -105 L-50 -105 Q-42 -86 -33.5 -67.5 Q-25 -49 -16 -30 Q-15 -28 -14.5 -27 Q-14 -26 -13 -24 Q-15 -24 -16 -23 Q-26 -21 -32 -14 Q-42 0 -46 15.5 Q-50 31 -47 51 Q-44 74 -21 91 Q-19 92 -18 93 Q-17 94 -15 95 Q-11 96 -8 94 Q-10 92 -11 92 Q-31 75 -34 53 Q-38 19 -20 -6 Q-18 -8 -15.5 -10.5 Q-13 -13 -8 -14 Q-6 -10 -5 -9 Q21 43 49 94 Q77 145 105 196 Q108 202 107 206 Q105 214 103.5 221 Q102 228 101 236 Q96 261 112 287 Q139 334 191 353 Q194 354 196 358 Q206 374 215 389.5 Q224 405 234 421 L236 419 L202 354 Q205 355 211 355 Z M110 137 Q112 149 111.5 160 Q111 171 109 182 L6 -11 Q12 -9 15 -7 Q55 17 81 55 Q95 75 101.5 96 Q108 117 110 137 Z M186 341 L185 341 Q148 320 129 287 Q119 270 118.5 255.5 Q118 241 121 227 L122 227 L186 341 Z " />
<glyph glyph-name="percent" unicode="&#x25;" horiz-adv-x="205" d="M238 404 Q249 404 245 394 Q243 390 241 386.5 Q239 383 236 380 Q226 366 215 352 Q204 338 193 324 Q139 260 87.5 193.5 Q36 127 -14 60 Q-26 44 -36.5 28.5 Q-47 13 -58 -3 Q-59 -4 -59 -4.5 Q-59 -5 -60 -6 Q-64 -10 -67 -9 Q-70 -8 -68 -4 Q-66 0 -64 3 Q-62 6 -60 10 Q-51 27 -39.5 43 Q-28 59 -16 76 Q22 130 61.5 182.5 Q101 235 142 288 Q159 311 176.5 334 Q194 357 214 380 Q219 385 223 390 Q227 395 232 400 Q236 404 238 404 Z M162 368 Q149 374 138 366 Q119 352 112 332 Q109 317 118 310 Q118 309 119 309 Q120 308 121 308 Q126 306 132 308 Q137 310 144 316 Q151 322 159 338 Q164 348 166 353 Q168 358 167 360.5 Q166 363 165 365 L162 368 Z M140 324 Q140 328 142 334 Q144 340 147.5 345.5 Q151 351 155 355.5 Q159 360 162 362 Q158 342 140 324 Z M66 106 Q58 109 53 109 Q48 109 41 104 Q22 89 16 70 Q11 54 22 48 L23 47 Q23 46 24 46 Q29 44 35 46 Q40 48 47 54 Q54 60 62 76 Q65 81 66 84 Q67 87 69 90 Q72 98 69 103 Q68 105 66 106 Z M44 62 Q43 66 45 72 Q47 78 50.5 83.5 Q54 89 58 93.5 Q62 98 66 100 Q63 88 57.5 79 Q52 70 44 62 Z " />
<glyph glyph-name="asciitilde" unicode="&#x7e;" horiz-adv-x="250" d="M210 223 Q211 219 207 215 Q204 212 200 210 Q180 200 160.5 191 Q141 182 121 172 Q113 169 109 169 L107 169 L105 169 Q99 171 96 179 Q93 187 91 196 Q89 207 90 220 L42 175 Q40 173 39 173 Q38 172 37 172 Q36 172 35 171 L33 171 Q31 171 31 174 Q31 176 32 178 Q34 180 35.5 183 Q37 186 39 188 Q47 196 55.5 205 Q64 214 72 223 Q75 225 77.5 227 Q80 229 82 230 Q92 236 96 229 Q98 226 99 222 L103 193 Q103 192 104 191 Q104 189 109 190 Q114 191 124 195 Q156 209 185 221 Q192 225 200 227 Q207 230 210 223 Z " />
<glyph glyph-name="numbersign" unicode="&#x23;" horiz-adv-x="253" d="M80 166 Q72 165 64.5 164.5 Q57 164 49 164 Q44 162 40 164 Q36 164 35 167 Q30 172 39 174 Q50 176 60.5 177 Q71 178 82 179 Q89 181 90 185 Q92 189 94 192 Q96 195 98 199 Q98 199 100 203 Q97 203 94 202.5 Q91 202 88 202 L64 199 Q60 199 58 200 Q54 200 52 204 Q50 206 51 208 Q52 210 56 210 Q64 211 72 212 Q80 213 88 214 Q93 215 98 215.5 Q103 216 108 217 Q112 223 115 229 Q118 235 122 241 Q127 250 132 259 Q137 268 142 277 Q143 279 147 285 Q151 287 152 288 Q157 289 161.5 285.5 Q166 282 164 277 Q162 273 160.5 269 Q159 265 156 261 Q151 251 144.5 241.5 Q138 232 132 223 Q132 223 130 219 Q148 220 163 222 Q168 230 173.5 237.5 Q179 245 184 253 Q186 257 189 260.5 Q192 264 195 268 Q199 274 206 271 Q213 268 210 262 Q208 258 205.5 254 Q203 250 200 246 Q197 241 194 237 Q191 233 187 228 Q186 227 186 226 Q186 225 184 223 L206 223 Q213 223 213 215 Q210 213 203 213 Q197 212 191.5 211.5 Q186 211 181 211 Q176 211 171 206 Q169 201 166 197 Q163 193 159 188 Q164 189 167.5 189 Q171 189 175 189 Q182 191 183 185 Q186 180 180 180 Q175 178 170.5 177 Q166 176 161 176 Q150 176 144 166 Q137 155 130.5 145 Q124 135 116 124 Q111 116 105 110 Q102 106 99 108 Q95 109 98 114 Q106 128 113.5 141 Q121 154 129 168 Q131 170 132 173 Q123 171 115 170.5 Q107 170 99 169 Q96 164 93 159 Q90 154 87 149 L72 125 Q70 121 63 114 Q60 110 56 113 Q52 114 55 119 Q63 130 68 141.5 Q73 153 79 164 Q80 165 80 166 Z M155 209 Q147 208 139.5 207.5 Q132 207 124 206 Q121 206 120 203 Q117 198 114.5 194 Q112 190 109 185 Q109 184 108 183 L138 186 Q141 186 141 188 Q148 198 155 209 Z " />
<glyph glyph-name="at" unicode="&#x40;" horiz-adv-x="263" d="M101 165 Q99 165 95 163 Q87 159 77 162 Q69 167 71 176 Q71 182 74 188 Q84 207 99 217 Q112 226 125 223 Q138 220 141 207 Q142 205 142 199 Q140 195 137 195 Q133 195 133 198 Q132 199 132 203 Q131 205 131 208 Q131 211 129 213 Q124 219 116 215 Q110 213 108 211 Q92 196 86 181 Q85 178 85 175.5 Q85 173 84 170 Q87 171 91 173 Q97 177 101 179 Q108 184 113.5 181.5 Q119 179 120 172 Q120 169 119.5 166.5 Q119 164 120 161 Q120 153 123 150 Q129 152 133 154 Q149 163 163 178 Q190 211 196 250 Q198 267 195 280 Q190 303 169 310 Q156 314 138 309 Q124 305 112 298 Q100 291 88 283 Q66 266 49 245 Q32 224 18 201 Q7 181 -1.5 160 Q-10 139 -14 118 Q-19 93 -13 73 Q-12 66 -7 60 Q0 45 20 47 Q39 48 57 56 Q95 72 135 97 Q142 101 149 108 Q153 112 155 111 Q162 111 159 105 Q158 103 156.5 100.5 Q155 98 153 96 Q148 92 144 89 Q140 86 135 83 Q100 60 62 42 Q29 27 -2 36 Q-26 42 -35 64 Q-43 85 -40 107 Q-35 143 -19.5 175.5 Q-4 208 21 239 Q35 256 50.5 271.5 Q66 287 86 299 Q99 307 112 312.5 Q125 318 139 320 Q175 325 195 302 Q205 292 208.5 280 Q212 268 212 254 Q211 214 183 176 Q168 155 143 144 Q130 137 119 140 Q102 143 102 160 Q101 161 101 165 Z " />
<glyph glyph-name="exclam" unicode="&#x21;" horiz-adv-x="168" d="M313 651 Q319 648 312.5 628 Q306 608 295 584.5 Q284 561 273.5 540 Q263 519 260 515 Q245 486 229 457.5 Q213 429 196 400 Q137 298 80.5 198 Q24 98 -31 -5 Q-42 -26 -51.5 -46 Q-61 -66 -72 -86 Q-72 -87 -72.5 -87.5 Q-73 -88 -73 -89 L-74 -90 Q-84 -107 -89 -98 Q-89 -89 -83 -78 Q-77 -67 -74 -58 Q-63 -28 -48 0 Q-33 28 -18 56 Q17 120 50.5 183.5 Q84 247 119 310 Q149 364 177.5 417 Q206 470 235 523 Q247 548 260 572 Q273 596 287 619 Q291 626 294.5 632 Q298 638 303 644 Q307 653 313 651 Z M-122 -159 Q-117 -159 -114.5 -162.5 Q-112 -166 -112 -170 Q-112 -174 -114.5 -177.5 Q-117 -181 -122 -181 Q-127 -181 -130 -177.5 Q-133 -174 -133 -170 Q-133 -166 -130 -162.5 Q-127 -159 -122 -159 Z " />
<glyph glyph-name="grave" unicode="&#x60;" horiz-adv-x="150" d="M136 500 Q131 501 127 504.5 Q123 508 122 513 Q119 523 116 533.5 Q113 544 111 553 Q110 560 117 561 Q132 564 134 550 Q136 538 137 527 Q138 516 142 505 Q145 500 136 500 Z " />
<glyph glyph-name="slash" unicode="&#x2f;" horiz-adv-x="207" d="M343 645 Q347 651 349.5 652.5 Q352 654 356 654 Q365 654 363 647 L-148 -182 Q-150 -180 -154 -172 Q-152 -168 -150.5 -165.5 Q-149 -163 -147 -159 L341 645 L343 645 Z " />
<glyph glyph-name="bar" unicode="&#x7c;" horiz-adv-x="188" d="M-122 -182 Q-125 -180 -127 -177.5 Q-129 -175 -131 -172 Q-128 -164 -125 -157 Q-122 -150 -118 -142 Q-98 -99 -75 -56 Q-64 -35 -53.5 -15 Q-43 5 -32 25 Q-21 45 -11.5 63.5 Q-2 82 9 100 Q20 122 31.5 142.5 Q43 163 54 184 Q68 207 80 230 Q92 253 105 276 Q119 302 132.5 327 Q146 352 160 378 Q174 404 188.5 429 Q203 454 218 480 Q238 515 257.5 549.5 Q277 584 298 619 Q304 629 314 641 Q318 647 320.5 648.5 Q323 650 328 650 Q339 650 339 643 L-122 -182 L-122 -182 Z " />
<glyph glyph-name="backslash" unicode="&#x5c;" horiz-adv-x="497" d="M109 645 Q109 651 110.5 652.5 Q112 654 117 654 Q122 654 127.5 651.5 Q133 649 137 647 L367 -180 Q357 -176 347 -170 Q345 -166 344 -163 Q343 -160 341 -156 L109 645 L109 645 Z " />
<glyph glyph-name="question" unicode="&#x3f;" horiz-adv-x="283" d="M184 484 Q186 482 190.5 483.5 Q195 485 195 480 Q189 478 184.5 475 Q180 472 175 474 Q167 476 166.5 482.5 Q166 489 170 497 Q178 511 187 523 Q197 536 208 549 Q219 562 230 574 Q250 592 270 608 Q290 624 313 637 Q325 645 336.5 650 Q348 655 359 656 Q391 661 398 634 Q402 624 400 612 Q398 600 393 587 Q385 570 375 553.5 Q365 537 354 520 Q333 490 311 459.5 Q289 429 266 400 Q188 299 116 195 Q44 91 -23 -16 Q-37 -38 -50 -59.5 Q-63 -81 -74 -103 Q-74 -105 -75 -106 Q-76 -107 -76 -109 Q-82 -116 -86 -114 Q-90 -114 -90 -113 Q-90 -112 -89 -107 Q-84 -92 -76 -76 Q-68 -60 -60 -45 Q-38 -6 -14.5 32 Q9 70 32 108 Q77 179 124 248.5 Q171 318 219 387 Q242 420 266 452.5 Q290 485 313 517 Q324 534 336.5 551 Q349 568 358 585 Q363 593 366.5 599.5 Q370 606 372 614 Q374 616 374 619 Q376 629 375 631.5 Q374 634 367 634 Q352 634 341 627 Q329 622 318.5 615.5 Q308 609 297 601 Q273 584 252 563.5 Q231 543 210 519 Q205 514 200 507.5 Q195 501 190 494 Q188 492 187 489 Q186 486 184 484 Z M-103 -159 Q-112 -159 -114.5 -170 Q-117 -181 -108 -181 Q-104 -181 -101 -177.5 Q-98 -174 -97 -170 Q-96 -166 -97.5 -162.5 Q-99 -159 -103 -159 Z " />
<glyph glyph-name="braceleft" unicode="&#x7b;" horiz-adv-x="176" d="M335 635 Q337 628 335 619 Q335 612 331 608 Q331 606 330 605 Q329 608 329.5 611 Q330 614 329 617 Q329 628 326 632 Q323 636 319 637 Q315 638 310 635 Q303 632 298 627 Q293 622 288 617 Q272 598 262 576 Q254 563 248.5 550 Q243 537 238 523 Q230 500 222.5 477.5 Q215 455 207 433 Q202 418 197.5 403.5 Q193 389 188 375 Q180 355 170.5 337.5 Q161 320 147 304 Q136 290 125 277.5 Q114 265 103 252 Q99 248 95.5 244 Q92 240 89 236 Q85 229 84.5 226.5 Q84 224 88 221 Q89 218 91 218 Q93 213 93.5 209 Q94 205 90 198 Q85 187 79 179 Q59 144 39 110 Q19 76 -1 42 Q-16 15 -30 -12.5 Q-44 -40 -58 -68 Q-65 -82 -71 -97 Q-77 -112 -79 -126 Q-82 -131 -82 -137 Q-84 -149 -80 -154 Q-80 -155 -79 -155 Q-72 -165 -63.5 -157 Q-55 -149 -50 -143 Q-49 -143 -49 -144 Q-48 -146 -49.5 -148.5 Q-51 -151 -52 -153 Q-54 -156 -57 -159 Q-60 -162 -62 -165 Q-80 -181 -96 -175 L-97 -175 Q-107 -172 -109 -159 Q-111 -146 -109 -133 Q-107 -113 -99.5 -96 Q-92 -79 -84 -61 Q-64 -19 -40.5 22 Q-17 63 7 104 Q15 118 24 132 Q33 146 41 160 L41 161 Q53 177 61 193 Q63 196 65 198 L75 216 Q70 219 67 223 Q65 226 64 231 Q63 236 68 243 Q71 247 73 250 Q75 253 77 257 Q84 265 91 273.5 Q98 282 104 290 Q109 295 113.5 300.5 Q118 306 123 312 Q144 337 156 369 Q164 393 173 417 Q182 441 190 465 Q198 488 206 510.5 Q214 533 224 555 Q232 571 241 586.5 Q250 602 261 616 Q278 639 300 648 Q312 652 321 649.5 Q330 647 335 635 Z " />
<glyph glyph-name="braceright" unicode="&#x7d;" horiz-adv-x="204" d="M276 653 Q284 649 285.5 636.5 Q287 624 285 610 Q281 590 274.5 573 Q268 556 260 539 Q240 495 217 453.5 Q194 412 171 371 Q163 357 155 343.5 Q147 330 138 316 L102 256 Q106 251 106 243 Q106 236 103 226.5 Q100 217 90 203 Q87 200 86 200 Q86 199 85 199 Q83 194 80 191 Q77 188 75 185 Q70 179 66 173.5 Q62 168 58 161 Q36 136 24 104 Q15 80 6.5 56 Q-2 32 -11 8 Q-19 -15 -27.5 -37.5 Q-36 -60 -47 -83 Q-53 -99 -61.5 -114.5 Q-70 -130 -82 -145 Q-96 -168 -117 -177 Q-128 -181 -136 -178.5 Q-144 -176 -146 -164 Q-147 -160 -146.5 -156 Q-146 -152 -146 -147 Q-146 -146 -145 -144.5 Q-144 -143 -144 -142 L-142 -142 L-141 -142 L-139 -142 Q-141 -153 -137.5 -161 Q-134 -169 -124 -164 L-124 -163 Q-119 -161 -114.5 -156 Q-110 -151 -105 -145 Q-89 -125 -79 -104 Q-73 -90 -67.5 -77 Q-62 -64 -57 -50 Q-48 -27 -40 -4.5 Q-32 18 -24 41 Q-18 56 -13.5 70 Q-9 84 -3 98 Q3 118 13 136 Q23 154 36 170 Q47 184 57.5 196.5 Q68 209 79 223 Q82 226 85 230 Q88 234 91 238 Q97 251 93 255 Q92 255 92 256 Q92 256 91 258 Q85 266 93 277 Q95 282 97.5 286.5 Q100 291 102 295 Q122 330 142.5 365 Q163 400 181 435 Q196 463 210 489 Q224 515 238 544 Q246 559 250 573.5 Q254 588 259 603 Q260 606 260 608.5 Q260 611 261 614 Q263 619 262.5 622.5 Q262 626 261 629 Q262 631 261 631.5 Q260 632 260 634 Q254 641 247 633 Q240 625 236 620 L235 621 Q234 622 235 625 Q236 628 237 629 Q243 638 248 642 Q261 658 276 653 Z " />
<glyph glyph-name="ampersand" unicode="&#x26;" horiz-adv-x="346" d="M352 476 Q354 465 352 453.5 Q350 442 346 431 Q340 411 330.5 393.5 Q321 376 307 360 Q295 346 282 339 Q278 337 274 335.5 Q270 334 266 332 Q259 330 255 333 Q254 333 251 336 L252 337 Q261 340 268 346 Q275 352 282 359 Q290 367 296 376 Q304 387 310.5 398.5 Q317 410 322 423 Q323 423 323 424 Q323 426 324 428 Q326 434 328.5 440.5 Q331 447 333 454 L333 455 Q334 457 334 459 Q334 461 335 463 Q335 465 335.5 466 Q336 467 336 469 Q338 482 337 493 Q336 504 328 509 Q318 514 305.5 511.5 Q293 509 281 503 Q267 496 252 486 Q241 478 231.5 470 Q222 462 214 452 Q205 442 197 431.5 Q189 421 184 409 Q175 390 176 371 Q179 350 195 336 Q199 332 203 328.5 Q207 325 212 321 Q214 319 216.5 317 Q219 315 221 312 Q227 305 218 299 Q216 297 212 295 Q165 269 128 233 Q91 197 59 153 Q46 135 34.5 116.5 Q23 98 13 78 Q0 50 -3 24 Q-4 16 -3.5 8 Q-3 0 0 -8 Q3 -17 9 -23 Q15 -29 23 -27 Q39 -23 52 -14 Q61 -9 69.5 -2.5 Q78 4 86 11 Q96 20 105 29 Q114 38 122 48 Q137 65 152 81.5 Q167 98 181 115 L186 120 Q178 119 172 118.5 Q166 118 160 118 L124 115 Q117 115 110 120 Q109 121 109 122 Q109 122 110 122 L112 122 Q115 122 116 123 Q121 123 126 123.5 Q131 124 136 125 Q142 126 148.5 126.5 Q155 127 161 127 L188 130 Q195 130 201.5 130.5 Q208 131 214 131 L233 131 L234 131 Q239 131 246.5 129 Q254 127 255 120 L254 120 Q252 120 251 121 Q247 123 237 123 Q227 123 219 123 Q214 122 204 122 Q201 122 197 118 Q185 102 173 87 Q161 72 149 57 Q137 42 125 28 Q113 14 99 1 Q85 -13 67 -25 Q59 -30 50 -34 Q41 -38 32 -40 Q14 -43 -1 -37 Q-22 -30 -30 -7 Q-35 9 -32 31 Q-30 52 -22.5 72 Q-15 92 -4 111 Q59 225 173 294 L194 306 Q196 307 197.5 308 Q199 309 201 311 Q199 313 198.5 314 Q198 315 197 316 L179 334 Q177 337 174 340 Q171 343 169 346 Q148 374 162 409 Q168 426 179 442 Q206 478 240 501 Q242 502 251.5 507 Q261 512 273.5 516 Q286 520 301 520.5 Q316 521 329 514 Q349 502 352 476 Z " />
<glyph glyph-name="less" unicode="&#x3c;" horiz-adv-x="263" d="M229 292 Q230 291 230 290 Q233 283 229 277 Q223 270 215 265 Q205 260 196 256 Q187 252 177 247 Q156 237 135 227.5 Q114 218 93 207 L92 207 Q92 207 90 206 Q89 205 88.5 205 Q88 205 87 204 L66 195 L61 192 L78 180 L145 134 L145 133 Q146 130 144 128.5 Q142 127 140 129 L69 177 L67 178 L55 187 Q54 187 53 188 Q51 190 51 191 Q49 193 48.5 199 Q48 205 53 210 Q54 210 54 210.5 Q54 211 55 211 L56 212 L229 292 Z " />
<glyph glyph-name="greater" unicode="&#x3e;" horiz-adv-x="247" d="M8 108 L8 110 Q5 118 9 123 Q16 132 23 136 Q33 141 42 144.5 Q51 148 61 153 Q82 163 103 172 Q124 181 145 191 L146 192 Q148 192 148 193 Q150 193 150.5 193.5 Q151 194 152 194 L172 204 L177 206 L160 219 L94 269 Q93 269 93 270 Q92 272 94 274 Q96 276 99 274 L169 222 L171 221 L184 211 L185 210 Q186 209 186 208.5 Q186 208 187 207 Q189 204 189.5 198.5 Q190 193 185 188 Q183 186 183 186 L182 186 L8 108 Z " />
<glyph glyph-name="asciicircum" unicode="&#x5e;" horiz-adv-x="295" d="M284 575 Q293 569 292 559 Q292 548 291.5 537 Q291 526 290 514 Q290 511 288.5 507.5 Q287 504 286 500 Q286 500 284 498 L284 562 L267 552 L258 546 Q247 538 236.5 530.5 Q226 523 215 515 Q212 513 209 510.5 Q206 508 202 506 Q194 501 190 505 Q189 506 188.5 507 Q188 508 187 509 Q184 515 191 521 Q198 526 204.5 531 Q211 536 218 541 Q228 549 237.5 555.5 Q247 562 257 570 Q258 571 259 571.5 Q260 572 261 573 Q274 582 284 575 Z " />
<glyph glyph-name="daggerdbl" unicode="&#x2021;" horiz-adv-x="132" d="M-115 -130 Q-118 -128 -122 -122 Q-120 -116 -117.5 -110 Q-115 -104 -112 -98 Q-95 -63 -77 -28 Q-69 -11 -60 5 Q-51 21 -43 37 Q-35 53 -26.5 68 Q-18 83 -10 98 Q-1 115 8 132 Q17 149 26 166 Q37 185 46.5 203 Q56 221 67 240 Q78 261 89 281.5 Q100 302 111 322 Q132 362 157 405 Q173 433 188.5 460.5 Q204 488 221 517 Q223 522 226.5 526 Q230 530 234 535 Q239 542 245 542 Q254 542 254 536 L-115 -130 L-115 -130 Z " />
<glyph glyph-name="parenleft" unicode="&#x28;" horiz-adv-x="187" d="M353 650 Q363 654 363 646 Q351 637 341 625 Q331 613 320 602 Q285 561 254.5 518 Q224 475 195 428 Q164 380 136.5 330.5 Q109 281 83 230 Q70 205 60.5 180 Q51 155 40 130 Q11 59 -8 -11 Q-10 -16 -11.5 -21.5 Q-13 -27 -15 -32 Q-18 -44 -22.5 -61.5 Q-27 -79 -30.5 -98.5 Q-34 -118 -36 -139 Q-38 -160 -37 -180 Q-45 -160 -43 -128.5 Q-41 -97 -35 -67 Q-29 -37 -22.5 -13.5 Q-16 10 -14 15 Q-5 50 6.5 84.5 Q18 119 31 154 Q56 220 88 283.5 Q120 347 158 410 Q184 449 210 487 Q236 525 265 560 Q282 581 300 601 Q318 621 336 638 Q341 641 345 644 Q349 647 353 650 Z " />
<glyph glyph-name="parenright" unicode="&#x29;" horiz-adv-x="164" d="M-178 -176 Q-186 -182 -189 -172 Q-178 -162 -168 -151.5 Q-158 -141 -147 -128 Q-113 -88 -83 -44 Q-53 0 -25 45 Q3 95 29.5 144 Q56 193 79 244 Q90 268 100 293 Q110 318 119 344 Q132 379 143.5 414.5 Q155 450 166 485 Q166 490 167.5 494.5 Q169 499 171 505 Q178 530 184.5 571.5 Q191 613 187 653 Q196 633 195.5 602 Q195 571 190.5 540.5 Q186 510 180 486.5 Q174 463 173 458 Q163 423 151.5 388.5 Q140 354 129 319 Q107 253 76.5 189.5 Q46 126 8 63 Q-14 24 -39 -14 Q-64 -52 -91 -87 Q-109 -108 -126.5 -128 Q-144 -148 -164 -165 Q-167 -168 -171.5 -171 Q-176 -174 -178 -176 Z " />
<glyph glyph-name="asterisk" unicode="&#x2a;" horiz-adv-x="242" d="M202 422 L234 424 Q236 424 238 423 Q240 422 239 417 Q232 417 225.5 416.5 Q219 416 212 415 Q209 415 205.5 415 Q202 415 198 414 L221 369 L221 368 Q217 368 215 369 Q208 372 205 377 Q197 387 191 397 Q189 399 188.5 401 Q188 403 186 405 L183 399 Q176 388 170 378 Q164 368 157 358 Q155 354 149 346 Q147 342 142 342 Q135 344 138 348 Q140 355 144 362 Q148 370 152 378 Q156 386 161 394 Q161 395 161.5 395 Q162 395 162 397 Q160 395 158 395 Q150 390 142 384 Q134 378 126 373 Q121 370 119 372 Q116 375 119 378 Q122 381 125.5 384 Q129 387 132 390 Q139 395 146 400 Q153 405 160 410 Q162 411 162.5 411.5 Q163 412 165 413 L162 413 Q156 413 150.5 412.5 Q145 412 139 412 Q131 411 131 416 Q131 418 132 420 L173 422 L176 422 Q172 433 167.5 442.5 Q163 452 161 463 Q166 466 168 465 Q175 464 178 458 Q180 455 182 451 Q184 447 186 443 Q186 444 188 438 Q190 442 192 445.5 Q194 449 196 452 Q201 461 207 470.5 Q213 480 218 489 Q220 492 221.5 494.5 Q223 497 225 499 Q227 501 228.5 501.5 Q230 502 232 503 Q237 503 239.5 500 Q242 497 239 492 Q236 486 232.5 480.5 Q229 475 226 469 Q221 462 217.5 456 Q214 450 209 443 L210 443 L216 446 Q224 450 229 452 Q231 452 232 452.5 Q233 453 235 452 Q238 452 240 449 Q240 447 235 442 Q230 439 225.5 436.5 Q221 434 216 431 Q214 430 213.5 429 Q213 428 211 427 L202 422 Z " />
<glyph glyph-name="quotedbl" unicode="&#x22;" horiz-adv-x="300" d="M276 560 Q274 558 274 556.5 Q274 555 272 553 Q264 543 257.5 533 Q251 523 244 512 Q241 507 238 501 Q235 495 231 490 Q229 487 227 484.5 Q225 482 223 479 Q222 475 217 477 Q214 478 215 483 Q223 503 233.5 521.5 Q244 540 255 559 Q255 559 257 561 Q265 572 274 565 Q275 564 275 563 Q275 562 276 560 Z M254 476 Q250 478 249 478 Q246 479 248 483 Q256 500 264.5 516.5 Q273 533 284 550 Q285 552 287 554 Q293 560 299 556 Q303 554 300 551 Q300 549 299.5 548.5 Q299 548 299 547 Q292 534 285 522 Q278 510 272 497 Q269 492 266.5 488 Q264 484 261 480 Q257 476 254 476 Z " />
<glyph glyph-name="quotesingle" unicode="&#x27;" horiz-adv-x="263" d="M263 562 Q261 560 259 556 Q252 546 245 536.5 Q238 527 231 517 Q228 512 225.5 507.5 Q223 503 220 498 Q218 495 216 492 Q214 489 212 487 Q210 483 205 485 Q202 487 204 490 Q212 508 221.5 525.5 Q231 543 242 560 Q244 562 244 563 Q247 567 252 568 Q257 569 260 566 Q262 564 263 562 Z " />
<glyph glyph-name="plus" unicode="&#x2b;" horiz-adv-x="267" d="M112 192 Q107 191 103 191 Q99 191 94 191 Q85 191 76 190.5 Q67 190 58 190 Q48 190 47 196 Q49 198 51.5 198.5 Q54 199 56 200 Q63 200 69.5 200.5 Q76 201 83 201 Q91 202 100 202 Q109 202 118 203 Q121 208 124 212.5 Q127 217 130 222 Q144 245 157.5 268.5 Q171 292 185 315 Q187 319 190 322.5 Q193 326 196 330 Q201 337 210 335 Q223 332 219 319 Q216 313 213 307 Q210 301 206 295 Q193 274 180 253 Q167 232 153 212 Q151 208 150 205 Q158 205 162 206 Q172 207 181.5 207.5 Q191 208 202 208 Q204 209 207 208.5 Q210 208 212 208 Q215 208 217 206 Q220 203 215 201 Q211 200 208 200 Q205 200 202 199 Q188 197 173.5 196 Q159 195 144 194 Q144 193 142 193 Q139 188 136 183.5 Q133 179 130 174 Q119 157 109 139 Q99 121 89 103 Q78 86 74 69 Q73 63 65 64 Q59 65 59 71 Q59 85 63 96 Q68 107 73 117 Q78 127 83 138 Q90 151 96.5 163 Q103 175 110 188 Q110 188 112 192 Z " />
<glyph glyph-name="semicolon" unicode="&#x3b;" horiz-adv-x="122" d="M48 190 Q56 192 56 185 Q55 183 55 181.5 Q55 180 54 178 Q51 174 47 166 Q45 162 42.5 158.5 Q40 155 36 151 Q34 149 33 147 Q31 146 27 146 Q25 147 26 148 Q26 150 28 152 Q35 164 40 180 Q41 182 42 184 Q43 186 44 188 Q44 190 48 190 Z M70 236 Q80 236 80 226.5 Q80 217 70 217 Q61 217 61 226.5 Q61 236 70 236 Z " />
<glyph glyph-name="period" unicode="&#x2e;" horiz-adv-x="110" d="M35 179 Q45 179 45 169.5 Q45 160 35 160 Q26 160 26 169.5 Q26 179 35 179 Z " />
<glyph glyph-name="colon" unicode="&#x3a;" horiz-adv-x="124" d="M47 197 Q57 197 57 187.5 Q57 178 47 178 Q38 178 38 187.5 Q38 197 47 197 Z M72 240 Q81 240 81 230.5 Q81 221 72 221 Q62 221 62 230.5 Q62 240 72 240 Z " />
<glyph glyph-name="comma" unicode="&#x2c;" horiz-adv-x="114" d="M18 123 Q18 122 17 121.5 Q16 121 15 119 Q13 118 9 118 Q8 119 8 120 Q10 124 10 124 Q14 131 17 138 Q20 145 23 152 Q24 154 24.5 156 Q25 158 26 160 Q28 162 30 162 Q40 164 38 157 Q38 156 36 150 Q32 142 29 138 Q27 134 24.5 130.5 Q22 127 18 123 Z " />
<glyph glyph-name="equal" unicode="&#x3d;" horiz-adv-x="169" d="M47 184 Q39 188 41 196 L112 196 L113 196 Q116 196 118 191 Q118 186 115 185 Q114 185 114 184.5 Q114 184 113 184 L47 184 Z M62 213 Q56 216 56 224 L57 225 L127 225 L128 225 Q131 225 133 220 Q134 216 131 214 Q130 213 128 213 L62 213 Z " />
<glyph glyph-name="hyphen" unicode="&#x2d;" horiz-adv-x="157" d="M45 196 Q38 200 40 208 L111 208 Q114 208 116 203 Q117 199 114 197 Q113 197 112.5 196.5 Q112 196 111 196 L45 196 L45 196 Z " />
<glyph glyph-name="underscore" unicode="&#x5f;" horiz-adv-x="227" d="M-4 92 Q-17 96 -14 104 L126 104 L127 104 Q135 104 137 99 Q140 94 133 93 Q131 93 130 92.5 Q129 92 128 92 L-4 92 L-4 92 Z " />
<glyph glyph-name="bracketright" unicode="&#x5d;" horiz-adv-x="140" d="M-174 -163 L-137 -163 L-131 -149 Q-123 -132 -114.5 -115.5 Q-106 -99 -98 -83 Q-71 -23 -43 36 Q-15 95 13 153 Q49 228 85.5 304 Q122 380 158 456 Q172 486 187 516 Q202 546 217 576 Q222 588 227.5 600.5 Q233 613 240 625 L246 640 L209 640 Q206 640 209 647 Q212 654 216 654 Q229 654 240 653.5 Q251 653 264 653 L269 653 Q279 648 268 625 Q232 548 195.5 472.5 Q159 397 123 322 Q87 247 51 172 Q15 97 -21 21 Q-42 -21 -62 -64 Q-82 -107 -102 -149 Q-107 -159 -114 -167 Q-121 -175 -126 -176 Q-127 -177 -129 -177 Q-131 -178 -135 -178 Q-147 -178 -158.5 -178 Q-170 -178 -180 -176 Q-184 -176 -180.5 -169.5 Q-177 -163 -174 -163 Z " />
<glyph glyph-name="bracketleft" unicode="&#x5b;" horiz-adv-x="133" d="M-81 -168 Q-77 -168 -80.5 -175 Q-84 -182 -88 -182 L-134 -182 L-140 -182 Q-141 -182 -142 -181 Q-151 -176 -141 -154 Q-99 -67 -57 17 Q-21 93 14.5 169.5 Q50 246 88 322 Q126 398 163 473.5 Q200 549 238 626 Q243 637 250.5 644.5 Q258 652 263 653 L269 653 L318 653 Q322 653 318 646 Q314 639 311 639 L273 639 L267 626 Q260 612 254.5 600 Q249 588 242 576 Q227 546 212.5 515.5 Q198 485 184 455 Q146 377 108.5 301.5 Q71 226 33 150 Q7 90 -21.5 31.5 Q-50 -27 -79 -87 Q-87 -104 -95.5 -120.5 Q-104 -137 -113 -154 L-119 -168 L-81 -168 L-81 -168 Z " />
<glyph glyph-name="C" unicode="C" horiz-adv-x="562" d="M653 701 Q682 660 654 599 Q636 560 606.5 530 Q577 500 538 477 Q523 468 507.5 462.5 Q492 457 477 456 Q442 454 425 473 Q414 485 414.5 502.5 Q415 520 426 539 Q440 562 466.5 578.5 Q493 595 518 596 Q538 598 552 587 Q566 577 563 559 Q559 536 535 522 Q524 515 512.5 514.5 Q501 514 494 520 Q489 524 489 530 Q491 532 494 529 Q496 524 502.5 523.5 Q509 523 517 526 Q528 531 537 541 Q546 551 548 562 Q552 577 539 580 Q529 584 513 580 Q487 574 464.5 553 Q442 532 435 507 Q433 503 433 494 Q432 481 446 476 Q463 471 487 477 Q516 485 542 503 Q571 523 594 547 Q617 571 633 601 Q650 634 649 664 Q645 713 595 719 Q576 722 556.5 718.5 Q537 715 517 708 Q467 689 417 655 Q379 629 344 599.5 Q309 570 277 537 Q220 479 172 417 Q124 355 82 289 Q39 220 7 153 Q-25 85 -45 12 Q-53 -20 -57 -50 Q-61 -80 -59 -109 Q-57 -132 -51.5 -151.5 Q-46 -171 -35 -188 Q-27 -199 -17.5 -207 Q-8 -215 6 -220 Q35 -230 74 -218 Q109 -208 143 -186 Q158 -177 173 -167 Q188 -157 202 -146 Q268 -96 330 -43.5 Q392 9 452 67 Q460 74 466.5 81 Q473 88 481 96 Q482 95 483 93 Q485 90 481 86 Q480 85 461.5 67 Q443 49 413.5 21 Q384 -7 345.5 -41 Q307 -75 265.5 -108.5 Q224 -142 182.5 -171 Q141 -200 105 -218 Q100 -220 92.5 -223.5 Q85 -227 75 -230 Q55 -236 38.5 -237 Q22 -238 8.5 -235 Q-5 -232 -15.5 -227 Q-26 -222 -33 -217 Q-46 -208 -55.5 -195.5 Q-65 -183 -72 -169 Q-83 -144 -87 -117 Q-91 -90 -89 -60 Q-87 -32 -81 -3.5 Q-75 25 -66 54 Q-52 102 -30.5 148 Q-9 194 17 241 Q55 307 99 370 Q143 433 197 493 Q234 535 274 573 Q314 611 359 645 Q388 667 417.5 685 Q447 703 479 717 Q498 725 516 731 Q534 737 553 739 Q619 748 653 701 Z " />
<glyph glyph-name="D" unicode="D" horiz-adv-x="762" d="M537 693 Q531 692 525.5 691.5 Q520 691 515 690 Q462 683 409.5 669 Q357 655 303 632 Q273 619 244.5 603.5 Q216 588 188 568 Q165 551 145 532.5 Q125 514 109 491 Q86 462 77 430 Q69 404 78 388 Q87 372 110 368 Q121 366 132.5 367 Q144 368 157 371 Q191 379 223 394.5 Q255 410 285 436 Q299 447 310.5 460 Q322 473 330 488 Q344 514 335 536 Q329 551 313 552 Q302 554 291 552.5 Q280 551 268 548 Q237 539 210 519 Q202 512 196 505 Q190 498 185 490 Q182 484 181 477 Q180 470 182.5 465 Q185 460 191 458 Q197 456 207 458 Q231 464 245 486 Q247 488 249 493 Q253 500 246 504 Q237 510 223 507 Q215 507 215 511 Q217 515 220 515.5 Q223 516 226 516 Q246 518 259 509 Q276 495 256 471 Q242 454 222 447.5 Q202 441 186 449 Q175 454 170 463 Q165 472 168 486 Q171 500 186 517 Q197 530 215 541 Q260 570 305 568 Q331 566 346 547 Q361 528 356 502 Q353 488 345.5 475 Q338 462 327 450 Q316 437 302.5 426.5 Q289 416 275 407 Q216 369 154 357 Q111 349 84 366 Q72 374 65.5 386.5 Q59 399 61 416 Q62 429 67 442 Q72 455 79 468 Q94 496 115.5 520 Q137 544 163 564 Q195 590 228 609 Q261 628 296 645 Q344 667 392 681 Q440 695 488 703 Q502 705 516.5 707 Q531 709 545 711 L548 711 Q550 714 551.5 717 Q553 720 555 723 Q556 725 557 727 Q558 729 559 731 Q564 738 569 738 Q576 738 576 730 Q574 724 573 722 L570 713 Q572 713 575 712.5 Q578 712 580 713 Q616 713 649.5 709 Q683 705 713 693 Q755 676 782.5 647.5 Q810 619 821 574 Q836 518 819 450 Q808 402 784.5 356 Q761 310 728 265 Q623 124 468 30 Q423 2 377 -18.5 Q331 -39 283 -55 Q208 -81 133 -100 Q131 -100 125 -102 Q121 -109 117.5 -115.5 Q114 -122 111 -129 Q92 -166 74 -203 Q67 -218 61 -235 Q59 -240 52 -242 Q43 -242 44 -236 Q45 -227 49 -214 Q54 -196 62 -178.5 Q70 -161 78 -143 Q82 -136 85 -129.5 Q88 -123 91 -116 Q93 -112 94 -109 Q89 -111 83.5 -111.5 Q78 -112 73 -114 Q45 -119 17.5 -123 Q-10 -127 -37 -129 Q-60 -130 -80.5 -127.5 Q-101 -125 -118 -116 Q-126 -112 -132 -106.5 Q-138 -101 -142 -93 Q-154 -66 -134 -31 Q-129 -23 -124 -16 Q-119 -9 -111 -2 Q-106 3 -100.5 2.5 Q-95 2 -93 -3 Q-92 -6 -95 -9 Q-109 -25 -117 -43 Q-122 -54 -124 -64 Q-126 -74 -124 -84 Q-121 -96 -111.5 -101.5 Q-102 -107 -90 -109 Q-72 -112 -53 -111.5 Q-34 -111 -14 -109 Q14 -106 42 -100.5 Q70 -95 99 -88 Q101 -88 107 -86 Q112 -77 116.5 -68 Q121 -59 126 -50 Q143 -18 160.5 15 Q178 48 195 80 L288 251 Q312 295 336 338.5 Q360 382 384 425 Q404 460 423 495 Q442 530 462 565 Q479 595 497.5 625 Q516 655 533 685 Q535 687 537 693 Z M137 -78 Q140 -77 141.5 -77 Q143 -77 145 -76 Q220 -57 295 -28 Q500 48 655 223 Q690 263 720 305 Q750 347 772 392 Q786 421 795 448.5 Q804 476 807 504 Q818 601 755 649 Q725 673 687 683 Q659 691 628 694 Q597 697 565 695 Q564 695 563.5 694.5 Q563 694 561 694 Q557 686 553.5 678 Q550 670 546 662 Q529 627 510.5 591.5 Q492 556 472 521 Q443 469 413 418 Q383 367 354 315 Q303 224 252.5 133.5 Q202 43 153 -48 Q149 -56 145.5 -63 Q142 -70 137 -78 Z " />
<glyph glyph-name="E" unicode="E" horiz-adv-x="572" d="M558 739 Q561 738 567 738 Q631 733 670 696 Q685 681 692.5 662 Q700 643 698 618 Q695 576 668 537 Q612 454 524 409 Q483 389 445 392 Q430 393 417 397.5 Q404 402 394 413 Q383 426 382.5 444.5 Q382 463 396 483 Q412 506 432.5 522 Q453 538 480 546 Q491 549 502 549.5 Q513 550 522 545 Q530 542 536 536 Q545 527 542 515 Q539 503 525 492 Q503 476 482 479 Q472 479 469 489 Q467 495 473 502 Q478 500 477 495 Q476 489 481 489 Q485 489 491 491 Q507 495 520 507 Q522 509 526 515 Q535 527 525 533 Q520 536 513.5 536.5 Q507 537 499 536 Q476 532 450 514 Q417 492 404 460 Q400 450 398 439 Q397 423 411 413 Q424 406 443 406 Q472 405 504 419 Q604 463 662 554 Q682 586 685 619 Q689 659 664 685 Q640 709 597 717 Q565 722 531 718.5 Q497 715 462 705 Q428 695 395.5 680 Q363 665 331 646 Q238 591 165 513 Q148 493 132.5 473.5 Q117 454 106 432 Q97 415 91 398 Q85 381 83 364 Q80 319 110 292 Q122 281 136.5 273.5 Q151 266 168 261 Q191 253 214 248.5 Q237 244 261 239 L282 236 Q290 234 293 229 Q300 220 287 216 Q249 206 206 187 Q173 172 141 153.5 Q109 135 77 114 Q30 82 -13.5 46 Q-57 10 -96 -32 Q-113 -50 -128 -68.5 Q-143 -87 -155 -107 Q-172 -133 -176 -158 Q-180 -191 -157 -207 Q-148 -213 -137 -215.5 Q-126 -218 -114 -219 Q-92 -221 -69 -216 Q-46 -211 -23 -203 Q-2 -196 18.5 -187 Q39 -178 59 -168 Q187 -108 306 -29 Q362 7 408 47 Q453 86 485 131 Q486 132 486.5 133 Q487 134 488 135 Q489 137 490.5 139 Q492 141 494 140 Q501 138 497 132 L494 126 Q468 83 431 49 Q411 30 390.5 13 Q370 -4 348 -20 Q303 -52 258 -80 Q213 -108 166 -134 Q130 -154 94 -172 Q58 -190 20 -207 Q0 -216 -19.5 -223 Q-39 -230 -59 -234 Q-91 -239 -119 -236.5 Q-147 -234 -171 -222 Q-177 -218 -182.5 -214 Q-188 -210 -193 -205 Q-219 -174 -203 -129 Q-192 -99 -173 -74 Q-158 -52 -140 -32 Q-122 -12 -102 6 Q14 113 149 185 Q172 196 194 205.5 Q216 215 239 222 Q240 223 241 223 Q242 223 243 224 Q244 224 245 225 Q239 227 233 228 Q227 229 221 230 Q202 235 183 240 Q164 245 146 252 Q106 268 83 295 Q53 329 59 377 Q61 396 68 414.5 Q75 433 86 451 Q102 478 122 502.5 Q142 527 165 550 Q295 677 461 725 Q498 736 537 738 Q542 738 544 739 L558 739 Z " />
<glyph glyph-name="F" unicode="F" horiz-adv-x="740" d="M1100 711 Q1102 709 1104 706.5 Q1106 704 1106 699 Q1106 698 1105.5 698 Q1105 698 1105 697 Q1101 693 1099 696 Q1088 704 1073.5 706.5 Q1059 709 1043 711 Q962 717 879.5 718 Q797 719 712 719 Q699 719 687 719 Q675 719 662 718 L654 718 Q651 711 648 705 Q645 699 643 692 Q626 653 605.5 614 Q585 575 565 537 Q546 502 527 468 Q508 434 489 399 Q489 399 487 395 Q493 397 498.5 397.5 Q504 398 510 399 Q601 418 693 432 Q714 435 734 437 Q754 439 774 440 Q795 440 812 434 Q814 433 816 432.5 Q818 432 817 429 L813 429 Q801 434 787.5 434 Q774 434 760 433 Q706 428 651.5 419 Q597 410 542 399 Q533 397 523.5 395 Q514 393 505 391 Q499 389 493.5 388 Q488 387 483 386 Q481 384 480 382.5 Q479 381 477 378 Q462 352 447 326.5 Q432 301 416 275 Q383 221 348 168.5 Q313 116 274 65 Q243 25 210.5 -13 Q178 -51 143 -88 Q118 -113 91.5 -136.5 Q65 -160 36 -180 Q10 -199 -18 -212.5 Q-46 -226 -75 -233 Q-109 -241 -136 -237 Q-155 -233 -165.5 -218 Q-176 -203 -179 -184 Q-184 -156 -177 -128.5 Q-170 -101 -159 -76 Q-138 -27 -107 18 Q-84 53 -55.5 85.5 Q-27 118 5 148 Q157 290 342 355 Q368 364 392.5 371.5 Q417 379 442 384 Q450 387 454 394 L520 511 Q539 543 557 576 Q575 609 593 641 Q603 658 612.5 675.5 Q622 693 631 711 L634 717 L617 717 Q593 715 569 714 Q545 713 520 711 Q451 705 382 694.5 Q313 684 242 664 Q210 656 179 645 Q148 634 117 620 Q94 610 73 598 Q52 586 31 572 Q8 555 -12.5 535.5 Q-33 516 -48 492 Q-72 456 -66 422 Q-61 396 -46 379.5 Q-31 363 -5 357 Q22 351 57 356 Q153 371 245 437 Q271 457 293.5 479.5 Q316 502 333 528 Q338 536 342 544 Q346 552 348 560 Q351 580 340 590 Q333 596 324.5 598.5 Q316 601 305 603 Q264 606 220 581 Q198 568 185 553 Q182 548 178.5 544.5 Q175 541 173 536 Q154 505 178 492 Q193 484 218 489 Q243 494 263 511 Q279 523 284 541 Q288 555 276 560 Q268 563 259 562 Q250 561 239 558 Q239 558 237 557 Q231 553 230 558 Q230 562 236 564 Q240 566 243 567 Q275 577 290 560 Q298 551 296 537 Q294 523 281 509 Q278 506 275 502.5 Q272 499 268 497 Q253 486 236.5 480 Q220 474 205 474 Q190 474 178 480 Q166 486 160 497 Q145 523 171 557 Q191 582 222 597 Q283 630 332 611 Q350 603 358 588 Q374 561 354 522 Q340 493 318 469 Q296 445 269 425 Q175 352 70 338 Q44 335 20.5 336.5 Q-3 338 -23 348 Q-67 369 -81 417 Q-94 462 -54 516 Q-40 535 -23.5 551 Q-7 567 12 581 Q42 604 73.5 621.5 Q105 639 138 653 Q184 673 229 686.5 Q274 700 319 710 Q357 718 394 723.5 Q431 729 468 733 Q506 738 543.5 739.5 Q581 741 618 741 Q677 741 734.5 740.5 Q792 740 850 739 Q892 737 933.5 735 Q975 733 1017 731 Q1032 730 1047 728.5 Q1062 727 1076 723 Q1089 720 1100 711 Z M442 373 Q442 373 443 375 Q394 361 351.5 345.5 Q309 330 273 314 Q229 294 192 272.5 Q155 251 125 230.5 Q95 210 73.5 193 Q52 176 40 166 Q10 140 -21 108.5 Q-52 77 -79.5 40 Q-107 3 -128 -38 Q-149 -79 -159 -122 Q-160 -127 -162.5 -145.5 Q-165 -164 -162 -183.5 Q-159 -203 -147 -217 Q-135 -231 -106 -228 Q-102 -228 -99 -227.5 Q-96 -227 -92 -226 Q-45 -216 2 -183 Q33 -161 61.5 -136 Q90 -111 116 -84 Q152 -48 184 -9.5 Q216 29 245 69 Q300 144 348.5 219.5 Q397 295 442 373 Z " />
<glyph glyph-name="G" unicode="G" horiz-adv-x="545" d="M701 645 Q708 578 656 512 Q606 451 536 437 Q510 431 491 441 Q474 449 468 467 Q462 485 469 508 Q483 554 523 579 Q556 601 587 591 Q598 587 604 579 Q610 571 612 561 Q614 551 612 539.5 Q610 528 605 518 Q597 504 584 495 Q571 486 557 486 Q532 488 537 514 Q542 538 563 555 Q572 563 574 552 Q563 545 555.5 530.5 Q548 516 547 508 Q547 504 548 502 Q549 495 556 496 Q560 497 563.5 498 Q567 499 571 502 Q585 513 593.5 526 Q602 539 603 555 Q605 569 598 577 Q591 585 579 586 Q551 589 522 566 Q491 538 481 503 Q476 479 483 464 Q490 448 509 448 Q524 448 537 452 Q580 464 617.5 497 Q655 530 675 574 Q691 608 690 643 Q688 665 678 682 Q655 720 615 728 Q591 734 562 729 Q521 724 483 705 Q445 686 408 657 Q382 636 359.5 611.5 Q337 587 316 561 Q288 525 264.5 487.5 Q241 450 221 409 Q203 371 194 333 Q192 320 191 308 Q190 296 192 284 Q193 272 200 260 Q211 243 232 245 Q248 246 266 253 Q284 259 302 267.5 Q320 276 337 286 Q363 301 388.5 316.5 Q414 332 440 348 Q447 353 454 357 Q461 361 469 365 Q481 372 492 363 Q499 358 497 346 Q496 338 494.5 331 Q493 324 491 316 Q490 311 489 306 Q488 301 486 296 L480 278 L583 319 Q583 311 577 307 Q551 296 526 285.5 Q501 275 475 264 Q475 263 474.5 262.5 Q474 262 474 260 Q473 258 472 255.5 Q471 253 470 250 Q448 192 421 135.5 Q394 79 359 24 Q310 -52 245 -110 Q210 -140 172.5 -163 Q135 -186 96 -203 Q37 -229 -19 -236 Q-57 -241 -90.5 -238 Q-124 -235 -154 -221 Q-179 -210 -193 -193 Q-207 -176 -209.5 -157.5 Q-212 -139 -209 -123 Q-206 -107 -200.5 -95 Q-195 -83 -192 -78 Q-173 -47 -143.5 -18 Q-114 11 -78 36 Q-42 61 -2.5 82.5 Q37 104 75 122 Q165 163 267 195 L448 266 L479 353 L372 288 Q371 287 370.5 287 Q370 287 369 286 Q347 272 325.5 260.5 Q304 249 281 240 Q259 230 239 229 Q192 226 172 265 Q164 280 163 297.5 Q162 315 165 335 Q170 361 179.5 386 Q189 411 203 436 Q232 490 267.5 539 Q303 588 348 632 Q376 660 406 682 Q436 704 470 719 Q536 749 599 743 Q646 737 675 702 Q686 690 692.5 676 Q699 662 701 645 Z M443 252 Q439 250 436.5 249 Q434 248 432 247 Q394 230 355 216.5 Q316 203 278 189 Q237 174 196.5 159.5 Q156 145 115 128 Q77 112 40 94.5 Q3 77 -34 54 Q-56 40 -76.5 25.5 Q-97 11 -117 -6 Q-132 -20 -146 -34.5 Q-160 -49 -171 -67 Q-210 -130 -180 -178 Q-176 -184 -171 -188.5 Q-166 -193 -161 -198 Q-146 -209 -128.5 -215.5 Q-111 -222 -91 -224 Q-68 -226 -45 -224 Q-22 -222 2 -217 Q40 -208 77.5 -191.5 Q115 -175 152 -152 Q187 -131 217.5 -104.5 Q248 -78 275 -46 Q294 -23 311 1 Q328 25 343 51 Q370 95 392 139.5 Q414 184 434 230 Q436 235 438 239 Q440 243 442 248 L443 252 Z " />
<glyph glyph-name="H" unicode="H" horiz-adv-x="537" d="M290 246 Q294 248 296.5 249.5 Q299 251 301 253 Q342 280 381.5 308.5 Q421 337 460 366 Q466 371 471 375.5 Q476 380 480 387 Q516 448 555 507.5 Q594 567 636 625 Q647 641 659.5 656.5 Q672 672 684 687 Q694 698 704 709 Q714 720 726 729 Q741 742 756 745 Q781 751 788 727 Q792 716 787 698 Q783 684 776.5 671 Q770 658 762 645 Q751 628 738.5 611.5 Q726 595 712 579 Q684 547 654.5 518 Q625 489 593 461 Q579 448 565.5 436.5 Q552 425 538 413 Q535 411 531 405 Q508 363 485.5 322.5 Q463 282 440 240 Q420 203 401 166.5 Q382 130 363 93 Q353 75 344.5 56 Q336 37 327 18 Q316 -7 305 -31.5 Q294 -56 283 -81 Q272 -106 261.5 -131 Q251 -156 242 -182 Q239 -191 236.5 -200 Q234 -209 231 -218 Q229 -226 233 -230 Q233 -231 233.5 -231 Q234 -231 234 -232 Q234 -235 233 -237 Q232 -238 229 -238 Q227 -238 223 -236 Q215 -231 214 -222 Q213 -213 215 -202 Q218 -185 223.5 -167 Q229 -149 236 -132 Q246 -106 255.5 -80 Q265 -54 276 -28 Q287 -1 299 26.5 Q311 54 323 81 Q330 96 336 111.5 Q342 127 350 142 Q362 168 375 194 Q388 220 402 246 L456 345 Q457 347 457.5 348 Q458 349 459 351 Q457 349 453 347 Q411 315 368.5 285.5 Q326 256 283 227 Q275 222 271 215 Q244 170 214.5 126 Q185 82 153 40 Q127 8 100 -22.5 Q73 -53 43 -80 Q10 -110 -26 -131 Q-51 -147 -74 -151 Q-91 -154 -104 -150 Q-137 -139 -122 -94 Q-117 -80 -109.5 -66.5 Q-102 -53 -92 -40 Q-79 -22 -64 -7 Q-49 8 -32 22 Q-7 43 19 62.5 Q45 82 71 100 Q111 127 151 153.5 Q191 180 231 207 Q239 213 241 218 Q271 268 300 317.5 Q329 367 355 418 Q368 443 379 467.5 Q390 492 401 517 Q409 536 415.5 555 Q422 574 428 593 Q435 610 438 632 L438 640 Q439 669 413 669 Q405 670 396 668 Q387 666 378 664 Q360 659 341.5 651 Q323 643 305 633 Q273 615 241.5 593.5 Q210 572 180 546 Q120 494 82 429 Q61 390 55 353 L55 333 Q56 316 72 311 Q91 305 114 310 Q191 328 261 389 Q308 433 329 491 Q331 496 332 500 Q333 504 333 509 Q339 544 306 547 Q296 548 283.5 543.5 Q271 539 259 531 Q247 523 236 511.5 Q225 500 218 487 Q215 480 212.5 474 Q210 468 210 461 Q208 446 216.5 440.5 Q225 435 240 442 Q254 448 265.5 463.5 Q277 479 280 493 L280 501 Q280 512 267 509 Q265 508 263 507 Q261 506 259 505 Q259 505 255 505 Q255 508 257 510 Q263 517 274 517 Q284 516 289 506 Q294 494 289.5 478 Q285 462 272 448 Q246 421 222 427 Q211 430 205 441 Q199 452 201 466 Q205 491 224 514 Q256 552 294 558 Q320 562 335 545.5 Q350 529 347 500 Q345 483 338.5 467.5 Q332 452 322 435 Q309 412 291 393 Q273 374 253 357 Q191 311 130 296 Q98 288 75 295 Q30 307 39 364 Q48 410 80 458 Q123 522 180 569 Q270 644 365 678 Q384 685 403 687 Q439 692 450 661 Q455 650 454.5 636.5 Q454 623 452 609 Q447 586 440 564.5 Q433 543 425 520 Q402 457 371.5 396.5 Q341 336 307 276 Q301 263 294 254 L290 246 Z M221 185 Q217 183 216 182 L147 137 Q111 113 76 88 Q41 63 6 36 Q-12 22 -29 7 Q-46 -8 -62 -25 Q-86 -50 -100 -76 Q-113 -98 -114 -117 Q-116 -140 -93 -140 Q-91 -140 -90 -139.5 Q-89 -139 -87 -139 Q-75 -137 -63.5 -132 Q-52 -127 -41 -120 Q-11 -102 16 -78 Q42 -55 64.5 -30 Q87 -5 108 22 Q138 60 165.5 99.5 Q193 139 219 181 Q219 181 221 185 Z M551 437 Q553 439 554 439.5 Q555 440 557 442 Q565 448 571.5 454 Q578 460 586 466 Q638 512 686 563 Q704 582 720.5 601.5 Q737 621 751 642 Q760 656 767.5 670.5 Q775 685 779 700 Q784 711 781 720 Q780 733 766 730 Q758 729 748 722 Q740 717 734 711 Q728 705 721 698 Q702 676 687 654 Q651 602 618 548.5 Q585 495 553 441 Q553 441 551 437 Z " />
<glyph glyph-name="I" unicode="I" horiz-adv-x="439" d="M574 742 Q592 742 598 728.5 Q604 715 599 698 Q594 685 588.5 673 Q583 661 577 648 Q566 627 556.5 606 Q547 585 536 564 Q518 525 500.5 486 Q483 447 463 409 Q438 359 412 310 Q386 261 358 213 Q357 211 356.5 210 Q356 209 355 207 Q358 208 362 210 Q384 221 405.5 230.5 Q427 240 450 248 Q454 250 457 250 Q460 252 459 246 Q457 246 455.5 245 Q454 244 452 244 Q427 233 402.5 222 Q378 211 353 198 Q346 193 344 189 Q320 149 295 110 Q270 71 242 33 Q215 -4 186 -38.5 Q157 -73 124 -105 Q58 -169 -14 -206 Q-35 -217 -55.5 -224.5 Q-76 -232 -96 -236 Q-101 -237 -105 -237.5 Q-109 -238 -113 -239 L-126 -239 Q-130 -238 -133.5 -237.5 Q-137 -237 -142 -235 Q-155 -232 -163 -221 Q-175 -206 -166 -181 Q-155 -154 -136 -132 Q-119 -111 -100 -92 Q-81 -73 -61 -55 Q-26 -26 10 0.5 Q46 27 84 50 Q136 82 188 113 Q240 144 293 173 Q299 177 303 183 Q327 226 351 269 Q375 312 398 355 Q425 405 450 453 Q459 471 468 489 Q477 507 485 524 Q495 544 504 562.5 Q513 581 523 601 L583 719 Q569 723 549 720.5 Q529 718 514 715 Q389 689 266 614 Q231 591 198 565 Q165 539 135 507 Q117 488 101 468 Q85 448 73 426 Q53 390 50 360 Q48 351 50 343 Q53 314 80 309 Q93 307 107 308.5 Q121 310 135 314 Q260 349 348 475 Q357 488 363 501 Q369 514 374 528 Q382 551 375.5 569 Q369 587 351 592 Q327 599 295 585 Q272 574 253.5 556 Q235 538 220 515 Q214 505 209 495.5 Q204 486 202 475 Q200 464 201 459 Q203 444 218 447 Q229 449 236 453 Q278 475 302 518 Q310 533 311 547 Q311 553 310 556 Q307 566 295 561 Q292 560 290 561 Q285 566 293 568 Q300 571 304 570 Q315 569 320 557 Q327 538 315 513 Q294 470 254 446 Q243 440 233 437 Q223 434 213 436 Q197 439 192 451.5 Q187 464 194 484 Q199 497 206 509 Q213 521 221 533 Q238 555 257 571 Q276 587 299 596 Q324 606 343 603 Q362 600 373 589 Q384 578 387.5 560 Q391 542 386 522 Q379 492 357 461 Q312 391 241 345 Q183 308 127 298 Q111 295 96 295.5 Q81 296 68 301 Q27 319 39 375 Q44 395 53.5 415 Q63 435 77 455 Q97 484 119.5 509 Q142 534 168 557 Q206 590 245.5 616 Q285 642 327 663 Q383 691 438 710 Q493 729 548 739 Q555 740 561.5 740.5 Q568 741 574 742 Z M270 128 Q275 136 280 144.5 Q285 153 290 162 L289 163 Q287 161 283 159 Q275 154 266.5 149.5 Q258 145 249 140 Q203 113 157.5 85 Q112 57 66 27 Q33 4 1 -20 Q-31 -44 -62 -72 Q-79 -88 -95 -104 Q-111 -120 -125 -139 Q-134 -151 -141.5 -163 Q-149 -175 -152 -189 Q-160 -213 -142 -223 Q-137 -225 -131.5 -225.5 Q-126 -226 -119 -226 Q-110 -225 -100 -222.5 Q-90 -220 -80 -217 Q-14 -193 48 -143 Q85 -114 116.5 -81 Q148 -48 177 -10 Q203 23 225.5 57.5 Q248 92 270 128 Z " />
<glyph glyph-name="J" unicode="J" horiz-adv-x="682" d="M773 690 Q775 679 773.5 666.5 Q772 654 770 641 Q766 619 761 597.5 Q756 576 751 554 Q744 529 737 505 Q730 481 722 457 Q711 427 699.5 397 Q688 367 675 337 Q661 305 645 273 Q629 241 611 209 Q611 209 609 205 Q612 205 614.5 205.5 Q617 206 620 206 Q637 209 654.5 212 Q672 215 690 220 Q696 223 696 213 L690 210 Q681 206 672 203.5 Q663 201 654 199 Q642 197 629.5 194.5 Q617 192 604 190 Q598 189 595 183 Q559 124 516 71 Q473 18 425 -28 Q377 -74 325.5 -112 Q274 -150 222 -177 Q182 -201 138 -216 Q100 -230 53.5 -236.5 Q7 -243 -41 -232 Q-62 -227 -86 -215 Q-110 -203 -128 -179 Q-128 -178 -129 -178 Q-130 -176 -131 -175 Q-132 -174 -133 -172 Q-142 -158 -147.5 -141 Q-153 -124 -154 -103 Q-156 -75 -148 -45 Q-136 -7 -109 23 Q-96 38 -81.5 49.5 Q-67 61 -52 71 Q-30 85 -9 94 Q12 103 34 110 Q59 118 83.5 124 Q108 130 133 135 Q162 140 190.5 144.5 Q219 149 248 154 Q269 158 289.5 160.5 Q310 163 331 165 Q350 168 368.5 170.5 Q387 173 405 175 Q426 178 446.5 181 Q467 184 487 187 Q506 189 525 192 Q544 195 564 197 Q569 198 573 204 Q593 239 611.5 274 Q630 309 647 345 Q661 374 673 403 Q685 432 696 461 Q710 496 721 530 Q732 564 742 599 Q752 635 757 667 Q758 674 758 680.5 Q758 687 759 693 Q760 713 744 716 Q733 718 722 717 Q711 716 700 714 Q670 708 640 697 Q610 686 579 672 Q546 656 513.5 637 Q481 618 449 594 Q403 561 367 514 Q351 492 339 469 Q327 446 321 420 Q310 382 321.5 354.5 Q333 327 362 322 Q384 319 404 326 Q427 334 448.5 345.5 Q470 357 491 376 Q532 412 548 464 Q551 474 553 483.5 Q555 493 554 503 Q554 527 533 529 Q501 530 467 503 Q458 495 451 485 Q444 475 440 463 Q433 443 439 431 Q445 419 461 421 Q484 424 506 444 Q518 456 522 469 Q527 491 510 489 Q507 489 503 487 Q499 486 497 491 L500 494 Q511 499 519.5 496 Q528 493 531 482 Q537 459 516 438 Q495 417 468 412 Q456 410 447 414 Q438 418 433 429 Q427 441 429.5 458 Q432 475 443 491 Q455 507 470 518 Q499 537 524 540 Q542 542 553 530.5 Q564 519 565 497 Q566 480 561 463.5 Q556 447 547 430 Q520 377 476 347 Q454 332 432.5 322.5 Q411 313 390 311 Q332 303 311 358 Q301 386 312 427 Q320 456 334.5 482.5 Q349 509 368 533 Q387 556 407.5 574.5 Q428 593 450 609 Q476 628 502.5 643.5 Q529 659 555 673 Q589 690 622 703.5 Q655 717 688 725 Q701 728 713 730.5 Q725 733 736 732 Q770 731 773 690 Z M554 162 Q556 166 558 168 L555 168 Q546 166 537 165 Q528 164 520 162 L400 144 Q372 140 344.5 136.5 Q317 133 288 128 Q256 123 223.5 117.5 Q191 112 159 106 Q132 101 105 94.5 Q78 88 50 80 Q28 74 7 65.5 Q-14 57 -35 45 Q-65 30 -91 4 Q-129 -36 -138 -87 Q-142 -109 -139 -132 Q-139 -134 -136.5 -143.5 Q-134 -153 -126 -166.5 Q-118 -180 -104 -194 Q-90 -208 -66.5 -217.5 Q-43 -227 -9 -230 Q25 -233 73 -224 Q125 -214 175 -189 Q226 -164 272 -132.5 Q318 -101 361 -64 Q416 -16 464 40.5 Q512 97 554 162 Z " />
<glyph glyph-name="K" unicode="K" horiz-adv-x="624" d="M999 746 Q1001 744 1002 741 Q1004 734 999 729 Q994 724 989.5 720.5 Q985 717 980 712 Q953 688 925.5 665.5 Q898 643 869 620 Q822 582 776 546 Q730 510 682 474 Q628 434 574.5 394 Q521 354 467 316 Q458 309 448.5 302.5 Q439 296 430 289 Q423 286 422 279 Q428 281 431 281 Q470 289 475 257 Q477 247 475 236 Q473 225 471 214 Q467 198 462 182.5 Q457 167 451 150 Q437 116 424.5 82.5 Q412 49 399 15 Q386 -20 374.5 -53.5 Q363 -87 354 -121 Q350 -135 347.5 -148 Q345 -161 344 -174 Q343 -176 343.5 -179.5 Q344 -183 346 -183 Q348 -184 352 -180 Q356 -176 359 -172 L606 181 L625 208 Q627 207 629 205 Q632 202 629 197 L629 196 L628 195 L626 193 L625 191 L624 190 L368 -175 Q367 -177 366 -177.5 Q365 -178 364 -179 Q357 -190 349 -195 Q345 -199 339.5 -202.5 Q334 -206 329 -204 L323 -201 Q319 -197 317.5 -192 Q316 -187 315 -182 L315 -168 Q316 -158 318 -148 Q320 -138 322 -127 Q329 -100 337.5 -72.5 Q346 -45 357 -16 Q367 9 377 33.5 Q387 58 397 83 Q409 112 420.5 140 Q432 168 442 197 Q446 208 449 219 Q452 230 455 241 Q456 245 456 248.5 Q456 252 456 255 Q456 267 450 271.5 Q444 276 427 272 L425 272 Q416 270 415 268.5 Q414 267 409 260 Q378 207 343 156.5 Q308 106 266 57 Q228 12 186 -28.5 Q144 -69 96 -105 Q58 -134 20 -158 Q-18 -182 -60 -200 Q-108 -221 -154 -230 Q-206 -239 -240 -224 Q-258 -217 -267 -200 Q-282 -168 -251 -125 Q-242 -111 -230.5 -99.5 Q-219 -88 -206 -77 Q-187 -60 -167 -46 Q-147 -32 -127 -18 Q-92 5 -57 25 Q-22 45 13 65 Q60 91 106.5 117.5 Q153 144 201 170 Q245 195 287.5 221 Q330 247 373 274 Q379 278 384 286 Q406 323 426 359.5 Q446 396 465 434 Q485 470 504 506.5 Q523 543 541 580 Q549 594 555.5 608 Q562 622 568 636 Q579 662 582 682 Q584 688 582.5 689.5 Q581 691 574 689 Q566 687 559 685 Q552 683 544 681 Q490 661 435 634 Q384 611 335 584.5 Q286 558 237 528 Q208 510 181 490.5 Q154 471 128 449 Q111 433 95 417 Q79 401 66 383 Q59 373 54 364 Q49 355 47 345 Q38 305 77 297 Q94 295 112.5 297.5 Q131 300 151 307 Q183 318 214 335 Q245 352 274 375 Q294 390 311 406 Q328 422 342 441 Q350 452 356.5 463 Q363 474 365 485 Q374 522 338 530 Q324 533 307.5 530.5 Q291 528 274 520 Q257 512 241 500 Q225 488 212 473 Q198 454 193 436 Q190 422 195.5 411.5 Q201 401 222 403 Q245 406 268 419 Q286 431 293 447 Q299 463 284 458 Q278 456 272 454 Q266 452 260 450 Q251 446 250 450 Q250 452 258 458 Q278 468 291 467 Q306 466 308 454 Q310 442 297 427 Q287 416 276 410 Q256 399 237.5 395.5 Q219 392 203 397 Q187 402 183 416.5 Q179 431 187 450 Q194 467 207 482 Q220 497 237 510 Q256 524 276 532 Q296 540 314 542 Q332 544 346.5 540 Q361 536 370 525 Q378 515 380.5 503 Q383 491 378 474 Q371 451 350 425 Q323 393 288 366 Q257 342 225.5 324.5 Q194 307 161 296 Q119 282 86 285 Q53 287 39 308 Q15 340 54 393 Q66 410 81.5 426 Q97 442 114 456 Q139 479 166 498 Q193 517 221 534 Q266 563 311.5 587 Q357 611 403 634 Q435 650 467 665 Q499 680 531 693 Q539 697 548 700 Q557 703 566 706 Q590 715 600 697 Q605 689 603 676 Q602 665 599.5 654 Q597 643 593 632 Q585 607 574 582.5 Q563 558 552 534 Q540 508 528 483 Q516 458 503 432 Q490 407 477.5 383 Q465 359 452 335 Q450 333 449.5 330.5 Q449 328 447 326 L448 325 Q450 326 451.5 327 Q453 328 455 329 Q494 358 533 385.5 Q572 413 611 442 Q641 464 671 486 Q701 508 731 531 Q790 576 847 620.5 Q904 665 961 713 Q968 718 974 723.5 Q980 729 987 735 Q995 743 999 746 Z M342 218 Q346 223 349 228.5 Q352 234 356 240 Q354 238 352 237.5 Q350 237 348 236 Q311 213 274.5 190.5 Q238 168 200 147 Q155 122 111.5 98 Q68 74 24 50 Q-11 30 -45.5 10.5 Q-80 -9 -114 -32 Q-136 -46 -156.5 -61.5 Q-177 -77 -197 -95 Q-206 -103 -214 -111.5 Q-222 -120 -229 -130 Q-261 -175 -241 -201 Q-235 -209 -225 -213 Q-215 -217 -203 -218 Q-183 -219 -161 -214 Q-139 -209 -116 -201 Q-43 -175 29 -124 Q82 -88 127.5 -46 Q173 -4 214 44 Q250 86 281.5 129.5 Q313 173 342 218 Z " />
<glyph glyph-name="L" unicode="L" horiz-adv-x="448" d="M450 742 Q455 742 460 742 Q465 742 470 741 Q499 738 516 719 Q543 688 529 640 Q524 618 513.5 599 Q503 580 490 561 Q446 497 383 472 Q372 467 361.5 464.5 Q351 462 340 463 Q316 464 301 485 Q286 506 291 532 Q292 542 298 553 Q325 607 377 627 Q398 636 416 626 Q427 621 432 610 Q436 598 432 584 Q424 563 405 546.5 Q386 530 367 529 Q353 529 347 539 Q344 547 348 557 Q352 563 356 560 Q355 556 354.5 553 Q354 550 354 547 Q354 537 363 539 Q369 541 373 542 Q400 556 415 583 Q418 590 420 596 Q425 614 410 618 Q399 621 385 616 Q371 611 358 601.5 Q345 592 334 580 Q313 556 306 529 Q301 510 308 495.5 Q315 481 331 479 Q339 477 347 479 Q355 481 363 483 Q399 496 433 527 Q484 573 508 638 Q512 649 514.5 660.5 Q517 672 517 683 Q515 709 495 718 Q477 726 451 723 Q357 707 284 623 Q270 606 257.5 588 Q245 570 234 551 Q215 521 198 490.5 Q181 460 164 429 Q132 369 99.5 310.5 Q67 252 34 193 Q-30 76 -106 -37 Q-106 -37 -108 -41 L-106 -41 Q-66 -37 -30 -43 Q6 -49 41 -61 Q70 -71 96 -83.5 Q122 -96 148 -110 Q174 -124 200.5 -137 Q227 -150 253 -163 Q347 -207 459 -221 Q481 -224 505 -224 Q513 -224 521 -223 Q529 -222 537 -219 Q557 -213 571 -193 Q579 -184 583 -191 Q585 -193 583 -198 Q574 -218 557 -227 Q552 -230 546.5 -231.5 Q541 -233 536 -235 Q520 -240 504.5 -239.5 Q489 -239 474 -237 Q365 -226 268 -189 Q241 -179 216 -166 Q191 -153 166 -140 Q141 -126 115.5 -112.5 Q90 -99 64 -88 Q41 -77 16.5 -69.5 Q-8 -62 -34 -58 Q-54 -56 -74.5 -55.5 Q-95 -55 -117 -59 Q-122 -60 -126 -66 Q-139 -84 -152.5 -101.5 Q-166 -119 -181 -136 Q-190 -147 -199 -157 Q-208 -167 -219 -175 Q-224 -179 -228 -182 Q-232 -185 -237 -188 Q-250 -194 -262 -188 Q-273 -182 -270 -165 Q-265 -148 -257 -134 Q-244 -113 -226.5 -97 Q-209 -81 -189 -69 Q-175 -60 -157 -54 Q-149 -51 -145 -44 Q-103 19 -67 85 Q-41 131 -16.5 176.5 Q8 222 34 269 Q72 338 110.5 406 Q149 474 192 541 Q205 561 218.5 581.5 Q232 602 247 622 Q313 706 405 733 Q412 735 418.5 736 Q425 737 432 739 Q434 740 436 740 Q438 740 440 741 Q442 741 445 741.5 Q448 742 450 742 Z M-253 -177 Q-251 -175 -248.5 -174.5 Q-246 -174 -244 -172 Q-237 -167 -231 -160.5 Q-225 -154 -220 -147 Q-207 -130 -195 -113.5 Q-183 -97 -170 -80 Q-169 -79 -169 -78 L-171 -78 Q-185 -85 -198 -94 Q-211 -103 -222 -115 Q-231 -126 -238.5 -136.5 Q-246 -147 -251 -160 Q-254 -170 -253 -177 Z " />
<glyph glyph-name="M" unicode="M" horiz-adv-x="917" d="M1085 741 Q1093 734 1093.5 724 Q1094 714 1089 701 Q1084 690 1079 680 Q1074 670 1069 659 Q1053 628 1035.5 598 Q1018 568 1001 538 Q969 484 937.5 430 Q906 376 876 322 Q854 281 833.5 241 Q813 201 794 160 Q780 128 767.5 97 Q755 66 746 34 Q741 14 737.5 -4.5 Q734 -23 734 -41 Q734 -58 737 -71 Q744 -94 770 -89 Q791 -86 810 -74 Q827 -65 843.5 -52.5 Q860 -40 876 -26 Q876 -27 876.5 -32.5 Q877 -38 872 -44 Q869 -47 851 -61.5 Q833 -76 809 -89 Q785 -102 760.5 -105.5 Q736 -109 721 -91 Q714 -81 709 -68 Q704 -52 704 -35 Q704 -18 706 1 Q708 23 713.5 44.5 Q719 66 726 89 Q737 124 751.5 158 Q766 192 783 226 Q812 286 844.5 343.5 Q877 401 912 458 Q943 509 974 559.5 Q1005 610 1036 661 Q1043 672 1049.5 684.5 Q1056 697 1063 709 L1062 710 Q1057 705 1052.5 701.5 Q1048 698 1043 693 Q1023 673 1004 652.5 Q985 632 966 610 Q873 502 786 391.5 Q699 281 616 166 Q579 113 542.5 61 Q506 9 471 -45 Q451 -77 430.5 -110 Q410 -143 390 -175 Q376 -199 362 -218 Q355 -229 350 -231 Q345 -233 337 -228 Q327 -223 332 -208 Q336 -196 340 -184 Q344 -172 349 -160 Q356 -143 362.5 -125 Q369 -107 377 -90 Q385 -69 393.5 -48 Q402 -27 411 -6 Q419 16 428 37.5 Q437 59 446 81 Q455 104 464 126.5 Q473 149 482 172 Q490 192 498 212 Q506 232 514 252 Q524 278 533 303 Q542 328 552 354 Q560 374 567 394.5 Q574 415 582 436 Q594 469 606 502 Q618 535 630 569 Q638 588 645 607 Q652 626 659 645 Q659 646 659.5 646.5 Q660 647 660 648 Q658 647 654 643 Q642 629 630 615.5 Q618 602 606 588 Q528 492 450.5 398 Q373 304 294 209 Q268 178 241.5 147.5 Q215 117 186 88 Q166 68 146.5 50 Q127 32 105 15 Q94 7 82.5 -0.5 Q71 -8 59 -13 Q27 -27 3 -19.5 Q-21 -12 -33 10 Q-41 24 -44 42 Q-47 60 -45 80 Q-44 100 -38.5 119.5 Q-33 139 -25 159 Q-2 217 36 267 Q49 284 64 299.5 Q79 315 96 327 Q111 338 126 343.5 Q141 349 156 347 Q191 343 206 310 Q213 294 213.5 275.5 Q214 257 209 236 Q204 210 191.5 186.5 Q179 163 162 140 Q154 130 146.5 120.5 Q139 111 129 103 Q97 72 62 68 Q33 63 21 90 Q11 110 17 140 Q26 187 57 226 Q65 236 73 244.5 Q81 253 91 259 Q124 281 147 264 Q172 245 161 208 Q155 188 143.5 175.5 Q132 163 109 157 Q92 152 82 161 Q80 164 78 167 Q76 170 76 175 Q76 181 81 184 Q85 187 89 182 Q87 180 86 180 Q86 180 84 178 Q84 163 96 165 Q108 166 121 175 Q134 184 141 198 Q150 214 151 230 Q152 244 144 252.5 Q136 261 124 259 Q114 258 104 251 Q96 246 90 240 Q84 234 78 227 Q41 181 35 129 Q32 109 39 94 Q44 81 59 86 Q73 90 87 97 Q101 104 113 117 Q140 143 159.5 172.5 Q179 202 189 237 Q197 263 194 290 Q192 304 187 313 Q170 344 131 328 Q111 320 91 300 Q60 270 35 230 Q18 204 5.5 176.5 Q-7 149 -15 120 Q-28 76 -22 42 Q-19 24 -12 12 Q0 -10 29 -2 Q49 2 68 15 Q85 26 100.5 38 Q116 50 130 64 Q156 87 179.5 111 Q203 135 226 161 Q268 209 308.5 256.5 Q349 304 389 353 Q449 426 507.5 498.5 Q566 571 625 643 Q632 651 638 658 Q644 665 651 673 L663 685 Q673 694 682 689 Q697 681 693 659 Q690 643 684 624 L654 534 Q638 488 622.5 442.5 Q607 397 590 351 Q577 314 563.5 277.5 Q550 241 536 205 Q521 167 506 129.5 Q491 92 475 54 Q459 16 443.5 -20.5 Q428 -57 412 -94 Q411 -96 411 -97 Q411 -98 410 -100 L413 -97 Q488 18 567.5 127.5 Q647 237 730 346 Q790 424 852 500 Q914 576 979 651 Q994 668 1009 685.5 Q1024 703 1041 720 Q1046 725 1052 729.5 Q1058 734 1064 739 Q1076 750 1085 741 Z " />
<glyph glyph-name="N" unicode="N" horiz-adv-x="817" d="M615 538 Q613 536 611 533 Q609 530 607 528 Q565 469 521.5 412 Q478 355 433 299 Q394 251 353.5 205 Q313 159 271 114 Q243 86 215 61.5 Q187 37 156 16 Q131 -1 105.5 -14 Q80 -27 54 -34 Q35 -39 17.5 -40 Q0 -41 -17 -36 Q-35 -30 -47.5 -18 Q-60 -6 -67 15 Q-75 42 -67 77 Q-62 99 -53.5 119 Q-45 139 -34 159 Q-20 183 -4.5 205 Q11 227 30 246 Q49 265 68.5 279 Q88 293 110 301 Q122 305 133 306 Q144 307 155 302 Q171 295 177 279.5 Q183 264 181 241 Q179 226 172 208 Q165 190 153.5 173.5 Q142 157 126 142.5 Q110 128 90 121 Q63 112 45 124 Q31 134 28.5 153.5 Q26 173 36 196 Q48 228 74 249 Q94 265 111.5 260.5 Q129 256 135 244 Q140 234 136.5 221.5 Q133 209 124 198 Q106 175 83 172 Q71 170 65 179 Q61 184 64 195 Q66 200 69 198 Q71 198 71 194 Q72 192 72 190.5 Q72 189 73 187 Q74 182 79 183 Q100 190 115 212 Q117 215 118.5 218.5 Q120 222 122 225 Q128 241 119 247 Q108 254 93 245 Q80 238 69 222 Q58 208 52 193 Q46 178 45 162 Q45 157 47 149 Q51 132 69 136 Q86 141 100 151 Q114 161 128 176 Q140 190 149 205.5 Q158 221 162 239 Q164 244 165 249.5 Q166 255 166 260 Q166 294 138 293 Q112 292 83 272 Q64 259 47.5 242.5 Q31 226 16 206 Q-20 156 -40 103 Q-48 81 -50.5 60.5 Q-53 40 -48 21 Q-39 -19 -1 -22 Q17 -24 36 -19 Q55 -14 75 -6 Q102 5 127.5 21 Q153 37 178 57 Q230 98 280 152 Q320 194 357 238 Q394 282 431 328 Q481 391 528.5 455 Q576 519 621 585 Q624 590 627 593.5 Q630 597 633 601 Q639 610 645 607 Q650 605 654.5 600.5 Q659 596 658 587 Q657 584 655 576 Q650 559 645 543 Q640 527 635 511 Q629 493 623 475.5 Q617 458 611 440 Q602 417 593 393 Q584 369 575 346 Q551 286 527.5 226 Q504 166 481 106 Q467 68 454.5 29.5 Q442 -9 431 -47 Q424 -73 419.5 -98.5 Q415 -124 413 -149 Q412 -162 412.5 -173 Q413 -184 416 -195 Q417 -198 418 -200.5 Q419 -203 420 -205 Q425 -213 433 -209 Q446 -205 459 -195 Q474 -183 487.5 -168.5 Q501 -154 514 -138 Q534 -113 553 -86.5 Q572 -60 590 -32 Q628 25 660.5 84 Q693 143 723 203 Q756 268 787 332.5 Q818 397 848 463 Q872 517 895.5 569.5 Q919 622 942 676 Q953 704 969 734 Q970 736 971 737 Q972 738 973 740 Q975 745 978 743 Q982 741 983 739 Q985 737 983 733 Q960 674 936 616 Q912 558 886 500 Q849 417 811.5 335.5 Q774 254 736 172 Q700 95 657.5 23 Q615 -49 567 -119 Q555 -136 542 -153 Q529 -170 514 -186 Q493 -208 472 -221 Q444 -239 422 -232.5 Q400 -226 390 -204 Q385 -191 383 -176.5 Q381 -162 381 -146 Q381 -127 383.5 -107.5 Q386 -88 390 -68 Q397 -31 407.5 5 Q418 41 431 78 Q444 115 459 152 Q474 189 489 226 Q509 271 528 316.5 Q547 362 566 407 Q577 436 587.5 464 Q598 492 609 520 L615 538 Z " />
<glyph glyph-name="O" unicode="O" horiz-adv-x="567" d="M639 525 Q632 501 624 477 Q616 453 605 430 Q504 196 328 2 Q251 -84 164 -150 Q138 -169 112.5 -185.5 Q87 -202 60 -214 Q44 -221 28 -225.5 Q12 -230 -4 -232 Q-63 -237 -91 -191 Q-109 -161 -111 -115 Q-112 -92 -109 -69.5 Q-106 -47 -101 -23 Q-93 12 -80 46 Q-67 80 -51 114 Q-17 183 19.5 249 Q56 315 95 381 Q118 419 141.5 456.5 Q165 494 191 530 Q202 546 214 560.5 Q226 575 239 589 Q266 617 295 632 Q301 635 304 631 Q308 625 301 621 Q279 607 261 588.5 Q243 570 226 548 Q203 518 183 486.5 Q163 455 143 423 Q113 374 84.5 325 Q56 276 30 225 Q13 193 -3.5 160 Q-20 127 -35 93 Q-49 63 -59 33.5 Q-69 4 -76 -26 Q-83 -57 -85.5 -86.5 Q-88 -116 -83 -144 Q-81 -158 -76 -171 Q-71 -184 -63 -194 Q-51 -208 -29 -210 Q1 -210 36 -194 Q60 -183 82.5 -169.5 Q105 -156 128 -139 Q175 -104 217.5 -64 Q260 -24 300 21 Q347 73 387.5 128 Q428 183 466 242 Q493 285 518 328.5 Q543 372 566 417 Q594 473 613 527 Q622 554 629 581 Q636 608 639 634 Q641 651 640 666 Q639 681 634 695 Q624 722 594 725 Q577 727 559 722.5 Q541 718 522 709 Q500 698 480.5 683.5 Q461 669 441 651 Q424 636 408.5 619.5 Q393 603 379 584 Q365 566 353.5 547 Q342 528 333 507 Q326 490 322.5 474 Q319 458 321 443 Q325 407 360 405 Q379 404 398 411 Q417 418 437 431 Q496 472 531 537 Q539 551 544 566 Q549 581 549 595 Q549 636 514 641 Q482 645 449 612 Q436 599 427.5 585 Q419 571 413 554 Q407 536 410 519 Q413 503 429 506 Q454 509 481 528 Q494 538 503 553 Q504 555 505 556.5 Q506 558 507 560 Q513 579 500 583 Q483 590 461 578 Q456 576 455 579 Q453 582 457 586 Q465 592 469 593 Q499 604 515 585 Q520 579 522.5 571 Q525 563 521 552 Q515 537 502 524 Q474 496 440 490 Q423 487 412 495 Q401 503 397 520 Q391 544 406 576 Q421 611 450 635 Q481 660 511 656 Q539 653 554 627 Q569 601 563 567 Q557 538 538 507 Q520 475 496.5 450 Q473 425 443 408 Q408 387 376 386 Q360 385 346 391 Q332 397 322.5 408 Q313 419 308.5 436 Q304 453 307 474 Q310 494 317.5 512.5 Q325 531 336 550 Q350 574 367 595.5 Q384 617 403 637 Q422 658 442.5 676.5 Q463 695 486 709 Q526 736 572 744 Q626 751 648 703 Q656 685 658.5 664.5 Q661 644 659 621 Q657 603 654 585 Q651 567 646 548 Q644 542 642.5 536.5 Q641 531 639 525 Z " />
<glyph glyph-name="P" unicode="P" horiz-adv-x="842" d="M99 -234 Q96 -231 98 -227 Q101 -217 105.5 -208 Q110 -199 115 -189 Q138 -146 162 -103.5 Q186 -61 209 -18 Q213 -11 217 -4.5 Q221 2 225 10 Q223 10 222 9.5 Q221 9 219 9 Q199 5 179.5 2.5 Q160 0 140 -1 Q125 -2 111.5 -1.5 Q98 -1 85 3 Q69 9 62 23 Q56 39 67 56 Q69 59 71.5 61 Q74 63 76 65 Q79 68 82 66 Q88 62 82 53 Q78 48 75 40 Q69 26 81 22 Q92 18 109 18 Q122 18 135.5 19 Q149 20 163 22 Q180 25 198 28 Q216 31 233 35 Q240 36 244 42 Q279 105 314.5 167 Q350 229 386 292 Q418 349 451 405 Q484 461 516 518 Q531 543 545 570 Q547 574 549 577 Q551 580 553 583 Q554 585 558 589 Q564 587 562 580 Q557 571 553.5 562 Q550 553 546 544 Q526 501 502 459 Q478 417 454 375 Q406 293 359 212 Q312 131 264 49 Q263 47 262 45 Q261 43 260 41 Q262 42 264.5 42 Q267 42 269 43 Q314 54 359 67 Q404 80 449 96 Q502 115 552 141 Q602 167 652 199 Q691 225 727.5 254.5 Q764 284 798 318 Q821 341 840.5 365.5 Q860 390 876 416 Q899 453 909 487 Q933 566 898 620 Q884 642 865 658 Q846 674 823 687 Q799 700 772.5 708 Q746 716 717 721 Q662 729 609 726 Q450 718 291 630 Q241 602 197.5 567 Q154 532 117 487 Q73 436 49 384 Q39 364 33 344 Q27 324 27 304 Q27 299 27 295 Q27 291 28 286 Q35 250 74 244 Q95 241 116.5 245 Q138 249 160 257 Q183 265 204.5 276 Q226 287 247 301 Q317 345 373 404 Q387 418 398.5 433 Q410 448 419 465 Q428 481 431 499 Q434 522 422 537 Q406 559 372 561 Q343 563 314 554.5 Q285 546 256 526 Q237 513 222.5 498.5 Q208 484 197 465 Q195 460 193 455 Q191 450 190 445 Q187 427 200 420 Q214 413 234 416 Q284 422 328 460 Q339 470 349 483 Q351 488 353 492 Q355 496 356 501 Q359 514 348 519 Q345 520 339 520 Q319 520 299 506 Q291 500 292 495 Q292 494 291 493 Q288 494 287.5 496 Q287 498 286 500 Q284 505 289 510 L295 516 Q321 534 344 530 Q361 527 366 511.5 Q371 496 360 477 Q349 460 333 448 Q291 412 245 405 Q216 400 198 410 Q177 423 180 446 Q182 462 191 476 Q219 522 268 548 Q323 576 375 572 Q413 569 431 541 Q455 507 430 458 Q422 441 411 426 Q400 411 387 397 Q343 349 293.5 312.5 Q244 276 187 251 Q151 234 115 230 Q101 228 87 228.5 Q73 229 61 234 Q19 250 16 295 Q14 311 17.5 327 Q21 343 27 360 Q31 372 36 383.5 Q41 395 47 406 Q100 509 201 587 Q242 618 284.5 642 Q327 666 372 686 Q452 720 535 734 Q553 737 570 739 Q587 741 604 742 Q644 745 683 742 Q725 738 764 729 Q803 720 838 701 Q866 686 887 664.5 Q908 643 921 614 Q943 561 930 497 Q922 455 902 415.5 Q882 376 853 338 Q829 307 801.5 279.5 Q774 252 744 227 Q682 176 616 139.5 Q550 103 480 79 Q422 59 364.5 43 Q307 27 250 15 Q248 15 247 14.5 Q246 14 244 14 Q240 7 236.5 1 Q233 -5 229 -12 Q205 -54 181 -96 Q157 -138 133 -181 Q119 -205 108 -228 Q107 -230 103 -234 L99 -234 Z " />
<glyph glyph-name="Q" unicode="Q" horiz-adv-x="670" d="M731 601 Q733 577 730 553 Q727 529 722 504 Q711 454 692.5 407.5 Q674 361 651 314 Q545 100 383 -56 Q369 -69 354.5 -81 Q340 -93 326 -106 Q324 -107 323 -108 Q322 -109 320 -111 Q322 -112 323 -113 Q324 -114 325 -115 Q389 -161 465 -177 Q483 -181 501 -182.5 Q519 -184 538 -186 Q564 -188 589 -189 Q614 -190 640 -190 Q640 -194 637 -198 Q635 -201 630.5 -203.5 Q626 -206 618 -207 L580 -207 L563 -207 Q558 -207 552.5 -206.5 Q547 -206 542 -206 Q537 -206 533 -205.5 Q529 -205 524 -205 Q455 -200 409 -182.5 Q363 -165 337 -149 Q329 -144 322 -138.5 Q315 -133 308 -128 Q306 -127 303 -124 Q301 -126 300 -126.5 Q299 -127 297 -129 Q260 -157 222.5 -179 Q185 -201 145 -217 Q101 -234 60 -240 Q34 -243 9.5 -240.5 Q-15 -238 -38 -226 Q-67 -212 -84 -187 Q-98 -167 -103.5 -142 Q-109 -117 -108 -89 Q-107 -52 -97.5 -16 Q-88 20 -72 55 Q-56 90 -35.5 121.5 Q-15 153 8 182 Q41 223 76 259 Q80 263 83.5 266.5 Q87 270 91 275 Q93 277 95 278.5 Q97 280 99 282 Q108 288 115 284 Q124 277 127 267 Q129 260 131 253.5 Q133 247 135 239 Q137 228 139 216 Q141 204 144 192 Q153 150 167.5 112.5 Q182 75 200 40 Q215 12 231.5 -13 Q248 -38 268 -61 Q274 -68 280 -74.5 Q286 -81 292 -87 Q294 -89 294.5 -89 Q295 -89 296 -91 Q300 -87 302 -86 Q394 -6 471 97 Q522 163 566 234 Q610 305 646 383 Q659 412 670.5 441 Q682 470 692 500 Q698 519 703 537.5 Q708 556 710 575 Q712 587 712 599 Q712 611 711 623 Q707 666 677 691 Q655 709 623 715 Q597 720 570.5 719 Q544 718 517 712 Q479 704 442 689.5 Q405 675 368 653 Q308 619 261 568 Q235 542 215.5 511.5 Q196 481 182 446 Q174 425 169 403.5 Q164 382 165 360 Q167 340 173 324 Q179 308 193 297 Q207 286 226 284 Q249 281 272 286 Q295 291 318 302 Q428 353 492 474 Q506 501 514 534 Q519 558 516 579 Q510 623 471 631 Q419 640 373 593 Q338 555 341 505 Q343 471 368 465 Q381 462 394 466 Q437 478 466 520 Q478 537 482 553 Q487 577 479 593 Q474 604 463 608 Q452 612 441 607 Q440 606 439 606 Q438 606 437 604 Q434 601 432 604 Q428 607 432 611 Q434 615 439 617 Q450 622 462 619 Q480 614 492.5 593 Q505 572 498 543 Q495 529 487 514 Q470 483 440 464 Q410 445 382 447 Q368 448 356 455.5 Q344 463 336 475.5 Q328 488 325.5 506 Q323 524 328 546 Q340 593 374 621 Q403 646 437.5 650.5 Q472 655 497 636 Q536 608 537 553 Q537 521 523 487 Q510 453 491 424 Q472 395 448 370 Q375 295 289 273 Q248 262 215 272 Q189 280 173 299.5 Q157 319 152 352 Q150 369 151.5 386.5 Q153 404 158 422 Q169 466 190 503.5 Q211 541 240 573 Q263 599 289 620.5 Q315 642 342 660 Q380 685 419 702.5 Q458 720 499 730 Q526 737 553 739.5 Q580 742 606 739 Q637 736 663 723 Q725 689 731 601 Z M276 -107 Q278 -106 280 -104 Q274 -98 272 -95 Q269 -93 263 -87 Q237 -58 215 -24.5 Q193 9 174 46 Q151 91 135.5 140 Q120 189 113 245 Q113 248 112.5 251 Q112 254 111 258 Q109 257 107 255 Q98 245 89 236 Q80 227 71 218 Q51 197 33.5 175.5 Q16 154 -1 131 Q-28 93 -48.5 52 Q-69 11 -81 -34 Q-92 -78 -89 -118 Q-83 -188 -33 -211 Q-15 -219 4 -220.5 Q23 -222 43 -220 Q64 -218 85 -211.5 Q106 -205 128 -197 Q167 -181 204 -158.5 Q241 -136 276 -107 Z " />
<glyph glyph-name="R" unicode="R" horiz-adv-x="575" d="M-70 -229 Q-65 -219 -61 -209.5 Q-57 -200 -52 -190 Q-32 -149 -12 -108.5 Q8 -68 28 -27 Q57 31 86.5 89 Q116 147 145 206 Q147 208 147 211 Q146 212 145.5 213 Q145 214 143 215 Q124 231 135 255 Q142 270 150 281 Q161 297 173 312.5 Q185 328 197 344 Q223 376 248.5 409 Q274 442 298 476 Q308 490 317 504 Q326 518 335 532 Q340 539 344 545 Q348 551 353 558 Q360 565 367 560 L371 556 Q377 548 373 540 L364 522 Q334 468 303.5 413.5 Q273 359 243 304 Q225 270 203 233 Q202 231 202 230 Q202 229 200 227 Q202 227 203.5 227.5 Q205 228 207 228 Q221 233 235.5 238 Q250 243 264 248 Q305 264 344 282.5 Q383 301 421 324 Q454 344 484.5 367.5 Q515 391 543 420 Q560 437 574 456 Q588 475 599 497 Q604 508 608.5 519.5 Q613 531 616 543 Q625 588 601 623 Q590 638 577 649.5 Q564 661 549 671 Q513 694 471 706 Q456 711 441.5 714 Q427 717 412 720 Q369 727 326 726 Q283 725 238 718 Q193 710 149 696.5 Q105 683 63 661 Q37 647 12.5 630.5 Q-12 614 -35 593 Q-67 564 -86 528 Q-102 498 -103 468 Q-105 438 -91.5 416.5 Q-78 395 -52 385 Q-35 378 -17 377 Q1 376 19 379 Q128 396 203 487 Q222 511 232 538 Q238 556 237 571 Q237 601 216 619 Q206 627 195 631.5 Q184 636 171 638 Q125 644 83 624 Q40 604 19 562 Q15 555 12.5 548 Q10 541 9 533 Q6 496 38 490 Q50 488 63 490 Q104 498 135 527 Q144 536 150 546 Q156 556 158 570 Q158 574 158 578 Q158 582 157 586 Q155 599 145 605 Q135 611 123 607 Q120 606 118 610 Q119 612 120.5 612.5 Q122 613 124 614 Q146 616 159 600 Q177 574 163 539 Q159 531 153 524 Q147 517 140 511 Q103 478 61 477 Q36 475 18 489 Q4 499 -0.5 515 Q-5 531 1 550 Q13 588 44 613 Q64 630 86.5 638.5 Q109 647 134 649 Q150 650 165.5 648 Q181 646 196 640 Q203 637 209.5 633 Q216 629 222 624 Q242 606 247.5 579 Q253 552 242 524 Q229 491 208 468 Q126 374 11 366 Q-30 363 -65 382 Q-88 395 -101 417 Q-118 447 -114 481 Q-112 502 -104.5 521 Q-97 540 -85 557 Q-72 576 -56.5 591.5 Q-41 607 -24 621 Q11 650 49 670.5 Q87 691 129 705 Q223 738 321 741 Q350 742 378 740 Q406 738 435 733 Q470 726 503 714 Q536 702 565 681 Q600 656 620 621 Q644 579 641 528 Q637 487 615 450 Q602 427 586 409 Q570 391 551 374 Q508 335 455 304 Q405 275 355 253 Q305 231 251 216 Q238 212 226 209.5 Q214 207 200 205 L199 205 Q198 205 198 204.5 Q198 204 197 204 Q198 203 198.5 202 Q199 201 200 200 Q207 188 210 176 Q212 167 214.5 158 Q217 149 219 141 Q241 46 297 -29 Q326 -67 356.5 -101.5 Q387 -136 422 -167 Q451 -193 482 -207 Q515 -222 551 -207 L552 -207 Q554 -206 556.5 -205 Q559 -204 561 -206 Q562 -209 562 -217 Q562 -218 560.5 -219 Q559 -220 558 -221 Q552 -224 546 -225.5 Q540 -227 533 -229 Q519 -231 506 -228.5 Q493 -226 480 -220 Q460 -212 443.5 -200 Q427 -188 410 -174 Q377 -145 348 -113.5 Q319 -82 291 -47 Q267 -17 246 16 Q209 79 194 155 Q192 164 190.5 172.5 Q189 181 187 189 Q185 195 184 199 Q122 92 66.5 -16 Q11 -124 -46 -233 Q-52 -231 -58 -230.5 Q-64 -230 -70 -229 Z M218 343 Q216 341 216 341 L177 290 Q170 280 164.5 270 Q159 260 154 249 Q149 239 149 230 Q149 224 153 223 Q169 253 185 283 Q201 313 218 343 Z " />
<glyph glyph-name="S" unicode="S" horiz-adv-x="651" d="M170 91 Q166 89 165 89 Q125 78 97 42 Q82 22 70.5 1 Q59 -20 50 -43 Q42 -63 36 -83 Q30 -103 27 -123 Q24 -144 30 -164 Q37 -191 62 -206 Q86 -222 117 -224 Q209 -231 292 -167 Q324 -141 342 -107 Q356 -82 359 -58 Q362 -34 357 -9 Q352 13 344.5 32.5 Q337 52 326 71 Q299 120 258 162 Q218 204 176 244 Q160 260 145 276 Q130 292 116 310 Q95 337 84 364 Q79 377 76 390.5 Q73 404 73 419 Q73 455 92 493 Q102 513 115 530.5 Q128 548 143 564 Q172 594 204.5 618 Q237 642 272 662 Q370 717 478 735 Q525 743 570 741 Q604 739 635.5 732 Q667 725 695 708 Q717 696 734.5 679.5 Q752 663 764 640 Q772 624 777 607 Q782 590 781 570 Q780 551 776 532.5 Q772 514 762 496 Q737 452 703.5 419.5 Q670 387 625 367 Q590 350 553 352 Q511 355 483.5 384 Q456 413 454 453 Q453 472 460 488.5 Q467 505 478 517 Q489 529 502.5 537 Q516 545 529 548 Q547 551 561.5 544 Q576 537 583 521 Q594 496 573 470 Q563 458 549.5 454 Q536 450 525 453 Q512 456 508 468 Q505 473 509 482 Q513 489 516 484 Q517 483 517 479 L517 474 Q516 466 523 465 Q535 464 545 471 Q560 479 570 498 Q576 511 571.5 520 Q567 529 554 531 Q542 532 530 528 Q489 513 474 470 Q471 462 470.5 453 Q470 444 471 436 Q478 395 518 381 Q544 371 576 379 Q599 383 623 396 Q690 432 735 495 Q745 509 752 524 Q759 539 762 556 Q772 611 742 650 Q724 673 696 688 Q674 701 650.5 708 Q627 715 601 717 Q559 721 518 716 Q477 711 435 699 Q381 683 331.5 659.5 Q282 636 235 602 Q213 586 193 569 Q173 552 156 532 Q126 499 108 459 Q89 412 104 368 Q109 355 115 344.5 Q121 334 129 323 Q142 306 156.5 290 Q171 274 186 259 Q226 220 265 180 Q290 154 311 127 Q332 100 349 69 Q360 49 368 28.5 Q376 8 381 -15 Q386 -44 383 -72 Q379 -106 357 -138 Q336 -169 301 -193 Q248 -228 191 -238 Q167 -243 144.5 -242.5 Q122 -242 99 -235 Q62 -225 39 -201 Q13 -175 14 -138 Q14 -130 15 -122 Q16 -114 18 -106 Q30 -57 54 -8 Q63 10 74 27 Q85 44 99 59 Q127 87 160 94 Q165 96 166.5 95 Q168 94 170 91 Z " />
<glyph glyph-name="T" unicode="T" horiz-adv-x="425" d="M1014 673 Q1022 648 1002 628 Q996 622 989 618 Q981 612 971.5 607.5 Q962 603 953 600 Q931 592 909.5 587 Q888 582 866 579 Q845 576 824 575 Q803 574 782 575 Q765 576 747.5 576.5 Q730 577 713 579 Q696 581 678.5 583 Q661 585 644 587 Q630 589 615 591.5 Q600 594 586 597 Q575 599 563.5 601.5 Q552 604 541 606 Q535 607 531 602 Q505 575 482.5 544.5 Q460 514 440 481 Q423 452 407.5 422.5 Q392 393 376 363 Q353 316 329 270.5 Q305 225 282 178 L270 155 Q324 170 340 174 Q339 171 337 167.5 Q335 164 330 162 Q314 158 299 154 Q284 150 268 145 Q264 143 261 137 Q260 135 259.5 134.5 Q259 134 258 132 L257 131 Q243 104 228.5 78 Q214 52 199 26 Q178 -9 155 -42 Q132 -75 106 -105 Q87 -126 67.5 -145.5 Q48 -165 26 -181 Q4 -198 -18 -208.5 Q-40 -219 -64 -224 Q-82 -228 -103 -225 Q-130 -220 -147 -197 Q-164 -174 -159 -130 Q-157 -119 -155.5 -110 Q-154 -101 -151 -91 Q-142 -64 -124.5 -41.5 Q-107 -19 -88.5 -2.5 Q-70 14 -53 24.5 Q-36 35 -28 40 Q30 72 99 98 Q168 124 226 142 L249 184 Q270 224 291.5 264 Q313 304 334 345 Q354 382 373 418 Q392 454 414 489 Q434 522 456 552 Q478 582 504 610 L506 612 Q507 613 507 614 Q506 615 505 615 Q504 615 503 616 L455 628 Q438 633 421.5 637 Q405 641 388 646 Q374 650 360 654 Q346 658 332 661 L266 676 Q225 684 176 686 Q146 688 115.5 684 Q85 680 53 669 Q33 662 14.5 652.5 Q-4 643 -21 629 Q-44 611 -60.5 587.5 Q-77 564 -90 537 Q-109 499 -112 463 Q-114 439 -110.5 418 Q-107 397 -96 380 Q-82 360 -61 356 Q-47 354 -33.5 355 Q-20 356 -6 360 Q30 370 63.5 388.5 Q97 407 127 437 Q141 451 152.5 466 Q164 481 173 500 Q181 516 184 533 Q191 573 161 591 Q142 603 114 597 Q64 588 29 545 Q-3 507 -6 456 Q-6 449 -4 439 Q2 411 29 409 Q42 408 55 413.5 Q68 419 80 428 Q92 437 101.5 449 Q111 461 117 473 Q128 498 125 520 Q123 531 120 540 Q117 549 111 557 Q109 559 106.5 561 Q104 563 102 565 Q101 567 98 570 Q103 572 108 569 Q111 567 116 562 Q128 547 134 526 Q146 483 115 441 Q84 400 43 396 Q18 394 0.5 410.5 Q-17 427 -16 461 Q-15 469 -14 477.5 Q-13 486 -10 495 Q2 541 39 572 Q78 607 120 611 Q171 617 193 570 Q206 539 191 499 Q182 476 168 456.5 Q154 437 137 420 Q66 352 -19 338 Q-62 332 -89 356 Q-132 395 -126 466 Q-124 492 -115.5 516 Q-107 540 -94 563 Q-71 608 -38.5 637 Q-6 666 35 683 Q61 693 85.5 698.5 Q110 704 136 706 Q153 707 170 707 Q187 707 204 705 Q233 703 261.5 698.5 Q290 694 319 688 Q333 685 347.5 681.5 Q362 678 376 675 Q395 670 413.5 665 Q432 660 452 655 Q460 653 467 651.5 Q474 650 482 648 Q493 646 504 643 Q515 640 526 638 Q530 637 536 641 Q575 679 624 704 Q655 720 685.5 728.5 Q716 737 747 741 Q767 743 786 744 Q805 745 824 743 Q871 740 916 728 Q927 725 937.5 722 Q948 719 959 716 Q980 708 997 695 Q1002 690 1006.5 685.5 Q1011 681 1014 673 Z M219 128 L218 128 L200 122 Q178 114 156.5 106.5 Q135 99 112 91 Q84 80 57 69 Q30 58 3 44 Q-17 34 -35.5 22.5 Q-54 11 -71 -5 Q-98 -30 -116 -60 Q-134 -90 -141 -128 Q-146 -155 -140 -176 Q-135 -195 -122 -200 Q-115 -204 -108 -205 Q-101 -206 -93 -206 Q-78 -205 -63 -201 Q-48 -197 -33 -190 Q-13 -180 5.5 -166 Q24 -152 41 -135 Q64 -114 83.5 -89 Q103 -64 121 -38 Q145 -3 166.5 34 Q188 71 208 109 L219 128 Z M1002 650 Q1011 660 1004 670 Q1001 675 997 678 Q993 681 988 684 Q973 693 957 698.5 Q941 704 924 709 Q901 714 878 717.5 Q855 721 832 723 Q810 724 788.5 723 Q767 722 744 718 Q705 712 667 697.5 Q629 683 592 657 Q584 651 576 644.5 Q568 638 560 632 Q561 631 562 631 L562 630 Q568 628 574 627 Q580 626 586 625 Q618 618 651 613 Q684 608 719 606 Q740 603 762 603 Q779 602 795.5 602.5 Q812 603 829 603 Q853 605 877.5 607.5 Q902 610 928 616 Q942 620 956 624.5 Q970 629 984 637 Q994 642 1002 650 Z " />
<glyph glyph-name="U" unicode="U" horiz-adv-x="712" d="M797 636 Q805 634 807.5 627.5 Q810 621 808 612 Q805 601 800.5 591.5 Q796 582 791 572 Q774 537 755 503 Q736 469 717 434 Q688 381 659.5 328.5 Q631 276 605 222 Q588 187 571.5 152.5 Q555 118 541 83 Q529 55 518.5 27.5 Q508 0 500 -28 Q492 -54 485.5 -79.5 Q479 -105 477 -131 Q474 -159 478 -180 Q480 -188 482 -193 Q486 -208 497 -212.5 Q508 -217 520.5 -216 Q533 -215 546.5 -210 Q560 -205 571 -200 Q572 -203 571 -206 Q569 -212 562 -215 Q558 -217 557 -218 Q542 -224 528 -227 Q516 -229 502 -229 Q488 -229 477 -223 Q473 -221 467 -215 Q467 -215 466 -214 Q456 -205 452 -188 Q442 -157 447 -114 Q449 -94 452.5 -74.5 Q456 -55 461 -35 Q471 2 484 38.5 Q497 75 512 113 Q525 142 538 170 Q551 198 565 227 Q565 229 566 229 Q565 229 565 230 Q562 224 558 220 Q518 163 475.5 109 Q433 55 385 4 Q346 -38 305 -74.5 Q264 -111 219 -143 Q196 -160 171.5 -173.5 Q147 -187 122 -197 Q108 -202 94.5 -205.5 Q81 -209 67 -209 Q11 -209 -4 -154 Q-9 -138 -9 -120 Q-9 -102 -7 -82 Q-3 -55 4.5 -27.5 Q12 0 23 29 Q41 77 65 122 Q89 167 117 212 Q154 272 194 328.5 Q234 385 276 441 Q311 489 347 534 Q383 579 422 622 Q440 642 458 660.5 Q476 679 494 699 Q496 701 497 702.5 Q498 704 500 706 Q493 704 487 703 Q481 702 475 700 Q322 661 166 607 Q133 596 100 582.5 Q67 569 34 551 Q3 534 -27 514.5 Q-57 495 -86 470 Q-109 450 -129.5 427.5 Q-150 405 -167 379 Q-182 356 -190.5 333.5 Q-199 311 -203 288 Q-210 233 -172 215 Q-136 198 -90 213 Q-15 236 53 295 Q72 312 88.5 331 Q105 350 119 373 Q150 425 137 469 Q128 495 102 495 Q82 496 63 488 Q44 480 24 466 Q10 456 -2 444.5 Q-14 433 -24 417 Q-39 396 -40 376 Q-41 362 -33 350 Q-25 338 -8 340 Q-2 340 1 342 Q35 357 55 392 Q63 408 59 421 Q58 430 48 428 Q37 427 24 417 Q19 415 18 416 Q14 418 19 423 Q20 425 24 427 Q48 443 63 434 Q81 422 74 395 Q73 390 71 386.5 Q69 383 67 379 Q54 358 32 342 Q10 326 -11 328 Q-41 330 -52 360 Q-59 387 -39 421 Q-26 443 -6 460 Q15 480 37.5 492.5 Q60 505 83 508 Q142 516 157 461 Q161 446 160.5 429 Q160 412 154 394 Q145 369 129 347 Q92 295 45 261 Q11 237 -22.5 220.5 Q-56 204 -90 196 Q-153 181 -193 212 Q-213 226 -218 249.5 Q-223 273 -215 305 Q-199 369 -151 426 Q-131 450 -108.5 470 Q-86 490 -62 508 Q-20 539 22 562 Q64 585 108 603 Q146 619 184.5 632 Q223 645 261 658 Q306 673 350 686 Q394 699 439 712 Q458 718 477 724 Q496 730 515 736 Q518 738 521 738.5 Q524 739 527 741 Q536 744 540 739 Q542 737 543.5 734.5 Q545 732 547 730 Q550 721 543 711 Q539 707 536 703 Q533 699 530 695 Q512 675 494.5 656 Q477 637 459 617 Q423 576 389 533.5 Q355 491 322 447 Q239 338 168 226 Q144 188 121.5 149.5 Q99 111 79 70 Q67 46 56 21.5 Q45 -3 37 -28 Q18 -86 21 -133 Q22 -144 23.5 -152.5 Q25 -161 30 -169 Q43 -194 75 -189 Q92 -187 108 -180 Q124 -173 141 -165 Q165 -152 188.5 -136 Q212 -120 235 -103 Q289 -61 338 -12.5 Q387 36 433 90 Q472 137 508 185 Q544 233 578 283 Q615 337 649.5 392 Q684 447 716 504 Q732 531 747 558.5 Q762 586 777 614 Q779 618 781.5 621.5 Q784 625 787 629 Q790 636 797 636 Z " />
<glyph glyph-name="V" unicode="V" horiz-adv-x="752" d="M1010 742 Q1004 732 998 722 Q992 712 985 702 Q950 650 913.5 599.5 Q877 549 840 498 Q822 473 804.5 448 Q787 423 767 398 Q721 338 671.5 280.5 Q622 223 567 169 Q530 131 490.5 97 Q451 63 409 33 Q360 -2 310 -30.5 Q260 -59 208 -79 Q174 -92 140.5 -100.5 Q107 -109 75 -113 Q67 -115 62 -120 Q33 -145 4 -166 Q-25 -187 -57 -203 Q-77 -213 -95.5 -219 Q-114 -225 -132 -227 Q-158 -230 -175.5 -222.5 Q-193 -215 -204 -198 Q-206 -193 -208 -187.5 Q-210 -182 -210 -176 Q-209 -161 -200.5 -148.5 Q-192 -136 -175 -128 Q-156 -118 -134 -115 Q-115 -111 -97 -109.5 Q-79 -108 -61 -106 L41 -97 Q48 -95 52 -91 Q78 -66 101 -40 Q124 -14 146 13 Q172 46 196.5 79.5 Q221 113 243 148 Q265 182 285 217 Q315 268 342.5 319.5 Q370 371 397 423 Q417 459 436.5 495 Q456 531 478 566 Q494 593 510 620 Q526 647 543 673 L558 703 Q559 704 559 706 Q563 714 555 714 Q550 714 545 714 Q540 714 535 713 Q520 711 504 706.5 Q488 702 472 697 Q406 677 340.5 659.5 Q275 642 209 624 Q175 614 141.5 604.5 Q108 595 74 583 Q43 572 12.5 558.5 Q-18 545 -49 527 Q-69 516 -87.5 503 Q-106 490 -123 474 Q-176 426 -198.5 373 Q-221 320 -211 273 Q-200 222 -155 207 Q-96 186 -17 232 Q21 254 52 285 Q84 317 97 350 Q110 383 102 413 Q97 430 87.5 442 Q78 454 61 460 Q45 466 26.5 464 Q8 462 -11 454 Q-30 446 -48.5 431.5 Q-67 417 -82 398 Q-94 383 -102.5 367 Q-111 351 -115 334 Q-117 324 -117.5 315.5 Q-118 307 -114 299 Q-101 271 -65 283 Q-25 296 6 335 Q15 346 19 360 Q27 388 4 395 Q-17 400 -39 390 Q-41 389 -43.5 388 Q-46 387 -48 386 Q-53 382 -55 385 Q-57 391 -52 393 Q-49 396 -41 400 Q-26 406 -13 406 Q1 406 10.5 402.5 Q20 399 26 389 Q34 376 30 358.5 Q26 341 12 324 Q-17 288 -56 274 Q-89 263 -109 278 Q-136 299 -124 342 Q-112 387 -77 423 Q-29 472 28 477 Q48 479 63 473.5 Q78 468 89 457 Q115 433 119 395 Q120 379 116.5 362.5 Q113 346 104 328 Q89 296 62 271 Q-10 199 -95 188 Q-134 183 -161.5 195.5 Q-189 208 -206 234 Q-240 284 -216 363 Q-208 389 -192.5 413 Q-177 437 -156 460 Q-133 486 -106 506.5 Q-79 527 -50 544 Q-19 561 12 575 Q43 589 74 600 Q110 614 146 624.5 Q182 635 218 644 Q287 661 354 680 Q421 699 490 720 Q501 723 511 726 Q521 729 532 731 Q545 735 557 734 Q571 732 576 720 Q581 708 575 691 Q570 679 564.5 667.5 Q559 656 552 644 Q540 624 528 604 Q516 584 505 564 Q491 538 476 512.5 Q461 487 447 461 Q421 412 395.5 363.5 Q370 315 344 266 Q315 212 283.5 158.5 Q252 105 214 53 Q189 18 161 -16 Q133 -50 102 -82 Q101 -83 100 -83.5 Q99 -84 98 -86 Q98 -87 97 -88 Q99 -87 100.5 -87 Q102 -87 104 -86 Q176 -70 245.5 -36.5 Q315 -3 384 47 Q423 76 459.5 107.5 Q496 139 531 172 Q577 215 619 260.5 Q661 306 701 354 Q756 419 807 484.5 Q858 550 907 619 Q929 649 950.5 679.5 Q972 710 994 741 Q994 742 996 744 Q1000 743 1003 743 Q1006 743 1010 742 Z M20 -119 Q17 -120 14 -120 Q6 -120 -1 -120.5 Q-8 -121 -16 -122 Q-38 -124 -59 -125 Q-80 -126 -101 -128 Q-113 -129 -124.5 -130.5 Q-136 -132 -149 -136 Q-158 -139 -171 -145 Q-186 -154 -191 -170 Q-194 -180 -190 -191 Q-180 -210 -152 -210 Q-139 -209 -126 -205 Q-113 -201 -99 -196 Q-68 -183 -39 -164.5 Q-10 -146 17 -123 Q19 -121 20 -119 Z " />
<glyph glyph-name="W" unicode="W" horiz-adv-x="1217" d="M1248 652 Q1253 632 1254.5 611 Q1256 590 1255 567 Q1254 541 1251 515 Q1248 489 1241 463 Q1240 460 1240 456.5 Q1240 453 1239 450 Q1237 439 1234 429.5 Q1231 420 1229 409 L1226 400 Q1217 363 1204 327 Q1191 291 1175 255 Q1149 195 1118 137 Q1087 79 1050 23 Q1037 3 1023 -16.5 Q1009 -36 994 -55 Q993 -56 989 -61 Q985 -66 980 -72 Q975 -78 969.5 -85 Q964 -92 960 -97 Q941 -118 921.5 -138 Q902 -158 881 -176 Q861 -193 840 -207 Q819 -221 796 -230 Q754 -247 715 -236.5 Q676 -226 658 -191 Q649 -175 645 -156 Q641 -137 639 -116 Q637 -93 638.5 -70.5 Q640 -48 644 -25 Q649 15 659 54.5 Q669 94 682 134 Q697 181 715 226.5 Q733 272 752 318 Q754 325 756.5 331 Q759 337 761 343 L755 334 Q712 267 667.5 202 Q623 137 575 74 Q519 0 460 -65 Q448 -77 436 -88.5 Q424 -100 410 -111 Q389 -128 367 -135 Q347 -140 328.5 -132 Q310 -124 305 -100 Q300 -80 303 -53 Q305 -30 310 -6.5 Q315 17 323 41 Q346 117 378.5 190.5 Q411 264 449 337 Q487 408 526.5 476 Q566 544 608 613 Q619 633 631 653 Q643 673 655 693 Q659 699 662.5 706 Q666 713 670 720 Q666 721 662 719 Q651 714 640 709.5 Q629 705 618 700 Q537 658 456 616 Q375 574 294 528 Q262 510 231.5 490.5 Q201 471 171 448 Q148 431 127.5 412.5 Q107 394 87 371 Q50 328 29 276 Q10 227 20 189 Q30 149 68 143 Q87 141 107 144.5 Q127 148 147 156 Q171 165 193.5 178.5 Q216 192 239 209 Q276 238 308.5 272.5 Q341 307 370 349 Q379 362 387 376 Q395 390 401 405 Q412 438 397 459 Q383 476 358 479 Q323 483 285 460 Q247 437 219 397 Q209 383 201.5 368 Q194 353 190 336 Q188 330 188 326 Q183 290 213 287 Q235 285 255 301 Q288 326 302 363 Q305 371 307 378.5 Q309 386 307 393 Q304 405 293 402 Q290 402 284 398 Q280 398 282 403 Q285 406 287 407 Q295 412 305 408 Q314 404 317.5 393.5 Q321 383 318 369 Q315 350 302 330 Q274 288 236 279 Q204 271 186 293 Q170 312 181 345 Q210 430 285 473 Q339 504 382 483 Q393 477 403 466 Q431 435 407 382 Q399 367 391 353 Q383 339 372 326 Q296 224 200 168 Q141 132 85 132 Q72 132 60.5 134.5 Q49 137 39 144 Q0 170 6 234 Q9 257 17.5 278 Q26 299 37 320 Q53 351 73.5 376.5 Q94 402 118 425 Q141 446 165 464 Q189 482 214 499 Q256 527 298 551.5 Q340 576 382 599 Q432 625 481 650.5 Q530 676 580 702 Q596 710 612 718.5 Q628 727 644 735 Q649 737 654 739 Q659 741 664 743 Q681 748 688.5 736 Q696 724 689 705 Q685 696 681.5 687 Q678 678 673 670 Q658 642 642.5 614.5 Q627 587 611 560 Q580 506 549 452 Q518 398 489 342 Q461 288 435.5 234.5 Q410 181 387 125 Q375 96 364 66 Q353 36 345 6 Q332 -36 331 -72 Q331 -80 331.5 -87.5 Q332 -95 334 -102 Q341 -125 364 -114 Q381 -107 399 -92 Q416 -78 432 -62.5 Q448 -47 464 -30 Q501 11 535 54 Q569 97 602 142 Q636 188 667 235.5 Q698 283 729 331 Q741 351 753.5 370 Q766 389 779 408 Q781 411 783.5 414 Q786 417 788 421 Q794 427 800 426 Q806 424 808 422 Q815 416 811 406 Q808 398 805.5 389.5 Q803 381 799 373 Q785 337 771 301 Q757 265 743 230 Q727 187 713 144.5 Q699 102 688 59 Q678 20 672 -18.5 Q666 -57 665 -95 Q665 -111 666 -126 Q667 -141 670 -155 Q675 -178 686 -195 Q711 -229 759 -220 Q773 -217 787.5 -210.5 Q802 -204 817 -195 Q837 -182 855 -166.5 Q873 -151 891 -134 Q907 -119 922 -102.5 Q937 -86 952 -69 L953 -68 Q955 -66 959 -61 Q963 -56 967 -51 Q970 -48 971 -46 Q980 -35 989 -23.5 Q998 -12 1006 0 Q1041 48 1071 99.5 Q1101 151 1127 205 Q1153 258 1174 311.5 Q1195 365 1209 419 Q1220 458 1226.5 496.5 Q1233 535 1235 573 Q1238 616 1230 648 Q1227 667 1219 678 Q1215 684 1212 686 Q1204 691 1194 689.5 Q1184 688 1174 682 Q1164 676 1153.5 667 Q1143 658 1133 648 Q1110 623 1086 590 Q1075 574 1067 557.5 Q1059 541 1051 524 Q1028 471 1012 415 Q996 359 986 302 Q973 227 967.5 151 Q962 75 958 -1 Q950 5 949 14.5 Q948 24 948 34 Q949 54 949.5 74.5 Q950 95 952 116 Q954 154 958.5 192 Q963 230 969 268 Q975 306 982.5 343 Q990 380 1001 416 Q1011 453 1025 488 Q1042 535 1065 576 Q1083 607 1105.5 634.5 Q1128 662 1157 684 Q1163 688 1172.5 693.5 Q1182 699 1193 701 Q1204 703 1215.5 699 Q1227 695 1236 682 Q1243 668 1248 652 Z " />
<glyph glyph-name="X" unicode="X" horiz-adv-x="520" d="M659 727 Q673 717 679 700 Q685 683 680 657 Q675 629 662 604 Q649 579 627 558 Q599 528 569 530 Q555 531 547 543.5 Q539 556 541 575 Q543 582 544.5 588.5 Q546 595 550 601 Q575 649 615 665 Q634 672 645 657 Q652 642 642 620 Q633 602 616.5 590.5 Q600 579 588 583 Q580 586 577 594 Q577 596 576.5 597.5 Q576 599 578 601 Q582 603 583 599 Q585 590 596 594 Q607 597 619 608.5 Q631 620 636 634 Q644 655 629 656 Q622 656 615 652 Q579 632 560 592 Q551 576 553 561 Q553 545 568 545 Q578 545 587 549 Q630 571 654 623 Q667 650 667 679 Q667 689 664 698 Q658 718 635 715 Q614 712 592 692 Q583 684 575.5 675.5 Q568 667 561 657 Q545 637 531.5 616 Q518 595 504 573 Q479 531 455.5 490.5 Q432 450 408 408 Q395 385 382 362 Q369 339 356 316 Q353 312 352 308.5 Q351 305 350 300 Q344 257 339 214.5 Q334 172 331 130 Q326 77 328.5 29 Q331 -19 339 -66 Q343 -89 347.5 -110.5 Q352 -132 359 -152 Q359 -153 360 -155 Q361 -157 361 -159 Q361 -161 363 -163 Q363 -164 364 -165 L364 -166 Q364 -167 364.5 -167 Q365 -167 365 -168 Q370 -179 377.5 -191.5 Q385 -204 396 -209 Q386 -213 377.5 -211.5 Q369 -210 362.5 -205.5 Q356 -201 351.5 -195.5 Q347 -190 344 -185 Q332 -162 323.5 -133 Q315 -104 309.5 -71.5 Q304 -39 300.5 -5.5 Q297 28 296 60 Q292 134 296 214 Q294 212 293.5 210 Q293 208 291 206 Q265 163 239.5 121.5 Q214 80 186 39 Q163 5 138.5 -27.5 Q114 -60 88 -91 Q65 -119 39.5 -144 Q14 -169 -14 -189 Q-45 -214 -76 -227 Q-126 -249 -153 -223 Q-163 -214 -168 -201 Q-173 -188 -174.5 -174 Q-176 -160 -175.5 -146.5 Q-175 -133 -173 -122 Q-171 -114 -170 -109 Q-165 -85 -160 -69.5 Q-155 -54 -153 -50 L-152 -49 Q-141 -18 -125 10 Q-103 46 -71 70 Q-66 74 -62 77 Q-58 80 -53 83 Q-50 85 -48 83 L-53 78 Q-77 62 -95 41 Q-118 13 -131 -17 Q-159 -79 -165 -139 L-166 -140 L-166 -142 L-166 -166 Q-164 -184 -155 -202.5 Q-146 -221 -122 -224 L-121 -224 L-119 -224 L-118 -224 Q-108 -225 -94 -219 Q-85 -216 -76.5 -211 Q-68 -206 -60 -201 Q-4 -163 49 -103 Q72 -77 93 -48 Q114 -19 134 11 Q164 56 192.5 102 Q221 148 249 195 Q263 218 276 241 Q289 264 303 287 Q307 292 307 298 Q313 332 318.5 365.5 Q324 399 330 433 Q336 467 342 500 Q348 533 353 567 Q356 584 357 601 Q358 618 358 634 Q358 653 354 666 Q345 699 308 690 Q292 685 276.5 676.5 Q261 668 245 656 Q210 630 178 593 Q176 591 175 589 Q174 587 172 585 Q170 581 167 578 Q163 578 165 582 Q168 587 171 591.5 Q174 596 177 600 Q193 621 210.5 638 Q228 655 247 670 Q273 691 297 701 Q334 716 355 695 Q370 682 377 656 Q382 639 383 621 Q384 603 383 583 Q382 551 379 519 Q376 487 372 455 Q370 440 367.5 425 Q365 410 363 394 L363 389 Q365 392 366 394 Q367 396 368 398 Q394 442 420 484.5 Q446 527 474 569 Q490 592 506 615 Q522 638 539 661 Q547 672 555.5 681.5 Q564 691 573 700 Q580 707 587 713 Q594 719 602 724 Q636 743 659 727 Z " />
<glyph glyph-name="Y" unicode="Y" horiz-adv-x="547" d="M609 602 Q615 603 620 597 Q625 591 623 583 Q623 576 622 570 Q621 564 619 557 Q608 519 594.5 482.5 Q581 446 566 410 Q537 338 503.5 269.5 Q470 201 433 135 Q432 132 427 123.5 Q422 115 416 104.5 Q410 94 404.5 85.5 Q399 77 398 74 Q375 36 350.5 0 Q326 -36 300 -70 Q272 -105 242.5 -135.5 Q213 -166 181 -191 Q161 -206 141 -218.5 Q121 -231 101 -238 Q27 -262 -17 -207 Q-21 -203 -23.5 -198 Q-26 -193 -28 -188 Q-55 -133 -21 -58 Q-5 -21 17.5 3.5 Q40 28 68 42 Q93 55 120 60 L198 75 Q229 80 259.5 84.5 Q290 89 321 94 Q335 96 349 99 Q363 102 377 104 Q381 104 384 110 Q397 133 409.5 156.5 Q422 180 435 204 Q473 279 508 354.5 Q543 430 575 508 Q580 521 585.5 533 Q591 545 596 558 Q596 560 596.5 560.5 Q597 561 597 563 Q595 562 593 558 Q574 530 553 497 Q521 446 488.5 395 Q456 344 421 295 Q406 272 390 250 Q374 228 358 206 Q340 180 319 161 Q314 156 308.5 152 Q303 148 298 144 Q279 132 263.5 139 Q248 146 243 165 Q239 176 238.5 187.5 Q238 199 239 212 Q241 238 245.5 265 Q250 292 256 318 Q264 351 273 383.5 Q282 416 292 449 Q300 476 308 503.5 Q316 531 324 559 Q335 598 335 634 Q335 702 289 713 Q259 721 224 700.5 Q189 680 162 642 Q133 599 124 551 Q121 534 121.5 518.5 Q122 503 127 489 Q133 475 144 472 Q150 469 161 473 Q183 479 200 501 Q212 515 221.5 532 Q231 549 236 569 Q247 608 235 635 Q228 650 216 648.5 Q204 647 194 637 Q184 625 179 608 Q171 581 179 561 Q180 560 180 559.5 Q180 559 181 558 Q186 549 193.5 552 Q201 555 206 569 Q208 577 208 581 Q209 596 198 596 Q196 596 194.5 595.5 Q193 595 193 599 Q197 601 198 602 Q209 604 214.5 592.5 Q220 581 218 567 Q215 556 206.5 547.5 Q198 539 190 540 Q186 540 178 546 Q167 558 165.5 580.5 Q164 603 172 626 Q178 641 188.5 650.5 Q199 660 210 662 Q235 665 248 638 Q268 599 248 546 Q229 491 192 468 Q161 448 135.5 461.5 Q110 475 109 524 Q108 571 131 618 Q176 709 245 728 Q313 749 345 678 Q352 662 354 643 Q356 624 355 603 Q352 564 343 525 Q337 496 329.5 468.5 Q322 441 314 412 Q303 373 293 334.5 Q283 296 275 257 Q272 243 270 228.5 Q268 214 267 200 Q266 192 265.5 184.5 Q265 177 267 169 Q269 158 271.5 157.5 Q274 157 282 161 Q290 165 297 171 Q304 177 311 184 Q325 197 337 211 Q349 225 361 240 Q384 269 405.5 300.5 Q427 332 448 364 Q478 410 508 456 Q538 502 568 548 Q574 559 580.5 568.5 Q587 578 594 588 Q596 592 602 598 Q606 602 609 602 Z M369 85 Q371 87 372 89 L369 89 Q354 86 338.5 83.5 Q323 81 308 78 Q294 75 279.5 72 Q265 69 251 67 Q235 64 220 61 Q205 58 189 55 Q173 51 157 47.5 Q141 44 124 40 Q110 36 97 31 Q84 26 70 18 Q28 -6 1 -59 Q-22 -103 -19 -145 Q-16 -178 1 -198 Q36 -242 89 -222 Q103 -217 118 -208 Q133 -199 147 -188 Q179 -163 209 -132.5 Q239 -102 268 -66 Q296 -31 321 6.5 Q346 44 369 85 Z " />
<glyph glyph-name="Z" unicode="Z" horiz-adv-x="443" d="M692 711 Q687 706 683.5 700 Q680 694 675 689 Q623 629 575.5 565 Q528 501 483 434 Q440 371 398 309 Q356 247 312 185 Q280 140 248.5 97 Q217 54 183 12 Q169 -6 154 -23.5 Q139 -41 124 -58 Q122 -59 121.5 -60 Q121 -61 119 -63 Q121 -67 121 -67 Q124 -74 127.5 -80.5 Q131 -87 134 -93 Q154 -134 191 -157 Q207 -168 224 -176.5 Q241 -185 259 -190 Q273 -194 287.5 -195.5 Q302 -197 319 -195 Q333 -193 347 -186.5 Q361 -180 375 -168 Q382 -161 385 -171 Q383 -174 377 -180 Q353 -201 327 -207 Q297 -213 272 -207 Q237 -200 207.5 -185 Q178 -170 151 -148 Q139 -138 129.5 -125 Q120 -112 112 -97 Q110 -93 107.5 -89 Q105 -85 103 -81 Q101 -83 100 -84 Q99 -85 97 -86 Q64 -120 30 -148.5 Q-4 -177 -39 -200 Q-56 -211 -74 -220 Q-92 -229 -109 -234 Q-151 -246 -178 -221 Q-209 -192 -195 -131 Q-179 -66 -133 -16 Q-76 47 -17 54 Q12 58 38 42 Q49 35 59 25 Q69 15 78 4 Q84 -4 89.5 -13 Q95 -22 101 -31 Q102 -32 102.5 -33 Q103 -34 104 -35 L110 -29 Q134 -1 156 28 Q178 57 201 87 Q242 141 280.5 195.5 Q319 250 357 306 Q402 372 447.5 436.5 Q493 501 541 564 Q569 601 597.5 636.5 Q626 672 656 706 Q658 708 660.5 710.5 Q663 713 666 717 L658 717 Q644 716 629 715.5 Q614 715 600 714 L563 714 Q545 715 526.5 716 Q508 717 489 718 Q464 719 438.5 718.5 Q413 718 387 716 Q370 714 352.5 711 Q335 708 317 700 Q300 693 283.5 683 Q267 673 251 658 Q214 621 192 565 Q178 526 178 492 Q176 471 184 454 Q196 427 225 429 Q254 430 286 452 Q341 488 384 556 Q395 574 401 591 Q409 615 405 632 Q401 649 385 654 Q360 662 333 646 Q317 638 306 624 Q295 610 289 594 Q283 578 281.5 562 Q280 546 284 536 Q291 519 310 523 Q330 529 348 550 Q360 563 361 578 Q364 594 352 597 Q343 601 329 592 Q325 590 325 590 Q323 590 322 591 Q323 592 323 593 Q323 594 324 595 Q328 599 331 600 Q348 611 358.5 603.5 Q369 596 371 584 Q374 566 361 547 Q353 535 342 525.5 Q331 516 319 511.5 Q307 507 296 510 Q285 513 278 527 Q268 547 273 575.5 Q278 604 295 629 Q308 648 324 657 Q348 671 368.5 671.5 Q389 672 405 656 Q428 633 419 590 Q415 564 399 539 Q381 509 359 485.5 Q337 462 312 443 Q279 419 246 413 Q225 409 209.5 414.5 Q194 420 183.5 433 Q173 446 168.5 465 Q164 484 166 507 Q171 558 192.5 602 Q214 646 254 682 Q272 698 290 707.5 Q308 717 327 723 Q344 729 360.5 732 Q377 735 394 737 Q430 740 464.5 740.5 Q499 741 534 739 Q565 738 595.5 738.5 Q626 739 658 742 Q663 743 666.5 743 Q670 743 675 743 Q690 744 693 728 Q694 725 694 717 Q692 713 692 711 Z M89 -53 Q83 -43 77 -33.5 Q71 -24 65 -15 Q52 5 37 17 Q26 25 14 29.5 Q2 34 -13 32 Q-80 25 -136 -53 Q-169 -96 -178 -148 Q-180 -164 -178.5 -178.5 Q-177 -193 -170 -203.5 Q-163 -214 -151 -218 Q-139 -222 -120 -216 Q-94 -207 -68 -190 Q-11 -153 44 -100 Q55 -89 66.5 -77.5 Q78 -66 89 -53 Z " />
<glyph glyph-name="B" unicode="B" horiz-adv-x="550" d="M51 -78 Q61 -80 66 -80 Q83 -82 101 -83 Q119 -84 138 -83 Q180 -81 221.5 -72 Q263 -63 307 -43 Q346 -27 382 2 Q395 13 406 24.5 Q417 36 425 50 Q448 92 425 116 Q407 134 379 140 Q345 150 302 147 Q292 147 282 146.5 Q272 146 261 145 Q252 145 245 149 Q237 157 248 166 Q253 171 257.5 174.5 Q262 178 267 183 Q289 200 310.5 218 Q332 236 354 253 Q388 279 421 307 Q454 335 484 366 Q516 398 543 432.5 Q570 467 592 505 Q616 545 631 588 Q635 601 637.5 613.5 Q640 626 640 638 Q641 668 621 688 Q600 706 567 714 Q523 724 471 718 Q440 715 409.5 707.5 Q379 700 347 686 Q317 673 288.5 656.5 Q260 640 234 617 Q215 600 200.5 582.5 Q186 565 175 544 Q162 519 161 497 Q160 457 199 449 Q234 441 273 458 Q326 479 367 522 Q385 540 392 558 Q407 591 392 615 Q382 630 359 628 Q315 625 278 587 Q265 574 262 559 Q260 551 264 547.5 Q268 544 276 546 Q303 552 325 574 Q327 578 330 581 Q324 579 319.5 576 Q315 573 310 570 Q301 574 310 582 Q317 588 325 591 Q337 596 344 587 Q351 578 342 568 Q341 566 340 565 Q339 564 338 562 Q307 533 273 534 Q260 535 253 543.5 Q246 552 248 565 Q250 575 256 583 Q259 588 262.5 592.5 Q266 597 270 601 Q290 618 310.5 628 Q331 638 354 639 Q383 641 399.5 623.5 Q416 606 412 577 Q410 558 400 540.5 Q390 523 374 506 Q314 446 241 436 Q202 429 172 448 Q136 472 150 522 Q157 548 172 570.5 Q187 593 208 613 Q248 651 293 676 Q333 699 373.5 713 Q414 727 455 734 Q490 740 526 738 Q555 737 579 730.5 Q603 724 623 709 Q676 670 661 592 Q645 514 588 439 Q568 411 544.5 385.5 Q521 360 495 336 Q448 293 399 253.5 Q350 214 297 179 L276 164 Q274 163 272.5 162 Q271 161 268 159 L277 159 Q294 160 310.5 160 Q327 160 344 158 Q387 155 422 137 Q445 125 457 104 Q467 86 464 67 Q461 42 441 19 Q431 6 419 -4.5 Q407 -15 393 -24 Q369 -41 343.5 -52.5 Q318 -64 292 -73 Q201 -103 119 -99 Q100 -98 82 -96.5 Q64 -95 46 -92 Q44 -92 43 -93 Q40 -98 37 -103.5 Q34 -109 32 -114 Q22 -133 12 -151.5 Q2 -170 -7 -189 Q-12 -200 -16 -210 Q-20 -220 -25 -231 Q-27 -237 -33 -238 Q-41 -239 -40 -232 Q-37 -214 -29 -194 Q-22 -178 -15 -163 Q-8 -148 -1 -133 Q4 -123 9.5 -113 Q15 -103 20 -93 Q20 -93 22 -89 Q17 -87 12.5 -86.5 Q8 -86 3 -84 Q-18 -79 -37.5 -73 Q-57 -67 -75 -58 Q-94 -47 -106 -35 Q-117 -24 -121 -10 Q-124 0 -122 11 Q-120 22 -114 31.5 Q-108 41 -100 49.5 Q-92 58 -84 63 Q-72 70 -68 61 Q-70 60 -74 56 Q-92 41 -99 23 Q-108 4 -100 -11 Q-96 -23 -84 -33 Q-72 -44 -57.5 -50.5 Q-43 -57 -27 -62 Q-14 -66 -1 -69 Q12 -72 26 -75 L29 -75 Q30 -74 30.5 -73 Q31 -72 32 -71 Q56 -27 79.5 15.5 Q103 58 127 101 Q154 150 181 198 Q208 246 236 294 Q251 320 267 346.5 Q283 373 300 399 L306 408 Q310 412 315 412 Q325 410 320 401 Q316 388 311 380 Q299 357 286.5 334.5 Q274 312 260 289 Q218 219 178 149 Q138 79 99 9 Q88 -11 77 -31 Q66 -51 55 -71 Q53 -75 51 -78 Z " />
<glyph glyph-name="a" unicode="a" horiz-adv-x="211" d="M54 40 Q51 37 46 32.5 Q41 28 35 24 Q22 14 14.5 14.5 Q7 15 4 17 Q-4 21 -2 32 Q0 41 2.5 49.5 Q5 58 9 67 Q22 97 38 126.5 Q54 156 73 185 Q74 186 76 190 Q75 189 74 189 Q73 189 72 188 Q65 183 59 177 Q53 171 46 166 Q34 158 23 152 Q10 144 -3 148 Q-17 152 -16 169 Q-13 181 -7 197 Q17 249 63 292 Q69 297 75.5 301.5 Q82 306 89 311 Q112 326 131 323 Q146 321 151 314 Q160 304 154 289 Q153 287 151.5 284.5 Q150 282 148 280 Q143 275 141 281 L141 287 Q143 298 138 307 Q135 314 126 311 Q122 309 118 307.5 Q114 306 111 304 Q106 299 100.5 295 Q95 291 90 286 Q67 264 49.5 239 Q32 214 18 187 Q16 183 15 179 Q14 175 12 170 Q11 168 11 162 Q13 164 15.5 164.5 Q18 165 20 167 Q34 175 47.5 184.5 Q61 194 74 205 Q81 211 88 217 Q95 223 102 229 Q113 240 122 231 Q124 227 122 224 Q121 222 120 220 Q119 218 118 216 Q109 202 100 188 Q91 174 83 160 Q69 138 57.5 116.5 Q46 95 36 72 Q32 63 29 54.5 Q26 46 24 38 L24 34 Q25 32 31 36.5 Q37 41 42 46 L212 208 L214 206 Q216 204 213 201 L54 40 Z " />
<glyph glyph-name="b" unicode="b" horiz-adv-x="190" d="M199 445 Q200 442 200 436 Q200 431 199 427.5 Q198 424 196 419 L193 410 Q191 402 189 399 Q187 395 186.5 392 Q186 389 184 386 Q181 379 177 372 Q175 368 173 364.5 Q171 361 169 357 L160 342 Q157 337 154.5 333.5 Q152 330 149 326 Q146 321 143 317 Q140 313 136 309 Q133 304 129.5 300.5 Q126 297 122 292 Q118 287 114 283 Q110 279 106 275 Q101 270 96.5 266 Q92 262 87 258 Q82 253 77 249 Q72 245 66 241 Q61 236 55 232.5 Q49 229 44 224 Q38 213 32 203 Q26 193 21 182 Q4 150 -12 119 Q-28 88 -42 56 L-57 23 Q-65 5 -72.5 -13.5 Q-80 -32 -85 -52 Q-88 -61 -89 -68.5 Q-90 -76 -91 -81 Q-92 -87 -91 -93 Q-88 -91 -66.5 -73.5 Q-45 -56 -19 -14 Q-1 15 3 40 Q7 65 5 81 Q5 83 4.5 84.5 Q4 86 4 88 Q3 91 3 96 Q3 98 2 99 Q1 101 0.5 103 Q0 105 -1 107 Q-3 113 -2 117 Q1 121 6 123 Q53 145 98.5 166 Q144 187 191 208 Q193 207 191 202 Q190 201 185 198 Q98 155 9 113 Q18 89 17.5 63 Q17 37 9 12 Q2 -8 -9 -25 Q-20 -42 -34 -58 Q-49 -75 -64 -87 Q-69 -92 -77 -98 Q-85 -104 -95 -109 Q-107 -114 -114 -112.5 Q-121 -111 -123 -109 Q-128 -105 -130 -95 Q-131 -90 -130.5 -84 Q-130 -78 -129 -72 Q-125 -56 -120 -40.5 Q-115 -25 -109 -9 Q-95 29 -77 65.5 Q-59 102 -40 139 Q-38 141 -32 152.5 Q-26 164 -18 177 L3 215 Q41 284 85 348 Q93 360 101.5 372 Q110 384 118 396 Q125 405 132.5 413.5 Q140 422 148 430 Q152 434 155 437 Q158 440 162 443 Q167 446 172 448.5 Q177 451 182 451 Q187 452 192 450.5 Q197 449 199 445 Z M193 436 Q192 435 191.5 435 Q191 435 190 434 Q180 426 170.5 416.5 Q161 407 159 404 Q144 387 131 368.5 Q118 350 106 331 Q92 308 78.5 284.5 Q65 261 51 238 Q68 250 87.5 267.5 Q107 285 126 309 Q145 333 162.5 364.5 Q180 396 192 435 L193 436 Z " />
</font>
</svg>
