<?xml version="1.0" encoding="UTF-8"?>
<svg xmlns="http://www.w3.org/2000/svg" xmlns:xlink="http://www.w3.org/1999/xlink" version="1.2" >
<font id="Bware Two">
<font-face  font-family="Bware Two" units-per-em="1000" ascent="750" descent="-250" font-style="normal" font-weight="400" font-stretch="normal" cap-height="700" x-height="500" underline-position="-75" underline-thickness="50" />
<missing-glyph  horiz-adv-x="268" d="" />
<glyph glyph-name="NULL" d="" />
<glyph glyph-name="nonmarkingreturn" unicode="&#xd;" horiz-adv-x="268" d="" />
<glyph glyph-name="space" unicode="&#x20;" horiz-adv-x="268" d="" />
<glyph glyph-name="E" unicode="E" horiz-adv-x="494" d="M517 266 Q523 261 523 252.5 Q523 244 517 239 Q485 211 452.5 183.5 Q420 156 388 129 Q328 79 268.5 31 Q209 -17 147 -62 Q131 -73 116 -84.5 Q101 -96 85 -107 Q71 -117 56 -127 Q41 -137 26 -145 Q3 -159 -20 -166 Q-47 -175 -66 -174.5 Q-85 -174 -98.5 -168.5 Q-112 -163 -120.5 -154.5 Q-129 -146 -133 -138 Q-151 -105 -145 -56 Q-141 -29 -131.5 -4 Q-122 21 -109 45 Q-90 80 -66.5 111 Q-43 142 -17 171 Q28 219 77.5 256 Q127 293 184 319 Q183 319 189 321 Q177 322 166.5 322 Q156 322 145 323 Q137 325 127.5 326 Q118 327 110 330 Q83 339 70 359.5 Q57 380 55 410 Q54 434 60.5 456.5 Q67 479 79 501 Q106 551 141.5 590.5 Q177 630 224 660 Q268 688 314 694 Q354 699 386 684 Q433 661 430 604 Q429 579 422.5 555 Q416 531 406 508 Q399 494 389 479 Q384 471 376 469 Q368 467 361 472 Q354 476 353 484 Q352 492 357 500 Q362 508 366.5 516 Q371 524 374 533 Q379 548 383 563 Q387 578 389 593 Q395 638 354 649 Q334 654 313.5 651 Q293 648 272 640 Q247 630 223 612 Q157 563 116 488 Q101 462 96 433 Q96 428 95.5 423.5 Q95 419 96 414 Q99 371 140 368 Q176 365 211 365 Q237 365 262.5 365.5 Q288 366 314 367 Q323 367 327 366 Q340 363 342 349 Q344 335 330 326 Q326 324 322.5 323 Q319 322 315 320 Q292 312 268 305 Q244 298 221 290 Q158 267 104.5 227.5 Q51 188 4 136 Q-21 109 -42 79.5 Q-63 50 -80 18 Q-90 -2 -97 -23 Q-104 -44 -106 -66 Q-107 -80 -104 -97 Q-97 -123 -80.5 -129.5 Q-64 -136 -44.5 -132 Q-25 -128 -5 -117.5 Q15 -107 29 -98 Q60 -78 89.5 -56.5 Q119 -35 148 -13 Q156 -8 163 -2 Q170 4 178 9 L193 21 L194 21 L197 24 Q200 26 204 30 Q219 41 233.5 52.5 Q248 64 262 75 Q320 123 376.5 170.5 Q433 218 490 266 Q503 279 517 266 Z M194 21 Q194 22 195 22.5 Q196 23 194 21 L194 21 Z M451 151 Q449 149 447 146.5 Q445 144 443 142 Q379 90 315.5 39 Q252 -12 187 -64 Q164 -82 140 -100.5 Q116 -119 92 -136 Q65 -155 36.5 -170 Q8 -185 -23 -195 Q-28 -197 -32 -198.5 Q-36 -200 -40 -199 Q-48 -199 -50 -192 Q-51 -190 -48.5 -186.5 Q-46 -183 -44 -182 Q-35 -178 -25.5 -175.5 Q-16 -173 -7 -169 Q28 -155 58.5 -136 Q89 -117 118 -94 Q181 -45 242 4 Q303 53 366 102 Q381 114 395 126.5 Q409 139 424 151 Q431 158 438 161 Q443 163 447 160 Q451 157 451 151 Z M307 647 Q311 645 314 642 Q317 639 315 635 Q313 631 309 630 Q305 627 295 623 Q263 609 235 588 Q207 567 184 541 Q173 530 164 517.5 Q155 505 147 491 Q142 483 138 475.5 Q134 468 130 460 Q123 444 120 427 Q119 422 117 417.5 Q115 413 110 415 Q107 415 105 419 Q101 423 101 428.5 Q101 434 102 438 Q104 446 106 452 Q108 458 110 464 Q124 496 145.5 524 Q167 552 192 576 Q203 586 214.5 595.5 Q226 605 238 614 Q263 630 292 643 Q301 648 307 647 Z M245 291 Q247 289 246 285 Q245 281 243 279 Q240 275 236 272.5 Q232 270 227 268 Q145 229 78.5 173 Q12 117 -39 42 Q-56 17 -67 -10 Q-78 -37 -83 -67 Q-84 -72 -85 -76.5 Q-86 -81 -93 -81 Q-101 -80 -101 -74 Q-101 -68 -102 -61 Q-100 -55 -98.5 -47.5 Q-97 -40 -95 -32 Q-84 3 -66.5 33.5 Q-49 64 -26 93 Q76 219 220 286 L221 287 Q225 289 229 291 Q236 294 243 292 Q244 292 244 291 L245 291 Z " />
<glyph glyph-name="F" unicode="F" horiz-adv-x="492" d="M749 666 Q751 664 752 658.5 Q753 653 748 645 Q745 639 740 636.5 Q735 634 729 632 L705 629 Q664 627 623.5 624.5 Q583 622 542 620 Q509 619 477 620 Q445 621 413 621 Q406 622 400 622 Q394 622 387 622 L363 623 L312 505 Q310 499 307 493.5 Q304 488 301 482 Q309 481 315 480.5 Q321 480 327 480 Q339 480 351 480 Q363 480 375 479 Q393 479 391 462 Q390 454 383.5 447.5 Q377 441 369 439 Q365 438 357 438 Q343 438 329.5 438.5 Q316 439 302 439 Q297 439 293 439.5 Q289 440 284 440 Q282 437 281.5 434.5 Q281 432 279 430 Q273 416 267 402.5 Q261 389 254 375 L44 -109 Q43 -111 40.5 -116 Q38 -121 34 -126 Q30 -131 24 -134.5 Q18 -138 10 -136 Q2 -135 -0.5 -130 Q-3 -125 -3 -120 Q-3 -114 0 -107 L122 172 L153 243 L240 440 Q238 441 235 441 Q213 442 191 442 Q169 442 146 442 Q133 442 120 440.5 Q107 439 93 434 Q83 431 74 425 Q55 415 46 427 Q42 432 43.5 440 Q45 448 52 454 Q59 461 69 466 Q83 473 97.5 476 Q112 479 126 481 Q148 484 169 484.5 Q190 485 211 484 Q222 483 234 483 Q246 483 259 483 L321 624 Q318 624 315 624.5 Q312 625 309 625 Q277 626 245 627 Q213 628 181 629 Q161 629 140.5 628 Q120 627 98 623 Q57 615 22 588 Q19 585 16 581.5 Q13 578 10 575 Q-1 559 -16 562 Q-32 567 -27 584 Q-23 594 -18 599 Q-9 609 0 616 Q50 657 109 665 Q135 669 159 670 Q183 671 208 670 Q238 669 268 668.5 Q298 668 328 666 L341 666 Q352 678 364 678.5 Q376 679 381 664 Q396 664 411 663.5 Q426 663 442 662 Q502 660 562.5 661.5 Q623 663 685 668 Q691 669 696.5 669.5 Q702 670 708 670 Q710 671 712 671 Q714 671 716 672 Q740 681 749 666 Z M305 422 Q303 417 301.5 413.5 Q300 410 298 406 Q241 275 184 146 Q127 17 69 -114 Q68 -116 67.5 -118 Q67 -120 66 -122 Q64 -127 61 -130 Q58 -133 51 -130 Q42 -126 48 -115 Q49 -113 49.5 -111 Q50 -109 51 -107 Q109 24 166 153 Q223 282 281 413 Q285 423 288 427 Q291 432 298 430 Q300 429 301.5 426.5 Q303 424 305 422 Z M386 605 Q384 596 382 593 Q372 570 362 547.5 Q352 525 342 502 Q340 500 340 498 Q340 496 338 495 Q330 491 326 490 Q325 493 323 496.5 Q321 500 321 503 Q323 508 325.5 513.5 Q328 519 331 525 Q339 543 347 561 Q355 579 363 597 Q366 605 370 609 Q372 611 375 611.5 Q378 612 380 612 Q382 611 383 609 Q384 607 386 605 Z " />
<glyph glyph-name="G" unicode="G" horiz-adv-x="521" d="M545 266 Q551 261 550.5 253 Q550 245 545 239 Q522 210 494 185 Q466 160 434 140 Q390 111 343 90.5 Q296 70 246 54 Q235 33 223.5 12.5 Q212 -8 198 -28 Q172 -67 141.5 -101.5 Q111 -136 74 -164 Q49 -184 17 -198 Q-30 -216 -58.5 -212 Q-87 -208 -102.5 -194.5 Q-118 -181 -123.5 -164.5 Q-129 -148 -130 -142 Q-132 -127 -131 -112 Q-130 -97 -126 -83 Q-121 -64 -109.5 -48 Q-98 -32 -84 -19 Q-68 -5 -49 4 Q2 30 58.5 43.5 Q115 57 170 72 Q183 76 195.5 79.5 Q208 83 220 87 Q222 89 222 90 L222 91 Q223 91 223 93 L228 103 Q243 134 255 160 Q266 182 274.5 201 Q283 220 285 225 L285 226 Q296 250 307 274.5 Q318 299 329 323 Q329 325 329.5 326 Q330 327 330 330 Q328 327 326.5 326 Q325 325 323 323 Q302 302 281 281 Q260 260 238 240 Q207 211 173 190 Q159 181 144.5 174.5 Q130 168 114 166 Q92 163 75 169 Q58 175 46 192 Q35 208 30.5 226.5 Q26 245 25 265 Q25 316 41 364 Q81 494 170 601 Q196 632 225 657.5 Q254 683 288 701 Q310 713 332 720.5 Q354 728 377 729 Q404 730 427.5 721.5 Q451 713 466.5 695 Q482 677 489 651 Q496 625 491 591 Q487 570 479.5 551 Q472 532 458 515 Q449 503 437 504 Q426 504 422.5 513 Q419 522 425 533 Q427 537 429 539 Q446 562 450.5 586.5 Q455 611 449 636 Q444 658 429 669 Q414 680 394 684 Q374 689 354 684.5 Q334 680 314 670 Q286 657 262 638 Q238 619 216 596 Q185 563 160.5 526.5 Q136 490 116 449 Q99 416 86.5 381.5 Q74 347 69 312 Q63 281 67 255 Q69 249 70.5 242.5 Q72 236 74 231 Q88 201 122 210 Q133 213 142.5 218 Q152 223 162 229 Q182 243 201 258 Q220 273 237 290 Q260 313 282.5 336 Q305 359 328 382 L345 399 Q348 401 351.5 403.5 Q355 406 358 408 Q372 416 381.5 410 Q391 404 391 390 Q391 382 388.5 373.5 Q386 365 383 357 Q365 310 344 264 Q341 256 337.5 247.5 Q334 239 330 231 L274 110 L271 104 Q290 110 310 119 Q311 119 311.5 119.5 Q312 120 314 120 Q314 120 316 121 Q317 121 318 122 Q320 123 321.5 123.5 Q323 124 325 125 Q329 127 332.5 128.5 Q336 130 340 132 Q348 136 355 139.5 Q362 143 369 147 Q400 163 425 180 Q433 186 439 190 Q441 192 442 192.5 Q443 193 445 195 L446 195 Q446 196 448 198 Q455 203 461 208.5 Q467 214 473 219 Q485 230 496 241.5 Q507 253 517 266 Q522 273 531 272 Q540 271 545 266 Z M116 -73 Q139 -47 158.5 -19 Q178 9 195 39 Q189 37 183 35.5 Q177 34 171 32 Q127 20 82 9.5 Q37 -1 -5 -19 Q-22 -27 -37.5 -37.5 Q-53 -48 -65 -62 Q-77 -76 -83.5 -93 Q-90 -110 -90 -131 Q-89 -139 -87 -146 Q-85 -153 -80 -159 Q-73 -168 -63 -170 Q-53 -172 -42 -171 Q-17 -169 6 -159 Q29 -149 49 -135 Q68 -121 84 -105.5 Q100 -90 116 -73 Z M472 134 Q470 132 468 128.5 Q466 125 462 123 Q449 114 436.5 105.5 Q424 97 410 89 Q380 72 348 60 Q316 48 282 39 Q275 37 270 33.5 Q265 30 261 23 Q233 -29 197 -74 Q161 -119 119 -161 Q106 -174 91.5 -185.5 Q77 -197 63 -209 Q61 -211 58 -212.5 Q55 -214 53 -215 Q50 -216 46 -215.5 Q42 -215 41 -213 Q39 -211 40 -207 Q41 -203 43 -200 Q44 -198 47 -196.5 Q50 -195 52 -193 Q173 -98 248 38 Q255 52 271 56 Q320 69 366 88.5 Q412 108 453 140 Q456 143 461 145 Q470 148 472 134 Z M69 279 Q69 285 69 291 Q69 297 70 304 Q73 321 78.5 338 Q84 355 91 371 Q102 398 114 424 Q126 450 140 476 Q166 530 204 572.5 Q242 615 290 650 Q301 659 314 665 Q327 671 340 677 Q346 680 352 680 Q358 678 360 673 Q361 671 359.5 668 Q358 665 356 663 Q354 661 352.5 661 Q351 661 349 660 Q329 655 313 644 Q297 633 282 621 Q185 539 134 423 Q123 398 114 373.5 Q105 349 96 324 Q83 287 92 245 Q92 243 93 242 Q94 241 93 240 Q91 237 89.5 233.5 Q88 230 86 230 Q84 229 80 231.5 Q76 234 75 236 Q73 247 71 257.5 Q69 268 69 279 Z M418 368 Q416 360 414 356 Q389 301 365 246.5 Q341 192 316 137 Q312 130 308 124 Q304 120 299 123 Q295 126 293 132 Q293 134 294.5 136.5 Q296 139 297 142 Q321 196 345.5 250 Q370 304 394 358 Q397 366 403 374 Q408 377 412 375 Q414 374 418 368 Z " />
<glyph glyph-name="H" unicode="H" horiz-adv-x="568" d="M589 269 Q596 266 598.5 257.5 Q601 249 596 243 L578 219 Q559 194 540.5 170 Q522 146 502 122 Q484 99 465.5 77.5 Q447 56 429 33 Q412 11 394.5 -9.5 Q377 -30 357 -50 Q348 -59 338 -68.5 Q328 -78 315 -81 Q304 -84 293.5 -79.5 Q283 -75 278 -64 Q274 -55 273 -45.5 Q272 -36 272 -26 Q273 -3 280 25 Q287 53 297 80 Q307 107 317 134 Q321 145 324.5 154.5 Q328 164 332 175 Q305 173 277.5 171.5 Q250 170 223 167 Q218 156 214 145.5 Q210 135 207 127 Q187 79 165.5 33 Q144 -13 121 -59 Q110 -80 98 -100.5 Q86 -121 72 -141 Q61 -156 49.5 -169.5 Q38 -183 24 -194 Q13 -202 2 -208.5 Q-9 -215 -22 -218 Q-51 -226 -77.5 -214.5 Q-104 -203 -121 -176 Q-138 -145 -143 -109 Q-153 -40 -131.5 14.5 Q-110 69 -60 111 Q-33 135 -2 150 Q29 165 63 176 Q90 184 124 190.5 Q158 197 187 202 Q193 203 196 210 Q235 306 273.5 400.5 Q312 495 350 590 Q361 616 371 642.5 Q381 669 391 695 Q393 699 394 702 Q395 705 397 709 Q407 726 424 716 Q441 707 433 688 L403 610 L307 376 Q293 341 279.5 307 Q266 273 252 238 Q251 236 248 227.5 Q245 219 240 208 Q266 210 293 211.5 Q320 213 347 215 Q361 252 376 288.5 Q391 325 406 362 Q430 417 455 471 Q480 525 507 579 Q511 587 519 588.5 Q527 590 534 586 Q541 582 542.5 574.5 Q544 567 541 560 Q537 553 534 546.5 Q531 540 528 534 Q503 483 479 430 Q473 416 467 403.5 Q461 391 455 377 Q452 371 449.5 364.5 Q447 358 444 351 Q440 341 438 337 Q437 334 435 330 Q435 329 434.5 328.5 Q434 328 434 327 Q411 273 390.5 219.5 Q370 166 350 112 Q340 86 330.5 59.5 Q321 33 316 5 Q316 4 314.5 -2 Q313 -8 312 -14.5 Q311 -21 310.5 -26.5 Q310 -32 311 -32 Q311 -38 317.5 -34 Q324 -30 332.5 -22 Q341 -14 347.5 -6 Q354 2 354 3 Q371 23 387.5 43.5 Q404 64 421 85 Q439 107 457.5 128.5 Q476 150 493 173 Q498 178 502 184 Q506 190 511 196 Q513 199 516 202 Q519 205 521 208 Q522 210 525 213 Q525 213 526 215 Q526 216 527 216 Q536 228 545 239.5 Q554 251 562 262 Q567 269 574 271.5 Q581 274 589 269 Z M165 134 Q167 139 169.5 144.5 Q172 150 174 157 Q154 154 133.5 149.5 Q113 145 93 140 Q66 133 41 123 Q16 113 -7 98 Q-57 67 -83 18 Q-121 -55 -96 -134 Q-85 -166 -61 -174.5 Q-37 -183 -8 -166 Q17 -148 34 -122 Q51 -96 67 -70 Q95 -20 118.5 31 Q142 82 165 134 Z M512 477 Q514 479 518 480 Q522 481 524 479 Q526 478 526.5 474.5 Q527 471 527 468 Q527 466 526 464.5 Q525 463 524 461 Q469 353 425.5 242.5 Q382 132 346 17 Q345 15 345 13 Q345 11 344 9 Q342 4 339.5 1 Q337 -2 332 0 Q323 5 325 12 Q327 19 329 24 Q364 137 406 245.5 Q448 354 502 459 Q504 464 506 468.5 Q508 473 512 477 Z M400 561 Q402 561 402.5 558.5 Q403 556 405 554 Q404 550 403 546.5 Q402 543 401 540 Q369 462 338.5 385.5 Q308 309 276 231 Q274 226 271.5 220.5 Q269 215 261 217 Q251 220 259 239 Q290 317 321 393 Q352 469 383 546 Q387 556 390 559 Q394 563 400 561 Z M236 162 Q247 159 239 139 Q225 108 212.5 77.5 Q200 47 186 17 Q169 -18 152 -51.5 Q135 -85 118 -119 Q116 -124 113 -128.5 Q110 -133 107 -138 Q105 -140 103 -141.5 Q101 -143 99 -144 Q88 -143 89 -133 Q91 -130 92 -127.5 Q93 -125 95 -122 Q119 -74 142.5 -26.5 Q166 21 189 69 Q199 88 206 107.5 Q213 127 221 147 Q223 152 225.5 158 Q228 164 236 162 Z M534 143 Q526 137 520 129 Q486 90 453 51 Q420 12 386 -27 Q373 -42 359.5 -55.5 Q346 -69 332 -83 Q325 -90 330 -97 Q337 -104 344 -97 Q358 -87 366 -77 Q413 -28 457 21.5 Q501 71 541 125 Q543 127 544 129 Q545 131 547 133 Q547 139 543 142 Q539 145 534 143 Z " />
<glyph glyph-name="I" unicode="I" horiz-adv-x="467" d="M493 266 Q499 261 498.5 253 Q498 245 493 239 Q475 216 452.5 199 Q430 182 405 168 Q381 155 356.5 144.5 Q332 134 306 125 Q279 116 252 110.5 Q225 105 197 101 Q194 97 191.5 93.5 Q189 90 187 86 Q180 76 173 66.5 Q166 57 159 48 Q142 27 123.5 8.5 Q105 -10 82 -24 Q74 -30 69 -32 Q57 -39 44.5 -43.5 Q32 -48 18 -50 Q5 -52 -8 -51 Q-21 -50 -32 -43 Q-46 -35 -54 -20.5 Q-62 -6 -62 15 Q-62 20 -61.5 24.5 Q-61 29 -60 34 Q-59 35 -59 38 Q-58 40 -58 43 L-57 43 Q-57 45 -56 46 Q-49 67 -36 80.5 Q-23 94 -8.5 102.5 Q6 111 19 115 Q32 119 38 121 Q50 123 61.5 124.5 Q73 126 85 128 Q108 131 130.5 133.5 Q153 136 176 138 Q176 139 176.5 139 Q177 139 177 140 L178 141 Q180 146 183 150 Q186 154 188 159 Q217 210 245 260 Q273 310 296 364 Q313 402 329.5 440.5 Q346 479 363 518 Q377 549 391.5 579.5 Q406 610 420 642 Q422 648 424.5 654.5 Q427 661 429 667 Q431 670 431 672.5 Q431 675 432 678 Q423 678 419 677 L299 653 Q295 652 291.5 651 Q288 650 284 650 Q276 648 270.5 652 Q265 656 264 664 Q262 680 279 687 Q281 688 282.5 688 Q284 688 286 689 Q319 696 352 702.5 Q385 709 419 716 Q425 717 431 717.5 Q437 718 444 717 Q472 717 472 689 Q473 678 470.5 668.5 Q468 659 464 649 L413 535 Q395 495 377.5 455.5 Q360 416 343 376 Q320 325 295 274 Q294 273 287.5 261 Q281 249 271 230 Q261 211 248.5 188.5 Q236 166 223 144 Q229 146 235 147 Q241 148 247 149 Q261 152 274.5 156 Q288 160 302 165 Q309 167 315 170 Q321 173 328 175 L329 175 Q330 175 330 175.5 Q330 176 331 176 Q332 176 333 177 Q337 179 338 179 Q346 183 349 184 Q360 189 371 194.5 Q382 200 393 207 Q398 210 403.5 213 Q409 216 414 220 Q416 222 419 223.5 Q422 225 424 227 Q425 227 427 229 Q428 229 428 229.5 Q428 230 429 230 Q429 231 429.5 231 Q430 231 430 232 Q440 240 448.5 248 Q457 256 465 266 Q470 273 478.5 272 Q487 271 493 266 Z M119 58 Q127 67 134 76.5 Q141 86 149 96 Q146 96 143 95.5 Q140 95 137 95 L110 92 Q106 91 102.5 91 Q99 91 95 90 Q91 90 88 89 L86 89 L84 89 Q83 89 83 88.5 Q83 88 82 88 L80 88 L78 88 Q76 88 74.5 87.5 Q73 87 71 87 Q68 86 64.5 86 Q61 86 57 85 Q51 83 45 82.5 Q39 82 32 80 Q28 79 19 75.5 Q10 72 1 65 Q-8 58 -14.5 46.5 Q-21 35 -21 19 Q-21 3 -10.5 -6 Q0 -15 24 -10 Q34 -8 42.5 -4 Q51 0 59 5 Q93 26 119 58 Z M429 540 Q432 543 438 541 Q440 540 441 538 Q442 536 443 534 Q441 530 440.5 526.5 Q440 523 438 520 Q364 364 290 212 Q280 191 269 174 Q267 171 265 168 Q263 165 261 163 Q259 161 255 160 Q251 159 249 161 Q247 162 246.5 165.5 Q246 169 246 172 Q246 174 247 175 Q248 176 249 178 Q277 225 300 273.5 Q323 322 346 372 Q365 411 383.5 450.5 Q402 490 421 529 Q425 537 429 540 Z M435 180 Q442 182 445 177 Q447 170 444 165 Q442 162 438.5 160 Q435 158 433 156 Q403 134 370 119.5 Q337 105 302 96 Q286 91 271 87 Q256 83 240 81 Q237 81 230.5 80 Q224 79 217 78 Q209 78 202.5 80 Q196 82 198 90 Q198 92 201.5 95 Q205 98 208 98 Q226 102 244.5 104 Q263 106 280 111 Q318 120 354.5 134.5 Q391 149 423 173 Q431 179 435 180 Z M119 89 Q125 83 129 81 Q127 78 125 75 Q123 72 120 71 Q106 69 92.5 66.5 Q79 64 65 62 Q53 60 41 57.5 Q29 55 18 47 Q10 41 4 48 Q-2 56 7 63 Q12 66 16.5 69 Q21 72 26 73 Q49 78 70.5 82 Q92 86 114 90 Q115 90 115 89 L119 89 Z " />
<glyph glyph-name="J" unicode="J" horiz-adv-x="510" d="M534 266 Q540 261 539.5 252.5 Q539 244 534 239 Q529 233 523.5 227.5 Q518 222 513 216 Q467 170 414 136 Q385 119 354.5 106.5 Q324 94 292 88 Q280 86 268.5 84 Q257 82 245 80 Q241 71 238 64 Q235 57 233 52 L182 -50 Q175 -64 168 -76.5 Q161 -89 153 -102 Q145 -114 130.5 -133.5 Q116 -153 95 -173.5 Q74 -194 47 -212 Q20 -230 -12 -239 Q-40 -246 -70 -245 Q-100 -244 -128 -233 Q-160 -219 -183 -195.5 Q-206 -172 -220 -140 Q-233 -109 -233 -75 Q-233 -41 -222 -9 Q-216 8 -207.5 23 Q-199 38 -187 52 Q-176 66 -161.5 76 Q-147 86 -130 93 Q-98 106 -63.5 107 Q-29 108 4 109 Q42 110 79.5 110 Q117 110 155 112 Q171 113 186 113.5 Q201 114 217 116 Q220 123 222.5 129 Q225 135 227 140 Q229 145 231 149 Q243 175 254.5 201.5 Q266 228 278 254 L299 302 Q318 347 337 392 Q356 437 376 483 Q394 526 412.5 568.5 Q431 611 450 654 Q452 659 454.5 663.5 Q457 668 460 673 L452 673 L344 649 Q333 647 328 649 Q316 653 316 666 Q316 679 330 685 Q334 688 338 688 Q371 695 403.5 701.5 Q436 708 469 715 Q472 716 475.5 716 Q479 716 482 716 Q496 715 502.5 707 Q509 699 507 686 Q506 674 499 663 Q471 603 446 543 Q421 483 395 423 L359 339 L349 316 L324 259 L286 171 Q283 164 279 156 Q276 149 272 140.5 Q268 132 264 122 Q273 124 282 125.5 Q291 127 300 129 Q308 131 316.5 133.5 Q325 136 333 139 Q337 140 341 143 Q342 143 344.5 144 Q347 145 346 145 Q350 146 358 150 Q373 157 386.5 165 Q400 173 414 183 Q417 185 420.5 187.5 Q424 190 427 192 L429 194 L430 194 L436 200 Q442 205 448 210 Q454 215 460 220 Q472 231 483.5 242.5 Q495 254 506 266 Q512 272 520 271.5 Q528 271 534 266 Z M187 51 Q190 57 193 63 Q196 69 198 75 Q185 74 172 73.5 Q159 73 145 72 Q108 70 71.5 70 Q35 70 -2 70 Q-27 69 -52.5 68.5 Q-78 68 -102 61 Q-144 49 -169 12 Q-179 -2 -183.5 -18 Q-188 -34 -192 -51 Q-199 -94 -179 -135 Q-159 -176 -118 -194 Q-118 -195 -117 -195 Q-116 -195 -115 -196 L-114 -196 L-108 -199 Q-82 -207 -52.5 -205.5 Q-23 -204 2 -193 Q3 -192 4 -192 Q5 -192 6 -191 Q8 -190 9 -190 Q10 -190 12 -189 Q19 -185 25.5 -181.5 Q32 -178 38 -173 Q42 -171 50 -165 L50 -164 Q75 -144 92.5 -120 Q110 -96 126 -69 Q140 -43 153.5 -16 Q167 11 181 38 Q185 46 187 51 Z M462 155 Q466 155 469.5 155 Q473 155 474 153 Q476 151 475.5 147 Q475 143 474 140 Q473 138 470.5 137 Q468 136 466 134 Q426 111 385.5 91 Q345 71 299 60 Q290 58 281.5 57 Q273 56 265 54 Q249 22 234 -9.5 Q219 -41 203 -72 Q188 -103 168.5 -130 Q149 -157 126 -183 Q124 -185 122 -187 Q120 -189 117 -191 Q112 -193 108 -189 Q106 -188 105.5 -185.5 Q105 -183 106 -181 Q109 -172 115 -166 Q160 -117 188.5 -60 Q217 -3 242 57 Q248 73 264 74 Q293 76 320 85 Q347 94 373 106 Q395 117 415.5 128.5 Q436 140 458 151 Q459 152 460 153.5 Q461 155 462 155 Z M462 559 Q468 563 472 561 Q474 560 475 557.5 Q476 555 478 553 Q476 548 475.5 545 Q475 542 473 539 Q431 442 389.5 346 Q348 250 306 153 Q302 143 299 139 Q297 137 293.5 137 Q290 137 288 138 Q286 138 285 141 Q284 144 284 146 Q285 149 286 152.5 Q287 156 288 159 Q330 256 372 352.5 Q414 449 456 547 Q458 550 459 553.5 Q460 557 462 559 Z M33 63 Q62 64 90 64.5 Q118 65 147 67 Q148 67 149.5 67.5 Q151 68 152 67 L164 58 Q161 56 158.5 52.5 Q156 49 153 49 Q136 45 114 45 Q91 45 67 46 Q43 47 20 46 Q-4 46 -28 45.5 Q-52 45 -75 43 Q-126 37 -156 -10 Q-158 -12 -158.5 -14 Q-159 -16 -161 -18 Q-163 -20 -167 -21.5 Q-171 -23 -173 -21 Q-175 -20 -176.5 -16 Q-178 -12 -177 -10 Q-174 -2 -170 5 Q-166 12 -161 17 Q-141 37 -118.5 50 Q-96 63 -67 64 L33 64 L33 63 Z " />
<glyph glyph-name="K" unicode="K" horiz-adv-x="416" d="M459 685 Q465 674 457 662 Q456 661 456 660.5 Q456 660 455 659 Q427 633 402 604 Q377 575 353 546 Q280 460 212.5 372 Q145 284 80 193 Q72 180 76 171 Q81 152 87 133 Q93 114 100 96 Q105 82 110.5 69.5 Q116 57 122 45 Q125 40 129 34.5 Q133 29 138 25 Q138 25 140 23 Q141 23 141.5 22.5 Q142 22 143 22 Q150 19 157 22 Q164 25 168 27 Q170 29 172 29 Q202 48 231 73 Q248 87 264 102.5 Q280 118 296 134 Q327 166 355 199 Q383 232 412 266 Q417 273 425.5 272 Q434 271 440 266 Q446 261 445.5 253 Q445 245 440 239 Q423 219 406 199.5 Q389 180 372 160 Q341 125 308 91.5 Q275 58 238 29 Q230 23 221.5 17 Q213 11 205 6 Q197 0 189.5 -6 Q182 -12 172 -16 Q150 -27 131 -20 Q112 -13 98 6 Q81 29 70.5 56 Q60 83 52 109 Q50 116 47.5 123 Q45 130 42 138 Q39 134 37 131 Q35 128 33 126 Q10 91 -11 56 Q-32 21 -52 -14 Q-57 -26 -66 -38 Q-73 -49 -86 -49 Q-95 -48 -100.5 -41.5 Q-106 -35 -104 -25 L-98 -10 Q-70 62 -39 132.5 Q-8 203 24 274 Q65 364 105.5 453 Q146 542 187 633 Q195 649 201 664.5 Q207 680 213 696 Q216 703 216 710 Q219 729 237 729 Q245 730 250.5 724.5 Q256 719 256 711 Q256 707 256 703 Q256 699 254 695 Q246 675 239 656 Q232 637 223 618 L76 294 L31 191 Q33 193 34 195 Q35 197 37 199 Q78 257 119.5 313.5 Q161 370 205 426 Q250 483 295.5 538 Q341 593 389 647 Q398 657 407.5 666.5 Q417 676 427 686 Q433 692 438 693 Q452 697 459 685 Z M383 557 Q388 560 392 557 Q396 554 396 547 Q393 542 387 535 Q365 512 343 488.5 Q321 465 301 440 Q250 380 203 318 Q156 256 111 191 Q108 186 105.5 182 Q103 178 99 175 Q94 172 87 174 Q85 175 84.5 178.5 Q84 182 84 185 Q85 187 86.5 189.5 Q88 192 89 194 Q154 286 221.5 373.5 Q289 461 367 542 Q371 546 374.5 550 Q378 554 383 557 Z M247 653 Q249 658 255 656 Q257 656 261.5 655 Q266 654 265 651 Q265 649 263 647 Q263 647 261 643 Q259 637 257 634 Q256 633 255.5 631 Q255 629 254 628 Q253 626 252.5 624 Q252 622 251 620 Q249 617 248 613.5 Q247 610 245 607 Q239 592 232 578 Q224 559 215.5 540.5 Q207 522 198 502 Q190 483 181.5 464.5 Q173 446 164 426 Q156 407 147.5 388.5 Q139 370 130 350 Q128 346 126.5 342 Q125 338 123 334 Q119 323 114 319 Q112 317 108.5 316.5 Q105 316 102 317 Q100 318 100 321.5 Q100 325 100 328 Q99 331 103 335 Q137 411 170.5 486.5 Q204 562 238 637 Q240 642 242 645.5 Q244 649 247 653 Z M378 157 Q380 158 383 158 Q386 158 387 157 Q391 151 390 146 Q390 144 388 141.5 Q386 139 384 137 Q348 95 310 56.5 Q272 18 227 -14 Q216 -22 205 -28 Q194 -34 183 -41 Q177 -44 171 -45.5 Q165 -47 157 -49 Q155 -47 151.5 -45 Q148 -43 148 -41 Q147 -39 149.5 -35 Q152 -31 154 -30 Q195 -18 225.5 7.5 Q256 33 286 61 Q307 81 327 102.5 Q347 124 367 146 Q372 152 378 157 Z M41 114 Q48 108 45 102.5 Q42 97 39 92 Q24 66 9 39.5 Q-6 13 -22 -13 Q-24 -17 -27 -20 Q-30 -23 -34 -28 Q-37 -24 -39.5 -21.5 Q-42 -19 -43 -16 Q-43 -10 -38 -3 L22 102 Q33 121 41 114 Z " />
<glyph glyph-name="L" unicode="L" horiz-adv-x="623" d="M654 259 Q658 245 646 231.5 Q634 218 625 210 Q611 196 597 182 Q583 168 568 154 Q527 116 482.5 83.5 Q438 51 382 38 Q359 33 336.5 32.5 Q314 32 291 34 Q265 36 240.5 43.5 Q216 51 191 59 Q178 64 165.5 68 Q153 72 139 77 Q137 75 136 73 Q135 71 133 69 Q117 47 100 26.5 Q83 6 63 -13 Q51 -24 38 -33.5 Q25 -43 11 -50 Q-8 -60 -26 -61 Q-47 -62 -61.5 -50 Q-76 -38 -81 -18 Q-85 3 -77 24 Q-75 29 -73 32.5 Q-71 36 -69 40 Q-31 102 40 123 Q56 128 72.5 128.5 Q89 129 106 127 Q118 125 119 125.5 Q120 126 126 136 Q158 187 186 240 Q214 293 240 347 Q282 434 319.5 521.5 Q357 609 393 699 Q395 705 397.5 710.5 Q400 716 402 721 Q404 723 404.5 725.5 Q405 728 407 730 Q413 738 422 740 Q431 742 439 737 Q447 732 448 722 Q449 712 443 704 Q440 699 437.5 694 Q435 689 433 684 Q404 609 373 536 Q342 463 308 390 Q279 327 248 266.5 Q217 206 182 146 Q177 138 173 130.5 Q169 123 164 115 Q164 114 165 114 Q189 106 213 97.5 Q237 89 261 83 Q319 67 370.5 79 Q422 91 470 126 Q502 150 530.5 176 Q559 202 587 231 Q595 239 603.5 248 Q612 257 621 265 Q622 267 623 267.5 Q624 268 625 269 L634 272 Q640 272 643 271 Q647 269 649 267 Q651 264 653 260 Q653 260 654 259 Z M81 71 Q83 74 85.5 77 Q88 80 91 85 Q75 86 59 83 Q2 71 -31 20 Q-33 16 -34.5 12.5 Q-36 9 -38 5 Q-39 2 -39 -6 Q-39 -21 -25 -18 Q-16 -16 -12 -13 Q5 -3 19 6 Q37 20 52 36.5 Q67 53 81 71 Z M507 76 Q512 79 517 82 Q522 85 528 79 Q536 71 517 59 Q472 27 421.5 13.5 Q371 0 316 -2 Q288 -3 262.5 5 Q237 13 211 21 Q196 26 181 32 Q166 38 150 44 Q141 33 133 23 Q125 13 117 3 Q97 -22 73 -41.5 Q49 -61 19 -73 Q11 -77 7 -77 Q0 -77 -2 -72 Q-4 -68 0 -62 Q1 -59 8 -57 Q46 -43 73 -16.5 Q100 10 123 42 Q128 49 133.5 56 Q139 63 143 68 Q170 58 194.5 49.5 Q219 41 243 31 Q281 17 318.5 17.5 Q356 18 395 27 Q454 40 507 76 Z M346 457 Q348 462 351.5 465.5 Q355 469 361 465 Q366 462 365.5 457.5 Q365 453 363 448 Q336 388 309.5 329 Q283 270 250 213 Q239 193 227 172 Q215 151 203 131 Q201 127 197.5 123 Q194 119 189 114 Q186 119 183.5 122 Q181 125 182 127 Q182 133 187 140 Q227 208 263 277 Q299 346 328 419 Q332 429 336.5 438 Q341 447 346 457 Z " />
<glyph glyph-name="M" unicode="M" horiz-adv-x="835" d="M860 266 Q865 261 865 252.5 Q865 244 860 239 Q837 217 815 194.5 Q793 172 771 149 Q768 146 765 142.5 Q762 139 759 136 L757 134 Q752 129 747.5 124 Q743 119 738 114 Q723 98 699.5 74 Q676 50 649 24 Q622 -2 594 -26 Q566 -50 541 -66 Q522 -78 509 -82.5 Q496 -87 487 -87 Q478 -87 473 -83.5 Q468 -80 465 -76 Q463 -73 461 -67 Q459 -62 459 -56.5 Q459 -51 459 -49 Q459 -39 461 -29.5 Q463 -20 466 -11 Q474 21 486.5 51.5 Q499 82 513 111 Q539 166 568 218.5 Q597 271 626 324 Q650 369 674 413.5 Q698 458 722 503 Q726 510 729 517 Q732 524 736 532 L736 533 L727 527 Q701 505 677.5 482 Q654 459 631 435 Q557 359 488 279 Q419 199 351 118 Q327 89 302.5 60.5 Q278 32 253 4 Q246 -4 239 -9.5 Q232 -15 224 -21 Q221 -25 211 -29 Q197 -34 186.5 -26 Q176 -18 175 -3 Q174 7 176.5 16.5 Q179 26 182 35 Q191 65 203.5 93.5 Q216 122 229 150 Q257 210 287 268 Q317 326 347 385 Q368 426 388.5 466 Q409 506 427 548 Q429 554 431.5 560.5 Q434 567 436 573 Q434 572 432 571 Q430 570 428 568 Q405 549 384.5 528.5 Q364 508 344 487 Q293 433 245.5 376 Q198 319 151 262 Q126 233 102 203.5 Q78 174 53 145 Q39 130 26 119 Q18 113 7 111 Q-4 109 -11 116 Q-18 123 -20 134 Q-21 142 -19 149 Q-17 156 -15 164 Q-7 189 2 213 Q11 237 22 261 Q64 361 109 457 Q154 553 204 649 Q209 657 212.5 666 Q216 675 221 683 L227 692 Q238 704 251 696 Q258 692 260.5 685.5 Q263 679 260 671 Q258 667 256 664 Q254 661 252 657 Q237 628 222 598 Q207 568 192 538 Q151 455 113 371.5 Q75 288 40 202 Q38 197 36.5 193 Q35 189 33 184 Q34 184 34 183 Q41 191 48 199.5 Q55 208 62 216 Q104 267 144.5 316.5 Q185 366 227 416 Q263 459 301 500.5 Q339 542 381 580 Q403 599 425 615 Q430 618 434 619.5 Q438 621 443 623 Q459 628 470.5 619 Q482 610 481 593 Q481 584 478.5 575 Q476 566 473 557 Q463 531 452 507 Q441 483 429 459 Q401 404 373 349.5 Q345 295 317 239 Q294 195 273 151.5 Q252 108 233 62 Q230 54 227 46 Q224 38 221 30 L222 30 Q229 36 235 43 Q260 72 285 102 Q310 132 335 162 Q400 239 465 313.5 Q530 388 600 460 Q626 487 652 513 Q678 539 707 562 Q722 573 741 584 Q753 591 763 588 Q773 586 779 578.5 Q785 571 785 561 Q784 552 782 544 Q780 536 777 528 Q768 505 757 483 Q746 461 734 440 Q703 383 672 327 Q641 271 610 214 Q587 171 565.5 127.5 Q544 84 525 39 Q512 11 503 -22 Q502 -28 501.5 -33.5 Q501 -39 503 -42 Q506 -45 516 -40.5 Q526 -36 539.5 -25.5 Q553 -15 569 -0.5 Q585 14 602 30 Q641 67 687 116 Q722 154 758 192 Q794 230 832 266 Q838 272 846 272 Q854 272 860 266 Z M432 446 Q442 466 450 459 Q457 453 454 447.5 Q451 442 449 437 Q411 365 373 292.5 Q335 220 297 147 Q295 143 292 139 Q289 135 285 130 Q282 135 279.5 138 Q277 141 277 143 Q277 148 281 158 Q319 230 356.5 302 Q394 374 432 446 Z M228 580 Q230 582 233.5 583 Q237 584 238 583 Q242 579 242 571 Q243 569 241.5 566.5 Q240 564 238 562 Q203 505 175.5 446 Q148 387 123 326 Q119 318 116 309.5 Q113 301 108 293 Q106 290 103.5 288 Q101 286 97 283 Q95 287 93 289.5 Q91 292 90 294 Q90 296 91 299.5 Q92 303 93 305 Q121 371 149.5 435.5 Q178 500 215 561 Q218 566 221 571 Q224 576 228 580 Z M735 86 Q741 81 737.5 76 Q734 71 729 66 Q687 22 642.5 -19 Q598 -60 546 -93 Q535 -100 523.5 -104.5 Q512 -109 501 -114 Q495 -116 490 -117 Q488 -115 485 -112.5 Q482 -110 483 -108 Q484 -105 486.5 -101.5 Q489 -98 492 -97 Q509 -92 524 -83.5 Q539 -75 553 -65 Q566 -56 578 -47.5 Q590 -39 601 -28 Q630 -2 658 25 Q686 52 715 79 Q720 83 724 87.5 Q728 92 735 86 Z M763 477 Q768 484 776 482 Q781 480 781 476 Q781 472 779 468 Q776 465 775 461 Q752 417 728.5 374 Q705 331 681 287 Q660 248 638 209.5 Q616 171 595 131 Q579 100 563.5 69.5 Q548 39 541 4 Q540 2 539 -1 Q535 -7 531 -7 L530 -7 Q522 -7 520 -1 Q519 2 520 6 Q524 17 526.5 26.5 Q529 36 533 45 Q545 71 557 97 Q569 123 583 148 Q613 204 643.5 258.5 Q674 313 705 368 Q718 391 729.5 414 Q741 437 753 460 Q755 465 757.5 469.5 Q760 474 763 477 Z " />
<glyph glyph-name="N" unicode="N" horiz-adv-x="568" d="M598 258 Q601 248 594 239 Q593 238 592.5 237 Q592 236 591 235 Q548 191 507 150 Q489 132 470 113.5 Q451 95 432.5 77 Q414 59 396.5 43 Q379 27 365 14 Q328 -20 291 -51 Q277 -63 263 -73.5 Q249 -84 232 -92 Q222 -99 206 -102 Q187 -106 174 -96.5 Q161 -87 158 -68 Q156 -55 157 -43 Q158 -31 160 -18 Q166 13 176.5 43 Q187 73 198 102 Q221 161 245.5 217.5 Q270 274 296 331 Q316 376 335 420.5 Q354 465 371 512 Q378 529 383.5 546 Q389 563 392 581 Q393 582 393 586 Q387 581 381.5 577.5 Q376 574 371 570 Q348 551 327 530.5 Q306 510 286 489 Q232 432 182.5 373 Q133 314 85 252 Q60 220 35.5 188 Q11 156 -14 124 Q-17 119 -20.5 115.5 Q-24 112 -28 108 Q-38 100 -49 101 Q-57 103 -62 110 Q-67 117 -65 126 Q-63 133 -61.5 139.5 Q-60 146 -57 153 Q-38 196 -20 238.5 Q-2 281 18 323 Q60 414 101.5 502.5 Q143 591 185 681 Q188 687 191.5 693 Q195 699 198 705 Q202 711 204 713 Q209 720 217 721 Q225 722 231 717 Q245 707 235 690 Q232 685 229 679.5 Q226 674 224 669 Q165 547 106 421 Q85 376 65 331.5 Q45 287 24 242 Q24 240 23.5 239 Q23 238 23 236 Q27 241 30.5 245.5 Q34 250 38 255 Q85 317 133.5 376.5 Q182 436 236 493 Q262 520 287.5 546.5 Q313 573 342 597 Q350 604 359.5 610 Q369 616 378 622 Q389 628 399 629 Q412 631 421 623 Q430 615 432 601 Q435 582 428 560 Q421 531 411 504 Q401 477 390 451 Q365 393 340.5 336 Q316 279 291 222 Q271 177 252.5 133 Q234 89 218 43 Q212 24 206.5 5.5 Q201 -13 198 -32 Q197 -37 197 -41 Q197 -45 197 -50 L197 -62 Q197 -62 198 -64 Q199 -64 199.5 -63.5 Q200 -63 201 -63 Q209 -60 221.5 -52 Q234 -44 247 -34 Q260 -24 271.5 -15 Q283 -6 290 0 Q307 14 323.5 29 Q340 44 357 59 Q365 65 371.5 71.5 Q378 78 386 84 L393 91 Q399 96 405 102 Q411 108 417 114 Q442 137 468 163 Q494 189 515 212 Q540 238 563 263 Q569 274 583 272 Q595 269 598 258 Z M214 8 Q251 113 298 212 Q336 293 370.5 375 Q405 457 434 542 Q438 554 441 566 Q444 578 448 590 Q452 598 458 600 Q463 600 465.5 596 Q468 592 467 587 Q466 582 465 577 Q464 572 462 567 Q446 510 424 456 Q402 402 379 348 Q359 303 339 258.5 Q319 214 299 169 Q280 124 263 78.5 Q246 33 228 -12 L228 -14 Q226 -19 223.5 -23 Q221 -27 216 -25 Q213 -23 211 -19 Q209 -15 207 -13 L214 8 Z M521 153 Q525 157 529 160 Q533 163 540 160 Q545 150 535 140 Q475 80 415.5 20 Q356 -40 287 -91 Q273 -102 257 -110.5 Q241 -119 225 -128 Q216 -133 202 -131 Q200 -131 198 -128 Q196 -125 195 -122 Q194 -120 197 -117.5 Q200 -115 202 -114 Q224 -110 242 -99 Q260 -88 277 -75 Q331 -33 380.5 13 Q430 59 477 109 Q488 120 499 131 Q510 142 521 153 Z M228 658 Q230 660 234 661 Q238 662 240 660 Q242 659 242.5 655.5 Q243 652 244 649 Q244 647 242.5 645.5 Q241 644 240 642 Q206 579 177 516 Q148 453 120 387 Q118 384 116 380.5 Q114 377 110 371 Q107 376 104 379.5 Q101 383 100 386 Q100 391 104 399 Q133 460 161.5 521 Q190 582 219 643 Q223 653 228 658 Z " />
<glyph glyph-name="O" unicode="O" horiz-adv-x="628" d="M652 262 Q657 255 653.5 247.5 Q650 240 643 235 Q620 220 598 212 Q555 194 509.5 188.5 Q464 183 420 191 Q420 190 419.5 189.5 Q419 189 419 188 Q418 186 417 184.5 Q416 183 415 181 Q410 173 405.5 164.5 Q401 156 396 148 Q396 146 394 144 Q374 109 350.5 76 Q327 43 299 12 Q266 -24 229 -54 Q192 -84 149 -107 Q130 -117 111 -124 Q92 -131 72 -133 Q34 -138 3.5 -125.5 Q-27 -113 -45 -78 Q-53 -62 -56.5 -44.5 Q-60 -27 -62 -9 Q-64 20 -60.5 49.5 Q-57 79 -51 108 Q-30 207 9 299 Q48 391 105 478 Q131 519 161.5 555.5 Q192 592 228 624 Q242 637 256.5 648.5 Q271 660 288 669 Q299 675 309 676 Q321 678 327.5 670 Q334 662 329 651 Q326 641 316 638 Q305 635 296.5 629.5 Q288 624 279 617 Q251 595 227.5 570.5 Q204 546 182 518 Q143 469 112.5 416.5 Q82 364 56 308 Q37 265 21.5 222 Q6 179 -5 134 Q-12 105 -16 77.5 Q-20 50 -22 21 Q-22 5 -21 -10.5 Q-20 -26 -15 -40 Q-12 -49 -8 -57 Q11 -97 59 -94 Q74 -93 88.5 -89 Q103 -85 117 -79 Q145 -67 170 -50 Q195 -33 218 -13 Q284 44 331 117 Q343 135 354 153.5 Q365 172 376 191 Q378 194 380 200 Q376 202 374 202 Q270 244 264 358 Q262 400 273.5 440 Q285 480 308 518 Q327 552 355 570 Q366 578 376.5 582.5 Q387 587 399 588 Q420 590 436 582.5 Q452 575 464 560 Q474 548 479.5 534 Q485 520 488 505 Q493 480 493 454.5 Q493 429 489 403 Q480 339 457 274 Q455 270 450.5 257.5 Q446 245 438 228 L439 228 Q442 227 446 227 Q449 227 452.5 226.5 Q456 226 460 226 Q471 225 483 225.5 Q495 226 507 227 Q509 227 510 227.5 Q511 228 513 228 L515 228 L516 228 Q519 229 521.5 229 Q524 229 527 230 Q533 231 538.5 232 Q544 233 550 235 Q555 237 560.5 238.5 Q566 240 572 242 Q574 243 577 243.5 Q580 244 582 246 L583 246 L584 246 L590 249 Q610 257 626 269 Q634 274 641.5 271 Q649 268 652 262 Z M402 243 Q425 295 438.5 347.5 Q452 400 452 455 Q452 486 444 509 Q439 525 427 538 Q409 556 387 544 Q382 542 378 539 Q374 536 369 533 Q361 526 354.5 518 Q348 510 342 501 Q322 466 311.5 430 Q301 394 305 356 Q312 277 384 243 Q388 241 391.5 240.5 Q395 240 398 238 Q400 240 400 240 Q401 241 401 241.5 Q401 242 402 243 Z M116 361 Q84 302 59 241.5 Q34 181 20 115 Q13 80 10 46.5 Q7 13 14 -22 Q15 -27 17 -32.5 Q19 -38 20 -43 Q22 -50 16 -54 Q14 -56 11 -55.5 Q8 -55 6 -53 Q0 -47 -2 -40 Q-5 -26 -8 -12.5 Q-11 1 -13 15 Q-6 133 38 243 Q96 385 185 505 Q205 531 227 554.5 Q249 578 273 600 Q276 603 279.5 606 Q283 609 287 611 Q290 613 294.5 613.5 Q299 614 301 612 Q306 608 304 604 Q302 600 299 596 Q298 596 297 595 Q238 547 195 487 Q152 427 116 361 Z M541 188 Q546 189 552 190.5 Q558 192 562 184 Q567 173 545 169 Q519 164 492.5 161 Q466 158 437 163 Q432 154 427 145.5 Q422 137 417 129 Q346 15 249 -75 Q238 -86 226 -94.5 Q214 -103 202 -112 Q194 -118 187 -118 Q185 -119 182 -117 Q179 -115 178 -113 Q177 -111 178.5 -108 Q180 -105 181 -103 Q183 -101 184 -101 Q251 -53 302.5 7 Q354 67 398 136 Q408 151 413 162 Q419 174 428 178.5 Q437 183 452 181 Q474 177 496 180 Q518 183 541 188 Z M417 505 Q422 507 425 504 Q428 501 430 496 Q435 485 438 464.5 Q441 444 440 422 Q439 380 428 341.5 Q417 303 399 265 Q398 264 396 260 Q394 255 390.5 252.5 Q387 250 382 253 Q376 256 376.5 260.5 Q377 265 379 270 Q385 283 390.5 295 Q396 307 401 321 Q412 353 418 387 Q424 421 419 456 Q418 464 416 473 Q414 482 412 490 Q410 495 410.5 499 Q411 503 417 505 Z " />
<glyph glyph-name="P" unicode="P" horiz-adv-x="471" d="M495 265 Q501 260 500.5 252 Q500 244 495 238 Q475 215 449 199.5 Q423 184 395 173 Q369 163 340.5 162 Q312 161 286 173 Q273 178 263 186.5 Q253 195 243 205 Q233 214 223.5 223.5 Q214 233 203 242 Q190 232 178 225 Q176 224 174.5 223.5 Q173 223 171 221 Q157 213 143 207 Q129 201 115 195 Q103 190 90 187 Q77 184 63 184 Q51 185 40.5 188.5 Q30 192 21 200 Q21 200 17 202 Q10 188 2.5 174.5 Q-5 161 -10 147 Q-34 89 -57 31.5 Q-80 -26 -103 -85 Q-107 -93 -110 -101 Q-113 -109 -117 -117 Q-120 -124 -125 -129 Q-134 -139 -147 -134 Q-160 -128 -160 -115 Q-160 -105 -157 -96 Q-150 -75 -143 -53.5 Q-136 -32 -128 -11 Q-103 58 -68 125 Q-53 155 -39.5 185 Q-26 215 -13 245 Q35 355 86.5 461 Q138 567 192 673 Q198 685 203.5 697 Q209 709 215 722 Q218 728 222 732 Q226 736 234 737 Q243 737 249.5 729.5 Q256 722 254 713 Q253 710 252 707 Q251 704 250 701 Q244 689 238.5 677.5 Q233 666 227 654 Q201 600 174 546 Q147 492 120 438 Q118 432 116 429 Q117 429 117 428 Q119 431 123 435 Q148 467 174.5 497 Q201 527 232 554 Q250 571 270 584.5 Q290 598 313 609 Q324 614 335.5 617.5 Q347 621 360 622 Q389 623 406.5 606 Q424 589 426 560 Q427 542 423.5 525 Q420 508 414 491 Q403 459 386 431 Q369 403 349 377 Q344 369 338 362 Q332 355 326 347 Q324 345 311.5 332.5 Q299 320 279 303 Q273 298 266 292 Q260 287 251.5 280 Q243 273 235 266 Q243 259 250 252 Q257 245 265 237 Q270 232 274.5 228.5 Q279 225 284 220 L287 217 L288 217 L289 216 Q291 214 291 214 Q295 212 301 208 Q303 208 305 206 Q307 206 311 204 Q319 202 323 202 Q323 201 325 201 L326 201 L332 201 L344 201 L352 201 Q349 201 350.5 201.5 Q352 202 353 202 Q358 203 366 205 Q374 207 379 209 Q381 209 385 211 L387 211 Q388 211 389 212 Q413 223 433 236 Q435 238 438 239.5 Q441 241 443 243 Q444 243 446 245 Q447 245 448 246 Q448 246 450 248 Q459 256 467 265 Q472 272 481 271 Q490 270 495 265 Z M149 256 Q155 260 160.5 263 Q166 266 171 269 Q170 269 169.5 269.5 Q169 270 168 270 L167 271 Q166 271 165.5 271.5 Q165 272 164 272 Q162 272 161 273 Q159 273 158 273.5 Q157 274 156 274 L153 274 L152 274 Q150 274 149 274.5 Q148 275 146 275 Q143 275 140 274.5 Q137 274 134 274 L132 274 Q131 274 130 273 L128 273 L127 273 L126 273 Q125 273 124 272 Q117 270 111 268.5 Q105 267 99 265 Q97 264 96.5 264 Q96 264 94 263 Q93 262 92 262 Q91 262 90 261 Q89 261 88.5 260.5 Q88 260 87 260 Q76 255 69.5 249.5 Q63 244 58 239 Q53 234 50 229 Q56 224 67 226 Q76 226 84.5 228.5 Q93 231 101 234 Q118 240 135 249 Q136 249 136 249.5 Q136 250 137 250 L149 256 Z M223 304 Q228 309 231 311 Q236 316 236 316 Q249 326 261 338 Q293 369 319.5 404.5 Q346 440 366 481 Q373 495 378 509 Q383 523 385 539 Q386 551 385 563 Q383 582 366 580 Q354 580 344 577 Q327 572 313 563.5 Q299 555 285 545 Q264 529 245.5 511.5 Q227 494 209 475 Q174 436 143 394.5 Q112 353 83 309 Q81 307 81 305.5 Q81 304 79 302 L80 302 L78 298 Q100 308 119 311 Q134 313 149 313 Q164 313 178 308 Q193 302 206 292 Q214 298 217 300 Q221 302 223 304 Z M25 185 Q27 184 28.5 181.5 Q30 179 32 177 Q30 173 29.5 170 Q29 167 28 165 Q-2 90 -32 16 Q-62 -58 -92 -133 Q-94 -136 -95 -139.5 Q-96 -143 -98 -145 Q-100 -147 -103.5 -149 Q-107 -151 -109 -150 Q-111 -149 -113 -145 Q-115 -141 -114 -139 Q-113 -134 -111 -128.5 Q-109 -123 -107 -118 Q-84 -61 -61 -4.5 Q-38 52 -15 109 Q-9 124 -3 139.5 Q3 155 9 170 Q11 173 12.5 176.5 Q14 180 16 182 Q21 187 25 185 Z M413 171 Q418 173 421.5 173 Q425 173 426 168 Q427 165 425.5 160.5 Q424 156 422 155 Q411 150 400 145 Q389 140 377 137 Q368 135 358.5 135 Q349 135 340 133 Q294 132 262 154.5 Q230 177 202 208 Q196 212 196 218 Q196 223 201 228 Q202 229 205 228.5 Q208 228 210 227 Q212 225 213 223.5 Q214 222 216 220 Q227 210 237 200.5 Q247 191 258 182 Q291 156 326.5 153 Q362 150 400 165 Q405 167 413 171 Z M290 385 Q275 368 259 352.5 Q243 337 227 320 Q224 317 221 314.5 Q218 312 214 310 Q207 308 203 312 Q201 314 201.5 318 Q202 322 204 324 Q206 327 209 329.5 Q212 332 214 334 Q241 362 268.5 388.5 Q296 415 316 449 Q326 466 335 483.5 Q344 501 352 519 Q355 526 357.5 536.5 Q360 547 355 554 L354 555 Q352 557 353 561 Q354 565 356 567 Q369 574 376 559 Q377 557 377.5 554 Q378 551 379 549 Q379 544 378.5 540.5 Q378 537 377 533 Q369 504 356 481 Q343 455 329 434 Q321 421 311 408.5 Q301 396 290 385 Z M251 688 Q252 690 252 691 Q252 692 253 693 Q256 697 259 700 Q262 703 267 700 Q272 696 271.5 692 Q271 688 269 683 Q266 677 263 670.5 Q260 664 257 658 L200 541 Q198 537 196 535 L195 534 Q195 533 194.5 533 Q194 533 194 532 Q188 525 184 527 Q182 528 181 530 Q178 533 178 536 Q178 540 182 548 Q199 583 216.5 618 Q234 653 251 688 Z " />
<glyph glyph-name="Q" unicode="Q" horiz-adv-x="640" d="M654 271 Q663 271 667.5 263 Q672 255 667 246 Q664 240 659 235 Q646 221 634 207.5 Q622 194 608 181 Q586 160 563.5 139 Q541 118 518 98 Q483 67 440 49 Q369 19 308 47 Q298 52 288.5 57.5 Q279 63 269 69 Q267 70 265.5 71 Q264 72 262 73 Q252 65 243 58 Q234 51 224 44 Q195 23 164.5 6.5 Q134 -10 100 -20 Q85 -25 69.5 -27.5 Q54 -30 38 -28 Q4 -26 -17 -7 Q-38 13 -40.5 42.5 Q-43 72 -26 102 Q-8 134 19 154.5 Q46 175 81 186 Q107 194 130 191.5 Q153 189 175 181 Q194 174 210 164.5 Q226 155 241 144 Q246 139 252 134.5 Q258 130 265 125 Q274 134 282 142.5 Q290 151 298 159 Q343 209 380 262 Q417 315 444 375 Q458 405 467 435 Q476 465 480 496 Q483 516 482.5 535 Q482 554 477 572 Q475 580 471.5 587.5 Q468 595 464 602 Q433 654 364 639 Q341 634 320.5 623.5 Q300 613 280 599 Q229 563 190.5 518 Q152 473 126 416 Q115 390 112 367 Q110 358 113 350 Q116 333 102 325 Q95 320 88 321 Q81 322 77 328 Q73 333 71 343 Q69 354 70.5 363.5 Q72 373 75 384 Q83 415 97 443.5 Q111 472 130 499 Q161 544 198 580 Q235 616 281 644 Q302 657 323 666 Q344 675 367 680 Q458 697 500 626 Q513 605 518 580.5 Q523 556 523 530 Q522 489 511.5 449.5 Q501 410 484 372 Q452 299 406.5 234.5 Q361 170 304 112 Q302 110 300.5 109 Q299 108 297 106 Q297 105 296.5 105 Q296 105 296 104 Q297 102 301 100 Q309 95 317 90.5 Q325 86 334 82 Q355 72 378 73 Q401 74 425 83 Q460 97 488 121 Q526 153 562.5 187 Q599 221 632 259 Q642 271 654 271 Z M82 15 Q124 25 160.5 46.5 Q197 68 232 96 Q215 109 199 120.5 Q183 132 164 140 Q160 142 156.5 143 Q153 144 148 146 Q82 164 28 113 Q13 99 5 81 Q-5 58 3 39 Q11 20 33 14 Q45 11 57.5 11.5 Q70 12 82 15 Z M541 103 Q559 120 564 109 Q569 101 564 96.5 Q559 92 554 89 Q520 61 483.5 39.5 Q447 18 404 8 Q379 2 354.5 4 Q330 6 307 18 Q295 23 283.5 29 Q272 35 260 41 Q257 38 253.5 35.5 Q250 33 247 31 Q212 -1 171 -19.5 Q130 -38 84 -49 Q79 -51 73 -52 Q67 -53 63 -45 Q58 -36 81 -30 Q127 -19 168 0.5 Q209 20 244 53 Q254 62 259 62 Q264 62 275 55 Q283 51 290 48 Q297 45 304 41 Q336 21 369 22 Q402 23 434 37 Q463 50 490 66 Q517 82 541 103 Z M327 125 Q370 170 404.5 220.5 Q439 271 468 326 Q492 371 509.5 418.5 Q527 466 535 517 Q535 523 536 525 Q539 527 542 530 Q545 533 548 533 Q550 533 552.5 529.5 Q555 526 557 523 Q552 504 548.5 487 Q545 470 540 453 Q513 362 468 283.5 Q423 205 360 134 L339 110 Q337 108 334 105.5 Q331 103 328 102 Q322 100 318 106 Q316 107 316.5 110 Q317 113 318 115 Q320 118 322.5 120.5 Q325 123 327 125 Z M186 467 Q175 452 166.5 436.5 Q158 421 150 405 Q138 380 140 350 Q140 345 139 340.5 Q138 336 131 335 Q124 335 122.5 339.5 Q121 344 120 349 L120 359 Q121 381 127.5 400.5 Q134 420 144 439 Q167 478 196 512 Q225 546 260 575 Q268 583 277.5 589.5 Q287 596 295 604 Q297 606 299 607.5 Q301 609 303 610 Q306 610 310 610 Q314 610 316 608 Q317 606 317 602 Q317 598 315 596 Q310 591 305 587.5 Q300 584 295 579 Q264 555 236.5 527 Q209 499 186 467 Z " />
<glyph glyph-name="R" unicode="R" horiz-adv-x="468" d="M244 -4 Q227 -10 210 -6.5 Q193 -3 180 10 Q168 22 161.5 36.5 Q155 51 152 67.5 Q149 84 148.5 101 Q148 118 147 133 Q147 139 146.5 145 Q146 151 146 157 Q145 163 145 169.5 Q145 176 144 182 Q142 202 141.5 222.5 Q141 243 139 264 Q138 271 137.5 277.5 Q137 284 137 292 Q137 297 137 304 Q137 311 141 316 Q145 321 154 325 Q161 328 168 330.5 Q175 333 182 335 Q215 346 245 361.5 Q275 377 301 400 Q312 409 321 419 Q330 429 336 442 Q339 447 340.5 452.5 Q342 458 344 463 Q345 472 336 472 Q332 472 328 472 Q324 472 319 470 Q308 468 298 462.5 Q288 457 279 451 Q257 438 238 422 Q219 406 201 389 Q153 341 113 287 Q73 233 41 173 Q30 151 19 129.5 Q8 108 -3 86 Q-5 81 -8 76 Q-17 61 -33 68 Q-48 76 -43 93 Q-42 99 -39 104 Q-12 165 15 225 Q42 285 70 346 L106 427 L224 691 L235 717 Q236 719 237 721.5 Q238 724 239 727 L240 727 Q240 729 241 729 Q246 739 256 740 Q268 742 274 732 Q280 724 277 712 Q274 704 271 696.5 Q268 689 265 681 Q244 633 226 593 Q218 576 210.5 559 Q203 542 196.5 527.5 Q190 513 185.5 502.5 Q181 492 179 488 L172 474 Q171 471 170 468.5 Q169 466 168 463 Q157 441 147.5 419.5 Q138 398 128 375 Q125 372 125 367 Q128 369 130 372 Q155 400 181 425 Q207 450 236 472 Q253 484 270.5 494 Q288 504 308 509 Q330 515 349 511 Q369 506 377 491.5 Q385 477 383 461 Q383 443 373 425 Q364 407 351 392.5 Q338 378 323 365 Q265 319 193 296 Q189 294 185 293 Q181 292 176 290 L180 224 L181 220 L187 124 Q188 116 188 108 Q188 100 189 92 Q189 83 190 79 L190 77 L190 75 Q190 74 191 74 Q191 70 192 68 Q193 65 193.5 61.5 Q194 58 196 55 L196 54 Q197 53 197 52 Q199 48 201 46 Q201 46 203 42 L206 39 Q207 38 209 36.5 Q211 35 209 36 Q211 35 211.5 34.5 Q212 34 214 33 L215 33 Q216 32 217 32 L219 32 L220 31 L223 31 Q224 31 225 32 L227 32 Q229 32 230 33 Q232 33 234 34 L235 34 Q236 35 240 37 Q242 38 242.5 38.5 Q243 39 245 40 Q246 41 246.5 41 Q247 41 248 42 Q259 52 269.5 62.5 Q280 73 291 84 Q336 129 378 174.5 Q420 220 465 265 Q470 271 478.5 270.5 Q487 270 492 265 Q498 260 497.5 251.5 Q497 243 492 238 Q466 211 440.5 184 Q415 157 389 130 Q366 106 343.5 82 Q321 58 298 35 Q286 24 273.5 13 Q261 2 244 -4 Z M216 277 Q214 276 211 275.5 Q208 275 205 273 Q205 270 204.5 267 Q204 264 204 261 Q207 219 209 178.5 Q211 138 215 96 Q216 85 220 75 Q224 65 228 54 Q230 49 231 45 Q232 41 227 38 Q222 35 217.5 38 Q213 41 211 46 Q206 57 201.5 69.5 Q197 82 196 94 Q192 137 189.5 180 Q187 223 185 267 Q183 282 187 286 Q191 290 205 294 Q238 305 267.5 319.5 Q297 334 323 357 Q327 361 331 364 Q335 367 340 370 Q342 371 345.5 370.5 Q349 370 350 368 Q354 362 351 356 Q350 354 347.5 352 Q345 350 343 348 Q316 323 284 306 Q252 289 216 277 Z M501 216 Q503 214 502 211 Q501 208 500 205 Q500 203 496 201 Q433 133 368 64 Q350 46 332.5 28 Q315 10 296 -7 Q282 -19 267.5 -27 Q253 -35 236 -35 Q227 -35 227 -35 Q223 -33 219.5 -31 Q216 -29 215 -27 Q213 -22 216.5 -20 Q220 -18 225 -17 Q236 -16 246.5 -13.5 Q257 -11 266 -5 Q273 0 279.5 4.5 Q286 9 291 15 Q318 43 344.5 70.5 Q371 98 398 126 Q418 146 436.5 167 Q455 188 475 208 Q478 211 481.5 214 Q485 217 489 219 Q491 220 495 219 Q499 218 501 216 Z M175 456 Q201 513 225.5 570 Q250 627 276 685 Q278 687 278 690 Q280 694 283 696.5 Q286 699 291 696 Q293 694 294 690.5 Q295 687 295 684 Q296 681 292 675 Q289 667 286 658 Q283 649 279 641 Q259 595 238 549 Q217 503 196 457 Q194 452 192 447 Q190 442 187 437 Q185 435 176 429 Q174 433 172 435.5 Q170 438 170 441 Q170 445 171.5 448.5 Q173 452 175 456 Z M125 275 Q127 275 128 272.5 Q129 270 131 268 Q129 265 128 262 Q127 259 125 257 Q92 216 68.5 171 Q45 126 22 80 Q20 76 18.5 72 Q17 68 15 66 Q9 60 3 62 Q1 64 0 67.5 Q-1 71 -1 74 Q-1 76 0 77.5 Q1 79 2 81 Q22 118 41.5 155 Q61 192 81 228 Q88 240 96.5 250.5 Q105 261 113 272 Q117 275 125 275 Z " />
<glyph glyph-name="S" unicode="S" horiz-adv-x="428" d="M452 268 Q459 264 461 256.5 Q463 249 459 242 Q439 206 411 176 Q383 146 349 123 Q326 106 299.5 94 Q273 82 246 72 Q236 35 213 2 Q192 -30 165 -55 Q138 -80 106 -100 Q55 -132 -4 -147 Q-43 -156 -70 -156 Q-97 -156 -114.5 -150 Q-132 -144 -142 -135 Q-152 -126 -156 -118 Q-158 -113 -159 -109 Q-160 -105 -161 -101 Q-164 -89 -161.5 -78 Q-159 -67 -154.5 -58.5 Q-150 -50 -144.5 -44 Q-139 -38 -135 -34 Q-124 -26 -116.5 -21 Q-109 -16 -107 -15 Q-91 -7 -75 0 Q-59 7 -43 15 Q-23 24 -2.5 32.5 Q18 41 38 49 Q79 65 117 76 Q137 81 156 86.5 Q175 92 195 98 Q200 99 204 100 Q208 101 213 103 Q213 107 214 108 Q219 134 215.5 160 Q212 186 205 207 Q197 232 185 255 Q180 267 173.5 278.5 Q167 290 159 301 Q146 322 132 342.5 Q118 363 105 384 Q96 398 88.5 412 Q81 426 73 440 Q56 473 55 510 Q54 574 100 617 Q121 637 145.5 648.5 Q170 660 199 662 Q249 663 287 624 Q314 595 322 555 Q334 494 317 433 Q316 427 312 422 Q303 408 290 415 Q275 420 278 437 Q278 440 279 443 Q280 446 281 449 Q294 498 285 545 Q283 554 279.5 563 Q276 572 271 580 Q256 605 232.5 615 Q209 625 181 618 Q141 608 114 573 Q85 535 97 487 Q101 471 107.5 457 Q114 443 122 430 Q135 410 148 390 Q161 370 174 350 Q187 331 198.5 312 Q210 293 220 272 L223 266 Q225 263 226 259 Q227 255 229 250 Q229 249 232 241 Q235 233 239 220.5 Q243 208 247 193 Q251 178 253 163 Q254 157 254 151.5 Q254 146 254 140 Q255 134 254.5 128 Q254 122 254 116 L254 117 Q256 118 259 118.5 Q262 119 264 120 Q265 121 265.5 121 Q266 121 267 122 L268 122 Q268 122 269 123 Q305 139 334 159 Q337 162 341 164 Q341 164 342 165 L343 166 Q344 167 345 167.5 Q346 168 347 169 Q350 171 353 174 Q356 177 359 180 Q366 186 372.5 192 Q379 198 385 206 Q388 209 391 212 Q394 215 396 219 Q397 220 397.5 221 Q398 222 399 223 L400 223 L400 224 Q404 228 405 230 Q415 244 425 261 Q429 269 436.5 270.5 Q444 272 452 268 Z M182 27 Q187 35 191 42.5 Q195 50 199 58 Q182 53 166.5 49 Q151 45 134 40 Q97 30 57 14 Q36 8 19 -1 Q16 -1 12 -3 L11 -4 Q5 -6 3 -7 Q-2 -9 -6.5 -11.5 Q-11 -14 -16 -16 Q-35 -24 -53 -32.5 Q-71 -41 -89 -50 Q-94 -52 -99 -55 Q-104 -58 -109 -62.5 Q-114 -67 -117.5 -73 Q-121 -79 -122 -86 Q-123 -93 -119 -101 Q-115 -110 -101 -113 Q-89 -116 -77 -116 Q-65 -116 -52 -114 L-49 -114 Q-32 -112 -19.5 -109 Q-7 -106 -4 -104 Q46 -91 93 -60 Q119 -43 141.5 -21.5 Q164 0 182 27 Z M377 129 Q379 130 380.5 131 Q382 132 384 132 Q387 131 390 129 Q393 127 397 125 Q391 116 388 113 Q383 109 377.5 105.5 Q372 102 367 99 Q345 87 323.5 76 Q302 65 280 54 Q275 52 271.5 49.5 Q268 47 266 41 Q258 11 241 -13 Q224 -37 204 -60 Q178 -89 147.5 -111.5 Q117 -134 79 -147 Q76 -148 72.5 -149.5 Q69 -151 66 -150 Q60 -150 56 -144 Q55 -142 56.5 -139 Q58 -136 60 -134 Q63 -132 66.5 -131 Q70 -130 74 -128 Q128 -108 166 -71.5 Q204 -35 233 12 Q239 21 242.5 31 Q246 41 249 52 Q252 63 261 67 Q292 79 321 94 Q350 109 377 129 Z M262 138 Q260 140 260.5 142.5 Q261 145 261 147 Q263 175 256 200 Q249 225 239 250 Q223 290 201 327 Q179 364 154 399 Q140 419 127.5 441 Q115 463 107 488 Q102 510 106.5 529 Q111 548 120 567 Q127 577 135 572 Q143 568 138 558 Q135 554 131 544 Q117 514 129 486 Q140 457 155 432 Q169 409 185 386 Q201 363 215 340 Q252 283 270 219 Q271 218 271 216 Q271 215 272 214 Q273 210 273.5 206.5 Q274 203 275 198 Q277 189 277.5 180 Q278 171 279 163 Q280 154 280 145 Q280 139 279 137 Q279 134 275.5 131.5 Q272 129 270 129 Q268 129 266 132 Q264 135 262 138 Z " />
<glyph glyph-name="T" unicode="T" horiz-adv-x="388" d="M739 723 Q740 715 734 709.5 Q728 704 720 703 Q666 699 612.5 695.5 Q559 692 505 688 Q447 683 389.5 679 Q332 675 275 670 Q272 664 269 658.5 Q266 653 263 647 Q232 584 202.5 520 Q173 456 145 390 Q141 382 138 374 Q135 366 131 358 Q129 353 127 349 Q125 345 123 340 Q122 338 122 337 Q122 336 121 334 L120 333 Q119 331 119 330.5 Q119 330 118 328 Q111 311 104.5 295.5 Q98 280 91 263 Q77 230 64.5 197 Q52 164 41 130 Q30 98 19.5 66 Q9 34 4 1 Q3 -1 3 -4 L3 -5 Q2 -7 2 -13 Q2 -17 1.5 -20.5 Q1 -24 1 -28 Q1 -32 1 -36 Q1 -40 2 -44 L2 -52 L2 -53 Q2 -54 2.5 -54.5 Q3 -55 3 -57 L3 -59 Q4 -62 5.5 -67.5 Q7 -73 10 -78 Q13 -84 18 -83.5 Q23 -83 28 -81 Q33 -79 36.5 -75.5 Q40 -72 41 -72 Q43 -70 44 -68.5 Q45 -67 47 -65 Q49 -63 51 -61.5 Q53 -60 55 -58 Q57 -56 59 -54 Q61 -52 63 -50 Q65 -48 67 -46 Q69 -44 71 -42 L80 -33 L90 -23 L100 -13 L111 -2 Q113 0 116 3 Q119 6 122 8 Q127 14 133 19 Q136 22 138.5 25 Q141 28 144 31 Q152 39 156 42 L168 54 L180 66 L192 78 L204 90 L216 102 L228 114 Q231 116 233.5 119 Q236 122 239 125 L251 137 Q257 142 262 148 Q265 151 268 153.5 Q271 156 273 159 Q276 161 278.5 164 Q281 167 284 170 Q286 172 289 174.5 Q292 177 294 180 Q300 184 304 190 Q306 192 309 194.5 Q312 197 314 199 L323 208 L331 216 Q336 221 338 224 Q341 226 345 230 Q347 232 348.5 233.5 Q350 235 352 237 L357 242 L362 247 L369 254 Q374 259 379.5 263.5 Q385 268 391 270 Q399 273 408 266 Q414 261 413.5 252.5 Q413 244 408 238 Q405 235 401.5 231.5 Q398 228 395 224 L390 219 Q388 217 386 215 Q384 213 382 211 L370 199 L355 184 L337 166 L318 147 Q308 135 296 125 Q291 120 285 114 Q279 108 274 102 Q268 97 262 91 Q256 85 250 79 L226 55 L202 31 Q197 25 191 19.5 Q185 14 179 8 Q174 2 168 -3.5 Q162 -9 157 -15 Q152 -20 146 -25.5 Q140 -31 135 -36 L116 -55 Q111 -60 107.5 -64 Q104 -68 99 -73 Q97 -75 95 -76.5 Q93 -78 91 -80 Q86 -85 81.5 -89 Q77 -93 72 -98 Q67 -103 61 -107 Q55 -111 49 -116 Q41 -122 36 -124 Q30 -126 24 -128 Q18 -130 11 -129 L10 -129 L9 -129 Q-1 -128 -8.5 -121.5 Q-16 -115 -21 -107 Q-26 -99 -28.5 -91.5 Q-31 -84 -32 -81 Q-34 -72 -35.5 -62 Q-37 -52 -38 -43 Q-39 -25 -37 -7.5 Q-35 10 -31 27 Q-24 60 -13 93 Q-7 110 -1.5 127 Q4 144 10 161 Q35 230 63.5 298 Q92 366 122 434 Q173 551 229 666 Q203 664 176.5 662 Q150 660 123 658 Q27 650 -67.5 641.5 Q-162 633 -258 624 Q-266 623 -271.5 629.5 Q-277 636 -278 644 Q-278 652 -272 657 Q-266 662 -258 663 Q-204 668 -151 673 Q-98 678 -44 683 Q52 691 147 698.5 Q242 706 338 714 Q434 722 528.5 728.5 Q623 735 720 742 Q728 743 733.5 737 Q739 731 739 723 Z M303 118 Q308 123 312.5 126.5 Q317 130 323 124 Q330 118 325.5 113.5 Q321 109 317 105 Q275 63 233.5 21 Q192 -21 150 -64 Q129 -85 107 -104 Q85 -123 60 -140 Q47 -149 35.5 -153 Q24 -157 12 -158 L8 -158 Q4 -158 0.5 -156 Q-3 -154 -2 -149 Q-2 -147 0.5 -143.5 Q3 -140 5 -140 Q39 -137 62 -117.5 Q85 -98 107 -78 Q138 -49 167 -18 Q196 13 226 43 Q245 63 264 81.5 Q283 100 303 118 Z M682 688 Q683 686 682 685 Q680 675 673.5 674.5 Q667 674 660 673 Q643 671 626 670.5 Q609 670 592 668 Q532 663 471.5 657 Q411 651 351 646 Q342 645 333 644 Q324 643 315 643 Q294 644 285 625 Q272 599 259 573 Q246 547 234 521 Q188 419 143.5 318 Q99 217 64 111 Q53 79 45 46.5 Q37 14 32 -20 Q30 -34 32 -46 Q33 -51 32.5 -55 Q32 -59 26 -60 Q19 -62 16.5 -58 Q14 -54 13 -49 Q12 -44 12 -38.5 Q12 -33 12 -27 Q15 9 24.5 44 Q34 79 45 114 Q67 183 95 250 Q123 317 152 384 Q178 444 205 502 Q232 560 260 619 Q267 635 272.5 643.5 Q278 652 284.5 656 Q291 660 301 661 Q311 662 328 664 Q385 669 442 674.5 Q499 680 556 685 Q568 686 580 687 Q592 688 604 689 L647 693 Q656 694 664 694 Q670 694 675.5 693 Q681 692 682 688 Z " />
<glyph glyph-name="U" unicode="U" horiz-adv-x="639" d="M670 260 Q673 251 665 241 Q656 229 647 217 Q638 205 629 194 Q594 149 558 106 Q522 63 486 19 Q463 -7 439.5 -32.5 Q416 -58 389 -81 Q375 -93 360 -103.5 Q345 -114 328 -122 Q309 -130 293 -129.5 Q277 -129 264 -118 Q258 -112 254.5 -105 Q251 -98 249 -90 Q246 -76 246 -62 Q246 -48 248 -34 Q254 14 269.5 59.5 Q285 105 303 151 Q324 204 346.5 255.5 Q369 307 393 360 Q395 362 395 364 L394 364 Q380 341 362 317 Q333 274 303.5 232.5 Q274 191 240 151 Q219 125 196 100.5 Q173 76 147 54 Q133 43 118.5 33.5 Q104 24 87 17 Q60 6 37 10.5 Q14 15 -2 35 Q-11 46 -16.5 60 Q-22 74 -24 89 Q-28 112 -27 135.5 Q-26 159 -22 184 Q-14 239 3 293 Q20 347 41 401 Q60 450 82 497 Q104 544 127 592 Q134 606 140 620.5 Q146 635 153 649 Q155 654 158 658.5 Q161 663 166 666 Q181 678 193 669 Q204 660 194 644 Q192 643 190 639 Q175 606 159.5 573.5 Q144 541 129 508 Q102 451 79 393.5 Q56 336 39 277 Q31 247 24.5 217.5 Q18 188 16 158 Q14 138 15 118 Q16 98 24 80 Q28 70 37 59 Q53 42 81 54 Q102 63 120 78 Q141 95 159.5 114 Q178 133 195 153 Q230 194 261.5 236 Q293 278 322 322 Q362 382 400.5 441 Q439 500 478 560 Q484 569 489.5 577.5 Q495 586 501 594 Q503 597 505 600 Q507 603 510 605 Q515 612 522.5 614 Q530 616 536 614 Q552 609 545 593 Q541 582 537 572.5 Q533 563 528 553 Q501 496 473.5 439 Q446 382 420 325 Q393 267 368 209 Q343 151 322 92 Q313 68 306 43.5 Q299 19 294 -5 Q291 -22 289 -38 Q287 -54 290 -70 Q292 -80 294 -84 Q299 -94 311 -89 Q317 -87 323.5 -84 Q330 -81 335 -77 Q354 -65 370 -50.5 Q386 -36 401 -20 Q426 5 448.5 30.5 Q471 56 493 83 Q525 123 557 162.5 Q589 202 621 242 Q624 247 627 251 Q630 255 634 260 Q643 271 655 271 Q667 271 670 260 Z M187 603 Q189 607 191 610.5 Q193 614 196 616 Q203 620 208 617 Q213 614 211 607 Q209 602 206.5 598.5 Q204 595 202 591 Q152 500 114.5 404.5 Q77 309 54 207 Q49 187 47.5 166.5 Q46 146 45 125 Q44 112 47 100 Q50 88 61 78 Q65 74 66 70 Q67 66 62 64 Q60 62 55 62 Q50 62 48 64 Q43 72 38 79.5 Q33 87 30 95 Q27 104 26 114.5 Q25 125 23 136 Q26 153 27.5 170 Q29 187 33 204 Q57 310 96 409.5 Q135 509 187 603 Z M575 105 Q578 106 581.5 105 Q585 104 587 102 Q589 100 588.5 96 Q588 92 586 90 Q540 41 498 -10 Q456 -61 405 -106 Q382 -126 355 -140 Q328 -154 297 -159 Q295 -160 292.5 -160 Q290 -160 287 -161 Q284 -160 281 -160 Q278 -160 276 -158 Q271 -155 271 -149 Q271 -147 273 -145 Q275 -143 277 -142 Q282 -141 287 -141 Q292 -141 297 -140 Q349 -130 390 -93 Q423 -64 452.5 -32 Q482 0 511 34 Q525 50 538 65 Q551 80 565 96 Q567 98 569.5 100.5 Q572 103 575 105 Z M306 192 Q306 190 303 187 Q278 158 254.5 128.5 Q231 99 206 70 Q186 47 161.5 30.5 Q137 14 111 1 Q105 -2 98 -4.5 Q91 -7 83 -10 Q81 -9 80.5 -8 Q80 -7 78 -6 Q73 -3 74 0.5 Q75 4 76 6 Q79 9 80 9 Q126 25 161 54.5 Q196 84 225 121 Q239 138 253 156 Q267 174 281 191 Q284 194 286.5 197 Q289 200 292 202 Q298 206 304 202 Q306 201 306 197.5 Q306 194 306 192 Z M303 -17 Q308 4 312.5 25.5 Q317 47 323 67 Q337 120 358.5 169 Q380 218 403 267 Q431 326 458 384 Q485 442 513 500 Q516 507 519.5 513.5 Q523 520 527 527 Q529 532 533 536 Q537 540 544 535 Q550 531 547.5 527 Q545 523 543 518 Q502 430 461.5 343.5 Q421 257 380 169 Q357 118 342 66.5 Q327 15 319 -39 Q318 -47 318 -53.5 Q318 -60 318 -67 Q318 -72 317 -75.5 Q316 -79 311 -80 Q304 -81 300 -74 Q300 -72 299.5 -71.5 Q299 -71 299 -70 Q298 -66 298 -59 Q298 -48 299.5 -37 Q301 -26 303 -21 L303 -17 Z " />
<glyph glyph-name="V" unicode="V" horiz-adv-x="658" d="M682 261 Q687 254 684.5 246.5 Q682 239 675 235 Q658 224 641.5 212 Q625 200 608 188 Q578 164 549 144 Q534 133 517.5 124.5 Q501 116 483 111 Q482 111 481.5 110.5 Q481 110 480 110 Q451 104 433 112.5 Q415 121 404.5 134.5 Q394 148 390 163 Q386 178 385 185 Q385 188 384 189 Q383 188 383 187.5 Q383 187 382 186 L376 180 L355 156 Q354 154 352 152 Q329 126 305 102.5 Q281 79 255 56 Q235 39 215.5 24 Q196 9 173 -3 Q157 -11 141 -17.5 Q125 -24 107 -27 Q52 -35 19 9 Q8 23 2 39.5 Q-4 56 -8 73 Q-14 99 -15.5 126.5 Q-17 154 -15 181 Q-11 242 3.5 300 Q18 358 38 415 Q61 481 89.5 545 Q118 609 153 670 Q158 679 163 686 Q168 693 176 696 Q188 701 197 690 Q205 679 197 668 Q193 662 189 656 Q185 650 182 644 Q139 566 105 485.5 Q71 405 48 320 Q40 291 34 261.5 Q28 232 25 202 Q22 173 22 143.5 Q22 114 28 85 Q33 57 47 34 Q64 9 94 10 Q99 11 104 11.5 Q109 12 114 13 Q128 16 139.5 21.5 Q151 27 162 34 Q182 46 201 60.5 Q220 75 238 91 Q276 125 310 162 Q344 199 376 238 Q378 240 378.5 243 Q379 246 380 249 Q388 341 420 423.5 Q452 506 504 581 Q512 592 522 603 Q532 614 543 623 Q548 626 553 629.5 Q558 633 563 635 Q582 643 597 634.5 Q612 626 614 606 Q616 594 614 582 Q612 570 610 558 Q604 535 595.5 513.5 Q587 492 576 471 Q555 426 528.5 384 Q502 342 473 302 Q463 288 453 274.5 Q443 261 432 247 Q429 244 426 240.5 Q423 237 420 233 Q421 221 422 208 Q423 195 426 181 Q427 176 430 169 Q433 162 438.5 156.5 Q444 151 452.5 148.5 Q461 146 475 149 Q476 150 479 150 Q481 151 482.5 151.5 Q484 152 486 153 Q488 153 488.5 153.5 Q489 154 490 154 L491 154 Q506 162 519.5 171 Q533 180 547 190 Q574 210 600 230.5 Q626 251 655 268 Q663 273 670 270.5 Q677 268 682 261 Z M425 308 Q425 304 424 302 Q427 303 430 306 Q438 317 444.5 326.5 Q451 336 459 347 Q483 382 505 418 Q527 454 545 493 Q553 511 560.5 529.5 Q568 548 573 568 Q575 576 576 583 Q577 590 577 598 Q576 598 575 599 Q571 597 568 594 Q565 591 562 589 Q551 580 543 569.5 Q535 559 527 548 Q456 443 428 320 L425 308 Z M110 474 Q125 507 142 539 Q159 571 176 603 Q181 613 187.5 621 Q194 629 201 638 Q205 644 211 647 Q217 649 221 645 Q223 644 223 641 Q223 638 223 636 Q222 634 221 633 Q220 632 219 630 Q188 592 167 550 Q146 508 127 464 Q95 394 77 321 Q59 248 55 171 Q52 137 55 104 Q57 85 63.5 69 Q70 53 85 40 Q88 37 90 34 Q92 31 90 27 Q87 22 82.5 22 Q78 22 74 25 Q69 29 64.5 34 Q60 39 56 44 Q45 61 40 79 Q35 97 34 117 L34 145 Q40 318 110 474 Z M606 512 Q609 515 617 513 Q619 513 620 510.5 Q621 508 623 506 Q620 502 619 498 Q588 429 550 364.5 Q512 300 461 243 Q457 238 453.5 233.5 Q450 229 445 226 Q443 224 438.5 223.5 Q434 223 432 225 Q430 227 430.5 230.5 Q431 234 431 238 Q431 240 432.5 241 Q434 242 436 244 Q487 299 525.5 361 Q564 423 594 491 Q597 497 599.5 502 Q602 507 606 512 Z M366 142 Q371 138 369.5 134 Q368 130 366 126 Q365 124 362 121 Q327 87 293.5 53 Q260 19 219 -7 Q199 -20 177 -30.5 Q155 -41 131 -48 Q127 -49 122.5 -49.5 Q118 -50 113 -52 Q111 -50 108.5 -48 Q106 -46 105 -44 Q105 -40 111 -34 Q111 -33 118 -31 Q163 -20 200 3.5 Q237 27 270 58 Q290 78 310.5 98 Q331 118 351 138 Q354 141 357.5 143.5 Q361 146 366 142 Z M635 197 Q654 210 658 200 Q661 192 656 188.5 Q651 185 646 182 Q622 165 598 147 Q574 129 549 112 Q532 99 512.5 91.5 Q493 84 473 79 L471 79 Q466 78 463.5 78 Q461 78 459 78 Q457 78 456 79 Q454 81 452.5 82 Q451 83 451 85 Q451 87 454 90 Q457 93 459 96 Q460 97 465 97 Q493 102 517 115.5 Q541 129 564 146 Q582 159 599.5 172 Q617 185 635 197 Z " />
<glyph glyph-name="W" unicode="W" horiz-adv-x="786" d="M809 262 Q813 255 810.5 247.5 Q808 240 802 236 Q772 217 744 203 L711 188 Q685 177 656 171 Q627 165 598 169 Q585 171 575 175 Q569 178 565 182 Q564 182 560 186 L556 190 Q539 166 517 136 Q499 113 480 90.5 Q461 68 441 47 Q425 30 408.5 15.5 Q392 1 374 -11 Q361 -19 348 -26 Q335 -33 321 -36 Q295 -42 274.5 -32 Q254 -22 244 3 Q239 15 237 28 Q235 41 235 54 Q234 86 239 117.5 Q244 149 252 181 Q260 208 268 235 Q276 262 284 289 Q286 295 286 297 Q282 293 281 289 Q255 247 228 206 Q201 165 172 124 Q148 91 122.5 58.5 Q97 26 68 -4 Q57 -14 47 -23.5 Q37 -33 25 -41 Q17 -46 9.5 -49.5 Q2 -53 -7 -55 Q-33 -60 -47 -38 Q-52 -31 -53.5 -23 Q-55 -15 -56 -6 Q-58 8 -57 21.5 Q-56 35 -54 49 Q-46 103 -31 155.5 Q-16 208 2 260 Q27 332 56 400.5 Q85 469 117 538 Q136 576 154.5 615 Q173 654 193 692 L199 704 Q204 712 211 714.5 Q218 717 225 713 Q240 705 232 686 Q215 653 199 620.5 Q183 588 167 554 Q132 481 99.5 407 Q67 333 40 256 Q26 217 14 177.5 Q2 138 -7 96 Q-12 76 -15 55 Q-18 34 -19 13 Q-19 6 -18.5 0 Q-18 -6 -17 -12 Q-17 -14 -16 -15 Q-15 -16 -15 -18 Q-8 -18 0 -12 Q8 -6 16 0 Q24 6 32 13 Q49 29 64 46.5 Q79 64 93 81 Q130 128 163 176.5 Q196 225 228 276 Q248 306 266.5 336.5 Q285 367 305 397 Q311 407 317.5 416.5 Q324 426 331 436 Q337 444 341 448 Q354 457 365 451 Q378 444 375 429 Q374 424 373 420.5 Q372 417 370 412 Q363 393 356 375 Q349 357 342 338 Q326 296 312.5 255 Q299 214 288 171 Q276 126 273 79 Q272 67 272.5 54.5 Q273 42 275 30 Q277 25 278 21.5 Q279 18 281 13 Q290 -3 309 0 Q328 3 341 12 Q352 20 362.5 27.5 Q373 35 384 44 Q413 69 438 98 Q463 127 487 158 Q498 172 507.5 185.5 Q517 199 527 213 Q531 219 530 224 Q524 247 523.5 271 Q523 295 526 318 Q545 457 621 581 Q632 600 645 617.5 Q658 635 675 651 Q682 657 688.5 662 Q695 667 703 672 Q714 680 726 680 Q748 682 756 662 Q758 657 759 652 Q760 647 760 642 Q761 625 757.5 609.5 Q754 594 750 578 Q739 534 722.5 493 Q706 452 686 412 Q666 370 643.5 330.5 Q621 291 597 252 Q594 247 589 240 Q584 233 579 224 L580 223 Q581 222 581 221.5 Q581 221 582 220 Q582 220 583 219 Q590 210 598.5 208 Q607 206 618 207 Q650 208 679.5 218.5 Q709 229 736 243 Q748 249 759.5 255.5 Q771 262 782 269 Q789 274 796.5 271.5 Q804 269 809 262 Z M567 274 Q593 317 617.5 360.5 Q642 404 663 450 Q679 485 693 521.5 Q707 558 716 596 Q718 607 720 617.5 Q722 628 722 640 Q716 637 711.5 633 Q707 629 702 625 Q688 612 677 597 Q666 582 655 566 Q630 527 612 485.5 Q594 444 581 399 Q573 368 567 337.5 Q561 307 562 275 L562 267 Q564 270 565 271 Q566 272 567 274 Z M230 640 Q233 645 237.5 647.5 Q242 650 247 645 Q252 641 250 637.5 Q248 634 246 630 Q203 560 167.5 487 Q132 414 101 339 Q72 272 52.5 203.5 Q33 135 16 65 Q13 51 11 36.5 Q9 22 7 8 Q6 3 4 -1.5 Q2 -6 -3 -4 Q-6 -3 -8.5 0.5 Q-11 4 -13 7 Q-10 26 -8 42.5 Q-6 59 -1 76 Q16 146 36 214.5 Q56 283 84 350 Q113 419 146 485.5 Q179 552 216 618 Q219 624 222.5 629.5 Q226 635 230 640 Z M314 234 Q328 274 343.5 312.5 Q359 351 374 390 Q376 395 378 398.5 Q380 402 383 405 Q385 407 389 408.5 Q393 410 395 408 Q397 407 398 403.5 Q399 400 399 397 Q399 394 397 391.5 Q395 389 394 386 Q373 338 353 289.5 Q333 241 322 190 Q315 158 311 125 Q307 92 303 59 Q302 51 303.5 43.5 Q305 36 306 28 Q306 23 305 19 Q304 15 298 14 Q293 13 290 16.5 Q287 20 287 25 Q285 33 285 41.5 Q285 50 284 58 Q287 103 293 147 Q299 191 314 234 Z M719 450 Q721 452 723.5 451.5 Q726 451 728 450 Q730 449 731 447 Q732 445 734 443 Q732 441 732 439.5 Q732 438 731 437 Q707 388 682.5 340.5 Q658 293 626 248 Q622 243 618 237 Q614 231 609 226 Q607 224 603 223.5 Q599 223 597 225 Q595 227 595 230.5 Q595 234 595 237 Q595 239 598 242 Q632 287 658 335 Q684 383 708 434 Q710 439 713 442.5 Q716 446 719 450 Z M760 200 Q770 200 773 195 Q777 187 766 183 Q761 181 756 179 Q751 177 746 175 Q735 171 725 168 Q715 165 705 162 L704 161 Q702 161 701.5 160.5 Q701 160 699 160 Q697 159 696.5 159 Q696 159 694 158 Q649 144 618.5 143 Q588 142 574 144 Q571 145 568 146 Q565 147 565 146 Q552 129 540 113 Q528 97 515 82 Q489 49 458 21 Q427 -7 393 -33 Q359 -58 320 -62 Q312 -64 308 -62 Q301 -60 301 -54 Q301 -51 307 -45 Q309 -44 315 -44 Q337 -42 356 -33 Q375 -24 392 -10 Q436 25 474 64 Q512 103 542 150 Q552 163 556 165 Q560 167 576 163 Q588 161 600 159.5 Q612 158 623 159 L626 159 Q631 160 635.5 160.5 Q640 161 645 162 Q661 165 688 173 Q715 181 753 198 Q757 200 760 200 Z " />
<glyph glyph-name="X" unicode="X" horiz-adv-x="590" d="M612 266 Q617 261 617 252.5 Q617 244 612 239 Q586 216 560 192 Q534 168 508 145 Q462 103 416 62.5 Q370 22 323 -20 Q312 -31 301 -41 Q290 -51 278 -61 Q269 -69 259 -74 Q249 -79 238 -80 Q215 -81 200.5 -62.5 Q186 -44 177 -20 Q168 4 164.5 27.5 Q161 51 160 59 Q158 73 158 87.5 Q158 102 158 117 Q160 140 161 163.5 Q162 187 164 211 Q164 213 164.5 214.5 Q165 216 165 219 Q157 211 150.5 203 Q144 195 137 187 Q94 136 51.5 85 Q9 34 -33 -17 Q-45 -31 -56 -45.5 Q-67 -60 -75 -77 Q-79 -85 -86.5 -88 Q-94 -91 -101 -88 Q-109 -85 -111.5 -77.5 Q-114 -70 -110 -62 Q-105 -53 -100 -44 Q-95 -35 -89 -27 Q-69 -1 -49.5 23.5 Q-30 48 -10 73 Q35 127 80.5 179.5 Q126 232 171 285 Q175 290 176 296 Q181 327 186 357.5 Q191 388 196 420 Q200 444 203.5 468.5 Q207 493 211 518 Q214 539 216 560 Q218 581 218 602 Q218 616 217.5 629.5 Q217 643 213 656 Q211 661 208.5 666 Q206 671 203 676 Q196 687 179 684 Q164 680 147 668 Q119 647 97.5 622 Q76 597 60 566 Q58 561 56.5 556 Q55 551 57 545 Q60 532 46 523 Q41 520 34.5 521 Q28 522 23 527 Q12 538 16 557 Q18 568 23 578 Q28 588 34 598 Q53 629 76.5 655.5 Q100 682 129 702 Q140 710 151 715.5 Q162 721 175 723 Q215 730 238 697 Q246 685 250 671.5 Q254 658 256 644 Q259 621 258.5 598 Q258 575 255 552 Q253 532 250.5 513.5 Q248 495 245 475 Q242 455 239 436.5 Q236 418 232 398 Q230 386 228 374 Q226 362 224 350 L224 347 Q226 349 228 351 Q230 353 232 355 Q289 420 346 482.5 Q403 545 464 606 Q486 628 508.5 650 Q531 672 554 693 Q559 699 566 703.5 Q573 708 580 713 Q588 719 597 716 Q607 713 610 702 Q612 690 602 682 Q567 656 536.5 624.5 Q506 593 475 562 Q406 493 342 422 Q278 351 215 278 Q214 276 213 274.5 Q212 273 212 271 Q207 238 203.5 205 Q200 172 198 139 Q197 107 198.5 76 Q200 45 208 15 Q213 -8 225 -28 Q230 -34 237.5 -36 Q245 -38 258 -27 Q260 -25 260 -25 Q265 -20 271 -15.5 Q277 -11 282 -6 Q293 4 303.5 13.5 Q314 23 325 33 Q347 53 368.5 72 Q390 91 411 111 Q455 150 498 188.5 Q541 227 584 266 Q597 279 612 266 Z M527 146 Q529 147 532 146 Q535 145 537 143 Q540 138 536 132 Q535 130 532.5 128 Q530 126 528 124 Q480 86 437 45.5 Q394 5 350 -37 Q335 -51 319.5 -64.5 Q304 -78 287 -92 Q276 -102 262 -107 Q248 -112 231 -114 Q229 -112 225.5 -110.5 Q222 -109 221 -106 Q219 -100 222.5 -97.5 Q226 -95 231 -94 Q250 -93 264.5 -84 Q279 -75 292 -64 Q318 -40 344 -15.5 Q370 9 396 33 Q425 59 454 84.5 Q483 110 512 136 Q519 143 527 146 Z M241 268 Q241 264 239 254 Q216 140 234 27 Q236 21 236 19 Q234 17 232.5 14 Q231 11 229 10 Q227 10 223.5 11 Q220 12 219 14 Q217 19 216 23 Q215 27 214 32 Q208 64 207.5 98.5 Q207 133 208 177 Q210 190 213 212 Q216 234 220 257 Q221 266 226 272 Q228 277 236 275 Q241 275 241 268 Z M264 644 Q262 651 261.5 657.5 Q261 664 259 672 Q257 683 264 685 Q275 690 277 677 Q279 666 281.5 655.5 Q284 645 285 634 Q287 596 284 558.5 Q281 521 276 483 Q273 464 270 445.5 Q267 427 263 408 Q263 403 259 393 Q257 391 254 389.5 Q251 388 249 388 Q243 390 243 397 Q242 401 244 409 Q249 447 254.5 485 Q260 523 265 561 Q266 570 266.5 579.5 Q267 589 267 598 Q267 608 266 617 Q265 625 264.5 632 Q264 639 264 644 Z " />
<glyph glyph-name="Y" unicode="Y" horiz-adv-x="554" d="M570 269 Q577 266 579.5 257.5 Q582 249 577 243 Q566 226 551 214 Q536 202 521 190 Q506 177 490 165 Q474 153 457 142 Q415 115 369.5 98 Q324 81 276 69 Q273 64 269.5 59 Q266 54 263 49 Q253 35 242 21.5 Q231 8 220 -6 Q198 -32 174 -55.5 Q150 -79 121 -98 Q101 -111 80 -120 Q59 -129 36 -132 Q3 -137 -25 -127 Q-48 -117 -60 -97.5 Q-72 -78 -70 -51 Q-69 -46 -69 -42.5 Q-69 -39 -67 -34 Q-61 -10 -50 6.5 Q-39 23 -26.5 33.5 Q-14 44 -3 49 Q8 54 13 56 Q31 62 49 65 Q100 76 150.5 84 Q201 92 252 104 Q255 107 259 113 L259 115 Q278 145 293 171.5 Q308 198 318 218 Q329 241 338 261 Q359 306 377 350.5 Q395 395 412 441 Q424 476 435.5 512 Q447 548 458 583 L458 586 Q453 581 449.5 575 Q446 569 441 564 Q406 513 368.5 465 Q331 417 289 372 Q266 346 242.5 322.5 Q219 299 193 278 Q176 265 158.5 254 Q141 243 121 237 Q101 232 83.5 233 Q66 234 49 247 Q38 255 31.5 266.5 Q25 278 21 291 Q16 307 14.5 322.5 Q13 338 13 355 Q13 403 23 448.5 Q33 494 48 540 Q59 573 72 605.5 Q85 638 99 670 Q101 676 103.5 682 Q106 688 109 693 Q118 710 133 705 Q141 703 144.5 695 Q148 687 144 677 Q137 662 131 647 Q125 632 118 617 Q101 577 87 536 Q73 495 64 452 Q53 405 52 359 Q52 345 53 332 Q54 319 58 306 Q60 300 62 297 Q75 266 107 275 Q119 278 129 283 Q139 288 150 295 Q172 310 191.5 327.5 Q211 345 230 365 Q272 408 309.5 454 Q347 500 382 548 Q399 572 416.5 596 Q434 620 451 643 Q460 655 471 666 Q481 676 492 673 Q501 671 506.5 664.5 Q512 658 511 648 Q510 637 508 626 Q506 615 504 604 Q478 507 444 414 Q410 321 366 230 Q358 212 348 194 Q340 178 328.5 158 Q317 138 305 117 Q310 119 315.5 120.5 Q321 122 326 124 Q334 126 342 129 Q350 132 358 135 Q360 136 362 136.5 Q364 137 366 138 L367 138 Q368 138 368 138.5 Q368 139 369 139 Q369 139 371 140 Q372 140 372 141 Q376 143 379 144 Q382 145 386 147 Q417 162 445 181 Q452 186 459 190.5 Q466 195 473 200 L476 203 L478 205 Q484 209 485 210 Q488 213 491.5 215.5 Q495 218 498 221 Q505 226 511 231 Q517 236 523 241 Q527 244 530 247 Q533 250 536 253 Q537 255 538 255.5 Q539 256 540 258 L542 260 L544 262 Q549 269 555.5 271.5 Q562 274 570 269 Z M203 34 Q208 39 212 45 Q216 51 221 57 Q215 56 209.5 55 Q204 54 199 53 Q163 46 127.5 40.5 Q92 35 57 27 Q49 25 41 23 Q33 21 25 19 L16 16 Q15 16 15 15.5 Q15 15 14 15 Q14 15 12 14 Q11 14 10.5 13.5 Q10 13 9 13 Q4 10 -10 -2.5 Q-24 -15 -29 -41 Q-30 -46 -30.5 -50 Q-31 -54 -31 -59 Q-29 -81 -12 -88 Q0 -93 12 -93 Q27 -95 40.5 -91.5 Q54 -88 68 -82 Q91 -72 110 -58 Q129 -44 147 -27 Q162 -13 175.5 2 Q189 17 202 33 Q202 33 203 34 Z M531 178 Q534 180 539.5 180 Q545 180 547 178 Q551 173 548.5 169.5 Q546 166 542 163 Q505 136 467 112.5 Q429 89 387 73 Q367 65 347 59.5 Q327 54 307 49 Q299 47 295 43 Q291 39 287 34 Q245 -34 190 -85 Q161 -111 128.5 -130.5 Q96 -150 57 -158 Q54 -159 50 -159.5 Q46 -160 41 -162 Q39 -160 36.5 -158 Q34 -156 33 -154 Q33 -148 40 -144 Q43 -142 47 -141 Q51 -140 55 -139 Q95 -130 127.5 -109 Q160 -88 189 -60 Q214 -34 236 -6.5 Q258 21 275 52 Q283 65 295 66 Q357 75 409 102.5 Q461 130 511 165 Q516 168 521 172 Q526 176 531 178 Z M503 565 Q505 567 508.5 569 Q512 571 515 573 Q517 570 518.5 567 Q520 564 522 562 Q517 543 512 526.5 Q507 510 502 493 Q482 430 459 369.5 Q436 309 408 249 Q396 223 382.5 199 Q369 175 355 150 Q355 150 354 149 Q351 144 348 139.5 Q345 135 338 140 Q331 145 333.5 149.5 Q336 154 338 159 Q389 242 423 330 Q457 418 487 509 Q491 520 493.5 530.5 Q496 541 499 552 Q500 555 500.5 558.5 Q501 562 503 565 Z M65 372 Q65 432 80 487.5 Q95 543 119 597 Q126 614 134.5 630 Q143 646 151 662 Q153 667 156.5 672.5 Q160 678 168 673 Q176 668 173 662.5 Q170 657 167 652 Q141 604 121.5 553.5 Q102 503 91 449 Q85 419 82.5 388.5 Q80 358 84 326 Q86 319 87.5 312 Q89 305 91 297 Q93 292 92.5 288 Q92 284 87 282 Q81 280 78 283 Q75 286 73 291 Q71 300 68.5 308.5 Q66 317 65 326 Q64 337 64.5 349 Q65 361 65 372 Z " />
<glyph glyph-name="Z" unicode="Z" horiz-adv-x="568" d="M588 267 Q593 262 593.5 253.5 Q594 245 588 240 Q553 210 514.5 186.5 Q476 163 434 143 Q420 136 405.5 130 Q391 124 377 118 Q372 92 361.5 62 Q351 32 330 -4 Q323 -16 315 -27.5 Q307 -39 299 -50 Q299 -52 298 -52 Q286 -69 272.5 -84.5 Q259 -100 245 -115 Q212 -148 172.5 -173.5 Q133 -199 88 -210 Q47 -222 1 -217 Q-21 -214 -42.5 -207 Q-64 -200 -81 -185 Q-102 -169 -112 -147 Q-113 -145 -113 -144.5 Q-113 -144 -114 -142 Q-126 -112 -121.5 -86.5 Q-117 -61 -104 -40.5 Q-91 -20 -72.5 -4 Q-54 12 -37 23 Q-20 34 -7 39.5 Q6 45 8 46 Q30 55 52.5 61.5 Q75 68 98 74 Q142 85 185 96.5 Q228 108 271 122 Q288 127 304.5 133 Q321 139 338 145 Q339 170 330.5 198 Q322 226 297 252 Q283 266 269 276 Q255 286 243 294 Q229 303 216 310 Q215 311 214.5 311 Q214 311 213 312 Q210 314 207.5 314.5 Q205 315 203 317 Q192 322 182 326 Q172 330 161 334 Q150 339 148 352 Q147 364 158 371 Q158 372 159 372 Q159 373 161 373 Q163 375 165 376 Q170 381 173 383 Q178 386 182 389.5 Q186 393 191 397 Q199 404 207.5 410.5 Q216 417 224 425 Q238 439 252 452.5 Q266 466 280 480 Q287 488 293 495 Q299 502 306 510 Q308 512 309.5 514.5 Q311 517 313 519 L317 523 L317 524 Q320 528 323 532 Q326 536 330 540 Q342 556 353.5 572.5 Q365 589 374 607 Q378 615 380 618 Q380 619 381 620 L382 623 Q386 630 389 642 Q389 644 391 650 Q378 645 369 640 Q345 629 327 615 L325 614 L324 613 Q320 611 319 609 Q313 605 310 602 Q305 598 300.5 594 Q296 590 291 585 L273 567 Q270 563 264 557 Q264 556 262 554 L262 553 Q261 553 261 552.5 Q261 552 260 552 Q260 550 258 550 Q250 539 243 528 Q236 517 229 505 Q225 498 217.5 496.5 Q210 495 203 500 Q196 505 194.5 513 Q193 521 197 528 Q205 542 214 555.5 Q223 569 234 582 Q265 620 304.5 648.5 Q344 677 389 692 Q395 693 402.5 694 Q410 695 416.5 692.5 Q423 690 427.5 682 Q432 674 431 659 Q429 638 421.5 618 Q414 598 404 580 Q393 561 381 544 Q369 527 356 510 Q343 493 329 477 Q315 461 301 445 Q278 421 255 399.5 Q232 378 206 358 Q251 338 288 311 Q320 288 347 254.5 Q374 221 379 178 Q379 176 379.5 173.5 Q380 171 380 168 L380 166 L380 161 Q381 162 383 162 L383 163 L384 163 Q385 164 386 164 Q387 164 389 165 Q398 169 407 173 Q416 177 425 182 Q462 200 497 221 Q505 226 513.5 232 Q522 238 530 244 Q536 248 540 251 Q542 253 544 254 Q549 257 552.5 260.5 Q556 264 560 267 Q575 279 588 267 Z M245 -56 Q283 -8 303 30.5 Q323 69 331 101 L327 100 Q289 86 249.5 75 Q210 64 171 53 Q152 48 134 43 Q116 38 98 34 Q78 29 59.5 24 Q41 19 23 11 Q3 3 -20 -12 Q-43 -27 -59.5 -46.5 Q-76 -66 -81 -89 Q-86 -112 -69 -137 Q-57 -157 -38 -166.5 Q-19 -176 3 -178 Q25 -180 47 -177 Q69 -174 89 -168 Q136 -153 175 -123.5 Q214 -94 245 -56 Z M309 430 Q384 499 427 596 Q440 625 443 659 L443 669 Q444 675 445.5 680 Q447 685 455 684 Q463 683 463 677.5 Q463 672 463 667 Q462 627 446.5 592 Q431 557 411 524 Q394 495 372 469 Q350 443 325 419 Q311 406 299.5 392 Q288 378 275 363 Q302 348 325.5 326 Q349 304 372 278 Q387 261 395.5 240.5 Q404 220 411 198 Q411 196 411.5 195 Q412 194 412 192 Q412 187 411 183.5 Q410 180 404 179 Q399 178 397 181 Q395 184 393 189 Q392 191 392 192.5 Q392 194 391 196 Q384 220 373 241.5 Q362 263 344 281 Q324 301 302.5 320.5 Q281 340 254 352 Q234 362 252 377 Q266 391 280.5 403.5 Q295 416 309 430 Z M568 210 Q577 214 580 202 L577 196 Q573 192 571 191 Q535 165 498 142 Q461 119 419 103 Q403 97 399 82 Q380 19 347.5 -34.5 Q315 -88 270 -134 Q250 -155 226 -172 Q202 -189 179 -208 Q174 -211 170 -211 Q165 -213 161 -208 Q160 -206 159.5 -203.5 Q159 -201 161 -199 Q165 -194 173 -189 Q188 -177 203.5 -166 Q219 -155 233 -143 Q262 -119 284.5 -90 Q307 -61 327 -30 Q346 -1 359.5 30.5 Q373 62 383 96 Q387 112 405 118 Q446 132 481.5 154.5 Q517 177 552 201 Q556 203 559.5 205.5 Q563 208 568 210 Z " />
<glyph glyph-name="a" unicode="a" horiz-adv-x="279" d="M302 266 Q307 261 307 252.5 Q307 244 302 239 Q285 222 267.5 205.5 Q250 189 233 172 Q217 158 201.5 143.5 Q186 129 169 115 Q160 108 151.5 101.5 Q143 95 134 88 Q123 79 110 72.5 Q97 66 83 66 Q52 68 43 96 Q41 102 40 107.5 Q39 113 39 119 Q39 122 38.5 125 Q38 128 38 131 Q38 132 38 135 Q38 138 39 139 Q28 130 16 122 Q4 114 -10 109 Q-19 107 -30 107.5 Q-41 108 -49 117 Q-62 130 -62 149.5 Q-62 169 -59 182 Q-54 199 -47 212.5 Q-40 226 -31 239 Q-5 277 38 291 Q45 293 54.5 294 Q64 295 73 292.5 Q82 290 88.5 284 Q95 278 97 266 Q98 264 98 262.5 Q98 261 100 260 Q113 245 105 220 Q101 209 97.5 198 Q94 187 91 176 Q87 165 84.5 153.5 Q82 142 80 130 Q78 123 79 112.5 Q80 102 92 107 Q95 109 98 110.5 Q101 112 104 114 Q120 125 134 136.5 Q148 148 162 160 Q191 186 218.5 212.5 Q246 239 274 266 Q280 272 288 272 Q296 272 302 266 Z M73 258 Q64 258 55.5 254 Q47 250 39 245 Q30 239 22 231 Q14 223 7 215 Q-1 204 -8 192.5 Q-15 181 -19 167 Q-21 162 -21 154.5 Q-21 147 -12 151 L-11 151 Q-6 153 -0.5 156.5 Q5 160 6 161 Q25 175 37 193 Q47 206 53.5 218.5 Q60 231 63 239 L73 258 Z M169 110 Q174 112 177 109 Q179 107 179.5 104 Q180 101 179 100 Q161 82 141.5 65.5 Q122 49 96 43 Q94 43 90 42 Q88 44 85 45.5 Q82 47 81 50 Q79 54 82 56 Q85 58 89 59 Q109 62 124.5 73.5 Q140 85 154 98 Q158 101 161 104.5 Q164 108 169 110 Z M104 201 Q105 203 108 205.5 Q111 208 113 207 Q118 207 119 203.5 Q120 200 118 196 Q113 177 108.5 158.5 Q104 140 99 121 Q98 119 95.5 117.5 Q93 116 91 114 Q85 120 82 124 Q88 144 93.5 163 Q99 182 104 201 Z " />
<glyph glyph-name="b" unicode="b" horiz-adv-x="357" d="M380 262 Q385 255 382.5 247.5 Q380 240 373 235 Q362 227 350 219 Q338 211 325 203 Q284 178 238.5 161 Q193 144 145 143 Q140 135 135 130 Q135 129 133 127 Q109 97 75 74 Q44 54 13 51 Q7 51 1 51.5 Q-5 52 -11 54 Q-25 59 -29.5 71.5 Q-34 84 -27 100 Q-24 108 -19 115 Q-14 122 -8 128 Q22 158 62 172 Q75 177 87.5 179 Q100 181 114 183 Q116 183 119 183.5 Q122 184 124 184 Q134 200 132 215 Q132 221 131 227 Q130 233 128 239 Q124 252 107 249 Q102 247 98 245.5 Q94 244 90 242 Q79 237 68.5 229 Q58 221 48 213 Q28 196 12.5 175 Q-3 154 -16 131 Q-18 128 -20 124.5 Q-22 121 -25 118 Q-36 104 -50 109 Q-64 113 -59 130 Q-59 131 -57 137 L-45 167 Q-45 167 -44 169 L3 285 Q15 314 27 343 Q39 372 51 401 Q74 458 99 514 Q124 570 152 626 Q168 661 181 693 Q182 695 182.5 696.5 Q183 698 185 700 Q189 709 196.5 713 Q204 717 212 715 Q220 713 222.5 706.5 Q225 700 222 691 Q219 684 216 677 Q213 670 210 662 Q184 608 160 556 Q135 502 112 448.5 Q89 395 68 341 Q59 319 50 298 Q41 277 33 255 Q32 253 31.5 251 Q31 249 29 246 Q32 248 33.5 249 Q35 250 37 252 Q49 261 61 269 Q73 277 87 283 Q104 290 118 291 Q150 292 165 266 Q178 242 173 209 Q172 208 172 206 Q171 204 171 202 Q171 200 170 198 Q170 196 165 183 L166 183 Q168 183 168.5 183.5 Q169 184 170 184 Q175 184 177 185 Q189 187 201.5 190 Q214 193 226 198 Q229 199 232 200 Q235 201 239 202 Q241 204 244 204 Q245 205 245.5 205 Q246 205 247 206 Q252 208 258 211 Q264 214 269 216 Q292 228 312.5 241.5 Q333 255 354 269 Q361 274 368.5 271 Q376 268 380 262 Z M13 94 Q20 92 30.5 95 Q41 98 52.5 104.5 Q64 111 75 120 Q86 129 94 139 Q65 136 41.5 121 Q18 106 13 94 Z M172 567 Q174 569 182 571 Q183 568 184 565 Q185 562 186 559 Q186 558 185 556.5 Q184 555 183 553 Q153 490 127 427 Q101 364 76 299 Q74 296 72.5 292.5 Q71 289 69 285 Q66 276 58 281 Q56 283 55.5 285 Q55 287 54 289 Q56 293 56.5 295 Q57 297 58 299 Q84 362 110 424 Q136 486 162 549 Q164 554 166.5 558 Q169 562 172 567 Z M245 159 Q248 161 251.5 162.5 Q255 164 259 165 Q261 165 263.5 162.5 Q266 160 270 158 Q266 154 264 152 Q262 150 260 148 Q239 137 216.5 130 Q194 123 171 122 Q156 122 147 110 Q121 75 85 56 Q76 52 69 51 Q64 51 62 57 Q61 58 62 60 Q63 62 64 64 Q66 66 70 68 Q91 77 107.5 91.5 Q124 106 138 125 Q148 139 166 139 Q187 138 206.5 144 Q226 150 245 159 Z " />
<glyph glyph-name="c" unicode="c" horiz-adv-x="248" d="M273 266 Q278 261 278 252.5 Q278 244 273 239 Q255 222 236 207.5 Q217 193 197 179 Q180 167 163.5 156 Q147 145 130 134 Q105 117 79 101 Q53 85 24 77 Q12 74 -1 73.5 Q-14 73 -26 76.5 Q-38 80 -47.5 88 Q-57 96 -61 110 Q-69 136 -61 164 Q-53 192 -42 216 Q-36 229 -28 241.5 Q-20 254 -9 264 Q-8 265 -3 268.5 Q2 272 9.5 275.5 Q17 279 26 281.5 Q35 284 44 283 L45 283 L46 283 Q56 280 65 274 Q77 265 76 250 Q74 236 61 231 Q49 226 39 238 Q38 240 35 243 Q24 241 17 233 Q10 225 5 217 Q-1 207 -5.5 197 Q-10 187 -14 176 Q-21 157 -21 140 Q-21 132 -17.5 123.5 Q-14 115 -6 113 Q2 111 10.5 113.5 Q19 116 27 119 Q40 124 51.5 130.5 Q63 137 74 145 Q99 159 126 178 Q142 188 157.5 198.5 Q173 209 188 220 Q193 223 196.5 226 Q200 229 204 232 L205 233 Q206 233 206 233.5 Q206 234 207 234 Q207 234 209 236 Q211 238 212.5 238.5 Q214 239 216 241 Q224 247 231 253.5 Q238 260 245 266 Q251 272 259 272 Q267 272 273 266 Z M146 141 Q148 142 151.5 141 Q155 140 159 139 Q158 136 158 133 Q158 130 156 128 Q124 104 91.5 83.5 Q59 63 17 56 Q14 55 10.5 55 Q7 55 4 55 Q-1 55 -3 56 Q-7 57 -10 59 Q-13 61 -11 65 Q-9 72 -2 72 Q15 71 30.5 76 Q46 81 61 87 Q81 95 97.5 107 Q114 119 131 131 Q135 133 138 136 Q141 139 146 141 Z M21 202 Q18 196 15 190.5 Q12 185 10 179 Q5 167 2 155 Q-1 143 1 130 Q1 120 -6 120 Q-11 120 -15 128 Q-17 131 -17 135 Q-17 139 -17 142 Q-15 162 -8.5 178.5 Q-2 195 8 211 Q12 218 19 214 Q26 210 21 202 Z " />
<glyph glyph-name="d" unicode="d" horiz-adv-x="302" d="M325 262 Q330 255 327.5 247.5 Q325 240 318 236 L124 90 Q116 84 104.5 76.5 Q93 69 81 63 Q69 57 58 54.5 Q47 52 41 56 L40 56 Q28 64 29 77 Q30 90 35 103 L53 147 Q46 141 40 137 Q28 129 17 123 L17 122 Q4 115 -7 111 Q-15 109 -26.5 109.5 Q-38 110 -46 119 Q-59 132 -59 151.5 Q-59 171 -56 184 Q-51 201 -43.5 214.5 Q-36 228 -28 241 Q-2 279 42 293 Q49 295 58 296 Q67 297 76 294.5 Q85 292 92 286 Q99 280 101 268 L101 266 L126 327 L279 686 Q281 690 283 693 Q284 695 284.5 696.5 Q285 698 286 700 Q296 720 313 715 Q321 713 323.5 706.5 Q326 700 323 692 Q322 690 322 689 Q322 688 321 686 L279 588 Q272 571 265 554 Q258 537 250 520 Q245 508 239.5 495.5 Q234 483 229 471 Q222 455 216 440 Q210 425 203 409 Q195 392 188.5 375.5 Q182 359 174 342 L168 327 L153 292 Q146 274 138 255 Q131 238 122.5 217.5 Q114 197 106 176 Q104 172 103 169 Q102 166 100 162 L89 134 L77 104 Q83 108 85 110 L86 110 Q88 111 92 115 L93 115 L94 116 Q94 116 96 117 L299 269 Q306 274 313.5 271.5 Q321 269 325 262 Z M74 254 Q75 256 75 260 Q67 259 58.5 255.5 Q50 252 43 247 Q33 241 25.5 233 Q18 225 10 217 Q2 206 -5 194.5 Q-12 183 -16 169 Q-18 165 -19 158 Q-20 151 -12 152 L-8 152 L4 158 Q28 171 44 195 Q49 202 53.5 209.5 Q58 217 62 225 Q68 238 73 250 Q73 251 73.5 252 Q74 253 74 254 Z M293 609 Q297 619 304 613 Q306 612 307 609.5 Q308 607 309 605 Q307 600 306 596.5 Q305 593 303 590 Q257 481 211.5 372 Q166 263 120 154 Q116 144 113 140 Q112 138 109 136.5 Q106 135 105 136 Q103 138 101 141 Q99 144 100 146 Q100 152 104 160 Q137 238 169.5 316 Q202 394 235 472 Q248 503 261 534 Q274 565 287 596 Q289 601 293 609 Z M185 129 Q187 130 190.5 129.5 Q194 129 195 127 Q197 125 196 122 Q195 119 194 116 Q194 115 190 113 Q169 97 148.5 81.5 Q128 66 107 51 Q98 45 88 41.5 Q78 38 68 33 Q65 32 62 32 Q59 32 57 31 Q54 32 51.5 31.5 Q49 31 47 32 Q44 35 40 43 Q42 45 44.5 46.5 Q47 48 49 48 Q63 47 75.5 52.5 Q88 58 99 66 Q118 80 136.5 93.5 Q155 107 174 121 Q177 123 179.5 125.5 Q182 128 185 129 Z " />
<glyph glyph-name="e" unicode="e" horiz-adv-x="249" d="M270 266 Q276 261 276 252.5 Q276 244 270 239 Q234 206 195 179 Q178 167 161 156 Q144 145 127 134 Q102 117 76.5 101 Q51 85 22 77 Q-3 70 -28.5 76 Q-54 82 -63 110 Q-71 136 -63 164 Q-55 192 -44 216 Q-34 238 -17.5 257.5 Q-1 277 24 282 Q43 287 61 275.5 Q79 264 76 242 Q73 224 59 210 Q39 193 20.5 188.5 Q2 184 -7 184 Q-9 184 -10 184.5 Q-11 185 -12 185 L-13 185 L-16 176 Q-19 168 -21.5 158.5 Q-24 149 -24 140 Q-24 132 -20.5 123.5 Q-17 115 -9 113 Q0 111 8.5 113.5 Q17 116 25 119 Q38 124 49.5 130.5 Q61 137 72 145 Q97 160 123 178 Q139 188 155 198.5 Q171 209 186 220 Q190 223 193.5 226 Q197 229 202 232 L204 234 Q206 236 206 236 Q212 240 213 241 Q221 247 228 253.5 Q235 260 243 266 Q256 279 270 266 Z M33 243 Q24 241 18 235.5 Q12 230 7 223 L8 223 L11 225 Q13 226 13.5 226.5 Q14 227 16 228 Q17 229 18 229.5 Q19 230 20 231 Q21 231 21 231.5 Q21 232 22 232 Q25 234 28 237 Q31 240 33 242 L33 243 Z M136 132 Q141 134 146 129 Q148 126 144 120 Q143 118 142 117.5 Q141 117 139 115 Q131 110 124.5 106 Q118 102 110 97 Q89 84 67 72.5 Q45 61 20 56 Q12 54 2 53 Q-8 52 -14 58 Q-15 59 -15.5 60 Q-16 61 -17 62 L-17 66 Q-15 69 -10.5 69 Q-6 69 -4 69 Q8 69 19 72 Q24 74 29.5 75.5 Q35 77 40 79 Q61 90 81.5 101.5 Q102 113 123 125 Q126 127 129 129 Q132 131 136 132 Z M-9 179 Q-5 183 -1 181 Q0 181 2 179 L2 176 L2 175 Q1 174 1 173 Q1 173 0 171 L0 170 L0 169 Q0 168 -0.5 168 Q-1 168 -1 167 L-1 162 Q-2 157 -1.5 151.5 Q-1 146 -2 141 Q-4 134 -8 132 Q-15 132 -17 137 Q-22 145 -18.5 159.5 Q-15 174 -9 179 Z " />
<glyph glyph-name="f" unicode="f" horiz-adv-x="235" d="M251 254 Q251 252 250.5 247.5 Q250 243 245 241 L5 117 Q5 117 6 112 Q7 107 7.5 101 Q8 95 8.5 90 Q9 85 9 84 Q10 75 9.5 66 Q9 57 8 48 Q3 10 -8 -28 Q-19 -66 -33 -102 Q-43 -127 -54.5 -151.5 Q-66 -176 -82 -198 Q-92 -211 -104.5 -222.5 Q-117 -234 -134 -238 Q-148 -242 -162 -236 Q-176 -230 -180 -214 Q-186 -191 -178.5 -167.5 Q-171 -144 -163 -123 L-163 -122 Q-161 -118 -160.5 -115 Q-160 -112 -158 -109 L-109 17 Q-103 32 -97 46.5 Q-91 61 -85 76 Q-75 102 -64.5 127 Q-54 152 -43 177 L-38 190 L-37 192 Q-34 198 -28.5 211 Q-23 224 -16 239.5 Q-9 255 -2 271 Q5 287 10 298 L15 309 L169 668 Q170 670 170.5 671.5 Q171 673 172 675 Q173 677 173.5 679 Q174 681 175 683 Q185 701 203 698 Q211 696 213.5 689 Q216 682 213 674 L210 668 L169 570 Q166 563 163 556 Q160 549 157 542 L-10 152 L174 242 L235 272 L241 270 Q243 268 245.5 266.5 Q248 265 250 260 Q251 258 251 254 Z M-30 57 Q-30 63 -29.5 69 Q-29 75 -29 81 Q-29 84 -29.5 87 Q-30 90 -30 93 L-30 94 L-30 95 Q-30 96 -30.5 97 Q-31 98 -31 100 Q-51 52 -74 -4 Q-97 -60 -113 -102 Q-119 -118 -126.5 -137 Q-134 -156 -139 -173 Q-140 -176 -140.5 -180.5 Q-141 -185 -140.5 -188.5 Q-140 -192 -137.5 -193 Q-135 -194 -129 -191 Q-121 -186 -115 -179.5 Q-109 -173 -104 -165 Q-102 -162 -100.5 -159 Q-99 -156 -97 -153 Q-94 -148 -90.5 -142 Q-87 -136 -85 -130 L-79 -118 L-76 -112 Q-76 -111 -75.5 -110.5 Q-75 -110 -75 -109 Q-70 -96 -65.5 -84 Q-61 -72 -57 -59 Q-53 -47 -50.5 -34.5 Q-48 -22 -44 -10 Q-42 2 -39 13.5 Q-36 25 -34 36 Q-32 44 -32 49 Q-31 50 -31 53 Q-31 52 -31 54.5 Q-31 57 -30 57 Z M30 104 Q31 96 31.5 89.5 Q32 83 33 76 Q35 51 32 27 Q29 3 23 -21 Q12 -65 -5 -106 Q-22 -147 -46 -185 Q-49 -191 -54 -196 Q-58 -200 -62 -198 Q-64 -196 -65.5 -194 Q-67 -192 -66 -190 Q-66 -186 -64.5 -183 Q-63 -180 -61 -177 Q-5 -86 13 18 Q20 58 13 98 Q11 109 12.5 112 Q14 115 22 120 Q44 131 65 142 Q86 153 107 164 Q110 166 113 167.5 Q116 169 120 169 Q122 170 124.5 169 Q127 168 128 166 Q130 161 126 157 Q123 154 115 150 Q94 139 73 127.5 Q52 116 30 104 Z M19 175 Q17 180 15 182.5 Q13 185 12 188 Q12 191 16 197 Q39 251 61 304 Q83 357 106 411 Q122 449 139 487 Q156 525 173 563 Q177 571 180 574 Q186 578 191 575 Q195 571 193 565 Q191 560 188.5 555.5 Q186 551 184 546 Q147 461 111 377.5 Q75 294 39 209 Q37 203 34 197 Q31 191 28 185 Q27 183 24.5 181 Q22 179 19 175 Z " />
<glyph glyph-name="g" unicode="g" horiz-adv-x="301" d="M315 271 Q326 267 327.5 255.5 Q329 244 320 235 Q309 225 298 216 Q287 207 276 198 Q269 192 262 186 Q255 180 248 175 Q246 174 244 172 Q233 164 223.5 156.5 Q214 149 203 141 Q169 116 141 100 Q113 84 92 73 Q67 61 47 54 L31 15 Q27 6 23.5 -2.5 Q20 -11 16 -20 Q15 -21 15 -21.5 Q15 -22 14 -23 Q3 -49 -10.5 -73 Q-24 -97 -38 -120 Q-55 -146 -76.5 -172.5 Q-98 -199 -127 -210 Q-148 -218 -167 -210 Q-186 -202 -194 -180 Q-202 -156 -196 -128 Q-194 -116 -189 -105 Q-184 -94 -178 -83 Q-161 -56 -140 -33 Q-119 -10 -94 10 Q-72 29 -46 46 Q-38 52 -29 57.5 Q-20 63 -12 68 Q-8 70 -3 73 Q2 76 7 79 Q9 79 11 81 Q11 81 13 82 Q14 83 14.5 83 Q15 83 16 84 Q19 88 20 92 L39 139 Q28 130 17 122.5 Q6 115 -8 111 Q-16 109 -27.5 109.5 Q-39 110 -47 119 Q-60 132 -60 151.5 Q-60 171 -56 184 Q-52 201 -44.5 214.5 Q-37 228 -28 241 Q-2 279 41 293 Q48 295 57 296 Q66 297 75 294.5 Q84 292 91 286 Q98 280 100 268 Q100 264 102 262 Q108 256 110 247.5 Q112 239 110 231 Q106 216 102 201 Q98 186 93 172 Q88 159 84.5 147.5 Q81 136 77 127 Q73 116 69 106 Q89 115 109 126 Q126 135 146.5 148 Q167 161 187 175 Q188 176 189 176.5 Q190 177 191 178 L192 179 Q214 196 231.5 211 Q249 226 262 237 Q277 250 289 261 L295 267 Q305 274 315 271 Z M-22 -7 Q-19 -1 -16.5 5.5 Q-14 12 -10 20 Q-18 15 -23.5 12 Q-29 9 -35 5 Q-59 -11 -80 -30 Q-101 -49 -120 -71 Q-129 -82 -136.5 -92.5 Q-144 -103 -149 -114 Q-161 -137 -158 -157 Q-156 -167 -152 -170 Q-146 -175 -137 -170.5 Q-128 -166 -118 -156.5 Q-108 -147 -97.5 -132.5 Q-87 -118 -77 -103 Q-53 -67 -27 -18 Q-26 -15 -22 -7 Z M9 163 Q25 175 40 195 Q49 208 55.5 220.5 Q62 233 66 241 L75 260 Q66 260 57.5 256 Q49 252 42 247 Q32 241 24.5 233 Q17 225 10 217 Q1 206 -6 194.5 Q-13 183 -17 169 Q-19 164 -19 156.5 Q-19 149 -9 153 Q-4 155 1.5 158.5 Q7 162 9 163 Z M198 123 Q206 123 209 118 Q211 117 209.5 114 Q208 111 206 109 Q205 107 203.5 106.5 Q202 106 200 104 Q171 84 140.5 67.5 Q110 51 77 37 Q67 33 64 22 Q37 -54 -6 -123 Q-20 -146 -38 -168.5 Q-56 -191 -79 -208 Q-88 -215 -98 -220 Q-108 -225 -118 -230 Q-123 -232 -127.5 -233.5 Q-132 -235 -138 -237 Q-140 -235 -142.5 -233 Q-145 -231 -147 -228 Q-147 -226 -144.5 -223 Q-142 -220 -140 -219 Q-98 -208 -72.5 -180.5 Q-47 -153 -27 -121 Q-3 -86 14.5 -48.5 Q32 -11 46 29 Q51 45 70 53 Q101 65 128.5 81 Q156 97 183 114 Q190 120 198 123 Z M94 161 Q99 175 104 189 Q109 203 112 217 Q114 225 113.5 234 Q113 243 112 251 Q112 253 111 256 Q110 259 111 261 Q113 268 117 268 Q124 268 126 263 Q128 255 129.5 247.5 Q131 240 132 235 Q130 210 123 188.5 Q116 167 106 147 Q104 142 100 141 Q95 139 93 141 Q89 143 89 148 Q90 152 91.5 155 Q93 158 94 161 Z " />
<glyph glyph-name="h" unicode="h" horiz-adv-x="346" d="M193 588 Q197 592 202 591 Q204 590 205 588 Q206 586 207 584 Q206 580 205 577 Q204 574 203 572 Q165 486 128.5 401.5 Q92 317 54 232 Q52 227 50 222.5 Q48 218 40 220 Q32 223 39 240 Q76 325 113 409.5 Q150 494 188 579 Q190 586 193 588 Z M240 109 Q245 111 249 107 Q250 105 248 98 Q247 96 242 91 L167 25 Q151 11 134.5 -0.5 Q118 -12 99 -20 Q94 -22 90.5 -23 Q87 -24 82 -26 Q75 -26 72 -25 Q70 -24 68.5 -22.5 Q67 -21 68 -19 Q68 -16 72 -12 Q73 -11 75 -11 Q100 -6 119.5 8 Q139 22 158 39 Q176 54 193.5 69.5 Q211 85 228 100 Q234 106 240 109 Z M370 266 Q375 261 375.5 252.5 Q376 244 370 239 Q354 226 339 213.5 Q324 201 309 188 Q283 165 258 142.5 Q233 120 209 96 Q190 77 171 59 Q152 41 130 24 Q120 16 108.5 9 Q97 2 85 -1 Q70 -3 61 4 L61 5 Q53 11 51 22 Q49 31 51.5 40.5 Q54 50 57 60 Q67 85 74 106 Q81 123 87 140.5 Q93 158 95 175 Q96 177 96 182 L96 183 L96 185 Q96 192 89 190 Q88 189 87 189 Q83 187 75 181 Q70 177 64.5 173 Q59 169 54 164 Q43 155 33 145.5 Q23 136 12 127 Q4 121 -3 114.5 Q-10 108 -18 102 Q-24 96 -30.5 90 Q-37 84 -45 80 Q-58 72 -68.5 77 Q-79 82 -77 95 Q-76 100 -74 106 Q-72 112 -70 118 Q-53 155 -37 191 Q-21 227 -4 264 Q13 302 29 338.5 Q45 375 62 412 Q77 447 92 482 Q107 517 123 552 Q134 578 145 604 Q156 630 167 656 Q171 664 176 669 Q188 683 204 678 Q219 671 213 656 Q199 625 185.5 594 Q172 563 158 531 Q144 499 130 466.5 Q116 434 102 402 Q85 365 69.5 328.5 Q54 292 37 255 Q28 235 19 215.5 Q10 196 1 176 Q0 175 0 173.5 Q0 172 -2 170 Q2 172 4 173.5 Q6 175 8 177 Q23 190 39 201.5 Q55 213 73 223 Q78 226 84 228.5 Q90 231 96 233 Q126 242 137 221 Q142 213 142.5 203.5 Q143 194 141 185 Q139 167 133.5 149 Q128 131 122 114 Q117 102 112.5 90 Q108 78 103 66 Q101 62 100.5 58 Q100 54 98 49 Q111 57 122 67 Q133 77 144 87 Q156 98 167 109 Q178 120 189 131 Q201 142 213 153 Q225 164 237 175 Q263 198 289 221 Q315 244 342 266 Q356 278 370 266 Z M82 163 Q79 161 76 158 Q73 155 70 153 Q65 148 59.5 142.5 Q54 137 48 132 Q43 127 37 121.5 Q31 116 26 111 Q20 106 14.5 101 Q9 96 3 91 Q-7 83 -18 75.5 Q-29 68 -40 61 Q-46 56 -53 55 Q-60 53 -64 53.5 Q-68 54 -70 54 Q-71 55 -71.5 55 Q-72 55 -73 56 Q-74 57 -77 62 Q-79 66 -72 69 Q-71 70 -69 70 Q-61 67 -55.5 69.5 Q-50 72 -45 75 Q-24 87 -6 102.5 Q12 118 29 134 Q40 145 51 155 Q62 165 73 176 Q76 179 82 183 Q88 187 93 182 Q93 182 93 178 Q93 174 88 169 L87 168 L82 163 Z " />
<glyph glyph-name="i" unicode="i" horiz-adv-x="225" d="M249 265 Q256 255 251 247 Q248 243 244 239 L171 192 Q170 191 169.5 191 Q169 191 168 190 Q145 174 121.5 158 Q98 142 74 126 Q59 115 44 106 Q29 97 13 87 Q-2 77 -22 74 Q-33 73 -45 77 Q-68 87 -66 118 Q-65 126 -64 132.5 Q-63 139 -61 147 Q-59 158 -47 188.5 Q-35 219 -5 266 Q10 279 21 266 Q27 261 27.5 253 Q28 245 23 237 Q9 211 -3 185 Q-15 159 -23 130 Q-24 128 -24 126.5 Q-24 125 -25 123 Q-25 122 -24.5 121.5 Q-24 121 -24 119 Q-22 120 -19 120 Q-16 120 -14 122 Q-4 127 5 132 Q14 137 23 143 Q45 157 66 172 Q87 187 109 202 Q135 220 162 236.5 Q189 253 218 267 Q224 271 229 271 Q240 274 249 265 Z M59 366 Q51 366 46 372 Q41 378 40 386 Q40 394 46 399.5 Q52 405 60 405 Q79 405 79 386 Q80 378 73.5 372 Q67 366 59 366 Z M-12 153 Q-4 171 4.5 189.5 Q13 208 22 226 Q24 233 28 236 Q31 239 38 237 Q39 237 39.5 234.5 Q40 232 42 230 Q40 228 39.5 225.5 Q39 223 37 221 Q29 202 20 183 Q11 164 3 145 Q2 143 2 141.5 Q2 140 1 139 Q-1 137 -3.5 135.5 Q-6 134 -7 135 Q-14 137 -14 143 Q-15 145 -14 148 Q-13 151 -12 153 Z M165 182 Q171 187 175 180.5 Q179 174 173 169 Q160 160 147.5 151 Q135 142 122 134 Q100 119 79 103.5 Q58 88 35 74 Q15 63 -8 54.5 Q-31 46 -54 56 Q-57 58 -58 61.5 Q-59 65 -57 67 Q-53 74 -47 70 Q-36 65 -23 67 Q-10 69 1 74 Q22 83 41.5 96.5 Q61 110 80 124 Q102 138 123 153 Q144 168 165 182 Z " />
<glyph glyph-name="j" unicode="j" horiz-adv-x="213" d="M48 360 Q40 360 34.5 365.5 Q29 371 29 379 Q29 387 35 393 Q41 399 49 399 Q57 399 62.5 393 Q68 387 68 379 Q68 371 62 365.5 Q56 360 48 360 Z M229 271 Q240 267 242 255.5 Q244 244 235 235 Q224 225 213 216 Q202 207 191 198 Q183 192 176.5 186 Q170 180 163 175 Q161 174 159 172 Q148 164 138.5 156.5 Q129 149 118 141 Q84 116 56 100 Q28 84 7 73 Q-18 61 -38 54 L-54 15 Q-58 6 -61.5 -2.5 Q-65 -11 -69 -20 Q-70 -21 -70 -21.5 Q-70 -22 -71 -23 Q-82 -49 -95.5 -73 Q-109 -97 -123 -120 Q-140 -146 -161.5 -172.5 Q-183 -199 -213 -210 Q-233 -218 -252 -210 Q-271 -202 -279 -180 Q-284 -167 -284 -154.5 Q-284 -142 -281 -128 Q-279 -116 -274 -105 Q-269 -94 -263 -83 Q-246 -56 -225 -33 Q-204 -10 -179 10 Q-157 29 -131 46 Q-123 52 -114 57.5 Q-105 63 -97 68 Q-93 70 -88 73 Q-83 76 -78 79 Q-78 79 -74 81 Q-74 81 -72 82 Q-71 83 -70.5 83 Q-70 83 -69 84 L-4 258 Q-4 261 -1 265 Q1 267 4.5 269.5 Q8 272 14 272 Q19 272 22 269 Q28 264 30 257.5 Q32 251 32 245 Q32 238 30 230 L2 157 Q-2 146 -5 137 Q-8 128 -11 121 Q-15 113 -17 106 Q3 115 23 126 Q40 135 61 148 Q82 161 102 175 Q103 176 104 176.5 Q105 177 106 178 L107 179 Q129 196 146.5 211 Q164 226 177 237 Q192 250 204 261 L210 267 Q220 274 229 271 Z M-107 -7 Q-104 -1 -101.5 5.5 Q-99 12 -96 20 Q-103 15 -109 12 Q-115 9 -120 5 Q-144 -11 -165 -30 Q-186 -49 -205 -71 Q-224 -93 -235 -114 Q-240 -125 -242.5 -135.5 Q-245 -146 -243 -157 Q-241 -167 -237 -170 Q-231 -175 -222 -170.5 Q-213 -166 -203 -156.5 Q-193 -147 -182.5 -132.5 Q-172 -118 -162 -103 Q-138 -67 -112 -18 Q-111 -15 -107 -7 Z M107 127 Q109 128 112.5 127.5 Q116 127 116 126 Q118 122 116 115 Q114 113 112 111.5 Q110 110 108 108 Q82 88 53 71.5 Q24 55 -5 41 Q-18 34 -24 20 Q-42 -25 -62.5 -68 Q-83 -111 -113 -150 Q-124 -164 -136 -177 Q-148 -190 -161 -204 Q-163 -207 -166.5 -208.5 Q-170 -210 -172 -212 Q-178 -212 -180.5 -208.5 Q-183 -205 -181 -201 Q-179 -198 -176 -196 Q-145 -170 -123.5 -139 Q-102 -108 -84 -73 Q-71 -47 -59.5 -20.5 Q-48 6 -37 33 Q-31 47 -18 54 Q12 67 40 83 Q68 99 94 119 Q100 123 107 127 Z M2 123 Q-5 126 -1 136 Q6 154 12 171.5 Q18 189 25 206 Q25 208 26 209 Q28 211 31 213 Q34 215 36 217 Q38 214 39.5 211 Q41 208 43 206 Q35 186 28.5 167 Q22 148 14 130 Q12 126 9.5 123.5 Q7 121 2 123 Z " />
<glyph glyph-name="k" unicode="k" horiz-adv-x="316" d="M340 262 Q345 255 342 247.5 Q339 240 333 235 Q322 227 310 218.5 Q298 210 287 202 Q284 200 281.5 197.5 Q279 195 276 193 Q275 192 274 191.5 Q273 191 272 190 L271 190 Q271 189 270 189 Q269 189 269 188 L267 186 Q262 182 256 178 Q250 174 245 169 Q207 138 168 104 Q149 88 130.5 71.5 Q112 55 93 39 Q88 35 83.5 31.5 Q79 28 74 24 Q69 19 63.5 15 Q58 11 52 8 Q36 -2 20 8 Q15 11 11 16.5 Q7 22 4 28 Q-10 60 -14 93 L-39 60 Q-42 56 -45.5 52 Q-49 48 -53 44 Q-64 31 -79 34 Q-88 35 -92 41 Q-96 47 -93 56 Q-90 63 -86.5 70 Q-83 77 -80 84 Q-79 87 -77 91 L-68 113 L10 298 Q16 313 22.5 328 Q29 343 36 358 Q58 408 80.5 457.5 Q103 507 126 557 Q143 593 160.5 629 Q178 665 195 701 Q197 704 199 710 Q201 719 208 725.5 Q215 732 225 733 Q235 735 241 729.5 Q247 724 246 716 Q245 707 238 695 Q206 632 176 568.5 Q146 505 117 440 Q100 404 85 368 Q70 332 55 296 Q42 267 30 237.5 Q18 208 6 179 Q4 173 1.5 167 Q-1 161 -4 154 Q37 195 70 224 Q84 236 98.5 246.5 Q113 257 125.5 263.5 Q138 270 147.5 271 Q157 272 162 265 Q170 251 151.5 227 Q133 203 106 177 L103 174 Q95 166 86 159 Q77 152 69 145 Q40 123 23 112 L23 103 L24 98 Q24 95 25 94 Q25 89 27 81 Q29 75 30.5 69 Q32 63 34 57 Q35 54 37 50 Q37 49 38 47 Q39 45 38 47 Q38 46 39 45 Q39 46 40 46 Q41 48 42 48.5 Q43 49 44 50 Q44 51 45 51 Q46 51 47 52 Q49 54 51 55 Q53 56 55 58 L91 88 Q109 104 126.5 119.5 Q144 135 162 151 Q236 214 313 269 Q320 274 328 271 Q336 268 340 262 Z M226 636 Q232 633 230.5 628.5 Q229 624 227 620 Q211 588 195.5 556 Q180 524 163 492 Q134 433 110.5 372.5 Q87 312 62 252 Q60 246 57.5 240 Q55 234 52 228 Q48 218 41 223 Q38 225 36 232 Q39 241 41 243 Q56 281 70 318.5 Q84 356 101 393 Q121 438 142 482.5 Q163 527 185 572 Q190 584 196.5 596 Q203 608 209 620 Q210 622 210.5 623.5 Q211 625 212 627 Q214 631 217 635 Q220 639 226 636 Z M190 119 Q194 123 199 126.5 Q204 130 209 125 Q215 118 210.5 114.5 Q206 111 202 107 Q175 84 148.5 60 Q122 36 95 13 Q86 5 76 -1 Q66 -7 56 -13 Q52 -15 47.5 -16 Q43 -17 39 -19 Q36 -17 34 -17 Q32 -17 30 -15 Q26 -11 26 -7 Q27 -5 28.5 -3 Q30 -1 32 -1 Q48 -2 58.5 6.5 Q69 15 80 23 Q88 29 94.5 35 Q101 41 108 47 Q128 65 149 83 Q170 101 190 119 Z M36 100 Q33 100 30.5 101.5 Q28 103 25 105 Q27 107 28.5 110.5 Q30 114 32 115 Q64 129 89 152.5 Q114 176 138 202 Q147 211 155 221.5 Q163 232 171 242 Q175 248 181 248 Q183 248 185 246.5 Q187 245 189 244 Q186 239 185 236 Q184 233 183 231 Q155 194 123 161.5 Q91 129 51 106 Q43 100 36 100 Z " />
<glyph glyph-name="l" unicode="l" horiz-adv-x="208" d="M231 266 Q236 261 236 252.5 Q236 244 231 239 Q210 219 192 198 Q174 177 156 156 Q124 118 90 82 Q56 46 18 14 Q4 3 -12 -9 Q-28 -21 -46 -26 Q-63 -29 -73.5 -27 Q-84 -25 -90.5 -19.5 Q-97 -14 -100 -7.5 Q-103 -1 -104 5 L-104 7 Q-104 8 -105 8 L-105 9 L-105 14 L-105 18 Q-105 26 -102 37 Q-99 47 -95.5 57 Q-92 67 -89 77 L-49 170 L-43 182 Q-17 239 8 294.5 Q33 350 58 407 Q78 452 98 495 Q118 538 139 583 Q149 603 157.5 623 Q166 643 176 663 Q179 671 183 678 Q187 685 192 693 Q198 704 211 708 Q224 711 231.5 704 Q239 697 234 686 Q207 635 184.5 583.5 Q162 532 136 481 Q123 455 112.5 429 Q102 403 90 377 Q72 336 54 296 Q36 256 17 215 Q0 178 -17 142 Q-34 106 -48 68 Q-53 57 -56 45.5 Q-59 34 -58 23 Q-58 19 -55 16 Q-52 13 -41 18 L-41 19 L-40 19 L-31 25 Q-30 26 -29.5 26 Q-29 26 -28 27 Q-28 27 -26 28 Q-26 29 -25 29 Q-25 29 -23 31 Q-22 32 -21 32.5 Q-20 33 -19 34 Q-10 42 -1 49 Q8 56 16 64 Q33 80 48.5 96.5 Q64 113 80 130 Q96 147 111 164 Q126 181 141 199 Q156 216 171 233 Q186 250 203 266 Q217 280 231 266 Z M-32 60 Q-33 58 -35 57 Q-37 56 -40 54 Q-42 58 -43.5 60.5 Q-45 63 -45 65 Q-43 74 -39 81 Q11 190 60 299 Q109 408 159 517 Q169 539 178.5 560.5 Q188 582 199 604 Q208 626 215 620 Q223 614 219.5 608.5 Q216 603 214 598 Q169 497 123.5 397.5 Q78 298 32 197 Q18 165 3.5 134 Q-11 103 -25 72 Q-28 64 -32 60 Z M88 71 Q93 73 97 69 Q99 65 97 60 Q96 58 91 53 Q74 38 58.5 23 Q43 8 26 -6 Q8 -23 -12.5 -34 Q-33 -45 -57 -48 Q-59 -48 -61 -48.5 Q-63 -49 -65 -49 Q-67 -49 -69 -49 Q-71 -49 -76 -48 Q-77 -48 -80 -48 Q-83 -48 -85 -46 Q-90 -43 -90 -36 Q-90 -35 -87 -33.5 Q-84 -32 -82 -31 Q-80 -30 -79 -30.5 Q-78 -31 -77 -31 Q-53 -34 -32 -25.5 Q-11 -17 7 -1 Q25 14 41.5 29.5 Q58 45 75 61 Q78 63 81 66 Q84 69 88 71 Z " />
<glyph glyph-name="m" unicode="m" horiz-adv-x="446" d="M471 263 Q476 253 472 244 Q470 240 466 236 L379 176 Q354 159 330 141 Q306 123 281 106 Q273 101 265 95.5 Q257 90 249 85 Q233 75 217 68 Q203 62 188.5 57.5 Q174 53 162 55 Q140 58 145 82 Q147 91 149.5 99 Q152 107 157 115 Q169 135 181.5 154.5 Q194 174 206 194 Q211 202 216 213 Q213 211 210 209 Q207 207 204 205 Q171 181 140 155.5 Q109 130 79 103 Q75 99 71.5 96 Q68 93 64 90 Q48 77 35 83 Q22 90 28 107 Q30 113 32.5 118.5 Q35 124 38 130 Q45 142 51.5 154.5 Q58 167 65 179 Q66 180 66 181 Q66 182 67 184 Q61 180 61 180 Q35 157 9.5 134 Q-16 111 -37 84 L-43 78 Q-56 65 -70 70 Q-84 75 -79 91 Q-75 100 -71.5 108.5 Q-68 117 -64 125 Q-58 139 -51.5 153 Q-45 167 -39 181 Q-39 182 -36 188.5 Q-33 195 -29.5 203.5 Q-26 212 -21.5 222 Q-17 232 -13 241 Q-13 243 -11 245 L0 271 Q4 275 9 277 Q13 279 18.5 279 Q24 279 29 276 Q36 273 36 263 Q36 250 29 238 Q26 234 25 230 Q23 225 21 220.5 Q19 216 17 211 Q13 203 10.5 195.5 Q8 188 4 179 Q9 184 11 185 Q26 198 40.5 210 Q55 222 69 234 Q75 239 81 243 Q87 247 93 250 Q111 260 122.5 253 Q134 246 129 228 Q126 218 122 208 Q118 198 113 188 Q111 182 111 179 Q113 181 119 185 Q139 200 159 215.5 Q179 231 199 245 Q213 256 231 266 Q236 268 241.5 270 Q247 272 252 274 Q264 276 271.5 271 Q279 266 279 255 Q279 242 269 225 Q258 208 248 191 Q238 174 227 157 Q222 149 217 140.5 Q212 132 207 124 Q206 123 205 121 Q204 119 203 118 Q202 117 201 115 L200 114 Q200 113 199 112 Q194 104 194 101 L203 107 L211 113 L214 115 L223 121 L254 143 L256 143 Q276 157 296 171 Q316 185 336 199 L414 253 Q415 254 416 254 L416 255 Q438 269 449 271 Q451 272 458 271.5 Q465 271 471 263 Z M349 143 Q354 143 358 139 Q359 137 357 130 Q356 128 354 127.5 Q352 127 350 125 L236 53 Q204 33 172 35 Q168 35 167 36 Q165 38 163 40.5 Q161 43 159 45 Q161 47 163.5 49.5 Q166 52 168 51 Q192 49 212 59 Q232 69 251 81 Q273 95 294.5 109 Q316 123 338 137 Q344 141 349 143 Z M238 152 Q235 155 235 161 Q236 164 237.5 167 Q239 170 241 173 Q249 187 257.5 200.5 Q266 214 274 228 Q277 234 279.5 240.5 Q282 247 284 255 Q279 263 276 271 Q274 278 278 282 Q280 283 283 283 Q286 283 288 281 Q304 269 299 248 Q295 231 285 213 Q277 199 269 186.5 Q261 174 253 160 Q251 158 250 156.5 Q249 155 247 154 Q243 150 238 152 Z M136 145 Q140 147 143 144 Q147 140 145 136 Q144 133 139 128 L82 74 Q75 67 66 62.5 Q57 58 45 57 Q41 57 35 61 Q30 64 32 68 Q32 70 34 72 Q36 74 37 74 Q55 72 65.5 81.5 Q76 91 87 102 Q97 111 107 120.5 Q117 130 127 139 Q132 144 136 145 Z M20 126 Q23 124 21 118 Q21 117 17 113 Q7 102 -2.5 90.5 Q-12 79 -23 68 Q-31 60 -39.5 54.5 Q-48 49 -62 49 Q-63 50 -66 52 Q-69 54 -70 57 Q-71 61 -68 63 Q-65 65 -61 65 Q-51 66 -44 71 Q-37 76 -31 84 Q-23 93 -14.5 102.5 Q-6 112 2 121 Q8 127 11 129 Q17 129 20 126 Z " />
<glyph glyph-name="n" unicode="n" horiz-adv-x="346" d="M372 263 Q377 253 373 244 Q371 240 367 236 L280 176 Q255 158 231 140.5 Q207 123 182 106 Q174 101 166 95.5 Q158 90 150 85 Q134 75 118 68 Q104 62 89.5 57.5 Q75 53 63 55 Q42 58 45 82 Q47 91 50 99 Q53 107 58 115 Q70 135 82.5 154.5 Q95 174 107 194 Q112 202 117 213 Q114 211 111 209 Q108 207 105 205 Q72 181 41 155.5 Q10 130 -20 103 Q-24 99 -27.5 96 Q-31 93 -36 89 Q-51 77 -64 83 Q-68 84 -70 88 Q-72 90 -72.5 94 Q-73 98 -73 102 Q-73 106 -72 111 L-43 175 Q-33 198 -23 221 Q-13 244 -2 267 Q1 275 9.5 276 Q18 277 25 274 Q26 273 27 272.5 Q28 272 29 271 Q34 264 34 258 Q34 253 32.5 249.5 Q31 246 29 241 Q24 232 20.5 222.5 Q17 213 12 203 Q7 194 3.5 184.5 Q0 175 -5 165 L64 219 Q73 226 82 232.5 Q91 239 100 245 Q114 256 132 266 Q137 268 142.5 270 Q148 272 153 274 Q165 276 172.5 271 Q180 266 180 255 Q180 242 170 225 Q159 208 149 191 Q139 174 128 157 Q123 149 118 140.5 Q113 132 108 124 Q107 123 106 121 Q105 119 104 118 Q103 117 102 115 L101 114 Q101 113 100 112 Q95 104 95 101 L103 107 L112 113 L115 115 L124 121 L155 143 L157 143 Q177 157 197 171 Q217 185 237 199 L315 253 Q316 254 317 254 L317 255 Q339 269 350 271 Q352 272 359 271.5 Q366 271 372 263 Z M279 164 Q285 166 288 161 Q290 159 289 156 Q288 153 287 151 Q286 149 282 147 Q250 127 219 106 Q188 85 156 65 Q145 57 132.5 51.5 Q120 46 108 41 Q100 38 92 37 Q84 36 76 34 Q72 35 69.5 35 Q67 35 65 37 Q60 40 60 45 Q62 51 67 51 Q90 50 110 59.5 Q130 69 148 80 Q178 99 207 118 Q236 137 265 156 Q269 158 272 160 Q275 162 279 164 Z M47 151 Q51 153 54 150 Q57 147 57 142 Q55 140 54 138.5 Q53 137 51 135 Q33 119 14.5 103.5 Q-4 88 -22 73 Q-27 68 -33 65.5 Q-39 63 -45 60 Q-50 58 -51 59 Q-54 60 -57 61.5 Q-60 63 -62 65 Q-60 67 -59 70 Q-58 73 -56 74 Q-42 77 -32.5 85.5 Q-23 94 -13 102 Q0 112 11.5 122.5 Q23 133 35 144 Q43 150 47 151 Z M137 134 Q135 131 131.5 130.5 Q128 130 125.5 131.5 Q123 133 122 136 Q121 139 123 142 Q137 162 150 181.5 Q163 201 174 222 Q178 229 185 225 Q192 221 188 214 Q176 194 163.5 174 Q151 154 137 134 Z " />
<glyph glyph-name="o" unicode="o" horiz-adv-x="236" d="M252 262 Q255 255 251 248 Q248 243 241 239 Q233 234 224 229 Q215 224 205 219 Q180 207 154 198.5 Q128 190 100 186 Q97 185 93 185 Q90 184 86 184 Q82 184 77 184 Q77 179 75 169 Q74 166 74 164 Q72 159 70.5 154.5 Q69 150 67 145 Q52 107 20 84 Q-12 60 -47 63 Q-69 65 -82.5 79 Q-96 93 -97 115 Q-97 136 -89 160 Q-78 186 -63 209 Q-50 229 -33 246.5 Q-16 264 6 272 Q8 273 15 274.5 Q22 276 31 274 Q33 273 34 273 Q35 273 37 272 L38 272 Q48 269 50 258 Q52 254 55 252 Q60 251 66 245 Q68 243 68.5 240.5 Q69 238 71 235 Q71 233 72 231 Q73 229 75 221 L85 221 Q87 221 87.5 221.5 Q88 222 89 222 Q94 222 97 223 Q117 226 136 231.5 Q155 237 173 245 Q185 250 196.5 255.5 Q208 261 220 266 Q224 268 227.5 269 Q231 270 236 271 Q238 272 243 272 Q250 271 252 262 Z M36 198 Q36 203 34 205 Q29 211 25 217.5 Q21 224 21 233 Q12 231 10 229 Q5 226 1 223 Q-3 220 -7 216 Q-39 184 -51 138 Q-54 129 -54 118 Q-53 105 -40 105 Q-23 105 -9 114 Q33 144 36 198 Z M216 202 Q199 194 182 186.5 Q165 179 147 173 Q135 168 122 166 Q109 164 95 161 Q88 106 45 69 Q33 58 18 52 Q3 46 -14 42 Q-25 40 -26 49 Q-26 51 -23 54 Q-20 57 -18 59 Q-9 63 0.5 65.5 Q10 68 19 72 Q44 86 57.5 107 Q71 128 77 155 L77 163 Q79 172 81.5 174.5 Q84 177 94 179 Q105 181 115.5 183 Q126 185 137 188 Q153 193 168.5 199.5 Q184 206 200 212 Q202 214 204 214.5 Q206 215 208 217 Q212 219 216 219.5 Q220 220 223 214 Q225 209 222.5 206.5 Q220 204 216 202 Z M4 221 Q9 226 14.5 220.5 Q20 215 15 210 Q-21 173 -35 121 Q-37 113 -44.5 115 Q-52 117 -50 125 Q-37 179 4 221 Z " />
<glyph glyph-name="p" unicode="p" horiz-adv-x="358" d="M383 262 Q388 255 385 247.5 Q382 240 376 235 Q360 224 344 214 Q328 204 311 194 Q282 177 251.5 161 Q221 145 190 129 Q182 125 173.5 121 Q165 117 156 112 Q155 112 136 103.5 Q117 95 90 85 Q63 75 33.5 67.5 Q4 60 -18 60 Q-19 58 -23 52 Q-49 10 -71.5 -32 Q-94 -74 -117 -116 Q-131 -144 -144.5 -171.5 Q-158 -199 -171 -228 Q-173 -233 -180.5 -238 Q-188 -243 -203 -241 Q-214 -240 -214.5 -233.5 Q-215 -227 -213 -222 Q-193 -176 -173.5 -130.5 Q-154 -85 -134 -39 Q-106 24 -79 86.5 Q-52 149 -25 212 Q-19 225 -14 237.5 Q-9 250 -4 264 Q4 279 19 281 Q39 281 37 262 Q35 254 33 249 Q31 246 30.5 243.5 Q30 241 28 239 L-8 144 Q-6 146 -6 146 Q7 163 20 179 Q33 195 49 210 Q70 229 91 242 Q110 253 128 256 Q150 259 163 245 Q176 231 170 207 Q164 184 146 162 Q144 160 140.5 157 Q137 154 133 150 Q129 146 123 141 Q125 141 134 144.5 Q143 148 152 153 Q163 158 175 165 Q192 173 208 182 Q224 191 240 199 Q270 216 299 232.5 Q328 249 356 269 Q363 274 371 271 Q379 268 383 262 Z M104 174 Q120 187 127 202 Q131 211 129 215 Q124 216 120 214 Q116 212 112 210 Q101 205 92.5 198 Q84 191 76 183 Q62 171 51 157.5 Q40 144 29 130 Q28 129 27 125 Q38 132 48.5 137.5 Q59 143 69 149 Q78 155 86.5 161.5 Q95 168 104 174 Z M293 177 Q298 180 300 176 Q304 172 302 167 Q300 162 293 158 Q278 149 263.5 140 Q249 131 233 124 Q200 108 166.5 93 Q133 78 99 64 Q76 54 52.5 47 Q29 40 3 39 Q-7 38 -12 27 Q-26 1 -40 -25.5 Q-54 -52 -68 -78 Q-83 -107 -98 -135.5 Q-113 -164 -128 -193 Q-130 -197 -132.5 -200 Q-135 -203 -140 -208 Q-142 -203 -144 -200 Q-146 -197 -146 -195 Q-146 -192 -142 -184 Q-87 -80 -32 27 Q-30 29 -28 33 Q-23 46 -13.5 50.5 Q-4 55 9 57 Q51 63 90 78 Q126 93 161 108.5 Q196 124 231 141 Q245 148 257.5 156 Q270 164 284 172 Q286 174 288 175 Q290 176 293 177 Z M168 186 Q170 194 172.5 201 Q175 208 177 216 Q179 223 177.5 230.5 Q176 238 169 243 Q165 245 164 249 Q163 253 167 255 Q169 257 173.5 256.5 Q178 256 180 254 Q189 248 191 238.5 Q193 229 195 216 Q193 210 191.5 202 Q190 194 188 186 Q184 178 180 175 Q178 174 174.5 174.5 Q171 175 168 175 Q168 177 167.5 180 Q167 183 168 186 Z M56 260 Q56 250 50 234 Q47 226 43.5 219 Q40 212 37 205 Q36 203 32 202 Q28 201 26 200 Q22 206 22 210 Q24 216 26.5 221 Q29 226 31 231 Q34 240 36.5 248.5 Q39 257 41 266 Q43 270 44 273.5 Q45 277 50 275 Q52 275 56 269 L56 260 Z " />
<glyph glyph-name="r" unicode="r" horiz-adv-x="251" d="M276 267 Q282 262 282 253 Q282 244 276 239 Q262 227 248.5 215 Q235 203 221 191 L122 107 Q110 97 98.5 87 Q87 77 75 67 Q67 60 59 54.5 Q51 49 42 43 Q34 38 25 32.5 Q16 27 5 25 Q-8 22 -18 31 Q-28 40 -28 53 Q-28 71 -18 91 Q-11 108 -4 123.5 Q3 139 11 155 L41 209 Q28 197 17 192 Q7 187 -3 189 Q-13 191 -18 206 Q-23 217 -21.5 233 Q-20 249 -6 271 Q2 277 12.5 279 Q23 281 29 277 Q42 269 34 252 Q31 243 26 233 Q35 241 43 248 Q49 254 54.5 258.5 Q60 263 61 264 Q63 268 70 272 Q83 280 93 275 Q105 268 102 256 Q101 246 96 237 Q88 220 79 203 Q70 186 61 169 Q50 147 39.5 126 Q29 105 21 83 Q19 81 18.5 78 Q18 75 17 73 L183 210 Q200 224 216 238 Q232 252 249 267 Q262 279 276 267 Z M172 139 Q175 140 178.5 139.5 Q182 139 185 139 Q184 136 184 132.5 Q184 129 182 127 Q175 120 168 114 Q161 108 153 102 Q128 82 104 62 Q80 42 55 22 Q44 14 32.5 7.5 Q21 1 4 2 Q3 3 1 2.5 Q-1 2 -3 4 Q-8 7 -8 12 Q-8 15 -3 18 Q-2 19 2 19 Q16 17 26 22.5 Q36 28 45 36 Q74 60 103 84 Q132 108 161 131 Q164 133 166.5 135.5 Q169 138 172 139 Z M43 106 Q41 108 40.5 111 Q40 114 40 117 Q39 118 42 121 Q55 147 68 173.5 Q81 200 95 226 Q99 236 106 233 Q108 232 109.5 229 Q111 226 112 224 Q107 212 104 206 Q93 184 81.5 162.5 Q70 141 59 118 Q57 116 56 113 Q55 110 53 108 Q47 104 43 106 Z " />
<glyph glyph-name="s" unicode="s" horiz-adv-x="223" d="M247 266 Q252 261 252 252.5 Q252 244 247 239 Q224 218 199.5 198 Q175 178 150 159 Q123 137 95 117 Q67 97 38 77 Q39 66 38.5 55.5 Q38 45 36 34 Q34 24 30 14 Q25 4 19.5 -5 Q14 -14 7 -22 Q-13 -49 -41 -64 Q-57 -73 -73 -79 Q-89 -85 -107 -84 Q-119 -84 -130.5 -79 Q-142 -74 -147 -63 Q-153 -49 -150 -35 Q-149 -29 -146.5 -23 Q-144 -17 -141 -12 Q-134 0 -124.5 9.5 Q-115 19 -104 27 Q-93 35 -81.5 43 Q-70 51 -59 59 Q-50 65 -41.5 70.5 Q-33 76 -25 82 L-8 93 Q-10 98 -12.5 104 Q-15 110 -18 116 Q-22 129 -29 144 Q-33 154 -35 158 L-41 173 Q-46 187 -43.5 211.5 Q-41 236 -15 260 Q-14 261 -13 261.5 Q-12 262 -11 264 Q6 276 29 277 Q52 278 68 264 Q73 259 74.5 251.5 Q76 244 68 236 Q56 224 47.5 226.5 Q39 229 37 231 L36 232 Q35 232 35 232.5 Q35 233 34 233 Q23 240 12 233.5 Q1 227 -2 212 Q-3 207 -2.5 202.5 Q-2 198 -1 194 Q1 188 3.5 182 Q6 176 8 171 Q9 168 12 161 Q15 154 18 146.5 Q21 139 23.5 132.5 Q26 126 28 122 Q28 120 29 119 Q35 123 37 124 Q61 141 85 158.5 Q109 176 132 193 Q132 193 133 194 Q135 196 136 196 Q140 200 142 201 Q145 203 147.5 205.5 Q150 208 153 210 Q158 215 164 219 Q170 223 175 228 Q197 246 219 266 Q233 280 247 266 Z M-23 1 Q-4 24 -4 49 Q-21 38 -37.5 27 Q-54 16 -71 4 Q-83 -4 -96 -17 Q-98 -20 -101 -22.5 Q-104 -25 -106 -28 Q-110 -36 -108 -40 Q-105 -48 -95 -46 Q-85 -44 -80 -42 Q-63 -35 -48.5 -24 Q-34 -13 -23 1 Z M147 148 Q154 153 158 148 Q160 146 160.5 142.5 Q161 139 158 137 Q135 118 111 99.5 Q87 81 62 64 Q64 47 58 30.5 Q52 14 44 -1 Q36 -17 25 -31 Q14 -45 2 -59 Q-3 -64 -8.5 -58.5 Q-14 -53 -9 -47 Q15 -23 29 4 Q37 18 43 34 Q49 50 46 65 Q44 71 48 73 L49 74 Q75 92 99.5 110 Q124 128 147 148 Z M8 221 Q14 221 16 214 Q18 194 26 175.5 Q34 157 42 140 Q46 133 39 129 Q32 125 29 132 Q19 152 11 172 Q3 192 0 214 Q0 221 8 221 Z " />
<glyph glyph-name="t" unicode="t" horiz-adv-x="231" d="M392 558 Q401 548 398 538 Q395 528 383 528 Q326 527 270 522.5 Q214 518 157 516 L151 516 L97 396 Q92 387 88.5 378 Q85 369 81 359 L-15 140 Q-24 118 -32.5 96.5 Q-41 75 -46 52 Q-46 51 -46.5 50.5 Q-47 50 -47 49 Q-48 44 -47 39.5 Q-46 35 -40 38 Q-40 38 -39 39 L-37 39 Q-30 43 -21 49.5 Q-12 56 -4 63 Q6 71 15 80 Q21 85 26.5 89.5 Q32 94 37 99 Q53 113 68 126 Q83 139 99 153 Q131 182 162.5 210 Q194 238 226 266 Q241 279 254 266 Q259 261 259.5 252.5 Q260 244 254 239 Q234 221 214.5 203.5 Q195 186 175 168 Q141 138 107.5 108 Q74 78 39 49 Q29 41 20 34 Q11 27 2 20 Q-6 14 -14.5 8 Q-23 2 -31 -3 Q-39 -8 -50 -12.5 Q-61 -17 -71 -15 L-72 -15 Q-72 -14 -73 -14 Q-77 -14 -80 -11 L-81 -11 Q-90 -5 -91.5 8 Q-93 21 -91 34 Q-89 49 -84 67 Q-77 87 -69.5 107.5 Q-62 128 -54 148 Q-51 155 -48.5 161 Q-46 167 -43 174 L9 294 Q11 296 11.5 297.5 Q12 299 13 301 Q27 335 41.5 368.5 Q56 402 71 436 L105 513 Q89 511 74 510 Q59 509 43 507 Q0 504 -42 501 Q-84 498 -127 496 Q-131 496 -138.5 499 Q-146 502 -145 516 Q-145 528 -137 532.5 Q-129 537 -123 538 L-118 538 Q-74 541 -31.5 544 Q11 547 55 550 Q72 552 89.5 553 Q107 554 124 555 L125 558 Q125 559 126 559 Q126 560 127 561 L172 662 Q172 664 174 666 Q182 683 190 698 Q198 713 206 729 Q212 742 226 745 Q238 747 243.5 738 Q249 729 243 718 Q241 713 238.5 708.5 Q236 704 234 699 L170 558 Q190 560 209 560.5 Q228 561 248 562 Q271 563 292.5 564.5 Q314 566 336 568 L370 568 Q383 568 392 558 Z M175 164 Q180 169 185.5 163.5 Q191 158 186 153 L132 102 Q84 58 33 18 Q10 -1 -16 -17.5 Q-42 -34 -73 -36 Q-81 -36 -81 -28.5 Q-81 -21 -73 -20 Q-57 -19 -43 -13 Q-29 -7 -15 2 Q-2 10 10 19.5 Q22 29 34 38 Q46 49 58 58.5 Q70 68 82 79 Q106 99 129 120 Q152 141 175 164 Z M369 525 Q377 525 377 517.5 Q377 510 369 509 Q343 507 317.5 506 Q292 505 266 503 Q241 501 217 499.5 Q193 498 168 497 Q157 474 146 450 Q135 426 124 402 Q85 316 49 230.5 Q13 145 -24 58 Q-27 51 -35 55 Q-40 59 -38 66 Q-27 91 -17 115 Q-7 139 4 164 Q40 251 77 335.5 Q114 420 155 505 Q155 513 162 513 Q188 513 214 514.5 Q240 516 266 518 Q292 520 317.5 521.5 Q343 523 369 525 Z M191 565 Q189 566 186.5 569 Q184 572 186 575 Q200 612 217 647.5 Q234 683 249 719 Q251 722 254.5 723 Q258 724 260 722 Q265 718 263 711 Q248 676 231.5 641 Q215 606 201 571 Q197 564 191 565 Z " />
<glyph glyph-name="u" unicode="u" horiz-adv-x="297" d="M320 266 Q325 261 325 252.5 Q325 244 320 239 Q300 223 281.5 207.5 Q263 192 243 176 Q225 162 207.5 148.5 Q190 135 171 122 Q162 116 153 109.5 Q144 103 134 97 Q125 92 116 86 Q107 80 97 75 Q89 71 80.5 71 Q72 71 64 78 Q59 83 57.5 89.5 Q56 96 57 103 Q58 111 59 118 Q60 125 62 133 Q64 139 66 147.5 Q68 156 71 164 Q74 173 78 182 L71 175 Q61 164 51.5 154 Q42 144 31 134 Q23 127 15.5 120.5 Q8 114 0 108 Q-13 98 -26 101 Q-33 103 -35 105 Q-45 113 -45 131.5 Q-45 150 -40 171.5 Q-35 193 -27.5 213 Q-20 233 -16 244 Q-9 261 -3.5 266.5 Q2 272 5 274 Q13 276 18 276 Q27 276 31.5 268.5 Q36 261 32 251 Q30 248 29 244.5 Q28 241 26 238 Q23 233 20.5 227.5 Q18 222 16 217 Q16 217 14 213 Q12 210 11.5 207 Q11 204 9 201 Q6 192 3.5 184 Q1 176 -1 169 Q-3 161 -4 155 Q8 166 19 177 L52 210 Q57 215 62 220.5 Q67 226 72 231 Q80 239 88 245.5 Q96 252 104 260 Q114 268 125 268 Q133 268 139 263.5 Q145 259 145 251 Q146 242 143 232 Q141 229 140.5 226 Q140 223 138 221 L99 121 Q101 122 102 123 Q103 124 105 125 Q139 146 171 170 Q175 173 179 176 Q183 179 187 182 Q189 184 191 185 Q193 186 195 187 Q196 190 199 191 L200 191 L200 192 Q208 198 215.5 204 Q223 210 231 216 Q247 229 262 241.5 Q277 254 292 266 Q306 278 320 266 Z M253 178 Q259 182 263 175 Q267 169 260 164 L170 98 Q159 90 148.5 82.5 Q138 75 127 68 Q116 61 104 55.5 Q92 50 78 52 Q74 52 72.5 55.5 Q71 59 72 61 Q73 65 76 66 Q79 67 82 67 Q88 65 94 68 Q100 71 105 73 Q110 76 115.5 79 Q121 82 126 86 Q137 93 146.5 100 Q156 107 167 115 Q188 131 209.5 146.5 Q231 162 253 178 Z M143 221 Q145 228 152.5 226 Q160 224 158 217 Q147 185 131 150 Q127 144 120 148 Q115 151 118 158 Q125 174 131 189.5 Q137 205 143 221 Z M45 142 Q51 147 56.5 141.5 Q62 136 56 131 Q47 123 37.5 114.5 Q28 106 17 98 Q8 91 -3 86 Q-14 81 -26 81 Q-34 81 -34 89 Q-34 97 -26 97 Q-15 97 -6 101.5 Q3 106 11 113 Q20 120 28.5 127 Q37 134 45 142 Z " />
<glyph glyph-name="v" unicode="v" horiz-adv-x="336" d="M354 262 Q359 256 356.5 247.5 Q354 239 347 236 Q333 228 318 225 Q303 222 288 219 Q273 216 257.5 214 Q242 212 226 213 Q203 213 180.5 218.5 Q158 224 139 238 L119 213 Q117 210 114 207 Q111 204 109 201 Q92 181 75.5 162 Q59 143 42 123 Q35 115 28 108.5 Q21 102 13 95 Q8 91 2.5 87.5 Q-3 84 -8 81 Q-21 75 -31 79 Q-41 83 -43 94 Q-46 103 -44 115 Q-42 143 -34 168 L-4 262 Q1 270 7.5 275.5 Q14 281 22 279 Q41 277 36 257 Q31 241 26 225.5 Q21 210 16 194 Q12 183 9 172 Q6 161 2 150 Q0 140 0 135 L1 134 Q4 137 7 139.5 Q10 142 12 145 Q27 162 41.5 179.5 Q56 197 71 214 Q82 226 92 238 Q102 250 113 263 L125 277 Q125 277 126 278 Q131 283 139.5 283 Q148 283 153 278 Q158 273 161 271 Q161 270 162 270 L163 269 Q165 268 165.5 267.5 Q166 267 168 266 Q170 264 172.5 263.5 Q175 263 178 261 Q179 261 179 260.5 Q179 260 180 260 Q181 260 185 258 Q198 254 208 253 L209 253 Q212 252 216 252 L228 252 Q235 252 241.5 252 Q248 252 255 253 Q257 253 258 254 Q256 253 256.5 253 Q257 253 259 254 Q264 254 267 255 Q270 256 273 256 Q276 256 280 257 Q289 259 298.5 261 Q308 263 317 266 Q321 267 324.5 268.5 Q328 270 332 271 Q345 276 354 262 Z M282 215 Q289 216 291 208.5 Q293 201 286 200 Q266 196 246.5 194 Q227 192 207 194 Q198 195 188.5 197 Q179 199 171 201 Q156 206 145 213 Q126 190 107 166.5 Q88 143 68 120 Q59 109 49.5 99 Q40 89 29 80 Q18 72 5.5 64 Q-7 56 -21 58 Q-29 60 -27 68 Q-24 75 -17 73 Q-12 72 -6 76 Q0 80 5 82 Q10 86 15 89.5 Q20 93 25 98 Q44 115 62 137 Q81 160 99 181.5 Q117 203 136 226 L137 227 Q143 235 149 229 Q155 224 163 220.5 Q171 217 179 215 Q196 210 211 210 Q244 207 282 215 Z M11 173 Q18 193 24.5 211.5 Q31 230 36 250 Q38 258 45.5 256 Q53 254 51 246 Q46 226 39.5 207 Q33 188 26 169 Q25 165 22 164 Q19 163 16 164 Q13 165 11.5 167.5 Q10 170 11 173 Z " />
<glyph glyph-name="w" unicode="w" horiz-adv-x="351" d="M370 266 Q376 261 376 252.5 Q376 244 370 239 Q327 201 271 196 Q251 194 227 198.5 Q203 203 188 218 Q174 199 161 180 Q148 161 134 143 Q124 129 114 115.5 Q104 102 93 89 Q88 83 82.5 78.5 Q77 74 71 69 Q56 58 43 61.5 Q30 65 25 80 Q22 90 22 99.5 Q22 109 23 120 Q24 126 24.5 132 Q25 138 26 145 Q24 143 23.5 142 Q23 141 22 140 Q11 129 1.5 117.5 Q-8 106 -19 95 Q-23 92 -26.5 89 Q-30 86 -35 84 Q-47 79 -56 84.5 Q-65 90 -66 104 Q-66 128 -55 153 Q-45 176 -35.5 198.5 Q-26 221 -16 244 Q-14 247 -13.5 249.5 Q-13 252 -11 255 Q-8 263 -1 268.5 Q6 274 14 272 Q33 268 27 249 Q24 241 20.5 234 Q17 227 14 219 Q7 204 1 189.5 Q-5 175 -12 160 Q-13 159 -13 155 Q-10 159 -6.5 162.5 Q-3 166 0 170 Q6 177 12 183.5 Q18 190 25 196 Q31 202 35 204 Q47 211 57 207.5 Q67 204 69 192 Q71 187 70.5 181 Q70 175 69 169 Q68 156 66.5 144 Q65 132 64 119 Q63 116 63 109 Q66 113 72 119 Q87 140 102.5 161 Q118 182 133 204 Q140 214 147 223.5 Q154 233 161 243 Q163 245 163.5 246 Q164 247 166 249 L169 252 Q171 254 177 258 Q187 262 198 257 Q204 255 208.5 251 Q213 247 218 244 Q223 241 228.5 239.5 Q234 238 239 236 Q262 232 285 237 Q308 242 327 255 Q329 256 331 257 Q333 258 335 260 L337 262 Q339 263 342 266 Q357 279 370 266 Z M311 202 Q318 204 320 196.5 Q322 189 315 187 Q281 175 247 176 Q238 177 229 178 Q220 179 212 181 Q207 183 202.5 184.5 Q198 186 193 188 Q188 179 182 170 Q176 161 170 152 Q143 113 112 79 Q97 61 80 51 Q72 46 61.5 42 Q51 38 41 43 Q34 47 38 53.5 Q42 60 49 56 Q53 54 59 57 Q65 60 69 62 Q78 67 88 77 Q98 85 106.5 95 Q115 105 123 115 Q157 158 185 204 Q185 204 186 205 Q187 208 190 208 Q196 208 197 206 Q202 201 208 199 Q214 197 221 195 Q234 192 250 192 Q279 191 311 202 Z M7 121 Q11 125 18 121 Q23 115 18 110 Q10 100 2.5 91 Q-5 82 -16 74 Q-24 68 -36 63.5 Q-48 59 -59 65 Q-65 69 -61 76 Q-57 83 -51 79 Q-47 77 -42.5 78 Q-38 79 -35 81 Q-31 83 -27 85.5 Q-23 88 -20 91 Q-12 97 -5.5 105 Q1 113 7 121 Z M18 201 Q12 204 15 211 Q20 222 24.5 232 Q29 242 34 253 Q37 260 45 256 Q50 251 47 245 Q42 234 37.5 224 Q33 214 28 203 Q27 200 23.5 199.5 Q20 199 18 201 Z " />
<glyph glyph-name="x" unicode="x" horiz-adv-x="275" d="M287 266 Q289 258 288.5 250.5 Q288 243 277 234 Q273 231 250 214.5 Q227 198 196.5 176 Q166 154 133 130.5 Q100 107 76 90 Q70 85 64 81.5 Q58 78 52 74 Q45 71 39 67 Q33 63 26 61 Q20 59 12.5 57.5 Q5 56 -1 59 Q-13 63 -18 77 Q-22 85 -23 93.5 Q-24 102 -25 110 L-24 122 L-70 68 Q-72 66 -72.5 65 Q-73 64 -75 62 Q-82 54 -90 51.5 Q-98 49 -105 54 Q-111 58 -111.5 66 Q-112 74 -106 82 Q-95 98 -82 111.5 Q-69 125 -56 139 Q-47 149 -37.5 158.5 Q-28 168 -19 177 Q-16 180 -16 182 Q-15 184 -15 185 Q-15 186 -14 188 Q-14 189 -13 197.5 Q-12 206 -10.5 217 Q-9 228 -7 238 Q-5 248 -4 253 Q-4 255 -2 259 Q2 265 8 269 Q14 273 21 272 Q36 270 36 254 Q36 248 35.5 242 Q35 236 34 229 Q36 230 38 232 Q50 243 62 253 Q74 263 86 273 Q92 279 100 282 Q108 286 115.5 284 Q123 282 126 275 Q129 269 126.5 261.5 Q124 254 117 249 Q114 247 106 243 Q84 225 63.5 206.5 Q43 188 23 168 Q21 164 21 164 Q18 149 16.5 134.5 Q15 120 17 106 Q18 103 20 95 L273 269 Q275 271 278 272 Q284 274 287 266 Z M202 176 Q208 180 212 173 Q214 170 213 167 Q212 164 210 162 Q196 152 183 142.5 Q170 133 156 124 Q145 115 133 106.5 Q121 98 109 90 Q98 82 87 74.5 Q76 67 64 60 Q56 55 46.5 49.5 Q37 44 27.5 40.5 Q18 37 8 37 Q-2 37 -11 43 Q-17 47 -13 53.5 Q-9 60 -3 56 Q5 51 15.5 53.5 Q26 56 34 61 Q55 72 74 85 Q93 98 113 112 Q135 128 157 143.5 Q179 159 202 176 Z M57 172 Q52 167 47.5 163 Q43 159 38 155 Q36 146 34.5 136 Q33 126 35 116 Q35 113 34 110 Q33 107 29 106 Q21 104 19 112 Q17 124 19.5 137 Q22 150 24 162 Q24 165 28 167 Q34 171 39 176 Q44 181 49 186 Q54 191 59.5 196 Q65 201 70 206 Q81 216 92 225 Q103 234 114 244 Q121 248 125 244 Q127 242 127.5 238 Q128 234 125 232 Q114 223 102 213.5 Q90 204 79 193 Q74 188 68.5 183 Q63 178 57 172 Z " />
<glyph glyph-name="y" unicode="y" horiz-adv-x="317" d="M335 264 Q338 254 332 246 Q329 242 326 239 L78 73 Q73 70 72 65 Q55 30 38.5 -6 Q22 -42 5 -77 Q-21 -132 -62 -176 Q-82 -196 -104 -212.5 Q-126 -229 -152 -239 Q-157 -241 -162 -242 Q-167 -243 -172 -245 Q-185 -248 -202 -246 Q-216 -244 -228 -237 Q-255 -223 -255 -188 Q-254 -106 -184 -46 Q-164 -28 -142.5 -14 Q-121 0 -98 12 L22 78 Q27 81 32.5 84.5 Q38 88 43 91 Q46 94 46 95 L85 182 L84 182 Q82 181 81.5 180 Q81 179 80 178 Q68 166 56 154 Q44 142 31 131 Q20 120 1 113 Q-13 109 -23 113.5 Q-33 118 -37 130 Q-42 142 -41.5 155 Q-41 168 -37 182 Q-37 185 -35 189 Q-26 218 -18 236.5 Q-10 255 -4 265 Q2 275 5.5 279 Q9 283 10 283 Q10 283 12 284 Q24 289 31 281 Q39 273 33 261 Q28 250 21.5 238 Q15 226 10 214 Q5 200 1 186.5 Q-3 173 -3 159 L-3 153 Q-3 152 -2.5 151.5 Q-2 151 -2 149 Q0 151 3 152.5 Q6 154 8 156 Q18 165 27.5 174 Q37 183 47 193 Q61 207 74 221.5 Q87 236 101 250 Q107 256 110 258 Q124 268 133 263 Q145 257 142 243 Q140 235 138 228 Q136 221 134 213 Q126 193 118.5 174 Q111 155 103 135 Q102 134 101 130 L103 132 L315 269 Q319 271 323 272 Q326 272 329.5 270.5 Q333 269 335 264 Z M4 2 Q8 11 12 19.5 Q16 28 20 37 Q19 36 17 36 Q-7 23 -30.5 10 Q-54 -3 -78 -16 Q-98 -27 -117 -38.5 Q-136 -50 -153 -64 Q-167 -75 -179.5 -88 Q-192 -101 -200 -117 Q-218 -151 -217 -186 Q-215 -200 -203 -206 Q-189 -212 -173 -208 Q-157 -204 -142.5 -196.5 Q-128 -189 -115 -178 Q-92 -161 -75 -139.5 Q-58 -118 -44 -94 Q-30 -71 -18.5 -46.5 Q-7 -22 4 2 Z M314 224 Q321 228 325 221.5 Q329 215 322 210 Q308 202 295.5 193.5 Q283 185 269 176 Q224 145 180.5 114 Q137 83 89 58 Q82 40 74.5 22.5 Q67 5 59 -13 Q45 -44 29.5 -74.5 Q14 -105 -4 -134 Q-21 -163 -44 -190 Q-54 -202 -66 -213 Q-78 -224 -92 -232 Q-99 -236 -103 -229 Q-107 -222 -100 -218 Q-84 -210 -72 -197.5 Q-60 -185 -49 -171 Q-7 -118 21 -58 Q49 2 75 64 Q76 64 76 66 Q77 69 80 70 Q94 78 107 85.5 Q120 93 133 101 Q180 130 223.5 163 Q267 196 314 224 Z M131 156 Q128 149 121 153 Q114 157 117 164 Q134 199 144 234 Q146 242 153.5 240 Q161 238 159 230 Q154 211 146.5 192.5 Q139 174 131 156 Z M7 172 Q5 173 2.5 175.5 Q0 178 2 181 Q10 202 18.5 221.5 Q27 241 37 261 Q41 268 47.5 264 Q54 260 51 253 Q41 235 33 216 Q25 197 17 177 Q14 171 7 172 Z M-65 -16 Q-57 -13 -53.5 -19.5 Q-50 -26 -57 -29 Q-69 -35 -81 -41.5 Q-93 -48 -105 -55 Q-116 -62 -126.5 -69 Q-137 -76 -147 -85 Q-165 -102 -177.5 -123 Q-190 -144 -198 -167 Q-200 -174 -207.5 -172 Q-215 -170 -213 -163 Q-205 -138 -192 -115.5 Q-179 -93 -159 -75 Q-139 -56 -114.5 -42 Q-90 -28 -65 -16 Z " />
<glyph glyph-name="z" unicode="z" horiz-adv-x="322" d="M357 258 Q358 251 355 243 Q338 205 313.5 171.5 Q289 138 260 109 Q234 83 205 60.5 Q176 38 145 18 Q127 6 109 -4.5 Q91 -15 72 -26 Q71 -26 71 -27 Q44 -73 8.5 -113 Q-27 -153 -69 -188 Q-81 -198 -93.5 -206.5 Q-106 -215 -120 -222 Q-131 -227 -142 -231 Q-153 -235 -164 -238 Q-187 -243 -207 -235 Q-229 -224 -237 -200 Q-248 -168 -231 -139 Q-214 -110 -187 -94 Q-184 -92 -180.5 -91 Q-177 -90 -174 -88 Q-154 -79 -133.5 -72.5 Q-113 -66 -93 -58 Q-83 -54 -73.5 -50.5 Q-64 -47 -55 -42 Q-53 -41 -52 -41 Q-51 -41 -49 -40 L-47 -40 Q-46 -40 -46 -39 Q-43 -37 -37 -35 Q-32 -33 -28 -31 Q-24 -29 -19 -27 Q-2 -19 14 -11 Q30 -3 46 5 Q49 10 51.5 16 Q54 22 57 27 Q61 33 63.5 39.5 Q66 46 69 53 Q72 61 74.5 70 Q77 79 77 88 Q77 100 71.5 108.5 Q66 117 53 118 Q48 118 42.5 117.5 Q37 117 32 116 Q21 113 9 110 Q-3 107 -14 104 Q-22 102 -29 104 Q-39 107 -41 115.5 Q-43 124 -36 133 Q-34 137 -30.5 140.5 Q-27 144 -24 147 Q-2 168 20 189 Q42 210 64 231 Q68 235 71 238.5 Q74 242 78 246 Q78 247 77.5 247 Q77 247 77 248 Q65 246 53 244.5 Q41 243 30 241 Q29 240 27 240 L25 240 L24 240 Q23 240 23 239.5 Q23 239 22 239 Q17 239 9.5 238.5 Q2 238 -5 239 Q-12 240 -16.5 242.5 Q-21 245 -21 251 Q-20 259 -14.5 265.5 Q-9 272 0 273 Q46 280 93 285 Q102 287 110 285 Q123 283 127.5 273 Q132 263 125 251 Q121 244 116 237 Q111 230 105 224 Q89 207 72.5 191 Q56 175 39 158 L35 154 Q56 157 73 154 Q90 151 101 139 Q107 132 113.5 114 Q120 96 110 61 Q108 55 106 49 Q104 43 102 37 Q109 41 115.5 45 Q122 49 128 53 Q145 64 159 75 Q164 77 167.5 80 Q171 83 175 86 L178 89 Q184 93 186 95 Q214 117 241 144 Q247 151 253.5 157.5 Q260 164 265 172 Q267 174 268 175.5 Q269 177 271 179 Q273 181 273 182 Q275 184 275 184 Q278 188 280.5 191.5 Q283 195 285 198 Q307 231 321 263 Q324 271 332.5 272 Q341 273 348 270 Q353 267 357 258 Z M-92 -162 Q-64 -138 -39 -112.5 Q-14 -87 7 -58 Q3 -60 1 -60 Q-19 -69 -37.5 -77 Q-56 -85 -76 -93 Q-95 -100 -114 -106 Q-133 -112 -151 -120 Q-152 -121 -153 -121 Q-154 -122 -155 -122 L-156 -122 Q-157 -123 -157.5 -123 Q-158 -123 -159 -124 Q-162 -125 -168 -129 Q-170 -129 -170 -130 Q-177 -134 -186 -143.5 Q-195 -153 -199 -170 L-199 -172 L-200 -172 L-200 -174 L-200 -177 L-200 -178 Q-200 -180 -199.5 -185.5 Q-199 -191 -194.5 -195.5 Q-190 -200 -180.5 -201.5 Q-171 -203 -153 -197 Q-119 -185 -92 -162 Z M212 61 Q218 66 223.5 60.5 Q229 55 223 50 Q164 -1 90 -37 Q76 -60 57 -86 Q25 -130 -13 -167.5 Q-51 -205 -95 -237 Q-102 -240 -106 -234 Q-109 -227 -103 -223 Q-91 -215 -79.5 -205.5 Q-68 -196 -57 -187 Q-18 -152 16 -113 Q50 -74 77 -29 Q77 -27 81 -24 Q116 -7 149 14 Q182 35 212 61 Z M121 231 Q126 235 131.5 229.5 Q137 224 132 220 Q118 209 106 197 Q94 185 83 173 Q110 168 125 146 Q130 138 132.5 129.5 Q135 121 136 112 Q137 102 136.5 92.5 Q136 83 134 73 Q133 69 130.5 68 Q128 67 125 68 Q122 69 120 71.5 Q118 74 119 77 Q121 85 121.5 94 Q122 103 121 111 Q119 127 113 137 Q105 149 92 154.5 Q79 160 65 159 Q58 158 57 164.5 Q56 171 61 173 Q61 174 62 174 Q76 189 90.5 203 Q105 217 121 231 Z M-37 -81 Q-67 -95 -97.5 -106.5 Q-128 -118 -159 -128 Q-167 -130 -165 -137.5 Q-163 -145 -155 -143 Q-123 -132 -91.5 -120 Q-60 -108 -29 -94 Q-22 -91 -26 -83 Q-30 -77 -37 -81 Z " />
<glyph glyph-name="q" unicode="q" horiz-adv-x="258" d="M153 49 Q123 7 93 -35 Q63 -77 33 -119 Q17 -140 1 -161 Q-15 -182 -32 -202 Q-36 -207 -40.5 -211.5 Q-45 -216 -50 -219 Q-67 -227 -81 -220 Q-97 -212 -96 -195.5 Q-95 -179 -92 -165 Q-85 -140 -74 -116 Q-63 -92 -52 -68 Q-41 -44 -31 -20.5 Q-21 3 -10 27 Q-8 31 -8 32 L25 106 L25 107 L39 137 Q28 129 17 121 Q6 113 -8 109 Q-17 107 -28 107.5 Q-39 108 -47 117 Q-60 130 -60.5 149.5 Q-61 169 -57 182 Q-52 199 -45 212.5 Q-38 226 -29 239 Q-3 277 40 291 Q47 293 56.5 294 Q66 295 75 292.5 Q84 290 90.5 284 Q97 278 99 266 Q99 264 100 263 Q109 261 115 256 Q120 251 122 242.5 Q124 234 118 220 Q118 219 116 213 L107 192 L106 190 Q103 182 99.5 173.5 Q96 165 93 157 L87 144 L-46 -158 L-31 -140 Q-29 -136 -27 -135 Q-27 -134 -26 -133 L-26 -132 Q-23 -129 -19 -123 Q-15 -118 -11.5 -113.5 Q-8 -109 -4 -104 Q3 -94 10 -84.5 Q17 -75 24 -65 Q53 -23 82 17 Q111 57 140 98 Q169 140 198 180.5 Q227 221 256 262 Q261 269 268 271.5 Q275 274 283 269 Q290 266 292.5 257.5 Q295 249 290 243 Q286 238 282.5 232.5 Q279 227 275 221 Q244 178 213.5 135.5 Q183 93 153 49 Z M8 161 Q24 173 39 193 Q48 206 54.5 218.5 Q61 231 65 239 L75 258 L74 258 Q65 258 57 254 Q49 250 41 245 Q32 239 24 231 Q16 223 9 215 Q0 204 -6.5 192.5 Q-13 181 -18 167 Q-20 162 -20 154.5 Q-20 147 -10 151 Q-4 153 1.5 156.5 Q7 160 8 161 Z M282 216 Q286 222 292.5 218 Q299 214 295 208 Q278 184 261 160 Q244 136 227 113 Q197 70 167 28 Q137 -14 107 -57 L-13 -225 Q-18 -231 -24.5 -227 Q-31 -223 -26 -217 Q-9 -193 7.5 -169.5 Q24 -146 41 -122 Q71 -79 101.5 -37 Q132 5 162 47 Q192 90 222 132 Q252 174 282 216 Z M120 208 Q123 215 131 211 Q137 207 133 201 Q127 186 120.5 171.5 Q114 157 108 142 Q85 90 63 38.5 Q41 -13 18 -64 Q15 -71 7 -67 Q1 -64 5 -56 Q11 -42 17 -27.5 Q23 -13 30 2 Q53 54 75 105.5 Q97 157 120 208 Z " />
<glyph glyph-name="D" unicode="D" horiz-adv-x="574" d="M598 269 Q605 266 607.5 257.5 Q610 249 605 243 Q584 210 554 184 Q524 158 489 140 Q458 124 425 113.5 Q392 103 357 97 Q344 94 331 92.5 Q318 91 305 89 Q298 81 292 72.5 Q286 64 279 56 Q230 0 173.5 -47.5 Q117 -95 46 -118 Q26 -124 6 -127 Q-14 -130 -35 -128 Q-61 -126 -83 -116 Q-128 -93 -130 -48 Q-131 -14 -110.5 11.5 Q-90 37 -64.5 54 Q-39 71 -17 79.5 Q5 88 7 89 L25 95 Q65 106 106.5 110 Q148 114 190 117 Q212 119 233 120.5 Q254 122 275 124 Q278 125 283 125 Q285 129 288 132.5 Q291 136 294 140 Q296 143 299 146.5 Q302 150 304 153 Q309 159 312.5 165 Q316 171 320 176 Q328 189 335.5 202 Q343 215 351 229 Q360 246 368 262.5 Q376 279 382 297 Q389 315 393.5 334 Q398 353 400 373 Q401 379 400.5 384.5 Q400 390 399 395 Q396 418 380.5 432 Q365 446 342 448 Q308 451 278 438 Q255 429 235.5 416.5 Q216 404 196 390 Q144 351 101.5 304.5 Q59 258 23 204 Q15 191 7.5 178.5 Q0 166 -8 153 Q-16 140 -30 140 Q-44 142 -47 155 Q-49 159 -48 163 Q-47 167 -45 171 Q-6 256 32.5 340.5 Q71 425 110 511 Q124 542 137.5 573.5 Q151 605 165 636 Q169 646 174 655.5 Q179 665 184 674 Q188 682 195 689 Q202 694 207 694 L208 694 Q213 694 215 693 Q219 691 220.5 687 Q222 683 223 678 Q224 673 223 667 L196 606 Q167 540 138 475 Q109 410 80 344 Q79 343 79 342 Q79 341 78 340 L79 339 Q81 341 82.5 342 Q84 343 86 345 Q113 374 142.5 399 Q172 424 205 445 Q226 459 248 469.5 Q270 480 294 486 Q314 491 332.5 491 Q351 491 370 485 Q432 467 441 401 Q443 391 442.5 381 Q442 371 440 360 Q439 354 435.5 335.5 Q432 317 421 289 Q419 286 408 259 Q397 232 379 199 L352 154 Q351 153 351 152.5 Q351 152 350 151 Q347 146 344 141.5 Q341 137 337 132 Q342 133 346 134 Q350 135 354 136 Q371 139 387.5 143.5 Q404 148 420 153 Q425 155 429 156.5 Q433 158 437 160 Q440 160 444 162 L445 163 Q446 163 446.5 163.5 Q447 164 448 164 Q456 168 463.5 171.5 Q471 175 479 179 Q487 184 493.5 188 Q500 192 508 197 Q511 200 515 202 L517 204 L518 204 L518 205 Q526 211 530 215 Q542 226 553 238 Q555 241 559 245 Q559 245 560 247 Q560 248 561 248 Q561 248 562 249 Q564 252 566.5 255.5 Q569 259 571 262 Q581 279 598 269 Z M249 83 L207 80 Q199 79 191.5 78.5 Q184 78 176 78 Q159 76 141 74.5 Q123 73 106 71 Q72 67 39 58.5 Q6 50 -25 34 Q-36 28 -48 19.5 Q-60 11 -69.5 0.5 Q-79 -10 -84.5 -22.5 Q-90 -35 -88 -49 Q-85 -67 -68 -75 Q-61 -80 -53 -82 Q-45 -84 -37 -86 Q-19 -89 -1.5 -86.5 Q16 -84 34 -79 Q110 -56 173 3 Q189 18 204.5 34 Q220 50 235 67 Q237 69 238.5 71 Q240 73 242 75 L249 83 Z M43 -150 Q41 -148 38.5 -146 Q36 -144 36 -142 Q36 -140 38 -136.5 Q40 -133 42 -132 Q52 -127 62 -124.5 Q72 -122 82 -117 Q96 -110 109.5 -103.5 Q123 -97 136 -88 Q179 -56 218.5 -21.5 Q258 13 291 56 Q296 63 300 70.5 Q304 78 311 82 Q318 85 326.5 84 Q335 83 343 84 Q375 88 406.5 95 Q438 102 467 118 Q473 122 476 122 Q479 121 482 119.5 Q485 118 486 116 Q488 112 484 106 Q482 104 478.5 102.5 Q475 101 472 99 Q445 85 416.5 78.5 Q388 72 359 67 Q352 66 346 65.5 Q340 65 333 65 Q322 65 313 54 Q280 8 239.5 -28.5 Q199 -65 154 -99 Q131 -116 106.5 -127.5 Q82 -139 56 -147 Q53 -148 50.5 -148.5 Q48 -149 43 -150 Z M361 402 Q377 414 384 401 Q389 389 391 373 Q391 353 386.5 335 Q382 317 375 299 Q360 256 337 217.5 Q314 179 288 142 Q286 140 285.5 139 Q285 138 283 137 Q276 133 274 135 Q272 137 270 140 Q268 143 269 145 Q270 150 272.5 153.5 Q275 157 277 161 Q291 183 305 204.5 Q319 226 332 249 Q357 293 369 346 Q373 366 371.5 376 Q370 386 361 402 Z M225 610 Q223 606 222.5 603 Q222 600 220 598 Q200 550 179 503.5 Q158 457 137 410 L137 408 Q134 403 131 398.5 Q128 394 121 397 Q114 401 115.5 406 Q117 411 119 416 Q132 444 144.5 471.5 Q157 499 169 527 Q177 545 184.5 563 Q192 581 200 599 Q202 604 204.5 608 Q207 612 210 616 Q211 618 213.5 618.5 Q216 619 218 618 Q220 617 221.5 614.5 Q223 612 225 610 Z " />
<glyph glyph-name="exclam" unicode="&#x21;" horiz-adv-x="270" d="M317 655 Q251 508 186 362.5 Q121 217 55 70 Q38 32 21.5 -6 Q5 -44 -12 -82 Q-17 -94 -27 -98 Q-37 -101 -45 -95 Q-53 -89 -52 -78 Q-51 -76 -50.5 -73.5 Q-50 -71 -49 -69 Q-23 -9 3.5 49 Q30 107 56 166 Q114 297 171.5 425 Q229 553 287 683 Q289 688 292 692.5 Q295 697 300 699 Q311 704 320 698 Q330 690 326 679 Q324 673 321.5 667 Q319 661 317 655 Z M-72 -150 Q-64 -150 -57.5 -157 Q-51 -164 -52 -173 Q-54 -190 -73 -192 Q-81 -192 -87.5 -185 Q-94 -178 -93 -170 Q-92 -162 -86 -156 Q-80 -150 -72 -150 Z M328 636 Q333 632 331 625 Q313 586 295.5 546.5 Q278 507 260 468 Q229 398 198 329 Q167 260 135 190 Q103 120 72.5 50.5 Q42 -19 10 -89 Q7 -96 -1 -92 Q-6 -88 -3 -81 Q14 -42 31.5 -3 Q49 36 67 76 Q99 145 129.5 214.5 Q160 284 192 354 Q224 424 255 493.5 Q286 563 317 633 Q319 636 322.5 637 Q326 638 328 636 Z " />
<glyph glyph-name="asciitilde" unicode="&#x7e;" horiz-adv-x="406" d="M219 146 Q188 146 173 167 Q169 173 166.5 179.5 Q164 186 161 193 Q158 198 155.5 202.5 Q153 207 151 212 Q149 215 145 213 L130 201 Q119 190 108 179 Q97 168 86 157 Q81 152 77 146 Q73 140 68 134 Q61 125 51 124.5 Q41 124 35 133 Q27 143 35 154 Q40 164 49 175 Q64 192 80.5 208 Q97 224 114 239 Q122 246 131 250 Q157 264 178 241 Q189 226 195 211 Q197 207 199 203 Q201 199 203 194 Q210 180 222 187 Q228 190 233.5 193.5 Q239 197 244 201 Q250 206 256 212 Q262 218 268 223 Q279 234 290 230 Q301 228 304 217.5 Q307 207 299 199 Q287 186 274 174.5 Q261 163 245 154 Q229 146 219 146 Z M228 126 Q225 124 222.5 126 Q220 128 219 131 Q218 134 219 137 Q220 140 224 141 Q247 149 266.5 164 Q286 179 303 196 Q308 201 313.5 195.5 Q319 190 314 185 Q295 166 274.5 150 Q254 134 228 126 Z M170 254 Q164 259 168 265.5 Q172 272 178 268 Q186 262 192.5 254.5 Q199 247 204 239 Q207 234 209.5 230 Q212 226 214 221 Q216 216 218.5 211 Q221 206 222 201 Q224 194 216 192 Q209 190 207 197 Q206 202 204 206 Q202 210 200 214 Q198 218 196 222 Q194 226 192 229 Q182 246 170 254 Z " />
<glyph glyph-name="at" unicode="&#x40;" horiz-adv-x="623" d="M376 -22 Q345 -49 313 -74 Q281 -99 247 -122 Q230 -133 211 -142 Q192 -151 172 -156 Q129 -166 93 -150 Q61 -135 44 -103 Q34 -86 29 -68 Q24 -50 21 -30 Q14 26 23 86 Q47 243 148 364 Q174 395 204 421 Q234 447 269 467 Q292 480 315.5 489 Q339 498 365 501 Q401 506 433.5 498 Q466 490 493 466 Q513 449 524 428 Q535 407 541 382 Q553 323 534 261 Q525 229 511 200.5 Q497 172 478 145 Q455 111 424 90 Q414 83 403 78 Q392 73 380 72 Q351 69 340 93 Q335 104 334 115.5 Q333 127 335 138 Q335 142 335.5 145.5 Q336 149 337 154 Q329 148 323 143 Q317 138 310 133 Q298 125 287 119 Q277 114 268 114 Q244 112 237 137 Q232 152 237 168 Q238 178 243 189 Q262 230 299 261 Q322 279 345 282 Q359 283 372 277 Q385 271 390 254 L393 239 Q394 231 391 224.5 Q388 218 379 214 Q385 206 384.5 198 Q384 190 382 182 Q379 172 376.5 162 Q374 152 372 142 Q369 130 371 116 Q371 104 384 108 L402 117 Q423 131 441 154 Q464 186 480.5 220.5 Q497 255 505 293 Q510 319 509 344 Q508 369 499 394 Q477 453 416 465 Q382 472 344 461 Q318 454 295 442 Q272 430 251 414 Q210 383 178.5 345.5 Q147 308 122 264 Q99 225 84 183.5 Q69 142 61 98 Q55 64 54 31 Q53 -2 59 -36 Q61 -48 64.5 -59.5 Q68 -71 73 -82 Q81 -97 93 -107.5 Q105 -118 122 -122 Q136 -125 149 -124 Q162 -123 176 -119 Q206 -108 230 -91 Q262 -69 292 -46.5 Q322 -24 351 2 Q358 9 364.5 15.5 Q371 22 376 31 Q383 44 399 39 Q413 32 408 17 Q402 6 397 -1 Q386 -13 376 -22 Z M338 202 Q343 207 348.5 211 Q354 215 360 220 Q358 224 357 227 Q357 233 356 236 Q356 249 343 245 Q332 241 324 236 Q307 224 295 208 Q283 192 275 173 Q271 163 272 150 Q276 152 279 154 Q282 156 285 158 Q299 169 311.5 180 Q324 191 338 202 Z M400 -11 Q405 -6 410.5 -11.5 Q416 -17 411 -22 Q400 -31 389.5 -40 Q379 -49 368 -58 Q349 -74 330 -89 Q311 -104 291 -118 Q272 -132 253 -145 Q234 -158 213 -169 Q206 -172 202 -165.5 Q198 -159 205 -155 Q216 -150 227.5 -143.5 Q239 -137 250 -129 Q270 -115 288.5 -101 Q307 -87 326 -72 Q345 -58 363.5 -42.5 Q382 -27 400 -11 Z M405 203 Q403 192 401 182.5 Q399 173 397 162 Q395 152 393.5 142 Q392 132 393 122 Q393 114 385.5 114 Q378 114 377 122 Q376 133 378 143.5 Q380 154 382 165 Q384 176 386 186 Q388 196 390 207 Q391 211 393.5 212 Q396 213 399 212.5 Q402 212 404 209.5 Q406 207 405 203 Z M566 378 Q570 356 569 334 Q568 312 564 290 Q557 252 543 215 Q529 178 508 146 Q488 116 461.5 91 Q435 66 401 51 Q395 47 391 54 Q389 56 390 59.5 Q391 63 394 65 Q427 79 457 108 Q482 132 500 162.5 Q518 193 530 226 Q544 261 550.5 298.5 Q557 336 551 374 Q550 378 552 380.5 Q554 383 557 383.5 Q560 384 562.5 383 Q565 382 566 378 Z M374 448 Q355 442 338 435 Q321 428 304 418 Q273 401 247 378.5 Q221 356 199 329 Q176 303 156.5 273.5 Q137 244 118 214 Q114 208 107 212 Q100 216 104 222 Q115 239 126.5 256.5 Q138 274 150 291 Q170 320 193 347 Q216 374 245 397 Q300 442 370 463 Q377 465 379 457.5 Q381 450 374 448 Z " />
<glyph glyph-name="numbersign" unicode="&#x23;" horiz-adv-x="436" d="M351 167 Q351 150 337 145 Q327 141 322 141 Q307 140 292 139.5 Q277 139 263 137 Q254 137 244.5 136.5 Q235 136 226 135 Q222 128 219 121 Q216 114 213 107 Q209 99 206 95 Q196 76 180 83 Q172 85 170 92.5 Q168 100 172 109 Q174 112 178 120 Q179 123 180 125.5 Q181 128 183 132 Q169 131 156.5 130.5 Q144 130 131 128 Q123 109 114.5 91 Q106 73 98 55 L83 22 Q76 8 63 8 Q53 8 48.5 15 Q44 22 47 31 Q49 37 50 39 Q59 59 68 79 Q77 99 86 119 Q87 120 87 121.5 Q87 123 88 125 Q83 125 80 124.5 Q77 124 73 124 Q54 124 54 142 Q54 159 74 164 Q81 166 87 166 Q93 166 100 167 L108 167 Q110 173 113 179 Q116 185 119 191 Q111 190 104.5 190 Q98 190 90 189 Q81 189 76 190 Q68 191 64 197 Q60 203 62 211 Q64 219 70 224 Q76 229 84 229 Q96 230 108 231 Q120 232 132 232 Q139 232 142 240 Q150 258 158.5 276.5 Q167 295 175 314 Q177 317 177.5 319.5 Q178 322 180 325 Q190 338 203 335 Q217 332 215 317 Q214 314 213.5 310.5 Q213 307 211 304 Q205 290 198.5 275.5 Q192 261 186 246 Q185 244 184 242 Q183 240 182 237 Q194 238 205.5 238.5 Q217 239 228 240 Q230 243 231 246.5 Q232 250 234 253 Q239 266 244 278.5 Q249 291 254 304 Q258 312 261 315 Q266 321 272.5 323 Q279 325 284 323 Q296 319 294 303 Q292 297 291 295 Q286 283 281.5 271.5 Q277 260 272 249 Q272 247 271.5 246 Q271 245 271 243 L272 243 L273 243 L274 243 L312 245 Q321 245 325 238 Q329 231 326 223.5 Q323 216 317 212 Q312 210 307 208 Q302 206 297 205 Q292 203 286.5 203 Q281 203 276 202 Q271 202 265.5 202 Q260 202 253 201 Q249 191 243 177 Q245 177 246 176.5 Q247 176 249 177 Q269 178 288 179 Q307 180 327 182 L335 182 Q342 182 346 177.5 Q350 173 351 167 Z M203 178 Q205 183 207.5 188 Q210 193 212 199 Q198 197 186 196.5 Q174 196 162 195 Q159 189 156.5 183 Q154 177 152 170 Q163 171 174 171.5 Q185 172 196 173 Q201 173 203 178 Z M334 138 Q342 138 342 130.5 Q342 123 334 122 Q310 121 286 119.5 Q262 118 238 116 L226 89 Q222 81 216 84 Q208 86 211 93 Q214 102 218 110.5 Q222 119 227 127 Q228 129 232 131 L235 131 Q260 133 284.5 134.5 Q309 136 334 138 Z M142 125 Q149 122 145 114 Q134 91 124.5 69 Q115 47 104 24 Q103 21 99.5 20 Q96 19 94 21 Q87 25 91 31 Q101 54 111 76.5 Q121 99 132 122 Q133 125 136.5 126 Q140 127 142 125 Z M194 240 Q187 244 191 250 Q198 265 204 279.5 Q210 294 217 308 Q220 315 228 311 Q233 307 231 300 Q224 286 217.5 271.5 Q211 257 205 243 Q203 240 199.5 239 Q196 238 194 240 Z " />
<glyph glyph-name="dollar" unicode="&#x24;" horiz-adv-x="473" d="M426 472 Q408 425 382 377 Q377 366 370 361 Q361 350 348 355 Q335 359 337 372 Q339 379 342 384 Q358 412 371 440 Q384 468 393 497 Q403 525 400 550 Q397 583 367 600 Q366 601 365.5 601 Q365 601 364 602 L361 602 Q360 598 357 594 Q326 527 296 460.5 Q266 394 235 327 Q230 319 230.5 316.5 Q231 314 237 306 Q251 289 263.5 272 Q276 255 287 235 Q298 215 305.5 192.5 Q313 170 314 146 Q315 81 276 23 Q257 -5 233.5 -27.5 Q210 -50 182 -70 Q112 -120 28 -148 Q20 -149 17 -157 Q12 -171 6.5 -184.5 Q1 -198 -4 -212 Q-6 -215 -7 -218.5 Q-8 -222 -10 -225 Q-22 -245 -37 -239 Q-55 -234 -47 -213 Q-42 -201 -37.5 -189.5 Q-33 -178 -28 -167 Q-28 -165 -27.5 -164 Q-27 -163 -26 -161 Q-54 -165 -84 -162 Q-107 -159 -125 -148 Q-140 -139 -146 -124.5 Q-152 -110 -151 -92 Q-149 -66 -141.5 -43 Q-134 -20 -120 3 Q-88 56 -30 68 Q-27 68 -24.5 68.5 Q-22 69 -20 69 Q-3 67 -3 53 Q-1 37 -17 32 Q-20 30 -23 30 Q-26 30 -28 29 Q-62 22 -82 -9 Q-108 -47 -110 -93 Q-111 -109 -96 -117 Q-88 -121 -80 -122 Q-72 -123 -63 -124 Q-52 -125 -40 -123.5 Q-28 -122 -16 -120 Q-8 -119 -5 -110 Q11 -75 26 -40 Q41 -5 57 30 Q86 96 116.5 162 Q147 228 177 295 Q178 296 178 297 Q178 298 179 299 Q184 305 178 312 Q155 340 132 373 Q123 387 116 401.5 Q109 416 105 433 Q90 492 127 545 Q144 570 165.5 588 Q187 606 213 620 Q261 645 314 650 L339 650 L348 671 Q353 682 357 692 Q361 702 366 712 Q367 716 371 722 Q383 739 398 732 Q414 724 406 707 Q402 699 399 691.5 Q396 684 392 676 Q389 668 385.5 659.5 Q382 651 378 643 L378 641 Q380 640 382 639 Q384 638 386 637 Q443 607 441 541 Q441 524 437 506.5 Q433 489 426 472 Z M259 198 Q250 218 238 235.5 Q226 253 212 270 Q211 271 210 271 Q207 267 194 238.5 Q181 210 162 169.5 Q143 129 122.5 82.5 Q102 36 84 -4 Q66 -44 54 -71.5 Q42 -99 42 -102 Q44 -102 44.5 -101.5 Q45 -101 47 -101 Q86 -85 122 -64.5 Q158 -44 191 -16 Q207 -2 221.5 14 Q236 30 247 47 Q257 64 264 80.5 Q271 97 273 115 Q277 158 259 198 Z M203 349 Q233 415 263 479.5 Q293 544 322 610 Q317 610 314 610.5 Q311 611 307 610 Q263 605 224 583 Q204 572 187.5 557.5 Q171 543 158 523 Q134 488 143 450 Q148 432 155 418 Q163 399 175 383 Q187 367 200 351 Q200 350 201 350 Q201 350 203 349 Z M323 153 Q323 161 331 161 Q339 161 339 153 Q340 119 331 84 Q314 24 274 -21.5 Q234 -67 184 -101 Q177 -105 173.5 -98.5 Q170 -92 176 -87 Q203 -69 227 -48 Q270 -10 298 41.5 Q326 93 323 153 Z M454 606 Q471 575 467 541.5 Q463 508 453 476 Q447 459 440 442 Q433 425 425 408 Q417 392 408 377 Q403 369 399 362 Q395 355 389 350 Q382 347 378 353 Q375 358 381 364 Q384 366 385.5 369.5 Q387 373 389 376 Q392 380 394.5 384 Q397 388 399 392 Q404 400 408 408.5 Q412 417 416 425 Q424 441 429.5 456 Q435 471 440 488 Q445 502 448 517 Q451 532 452 547 Q452 562 448.5 576.5 Q445 591 437 603 Q428 616 416 625 Q404 634 391 642 Q385 647 389 653.5 Q393 660 399 656 Q415 645 429.5 633.5 Q444 622 454 606 Z M373 576 Q366 562 360 548 Q354 534 347 520 Q324 469 301.5 419.5 Q279 370 256 320 Q253 313 245 317 Q239 321 243 328 Q249 342 255.5 356 Q262 370 268 384 Q291 435 313.5 484 Q336 533 359 584 Q361 587 364.5 588 Q368 589 370 587 Q375 583 373 576 Z M205 250 Q206 253 209.5 254 Q213 255 215 253 Q222 250 218 242 Q212 228 205.5 214 Q199 200 193 186 Q170 135 147.5 86 Q125 37 102 -14 Q100 -17 96.5 -18 Q93 -19 91 -17 Q85 -12 88 -6 Q95 8 101 22 Q107 36 114 50 Q137 101 159.5 150.5 Q182 200 205 250 Z " />
<glyph glyph-name="percent" unicode="&#x25;" horiz-adv-x="390" d="M406 589 Q412 577 404 565 Q402 560 398 558 Q358 516 323.5 471 Q289 426 256 379 Q193 290 135.5 199.5 Q78 109 27 13 Q11 -16 -2.5 -46 Q-16 -76 -26 -108 Q-27 -110 -27 -112 Q-27 -114 -29 -118 Q-23 -114 -23 -114 Q9 -82 41.5 -50.5 Q74 -19 106 13 Q111 18 116.5 22 Q122 26 130 24 Q132 28 132 28 Q139 42 151 46.5 Q163 51 177 44 Q194 36 202.5 21 Q211 6 210 -11 Q207 -48 180 -71 Q159 -88 133 -84 Q111 -81 99 -61 Q97 -60 95 -55 Q90 -59 87 -63 Q55 -93 24 -123 Q-7 -153 -38 -182 Q-43 -187 -46 -189 Q-57 -197 -68 -191 Q-78 -186 -78 -171 Q-78 -137 -67.5 -106.5 Q-57 -76 -45 -46 Q-32 -14 -16 16.5 Q0 47 17 78 Q80 190 149.5 294.5 Q219 399 297 501 Q306 513 316 524.5 Q326 536 336 548 Q337 550 338 551.5 Q339 553 341 555 Q339 555 337.5 555.5 Q336 556 334 556 Q322 555 310 554.5 Q298 554 286 554 Q274 552 272 544 Q266 529 257 513 Q241 487 213 484 Q191 481 175.5 495.5 Q160 510 161 534 Q161 541 164 547 Q180 594 225 609 Q235 612 247 610 Q255 609 261 604.5 Q267 600 269 592 Q283 593 295.5 593 Q308 593 321 595 Q336 596 351 597 Q366 598 381 599 L386 599 Q402 601 406 589 Z M227 541 Q231 548 233.5 555.5 Q236 563 240 571 Q236 570 233 570 Q211 560 202 536 Q202 535 201.5 535 Q201 535 201 534 Q202 532 202 529.5 Q202 527 204 525 Q206 522 208.5 522.5 Q211 523 213 525 Q222 529 227 541 Z M131 -33 Q130 -39 134 -43 Q138 -47 145 -45 Q153 -42 158 -37 Q164 -31 166.5 -24.5 Q169 -18 170 -10 Q171 0 164 5 Q159 4 155 3 Q151 2 146 1 Q144 -3 142 -6.5 Q140 -10 138 -15 Q136 -20 134.5 -24 Q133 -28 131 -33 Z M382 524 Q389 521 385 513 Q363 484 342 454 Q321 424 300 394 Q263 340 227.5 285.5 Q192 231 157 176 Q86 65 22 -49 Q18 -56 11.5 -52 Q5 -48 9 -41 Q27 -9 45.5 22.5 Q64 54 83 86 Q117 142 151.5 197 Q186 252 222 307 Q258 361 295.5 414.5 Q333 468 372 521 Q375 527 382 524 Z M239 472 Q232 468 228 475 Q224 482 231 485 Q239 489 245.5 495 Q252 501 258 507 Q263 514 267 522 Q271 530 272 538 Q273 546 281 546 Q289 546 288 538 Q287 527 282.5 517 Q278 507 271 499 L256 484 Q251 481 247.5 477.5 Q244 474 239 472 Z M206 25 Q202 31 209 35 Q216 39 220 33 Q231 15 233 -5.5 Q235 -26 227 -46 Q212 -82 177 -101 Q170 -105 166 -98 Q162 -91 169 -87 Q183 -79 194.5 -68 Q206 -57 212 -42 Q225 -9 206 25 Z " />
<glyph glyph-name="ampersand" unicode="&#x26;" horiz-adv-x="476" d="M414 701 Q443 693 456.5 669 Q470 645 463 615 Q459 593 449 573 Q439 553 425 533 Q408 507 388.5 483 Q369 459 347 435 Q311 396 275 357.5 Q239 319 203 280 Q201 278 200.5 277 Q200 276 199 275 Q194 272 193.5 269 Q193 266 193 262 Q199 216 208.5 172 Q218 128 229 84 Q230 79 231 74 Q232 69 234 63 Q254 77 273 89 Q292 101 310 115 Q313 117 316 120.5 Q319 124 322 127 Q331 136 344 136 Q353 135 357 129 Q361 123 357 115 Q354 109 349 104 Q342 98 336 92 Q330 86 322 81 Q305 69 287 57 Q269 45 251 33 Q249 32 247 31 Q245 30 243 28 Q243 25 245 19 Q254 -19 263 -58 Q272 -97 282 -135 Q284 -140 285.5 -146 Q287 -152 289 -157 Q291 -167 283.5 -175.5 Q276 -184 265 -185 Q251 -185 247 -175 Q243 -167 240 -153 Q235 -130 229 -106 Q223 -82 217 -59 Q214 -45 211 -32.5 Q208 -20 205 -6 Q204 -4 203.5 -2 Q203 0 202 3 Q198 1 195 -1.5 Q192 -4 189 -6 Q160 -23 131 -40.5 Q102 -58 73 -75 Q41 -95 7 -108 Q-4 -112 -15 -115 Q-26 -118 -37 -120 Q-60 -123 -75.5 -113.5 Q-91 -104 -93 -84 Q-94 -73 -92 -62.5 Q-90 -52 -86 -41 Q-77 -16 -63 7.5 Q-49 31 -33 54 Q-5 94 26 132 Q57 170 89 207 Q103 222 115.5 237 Q128 252 142 266 Q148 272 148 280 Q145 312 144.5 344.5 Q144 377 146 410 Q148 440 154.5 470 Q161 500 172 530 Q182 556 196.5 581 Q211 606 232 629 Q251 650 274 666.5 Q297 683 325 694 Q373 713 414 701 Z M194 39 Q183 85 172 131 Q161 177 154 226 Q148 220 147 218 Q128 197 109.5 176 Q91 155 73 133 Q48 104 25.5 74 Q3 44 -16 13 Q-27 -4 -35 -20 Q-43 -36 -48 -53 Q-49 -58 -49.5 -63 Q-50 -68 -50 -73 Q-49 -83 -37 -83 Q-29 -83 -21 -80.5 Q-13 -78 -5 -75 Q9 -69 22.5 -63 Q36 -57 49 -49 Q84 -28 119.5 -6.5 Q155 15 191 36 L194 39 Z M422 616 Q425 639 411.5 653.5 Q398 668 372 668 Q355 668 339 662.5 Q323 657 307 648 Q290 637 276 624 Q262 611 251 596 Q234 575 224 553 Q214 531 206 508 Q196 476 192 443.5 Q188 411 187 379 Q187 364 187.5 349 Q188 334 188 318 L190 318 Q198 326 204.5 333 Q211 340 218 348 Q278 413 339 481 Q374 519 399 560 Q407 574 413.5 588 Q420 602 422 616 Z M337 85 Q343 89 347 82.5 Q351 76 345 72 Q325 58 304.5 45.5 Q284 33 264 20 Q274 -17 283 -53 Q292 -89 300 -126 Q301 -130 299 -132.5 Q297 -135 294 -135.5 Q291 -136 288.5 -135 Q286 -134 285 -130 Q276 -92 267 -55 Q258 -18 248 20 Q247 22 247.5 23 Q248 24 248 25 Q248 29 252 30 Q273 44 294 57.5 Q315 71 337 85 Z M354 438 Q356 441 359.5 440.5 Q363 440 365 438 Q369 434 365 427 Q296 342 213 262 Q221 217 231.5 174 Q242 131 253 87 Q255 79 247.5 77 Q240 75 238 83 Q226 128 215.5 173 Q205 218 197 264 Q196 271 202 273 Q285 353 354 438 Z M77 124 Q82 129 87.5 123.5 Q93 118 88 113 Q70 95 54 76 Q26 43 4.5 5 Q-17 -33 -33 -74 Q-35 -81 -42.5 -79 Q-50 -77 -48 -70 Q-39 -46 -27 -22 Q-7 19 19 55.5 Q45 92 77 124 Z M342 661 Q348 664 353 658 Q355 656 354 652.5 Q353 649 350 647 Q308 628 279 594 Q250 560 229 520 Q226 513 219 517 Q212 521 216 527 Q237 569 267.5 605 Q298 641 342 661 Z " />
<glyph glyph-name="asciicircum" unicode="&#x5e;" horiz-adv-x="253" d="M254 621 Q256 611 259 608 Q268 597 259 583 Q255 577 248.5 574.5 Q242 572 236 574 Q223 578 220 594 Q218 603 216.5 612.5 Q215 622 213 632 Q211 639 210.5 646.5 Q210 654 209 662 Q203 655 198.5 649.5 Q194 644 189 639 Q181 630 174 620.5 Q167 611 159 601 Q156 598 153.5 595.5 Q151 593 147 591 Q137 585 128.5 591 Q120 597 122 609 Q124 617 129 624 Q137 635 146 645 Q155 655 163 666 Q170 674 177 681 Q184 688 191 696 Q195 699 198.5 702 Q202 705 206 707 Q218 714 228 711 Q238 708 243 694 Q245 687 245.5 680.5 Q246 674 248 666 L254 621 Z M282 599 Q283 595 281 592.5 Q279 590 276 589.5 Q273 589 270.5 590 Q268 591 267 595 Q262 621 257 647 Q252 673 247 699 Q245 707 252.5 709 Q260 711 262 703 Q267 677 272 651 Q277 625 282 599 Z " />
<glyph glyph-name="parenleft" unicode="&#x28;" horiz-adv-x="270" d="M100 -135 Q102 -139 102 -141 Q107 -158 88 -168 Q68 -178 61 -162 Q60 -159 59.5 -155.5 Q59 -152 58 -149 Q54 -136 50 -123.5 Q46 -111 43 -98 Q32 -63 27.5 -26 Q23 11 26 51 Q29 93 41 135 Q44 148 47 159.5 Q50 171 52 178 Q66 221 80.5 258.5 Q95 296 112 332 Q131 373 151.5 412.5 Q172 452 195 491 Q215 526 238 559 Q261 592 289 624 Q302 638 315.5 652 Q329 666 345 678 Q349 681 352.5 683.5 Q356 686 360 688 Q377 696 384 684 Q386 679 384 671.5 Q382 664 375 659 Q334 627 303.5 588.5 Q273 550 247 508 Q221 468 200 428 Q179 388 159 346 Q125 277 102 210 Q91 177 82.5 144 Q74 111 69 78 Q61 12 75 -45 Q80 -68 87 -90.5 Q94 -113 100 -135 Z M366 647 Q372 652 377.5 646.5 Q383 641 377 636 Q349 612 327 583.5 Q305 555 285 523 Q251 469 217 408 Q200 379 184.5 349.5 Q169 320 155 289 Q141 259 129.5 228 Q118 197 110 165 Q105 149 101.5 133 Q98 117 93 100 Q89 84 86.5 67.5 Q84 51 85 34 Q85 26 77.5 26 Q70 26 69 34 Q68 54 71.5 72.5 Q75 91 80 110 Q85 129 89.5 147 Q94 165 99 183 Q118 249 147.5 309.5 Q177 370 211 430 Q228 459 245.5 488.5 Q263 518 282 547 Q300 574 320.5 600 Q341 626 366 647 Z " />
<glyph glyph-name="parenright" unicode="&#x29;" horiz-adv-x="266" d="M201 609 Q216 527 195 434 Q187 401 178.5 368 Q170 335 160 302 Q155 287 150.5 273 Q146 259 143 250 Q110 159 64 77.5 Q18 -4 -42 -83 Q-59 -106 -76.5 -128.5 Q-94 -151 -111 -174 Q-115 -179 -119.5 -183 Q-124 -187 -131 -189 Q-142 -192 -147 -185.5 Q-152 -179 -147 -168 Q-145 -164 -142.5 -161 Q-140 -158 -138 -154 Q-115 -123 -92 -93 Q-69 -63 -46 -32 Q-17 7 6.5 47 Q30 87 51 129 Q71 170 87 210 Q103 250 116 291 Q130 335 141 377.5 Q152 420 160 462 Q167 504 165 540.5 Q163 577 153 612 Q148 626 141.5 638.5 Q135 651 128 664 Q126 669 125.5 673 Q125 677 127 682 Q132 693 143 697.5 Q154 702 162 697 Q167 693 170 688 Q180 669 188 650 Q196 631 201 609 Z M159 274 Q162 281 169.5 279 Q177 277 174 270 Q154 213 129 159 Q85 61 27 -26 Q-2 -70 -33.5 -111.5 Q-65 -153 -100 -191 Q-105 -197 -110.5 -191.5 Q-116 -186 -111 -180 Q-91 -159 -73 -137 Q-55 -115 -38 -92 Q24 -9 74 83 Q99 129 120.5 176.5 Q142 224 159 274 Z " />
<glyph glyph-name="asterisk" unicode="&#x2a;" horiz-adv-x="346" d="M353 653 Q359 642 346 631 Q344 629 340.5 627 Q337 625 334 623 Q326 618 318 613.5 Q310 609 300 603 Q306 603 311 602.5 Q316 602 321 602 Q324 601 327 601 Q330 601 333 600 Q350 597 344 579 Q336 563 317 563 Q311 563 305.5 563.5 Q300 564 295 564 L287 564 Q290 559 292.5 556 Q295 553 297 550 Q299 545 301.5 541.5 Q304 538 306 533 Q310 524 303 512 Q294 500 282 500 Q273 499 267 506 L244 541 Q243 539 242 537 Q241 535 240 533 Q235 522 231 511 Q227 500 222 489 Q218 481 215 478 Q211 473 204 470 Q197 467 191 468 Q177 472 180 486 Q181 488 181.5 491 Q182 494 184 496 Q189 508 193.5 520 Q198 532 203 544 Q201 543 200 543 Q199 543 197 541 Q187 535 177 528 Q167 521 158 513 Q150 504 139 504 Q127 503 123.5 512 Q120 521 129 532 Q134 537 139 541 Q144 545 149 550 Q156 555 162 559.5 Q168 564 176 569 Q171 570 166.5 570 Q162 570 157 570 Q153 570 149 570 Q145 570 141 571 Q125 574 127 588 Q129 597 137 603 Q145 609 156 609 Q164 609 172.5 608.5 Q181 608 189 608 L195 608 Q193 612 192 614 Q189 619 185.5 623.5 Q182 628 179 633 Q177 637 175 647 Q175 664 193 671 Q206 676 213 667 Q214 667 214 666.5 Q214 666 215 666 L243 627 Q248 637 252 646.5 Q256 656 261 665 Q263 670 265.5 674.5 Q268 679 272 684 Q278 691 286.5 693 Q295 695 301 692 Q313 686 305 669 Q301 661 297.5 653.5 Q294 646 289 638 Q293 639 297 641 Q303 645 309 648.5 Q315 652 321 655 Q329 659 333 660 Q348 665 353 653 Z M250 527 Q256 522 253 516 Q247 502 241 488.5 Q235 475 229 461 Q228 458 224.5 457 Q221 456 219 458 Q213 463 216 469 Q222 483 228 496.5 Q234 510 240 524 Q241 527 244.5 528 Q248 529 250 527 Z M236 641 Q231 645 233 652 Q243 673 252 689 Q256 696 262.5 692 Q269 688 266 681 Q257 665 247 644 Q244 637 236 641 Z " />
<glyph glyph-name="plus" unicode="&#x2b;" horiz-adv-x="363" d="M261 217 Q268 205 256 192 Q250 187 242.5 185 Q235 183 230 186 Q224 189 215 189 L176 189 Q172 189 170 188 Q165 176 159 164 Q153 152 148 141 Q142 127 136 113.5 Q130 100 124 86 Q123 83 119 77 Q114 70 107 66.5 Q100 63 95 64 Q79 66 84 82 Q87 90 90.5 97.5 Q94 105 97 113 Q105 130 112.5 146.5 Q120 163 128 180 Q128 181 128.5 182 Q129 183 129 185 Q127 185 126 185.5 Q125 186 123 185 Q111 184 99 183 Q87 182 75 180 Q55 178 57 194 Q58 202 63.5 208.5 Q69 215 77 217 Q86 220 95 220 Q107 222 118.5 222.5 Q130 223 142 224 Q144 225 148 225 Q153 234 156.5 242.5 Q160 251 164 259 Q172 278 179.5 296 Q187 314 195 332 Q197 334 198.5 337 Q200 340 202 343 Q212 355 225 353 Q238 350 235 336 Q230 322 225 310 Q217 291 208 272.5 Q199 254 191 235 Q190 233 190 231.5 Q190 230 189 228 L199 228 Q211 227 222.5 227 Q234 227 245 226 Q257 224 261 217 Z M224 185 Q232 186 232 178 Q232 170 224 170 Q214 169 204.5 169 Q195 169 185 169 L182 169 L181 169 L180 168 Q180 166 179 165 L173 150 Q165 132 157.5 113.5 Q150 95 142 77 Q140 69 133 71 Q125 73 127 81 Q135 102 144 122.5 Q153 143 162 163 Q164 167 165 170.5 Q166 174 168 178 Q172 185 183 185 L224 185 Z M201 231 Q196 234 198 242 Q209 264 218.5 286.5 Q228 309 238 332 Q240 340 247 338 Q250 336 252.5 333.5 Q255 331 253 328 Q243 304 233 280.5 Q223 257 212 234 Q209 227 201 231 Z " />
<glyph glyph-name="equal" unicode="&#x3d;" horiz-adv-x="326" d="M173 178 Q189 178 199 168 Q209 159 204 146 Q199 135 186 135 Q182 135 180 136 Q176 139 171.5 139 Q167 139 162 139 Q142 139 121.5 138.5 Q101 138 81 137 L69 137 Q50 139 50 155 Q49 163 54.5 168.5 Q60 174 69 175 L87 175 Q108 176 129.5 176.5 Q151 177 173 178 Z M222 256 Q232 254 237 248 Q242 242 240 234 Q238 216 216 218 Q213 218 210 218.5 Q207 219 204 219 Q185 218 167 218 Q149 218 131 218 Q125 218 119.5 218 Q114 218 109 219 Q87 221 87 240 Q87 248 93.5 254 Q100 260 108 258 Q120 256 132.5 256.5 Q145 257 157 257 L203 257 Q208 257 212.5 257 Q217 257 222 256 Z M175 136 Q183 137 183 129 Q183 121 175 121 Q125 118 77 118 Q69 119 69 126.5 Q69 134 77 134 Q102 134 126 134 Q150 134 175 136 Z M213 216 Q221 217 221 209 Q221 201 213 201 Q187 199 160 199 Q133 199 107 200 Q99 201 99 208.5 Q99 216 107 216 Q160 213 213 216 Z " />
<glyph glyph-name="quotedbl" unicode="&#x22;" horiz-adv-x="260" d="M194 645 Q185 625 176.5 605 Q168 585 159 565 Q154 554 144 550 Q134 546 126 551 Q114 559 119 573 Q142 622 165 674 Q168 680 172 684.5 Q176 689 184 691 Q194 693 200 686 Q206 679 204 668 Q201 659 194 645 Z M276 645 Q267 625 258 605 Q249 585 240 565 Q235 554 225 550 Q215 546 207 551 Q202 555 200 561 Q198 567 201 573 Q212 599 223.5 623.5 Q235 648 246 674 Q253 688 266 691 Q276 693 282 686 Q288 679 286 668 Q280 657 276 645 Z M209 663 Q213 670 219.5 666 Q226 662 223 655 Q209 629 197 602.5 Q185 576 174 549 Q171 543 165 544 Q162 545 159.5 548 Q157 551 159 553 Q171 582 183 609 Q195 636 209 663 Z M289 659 Q292 666 299 662 Q306 658 302 651 Q289 625 276.5 598.5 Q264 572 253 545 Q251 538 244 540 Q236 542 238 549 Q250 578 262.5 605 Q275 632 289 659 Z " />
<glyph glyph-name="braceright" unicode="&#x7d;" horiz-adv-x="290" d="M145 243 Q138 226 131.5 208 Q125 190 118 173 Q104 137 92 101 Q80 65 66 29 Q52 -8 30 -47 Q12 -77 -13.5 -98.5 Q-39 -120 -71 -135 Q-91 -145 -102 -137 Q-109 -132 -109 -126 L-109 -125 Q-108 -123 -108 -120 L-105 -114 Q-100 -106 -90.5 -104.5 Q-81 -103 -73 -100 Q-56 -94 -41 -82 Q-14 -61 3 -28 Q29 24 47 75 Q58 106 68.5 136.5 Q79 167 90 198 Q95 210 99.5 222 Q104 234 109 245 Q118 265 136 285 Q130 287 131 287 Q109 300 124 329 Q132 343 139.5 355.5 Q147 368 154 381 Q167 406 180 430.5 Q193 455 206 480 Q211 492 216.5 503.5 Q222 515 227 527 Q241 557 245 586 Q245 587 245.5 587.5 Q246 588 246 589 Q248 600 245.5 602 Q243 604 231 604 Q223 604 219 607 Q209 612 216 624 Q223 638 234 639 Q244 641 253 641.5 Q262 642 270 638 Q283 633 285 616 Q286 607 284.5 598 Q283 589 281 579 Q276 557 267.5 535 Q259 513 248 491 Q233 462 218 433.5 Q203 405 188 376 Q182 364 175 352.5 Q168 341 162 330 Q160 327 157 321 Q163 319 165 318 Q170 316 174 314 Q178 312 181 309 Q189 304 187 295 Q185 286 175 278 Q174 275 171 274 Q161 269 155 260.5 Q149 252 145 243 Z M182 272 Q189 276 192.5 269.5 Q196 263 190 258 Q185 255 180 252 Q175 249 171 244 Q166 239 164 233.5 Q162 228 160 222 Q142 173 124 125 Q106 77 89 28 Q87 21 79 23 Q71 25 74 32 Q79 46 84.5 61 Q90 76 95 90 Q104 116 113.5 141 Q123 166 132 192 Q137 204 141 216.5 Q145 229 150 240 Q155 251 163.5 258.5 Q172 266 182 272 Z M284 544 Q287 543 289 540 Q291 537 289 534 Q280 511 269 485 Q231 400 179 319 Q177 316 174 315.5 Q171 315 168.5 316.5 Q166 318 165 321 Q164 324 166 327 L193 372 Q216 412 236.5 453.5 Q257 495 274 538 Q278 546 284 544 Z " />
<glyph glyph-name="braceleft" unicode="&#x7b;" horiz-adv-x="313" d="M380 644 Q394 634 383 620 Q378 614 371 611 Q364 608 356 610 Q353 610 351 612 Q337 617 323 606 Q317 601 312 595 Q307 589 302 583 Q297 577 292 570 Q278 550 267.5 529 Q257 508 247 486 Q236 460 224 434 Q212 408 201 382 Q189 356 171.5 331.5 Q154 307 132 284 L119 271 Q124 270 126.5 270 Q129 270 132 269 Q154 266 151 246 Q148 231 140 217 Q128 191 115 166.5 Q102 142 90 117 Q66 71 46 26 Q38 8 33.5 -9.5 Q29 -27 27 -45 Q25 -71 48 -78 Q52 -79 55.5 -80 Q59 -81 62 -82 L63 -82 Q64 -82 64.5 -82.5 Q65 -83 66 -83 Q69 -85 72.5 -89 Q76 -93 71 -103 Q63 -117 53 -118 Q43 -119 42 -118 Q37 -117 33.5 -116 Q30 -115 26 -113 Q1 -105 -8 -88 Q-17 -71 -15 -47 Q-13 -29 -8 -11 Q-3 7 4 25 Q18 60 36 94.5 Q54 129 72 164 Q79 178 86 192 Q93 206 101 220 Q103 223 103.5 226 Q104 229 106 233 Q101 234 96 234 Q91 234 86 236 Q71 241 68.5 252 Q66 263 77 277 Q82 283 87.5 289 Q93 295 99 300 Q116 318 131 337.5 Q146 357 157 378 Q164 392 170 406 Q176 420 182 434 Q197 468 213 502 Q229 536 249 570 Q257 584 266.5 597.5 Q276 611 289 623 Q310 644 339 649 Q365 654 380 644 Z M132 195 Q136 202 142.5 198 Q149 194 146 187 Q139 173 132 158 Q125 143 118 128 Q106 102 93.5 77 Q81 52 70 26 Q65 13 61 0.5 Q57 -12 55 -26 Q54 -32 53.5 -38.5 Q53 -45 55 -51 Q57 -56 59.5 -60 Q62 -64 67 -65 Q75 -65 75 -72 Q75 -75 72.5 -78 Q70 -81 67 -80 Q50 -78 43.5 -63.5 Q37 -49 38 -34 Q40 -4 52.5 24 Q65 52 77 79 Q105 136 132 195 Z M268 498 Q273 495 271 487 Q264 473 258 458.5 Q252 444 246 430 Q229 389 209 347 Q189 305 152 276 Q146 272 141 276 Q139 278 139 281.5 Q139 285 141 287 Q159 301 175 323 Q188 340 197.5 359.5 Q207 379 216 399 Q227 423 236.5 447 Q246 471 257 495 Q259 498 262.5 499 Q266 500 268 498 Z " />
<glyph glyph-name="bracketleft" unicode="&#x5b;" horiz-adv-x="283" d="M321 656 Q338 656 333 639 Q331 632 325 626.5 Q319 621 311 619 Q307 618 299 618 Q296 617 293 617.5 Q290 618 287 617 Q272 616 266 603 Q259 591 253 579.5 Q247 568 242 556 Q228 524 214 492.5 Q200 461 186 429 Q174 402 162 374.5 Q150 347 138 319 Q124 285 109.5 251 Q95 217 81 183 Q73 163 65 144 Q57 125 48 105 Q34 74 20.5 43 Q7 12 -7 -19 Q-15 -39 -24 -57.5 Q-33 -76 -41 -95 Q-43 -98 -43.5 -101 Q-44 -104 -46 -109 L-13 -109 Q-11 -109 -9 -108 Q-7 -107 -5 -107 Q10 -102 14 -111 Q19 -122 9 -133 Q-1 -144 -13 -146 Q-38 -147 -61 -146 Q-66 -146 -76 -144 Q-97 -136 -87 -112 Q-82 -101 -76.5 -89 Q-71 -77 -66 -65 Q-54 -39 -41.5 -12.5 Q-29 14 -18 40 Q0 83 18 126 Q36 169 54 212 Q71 252 88 291 Q105 330 122 370 Q133 396 144 421 Q155 446 167 472 Q180 502 193 531.5 Q206 561 220 591 Q224 601 232 612 Q243 630 259 642 Q275 654 301 656 L321 656 Z M282 604 Q287 601 285 593 Q272 564 260 535.5 Q248 507 235 478 Q213 427 191.5 376.5 Q170 326 148 275 Q126 224 104.5 173.5 Q83 123 61 72 Q59 69 55.5 68 Q52 67 50 69 Q43 73 47 79 Q60 108 72 136.5 Q84 165 96 194 Q118 245 140 295.5 Q162 346 184 397 L271 601 Q273 604 276.5 605 Q280 606 282 604 Z " />
<glyph glyph-name="bracketright" unicode="&#x5d;" horiz-adv-x="243" d="M249 639 Q256 634 257.5 626.5 Q259 619 257 611 Q255 603 253.5 595 Q252 587 249 579 Q240 548 228 518 Q216 488 202 458 Q189 430 177 402 Q165 374 152 346 Q143 325 133.5 304.5 Q124 284 115 263 L73 170 Q62 144 50.5 118 Q39 92 28 66 Q17 40 5.5 14.5 Q-6 -11 -17 -37 Q-23 -51 -29.5 -65 Q-36 -79 -42 -93 Q-45 -99 -47.5 -105 Q-50 -111 -52 -117 Q-63 -138 -83 -141 Q-94 -143 -104.5 -144 Q-115 -145 -125 -146 Q-134 -147 -139 -142 Q-144 -137 -143 -129 Q-141 -119 -132.5 -112.5 Q-124 -106 -115 -106 Q-112 -107 -106 -107 Q-101 -106 -96 -106 Q-91 -106 -86 -105 Q-77 -83 -67.5 -62.5 Q-58 -42 -49 -22 Q-40 -1 -31 20 Q-22 41 -12 62 Q-3 85 6.5 106.5 Q16 128 26 150 L68 246 Q84 281 99.5 315 Q115 349 130 383 Q141 406 151 429 Q161 452 171 475 Q183 503 194 530 Q205 557 213 585 Q215 590 215.5 595.5 Q216 601 218 607 Q213 608 208 608 Q203 608 198 609 Q193 610 189 611 Q185 612 182 614 Q176 617 175.5 624.5 Q175 632 180 639 Q184 644 189.5 648 Q195 652 202 652 Q203 652 204 651 L204 652 L237 644 Q240 644 242 643 Q246 641 249 639 Z M211 437 Q216 433 214 426 L160 306 Q136 252 112 199 Q88 146 64 92 Q41 38 17 -15 Q-7 -68 -31 -122 Q-33 -125 -36.5 -126 Q-40 -127 -42 -125 Q-47 -121 -45 -114 L9 6 Q33 60 57 113 Q81 166 105 220 Q128 274 152 327 Q176 380 200 434 Q202 437 205.5 438 Q209 439 211 437 Z " />
<glyph glyph-name="bar" unicode="&#x7c;" horiz-adv-x="273" d="M283 636 Q289 633 292 627 Q295 621 293 613 Q291 607 290 606 Q281 585 272 565 Q263 545 254 525 Q246 506 237 487 Q228 468 220 449 Q209 423 197.5 398 Q186 373 175 348 Q166 328 157.5 309 Q149 290 140 270 Q129 245 117.5 220 Q106 195 95 170 Q87 150 78 131 Q69 112 61 93 Q50 67 38.5 42.5 Q27 18 16 -7 Q7 -27 -1.5 -46.5 Q-10 -66 -19 -86 Q-27 -103 -34.5 -120 Q-42 -137 -50 -154 Q-55 -165 -64.5 -167.5 Q-74 -170 -82 -162 Q-89 -153 -86 -142 Q-85 -139 -83.5 -136 Q-82 -133 -81 -130 Q-72 -110 -63.5 -91 Q-55 -72 -46 -53 Q-35 -27 -23.5 -2.5 Q-12 22 -1 48 Q7 68 16 87 Q25 106 33 126 Q44 151 55.5 175.5 Q67 200 78 226 Q87 245 95.5 264 Q104 283 113 303 Q124 329 135.5 353.5 Q147 378 158 403 Q166 423 175 442.5 Q184 462 193 482 Q204 507 215 531.5 Q226 556 237 581 Q241 589 244.5 598 Q248 607 253 616 Q255 619 256 622.5 Q257 626 259 629 Q268 643 283 636 Z M244 458 Q250 455 246 448 Q233 418 220 387.5 Q207 357 193 327 L97 114 Q73 60 49 7 Q25 -46 2 -100 Q0 -103 -3.5 -104 Q-7 -105 -9 -103 Q-16 -100 -12 -92 L42 28 Q66 82 90 135 Q114 188 137 242 L233 455 Q236 462 244 458 Z " />
<glyph glyph-name="semicolon" unicode="&#x3b;" horiz-adv-x="256" d="M126 253 Q134 253 137 246.5 Q140 240 135 231 Q132 223 123.5 217.5 Q115 212 108 212 Q100 213 97 219.5 Q94 226 98 234 Q102 242 110 247.5 Q118 253 126 253 Z M95 133 Q93 128 90.5 122 Q88 116 85 109 Q76 89 67 69.5 Q58 50 49 30 Q44 19 34.5 15 Q25 11 16 16 Q11 20 9 26 Q7 32 10 38 Q21 64 32.5 88.5 Q44 113 55 139 Q62 153 75 156 Q84 157 89 152 Q91 150 91 150 Q97 144 95 133 Z M110 130 Q115 126 113 119 Q100 92 88 64.5 Q76 37 64 9 Q61 2 53 6 Q48 11 51 17 Q62 45 74.5 72 Q87 99 99 127 Q101 130 104.5 131 Q108 132 110 130 Z " />
<glyph glyph-name="less" unicode="&#x3c;" horiz-adv-x="406" d="M343 346 Q345 334 332 326 Q329 323 321 319 Q270 291 220 260.5 Q170 230 120 198 Q115 195 113 194 Q111 193 110 191 L219 73 Q224 67 229 60 Q236 52 231 41 Q225 28 211 25 Q196 22 191 32 Q189 36 186.5 40 Q184 44 181 47 Q162 66 143.5 84 Q125 102 106 121 Q98 129 90.5 138 Q83 147 75 157 Q71 163 67 175 Q61 194 81 212 Q87 217 93 221 Q99 225 105 230 Q156 262 207 293 Q258 324 311 353 Q316 355 320.5 357 Q325 359 330 358 Q343 356 343 346 Z M240 95 Q248 87 240 81 Q234 75 226 81 Q199 104 176.5 131.5 Q154 159 127 183 Q123 186 123.5 189.5 Q124 193 126.5 195.5 Q129 198 133 198.5 Q137 199 141 196 Q167 173 189.5 145.5 Q212 118 240 95 Z " />
<glyph glyph-name="greater" unicode="&#x3e;" horiz-adv-x="320" d="M215 216 Q220 206 217 195 Q213 181 197 168 Q189 161 180 155 Q171 149 162 143 Q122 117 82 91.5 Q42 66 1 40 Q-3 38 -6.5 35 Q-10 32 -15 29 Q-27 20 -40 24 Q-51 29 -44 41 Q-42 46 -39 49.5 Q-36 53 -32 56 Q-27 60 -21.5 63 Q-16 66 -11 70 L148 172 Q154 175 159.5 179 Q165 183 170 186 Q174 188 172 192 L81 315 Q79 316 78.5 317 Q78 318 77 319 Q74 323 72 326.5 Q70 330 71 335 Q74 349 91 356 Q99 359 105.5 358 Q112 357 115 352 Q117 348 120 345 L129 333 L211 222 Q213 218 215 216 Z M191 153 Q197 157 201 150.5 Q205 144 199 140 Q174 125 150 110 Q126 95 102 79 Q79 63 56.5 47.5 Q34 32 9 18 Q2 14 -2 20.5 Q-6 27 1 31 Q26 45 49 61 Q72 77 95 92 Q118 109 142 124 Q166 139 191 153 Z " />
<glyph glyph-name="question" unicode="&#x3f;" horiz-adv-x="460" d="M419 601 Q475 560 463 488 Q463 486 462.5 484.5 Q462 483 462 481 Q460 477 460 474 Q453 454 442.5 435.5 Q432 417 418 400 Q398 374 375.5 351.5 Q353 329 329 307 Q303 282 277 257.5 Q251 233 224 209 Q187 174 156 135 Q125 96 99 54 Q88 36 78 18 Q68 0 58 -19 Q56 -23 54.5 -27 Q53 -31 51 -36 Q46 -50 30 -50 Q14 -50 12 -35 Q12 -26 15 -18 Q21 -1 30 14.5 Q39 30 48 45 Q67 77 87.5 107 Q108 137 132 166 Q153 192 176.5 214.5 Q200 237 223 260 Q286 319 347 378 Q364 395 378.5 412 Q393 429 405 449 Q414 464 420 480 Q426 496 424 513 Q419 563 371 581 Q352 589 332 589.5 Q312 590 292 586 Q253 578 218.5 561 Q184 544 155 516 Q135 498 126 475 Q124 470 122 460 Q122 446 131 440 Q142 432 139 420 Q136 409 124 406 Q113 402 104 409 Q91 417 86 429.5 Q81 442 81 456 Q81 473 87.5 487 Q94 501 104 515 Q119 536 138 552.5 Q157 569 180 583 Q212 602 246 613.5 Q280 625 317 627 Q346 629 371.5 623.5 Q397 618 419 601 Z M-4 -137 Q4 -139 8 -145.5 Q12 -152 10 -160 Q7 -168 -1 -173.5 Q-9 -179 -17 -177 Q-25 -175 -29 -169 Q-33 -163 -31 -155 Q-29 -146 -20.5 -140.5 Q-12 -135 -4 -137 Z M346 302 Q353 306 357 302 Q359 300 359.5 296.5 Q360 293 357 291 Q341 278 325.5 265.5 Q310 253 295 240 Q241 193 193 140.5 Q145 88 110 25 Q106 18 99.5 22 Q93 26 96 33 Q106 51 117 67.5 Q128 84 140 101 Q184 160 236.5 208.5 Q289 257 346 302 Z M160 488 Q155 483 149.5 488.5 Q144 494 149 499 Q165 516 187 532 Q223 557 265.5 569 Q308 581 353 579 Q361 579 361 571 Q361 563 353 564 Q341 564 329 564 Q317 564 306 562 Q264 556 226.5 537 Q189 518 160 488 Z " />
<glyph glyph-name="hyphen" unicode="&#x2d;" horiz-adv-x="370" d="M248 163 Q251 145 236 140 Q233 138 229.5 138 Q226 138 222 137 L144 137 Q131 137 119 136.5 Q107 136 94 135 L94 136 Q89 136 86 137 Q78 138 73 143 Q68 148 68 156 Q66 172 83 175 L91 175 Q106 176 121 176 Q136 176 151 176 Q168 177 184.5 177 Q201 177 218 177 Q220 177 222.5 177.5 Q225 178 227 178 Q234 178 240 173.5 Q246 169 248 163 Z M233 132 Q241 132 241 124.5 Q241 117 233 116 Q195 116 158 115.5 Q121 115 83 114 Q75 114 75 121.5 Q75 129 83 129 L233 132 Z " />
<glyph glyph-name="comma" unicode="&#x2c;" horiz-adv-x="253" d="M94 132 Q92 127 90 122.5 Q88 118 85 113 Q78 97 71 81 Q64 65 57 49 Q53 40 45.5 36.5 Q38 33 30 38 Q20 45 25 56 Q34 76 43 96 Q52 116 61 137 Q64 142 67.5 145.5 Q71 149 77 150 Q85 152 90.5 146.5 Q96 141 94 132 Z M98 130 Q99 136 105 134 Q111 132 110 127 Q108 121 105 116 Q102 111 100 105 Q98 100 95.5 95.5 Q93 91 91 86 Q86 75 82 65 Q78 55 74 44 Q72 38 66 40 Q60 42 62 48 Q66 59 70 69 Q74 79 79 89 Q81 94 83.5 99 Q86 104 88 109 Q90 114 93 119.5 Q96 125 98 130 Z " />
<glyph glyph-name="slash" unicode="&#x2f;" horiz-adv-x="466" d="M473 622 Q478 618 480 611 Q482 604 478 598 Q474 592 474 591 Q460 573 447 555.5 Q434 538 420 521 Q407 504 394.5 487.5 Q382 471 369 454 Q352 431 335.5 409.5 Q319 388 302 366 Q289 349 276.5 332 Q264 315 251 298 L185 211 Q172 194 159.5 177 Q147 160 134 143 Q117 121 100.5 99.5 Q84 78 67 56 Q54 39 41.5 21.5 Q29 4 15 -13 L-30 -73 Q-37 -82 -47 -82 Q-57 -82 -63 -73 Q-69 -63 -62 -52 Q-60 -49 -58 -46.5 Q-56 -44 -54 -41 Q-42 -24 -29.5 -7.5 Q-17 9 -4 26 Q13 48 29.5 69.5 Q46 91 63 114 Q76 131 88.5 147.5 Q101 164 114 181 Q131 203 147.5 224.5 Q164 246 181 269 Q194 286 206.5 302.5 Q219 319 232 336 Q249 358 265 379.5 Q281 401 298 424 Q312 441 324.5 458 Q337 475 350 492 L416 579 Q422 587 427.5 594 Q433 601 439 609 Q445 617 448 620 Q453 625 460.5 626 Q468 627 473 622 Z M395 458 Q399 453 395 447 Q375 421 355 394.5 Q335 368 315 342 Q280 295 244.5 248.5 Q209 202 174 155 Q139 108 103 62 Q67 16 32 -31 Q30 -34 26.5 -34 Q23 -34 21 -32 Q15 -27 21 -21 Q41 5 60.5 31.5 Q80 58 100 84 Q136 131 171.5 177 Q207 223 242 271 Q277 318 312.5 364 Q348 410 384 457 Q386 460 389.5 460 Q393 460 395 458 Z " />
<glyph glyph-name="backslash" unicode="&#x5c;" horiz-adv-x="496" d="M21 662 Q28 664 34.5 660.5 Q41 657 43 650 Q45 648 45 646 Q45 644 46 642 Q51 620 56.5 599 Q62 578 67 557 Q72 537 77 516 Q82 495 87 475 Q94 448 100.5 421.5 Q107 395 114 368 Q119 347 124 326.5 Q129 306 134 285 Q141 259 147.5 232.5 Q154 206 161 179 Q166 159 171 138 Q176 117 181 97 Q188 70 194.5 43.5 Q201 17 207 -10 Q212 -31 217.5 -51.5 Q223 -72 228 -93 Q233 -111 237 -129.5 Q241 -148 246 -166 Q249 -177 243 -185 Q237 -193 226 -192 Q215 -191 210 -178 Q208 -175 208 -172 Q208 -169 207 -165 L186 -84 Q179 -57 173 -30 Q167 -3 160 23 Q155 44 149.5 64.5 Q144 85 139 106 Q133 132 126.5 159 Q120 186 113 212 Q108 233 102.5 253.5 Q97 274 92 295 Q86 321 79.5 348 Q73 375 66 401 Q61 422 55.5 443 Q50 464 45 484 Q39 510 32.5 537 Q26 564 19 590 Q17 599 14.5 608 Q12 617 10 627 Q8 637 7 641 Q5 657 21 662 Z M100 497 Q107 498 109 491 Q117 459 125 427 Q133 395 141 363 Q155 306 169 249.5 Q183 193 197 136 Q211 79 225 22 Q239 -35 253 -92 Q254 -95 251.5 -97.5 Q249 -100 247 -100 Q240 -101 238 -94 Q230 -62 222 -30 Q214 2 206 34 Q192 91 178 147.5 Q164 204 150 261 L93 489 Q92 492 94.5 494.5 Q97 497 100 497 Z " />
<glyph glyph-name="grave" unicode="&#x60;" horiz-adv-x="253" d="M175 661 Q183 641 190.5 620 Q198 599 206 579 Q210 568 206 558 Q202 548 192 546 Q186 544 180 547.5 Q174 551 172 557 Q162 583 152.5 608.5 Q143 634 133 660 Q128 676 135 686 Q140 694 149 694 Q158 694 165 684 Q167 679 169.5 673 Q172 667 175 661 Z M223 595 Q225 587 217.5 585 Q210 583 208 591 Q200 614 192 635.5 Q184 657 174 679 Q171 686 176 690 Q184 694 187 687 Q207 643 223 595 Z " />
<glyph glyph-name="underscore" unicode="&#x5f;" horiz-adv-x="450" d="M295 56 L294 56 Q277 62 260.5 61 Q244 60 227 61 L190 61 Q161 60 132.5 59.5 Q104 59 75 59 Q64 59 52 59.5 Q40 60 29 60 Q27 60 26 60.5 Q25 61 24 61 Q7 66 7 81 Q7 97 24 99 Q27 100 30 99.5 Q33 99 36 99 Q58 99 80 99.5 Q102 100 125 100 L183 100 Q205 100 226 100 Q247 100 269 99 Q276 99 283 98 Q290 97 298 95 Q303 94 309 88 Q314 83 315 77 Q316 71 314 66 Q309 54 295 56 Z M98 36 Q143 38 186.5 38 Q230 38 275 37 Q283 37 283 44.5 Q283 52 275 53 Q230 54 186.5 53.5 Q143 53 98 52 Q90 51 90 43.5 Q90 36 98 36 Z " />
<glyph glyph-name="colon" unicode="&#x3a;" horiz-adv-x="236" d="M65 132 Q57 133 54 139.5 Q51 146 55 154 Q59 162 66.5 167.5 Q74 173 82 173 Q90 173 93.5 166.5 Q97 160 92 151 Q89 143 80 137.5 Q71 132 65 132 Z M99 212 Q91 213 87.5 219.5 Q84 226 89 234 Q93 242 100.5 247.5 Q108 253 116 253 Q124 253 127.5 246.5 Q131 240 126 231 Q123 223 114 217.5 Q105 212 99 212 Z " />
<glyph glyph-name="quotesingle" unicode="&#x27;" horiz-adv-x="196" d="M206 645 Q197 625 188 605 Q179 585 170 565 Q165 554 155 550 Q145 546 137 551 Q132 555 130 561 Q128 567 131 573 Q142 599 153.5 623.5 Q165 648 176 674 Q183 688 196 691 Q206 693 212 686 Q218 679 216 668 Q214 663 211.5 657 Q209 651 206 645 Z M219 659 Q222 666 229 662 Q236 658 232 651 Q219 625 206.5 598.5 Q194 572 183 545 Q181 538 174 540 Q166 542 168 550 Q180 578 192.5 605 Q205 632 219 659 Z " />
<glyph glyph-name="period" unicode="&#x2e;" horiz-adv-x="220" d="M69 96 Q61 96 54.5 102 Q48 108 48 116 Q48 124 54 129.5 Q60 135 68 135 Q77 135 83 129 Q89 123 89 115 Q89 107 83 101 Q77 95 69 96 Z " />
<glyph glyph-name="quotedblleft" unicode="&#x201c;" horiz-adv-x="305" d="M217 645 Q209 625 200 605 Q191 585 182 565 Q177 554 167 550 Q157 546 149 551 Q136 559 143 573 Q154 599 165.5 623.5 Q177 648 188 674 Q191 680 195 684.5 Q199 689 207 691 Q217 693 223 686 Q229 679 227 668 Q224 659 217 645 Z M299 645 Q290 625 281 605 Q272 585 263 565 Q258 554 248 550 Q238 546 230 551 Q225 555 223 561 Q221 567 224 573 Q235 599 246.5 623.5 Q258 648 269 674 Q276 688 289 691 Q299 693 305 686 Q311 679 309 668 Q307 663 304.5 657 Q302 651 299 645 Z M232 663 Q236 670 242.5 666 Q249 662 246 655 Q232 629 220 602.5 Q208 576 197 549 Q195 542 188 544 Q180 546 182 554 Q194 582 206 609 Q218 636 232 663 Z M312 659 Q315 666 322 662 Q329 658 325 651 Q312 625 299.5 598.5 Q287 572 276 545 Q274 538 267 540 Q259 542 261 550 Q273 578 285.5 605 Q298 632 312 659 Z " />
<glyph glyph-name="quotedblright" unicode="&#x201d;" horiz-adv-x="316" d="M217 645 Q209 625 200 605 Q191 585 182 565 Q177 554 167 550 Q157 546 149 551 Q136 559 143 573 Q154 599 165.5 623.5 Q177 648 188 674 Q191 680 195 684.5 Q199 689 207 691 Q217 693 223 686 Q229 679 227 668 Q224 659 217 645 Z M299 645 Q290 625 281 605 Q272 585 263 565 Q258 554 248 550 Q238 546 230 551 Q225 555 223 561 Q221 567 224 573 Q235 599 246.5 623.5 Q258 648 269 674 Q276 688 289 691 Q299 693 305 686 Q311 679 309 668 Q307 663 304.5 657 Q302 651 299 645 Z M232 663 Q236 670 242.5 666 Q249 662 246 655 Q232 629 220 602.5 Q208 576 197 549 Q195 542 188 544 Q180 546 182 554 Q194 582 206 609 Q218 636 232 663 Z M312 659 Q315 666 322 662 Q329 658 325 651 Q312 625 299.5 598.5 Q287 572 276 545 Q274 538 267 540 Q259 542 261 550 Q273 578 285.5 605 Q298 632 312 659 Z " />
<glyph glyph-name="quoteright" unicode="&#x2019;" horiz-adv-x="232" d="M199 645 Q190 625 181 605 Q172 585 163 565 Q158 554 148 550 Q138 546 130 551 Q125 555 123 561 Q121 567 124 573 Q135 599 146.5 623.5 Q158 648 169 674 Q176 688 189 691 Q199 693 205 686 Q211 679 209 668 Q207 663 204.5 657 Q202 651 199 645 Z M212 659 Q215 666 222 662 Q229 658 225 651 Q212 625 199.5 598.5 Q187 572 176 545 Q174 538 167 540 Q159 542 161 550 Q173 578 185.5 605 Q198 632 212 659 Z " />
<glyph glyph-name="quoteleft" unicode="&#x2018;" horiz-adv-x="220" d="M199 645 Q190 625 181 605 Q172 585 163 565 Q158 554 148 550 Q138 546 130 551 Q125 555 123 561 Q121 567 124 573 Q135 599 146.5 623.5 Q158 648 169 674 Q176 688 189 691 Q199 693 205 686 Q211 679 209 668 Q207 663 204.5 657 Q202 651 199 645 Z M212 659 Q215 666 222 662 Q229 658 225 651 Q212 625 199.5 598.5 Q187 572 176 545 Q174 538 167 540 Q159 542 161 550 Q173 578 185.5 605 Q198 632 212 659 Z " />
<glyph glyph-name="zero" unicode="0" horiz-adv-x="570" d="M327 1 Q299 -28 268 -51 Q237 -74 202 -91 Q185 -99 167.5 -104.5 Q150 -110 132 -112 Q65 -118 30 -66 Q17 -47 11.5 -26.5 Q6 -6 4 17 Q2 46 6 75.5 Q10 105 18 134 Q34 188 59 238.5 Q84 289 120 334 Q155 379 194 420.5 Q233 462 277 500 Q288 509 299 517.5 Q310 526 324 531 Q329 533 335 534.5 Q341 536 347 535 Q360 532 360 519 Q360 507 348 500 Q344 498 344 498 Q333 496 323.5 490 Q314 484 305 476 Q284 459 265 440.5 Q246 422 228 403 Q207 381 187.5 359 Q168 337 150 314 Q115 269 90.5 220.5 Q66 172 52 118 Q45 91 42 64.5 Q39 38 43 12 Q45 -2 49 -15.5 Q53 -29 61 -40 Q87 -82 141 -73 Q166 -68 188 -57.5 Q210 -47 231 -33 Q265 -10 293 18 Q321 46 346 78 Q384 128 412 181.5 Q440 235 457 294 Q472 342 475 391 Q477 426 471 458.5 Q465 491 449 521 Q436 547 417 562 Q390 583 357 574 Q348 571 343 565 Q334 551 320 558 Q315 560 311.5 566 Q308 572 310 578 Q313 590 326 600 Q348 614 375 614 Q401 615 421.5 605 Q442 595 459 577 Q476 559 486 537.5 Q496 516 503 492 Q511 463 513 432 Q515 401 511 366 Q506 322 491.5 276.5 Q477 231 454 186 Q405 82 327 1 Z M539 439 Q541 409 537 378.5 Q533 348 526 318 Q519 292 510.5 266.5 Q502 241 493 215 Q483 191 472.5 167.5 Q462 144 448 121 Q422 76 388 36.5 Q354 -3 316 -41 Q311 -46 305.5 -40.5 Q300 -35 305 -30 Q326 -9 346 12 Q366 33 384 56 Q400 76 414.5 96.5 Q429 117 441 139 Q454 162 464 185.5 Q474 209 483 233 Q501 283 513.5 334 Q526 385 523 439 Q523 447 530.5 447 Q538 447 539 439 Z M295 454 Q301 458 306 454 Q308 452 308 448.5 Q308 445 306 443 Q267 412 233 376 Q204 344 175 309 Q168 300 161.5 291.5 Q155 283 149 273 Q143 264 137.5 254.5 Q132 245 127 234 Q107 193 90 152 Q73 111 65 66 Q64 62 61.5 61 Q59 60 56 60.5 Q53 61 51 63.5 Q49 66 50 70 Q55 96 62.5 120.5 Q70 145 80 168 Q89 189 98.5 209.5 Q108 230 118 250 Q129 271 142 290 Q155 309 170 327 Q198 362 229 394 Q260 426 295 454 Z " />
<glyph glyph-name="one" unicode="1" horiz-adv-x="223" d="M248 620 Q262 622 270.5 615 Q279 608 277 595 Q275 584 271.5 574.5 Q268 565 263 555 Q236 498 208 443 Q180 388 154 331 Q100 217 49 103 Q35 71 22 38.5 Q9 6 -5 -26 Q-10 -37 -13 -46.5 Q-16 -56 -20 -66 Q-21 -70 -20 -74 Q-18 -88 -31 -94 Q-45 -101 -56 -93 Q-66 -85 -63 -73 Q-60 -62 -57 -52 Q-54 -42 -49 -31 Q-35 2 -21.5 35.5 Q-8 69 6 102 Q23 143 41.5 183 Q60 223 79 264 Q103 317 128 369 Q153 421 179 475 Q190 498 201.5 520 Q213 542 225 565 L225 567 L225 568 Q220 564 216 561 Q212 558 207 554 Q192 544 181 550 Q173 553 171.5 559.5 Q170 566 175 573 Q177 575 178.5 577 Q180 579 182 581 Q194 589 206 597 Q218 605 230 613 Q239 619 248 620 Z M259 514 Q266 511 262 503 L208 386 Q185 334 161 282.5 Q137 231 114 179 Q90 127 66 75.5 Q42 24 18 -29 Q17 -31 13.5 -32 Q10 -33 8 -31 Q2 -28 5 -21 Q19 8 32 37.5 Q45 67 58 96 Q82 148 106 199.5 Q130 251 153 303 Q177 356 201 407.5 Q225 459 249 511 Q250 514 253.5 515 Q257 516 259 514 Z " />
<glyph glyph-name="two" unicode="2" horiz-adv-x="374" d="M359 554 Q377 544 384.5 524 Q392 504 388 478 Q385 458 378 440 Q371 422 362 405 Q345 373 325.5 345 Q306 317 284 291 Q214 206 131 131 Q112 113 93 95.5 Q74 78 54 61 L50 57 Q60 59 69 60 Q78 61 87 62 Q114 64 140.5 65.5 Q167 67 194 69 Q204 69 210 63 Q220 53 213 36 Q205 20 191 25 Q187 26 183 26 Q179 26 174 26 Q134 24 94.5 20.5 Q55 17 15 10 Q9 8 2.5 8 Q-4 8 -10 8 Q-22 8 -25 22 Q-28 37 -17 48 Q-13 53 -9 56.5 Q-5 60 -1 63 Q60 114 118 168 Q176 222 231 283 Q255 309 277.5 337.5 Q300 366 320 398 Q328 411 335 424.5 Q342 438 347 453 Q352 465 354 482 Q359 512 334 517 Q326 519 317.5 517.5 Q309 516 300 514 Q271 504 245.5 488 Q220 472 197 446 Q175 422 165 394 Q163 391 162.5 387.5 Q162 384 161 381 Q156 362 141 364 Q128 364 128 383 Q129 393 132 402.5 Q135 412 140 421 Q152 447 168.5 467 Q185 487 205 503 Q230 524 256.5 538.5 Q283 553 311 559 Q324 561 336 560.5 Q348 560 359 554 Z M371 395 Q376 402 382.5 398 Q389 394 384 388 Q371 368 357 349 Q343 330 329 311 Q277 244 219.5 183.5 Q162 123 99 67 Q93 62 87.5 67.5 Q82 73 88 78 Q106 94 123 109.5 Q140 125 157 142 Q217 200 270 263 Q323 326 371 395 Z M185 385 Q182 378 174 382 Q168 386 172 393 Q187 429 215.5 456.5 Q244 484 280 501 Q288 503 290 498 Q294 491 288 487 Q253 472 226.5 446 Q200 420 185 385 Z " />
<glyph glyph-name="three" unicode="3" horiz-adv-x="426" d="M16 -136 Q13 -135 10.5 -134.5 Q8 -134 5 -134 Q-12 -129 -22.5 -118.5 Q-33 -108 -38 -93 Q-42 -82 -43 -70 Q-44 -58 -44 -46 Q-43 -27 -41.5 -8.5 Q-40 10 -35 29 Q-33 37 -30.5 43.5 Q-28 50 -24 58 Q-16 73 2 81 Q10 85 17.5 83.5 Q25 82 28 75 Q35 60 16 50 Q11 47 9.5 43.5 Q8 40 6 36 Q1 22 -0.5 8.5 Q-2 -5 -3 -19 Q-4 -41 -3 -62 Q-3 -72 2 -80 Q9 -101 38 -99 Q52 -97 64.5 -92.5 Q77 -88 89 -82 Q144 -56 187 -10 Q211 14 230.5 41 Q250 68 264 98 Q304 183 256 250 Q251 257 247 263 Q243 269 239 275 Q224 298 241 324 Q251 340 264 356 Q280 377 296.5 397.5 Q313 418 328 440 Q339 455 348 471 Q357 487 362 504 Q369 524 369 542 Q369 560 358 577 Q347 596 326 600 Q311 603 294 597 Q277 590 262 580 Q247 570 233 558 Q213 539 200 518 Q198 516 197.5 513.5 Q197 511 195 509 Q193 504 195 500 Q202 488 190 476 Q177 466 164 474 Q152 483 154 501 Q157 520 170 538 Q209 595 272 625 Q310 643 343.5 635.5 Q377 628 395 597 Q406 577 408 554.5 Q410 532 403 508 Q395 479 379.5 453 Q364 427 345 402 Q319 367 289 331 Q286 326 283 322.5 Q280 319 277 315 Q269 304 276 295 Q281 287 286.5 279.5 Q292 272 297 264 Q310 244 316.5 221 Q323 198 321 172 Q319 123 296 81 Q268 25 227.5 -20 Q187 -65 130 -100 Q89 -125 46 -134 Q43 -135 40.5 -135 Q38 -135 35 -136 L16 -136 Z M290 290 Q316 262 325 225.5 Q334 189 328 152 Q322 110 302.5 73.5 Q283 37 258 5 Q243 -15 227 -33 Q211 -51 194 -70 Q189 -75 194.5 -80.5 Q200 -86 205 -81 Q235 -47 264 -12.5 Q293 22 314 63 Q334 100 342.5 141 Q351 182 341 224 Q332 267 301 301 Q296 306 290.5 300.5 Q285 295 290 290 Z M214 503 Q253 560 318 579 Q326 581 324 588.5 Q322 596 314 594 Q279 584 250 562.5 Q221 541 201 511 Q196 504 203 500 Q210 496 214 503 Z " />
<glyph glyph-name="four" unicode="4" horiz-adv-x="420" d="M372 390 Q388 392 391 378 Q393 369 387 361 Q381 353 370 352 Q362 351 354.5 350.5 Q347 350 339 349 Q336 349 334 345 Q307 285 280 227 Q253 169 226 109 Q206 64 186 19 Q166 -26 146 -72 Q142 -80 139 -89 Q136 -98 132 -106 Q127 -116 119.5 -120.5 Q112 -125 104 -121 Q91 -115 96 -99 L111 -63 Q128 -25 144.5 13 Q161 51 178 89 Q195 128 213 166.5 Q231 205 249 244 Q260 268 270 291.5 Q280 315 291 338 Q291 338 293 342 Q282 340 271 338.5 Q260 337 249 335 Q219 330 188.5 326 Q158 322 128 317 Q120 316 111.5 315.5 Q103 315 95 316 Q85 316 78 320 Q67 325 64 336 Q61 347 66 360 Q71 374 78.5 385.5 Q86 397 95 408 Q121 440 146 470.5 Q171 501 197 532 Q217 555 236 577.5 Q255 600 274 623 L283 635 Q295 652 310 644 Q316 640 317 633 Q318 626 313 618 Q306 607 298.5 597.5 Q291 588 283 578 Q252 541 221 505 Q190 469 159 432 Q132 399 109 367 Q107 365 106 362 Q105 359 103 357 Q103 356 102 354 Q109 354 115 354 Q121 354 127 355 Q159 360 190.5 364.5 Q222 369 254 374 L308 383 Q313 383 314 387 L401 573 Q404 580 406.5 586.5 Q409 593 412 600 Q416 611 422 616 Q434 623 442 617 Q452 611 449 599 Q446 591 443 582 Q440 573 436 565 Q416 522 396 479.5 Q376 437 356 394 Q356 393 354 389 Q359 390 363 390 Q367 390 372 390 Z M352 347 Q357 343 354 336 Q345 315 335.5 294 Q326 273 316 252 Q282 177 248.5 102.5 Q215 28 181 -47 Q177 -53 170 -49 Q165 -47 167 -39 Q187 5 205 46 Q239 121 272.5 195 Q306 269 341 344 Q344 351 352 347 Z M452 577 Q456 584 462.5 580 Q469 576 465 569 Q421 483 382 394 Q381 391 377.5 390.5 Q374 390 372 391 Q366 396 369 402 Q408 491 452 577 Z M167 426 Q186 450 204.5 474 Q223 498 244 521 Q264 544 283 565 Q302 586 319 611 Q324 617 330.5 613 Q337 609 333 603 Q323 589 312.5 576 Q302 563 291 550 Q280 539 270.5 528 Q261 517 251 506 Q240 494 230.5 482 Q221 470 211 458 Q192 434 173.5 410 Q155 386 134 363 Q129 357 123.5 362.5 Q118 368 123 374 Q134 386 145 399 Q156 412 167 426 Z " />
<glyph glyph-name="five" unicode="5" horiz-adv-x="466" d="M402 553 Q412 551 415 542 Q418 533 412 525 Q405 515 392 515 Q364 516 336 516.5 Q308 517 279 517 Q274 517 268 516.5 Q262 516 257 516 Q245 515 236 504 Q234 501 232 498.5 Q230 496 228 493 Q208 463 192.5 431.5 Q177 400 161 366 Q165 368 167 369 Q169 370 171 371 Q200 388 228 397 Q275 411 313 394 Q344 379 359 347 Q374 316 372 278 Q364 139 261 37 Q237 13 207 -5 Q205 -6 189.5 -13.5 Q174 -21 151 -26 Q128 -31 102 -30.5 Q76 -30 53 -15 Q48 -11 44 -7.5 Q40 -4 35 1 Q34 2 34 2.5 Q34 3 33 4 Q26 10 22 18 Q19 21 17 25 Q6 52 26 60 Q34 63 40 56.5 Q46 50 51 45 Q57 38 63.5 31.5 Q70 25 78 20 Q91 12 111.5 7 Q132 2 160 11 Q174 16 185 23 Q189 25 190 25 Q222 44 247 71.5 Q272 99 290 131 Q307 161 318.5 192.5 Q330 224 333 258 Q334 269 333.5 279 Q333 289 332 300 Q331 317 321 333 Q296 375 243 363 Q226 359 209.5 351.5 Q193 344 177 333 Q170 328 163.5 323.5 Q157 319 149 314 Q145 312 137 306 Q124 300 114.5 306 Q105 312 107 326 Q109 331 110.5 336 Q112 341 114 346 Q129 384 146.5 421 Q164 458 186 493 Q195 507 206 522 Q227 552 263 554 Q278 555 293 554.5 Q308 554 324 554 L375 554 Q382 554 388.5 554 Q395 554 402 553 Z M242 503 Q246 510 252.5 506 Q259 502 255 495 Q239 471 225.5 446 Q212 421 200 395 Q196 388 189.5 392 Q183 396 186 403 Q210 455 242 503 Z M389 273 Q397 273 397 265 Q392 225 382 188 Q372 155 357 123.5 Q342 92 321 64 Q310 50 298.5 37 Q287 24 274 12 Q260 0 245 -11.5 Q230 -23 213 -31 Q206 -35 202 -28 Q198 -21 205 -18 Q223 -9 239 3.5 Q255 16 270 30 Q319 76 346 137.5 Q373 199 381 265 Q383 273 389 273 Z " />
<glyph glyph-name="six" unicode="6" horiz-adv-x="447" d="M382 596 Q384 590 380.5 584 Q377 578 370 576 Q362 573 355.5 568 Q349 563 343 558 Q321 538 302 518 Q283 498 266 476 Q169 357 111 222 Q87 168 75 113 Q74 111 73.5 109 Q73 107 74 104 Q75 106 76 106.5 Q77 107 78 109 Q106 146 144 178 Q177 206 209 231 Q228 246 256 256 Q267 260 278 261.5 Q289 263 300 261 Q328 258 342 236 Q348 225 350 214 Q352 203 352 191 Q351 174 346.5 157 Q342 140 336 123 Q310 54 263 -2 Q249 -17 234.5 -31 Q220 -45 203 -56 Q186 -67 167 -74.5 Q148 -82 126 -84 Q124 -84 122 -84.5 Q120 -85 118 -85 Q113 -84 108 -84 Q103 -84 98 -83 Q96 -82 94 -81 Q92 -80 90 -79 Q73 -74 61 -63.5 Q49 -53 41 -39 Q33 -24 29.5 -7 Q26 10 25 27 Q24 53 27.5 77.5 Q31 102 37 127 Q49 178 69 225 Q89 272 115 319 Q144 372 178 422 Q212 472 253 519 Q268 535 283.5 550.5 Q299 566 315 582 Q320 587 326.5 591.5 Q333 596 340 601 Q348 607 361 609 Q369 609 374.5 605.5 Q380 602 382 596 Z M96 62 Q89 49 71 50 Q70 50 68.5 50.5 Q67 51 65 51 L65 31 Q66 17 68 4 Q70 -9 78 -22 Q99 -59 146 -45 Q168 -38 189 -22 Q214 -3 234 23 Q273 70 295 127 Q301 141 305 155.5 Q309 170 311 185 Q312 192 311.5 199 Q311 206 308 213 Q303 226 289 226 Q284 227 278.5 226 Q273 225 268 223 Q250 216 232 203 Q202 180 174.5 156 Q147 132 122 105 Q116 97 111 89.5 Q106 82 102 74 L96 62 Z M332 96 Q335 103 342.5 101 Q350 99 347 91 Q336 60 318 33 Q302 8 283 -15 Q264 -38 242 -58 Q220 -76 195.5 -90 Q171 -104 142 -109 Q134 -110 132 -102.5 Q130 -95 138 -94 Q169 -88 194 -73 Q219 -59 239 -39.5 Q259 -20 276 2 Q293 23 308 46.5 Q323 70 332 96 Z M291 492 Q296 497 301.5 491.5 Q307 486 302 481 Q276 455 252 423 Q210 368 178 307 Q146 246 117 183 Q115 180 111.5 179 Q108 178 106 180 Q101 183 103 191 Q111 208 119.5 226 Q128 244 137 261 Q168 324 205 383 Q242 442 291 492 Z " />
<glyph glyph-name="seven" unicode="7" horiz-adv-x="363" d="M418 587 Q451 574 439 544 Q436 536 432 529 Q428 522 423 516 Q407 495 391 474 Q375 453 359 432 L317 378 L167 176 Q127 120 88 65.5 Q49 11 9 -45 Q6 -49 4 -52.5 Q2 -56 -1 -60 Q-10 -72 -23 -71 Q-33 -71 -37.5 -65 Q-42 -59 -39 -51 Q-36 -44 -30 -36 Q-2 4 26 43.5 Q54 83 83 124 Q88 130 92.5 136.5 Q97 143 102 150 L303 420 Q323 446 342 470.5 Q361 495 381 520 Q386 527 390 533.5 Q394 540 398 547 Q403 554 394 555 Q387 557 381 558 Q375 559 368 559 Q345 559 321.5 559 Q298 559 275 558 Q246 557 217 556.5 Q188 556 159 558 Q151 559 144 558.5 Q137 558 129 559 Q112 559 110 572 Q109 580 114.5 585.5 Q120 591 130 593 Q142 594 154 593 Q213 590 273 593 Q299 595 326 595.5 Q353 596 379 594 Q401 592 418 587 Z M311 362 Q316 368 322.5 364 Q329 360 325 354 Q308 331 292.5 307.5 Q277 284 260 261 Q231 219 202 179 Q173 139 143 98 Q113 57 83 17.5 Q53 -22 22 -62 Q16 -68 10 -62 Q6 -58 10 -51 L79 39 Q109 79 138.5 118.5 Q168 158 197 199 Q226 240 254.5 280 Q283 320 311 362 Z M363 538 Q259 535 155 535 Q147 535 147 542.5 Q147 550 155 550 Q207 551 259 551.5 Q311 552 363 553 Q371 554 371 546 Q371 538 363 538 Z " />
<glyph glyph-name="eight" unicode="8" horiz-adv-x="475" d="M492 524 Q493 510 488.5 497 Q484 484 479 471 Q467 446 451 424 Q435 402 418 380 Q383 335 346 290.5 Q309 246 271 203 Q270 202 269.5 201 Q269 200 268 199 Q270 194 272 190.5 Q274 187 276 183 Q284 169 290.5 155.5 Q297 142 302 127 Q319 78 301 35 Q296 24 289 14.5 Q282 5 274 -4 Q245 -36 209 -51.5 Q173 -67 128 -65 Q105 -63 85 -56.5 Q65 -50 47 -36 Q-7 9 8 76 Q13 96 21 114.5 Q29 133 40 150 Q58 179 78.5 206.5 Q99 234 123 259 Q131 267 139.5 274 Q148 281 156 288 Q162 293 168 296.5 Q174 300 182 302 Q182 305 181.5 307.5 Q181 310 180 313 Q176 336 177.5 358 Q179 380 187 402 Q195 423 207.5 441 Q220 459 235 476 Q263 505 295 528 Q327 551 365 565 Q403 579 440 575 Q456 572 468 565 Q490 552 492 524 Z M272 78 Q273 99 264 121 Q258 135 251.5 148 Q245 161 238 175 Q237 177 235.5 178 Q234 179 232 181 Q221 186 221 200 Q221 206 220 208 Q206 235 193 265 Q186 263 183 260 Q174 252 165 244.5 Q156 237 148 229 Q122 203 101.5 174 Q81 145 64 114 Q57 101 51.5 88.5 Q46 76 44 62 Q38 21 69 -6 Q81 -16 95 -20.5 Q109 -25 124 -27 Q166 -31 198.5 -14.5 Q231 2 256 34 Q270 53 272 78 Z M453 516 Q457 533 439 537 Q434 538 430 538 Q426 538 421 538 Q411 538 401.5 536 Q392 534 383 531 Q291 496 239 417 Q212 377 216 331 Q219 305 228 281.5 Q237 258 248 235 L254 241 Q290 283 325.5 326 Q361 369 395 413 Q408 430 420 447 Q432 464 441 484 Q448 498 453 516 Z M446 391 Q448 389 449.5 385.5 Q451 382 449 380 Q413 332 375 286 Q337 240 296 195 Q301 185 307 175.5 Q313 166 318 155 Q329 135 334 113.5 Q339 92 336 69 Q333 47 323 28.5 Q313 10 298 -7 Q296 -10 293 -9.5 Q290 -9 288 -7 Q286 -5 285.5 -2 Q285 1 287 4 Q304 24 313.5 47 Q323 70 321 96 Q319 122 306 145.5 Q293 169 279 192 Q277 196 278.5 198.5 Q280 201 282 203 Q323 248 361 294 Q399 340 435 388 Q441 394 446 391 Z M336 503 Q342 507 346 500 Q350 493 343 489 Q307 469 280 437 Q253 405 239 366 Q237 358 229.5 360 Q222 362 224 370 Q238 412 267.5 446.5 Q297 481 336 503 Z " />
<glyph glyph-name="nine" unicode="9" horiz-adv-x="515" d="M287 74 Q267 49 243.5 27.5 Q220 6 191 -12 Q171 -24 150 -33.5 Q129 -43 106 -48 Q86 -52 67 -51.5 Q48 -51 31 -43 Q25 -40 19 -36.5 Q13 -33 8 -28 Q-18 -2 -29 24 Q-30 25 -31.5 30 Q-33 35 -33 40.5 Q-33 46 -30.5 52 Q-28 58 -21 61 Q-8 67 -3 62.5 Q2 58 3 54 Q3 54 4 53 Q13 23 38 -1 Q55 -18 86 -16 Q119 -12 149 5 Q171 16 190 30 Q209 44 226 61 Q252 87 272 114.5 Q292 142 309 171 Q326 200 340.5 229.5 Q355 259 367 289 Q375 309 383.5 328.5 Q392 348 400 368 Q402 373 403 377 Q404 381 406 387 L399 380 Q384 365 369.5 349.5 Q355 334 339 320 Q310 292 274 273 Q257 264 240 258 Q223 252 205 251 Q155 250 133 288 Q125 302 123 318 Q121 334 124 351 Q129 377 141 400.5 Q153 424 170 446 Q209 495 263 533 Q286 548 310.5 559 Q335 570 364 573 Q407 579 440 560 Q453 552 461 541 Q469 530 468 514 Q466 493 453 475 Q454 475 458 473 Q472 468 470 454 L470 446 Q466 435 462.5 424 Q459 413 455 402 L449 390 Q421 311 383 230 Q364 188 341 149 Q318 110 287 74 Z M352 383 Q373 405 392.5 427.5 Q412 450 435 471 Q421 477 421 485 Q421 489 423 499 Q428 511 426 517.5 Q424 524 413 531 Q394 541 369 538 Q348 536 329.5 529 Q311 522 294 511 Q264 491 239 467.5 Q214 444 194 417 Q182 400 174 382 Q166 364 164 345 Q161 319 173 301 Q184 287 204 287 Q222 287 237 294 Q248 298 257.5 303.5 Q267 309 277 316 Q298 330 316.5 347.5 Q335 365 352 383 Z M470 413 Q473 413 476 411 Q479 409 478 405 Q476 390 472 375 Q468 360 463 345 Q458 330 452.5 315.5 Q447 301 441 287 Q430 261 418 236.5 Q406 212 393 188 Q370 144 340 99 Q326 79 310 59 Q294 39 277 22 Q258 4 237 -12.5 Q216 -29 192 -38 Q184 -40 182 -32.5 Q180 -25 188 -23 Q202 -18 214 -10 Q226 -2 237 7 Q248 15 257.5 24.5 Q267 34 277 44 Q311 81 337 122.5 Q363 164 386 208 Q411 254 431 304 Q436 316 440.5 328.5 Q445 341 450 354 Q454 367 457.5 379.5 Q461 392 463 405 Q463 413 470 413 Z M372 530 Q376 531 378.5 529 Q381 527 381.5 524 Q382 521 381 518.5 Q380 516 376 515 Q363 512 350.5 508 Q338 504 325 498 Q282 479 248 443 Q231 425 218 405 Q205 385 192 364 Q188 357 181 361 Q174 365 179 372 Q193 397 210 420 Q225 441 242.5 459 Q260 477 281 491 Q321 519 372 530 Z " />
<glyph glyph-name="A" unicode="A" horiz-adv-x="758" d="M781 270 Q789 265 790.5 257.5 Q792 250 788 243 Q786 238 783 233.5 Q780 229 777 224 Q746 184 700.5 162.5 Q655 141 607 127 Q589 122 571 117.5 Q553 113 534 110 Q527 95 521 80 Q515 65 509 51 Q508 50 508 49 Q508 49 507 47 Q507 45 505 43 Q503 37 501 33 Q499 28 497.5 24 Q496 20 494 15 Q489 5 485.5 -4.5 Q482 -14 478 -24 L445 -102 Q438 -119 421 -116 Q414 -114 409.5 -106.5 Q405 -99 408 -92 Q426 -47 444.5 -3 Q463 41 482 86 Q484 91 485.5 95 Q487 99 489 103 Q463 101 438 99.5 Q413 98 388 100 Q373 100 358.5 101 Q344 102 330 104 Q315 84 300.5 63.5 Q286 43 272 23 Q238 -25 201.5 -70.5 Q165 -116 120 -154 Q97 -173 70.5 -189 Q44 -205 15 -215 Q-14 -224 -46 -222.5 Q-78 -221 -105 -204 Q-146 -179 -165 -137.5 Q-184 -96 -190 -51 Q-194 -19 -191.5 6.5 Q-189 32 -183 51 Q-177 70 -169.5 82.5 Q-162 95 -157 102 Q-148 113 -137 122 Q-118 139 -95.5 150.5 Q-73 162 -48 168 Q-20 175 7.5 176.5 Q35 178 64 177 Q93 176 121.5 173 Q150 170 179 165 Q207 161 234.5 156.5 Q262 152 290 148 Q292 148 294 147.5 Q296 147 298 147 Q300 147 301 146 Q308 146 311 145 Q316 151 320 157.5 Q324 164 329 170 L410 280 Q426 303 445 327 Q485 381 525 433 Q565 485 606 538 Q611 545 616 551 Q621 557 626 564 L695 653 L695 654 Q698 658 709.5 672 Q721 686 735 698 Q743 704 755.5 711.5 Q768 719 781 713 Q790 708 791 694 Q792 680 778 648 Q777 645 773 637 Q773 636 771 632 Q764 616 757 600 Q750 584 743 571 L743 570 Q735 555 728.5 539.5 Q722 524 714 509 Q691 461 668.5 412.5 Q646 364 624 315 L623 313 Q621 310 620.5 307 Q620 304 618 300 L561 172 Q560 170 559.5 168.5 Q559 167 558 165 L557 164 Q556 161 555 158.5 Q554 156 553 153 Q567 156 582 160 Q597 164 611 169 Q623 173 635 177 Q647 181 659 186 Q660 186 660.5 186.5 Q661 187 662 187 Q666 189 667 189 Q672 192 677 194 Q682 197 687 199.5 Q692 202 697 205 Q708 211 716 218 Q718 220 718 220 Q720 221 722 223 Q724 225 726 226.5 Q728 228 730 230 L738 238 Q739 240 741 242 Q743 244 743 245 Q749 252 755 263 Q759 270 766.5 271.5 Q774 273 781 270 Z M218 14 Q235 38 252 62 Q269 86 286 109 Q254 114 223.5 119 Q193 124 162 128 Q160 129 158 129 Q156 129 154 130 L150 130 Q147 131 144 131 Q141 131 138 132 Q130 133 123.5 133.5 Q117 134 110 135 Q81 138 54 138 Q40 139 26.5 138.5 Q13 138 -1 137 Q-4 136 -7 136 Q-10 136 -13 135 L-17 135 Q-19 134 -23 134 Q-30 132 -36 131 Q-42 130 -49 128 Q-53 126 -61 124 Q-64 123 -68 121 Q-69 121 -69.5 120.5 Q-70 120 -71 120 Q-76 118 -80.5 115 Q-85 112 -90 109 Q-92 107 -95 106 Q-98 105 -100 103 Q-100 102 -101 102 Q-102 102 -102 101 Q-104 99 -105 99 Q-110 95 -113.5 91.5 Q-117 88 -121 84 Q-123 82 -124.5 80 Q-126 78 -128 76 Q-133 70 -138.5 58.5 Q-144 47 -148.5 30 Q-153 13 -154 -10 Q-155 -33 -149 -63 Q-148 -65 -148 -68 Q-148 -71 -147 -74 L-138 -104 Q-137 -105 -137 -105.5 Q-137 -106 -136 -107 L-136 -108 L-133 -114 Q-131 -117 -130 -119.5 Q-129 -122 -127 -125 Q-125 -128 -123.5 -131 Q-122 -134 -120 -137 Q-117 -140 -116 -142 L-115 -143 L-114 -144 Q-107 -153 -96 -163 Q-95 -163 -93 -165 Q-91 -166 -88 -169 Q-85 -171 -82.5 -172 Q-80 -173 -77 -175 Q-75 -175 -73 -177 Q-72 -177 -71.5 -177.5 Q-71 -178 -73 -177 Q-71 -178 -70 -178 Q-69 -178 -67 -179 Q-63 -180 -60 -181 Q-57 -182 -54 -182 Q-52 -183 -49 -183 Q-47 -184 -42 -184 L-29 -184 Q-27 -184 -25 -183.5 Q-23 -183 -21 -183 L-20 -183 L-19 -183 L-18 -183 Q-13 -182 -5 -180 Q0 -179 10 -175 Q12 -175 16 -173 Q19 -173 21 -171 Q34 -166 46 -159 Q58 -152 69 -144 L81 -135 Q82 -134 83 -133.5 Q84 -133 85 -132 Q86 -132 87 -131 L89 -129 Q99 -122 110 -111 Q131 -93 149 -72 Q159 -61 168 -50.5 Q177 -40 186 -29 Q190 -23 191 -22 Q194 -19 194 -19 Q196 -16 197.5 -13.5 Q199 -11 201 -9 Q206 -3 210 3 Q214 9 218 14 Z M568 285 L573 296 Q584 321 595.5 345.5 Q607 370 618 394 Q673 517 732 637 Q721 624 710 609 Q699 596 689 583 Q679 570 668 556 Q657 542 648.5 530.5 Q640 519 629 505 Q618 491 608 478 Q598 465 588 451 Q553 406 519.5 361.5 Q486 317 452 272 L451 271 Q446 264 441 257.5 Q436 251 431 244 L430 242 Q428 240 426 236 Q424 234 420 228 L390 187 L378 172 L376 169 Q373 163 368 158 L368 157 Q365 152 362 148.5 Q359 145 356 140 Q367 139 377 139 Q387 139 398 138 Q412 138 425.5 138 Q439 138 453 139 Q460 140 467 140.5 Q474 141 481 142 Q485 142 488 142.5 Q491 143 495 143 Q497 143 498 143.5 Q499 144 501 144 L505 144 Q505 145 507 145 Q509 150 510.5 154 Q512 158 514 163 L568 285 Z M795 643 Q797 643 798.5 640.5 Q800 638 802 636 Q800 631 798 625 Q797 620 793 612 Q764 547 734.5 483 Q705 419 675 355 Q657 313 638.5 273 Q620 233 601 192 Q599 187 597.5 183 Q596 179 593 176 Q591 174 587 172 Q583 170 580 171 Q575 172 575 176 Q575 180 577 184 Q577 187 579 189 Q605 246 630.5 301.5 Q656 357 682 414 Q707 468 731.5 522.5 Q756 577 781 631 Q783 638 785 640 Q791 644 795 643 Z M337 92 Q342 95 346 92.5 Q350 90 350 83 Q348 80 346.5 75.5 Q345 71 342 67 Q322 39 302 11 Q282 -17 261 -44 Q203 -119 135 -181 Q110 -203 82 -217.5 Q54 -232 22 -242 Q20 -243 18 -244 Q16 -245 14 -244 Q12 -243 9 -241.5 Q6 -240 5 -238 Q3 -232 9 -228 Q15 -224 23 -222 Q61 -210 93 -188.5 Q125 -167 153 -138 Q202 -87 246 -32.5 Q290 22 328 82 Q334 90 337 92 Z M728 162 Q730 163 734 161 Q738 159 739 157 Q740 155 738.5 151.5 Q737 148 735 146 Q727 141 720 138 Q713 135 705 131 Q673 117 641 105.5 Q609 94 574 89 Q569 89 564.5 88 Q560 87 555 85 Q552 77 548.5 69 Q545 61 542 53 Q527 16 512.5 -21 Q498 -58 484 -95 Q482 -100 480 -104 Q478 -108 476 -112 Q474 -114 471 -115 Q468 -116 466 -115 Q460 -113 460 -106 Q460 -101 463 -95 Q480 -52 496.5 -9.5 Q513 33 530 76 Q531 78 532 80.5 Q533 83 534 85 Q541 105 565 108 Q603 113 638 125 Q673 137 708 154 Q713 156 718 158.5 Q723 161 728 162 Z " />
<glyph glyph-name="B" unicode="B" horiz-adv-x="533" d="M556 269 Q564 266 566 257.5 Q568 249 563 243 Q540 205 513 171 Q486 137 451 110 Q419 86 381 72 Q352 61 324 57 Q319 46 314 38 Q305 21 293.5 5 Q282 -11 268 -25 Q149 -144 -9 -189 Q-71 -206 -130 -200 Q-150 -197 -167 -192 Q-184 -187 -201 -177 Q-257 -142 -244 -75 L-244 -73 Q-243 -70 -242 -67 Q-241 -64 -240 -61 Q-225 -13 -186.5 19.5 Q-148 52 -102 66 Q-48 83 8 81.5 Q64 80 119 80 Q142 80 165 80 Q188 80 211 82 Q222 83 233 83.5 Q244 84 255 86 Q258 86 261 86.5 Q264 87 267 87 Q269 87 270 87.5 Q271 88 273 88 L276 88 Q281 89 284.5 89.5 Q288 90 292 91 Q296 107 298 124 L298 126 Q298 130 297.5 133.5 Q297 137 297 141 Q295 166 287 184 Q279 202 271 213 Q261 226 249 235 Q235 246 225 251 Q220 254 215 255 Q209 257 202.5 258.5 Q196 260 189 262 Q181 263 174.5 264 Q168 265 160 267 Q153 269 148 272 Q138 278 136.5 288 Q135 298 142 308 Q151 319 160 324 Q177 336 197 349 Q233 372 268 396.5 Q303 421 335 450 Q352 464 369 480 Q386 496 400 513 Q411 524 418.5 537 Q426 550 429 564 Q432 581 427 593 Q420 606 407 605 Q393 603 382 599 Q373 595 363.5 590.5 Q354 586 345 581 Q310 560 278.5 533 Q247 506 218 477 Q176 435 140 389 Q104 343 72 293 Q56 269 41 245 Q26 221 11 197 Q9 193 6.5 189.5 Q4 186 1 183 Q-4 175 -12 173 Q-20 171 -27 175 Q-42 185 -34 203 Q-28 215 -22.5 227 Q-17 239 -11 251 Q23 320 53 390 Q83 460 115 529 Q129 560 143 589.5 Q157 619 171 649 Q175 657 178 665 Q181 673 185 681 Q188 689 195 693.5 Q202 698 210 696 Q218 694 222.5 687.5 Q227 681 225 673 Q220 658 215 648 Q204 625 193 602.5 Q182 580 171 557 Q156 524 141.5 491 Q127 458 113 425 Q111 421 111 419 Q111 419 112 418 Q114 420 115.5 422.5 Q117 425 119 427 Q153 468 189.5 505.5 Q226 543 268 576 Q306 606 343 626 Q356 633 369 638 Q382 643 396 645 Q428 651 450 632.5 Q472 614 472 582 Q472 564 467 548 Q462 532 453 516 Q444 502 433 489 Q422 476 409 463 Q374 428 335 397 Q296 366 254 338 Q243 330 232 323.5 Q221 317 210 309 Q208 308 206 306.5 Q204 305 200 303 Q234 297 259 281 Q267 276 279 266.5 Q291 257 304 240 Q310 232 323 207 Q336 182 339 145 L339 143 L339 112 Q337 104 337 99 Q348 102 358.5 105 Q369 108 380 113 L383 114 Q387 116 387 116 Q390 118 396 120 L411 129 Q415 131 418.5 134 Q422 137 426 140 Q427 140 429 142 L431 143 Q435 147 437 148 Q465 173 489 203 Q489 203 491 205 Q492 206 492 206.5 Q492 207 493 208 Q495 210 496 212 Q497 214 498 216 Q501 219 503.5 222.5 Q506 226 509 230 Q514 238 519.5 246 Q525 254 530 262 Q535 270 542 271.5 Q549 273 556 269 Z M223 -13 Q254 17 274 49 Q233 44 193 42.5 Q153 41 112 41 Q89 41 66.5 41.5 Q44 42 21 42 Q9 42 -2.5 42 Q-14 42 -26 41 Q-47 39 -69 35 Q-91 31 -111 23 Q-138 12 -160 -8 Q-182 -28 -195 -55 Q-205 -77 -204 -100.5 Q-203 -124 -180 -138 Q-172 -143 -163.5 -146.5 Q-155 -150 -147 -153 Q-124 -160 -100 -160 Q-76 -160 -51 -156 Q-25 -152 0 -144 Q25 -136 50 -125 Q98 -104 141.5 -76.5 Q185 -49 223 -13 Z M235 661 Q246 652 240 638 Q226 609 212.5 580.5 Q199 552 185 523 Q185 521 183 517 Q181 513 177 510.5 Q173 508 168 511 Q161 516 166 526 L223 649 Q226 655 231 660 Q234 660 235 661 Z M103 35 L172 35 Q176 35 179.5 34.5 Q183 34 188 34 L214 34 Q217 34 219.5 34.5 Q222 35 224 34 Q226 33 229 31 Q232 29 232 27 Q230 21 225 17 Q223 15 219.5 15.5 Q216 16 213 16 Q191 15 169 15 Q147 15 125 15 Q94 15 63.5 15.5 Q33 16 2 15 Q-19 14 -39 12 Q-59 10 -79 5 Q-102 0 -120.5 -11.5 Q-139 -23 -151 -44 Q-163 -62 -171 -54 Q-177 -47 -173.5 -42.5 Q-170 -38 -167 -33 Q-153 -10 -133 3.5 Q-113 17 -88 23 Q-47 33 -9 34 Q5 35 20 35 Q35 35 50 35 L103 35 Z M292 127 Q292 120 291 113 Q290 106 282 105 Q280 105 277.5 107.5 Q275 110 274 112 Q272 114 272.5 117 Q273 120 273 123 Q271 134 269.5 145.5 Q268 157 265 168 Q256 197 236.5 213 Q217 229 188 235 L186 235 Q180 237 173.5 237.5 Q167 238 169 247 Q171 255 177.5 255 Q184 255 189 254 Q220 249 242.5 233 Q265 217 277 188 Q282 175 286 162 Q290 149 292 135 L292 127 Z M338 33 L337 33 Q332 36 331 39 Q330 40 330 41 Q330 41 330 44 Q335 49 338 51 Q341 52 344.5 52.5 Q348 53 351 54 Q358 56 365 57.5 Q372 59 379 61 Q403 69 425 81.5 Q447 94 465 112 Q468 114 470.5 116.5 Q473 119 476 121 Q481 123 485 119 Q489 115 487 110 Q485 104 481 100 Q463 82 441.5 69 Q420 56 396 47 Q385 42 366 37 Q362 36 358.5 35 Q355 34 351 33 Q343 31 338 33 Z " />
<glyph glyph-name="C" unicode="C" horiz-adv-x="525" d="M547 268 Q556 261 553.5 249 Q551 237 542 226 Q539 221 535 216.5 Q531 212 526 207 Q497 177 467.5 147 Q438 117 408 87 Q368 47 327.5 8 Q287 -31 243 -67 Q218 -88 192 -107 Q166 -126 138 -141 Q118 -152 98 -159.5 Q78 -167 56 -169 Q42 -170 28 -167.5 Q14 -165 0 -157 Q-27 -140 -43 -103 Q-53 -80 -57 -57 Q-61 -34 -62 -9 Q-65 73 -42 151 Q41 440 233 635 Q258 661 289 683 Q300 691 310.5 696.5 Q321 702 333 704 Q356 709 375 698.5 Q394 688 407 664 Q416 648 419 629 Q421 615 421.5 602 Q422 589 421 575 Q420 565 414.5 560 Q409 555 401 556 Q385 559 383 581 L383 606 Q383 627 375 642 Q364 663 344 659 Q338 658 332 655.5 Q326 653 321 650 Q305 641 291 629.5 Q277 618 263 604 Q209 550 164 487.5 Q119 425 81 353 Q57 305 36.5 256.5 Q16 208 0 155 Q-8 126 -14 97 Q-20 68 -23 38 Q-25 18 -24.5 -2 Q-24 -22 -21 -42 Q-19 -55 -15.5 -67.5 Q-12 -80 -6 -91 Q-1 -102 6.5 -110 Q14 -118 24 -121 Q30 -123 36.5 -123 Q43 -123 49 -123 Q65 -122 80 -117 Q95 -112 109 -105 Q129 -95 147.5 -83 Q166 -71 184 -57 Q219 -30 253 -0.5 Q287 29 319 61 L345 87 L405 147 Q420 162 435 177 Q450 192 464 207 Q479 221 493.5 236 Q508 251 522 265 Q526 268 530 270 Q540 274 547 268 Z M-16 9 Q-17 12 -17 17 Q-17 37 -14 56.5 Q-11 76 -6 96 Q-4 105 -2 114.5 Q0 124 2 133 Q4 140 5.5 146.5 Q7 153 9 159 Q35 246 74 324 Q113 402 166 474 Q189 506 213.5 535.5 Q238 565 265 594 Q281 611 298.5 625.5 Q316 640 338 648 Q344 650 349 650.5 Q354 651 359 646 Q364 642 362.5 637 Q361 632 356 631 Q333 628 316.5 615 Q300 602 284 586 Q227 528 180.5 462.5 Q134 397 96 325 Q62 259 39 191 Q16 123 5 50 Q0 17 3.5 -14 Q7 -45 20 -76 Q20 -77 20.5 -77.5 Q21 -78 21 -80 Q23 -85 24 -89.5 Q25 -94 18 -96 Q12 -98 8.5 -94.5 Q5 -91 3 -86 Q1 -80 -1.5 -74.5 Q-4 -69 -6 -62 Q-9 -45 -12 -27 Q-15 -9 -16 9 Z M456 101 Q452 96 450 92 Q448 88 445 86 Q423 63 402 41 Q381 19 358 -2 Q326 -33 293.5 -62 Q261 -91 225 -116 Q220 -119 215.5 -122 Q211 -125 206 -127 Q199 -129 196 -124 Q195 -121 196 -118 Q197 -115 198 -112 Q198 -111 203 -108 Q250 -76 291.5 -38.5 Q333 -1 372 40 Q386 54 401 68.5 Q416 83 430 97 Q436 105 441 106 Q444 106 447.5 104.5 Q451 103 456 101 Z " />
</font>
</svg>
