<?xml version="1.0" encoding="UTF-8"?>
<svg xmlns="http://www.w3.org/2000/svg" xmlns:xlink="http://www.w3.org/1999/xlink" version="1.2" >
<font id="Bware">
<font-face  font-family="Bware" units-per-em="1000" ascent="750" descent="-250" font-style="normal" font-weight="400" font-stretch="normal" cap-height="700" x-height="500" underline-position="-75" underline-thickness="50" />
<missing-glyph  horiz-adv-x="253" d="" />
<glyph glyph-name="NULL" d="" />
<glyph glyph-name="nonmarkingreturn" unicode="&#xd;" horiz-adv-x="253" d="" />
<glyph glyph-name="space" unicode="&#x20;" horiz-adv-x="253" d="" />
<glyph glyph-name="e" unicode="e" horiz-adv-x="247" d="M272 266 Q277 261 277.5 252.5 Q278 244 272 239 Q254 222 235 207.5 Q216 193 196 179 Q179 167 162.5 156 Q146 145 129 134 Q104 117 78.5 101 Q53 85 24 77 Q12 74 -1.5 73.5 Q-15 73 -27 76.5 Q-39 80 -48 88 Q-57 96 -61 110 Q-69 136 -61.5 164 Q-54 192 -43 216 Q-33 238 -16.5 257.5 Q0 277 26 282 Q44 286 62.5 275 Q81 264 78 242 Q75 225 60 210 Q41 193 22 188.5 Q3 184 -6 185 L-12 185 L-15 176 Q-22 157 -22 140 Q-22 132 -18.5 123.5 Q-15 115 -7 113 Q1 111 10 113.5 Q19 116 27 119 Q39 124 50.5 130.5 Q62 137 74 145 Q87 153 99.5 161.5 Q112 170 125 178 Q141 188 156.5 199 Q172 210 188 221 Q192 223 195.5 226 Q199 229 203 232 L206 234 L208 236 Q211 239 215 241 Q223 247 230 253.5 Q237 260 244 266 Q250 272 258 272 Q266 272 272 266 Z M34 243 Q26 241 19.5 235.5 Q13 230 8 223 L9 223 Q11 225 13 225 Q14 226 15 226.5 Q16 227 17 228 Q19 229 19.5 229.5 Q20 230 22 231 Q22 231 24 232 Q27 236 35 242 Q35 243 34 243 Z " />
<glyph glyph-name="f" unicode="f" horiz-adv-x="234" d="M251 254 Q251 252 250.5 247.5 Q250 243 245 241 L5 117 Q5 117 6 112 Q7 107 8 101 Q9 95 9.5 90 Q10 85 10 84 Q10 75 9.5 66 Q9 57 8 49 Q3 10 -7.5 -28 Q-18 -66 -32 -102 Q-42 -127 -53.5 -151.5 Q-65 -176 -82 -198 Q-92 -211 -104.5 -222.5 Q-117 -234 -134 -238 Q-148 -242 -162 -236 Q-176 -230 -180 -214 Q-185 -191 -178 -167.5 Q-171 -144 -163 -123 L-162 -122 Q-161 -118 -160 -115 Q-159 -112 -158 -109 L-109 17 Q-103 32 -97 46.5 Q-91 61 -85 76 Q-74 102 -64 127 Q-54 152 -43 177 L-37 190 L-36 192 Q-33 198 -27.5 211 Q-22 224 -15 239.5 Q-8 255 -1 271 Q6 287 11 298 L15 309 L169 668 Q170 670 170.5 671.5 Q171 673 173 675 Q174 677 174.5 679 Q175 681 176 683 Q186 701 203 698 Q211 696 213.5 689 Q216 682 213 674 Q212 672 212 671 Q212 670 211 668 L169 570 Q166 563 163 556 Q160 549 157 542 L-9 152 L174 242 L235 272 L241 270 Q243 268 245.5 266.5 Q248 265 250 260 Q251 258 251 254 Z M-30 57 Q-29 63 -29 69 Q-29 75 -29 81 Q-29 89 -30 93 L-30 94 L-30 95 Q-30 98 -31 100 Q-50 52 -73 -4 Q-96 -60 -113 -102 Q-119 -118 -126 -137 Q-133 -156 -138 -173 Q-139 -176 -140 -180.5 Q-141 -185 -140.5 -188.5 Q-140 -192 -137.5 -193 Q-135 -194 -129 -191 Q-121 -186 -115 -179.5 Q-109 -173 -104 -165 Q-101 -161 -97 -153 Q-90 -141 -84 -130 L-78 -118 Q-77 -116 -77 -115 Q-77 -114 -76 -112 Q-75 -111 -75 -109 Q-74 -109 -74 -108 Q-69 -96 -65 -84 Q-61 -72 -57 -59 Q-53 -47 -50 -34.5 Q-47 -22 -44 -10 Q-41 2 -38 13.5 Q-35 25 -33 36 Q-33 41 -31 49 L-31 53 L-31 55 Q-31 56 -30 57 Z " />
<glyph glyph-name="g" unicode="g" horiz-adv-x="299" d="M314 271 Q325 267 326.5 255.5 Q328 244 319 235 Q308 225 297 216 Q286 207 275 198 Q268 192 261 186 Q254 180 247 175 Q246 174 245 173.5 Q244 173 243 172 Q233 164 223 156.5 Q213 149 202 141 Q168 116 140 100 Q112 84 91 73 Q66 61 46 54 L30 15 Q26 6 22.5 -2.5 Q19 -11 15 -20 Q14 -21 14 -21.5 Q14 -22 13 -23 Q2 -49 -11 -73.5 Q-24 -98 -39 -121 Q-56 -146 -77 -172.5 Q-98 -199 -128 -210 Q-149 -218 -168 -210 Q-187 -202 -195 -180 Q-203 -156 -197 -128 Q-191 -103 -178 -83 Q-161 -56 -140 -33 Q-119 -10 -95 10 Q-73 29 -47 46 Q-39 52 -30 57.5 Q-21 63 -12 68 Q-9 70 -4 73 Q1 76 6 79 Q8 79 10 81 Q11 81 12 82 Q13 83 13.5 83 Q14 83 15 84 Q18 88 19 92 L38 139 Q27 130 16 122.5 Q5 115 -9 111 Q-17 109 -28.5 109.5 Q-40 110 -48 119 Q-61 132 -61 151.5 Q-61 171 -57 184 Q-53 201 -45.5 214.5 Q-38 228 -29 241 Q-3 279 40 293 Q47 295 56 296 Q65 297 74 294.5 Q83 292 90 286 Q97 280 99 268 Q99 264 101 262 Q107 256 109 247.5 Q111 239 109 231 Q105 216 101 201 Q97 186 92 172 Q87 159 83.5 147.5 Q80 136 76 127 Q72 116 68 106 Q88 115 108 126 Q125 135 145.5 148 Q166 161 186 175 Q188 176 190 178 L191 179 Q213 196 231 211 Q249 226 262 237 Q277 250 288 261 L294 267 Q304 274 314 271 Z M-23 -7 Q-20 -1 -17.5 5.5 Q-15 12 -11 20 Q-18 15 -24 12 Q-30 9 -36 5 Q-60 -11 -81 -30 Q-102 -49 -121 -71 Q-129 -82 -137 -92.5 Q-145 -103 -150 -114 Q-162 -137 -159 -157 Q-157 -167 -153 -170 Q-147 -175 -138 -170.5 Q-129 -166 -119 -156.5 Q-109 -147 -98.5 -132.5 Q-88 -118 -78 -103 Q-54 -67 -28 -18 Q-26 -16 -25.5 -13 Q-25 -10 -23 -7 Z M8 163 Q26 177 39 195 Q48 208 54.5 220.5 Q61 233 65 241 L75 260 L74 260 Q65 260 57 256 Q49 252 41 247 Q32 241 24 233 Q16 225 9 217 Q0 206 -7 194.5 Q-14 183 -18 169 Q-20 164 -20 156.5 Q-20 149 -10 153 Q-4 155 1.5 158.5 Q7 162 8 163 Z " />
<glyph glyph-name="h" unicode="h" horiz-adv-x="345" d="M368 267 Q373 262 373.5 253 Q374 244 368 239 L308 188 Q282 165 257 142.5 Q232 120 208 96 Q189 77 169.5 59 Q150 41 129 24 Q118 16 107 9 Q96 2 83 -1 Q69 -3 60 4 Q60 5 59 5 Q52 10 49 22 Q48 38 56 60 Q63 81 73 106 Q79 123 85 140.5 Q91 158 94 175 Q95 180 95 184.5 Q95 189 95 195 Q91 193 88.5 191.5 Q86 190 83 188 Q32 156 -6 116 Q-13 110 -18.5 103.5 Q-24 97 -31 91 Q-38 84 -46 80 Q-60 72 -70.5 77 Q-81 82 -79 95 Q-77 100 -75.5 106 Q-74 112 -71 118 L-5 265 Q12 302 28 338.5 Q44 375 60 412 Q76 447 91 482 Q106 517 121 552 Q132 578 143.5 604 Q155 630 166 656 Q169 663 174 669 Q188 683 202 678 Q218 673 211 656 Q197 625 183.5 594 Q170 563 156 531 Q142 499 128.5 467 Q115 435 101 403 L35 256 Q27 236 17.5 216 Q8 196 -1 176 Q-1 176 -3 170 Q5 176 6 177 Q22 190 38 201.5 Q54 213 71 223 Q77 226 83 228.5 Q89 231 95 233 Q123 242 136 221 Q141 213 141 204 Q141 195 140 185 Q137 167 132 149.5 Q127 132 120 114 Q115 102 111 90 Q107 78 102 67 Q100 62 99.5 58 Q99 54 97 49 Q109 57 120.5 67 Q132 77 143 87 Q154 98 165.5 109 Q177 120 188 131 Q211 154 235 175 Q261 199 287.5 221.5 Q314 244 341 267 Q354 279 368 267 Z " />
<glyph glyph-name="i" unicode="i" horiz-adv-x="230" d="M250 265 Q255 260 254.5 255.5 Q254 251 252 247 Q249 243 246 239 L172 192 Q171 191 170.5 191 Q170 191 169 190 Q146 174 122.5 158 Q99 142 75 126 Q61 115 45.5 106 Q30 97 15 87 Q0 77 -21 74 Q-33 73 -43 77 Q-54 82 -60 93 Q-66 104 -64 118 Q-63 126 -62 132.5 Q-61 139 -59 147 Q-57 158 -45.5 188.5 Q-34 219 -4 266 Q10 279 23 266 Q34 254 24 237 Q10 211 -2 185 Q-14 159 -22 130 Q-23 128 -23 123 Q-23 123 -23 119 Q-20 120 -17.5 120 Q-15 120 -12 122 Q-3 127 6.5 132 Q16 137 25 143 Q46 157 67.5 172 Q89 187 110 202 Q136 220 165 237 Q194 254 223 268 Q231 272 238 272.5 Q245 273 250 265 Z M61 366 Q53 366 47.5 372 Q42 378 42 386 Q41 394 47.5 399.5 Q54 405 62 405 Q79 405 81 386 Q81 378 75 372 Q69 366 61 366 Z " />
<glyph glyph-name="j" unicode="j" horiz-adv-x="212" d="M49 360 Q41 360 36 365.5 Q31 371 30 379 Q30 387 36 393 Q42 399 50 399 Q58 399 63.5 393 Q69 387 69 379 Q70 371 63.5 365.5 Q57 360 49 360 Z M231 271 Q242 267 243.5 255.5 Q245 244 236 236 Q225 225 214 216 Q203 207 192 198 Q185 192 178 186.5 Q171 181 164 175 Q163 174 162 173.5 Q161 173 160 172 Q150 164 140 156.5 Q130 149 119 141 Q85 116 57 100 Q29 84 8 73 Q-17 61 -36 54 L-53 15 Q-57 6 -60.5 -2.5 Q-64 -11 -68 -20 Q-69 -21 -69 -23 Q-80 -49 -93.5 -73 Q-107 -97 -122 -120 Q-139 -146 -160 -172.5 Q-181 -199 -211 -210 Q-231 -218 -250.5 -209.5 Q-270 -201 -278 -180 Q-286 -156 -280 -128 Q-274 -103 -261 -83 Q-244 -56 -223 -33 Q-202 -10 -178 10 Q-154 29 -130 46 Q-111 59 -95 68 Q-92 70 -87 73 Q-82 76 -77 79 Q-75 79 -73 81 Q-72 81 -71 82 Q-70 83 -69 83 Q-68 83 -67 84 L-3 258 Q-3 261 0 265 Q2 267 5.5 269.5 Q9 272 15 272 Q21 272 24 269 Q30 264 31.5 257.5 Q33 251 33 245 Q33 238 31 230 L4 157 Q0 146 -3.5 137 Q-7 128 -9 121 Q-13 113 -15 106 Q5 115 25 126 Q42 135 63 148 Q84 161 104 175 L108 179 Q130 196 148 211 Q166 226 179 237 Q194 250 205 261 L211 267 Q220 274 231 271 Z M-106 -7 Q-100 5 -94 20 Q-101 15 -107 12 Q-113 9 -119 5 Q-143 -11 -164 -30 Q-185 -49 -204 -71 Q-212 -82 -220 -92.5 Q-228 -103 -233 -114 Q-245 -137 -242 -157 Q-240 -167 -235 -170 Q-229 -175 -220.5 -170.5 Q-212 -166 -202 -156.5 Q-192 -147 -181.5 -132.5 Q-171 -118 -161 -103 Q-137 -67 -111 -18 Q-109 -16 -108.5 -13 Q-108 -10 -106 -7 Z " />
<glyph glyph-name="k" unicode="k" horiz-adv-x="315" d="M338 262 Q343 255 340.5 248 Q338 241 331 236 Q320 228 308.5 219 Q297 210 286 202 L274 193 L271 190 L270 190 L268 188 Q266 188 266 186 Q260 182 254.5 178 Q249 174 243 169 Q223 153 204 137 Q185 121 166 104 Q147 88 129 71.5 Q111 55 91 39 Q86 35 81.5 31.5 Q77 28 72 24 Q63 15 51 8 Q34 -1 19 8 Q13 11 9 16.5 Q5 22 3 28 Q-4 44 -9 60 Q-14 76 -16 93 L-40 60 Q-44 56 -47 52 Q-50 48 -54 44 Q-59 39 -66 35.5 Q-73 32 -81 34 Q-90 35 -94 41 Q-98 47 -94 56 Q-92 63 -88.5 70 Q-85 77 -82 84 Q-81 87 -79 91 L-69 113 L-69 114 L9 298 Q15 313 21 328 Q27 343 34 358 Q57 409 79 458 Q101 507 124 557 Q141 593 159 629 Q177 665 194 701 L197 710 Q199 719 206.5 725.5 Q214 732 224 733 Q233 735 239.5 729.5 Q246 724 244 716 Q243 711 241 705.5 Q239 700 237 695 Q204 632 174 568.5 Q144 505 115 441 Q99 405 84 368.5 Q69 332 53 296 L5 179 Q2 173 -0.5 167.5 Q-3 162 -5 154 Q35 195 68 224 Q82 236 96.5 246.5 Q111 257 123.5 263.5 Q136 270 145.5 271 Q155 272 160 265 Q169 251 150.5 227 Q132 203 105 177 Q104 177 102 175 Q94 167 85 159.5 Q76 152 68 145 Q43 125 21 112 Q21 106 22 103 L22 98 Q23 97 23 94 Q25 86 26 81 Q28 75 29.5 69 Q31 63 33 57 Q34 55 34 53.5 Q34 52 35 50 Q35 49 36 48 Q37 47 37 47 L37 46 Q38 46 38 47 Q40 48 40.5 48.5 Q41 49 43 50 Q43 51 44 51 Q45 51 46 52 Q48 54 54 58 Q63 66 72 73.5 Q81 81 89 89 Q107 104 124.5 119.5 Q142 135 160 151 Q197 182 235 211.5 Q273 241 312 269 Q319 274 326.5 271 Q334 268 338 262 Z " />
<glyph glyph-name="l" unicode="l" horiz-adv-x="209" d="M233 266 Q239 261 239 252.5 Q239 244 233 239 Q213 219 195 198 Q177 177 159 156 Q127 118 92.5 82 Q58 46 20 14 Q6 3 -9.5 -9 Q-25 -21 -43 -26 Q-60 -29 -71 -27 Q-82 -25 -88.5 -19.5 Q-95 -14 -97.5 -7.5 Q-100 -1 -101 5 Q-101 6 -102 7 L-102 8 L-102 9 L-102 14 L-102 18 Q-102 28 -99 37 Q-96 47 -93 57 Q-90 67 -86 77 L-46 170 Q-42 178 -41 182 Q-15 239 10.5 294.5 Q36 350 61 407 Q81 452 101 495 Q121 538 142 583 Q152 603 160.5 623 Q169 643 178 663 Q182 671 186 678 Q190 685 194 693 Q200 703 214 708 Q227 711 234.5 704 Q242 697 236 686 Q210 635 187 583.5 Q164 532 139 481 Q126 455 115.5 429 Q105 403 93 377 Q75 336 57 296 Q39 256 20 215 Q3 178 -14 142 Q-31 106 -45 68 Q-50 57 -53 45.5 Q-56 34 -56 23 Q-55 19 -52 16 Q-49 13 -38 18 L-38 19 L-37 19 Q-31 23 -29 25 Q-28 26 -27.5 26 Q-27 26 -26 27 Q-24 27 -24 29 L-23 29 Q-21 31 -21 31 Q-19 32 -18.5 32.5 Q-18 33 -16 34 Q-7 42 1.5 49.5 Q10 57 19 65 Q36 80 51.5 96.5 Q67 113 83 130 Q99 147 114 164 Q129 181 144 199 Q159 216 174 233.5 Q189 251 206 266 Q219 279 233 266 Z " />
<glyph glyph-name="m" unicode="m" horiz-adv-x="445" d="M470 263 Q474 257 474 252.5 Q474 248 472 244 Q470 240 466 236 L379 176 Q354 159 329.5 141 Q305 123 280 106 Q272 101 264.5 95.5 Q257 90 249 85 Q233 75 217 68 Q203 62 188.5 57.5 Q174 53 162 55 Q139 58 144 83 Q147 101 157 115 Q169 135 181 154.5 Q193 174 206 194 Q208 199 211 203.5 Q214 208 216 213 Q209 209 203 205 Q171 181 139.5 155.5 Q108 130 79 103 Q72 96 63 90 Q48 77 35 83 Q21 89 27 107 Q29 113 32 118.5 Q35 124 38 130 Q44 142 51 154.5 Q58 167 65 179 Q65 180 67 184 Q61 180 61 180 Q35 157 9.5 134 Q-16 111 -37 84 L-43 78 Q-57 65 -70 70 Q-85 75 -79 91 Q-76 100 -72 108.5 Q-68 117 -64 126 Q-58 140 -52 153.5 Q-46 167 -39 181 Q-39 182 -36.5 188.5 Q-34 195 -30 203.5 Q-26 212 -21.5 222 Q-17 232 -13 241 Q-13 242 -12.5 243 Q-12 244 -12 245 L0 271 Q5 275 9 277 Q19 281 28 276 Q36 273 36 263 Q34 251 29 238 Q26 234 25 230 Q20 220 17 211 Q13 203 10 195.5 Q7 188 3 179 Q6 181 7.5 182.5 Q9 184 11 185 Q25 198 40 210 Q55 222 69 234 Q75 239 81 243 Q87 247 93 250 Q111 260 122.5 253 Q134 246 129 228 Q126 218 121.5 208 Q117 198 113 188 Q112 186 111 183.5 Q110 181 110 179 L119 185 Q139 200 158.5 215.5 Q178 231 198 246 Q206 251 214.5 256 Q223 261 231 266 Q240 271 252 274 Q263 276 270.5 271 Q278 266 278 255 Q278 242 268 225 Q258 208 248 191 Q238 174 227 157 L206 124 Q205 123 204 121 Q203 119 202 118 Q201 117 200 115 L200 114 Q199 113 199 112 Q194 104 194 101 L202 107 L210 113 L214 115 L223 121 L254 143 L255 143 Q275 157 295.5 171 Q316 185 336 199 Q345 205 363 217 Q381 229 399.5 241 Q418 253 432.5 262 Q447 271 449 271 Q451 272 458 271.5 Q465 271 470 263 Z " />
<glyph glyph-name="n" unicode="n" horiz-adv-x="348" d="M370 263 Q374 257 374 252.5 Q374 248 372 244 Q370 240 366 236 L279 176 Q254 159 229.5 141 Q205 123 180 106 Q172 101 164.5 95.5 Q157 90 149 85 Q133 75 117 68 Q103 62 88 57.5 Q73 53 62 55 Q39 58 44 83 Q47 100 56 115 Q69 135 81 154.5 Q93 174 106 194 Q108 199 110.5 203.5 Q113 208 115 213 Q111 211 103 205 Q71 181 39.5 155.5 Q8 130 -22 103 Q-26 99 -29.5 96 Q-33 93 -37 90 Q-52 77 -65 83 Q-70 87 -72 89 Q-77 94 -75 103 Q-75 107 -73 111 L-45 175 Q-34 198 -24 221 Q-14 244 -4 267 Q0 275 8.5 276 Q17 277 23 274 Q25 273 27 271 Q32 266 32 258 Q32 251 27 241 Q23 232 19 222.5 Q15 213 11 203 Q6 194 2 184.5 Q-2 175 -6 165 L63 219 Q71 226 80 232.5 Q89 239 98 246 Q115 258 131 266 Q140 271 152 274 Q163 276 170.5 271 Q178 266 178 255 Q178 242 168 225 Q158 208 148 191 Q138 174 127 157 L106 124 Q105 123 104 121 Q103 119 102 118 Q101 117 100 115 Q100 114 99 114 Q99 112 98 112 Q96 108 95 105.5 Q94 103 93 101 L102 107 L110 113 L114 115 L123 121 L154 143 L155 143 Q175 157 195.5 171 Q216 185 236 199 Q245 205 262.5 217 Q280 229 298 240.5 Q316 252 330.5 261 Q345 270 348 272 Q350 272 357 271.5 Q364 271 370 263 Z " />
<glyph glyph-name="o" unicode="o" horiz-adv-x="233" d="M248 262 Q250 253 247 248 Q244 243 237 239 Q228 234 219 229 Q210 224 201 219 Q176 207 149.5 198.5 Q123 190 96 186 Q93 185 89 185 Q85 184 72 184 Q72 179 70 169 Q70 167 69.5 166 Q69 165 69 164 Q66 152 62 145 Q49 109 16 84 Q-16 60 -51 63 Q-74 65 -87 79 Q-100 93 -101 115 Q-101 139 -94 160 Q-83 186 -68 209 Q-55 229 -38 246.5 Q-21 264 1 272 Q4 274 11 275 Q18 276 27 274 Q29 274 33 272 Q43 269 46 258 Q47 256 47.5 255 Q48 254 50 252 Q55 251 61 245 Q65 239 66 236 Q66 235 67 231.5 Q68 228 70 221 L81 221 Q82 222 84 222 Q90 222 92 223 Q133 229 168 245 L216 266 Q226 270 231 271 Q234 272 239 272 Q246 271 248 262 Z M31 198 Q33 203 29 205 Q24 211 20.5 217.5 Q17 224 17 233 Q9 231 5 230 Q-5 223 -11 216 Q-42 185 -56 138 Q-59 128 -58 119 Q-58 105 -44 105 Q-28 105 -14 114 Q9 130 19 151 Q29 172 31 198 Z " />
<glyph glyph-name="p" unicode="p" horiz-adv-x="357" d="M382 262 Q387 255 384 247.5 Q381 240 375 236 Q359 225 343 214.5 Q327 204 310 194 Q281 177 250.5 161 Q220 145 190 129 Q181 125 172.5 121 Q164 117 156 113 Q154 112 135 103.5 Q116 95 89 85.5 Q62 76 32.5 68 Q3 60 -19 60 Q-20 58 -24 52 Q-50 10 -72 -32 Q-94 -74 -117 -116 Q-132 -144 -145.5 -171.5 Q-159 -199 -172 -228 Q-174 -233 -181.5 -238 Q-189 -243 -204 -241 Q-215 -240 -215.5 -233.5 Q-216 -227 -214 -222 Q-194 -176 -174.5 -130.5 Q-155 -85 -135 -39 Q-107 24 -80 86.5 Q-53 149 -26 212 Q-20 225 -15 237.5 Q-10 250 -4 264 Q2 279 19 281 Q27 281 32.5 275.5 Q38 270 36 262 Q34 254 32 249 Q31 247 30 244 Q29 241 28 239 L-9 144 Q-7 146 -7 147 Q20 182 48 210 Q69 229 90 242 Q109 253 127 256 Q149 259 162 245 Q175 231 170 207 Q163 182 145 163 Q143 161 139.5 157.5 Q136 154 132 150 L123 141 Q125 141 133.5 144.5 Q142 148 151 153 Q162 158 174 165 Q191 173 207 182 Q223 191 240 199 Q269 216 298 232.5 Q327 249 355 269 Q362 274 370 271 Q378 268 382 262 Z M103 174 Q119 187 126 202 Q130 211 128 215 Q123 216 119 214 Q115 212 111 210 Q91 199 75 183 Q62 171 50.5 157.5 Q39 144 28 130 Q28 131 26 125 Q37 132 47.5 137.5 Q58 143 68 150 Q77 155 86 161.5 Q95 168 103 174 Z " />
<glyph glyph-name="q" unicode="q" horiz-adv-x="231" d="M252 269 Q259 266 261.5 257.5 Q264 249 259 243 L244 222 Q214 178 183.5 135.5 Q153 93 122 50 Q92 7 62.5 -35 Q33 -77 2 -119 Q-13 -140 -29 -160.5 Q-45 -181 -62 -201 Q-67 -206 -71 -211 Q-75 -216 -81 -219 Q-88 -223 -96 -223.5 Q-104 -224 -112 -220 Q-128 -212 -127 -195.5 Q-126 -179 -122 -165 Q-116 -140 -105 -116 Q-94 -92 -83 -68 Q-72 -44 -61.5 -20 Q-51 4 -40 27 Q-32 47 -23 66.5 Q-14 86 -5 106 Q-8 104 -10 103 Q-12 102 -14 100 Q-30 88 -52 85 Q-77 82 -87 103 Q-92 115 -92 125 Q-92 142 -86 159.5 Q-80 177 -72 192 Q-68 200 -64 206.5 Q-60 213 -55 220 Q-46 233 -33.5 246 Q-21 259 -6 268 Q9 277 25.5 280.5 Q42 284 59 278 Q70 274 75 267 Q79 261 79 258 L79 252 L79 247 Q90 242 90 233 Q90 224 85 214 Q83 208 81 202.5 Q79 197 77 192 L76 190 Q72 182 69 174 Q66 166 62 158 L56 145 L-77 -158 L-62 -140 Q-61 -138 -60 -137 Q-59 -136 -58 -134 Q-58 -134 -57 -133 L-56 -132 Q-52 -126 -49 -123 Q-45 -118 -42 -113.5 Q-39 -109 -35 -104 Q-27 -94 -20.5 -84.5 Q-14 -75 -6 -64 Q23 -23 51.5 17 Q80 57 109 98 Q138 140 167.5 180.5 Q197 221 226 262 Q231 269 237.5 271.5 Q244 274 252 269 Z M-14 150 Q3 170 17.5 191 Q32 212 46 233 Q41 240 28 240 Q14 239 0 225 Q-25 198 -38 170 Q-44 159 -47 148 Q-51 135 -47 125 Q-42 127 -38.5 129 Q-35 131 -32 134 Q-27 138 -23 141.5 Q-19 145 -14 150 Z " />
<glyph glyph-name="r" unicode="r" horiz-adv-x="254" d="M276 267 Q281 262 281.5 253 Q282 244 276 239 Q262 227 248.5 215 Q235 203 221 191 L122 107 Q110 97 98 87 Q86 77 74 67 Q66 61 58 55 Q50 49 42 43 Q34 38 24.5 32.5 Q15 27 5 25 Q-9 22 -18.5 31 Q-28 40 -28 54 Q-28 63 -25.5 72.5 Q-23 82 -19 92 Q-11 108 -4 123.5 Q3 139 10 155 L41 209 Q28 197 17 192 Q7 187 -3 189 Q-13 191 -19 206 Q-23 217 -21.5 233 Q-20 249 -6 271 Q2 277 12.5 279 Q23 281 29 277 Q42 269 34 252 Q32 247 30 243 Q28 239 26 234 Q36 242 43 249 Q49 254 54 259 Q59 264 60 265 Q62 267 64.5 268.5 Q67 270 69 272 Q81 281 93 275 Q105 270 102 256 Q100 245 96 237 Q87 220 78 203 Q69 186 61 169 Q50 147 39 126 Q28 105 20 83 Q19 81 18.5 78 Q18 75 17 73 L182 210 Q199 224 215.5 238.5 Q232 253 249 267 Q262 279 276 267 Z " />
<glyph glyph-name="s" unicode="s" horiz-adv-x="220" d="M246 267 Q251 262 251 253 Q251 244 246 239 Q223 218 198.5 198 Q174 178 149 159 Q122 137 94 117 Q66 97 37 77 Q38 66 37.5 55.5 Q37 45 35 34 Q33 24 29 14 Q24 5 18.5 -4.5 Q13 -14 6 -22 Q-14 -49 -42 -64 Q-58 -73 -74 -79 Q-90 -85 -108 -84 Q-120 -84 -131.5 -78.5 Q-143 -73 -148 -62 Q-154 -50 -151 -35 Q-150 -29 -147.5 -23 Q-145 -17 -142 -12 Q-135 0 -125.5 9.5 Q-116 19 -105 27 Q-94 36 -82.5 43.5 Q-71 51 -60 59 Q-51 65 -42.5 70.5 Q-34 76 -26 82 L-9 93 Q-14 105 -19 116 Q-23 129 -30 144 L-36 159 Q-38 163 -42 173 Q-47 187 -44.5 211.5 Q-42 236 -16 260 Q0 276 25 277.5 Q50 279 67 264 Q72 259 73.5 251.5 Q75 244 67 236 Q55 224 46.5 226.5 Q38 229 36 231 L35 232 Q34 232 34 232.5 Q34 233 33 233 Q22 240 11 233.5 Q0 227 -3 212 Q-4 207 -3.5 202.5 Q-3 198 -2 194 Q0 188 2.5 182 Q5 176 7 171 Q8 168 11 161 Q14 154 17 146.5 Q20 139 22.5 132.5 Q25 126 27 122 Q27 120 28 119 Q34 123 36 125 Q60 142 84 159 Q108 176 131 193 Q131 194 132 194 L135 197 Q137 198 138 199 Q139 200 141 201 Q144 203 146.5 205.5 Q149 208 152 210 Q157 215 163 219 Q169 223 174 228 Q185 237 196 246.5 Q207 256 218 267 Q232 279 246 267 Z M-24 2 Q-5 24 -5 49 Q-22 38 -38.5 27 Q-55 16 -72 4 Q-84 -4 -97 -17 Q-99 -19 -102 -22 Q-105 -25 -107 -28 Q-109 -30 -110 -33.5 Q-111 -37 -109 -40 Q-106 -48 -96 -46 Q-86 -44 -81 -42 Q-64 -35 -49.5 -23.5 Q-35 -12 -24 2 Z " />
<glyph glyph-name="t" unicode="t" horiz-adv-x="232" d="M391 558 Q400 548 397.5 538 Q395 528 383 528 Q325 527 269 523 Q213 519 156 517 Q154 517 153 516.5 Q152 516 150 516 L96 396 Q92 387 88 378 Q84 369 80 359 Q56 304 32 249.5 Q8 195 -15 140 Q-25 118 -33.5 96.5 Q-42 75 -47 53 Q-47 50 -48 49 Q-49 44 -48 40 Q-47 36 -41 38 Q-41 38 -40 39 L-38 39 Q-31 43 -22 50 Q-13 57 -5 64 Q5 72 15 80 Q25 90 37 99 Q52 113 67.5 126 Q83 139 98 153 Q130 182 162 210 Q194 238 226 266 Q239 279 253 266 Q259 261 259 252.5 Q259 244 253 239 Q215 204 174 169 Q140 138 106.5 108 Q73 78 38 49 Q29 41 19.5 34 Q10 27 1 20 Q-7 14 -15 8 Q-23 2 -32 -3 Q-40 -7 -50.5 -11.5 Q-61 -16 -72 -15 L-72 -14 L-74 -14 Q-78 -14 -81 -11 L-82 -11 Q-91 -5 -92.5 8 Q-94 21 -92 34 Q-90 49 -85 67 Q-77 87 -69.5 107.5 Q-62 128 -54 148 Q-49 162 -44 174 L9 294 Q10 296 10.5 298 Q11 300 12 302 Q26 336 40.5 369 Q55 402 70 436 L104 513 Q89 511 73.5 510 Q58 509 42 508 Q0 505 -42.5 502 Q-85 499 -128 496 Q-132 496 -139 499 Q-146 502 -146 516 Q-146 529 -138 533 Q-130 537 -124 538 L-119 538 Q-75 541 -32 544 Q11 547 54 550 Q71 552 88.5 553 Q106 554 123 555 L125 558 L125 559 Q125 560 126 561 L171 662 Q171 664 173 666 Q181 683 189 698 Q197 713 205 729 Q211 742 226 745 Q237 747 242.5 738 Q248 729 243 718 Q241 713 238 708.5 Q235 704 233 699 L169 558 Q189 560 208 560.5 Q227 561 247 562 Q270 563 291.5 564.5 Q313 566 335 568 Q343 569 352 568.5 Q361 568 369 568 Q382 568 391 558 Z " />
<glyph glyph-name="u" unicode="u" horiz-adv-x="296" d="M319 266 Q324 261 324 252.5 Q324 244 319 239 Q299 223 280.5 207.5 Q262 192 242 176 Q224 162 206.5 148.5 Q189 135 170 122 Q161 116 152 109.5 Q143 103 133 97 Q124 92 115 86 Q106 80 96 75 Q88 71 79 71 Q70 71 63 78 Q58 83 56.5 89.5 Q55 96 56 103 Q57 111 58 118 Q59 125 61 133 Q63 139 65 147.5 Q67 156 70 164 Q73 173 77 182 L70 175 Q60 165 50.5 154.5 Q41 144 30 134 Q22 127 14.5 120.5 Q7 114 -1 108 Q-12 99 -27 101 Q-34 103 -36 105 Q-46 113 -46 131.5 Q-46 150 -41 171.5 Q-36 193 -28.5 213 Q-21 233 -17 244 Q-10 261 -4.5 266.5 Q1 272 4 274 Q12 276 16 276 Q26 276 30.5 268.5 Q35 261 31 251 Q29 248 28 244.5 Q27 241 25 238 Q22 233 19.5 227.5 Q17 222 15 217 Q15 217 13 213 Q11 210 10.5 207 Q10 204 8 201 Q5 192 2.5 184 Q0 176 -2 169 Q-4 161 -5 155 Q7 166 18 177 L51 210 L51 211 Q56 216 61 221 Q66 226 71 231 Q79 239 87 245.5 Q95 252 103 260 Q113 268 124 268 Q132 268 138 264 Q144 260 144 252 Q145 242 142 232 Q140 229 139.5 226.5 Q139 224 137 221 L98 121 Q100 123 104 125 Q138 146 170 170 Q174 173 178 176 Q182 179 186 182 Q189 184 193 188 Q195 189 195.5 189.5 Q196 190 198 191 L199 191 L199 192 Q207 198 214.5 204 Q222 210 230 216 Q245 229 260.5 241.5 Q276 254 291 266 Q305 278 319 266 Z " />
<glyph glyph-name="v" unicode="v" horiz-adv-x="333" d="M351 262 Q355 256 353 247.5 Q351 239 344 236 Q330 228 315 225 Q300 222 285 219 Q270 216 254.5 214 Q239 212 223 213 Q200 213 177.5 218.5 Q155 224 136 238 L116 213 Q114 210 111 207 Q108 204 106 201 Q89 181 72.5 162 Q56 143 39 124 Q32 116 25 109 Q18 102 10 95 Q5 91 -0.5 87.5 Q-6 84 -11 81 Q-24 76 -34 79.5 Q-44 83 -46 94 Q-49 103 -47 115 Q-45 143 -37 168 L-7 262 Q-3 270 4 275.5 Q11 281 19 279 Q38 277 33 257 Q28 241 23 225.5 Q18 210 13 194 Q9 183 6 172 Q3 161 -1 150 Q-3 140 -3 135 L-2 134 Q1 137 4 139.5 Q7 142 9 145 Q24 162 38.5 179.5 Q53 197 68 214 Q79 226 89 238 Q99 250 110 263 L122 277 L123 278 Q128 283 136.5 283 Q145 283 150 278 Q155 273 158 271 Q158 270 159 270 Q160 270 160 269 Q162 268 162.5 267.5 Q163 267 165 266 Q167 264 169.5 263.5 Q172 263 175 261 Q176 261 176 260.5 Q176 260 177 260 Q179 260 179.5 259.5 Q180 259 182 259 Q192 255 205 253 L206 253 Q208 253 209.5 252.5 Q211 252 213 252 L225 252 Q232 252 238.5 252 Q245 252 252 253 Q253 253 253.5 253.5 Q254 254 255 254 Q253 253 253.5 253 Q254 253 256 254 Q261 254 263 255 Q267 256 270 256 Q273 256 277 257 Q286 259 295.5 261 Q305 263 314 266 Q318 267 321.5 268.5 Q325 270 329 271 Q342 276 351 262 Z " />
<glyph glyph-name="w" unicode="w" horiz-adv-x="354" d="M375 266 Q381 261 381 252.5 Q381 244 375 239 Q334 201 276 196 Q256 194 232.5 198.5 Q209 203 193 218 Q179 199 166.5 180.5 Q154 162 140 143 Q120 114 98 89 Q93 83 87.5 78.5 Q82 74 77 69 Q61 58 48 61.5 Q35 65 30 80 Q27 90 27 99.5 Q27 109 29 120 Q29 131 32 145 L27 140 Q17 129 7 117.5 Q-3 106 -14 95 Q-20 89 -30 84 Q-42 79 -51 84.5 Q-60 90 -61 104 Q-61 116 -58 128.5 Q-55 141 -50 153 Q-40 176 -30.5 198.5 Q-21 221 -11 244 Q-9 247 -8 249.5 Q-7 252 -6 255 Q-3 263 4.5 268.5 Q12 274 20 272 Q28 270 31.5 264 Q35 258 32 249 Q29 241 25.5 234 Q22 227 19 219 Q12 204 6 189.5 Q0 175 -7 160 Q-7 159 -7.5 158 Q-8 157 -8 155 Q-4 159 -1 162.5 Q2 166 6 170 Q12 177 18 183.5 Q24 190 30 196 Q34 200 40 204 Q52 211 62.5 207.5 Q73 204 75 192 Q76 187 75.5 181 Q75 175 75 169 Q73 156 72 144 Q71 132 69 120 Q68 116 68 109 Q75 116 77 119 Q93 140 108 161 Q123 182 138 204 Q146 214 152.5 223.5 Q159 233 166 243 Q168 245 168.5 246 Q169 247 171 249 L174 252 Q176 254 178 255 Q180 256 182 258 Q192 262 204 257 Q209 255 213.5 251 Q218 247 223 244 Q228 241 233.5 239.5 Q239 238 244 236 Q267 232 290 237.5 Q313 243 333 255 Q337 257 340 260 Q341 260 341.5 261 Q342 262 343 262 Q346 265 348 266 Q361 279 375 266 Z " />
<glyph glyph-name="x" unicode="x" horiz-adv-x="271" d="M282 266 Q284 258 283.5 250.5 Q283 243 272 234 Q268 231 245 214.5 Q222 198 191.5 176 Q161 154 128 130.5 Q95 107 71 90 Q65 85 59 81.5 Q53 78 47 74 Q40 71 34 67 Q28 63 21 61 Q15 59 7.5 57.5 Q0 56 -7 59 Q-18 64 -23 77 Q-27 85 -28 93.5 Q-29 102 -30 110 L-29 122 L-75 68 Q-77 66 -77.5 65 Q-78 64 -80 62 Q-87 54 -95 51.5 Q-103 49 -110 54 Q-116 58 -116.5 66 Q-117 74 -111 82 Q-100 98 -87 111.5 Q-74 125 -61 139 Q-52 149 -42.5 158.5 Q-33 168 -24 177 Q-23 179 -22 180 Q-21 181 -21 182 Q-20 184 -20 185 Q-20 186 -19 188 Q-19 189 -18 197.5 Q-17 206 -15.5 217 Q-14 228 -12 238 Q-10 248 -9 253 Q-9 255 -7 259 Q-3 265 3 269 Q9 273 16 272 Q31 270 31 254 Q31 248 30.5 242 Q30 236 29 229 Q31 230 33 232 Q45 243 57 253 Q69 263 81 273 Q87 279 95 282 Q103 286 110.5 284 Q118 282 121 275 Q124 269 121.5 261.5 Q119 254 112 249 Q110 247 106.5 246 Q103 245 101 243 Q79 225 58.5 206.5 Q38 188 18 168 Q16 164 16 164 Q13 149 11.5 134.5 Q10 120 12 106 Q13 103 15 95 L268 269 Q270 271 273 272 Q279 274 282 266 Z " />
<glyph glyph-name="y" unicode="y" horiz-adv-x="315" d="M334 264 Q338 254 332 246 Q329 242 326 239 L78 73 Q73 70 72 65 Q55 30 38.5 -6 Q22 -42 5 -77 Q-21 -132 -62 -176 Q-82 -196 -104 -212.5 Q-126 -229 -152 -239 Q-157 -241 -162 -242.5 Q-167 -244 -173 -245 Q-185 -248 -202 -246 Q-215 -245 -228 -238 Q-255 -222 -255 -188 Q-254 -106 -184 -46 Q-164 -28 -142.5 -14 Q-121 0 -98 12 L22 78 Q27 81 32.5 84.5 Q38 88 43 91 Q46 94 46 95 L85 182 L84 182 Q82 181 81.5 180 Q81 179 79 178 Q68 166 56 154 Q44 142 31 131 Q20 120 1 113 Q-13 109 -23 113.5 Q-33 118 -37 130 Q-42 142 -41.5 155 Q-41 168 -37 182 Q-37 185 -35 189 Q-26 218 -18.5 236.5 Q-11 255 -5 265 Q1 275 5 279 Q9 283 10 283 Q10 283 12 284 Q23 289 31 281 Q39 273 33 261 Q28 250 21.5 238 Q15 226 10 214 Q5 200 1 186.5 Q-3 173 -3 159 L-3 153 Q-3 152 -2.5 151.5 Q-2 151 -2 149 Q0 151 3 152.5 Q6 154 8 156 Q18 165 27.5 174 Q37 183 47 193 Q61 207 74 221.5 Q87 236 101 250 Q107 256 110 258 Q124 268 133 263 Q145 257 142 243 Q139 228 133 213 Q126 193 118.5 174 Q111 155 103 135 Q102 134 101 130 L103 132 L315 269 Q319 271 323 272 Q326 272 329 270.5 Q332 269 334 264 Z M4 2 Q8 11 12 19.5 Q16 28 20 37 Q19 36 17 36 Q-7 23 -30.5 10 Q-54 -3 -78 -16 Q-98 -27 -117 -38.5 Q-136 -50 -153 -64 Q-167 -75 -179.5 -88 Q-192 -101 -200 -117 Q-218 -151 -217 -186 Q-215 -200 -203 -206 Q-189 -212 -173 -208 Q-157 -204 -143 -196.5 Q-129 -189 -115 -178 Q-92 -161 -75 -139.5 Q-58 -118 -44 -94 Q-30 -71 -18.5 -46.5 Q-7 -22 4 2 Z " />
<glyph glyph-name="z" unicode="z" horiz-adv-x="328" d="M362 258 Q363 251 360 243 Q343 205 319 171.5 Q295 138 266 109 Q240 83 210.5 60.5 Q181 38 150 18 Q116 -5 77 -25 Q76 -26 76 -27 Q49 -73 14 -113 Q-21 -153 -64 -188 Q-87 -208 -115 -221 Q-138 -232 -159 -238 Q-170 -240 -181 -239.5 Q-192 -239 -202 -235 Q-224 -224 -232 -200 Q-243 -168 -226 -139 Q-209 -110 -182 -94 Q-179 -92 -175.5 -91 Q-172 -90 -169 -88 Q-149 -79 -128.5 -72.5 Q-108 -66 -88 -58 Q-78 -54 -68.5 -50.5 Q-59 -47 -49 -42 Q-48 -41 -47 -41 Q-46 -41 -44 -40 Q-41 -40 -41 -38 L-32 -35 Q-27 -33 -23 -31 Q-19 -29 -14 -27 Q3 -19 19 -11 Q35 -3 51 5 Q54 10 56.5 16 Q59 22 62 27 Q69 39 74 54 Q77 62 79.5 71 Q82 80 82 88 Q82 100 76.5 108.5 Q71 117 58 118 Q53 118 47.5 117.5 Q42 117 37 116 Q26 113 14 110 Q2 107 -9 104 Q-17 102 -24 104 Q-33 107 -35.5 115.5 Q-38 124 -31 133 Q-28 137 -25 140.5 Q-22 144 -19 147 Q4 168 25.5 189 Q47 210 69 231 Q73 235 76 238.5 Q79 242 83 246 Q83 247 82.5 247 Q82 247 82 248 Q70 246 58.5 244.5 Q47 243 35 241 Q34 240 32 240 L30 240 L29 240 Q28 240 28 239.5 Q28 239 27 239 Q22 239 14.5 238.5 Q7 238 0 239 Q-7 240 -11.5 242.5 Q-16 245 -16 251 Q-15 259 -9.5 265.5 Q-4 272 5 273 Q51 280 98 285 Q107 287 115 285 Q128 283 132.5 273 Q137 263 130 251 Q122 237 111 224 Q94 207 77.5 191 Q61 175 44 158 L40 154 Q62 157 78.5 154 Q95 151 106 139 Q112 132 118.5 114 Q125 96 115 61 Q113 55 111 49 Q109 43 107 37 Q114 41 120.5 45 Q127 49 133 53 Q150 64 164 75 Q169 77 172.5 80 Q176 83 180 86 L183 89 L184 89 Q186 91 187.5 92 Q189 93 191 95 Q219 117 246 144 Q252 151 258.5 157.5 Q265 164 270 172 Q272 174 273 175.5 Q274 177 276 179 Q278 181 278 182 Q280 184 280 184 Q283 188 285.5 191.5 Q288 195 290 198 Q312 231 326 263 Q329 271 337.5 272 Q346 273 353 270 Q358 267 362 258 Z M-87 -162 Q-59 -138 -34 -112.5 Q-9 -87 12 -58 Q10 -59 9 -59 Q8 -59 6 -60 Q-14 -69 -32.5 -77 Q-51 -85 -71 -93 Q-90 -100 -109 -106 Q-128 -112 -146 -120 Q-147 -121 -148 -121 Q-149 -122 -150 -122 L-151 -122 Q-152 -123 -152.5 -123 Q-153 -123 -154 -124 Q-157 -125 -163 -129 Q-165 -129 -165 -130 Q-171 -134 -180.5 -143.5 Q-190 -153 -194 -170 L-194 -172 Q-195 -173 -195 -174 L-195 -177 L-195 -178 Q-195 -180 -194.5 -185.5 Q-194 -191 -189.5 -195.5 Q-185 -200 -175.5 -201.5 Q-166 -203 -148 -197 Q-114 -185 -87 -162 Z " />
<glyph glyph-name="d" unicode="d" horiz-adv-x="298" d="M324 262 Q328 255 325.5 247.5 Q323 240 317 236 L123 90 Q114 84 102.5 76.5 Q91 69 79 63 Q67 57 56 54.5 Q45 52 39 56 L38 56 Q27 64 27.5 77 Q28 90 33 103 L51 147 Q44 141 38 137 Q33 133 27 128.5 Q21 124 16 122 Q10 119 4 116 Q-2 113 -9 111 Q-17 109 -28.5 109.5 Q-40 110 -48 119 Q-61 132 -61 151.5 Q-61 171 -57 184 Q-53 201 -45.5 214.5 Q-38 228 -29 241 Q-3 279 40 293 Q47 295 56.5 296 Q66 297 75 294.5 Q84 292 90.5 286 Q97 280 99 268 L99 266 L124 327 L278 685 Q279 687 279.5 689 Q280 691 281 693 Q282 695 282.5 696.5 Q283 698 284 700 Q294 720 312 715 Q319 713 322 706.5 Q325 700 322 692 L319 686 L277 588 Q270 571 263 554 Q256 537 249 520 Q244 508 238 495.5 Q232 483 227 471 Q221 455 214.5 440 Q208 425 201 409 Q188 377 172 342 Q170 338 169 334.5 Q168 331 166 326 L151 292 Q144 274 136 255 Q129 238 121 217.5 Q113 197 104 176 Q102 172 101 169 Q100 166 98 162 L87 134 L75 104 L84 110 Q86 111 87.5 112 Q89 113 91 115 Q91 115 92 116 Q93 116 93 116.5 Q93 117 94 117 L298 270 Q305 275 312 272 Q319 269 324 262 Z M43 195 Q48 202 52.5 209.5 Q57 217 61 225 Q64 231 66.5 237.5 Q69 244 71 250 Q71 251 71.5 252 Q72 253 72 254 Q73 256 73 257 Q73 258 74 260 Q65 259 56.5 255.5 Q48 252 41 247 Q32 241 24 233 Q16 225 9 217 Q0 206 -7 194.5 Q-14 183 -18 169 Q-19 165 -20 158 Q-21 151 -14 152 L-10 152 Q-7 154 -3.5 155 Q0 156 3 158 Q15 165 25 174.5 Q35 184 43 195 Z " />
<glyph glyph-name="L" unicode="L" horiz-adv-x="563" d="M589 259 Q591 252 588.5 245 Q586 238 581 231.5 Q576 225 570 219.5 Q564 214 560 210 Q546 196 532 182 Q518 168 503 154 Q462 116 417.5 83.5 Q373 51 318 38 Q295 33 272 32.5 Q249 32 226 34 Q200 36 175.5 43.5 Q151 51 126 59 Q113 64 100.5 68 Q88 72 74 77 Q72 75 71 73 Q70 71 68 69 Q52 47 35 26.5 Q18 6 -2 -13 Q-14 -24 -27 -33.5 Q-40 -43 -54 -50 Q-73 -60 -91 -61 Q-112 -62 -126.5 -50 Q-141 -38 -146 -18 Q-150 3 -142 24 Q-140 29 -138 32.5 Q-136 36 -134 40 Q-96 102 -25 123 Q-9 128 7.5 128.5 Q24 129 41 127 Q53 125 54 125.5 Q55 126 61 136 Q93 187 121 240 Q149 293 175 347 Q217 434 255 521.5 Q293 609 328 699 Q330 705 332.5 710.5 Q335 716 337 721 Q339 723 339.5 725.5 Q340 728 342 730 Q348 738 357 740 Q366 742 374 737 Q382 732 383 722 Q384 712 378 704 Q375 699 372.5 694 Q370 689 368 684 Q339 609 308 536 Q277 463 243 390 Q214 327 183 266.5 Q152 206 117 146 Q112 138 108 130.5 Q104 123 99 115 Q99 114 100 114 Q124 106 148 97.5 Q172 89 196 83 Q254 67 305.5 79 Q357 91 405 126 Q448 158 486.5 195 Q525 232 563 270 L569 272 Q575 272 578 271 Q582 269 584 267 Q586 264 588 260 Q588 260 589 259 Z M16 71 Q18 74 20.5 77 Q23 80 26 85 Q10 86 -6 83 Q-63 71 -96 20 Q-98 16 -99.5 12.5 Q-101 9 -103 5 Q-104 2 -104 -6 Q-104 -21 -90 -18 Q-81 -16 -77 -13 Q-60 -3 -46 6 Q-28 20 -13 36.5 Q2 53 16 71 Z " />
<glyph glyph-name="A" unicode="A" horiz-adv-x="866" d="M886 269 Q893 265 894.5 257.5 Q896 250 893 243 Q890 238 887 233.5 Q884 229 881 224 Q851 184 805 162.5 Q759 141 712 127 Q694 122 675.5 117.5 Q657 113 638 110 Q632 95 625.5 80 Q619 65 613 51 Q613 49 612 49 L612 47 Q610 45 610 43 Q608 39 606 33 Q604 28 602 24 Q600 20 598 15 Q594 5 590 -4.5 Q586 -14 582 -24 Q574 -44 566 -63 Q558 -82 550 -102 Q543 -119 526 -116 Q518 -114 513.5 -106.5 Q509 -99 512 -92 Q530 -47 548.5 -3 Q567 41 586 86 Q588 91 590 95 Q592 99 594 103 Q568 101 543 99.5 Q518 98 492 100 Q478 100 463 101 Q448 102 434 104 Q420 84 405.5 63.5 Q391 43 376 23 Q343 -25 306.5 -71 Q270 -117 224 -154 Q201 -173 175 -189 Q149 -205 120 -215 Q90 -224 58.5 -222.5 Q27 -221 0 -204 Q-41 -179 -60 -138 Q-79 -97 -86 -51 Q-90 -19 -87 6.5 Q-84 32 -78 51 Q-72 70 -64.5 82.5 Q-57 95 -52 102 Q-47 107 -42.5 112 Q-38 117 -33 122 Q5 155 57 168 Q84 175 112 176.5 Q140 178 168 177 Q226 174 283 165 Q311 161 338.5 156.5 Q366 152 395 148 Q397 148 398.5 147.5 Q400 147 402 147 Q404 147 405 146 L406 146 Q412 146 415 145 Q420 151 424 157.5 Q428 164 433 170 L514 280 Q523 292 532 304 Q541 316 549 327 Q589 381 629 433 Q669 485 710 538 Q715 545 720 551 Q725 557 730 564 L799 653 L800 654 Q803 658 814.5 672 Q826 686 840 698 Q847 704 860 711 Q873 718 886 713 Q895 708 895.5 694 Q896 680 883 648 Q881 646 880.5 643 Q880 640 878 637 Q876 635 876 632 Q868 616 861 600 Q854 584 848 571 Q848 571 847 570 Q833 540 818 509 Q795 461 773 412.5 Q751 364 728 315 L728 313 Q724 305 722 300 L665 172 Q664 170 663.5 168.5 Q663 167 662 165 L662 164 Q660 161 659.5 158.5 Q659 156 657 153 Q672 156 686.5 160 Q701 164 716 169 Q728 173 740 177 Q752 181 763 186 L764 186 Q765 186 765.5 186.5 Q766 187 767 187 Q769 189 772 189 Q778 193 782 194 Q787 197 791.5 199.5 Q796 202 801 205 Q810 210 821 218 L823 220 Q825 222 827 223 Q832 228 835 230 Q837 232 838.5 234 Q840 236 842 238 Q844 239 844.5 240 Q845 241 846 242 Q846 243 847 243.5 Q848 244 848 245 Q855 253 859 262 Q863 270 871 271.5 Q879 273 886 269 Z M323 14 Q340 38 356.5 62 Q373 86 390 109 Q359 114 328 119 Q297 124 266 128 Q264 129 259 129 Q258 130 254 130 Q251 131 248 131 Q245 131 242 132 L215 135 Q201 136 187 137 Q173 138 159 138 Q145 139 131.5 138.5 Q118 138 104 137 Q101 136 98 136 Q95 136 92 135 L87 135 Q85 134 81 134 Q75 132 68.5 131 Q62 130 56 128 Q53 126 49.5 125.5 Q46 125 43 123 Q41 123 37 121 Q36 121 35.5 120.5 Q35 120 34 120 Q24 116 14 109 L5 103 Q3 101 2 101 Q0 99 -1 99 L-16 84 Q-21 79 -23 76 Q-28 70 -34 58.5 Q-40 47 -44.5 30 Q-49 13 -50 -10 Q-51 -33 -45 -63 Q-44 -66 -42 -74 Q-39 -89 -33 -104 Q-33 -105 -32.5 -105.5 Q-32 -106 -32 -107 Q-32 -108 -31 -108 Q-30 -110 -30 -111 Q-30 -112 -28 -114 Q-27 -117 -26 -119.5 Q-25 -122 -23 -125 Q-21 -128 -19 -131 Q-17 -134 -15 -137 Q-14 -139 -13.5 -139.5 Q-13 -140 -12 -142 L-11 -142 L-11 -143 Q-10 -143 -10 -144 Q-1 -154 9 -163 Q9 -164 10 -164 L11 -165 L12 -165 Q15 -168 17 -169 Q19 -171 22 -172 Q25 -173 27 -175 Q29 -175 31 -177 L32 -177 Q33 -177 33.5 -177.5 Q34 -178 32 -177 Q34 -178 35 -178 Q36 -178 38 -179 Q43 -181 51 -183 L55 -183 Q58 -184 62 -184 L75 -184 Q77 -184 79.5 -183.5 Q82 -183 84 -183 L83 -183 L84 -183 L85 -183 L87 -183 Q95 -181 100 -180 Q104 -179 107.5 -178 Q111 -177 114 -176 Q116 -175 117.5 -174.5 Q119 -174 121 -173 Q125 -173 125 -171 Q138 -166 150 -159 Q162 -152 173 -144 L185 -135 Q187 -134 189 -132 Q190 -132 193 -129 Q203 -122 214 -111 Q225 -102 234.5 -92.5 Q244 -83 254 -72 Q264 -61 273 -50.5 Q282 -40 290 -29 Q292 -27 293 -25.5 Q294 -24 296 -22 Q296 -22 297 -20 Q297 -19 298 -19 Q300 -16 302 -13.5 Q304 -11 306 -9 Q310 -3 314 2.5 Q318 8 323 14 Z M673 285 L678 296 Q689 321 700 345 Q711 369 722 394 Q750 456 779 516.5 Q808 577 837 637 Q831 630 825.5 623.5 Q820 617 814 609 Q803 595 793.5 582 Q784 569 773 555 Q762 541 753 530 Q744 519 733 505 Q723 491 713 478 Q703 465 692 451 Q658 406 624 361.5 Q590 317 556 272 L556 271 Q551 264 546 257.5 Q541 251 536 244 L534 242 Q533 240 532 239 Q531 238 530 236 Q528 234 524 228 L494 187 Q491 183 488 179.5 Q485 176 483 172 L481 169 Q475 161 473 158 L472 157 Q469 152 466 148.5 Q463 145 460 140 Q471 139 481 139 Q491 139 502 138 Q516 138 529.5 138 Q543 138 557 139 Q565 140 571.5 140.5 Q578 141 585 142 Q589 142 592.5 142.5 Q596 143 599 143 Q601 143 602 143.5 Q603 144 605 144 L609 144 Q610 145 611 145 Q613 150 615 154 Q617 158 619 163 L673 285 Z " />
<glyph glyph-name="B" unicode="B" horiz-adv-x="619" d="M641 269 Q649 266 651 257.5 Q653 249 648 243 Q625 205 598 171 Q571 137 536 110 Q504 86 466 72 Q437 61 409 57 Q404 46 399 38 Q390 21 378.5 5 Q367 -11 353 -25 Q234 -144 76 -189 Q14 -206 -45 -200 Q-85 -195 -116 -177 Q-172 -142 -159 -75 L-159 -73 Q-157 -65 -155 -61 Q-140 -13 -102 19.5 Q-64 52 -18 66 Q36 83 92.5 81.5 Q149 80 204 80 Q227 80 250 80 Q273 80 296 82 Q307 83 318 83.5 Q329 84 340 86 Q343 86 346 86.5 Q349 87 352 87 Q354 87 355 87.5 Q356 88 358 88 L361 88 Q365 89 369 89.5 Q373 90 377 91 Q381 107 383 124 L383 126 Q383 130 382.5 133.5 Q382 137 382 141 Q380 166 372 184 Q364 202 356 213 Q346 226 334 235 Q320 246 310 251 Q305 254 300 255 Q289 259 274 262 Q266 263 259.5 264 Q253 265 245 267 Q238 269 233 272 Q223 278 221.5 288 Q220 298 227 308 Q236 319 245 324 Q262 336 282 349 Q318 372 353 396.5 Q388 421 420 450 Q437 464 454 480 Q471 496 485 513 Q496 524 503.5 536.5 Q511 549 514 564 Q517 581 512 593 Q505 606 492 605 Q478 603 467 599 Q458 595 448.5 590.5 Q439 586 430 581 Q395 560 363.5 533 Q332 506 303 477 Q261 435 224.5 389 Q188 343 156 293 L96 197 Q94 193 91.5 189.5 Q89 186 86 183 Q81 175 73 173 Q65 171 58 175 Q43 185 51 203 Q57 215 62.5 227 Q68 239 74 251 Q108 320 138 390 Q168 460 200 529 Q214 559 228 589 Q242 619 256 649 Q260 657 263 665 Q266 673 270 681 Q273 689 280 693.5 Q287 698 295 696 Q303 694 307.5 687.5 Q312 681 310 673 Q305 658 300 648 Q289 625 278 602.5 Q267 580 256 557 Q241 524 226.5 491 Q212 458 198 425 Q196 421 196 419 Q196 418 197 418 Q199 420 200.5 422.5 Q202 425 204 427 Q238 468 274.5 505.5 Q311 543 353 576 Q391 606 428 626 Q441 633 454 638 Q467 643 481 645 Q513 651 535 632.5 Q557 614 557 582 Q557 564 552 548 Q547 532 538 516 Q529 502 518 489 Q507 476 494 463 Q459 428 420 397 Q381 366 339 338 Q328 330 317 323.5 Q306 317 295 309 Q293 308 291 306.5 Q289 305 285 303 Q319 297 344 281 Q352 276 364 266.5 Q376 257 389 240 Q395 232 408 207 Q421 182 424 145 L424 143 Q424 135 424 127.5 Q424 120 423 112 Q423 109 422.5 106 Q422 103 422 99 Q433 102 443.5 105 Q454 108 465 113 L468 114 Q472 116 472 116 Q474 117 476.5 118 Q479 119 481 120 L496 129 Q500 131 503.5 134 Q507 137 511 140 Q512 140 512.5 140.5 Q513 141 514 141 Q514 141 515 142 L516 143 Q520 147 522 148 Q550 173 574 203 Q574 203 576 205 Q576 206 578 208 Q580 210 581 212 Q582 214 583 216 Q586 219 588.5 222.5 Q591 226 594 230 Q599 238 604.5 246 Q610 254 615 262 Q620 270 627 271.5 Q634 273 641 269 Z M308 -13 Q339 17 359 49 Q318 44 278 42.5 Q238 41 197 41 Q174 41 151.5 41.5 Q129 42 106 42 Q94 42 82.5 42 Q71 42 59 40 Q38 38 16 34.5 Q-6 31 -26 23 Q-53 12 -75.5 -8 Q-98 -28 -110 -55 Q-115 -66 -117.5 -78 Q-120 -90 -118.5 -101 Q-117 -112 -111.5 -122 Q-106 -132 -95 -139 Q-87 -144 -78.5 -147 Q-70 -150 -62 -153 Q-39 -160 -15 -160 Q9 -160 34 -156 Q60 -152 85 -144 Q110 -136 135 -125 Q183 -104 226.5 -76.5 Q270 -49 308 -13 Z " />
<glyph glyph-name="C" unicode="C" horiz-adv-x="525" d="M544 268 Q553 261 550.5 249 Q548 237 540 226 Q536 221 532 216.5 Q528 212 523 207 L406 87 Q365 46 324.5 7.5 Q284 -31 240 -67 Q215 -88 189 -107 Q163 -126 135 -141 Q115 -152 95 -159.5 Q75 -167 53 -169 Q22 -172 -3 -157 Q-30 -140 -46 -103 Q-56 -80 -60 -57 Q-64 -34 -65 -9 Q-67 33 -61.5 72.5 Q-56 112 -45 150 Q40 442 230 635 Q244 649 257.5 660.5 Q271 672 286 683 Q297 690 307.5 696 Q318 702 330 704 Q377 715 405 663 Q413 647 416 629 Q419 615 419.5 602 Q420 589 418 575 Q418 565 412 559.5 Q406 554 398 556 Q390 557 385.5 564 Q381 571 380 581 Q380 587 380.5 593 Q381 599 381 606 Q380 616 378.5 625 Q377 634 372 642 Q361 663 341 659 Q331 656 318 650 Q302 641 288.5 629 Q275 617 261 604 Q206 550 161 487 Q116 424 79 352 Q29 258 -2 155 Q-21 96 -25 38 Q-27 18 -27 -2 Q-27 -22 -24 -42 Q-22 -55 -18.5 -67.5 Q-15 -80 -9 -91 Q-4 -102 3.5 -110 Q11 -118 22 -121 Q28 -123 34 -123 Q40 -123 46 -123 Q62 -122 77 -117 Q92 -112 106 -105 Q126 -95 144.5 -83 Q163 -71 182 -57 Q217 -30 250.5 -1 Q284 28 316 60 L343 87 Q358 102 372.5 117 Q387 132 402 147 L462 207 Q476 221 490.5 236 Q505 251 520 265 Q523 268 527 270 Q530 272 534.5 272 Q539 272 544 268 Z " />
<glyph glyph-name="D" unicode="D" horiz-adv-x="560" d="M585 273 Q592 269 594.5 261 Q597 253 592 246 Q571 213 541 187.5 Q511 162 476 144 Q445 128 412 117.5 Q379 107 344 100 Q331 98 318.5 96 Q306 94 292 92 Q280 76 266 60 Q218 3 161.5 -44 Q105 -91 33 -114 Q-8 -128 -47 -124 Q-72 -123 -96 -112 Q-141 -90 -143 -44 Q-144 -10 -123.5 15 Q-103 40 -77.5 57.5 Q-52 75 -30 83.5 Q-8 92 -6 93 Q-1 95 3 95.5 Q7 96 12 98 Q53 109 94 113.5 Q135 118 177 121 Q199 123 220 124.5 Q241 126 262 128 Q267 128 270 129 Q273 133 275.5 136.5 Q278 140 281 144 Q286 149 291 157 Q296 162 299.5 168 Q303 174 307 180 Q315 193 323 205.5 Q331 218 338 232 Q357 267 370 300 Q384 339 387 377 Q389 389 386 399 Q383 422 368 436 Q353 450 329 452 Q312 454 296.5 451 Q281 448 265 442 Q243 433 223 420 Q203 407 183 393 Q132 354 89 307.5 Q46 261 10 207 Q2 195 -5.5 182 Q-13 169 -21 156 Q-29 143 -43 144 Q-57 144 -60 158 Q-62 163 -61 166.5 Q-60 170 -58 174 Q-19 260 20 344.5 Q59 429 97 514 Q111 546 124.5 577 Q138 608 152 640 Q161 659 171 678 Q175 685 183 693 Q186 696 194 698 L195 698 Q197 698 198.5 697.5 Q200 697 202 697 Q207 695 208 691 Q209 687 210 682 L210 671 L183 609 Q154 543 125 478.5 Q96 414 67 348 Q66 346 66 345.5 Q66 345 65 343 Q66 343 66 342 L73 349 Q129 406 192 449 Q213 462 235 473 Q257 484 281 489 Q320 500 358 489 Q419 470 428 405 Q430 394 429.5 384 Q429 374 428 364 Q426 358 422.5 339.5 Q419 321 408 292 Q407 289 396 262.5 Q385 236 367 203 L366 203 L366 202 Q360 191 353 180 Q346 169 339 158 Q338 157 338 156.5 Q338 156 337 155 Q334 150 331 145.5 Q328 141 324 136 L342 139 Q359 143 375 147 Q391 151 408 157 Q412 159 416 160 Q420 161 424 163 Q426 164 428 164.5 Q430 165 432 166 L433 166 Q434 167 434.5 167 Q435 167 436 168 Q451 174 466 183 Q474 187 480.5 191 Q487 195 495 200 Q497 202 498.5 203 Q500 204 502 206 Q503 206 505 208 Q508 211 511 213.5 Q514 216 517 218 Q529 228 541 242 Q545 246 547 249 L548 251 L549 252 Q551 256 554 259 Q557 262 559 266 Q564 273 571 275 Q578 277 585 273 Z M236 86 L194 83 Q186 82 178.5 82 Q171 82 163 81 Q128 79 94 75 Q59 70 26 62 Q-7 54 -38 37 Q-49 31 -61 23 Q-73 15 -82.5 4.5 Q-92 -6 -97.5 -18.5 Q-103 -31 -101 -45 Q-98 -63 -81 -72 Q-69 -78 -50 -82 Q-32 -85 -14.5 -83 Q3 -81 21 -75 Q97 -52 160 7 Q177 22 192 37.5 Q207 53 222 70 Q224 72 225.5 74.5 Q227 77 229 79 L236 86 Z " />
<glyph glyph-name="E" unicode="E" horiz-adv-x="567" d="M591 266 Q596 261 596 252.5 Q596 244 591 239 Q559 211 526 183.5 Q493 156 461 129 Q401 79 342 31 Q283 -17 220 -62 Q205 -73 189.5 -84.5 Q174 -96 158 -107 Q144 -117 129 -127 Q114 -137 99 -145 Q76 -159 54 -166 Q27 -175 7.5 -174.5 Q-12 -174 -25.5 -168.5 Q-39 -163 -47.5 -154.5 Q-56 -146 -60 -138 Q-78 -105 -72 -56 Q-68 -29 -58.5 -4 Q-49 21 -36 45 Q-17 80 6.5 111 Q30 142 57 171 Q145 267 257 319 Q258 319 262 321 Q250 322 239.5 322 Q229 322 219 323 Q210 325 201 326 Q192 327 184 330 Q131 348 128 410 Q127 434 134 456.5 Q141 479 152 501 Q179 551 214.5 590.5 Q250 630 297 660 Q319 674 341.5 682.5 Q364 691 388 694 Q427 699 459 684 Q506 662 503 604 Q502 579 496 555 Q490 531 479 508 Q476 500 471.5 493 Q467 486 462 479 Q457 471 449 469 Q441 467 434 472 Q428 476 426.5 484 Q425 492 430 500 Q435 508 440 516 Q445 524 448 533 Q458 563 463 593 Q468 638 428 649 Q407 654 386.5 651 Q366 648 345 640 Q332 635 320 627.5 Q308 620 296 612 Q230 563 189 488 Q173 461 170 433 Q169 428 169 423.5 Q169 419 169 414 Q172 371 213 368 Q249 365 284 365 Q310 365 335.5 365.5 Q361 366 387 367 Q396 367 401 366 Q413 363 415 349 Q417 335 403 326 Q399 324 395.5 323 Q392 322 388 320 Q365 312 341 305 Q317 298 294 290 Q231 267 177.5 227.5 Q124 188 77 136 Q53 109 31.5 79.5 Q10 50 -6 18 Q-17 -2 -24 -23 Q-31 -44 -33 -66 Q-35 -82 -30 -97 Q-23 -123 -7 -129.5 Q9 -136 28.5 -132 Q48 -128 68 -117.5 Q88 -107 102 -98 Q133 -78 162.5 -56.5 Q192 -35 221 -13 Q229 -8 236 -2 Q243 4 251 9 L266 21 L267 21 Q269 23 271 24 L277 30 Q292 41 306.5 52.5 Q321 64 335 75 Q394 123 450 170.5 Q506 218 563 266 Q576 279 591 266 Z " />
<glyph glyph-name="F" unicode="F" horiz-adv-x="449" d="M778 630 Q780 628 781 622.5 Q782 617 777 609 Q774 603 769 600.5 Q764 598 758 596 Q752 595 746 594.5 Q740 594 735 593 Q693 591 652.5 588.5 Q612 586 571 584 Q538 583 506 584 Q474 585 442 585 Q435 586 429 586 Q423 586 416 586 L392 587 L341 469 Q339 463 336 457.5 Q333 452 331 446 Q338 445 344 444.5 Q350 444 356 444 Q368 444 380 444 Q392 444 404 443 Q422 443 420 426 Q419 418 412.5 411.5 Q406 405 398 403 Q394 402 386 402 Q372 402 358.5 402.5 Q345 403 331 403 Q326 403 322 403.5 Q318 404 313 404 Q311 401 310.5 398.5 Q310 396 308 394 Q302 380 296 366.5 Q290 353 284 339 L73 -145 Q72 -147 69.5 -152 Q67 -157 63 -162 Q59 -167 53 -170.5 Q47 -174 39 -172 Q31 -171 28.5 -166 Q26 -161 26 -156 Q26 -150 29 -143 L151 136 L182 207 L269 404 Q268 405 264 405 Q242 406 220 406 Q198 406 175 406 Q162 406 149 404.5 Q136 403 122 398 Q112 395 103 389 Q84 379 75 391 Q71 396 72.5 404 Q74 412 81 418 Q88 425 98 430 Q112 437 126.5 440 Q141 443 155 445 Q177 448 198 448.5 Q219 449 240 448 Q252 447 263.5 447 Q275 447 288 447 L350 588 Q347 588 344 588.5 Q341 589 338 589 Q306 590 274.5 591 Q243 592 211 593 Q190 593 169.5 592 Q149 591 128 587 Q86 579 51 552 Q48 549 45 545.5 Q42 542 39 539 Q28 523 13 526 Q-3 531 2 548 Q6 558 11 563 Q15 568 19.5 572 Q24 576 29 580 Q79 621 138 629 Q164 633 188 634 Q212 635 237 634 Q267 633 297 632.5 Q327 632 357 630 L370 630 Q382 642 393.5 642.5 Q405 643 410 628 Q425 628 440 627.5 Q455 627 471 626 Q531 624 591.5 625.5 Q652 627 714 632 Q720 633 725.5 633.5 Q731 634 737 634 Q739 635 741 635 Q743 635 745 636 Q769 645 778 630 Z " />
<glyph glyph-name="G" unicode="G" horiz-adv-x="569" d="M594 266 Q601 261 600 253 Q599 245 594 239 Q571 210 543 185 Q515 160 484 140 Q440 111 393 90.5 Q346 70 296 54 Q285 33 273 12.5 Q261 -8 247 -28 Q221 -67 190.5 -101.5 Q160 -136 123 -164 Q99 -184 66 -198 Q19 -216 -9 -212 Q-37 -208 -52.5 -194.5 Q-68 -181 -73.5 -164.5 Q-79 -148 -80 -142 Q-82 -127 -81 -112 Q-80 -97 -76 -83 Q-65 -45 -34 -19 Q-26 -12 -17.5 -6.5 Q-9 -1 0 4 Q52 30 108 43.5 Q164 57 220 72 Q232 76 244.5 79.5 Q257 83 270 87 Q271 88 271 88.5 Q271 89 272 90 L272 91 L273 92 L273 93 L278 103 Q293 134 305 160 Q316 182 324.5 201 Q333 220 335 225 L335 226 Q346 250 356.5 274.5 Q367 299 378 323 Q379 325 379 326 Q379 327 380 329 Q378 327 376.5 326 Q375 325 373 323 Q351 302 330 281 Q309 260 288 240 Q255 210 222 190 Q208 181 193.5 174.5 Q179 168 164 166 Q118 160 95 192 Q75 222 75 265 Q74 290 78 314.5 Q82 339 90 364 Q111 429 143 488 Q175 547 220 601 Q246 632 274.5 657.5 Q303 683 337 701 Q360 713 382 720.5 Q404 728 427 729 Q454 730 477.5 721 Q501 712 516.5 694.5 Q532 677 539 650.5 Q546 624 540 591 Q537 570 529 550.5 Q521 531 507 514 Q498 503 487 503 Q476 504 472.5 513 Q469 522 474 533 Q475 535 476 536 Q477 537 478 539 Q512 584 499 636 Q493 658 478 669 Q463 680 443 684 Q423 688 403 683.5 Q383 679 363 670 Q336 657 312 638 Q288 619 266 596 Q235 563 210.5 526.5 Q186 490 166 449 Q149 416 136.5 381.5 Q124 347 118 311 Q116 297 115.5 283 Q115 269 117 255 Q119 248 120.5 242 Q122 236 124 231 Q137 201 172 210 Q183 213 192.5 218 Q202 223 212 229 Q232 243 250.5 258 Q269 273 287 290 Q310 313 332.5 336 Q355 359 378 382 Q382 387 386 390.5 Q390 394 395 399 Q398 401 401 403.5 Q404 406 408 408 Q421 415 430.5 409.5 Q440 404 441 390 Q441 382 438.5 373.5 Q436 365 433 357 L394 264 Q391 256 387.5 247.5 Q384 239 380 231 L324 110 L321 104 Q340 110 360 119 Q361 119 361.5 119.5 Q362 120 363 120 L364 120 Q366 122 367 122 Q369 123 371 123.5 Q373 124 375 125 Q379 127 382.5 128.5 Q386 130 390 132 Q398 136 404.5 139.5 Q411 143 419 147 Q433 155 447 163 Q461 171 474 180 Q478 183 481.5 185.5 Q485 188 489 190 Q491 192 492 192.5 Q493 193 495 195 Q497 197 498 197 Q504 202 510.5 207.5 Q517 213 523 219 Q546 241 567 266 Q572 273 580.5 272 Q589 271 594 266 Z M166 -73 Q189 -47 208 -19 Q227 9 244 39 Q234 35 221 32 Q176 20 131.5 9.5 Q87 -1 45 -19 Q28 -27 12 -37.5 Q-4 -48 -15.5 -62 Q-27 -76 -34 -93 Q-41 -110 -40 -131 Q-40 -148 -30 -159 Q-23 -168 -13.5 -170.5 Q-4 -173 7 -171 Q33 -169 56 -159 Q79 -149 99 -135 Q117 -121 133.5 -105.5 Q150 -90 166 -73 Z " />
<glyph glyph-name="H" unicode="H" horiz-adv-x="588" d="M606 269 Q613 266 615.5 257.5 Q618 249 613 243 L595 219 Q577 194 558 170 Q539 146 520 122 Q501 99 483 77.5 Q465 56 447 33 Q430 11 412 -10 Q394 -31 374 -51 Q366 -59 355.5 -68.5 Q345 -78 332 -81 Q321 -84 311 -79.5 Q301 -75 296 -64 Q291 -55 290 -45.5 Q289 -36 290 -26 Q290 -13 292.5 -0.5 Q295 12 298 24 Q305 53 315 80 Q325 107 335 134 Q338 145 341.5 154.5 Q345 164 350 175 Q322 173 295 171.5 Q268 170 241 167 Q232 145 224 127 Q204 79 183 33 Q162 -13 138 -59 Q127 -80 115 -100.5 Q103 -121 89 -141 Q68 -173 42 -195 Q20 -212 -4 -218 Q-33 -226 -59.5 -214.5 Q-86 -203 -103 -176 Q-121 -146 -126 -109 Q-144 26 -43 111 Q-16 134 15 149.5 Q46 165 80 176 Q134 192 191 200 Q192 201 195 201 Q198 202 205 202 Q211 204 214 210 Q252 306 291 400 Q330 494 368 590 Q379 616 388.5 642.5 Q398 669 409 695 Q411 699 412 702 Q413 705 415 708 Q419 716 426 718.5 Q433 721 441 716 Q458 707 451 688 Q443 668 435.5 649 Q428 630 420 610 Q396 551 372 493 Q348 435 325 375 Q311 341 297.5 307 Q284 273 270 238 Q268 236 265 227.5 Q262 219 257 208 Q311 212 364 214 Q392 289 424 361 Q447 417 472.5 471 Q498 525 525 579 Q528 587 536 588.5 Q544 590 551 586 Q559 582 560.5 574.5 Q562 567 558 560 Q555 553 552 546.5 Q549 540 545 534 Q532 508 520 481.5 Q508 455 496 429 Q490 416 484 403.5 Q478 391 473 377 Q470 370 467 364 Q464 358 461 351 L455 336 Q453 332 453 330 Q452 329 452 328.5 Q452 328 451 327 Q428 273 408 219.5 Q388 166 368 112 Q358 86 348.5 59.5 Q339 33 333 5 Q331 -3 331 -9 Q330 -10 330 -12 Q330 -16 329 -17 L329 -32 L329 -39 L330 -39 L334 -35 Q344 -26 353 -16.5 Q362 -7 371 3 Q389 23 405.5 43.5 Q422 64 439 85 Q457 107 475 128.5 Q493 150 511 173 Q516 178 520 184 Q524 190 529 196 L538 208 Q541 211 542 213 Q545 216 545 216 Q554 228 562.5 239.5 Q571 251 580 262 Q585 269 591.5 271.5 Q598 274 606 269 Z M182 134 Q184 139 186.5 144.5 Q189 150 192 157 Q185 157 183 156 Q165 152 146.5 148.5 Q128 145 110 140 Q84 133 58.5 123 Q33 113 10 98 Q-13 83 -32.5 63.5 Q-52 44 -65 18 Q-104 -54 -78 -134 Q-73 -150 -65 -159 Q-48 -182 -21 -179 Q-7 -176 9 -166 Q20 -158 29 -149 Q38 -140 46 -129 Q56 -115 66 -100 Q76 -85 84 -70 Q112 -20 136 30.5 Q160 81 182 134 Z M324 -43 L323 -43 L321 -44 Q322 -43 324 -43 Z M324 -44 L324 -43 L324 -44 L324 -44 Z " />
<glyph glyph-name="I" unicode="I" horiz-adv-x="432" d="M458 266 Q465 261 464 253 Q463 245 458 239 Q441 216 418 199 Q395 182 370 168 Q347 155 322 144.5 Q297 134 272 125 Q245 116 217.5 110.5 Q190 105 162 101 Q157 93 152 86 Q145 76 138.5 66.5 Q132 57 124 48 Q107 27 89 8.5 Q71 -10 48 -24 Q44 -26 41 -28 Q38 -30 35 -32 Q23 -39 10.5 -43.5 Q-2 -48 -16 -50 Q-29 -52 -42 -51 Q-55 -50 -66 -43 Q-80 -35 -88.5 -20.5 Q-97 -6 -96 14 Q-96 19 -95.5 23.5 Q-95 28 -94 33 L-94 34 Q-94 35 -93.5 36 Q-93 37 -93 38 Q-93 40 -92.5 40.5 Q-92 41 -92 43 Q-91 44 -91 46 Q-84 67 -71 80.5 Q-58 94 -43.5 102.5 Q-29 111 -16 115 Q-3 119 4 121 Q15 123 27 124.5 Q39 126 50 128 Q73 131 96 133.5 Q119 136 142 138 Q142 139 143 140 L143 141 Q146 146 148.5 150 Q151 154 154 159 Q183 210 210.5 260 Q238 310 262 364 Q279 402 295.5 440.5 Q312 479 329 517 Q343 549 357 579.5 Q371 610 385 642 Q388 648 390.5 654.5 Q393 661 395 667 Q396 669 396 672 Q396 675 397 678 Q389 678 385 677 Q355 671 325 665 Q295 659 264 652 Q256 650 250 650 Q232 647 230 664 Q228 680 245 687 Q247 688 248.5 688 Q250 688 252 689 Q285 696 318 702.5 Q351 709 384 715 Q398 718 409 717 Q436 717 438 689 Q439 678 436.5 668.5 Q434 659 429 649 Q417 620 404 592 Q391 564 379 535 Q361 495 343.5 455.5 Q326 416 309 376 Q286 325 261 274 Q260 273 253.5 261 Q247 249 236.5 230 Q226 211 213.5 188.5 Q201 166 188 144 Q195 146 201 146.5 Q207 147 213 149 Q227 152 240.5 156 Q254 160 267 165 Q274 167 280.5 170 Q287 173 294 175 Q295 175 296 176 Q297 176 297.5 176.5 Q298 177 299 177 Q301 179 304 179 Q307 181 309.5 182 Q312 183 315 184 Q326 189 337 194.5 Q348 200 359 206 Q364 210 369.5 213 Q375 216 380 219 Q382 221 384.5 223 Q387 225 390 227 Q390 227 392 229 L393 229 L394 230 Q394 230 396 232 Q414 246 431 266 Q436 273 444.5 272 Q453 271 458 266 Z M85 58 Q101 77 114 96 Q111 96 108.5 95.5 Q106 95 103 95 L76 92 Q72 91 68.5 91 Q65 91 61 90 Q56 90 54 89 L51 89 L49 89 Q48 89 48 88.5 Q48 88 47 88 L46 88 L43 88 Q41 88 40 87.5 Q39 87 37 87 Q33 86 30 86 Q27 86 23 85 Q17 83 10.5 82.5 Q4 82 -2 80 Q-6 79 -15 75.5 Q-24 72 -33 65 Q-42 58 -49 46.5 Q-56 35 -56 19 Q-56 3 -45.5 -6.5 Q-35 -16 -10 -10 Q-1 -8 8 -4 Q17 0 25 5 Q42 16 56.5 29 Q71 42 85 58 Z " />
<glyph glyph-name="J" unicode="J" horiz-adv-x="514" d="M538 266 Q544 261 543.5 252.5 Q543 244 538 239 Q533 233 527.5 227.5 Q522 222 517 216 Q494 193 470 173 Q446 153 419 136 Q390 119 359.5 106.5 Q329 94 296 88 Q285 85 273 83.5 Q261 82 250 80 Q245 71 242 64 Q239 57 237 52 Q213 1 186 -50 Q179 -64 172 -76.5 Q165 -89 157 -102 Q149 -114 135 -133.5 Q121 -153 100 -173.5 Q79 -194 52 -212 Q25 -230 -7 -239 Q-36 -246 -66 -245 Q-96 -244 -123 -233 Q-155 -219 -178 -195.5 Q-201 -172 -215 -140 Q-228 -109 -228.5 -75 Q-229 -41 -218 -9 Q-206 25 -183 52 Q-171 66 -156.5 76 Q-142 86 -125 93 Q-93 106 -59 107 Q-25 108 8 109 Q46 109 84 109.5 Q122 110 160 112 Q175 113 190.5 113.5 Q206 114 221 116 Q224 123 227 129 Q230 135 232 140 Q235 145 236 149 Q247 175 259 201.5 Q271 228 282 254 L303 302 L303 301 Q323 347 341.5 392 Q360 437 380 483 L455 654 Q457 659 459.5 663.5 Q462 668 464 673 Q459 673 456 672 Q429 667 402 661 Q375 655 348 649 Q344 648 340.5 647.5 Q337 647 332 649 Q320 654 321 666 Q321 679 335 685 Q337 686 343 688 Q375 695 408 701.5 Q441 708 473 715 Q478 716 487 716 Q500 715 507 707 Q514 699 511 686 Q510 680 508 674 Q506 668 504 663 Q475 603 450 543 Q425 483 399 423 Q390 402 381.5 381 Q373 360 364 339 L354 316 L329 259 L290 171 Q287 164 283 156 Q280 149 276.5 140.5 Q273 132 268 122 Q278 124 287 125.5 Q296 127 305 129 Q313 131 321 133.5 Q329 136 337 139 L346 142 Q347 143 349 144 Q351 145 351 144 L363 150 Q377 157 391 165 Q405 173 418 183 Q422 185 425 187.5 Q428 190 432 192 Q432 193 433 193 Q433 194 434 194 Q436 196 437.5 197 Q439 198 441 200 Q447 205 453 210 Q459 215 465 220 Q489 242 511 266 Q516 272 524.5 271.5 Q533 271 538 266 Z M192 51 Q194 57 197 63 Q200 69 203 75 Q189 74 176.5 73.5 Q164 73 150 72 Q113 70 76.5 70 Q40 70 2 70 Q-23 69 -48 68.5 Q-73 68 -98 61 Q-140 49 -165 12 Q-174 -2 -178.5 -18 Q-183 -34 -188 -51 Q-195 -94 -175 -135 Q-155 -176 -114 -194 Q-114 -195 -112 -195 Q-111 -195 -111 -196 L-110 -196 Q-107 -197 -103 -199 Q-77 -207 -47.5 -205.5 Q-18 -204 7 -193 Q8 -192 8.5 -192 Q9 -192 10 -191 Q12 -191 16 -189 Q23 -185 29.5 -181.5 Q36 -178 42 -173 Q47 -171 55 -165 Q79 -145 97 -120.5 Q115 -96 130 -69 Q145 -43 158.5 -16.5 Q172 10 185 37 L185 38 Q187 41 188.5 44 Q190 47 192 51 Z " />
<glyph glyph-name="K" unicode="K" horiz-adv-x="393" d="M436 684 Q443 674 434 662 Q433 661 433 660.5 Q433 660 432 659 Q404 633 379.5 604 Q355 575 330 546 Q257 460 189.5 372 Q122 284 57 193 Q49 180 53 171 Q58 152 64 133 Q70 114 77 96 Q82 82 87.5 69.5 Q93 57 99 45 Q106 32 115 25 Q115 25 117 23 Q118 23 118.5 22.5 Q119 22 120 22 Q127 19 134 22 Q141 25 145 27 Q146 28 147 28 Q148 28 149 29 Q165 39 179.5 50 Q194 61 208 73 Q225 87 241 102.5 Q257 118 273 134 Q304 166 332 199 Q360 232 389 266 Q394 273 402.5 272 Q411 271 417 266 Q423 261 422.5 253 Q422 245 417 239 Q400 219 383 199.5 Q366 180 349 160 Q318 125 285 91.5 Q252 58 215 29 L182 5 Q174 0 166.5 -6 Q159 -12 149 -16 Q127 -27 108 -20 Q89 -13 75 6 Q58 29 47.5 56 Q37 83 29 109 Q27 116 24.5 123 Q22 130 19 138 Q16 134 14 131 Q12 128 10 126 Q-13 91 -34 56 Q-55 21 -75 -14 Q-80 -26 -89 -38 Q-96 -49 -109 -49 Q-118 -48 -123.5 -41.5 Q-129 -35 -127 -25 L-121 -10 Q-93 62 -62 132.5 Q-31 203 1 274 Q43 364 83 453 Q123 542 164 633 Q172 649 178 664.5 Q184 680 190 696 Q193 703 193 710 Q196 729 214 729 Q222 730 227.5 724.5 Q233 719 233 711 Q233 707 233 703 Q233 699 231 695 Q223 675 216 656 Q209 637 200 618 L53 294 L8 191 Q10 193 11 195 Q12 197 14 199 Q55 257 96.5 313.5 Q138 370 182 426 Q227 483 272.5 538 Q318 593 366 647 Q375 657 384.5 666.5 Q394 676 404 686 Q410 692 415 693 Q421 695 427 692.5 Q433 690 436 684 Z " />
<glyph glyph-name="M" unicode="M" horiz-adv-x="808" d="M833 266 Q838 261 838 252.5 Q838 244 833 239 Q810 216 788 194 Q766 172 744 149 Q741 146 738 142.5 Q735 139 732 136 L730 134 Q725 129 720.5 123.5 Q716 118 711 113 Q696 97 672.5 73 Q649 49 622 23.5 Q595 -2 567 -26 Q539 -50 514 -66 Q495 -78 482 -82.5 Q469 -87 460 -87 Q451 -87 446 -83.5 Q441 -80 438 -76 Q436 -73 434 -67 Q432 -62 432 -56.5 Q432 -51 432 -49 Q432 -39 434 -29.5 Q436 -20 439 -11 Q447 21 459.5 51.5 Q472 82 486 111 Q512 166 541 218.5 Q570 271 599 324 Q623 369 647 413.5 Q671 458 695 503 Q699 510 702 517 Q705 524 709 532 L709 533 L700 527 Q674 505 650.5 481.5 Q627 458 604 435 Q530 359 461 279 Q392 199 324 118 Q300 89 275.5 60.5 Q251 32 226 4 Q219 -4 212 -10 Q205 -16 197 -22 Q194 -25 184 -29 Q170 -34 159.5 -26 Q149 -18 148 -3 Q147 7 149.5 16.5 Q152 26 155 35 Q164 65 176.5 93.5 Q189 122 202 150 Q230 210 260 268 Q290 326 320 385 Q341 425 361.5 465.5 Q382 506 400 548 Q402 554 404.5 560 Q407 566 409 573 Q407 571 405 570.5 Q403 570 401 568 Q378 549 357.5 528.5 Q337 508 317 486 Q266 432 218.5 375.5 Q171 319 124 262 Q99 233 75 203.5 Q51 174 26 145 Q12 130 -1 119 Q-9 113 -20 111 Q-31 109 -38 116 Q-45 123 -47 134 Q-48 142 -46 149 Q-44 156 -42 164 Q-34 189 -25 213 Q-16 237 -5 261 Q37 360 82 456.5 Q127 553 177 649 Q182 657 185.5 666 Q189 675 194 683 L200 692 Q211 704 224 696 Q231 692 233.5 685.5 Q236 679 233 671 Q231 667 229 664 Q227 661 225 657 Q210 627 195 597.5 Q180 568 165 538 Q124 455 86 371.5 Q48 288 13 202 Q11 197 9.5 193 Q8 189 6 184 Q7 184 7 183 Q14 191 21 199.5 Q28 208 35 216 Q77 267 117.5 316.5 Q158 366 200 416 Q236 459 274 500.5 Q312 542 354 580 Q365 589 376 597.5 Q387 606 398 615 Q403 618 407 619.5 Q411 621 416 623 Q432 628 443.5 619 Q455 610 454 593 Q454 584 451.5 575 Q449 566 446 557 Q436 531 425 507 Q414 483 402 459 Q374 404 346 349.5 Q318 295 290 239 Q267 195 246 151 Q225 107 206 62 Q203 54 200 46 Q197 38 194 30 Q195 30 195 29 Q199 33 202 36 Q205 39 208 43 Q233 72 258 102 Q283 132 308 162 Q373 239 438 313.5 Q503 388 573 460 Q599 486 625 512.5 Q651 539 680 562 Q695 573 714 584 Q726 591 736 588 Q746 586 752 578.5 Q758 571 758 561 Q757 552 755 544 Q753 536 750 528 Q741 505 730 483 Q719 461 707 440 Q676 383 645 327 Q614 271 583 214 Q560 171 538.5 127.5 Q517 84 498 39 Q485 11 476 -22 Q475 -28 474.5 -33.5 Q474 -39 476 -42 Q479 -45 489 -40.5 Q499 -36 512.5 -25.5 Q526 -15 542 -0.5 Q558 14 575 30 Q614 67 660 116 Q695 154 731 192 Q767 230 805 266 Q811 272 819 271.5 Q827 271 833 266 Z " />
<glyph glyph-name="N" unicode="N" horiz-adv-x="571" d="M602 258 Q605 247 597 239 Q596 237 594 235 Q551 191 510 150 Q492 132 473.5 113.5 Q455 95 436.5 77 Q418 59 400.5 43 Q383 27 369 14 Q350 -3 332 -19 Q314 -35 295 -51 Q281 -63 266.5 -74 Q252 -85 236 -93 Q229 -96 222.5 -98.5 Q216 -101 209 -102 Q190 -106 177.5 -96.5 Q165 -87 161 -68 Q159 -55 160.5 -43 Q162 -31 164 -18 Q170 13 180 43 Q190 73 201 102 Q224 161 249 217.5 Q274 274 299 331 Q319 376 338.5 420.5 Q358 465 375 511 Q381 528 386.5 545.5 Q392 563 396 581 L396 586 Q391 581 385.5 577.5 Q380 574 375 569 Q352 551 331 530.5 Q310 510 290 489 Q236 432 186 373 Q136 314 88 252 Q63 220 39 188 Q15 156 -10 124 Q-14 119 -17 115.5 Q-20 112 -24 108 Q-34 100 -45 101 Q-53 103 -58.5 110 Q-64 117 -62 126 Q-59 140 -53 152 Q-35 196 -17 238.5 Q1 281 21 323 Q63 414 105 502.5 Q147 591 189 681 Q192 687 195 693 Q198 699 202 705 Q203 707 204 709 Q205 711 207 713 Q220 727 235 717 Q249 707 239 690 L227 669 Q198 606 168 545 Q138 484 109 421 Q89 376 68.5 331.5 Q48 287 28 242 Q26 238 26 236 Q30 241 33.5 245.5 Q37 250 41 255 Q89 317 137.5 376.5 Q186 436 239 493 Q265 520 291 546.5 Q317 573 346 597 Q354 604 363 610 Q372 616 382 622 Q387 624 392 626 Q397 628 402 628 Q416 630 425 622.5 Q434 615 436 601 Q438 590 436 580 Q434 570 432 560 Q424 531 414 504 Q404 477 393 451 Q369 393 344 336 Q319 279 294 222 Q275 177 256.5 133 Q238 89 222 43 Q215 24 209.5 5.5 Q204 -13 202 -33 Q201 -38 201 -42 Q201 -46 200 -51 Q200 -58 201 -62 L201 -64 Q202 -64 202.5 -63.5 Q203 -63 204 -63 Q213 -60 225.5 -52 Q238 -44 250.5 -34 Q263 -24 274.5 -15 Q286 -6 293 0 Q310 14 327 28.5 Q344 43 361 58 Q368 65 375 71.5 Q382 78 389 84 Q391 86 392.5 87.5 Q394 89 396 91 Q402 96 408.5 102 Q415 108 421 113 Q446 136 471.5 162.5 Q497 189 518 212 Q543 238 566 263 Q575 274 586 271 Q597 270 602 258 Z " />
<glyph glyph-name="O" unicode="O" horiz-adv-x="627" d="M651 263 Q655 256 651.5 248.5 Q648 241 641 236 Q620 222 596 212 Q508 177 418 192 Q418 191 417.5 190.5 Q417 190 417 189 Q416 187 415 185.5 Q414 184 413 182 L395 149 Q394 148 393.5 147 Q393 146 392 145 Q372 110 348.5 77 Q325 44 297 13 Q264 -23 227.5 -53 Q191 -83 147 -106 Q128 -116 109 -123 Q90 -130 70 -132 Q32 -137 1.5 -124.5 Q-29 -112 -47 -77 Q-55 -61 -58.5 -43.5 Q-62 -26 -64 -8 Q-66 21 -62.5 50.5 Q-59 80 -53 109 Q-32 208 7 299.5 Q46 391 103 479 Q129 520 159.5 556.5 Q190 593 226 625 Q240 638 254.5 649.5 Q269 661 286 669 Q298 676 307 677 Q319 679 325.5 671 Q332 663 328 652 Q323 642 315 639 Q304 636 295 630.5 Q286 625 277 618 Q249 596 225.5 571.5 Q202 547 180 519 Q141 470 110.5 417.5 Q80 365 55 309 Q35 266 20 223 Q5 180 -6 135 Q-14 106 -18 78.5 Q-22 51 -23 22 Q-24 6 -23 -9.5 Q-22 -25 -17 -39 Q-14 -48 -10 -56 Q9 -96 57 -93 Q72 -92 86.5 -88 Q101 -84 115 -78 Q143 -66 168 -49 Q193 -32 216 -12 Q250 16 278 49 Q306 82 330 118 Q341 136 352 154.5 Q363 173 374 192 Q376 194 376.5 196.5 Q377 199 379 201 Q377 202 376 202.5 Q375 203 373 203 Q268 246 262 359 Q260 401 271.5 441 Q283 481 306 519 Q325 552 353 571 Q374 586 397 589 Q418 591 434 583.5 Q450 576 462 561 Q472 549 477.5 535 Q483 521 486 506 Q491 480 491 455 Q491 430 487 404 Q478 340 455 275 Q453 271 448.5 258.5 Q444 246 436 229 L438 229 Q440 228 444 228 Q448 228 451 227.5 Q454 227 458 227 Q469 226 481 226.5 Q493 227 505 228 Q507 228 508.5 228.5 Q510 229 512 229 L514 229 Q517 230 520 230 Q523 230 526 231 Q531 232 536.5 233 Q542 234 548 236 Q553 238 559 239.5 Q565 241 570 243 Q572 244 575 244.5 Q578 245 581 247 L582 247 L588 250 Q598 254 607 259 Q616 264 625 270 Q632 275 639.5 272 Q647 269 651 263 Z M383 244 Q386 242 389.5 241.5 Q393 241 396 239 Q398 240 398 241 Q400 243 400 243 Q423 295 436.5 348 Q450 401 450 456 Q450 470 448.5 483.5 Q447 497 442 509 Q437 528 425 539 Q409 555 385 545 Q376 541 368 534 Q352 521 341 502 Q320 467 310 431 Q300 395 303 357 Q310 277 383 244 Z " />
<glyph glyph-name="P" unicode="P" horiz-adv-x="471" d="M493 266 Q499 261 498.5 252.5 Q498 244 493 239 Q474 216 447.5 200.5 Q421 185 394 174 Q367 164 338.5 163 Q310 162 284 174 Q272 179 261.5 187.5 Q251 196 241 205 Q231 215 221.5 224.5 Q212 234 202 243 Q194 238 188 233.5 Q182 229 177 226 Q175 225 173 224 Q171 223 169 222 Q155 214 141.5 208 Q128 202 114 196 Q101 191 88 188 Q75 185 61 185 Q49 186 38.5 189.5 Q28 193 19 201 Q18 202 17.5 202 Q17 202 16 203 Q8 189 1 175.5 Q-6 162 -12 148 Q-35 90 -58.5 32.5 Q-82 -25 -105 -84 Q-110 -99 -119 -116 Q-122 -124 -127 -129 Q-136 -138 -149 -133 Q-161 -126 -161 -114 Q-161 -104 -158 -95 Q-151 -74 -144.5 -52.5 Q-138 -31 -130 -10 Q-104 58 -70 126 Q-55 156 -41.5 186 Q-28 216 -14 246 Q34 356 85 462 Q136 568 190 674 Q196 686 202 698 Q208 710 213 723 Q216 729 220 733 Q224 737 232 737 Q242 738 248 730.5 Q254 723 252 714 Q250 706 248 702 Q243 690 237 678 Q231 666 226 655 Q199 601 172 547 Q145 493 119 439 Q117 436 115 430 L116 429 Q120 435 121 436 Q147 468 173.5 498 Q200 528 230 555 Q249 572 268.5 585.5 Q288 599 311 610 Q322 615 334 618.5 Q346 622 358 623 Q387 624 404.5 607 Q422 590 424 561 Q425 543 421.5 526 Q418 509 412 492 Q401 460 384.5 432 Q368 404 348 377 Q342 369 336 362 Q330 355 324 348 Q323 346 310 333.5 Q297 321 277 304 Q271 299 264 293 Q258 288 250 281 Q242 274 233 267 Q241 260 248.5 253 Q256 246 264 238 Q269 233 273 229.5 Q277 226 282 221 L285 218 L286 218 Q286 218 288 217 Q288 217 290 215 Q296 211 300 209 Q301 209 303 207 Q305 207 309 205 Q317 203 321 203 Q322 202 323 202 L324 202 L330 202 Q333 201 336 201.5 Q339 202 342 202 L350 202 Q348 202 349 202 Q350 202 352 203 Q357 203 365 206 Q373 208 377 210 Q379 210 383 212 L385 212 Q386 212 387 213 Q411 224 431 237 Q437 240 441 244 Q442 244 444 246 L445 246 L446 247 L448 249 Q453 253 457 257 Q461 261 466 266 Q471 273 479.5 272 Q488 271 493 266 Z M147 257 Q153 261 158.5 264 Q164 267 169 270 Q168 270 167.5 270.5 Q167 271 166 271 L166 272 L164 272 Q163 272 163 273 Q160 273 159 274 Q156 274 154 275 L152 275 L150 275 Q148 275 147 275.5 Q146 276 144 276 Q141 276 138 275.5 Q135 275 132 275 Q133 275 131 275 Q129 275 128 274 L127 274 L125 274 Q124 274 123.5 273.5 Q123 273 122 273 Q116 271 109.5 269.5 Q103 268 97 266 Q95 264 92 264 Q92 263 91 263 Q90 263 89 262 Q88 262 87.5 261.5 Q87 261 85 261 Q75 256 68.5 250.5 Q62 245 57 240 Q52 235 48 230 Q54 225 65 227 Q74 227 82.5 229.5 Q91 232 99 235 Q116 241 133 250 Q135 250 135 251 L147 257 Z M221 305 Q223 307 225.5 308.5 Q228 310 230 312 Q234 316 234 317 Q241 322 247.5 327.5 Q254 333 260 339 Q324 400 365 482 Q371 496 376 510 Q381 524 383 540 Q384 552 383 564 Q381 582 365 581 Q354 581 342 578 Q325 573 311 564.5 Q297 556 283 546 Q263 530 244 512.5 Q225 495 208 476 Q173 437 141.5 395.5 Q110 354 81 310 Q79 306 78 303 L76 299 Q95 307 118 312 Q132 314 147 314 Q162 314 176 309 Q193 303 204 293 Q212 299 216 301 Q217 302 218 302.5 Q219 303 221 305 Z " />
<glyph glyph-name="Q" unicode="Q" horiz-adv-x="635" d="M258 126 Q266 135 274.5 143.5 Q283 152 291 160 Q336 210 373 263 Q410 316 437 376 Q451 406 460 436 Q469 466 473 497 Q479 537 470 573 Q467 581 464 588.5 Q461 596 457 603 Q426 655 357 640 Q334 635 313.5 624.5 Q293 614 273 600 Q222 564 183.5 519 Q145 474 119 417 Q114 405 110 393 Q106 381 105 368 Q103 359 105 351 Q107 343 104.5 336.5 Q102 330 95 326 Q79 316 69 329 Q64 336 64 344 Q61 362 68 385 Q76 416 90 444.5 Q104 473 123 500 Q154 545 191 581 Q228 617 274 645 Q295 658 316 667 Q337 676 360 680 Q451 698 493 627 Q506 606 511 581.5 Q516 557 516 531 Q515 490 504 450.5 Q493 411 476 373 Q444 300 398.5 235.5 Q353 171 296 113 L290 107 Q290 106 289.5 106 Q289 106 289 105 Q290 103 291 102.5 Q292 102 293 101 Q301 96 309.5 91.5 Q318 87 327 83 Q368 64 418 84 Q451 97 480 122 Q519 154 555.5 188 Q592 222 625 260 Q635 272 646 272 Q656 272 660.5 264 Q665 256 660 247 Q657 241 652 236 Q639 222 627 208.5 Q615 195 601 182 Q579 161 556.5 140 Q534 119 511 99 Q476 68 432 50 Q361 20 301 48 Q290 53 281 58.5 Q272 64 262 70 Q260 71 258.5 72 Q257 73 255 74 Q245 66 236 59 Q227 52 217 45 Q188 23 157.5 7 Q127 -9 93 -19 Q77 -24 62 -26.5 Q47 -29 31 -27 Q-3 -25 -24 -6 Q-45 14 -48 43.5 Q-51 73 -34 103 Q-15 135 12 155.5 Q39 176 74 187 Q100 195 123 192.5 Q146 190 168 182 Q186 175 202 165.5 Q218 156 233 145 Q239 140 245 135.5 Q251 131 258 126 Z M225 97 Q208 110 192 121.5 Q176 133 157 141 Q153 143 149 144 Q145 145 141 147 Q75 165 21 114 Q6 100 -2 82 Q-12 59 -4.5 39.5 Q3 20 26 15 Q48 10 75 16 Q117 26 153.5 47.5 Q190 69 225 97 Z " />
<glyph glyph-name="R" unicode="R" horiz-adv-x="432" d="M455 266 Q461 261 460.5 252.5 Q460 244 455 239 Q429 212 403.5 185 Q378 158 352 131 Q329 107 306.5 83 Q284 59 261 36 Q249 25 236.5 14 Q224 3 207 -3 Q170 -16 143 11 Q131 23 124.5 37.5 Q118 52 115 68.5 Q112 85 111.5 102 Q111 119 110 134 Q110 140 109.5 146 Q109 152 109 158 Q108 164 108 170 Q108 176 107 183 Q105 203 104.5 223.5 Q104 244 102 265 Q101 272 100.5 278.5 Q100 285 99 293 Q99 298 99.5 304.5 Q100 311 104 316 Q108 323 117 326 Q124 329 131 331.5 Q138 334 145 336 Q178 347 208 362.5 Q238 378 264 401 Q275 410 284 420 Q293 430 299 443 Q305 454 306 464 Q309 473 299 473 Q295 473 291 473 Q287 473 282 471 Q271 469 261 463.5 Q251 458 241 452 Q220 439 201 423 Q182 407 164 390 Q116 342 76 288 Q36 234 4 174 Q-8 152 -18.5 130.5 Q-29 109 -40 87 Q-42 82 -45 77 Q-55 62 -70 69 Q-84 77 -81 94 Q-80 97 -79 99.5 Q-78 102 -76 105 Q-49 166 -22 226 Q5 286 33 347 L69 428 L186 692 L198 718 Q199 720 200 722.5 Q201 725 202 728 Q204 730 204 730 Q209 740 219 741 Q231 743 237 733 Q244 725 239 713 Q235 699 227 682 Q206 634 188 594 Q180 577 173 560 Q166 543 159.5 528.5 Q153 514 148.5 503.5 Q144 493 142 489 L135 475 Q134 472 133 469.5 Q132 467 130 464 Q120 442 110.5 420.5 Q101 399 90 376 Q88 372 88 367 Q90 369 90.5 370 Q91 371 93 373 Q117 401 143.5 426 Q170 451 199 473 Q216 485 233.5 495 Q251 505 271 510 Q293 516 312 512 Q331 507 339.5 492.5 Q348 478 346 461 Q345 452 342.5 443 Q340 434 336 426 Q327 408 314 393.5 Q301 379 286 366 Q228 320 156 297 Q151 295 147 294 Q143 293 138 291 L143 225 L144 221 L150 125 Q150 117 150.5 109 Q151 101 152 93 Q152 84 153 80 L153 78 Q153 75 154 75 Q154 71 155 69 Q156 66 156.5 62.5 Q157 59 159 56 L159 55 Q159 54 159.5 54 Q160 54 160 53 L163 47 Q165 45 166 43 Q168 41 169 39 Q170 39 171.5 37.5 Q173 36 172 37 Q174 36 174.5 35.5 Q175 35 177 34 L178 34 Q178 33 180 33 L181 33 Q182 32 183 32 L186 32 L188 32 Q188 33 189 33 Q192 33 193 34 Q195 34 197 35 L198 35 Q199 36 203 38 Q204 39 208 41 Q209 42 209.5 42 Q210 42 211 43 Q222 53 232.5 63.5 Q243 74 254 85 Q299 130 341 175.5 Q383 221 427 266 Q433 272 441 271.5 Q449 271 455 266 Z " />
<glyph glyph-name="S" unicode="S" horiz-adv-x="415" d="M436 269 Q444 265 445.5 257.5 Q447 250 443 243 Q423 207 395.5 177 Q368 147 334 123 Q310 106 284 94.5 Q258 83 230 73 Q220 38 198 3 Q177 -29 150 -54 Q123 -79 91 -99 Q37 -133 -19 -146 Q-58 -155 -85 -155 Q-112 -155 -129.5 -149 Q-147 -143 -157 -134 Q-167 -125 -171 -117 Q-173 -112 -174 -108 Q-175 -104 -176 -100 Q-179 -88 -176.5 -77 Q-174 -66 -169.5 -57.5 Q-165 -49 -159.5 -43 Q-154 -37 -150 -33 Q-139 -25 -131.5 -20 Q-124 -15 -123 -14 Q-107 -6 -91 1 Q-75 8 -58 16 Q-38 25 -17.5 33.5 Q3 42 23 50 Q64 66 102 77 Q122 82 141 87.5 Q160 93 180 99 Q185 100 189 101 Q193 102 198 104 Q198 107 199 109 Q204 135 200.5 161 Q197 187 190 208 Q182 233 170 256 Q164 268 158 279.5 Q152 291 144 302 Q130 323 116.5 343.5 Q103 364 90 385 Q71 413 58 441 Q41 474 40 511 Q39 573 84 618 Q128 660 183 663 Q235 665 271 625 Q285 611 293.5 593.5 Q302 576 307 556 Q319 494 301 434 Q299 426 297 423 Q288 409 274 416 Q260 421 262 438 Q263 441 264 444 Q265 447 266 450 Q272 473 273 497 Q274 521 269 546 Q266 566 256 581 Q241 606 217.5 616 Q194 626 166 619 Q126 609 99 574 Q70 537 82 488 Q86 472 92.5 458 Q99 444 107 431 Q120 411 133 391 Q146 371 159 351 Q172 332 183.5 313 Q195 294 205 273 L208 267 Q210 264 211 260 Q212 256 214 251 Q214 250 217 242 Q220 234 223.5 221.5 Q227 209 231 194 Q235 179 237 164 Q238 158 238.5 152.5 Q239 147 239 141 L239 117 Q243 119 249 121 Q250 122 250.5 122 Q251 122 252 123 L253 123 Q253 123 254 124 Q290 140 319 160 Q323 164 325 165 Q325 165 327 166 Q328 166 328 167 Q330 169 332 170 Q335 172 338 175 Q341 178 344 180 Q351 187 357.5 193 Q364 199 370 207 Q373 210 376 213 Q379 216 381 220 Q383 222 384 224 L385 224 L385 225 Q387 227 387.5 228 Q388 229 390 231 Q400 245 410 262 Q414 270 421.5 271.5 Q429 273 436 269 Z M167 28 Q172 36 176 43.5 Q180 51 184 59 Q167 54 151.5 50 Q136 46 119 41 Q82 31 42 15 Q21 9 4 0 Q2 -1 0.5 -1 Q-1 -1 -3 -2 Q-3 -3 -4 -3 L-13 -6 Q-18 -8 -22.5 -10.5 Q-27 -13 -32 -15 Q-50 -23 -68 -31.5 Q-86 -40 -104 -49 Q-107 -51 -109.5 -51.5 Q-112 -52 -115 -54 Q-124 -60 -133 -71.5 Q-142 -83 -134 -100 Q-130 -108 -116 -113 Q-104 -115 -92 -115 Q-80 -115 -68 -113 L-64 -113 Q-47 -111 -34.5 -108 Q-22 -105 -19 -103 Q32 -89 78 -59 Q104 -42 126.5 -20.5 Q149 1 167 28 Z " />
<glyph glyph-name="T" unicode="T" horiz-adv-x="412" d="M765 723 Q765 715 759 710 Q753 705 745 704 Q691 700 638 696.5 Q585 693 531 689 L300 671 Q297 665 294.5 659.5 Q292 654 289 648 Q257 584 228 520.5 Q199 457 170 391 Q167 383 163.5 375 Q160 367 157 359 Q155 354 153 350 Q151 346 149 341 L146 335 L146 334 Q144 330 144 329 Q137 312 130.5 296 Q124 280 117 264 Q103 231 90.5 198 Q78 165 67 131 Q56 99 45 67 Q34 35 29 1 L29 -3 Q29 -3 28 -4 L28 -12 Q27 -17 27 -27 L27 -43 Q27 -45 27.5 -47 Q28 -49 28 -51 L28 -52 Q28 -54 29 -56 L29 -58 Q30 -61 31.5 -66.5 Q33 -72 36 -77 L36 -78 Q39 -83 44 -83 Q49 -83 53.5 -80.5 Q58 -78 62 -74.5 Q66 -71 66 -71 L67 -71 Q69 -69 70 -67.5 Q71 -66 73 -64 Q75 -62 76.5 -60.5 Q78 -59 80 -57 Q82 -55 84 -53 Q86 -51 88 -49 Q94 -43 97 -41 L106 -32 Q108 -29 111 -26.5 Q114 -24 116 -22 L126 -12 L136 -2 L147 9 L158 20 L170 32 Q173 35 176 37.5 Q179 40 182 43 Q190 51 193 55 L205 67 L217 79 L229 91 L241 103 Q249 111 253 114 L265 126 L277 138 L288 149 Q291 151 293.5 154 Q296 157 299 160 Q302 162 304.5 165 Q307 168 310 170 Q312 173 315 175.5 Q318 178 320 181 Q322 183 325 185.5 Q328 188 330 191 L339 200 L348 209 Q351 211 357 217 L364 224 L371 231 Q375 235 377 238 Q379 239 383 243 Q386 246 387 248 Q391 251 394 255 Q399 260 404.5 264.5 Q410 269 417 271 Q426 274 433 267 Q439 261 438.5 253 Q438 245 433 239 Q430 236 427 232.5 Q424 229 421 225 L420 225 Q419 223 418 222.5 Q417 222 416 220 Q410 214 407 212 Q404 209 401.5 206 Q399 203 396 200 L381 185 L363 167 Q358 162 353 157.5 Q348 153 343 148 Q338 142 332.5 136.5 Q327 131 322 126 L299 103 L276 80 L252 56 L228 32 Q222 26 216.5 20 Q211 14 205 9 L182 -14 L161 -35 Q156 -40 151.5 -44.5 Q147 -49 142 -54 Q137 -59 133 -63 Q129 -67 125 -72 Q123 -74 121 -75.5 Q119 -77 117 -79 Q112 -84 107.5 -88 Q103 -92 98 -97 Q93 -102 87 -106.5 Q81 -111 75 -115 Q69 -120 62 -123 Q56 -125 49.5 -127 Q43 -129 37 -128 L36 -128 L35 -128 Q24 -127 17 -120.5 Q10 -114 5 -106 Q0 -98 -2.5 -90.5 Q-5 -83 -6 -80 Q-9 -71 -10 -61.5 Q-11 -52 -12 -42 Q-13 -25 -11 -7 Q-9 11 -5 28 Q-2 45 3 61 Q8 77 13 94 Q18 111 24 128 Q30 145 36 162 Q61 231 89.5 299 Q118 367 147 435 Q173 494 199.5 552 Q226 610 255 667 Q229 665 202 663 Q175 661 149 659 Q53 651 -41.5 642.5 Q-136 634 -232 625 Q-240 624 -246 630.5 Q-252 637 -252 645 Q-252 653 -246 658 Q-240 663 -232 664 Q-178 669 -125 673.5 Q-72 678 -18 683 Q78 691 172.5 699 Q267 707 364 715 Q460 723 554.5 729.5 Q649 736 745 743 Q753 744 758.5 737.5 Q764 731 765 723 Z " />
<glyph glyph-name="U" unicode="U" horiz-adv-x="643" d="M395 365 Q387 353 379 341 Q371 329 363 317 Q334 275 304 233.5 Q274 192 241 152 Q220 126 197 101.5 Q174 77 147 55 Q133 44 119 34 Q105 24 88 18 Q32 -4 -1 35 Q-11 47 -16 61 Q-21 75 -23 90 Q-27 113 -26.5 136.5 Q-26 160 -22 185 Q-14 240 3.5 294 Q21 348 42 402 Q61 451 83 498 Q105 545 128 593 Q135 607 141 621.5 Q147 636 154 650 Q156 655 158.5 659.5 Q161 664 166 667 Q181 679 193 670 Q205 659 194 645 Q193 644 191 640 Q175 607 160 574.5 Q145 542 129 509 Q103 452 80 394.5 Q57 337 40 278 Q31 248 25 218.5 Q19 189 17 159 Q15 139 16 119 Q17 99 25 81 Q30 68 38 60 Q54 43 82 55 Q93 59 102.5 65 Q112 71 120 79 Q142 96 160.5 115 Q179 134 196 154 Q231 195 262.5 237 Q294 279 323 323 Q362 383 401 442 Q440 501 479 561 Q484 570 490 578.5 Q496 587 502 595 Q505 601 510 606 Q523 620 537 615 Q543 613 546 607 Q549 601 546 593 Q542 583 538 573.5 Q534 564 529 554 Q502 497 474.5 440 Q447 383 420 326 Q393 268 368.5 210 Q344 152 323 93 Q314 69 307 44.5 Q300 20 295 -4 Q291 -21 289.5 -37 Q288 -53 290 -69 Q291 -76 295 -83 Q300 -92 312 -88 Q324 -84 336 -76 Q355 -64 371 -49.5 Q387 -35 402 -20 Q453 32 493 84 Q525 124 557 163.5 Q589 203 621 243 Q625 248 628 252 Q631 256 635 261 Q643 272 656 272 Q668 272 671 261 Q674 253 666 242 L630 194 Q594 150 558.5 107 Q523 64 487 20 Q464 -6 440 -31.5 Q416 -57 389 -80 Q375 -92 360 -102.5 Q345 -113 328 -121 Q310 -129 294 -128.5 Q278 -128 265 -117 Q259 -112 255.5 -104.5 Q252 -97 250 -89 Q247 -75 247 -61 Q247 -47 249 -33 Q255 15 270.5 60.5 Q286 106 304 152 Q324 205 347 256.5 Q370 308 394 360 Q395 362 395 362.5 Q395 363 396 365 L395 365 Z " />
<glyph glyph-name="V" unicode="V" horiz-adv-x="657" d="M682 262 Q686 255 683.5 247.5 Q681 240 675 236 Q657 225 640.5 213 Q624 201 608 189 Q593 178 578.5 167 Q564 156 549 145 Q534 134 517.5 125 Q501 116 483 112 Q482 112 481 111.5 Q480 111 479 111 Q450 105 432.5 113.5 Q415 122 404.5 135.5 Q394 149 390 164 Q386 179 385 186 Q384 187 384 190 L381 187 Q380 185 376 181 Q371 175 365.5 169 Q360 163 355 156 L352 153 Q329 127 304.5 103.5 Q280 80 254 57 Q235 40 215 25 Q195 10 173 -2 Q157 -10 141 -17 Q125 -24 107 -26 Q51 -34 19 10 Q8 24 2 40.5 Q-4 57 -9 74 Q-15 100 -16 127.5 Q-17 155 -15 182 Q-11 243 3.5 301 Q18 359 38 416 Q61 482 89.5 546 Q118 610 153 671 Q158 680 163 687 Q165 690 168.5 692.5 Q172 695 175 697 Q188 702 197 690 Q205 680 196 668 Q192 663 188.5 657 Q185 651 181 645 Q139 567 105 486.5 Q71 406 47 321 Q39 292 33 262.5 Q27 233 24 203 Q21 174 21 144.5 Q21 115 27 86 Q30 72 34.5 59.5 Q39 47 47 35 Q64 10 94 11 Q99 12 104 12.5 Q109 13 114 14 Q127 17 139 22.5 Q151 28 162 35 Q182 47 201 61.5 Q220 76 237 92 Q275 126 309.5 163 Q344 200 376 239 Q379 242 379 250 Q387 342 419 424.5 Q451 507 504 582 Q512 593 522 604 Q532 615 543 624 Q548 627 553 630.5 Q558 634 563 636 Q582 644 596.5 635.5 Q611 627 614 607 Q616 595 614 583 Q612 571 609 559 Q597 514 576 472 Q555 427 528.5 385 Q502 343 473 303 Q462 289 452 275.5 Q442 262 431 248 Q429 245 426 241.5 Q423 238 420 234 Q421 222 422 209 Q423 196 425 182 Q426 177 429 170 Q432 163 437.5 157.5 Q443 152 452 149.5 Q461 147 475 150 Q476 150 476.5 150.5 Q477 151 478 151 Q480 152 482 152.5 Q484 153 486 154 Q487 154 487.5 154.5 Q488 155 490 155 Q505 163 519 172 Q533 181 546 191 Q573 211 599.5 231.5 Q626 252 655 269 Q662 274 669.5 271.5 Q677 269 682 262 Z M425 308 Q425 307 424.5 306 Q424 305 424 303 Q426 304 427 305 Q428 306 430 307 Q437 318 444 327.5 Q451 337 459 348 Q483 383 505 419 Q527 455 545 494 Q553 512 560.5 530.5 Q568 549 573 569 Q575 577 576 584 Q577 591 576 599 L575 600 Q571 598 567.5 595 Q564 592 561 590 Q551 581 543 570.5 Q535 560 527 549 Q456 444 428 321 Q426 313 425 308 Z " />
<glyph glyph-name="W" unicode="W" horiz-adv-x="779" d="M801 262 Q806 255 803.5 247.5 Q801 240 794 236 Q765 218 737 203 Q729 199 720.5 195.5 Q712 192 703 188 Q677 177 648 171 Q619 165 591 169 Q579 170 567 175 Q561 179 557 182 L553 186 Q549 190 549 190 Q540 178 530.5 164 Q521 150 510 136 Q492 113 473 90.5 Q454 68 433 47 Q418 30 401.5 15.5 Q385 1 366 -11 Q354 -19 341 -26 Q328 -33 313 -36 Q287 -42 267 -32 Q247 -22 237 3 Q227 26 227 54 Q226 86 231 117.5 Q236 149 244 181 Q252 208 260.5 235 Q269 262 277 289 Q279 294 278 297 Q277 295 273 289 Q247 247 220 206 Q193 165 164 124 Q140 91 114.5 58.5 Q89 26 60 -4 Q50 -14 39.5 -23.5 Q29 -33 17 -41 Q10 -46 2 -49.5 Q-6 -53 -14 -55 Q-41 -61 -54 -38 Q-59 -31 -61 -23 Q-63 -15 -64 -7 Q-66 22 -61 49 Q-53 103 -38 155.5 Q-23 208 -5 260 Q19 332 48.5 400.5 Q78 469 110 538 Q128 576 147 615 Q166 654 185 692 L191 704 Q202 721 218 713 Q233 705 224 686 Q207 653 191 620.5 Q175 588 159 554 Q124 481 92 407 Q60 333 33 256 Q19 217 7 177.5 Q-5 138 -14 96 Q-19 76 -22.5 55 Q-26 34 -26 13 Q-27 6 -26 0 Q-25 -6 -24 -12 Q-24 -14 -22 -18 Q-17 -18 -14 -16 Q-11 -14 -7 -12 Q1 -6 8.5 0 Q16 6 24 13 Q41 29 56 46 Q71 63 85 81 Q123 128 155.5 176.5 Q188 225 220 276 Q240 306 258.5 336.5 Q277 367 297 397 Q303 407 309.5 416.5 Q316 426 323 436 Q325 439 328 442 Q331 445 334 448 Q346 458 358 451 Q370 444 367 429 Q366 424 365.5 420 Q365 416 363 412 Q355 393 348.5 375 Q342 357 335 338 Q319 296 305 255 Q291 214 280 171 Q275 148 271 125 Q267 102 265 79 Q264 67 264.5 54.5 Q265 42 268 30 Q270 20 274 13 Q283 -3 302 0 Q319 3 334 12 Q345 20 355.5 27.5 Q366 35 376 44 Q405 69 430.5 98 Q456 127 479 158 Q490 172 499.5 185.5 Q509 199 520 213 Q523 219 522 224 Q511 271 519 318 Q538 459 613 581 Q625 600 638 617.5 Q651 635 668 651 Q674 656 681 661.5 Q688 667 695 672 Q706 680 719 680 Q729 681 737 676.5 Q745 672 748 662 Q752 654 752 642 Q753 625 750 609.5 Q747 594 742 578 Q731 534 714.5 493 Q698 452 678 412 Q658 370 636 330.5 Q614 291 590 252 Q586 247 581.5 239.5 Q577 232 572 224 L572 223 Q574 221 574 220 L575 219 Q582 210 591 208 Q600 206 611 207 Q643 208 672 218 Q701 228 729 243 Q740 249 751.5 255.5 Q763 262 774 269 Q782 274 789 271.5 Q796 269 801 262 Z M574 399 Q565 368 559 337.5 Q553 307 554 275 Q554 271 555 267 Q557 271 560 274 Q586 317 610 360.5 Q634 404 655 450 Q672 485 685.5 521.5 Q699 558 708 596 Q711 607 713 617.5 Q715 628 714 640 Q708 636 703.5 632.5 Q699 629 694 625 Q680 611 669 596.5 Q658 582 647 566 Q622 527 604.5 485.5 Q587 444 574 399 Z " />
<glyph glyph-name="X" unicode="X" horiz-adv-x="585" d="M609 266 Q615 261 615 252.5 Q615 244 609 239 Q583 216 557 192 Q531 168 505 145 Q459 103 413.5 62 Q368 21 321 -21 Q310 -31 298.5 -41 Q287 -51 276 -61 Q267 -69 256.5 -74 Q246 -79 235 -80 Q212 -81 197.5 -62.5 Q183 -44 174.5 -20 Q166 4 162 27.5 Q158 51 157 59 Q156 73 155.5 87.5 Q155 102 156 116 Q157 140 158.5 163.5 Q160 187 162 210 L162 219 Q154 211 147.5 203 Q141 195 135 187 L-36 -17 Q-48 -31 -58.5 -45.5 Q-69 -60 -77 -77 Q-87 -95 -104 -88 Q-111 -85 -114 -77.5 Q-117 -70 -112 -62 Q-107 -53 -102.5 -44 Q-98 -35 -91 -27 Q-72 -1 -52 23.5 Q-32 48 -12 73 Q33 127 78 179 Q123 231 168 285 Q171 288 173 296 L194 419 L209 518 Q212 539 214 560 Q216 581 216 602 Q216 616 215.5 629.5 Q215 643 210 656 Q208 661 205.5 666 Q203 671 201 676 Q192 688 177 683 Q168 681 160 677 Q152 673 145 668 Q117 647 95.5 622 Q74 597 58 566 Q52 555 54 545 Q56 539 53 533 Q50 527 44 523 Q30 516 21 527 Q9 539 14 557 Q16 568 20.5 578 Q25 588 31 598 Q50 629 73.5 655.5 Q97 682 127 702 Q138 710 149 715.5 Q160 721 173 723 Q213 730 236 697 Q244 685 248 671.5 Q252 658 254 644 Q258 599 252 552 Q250 532 247.5 513.5 Q245 495 242 475 Q240 455 236.5 436 Q233 417 230 398 Q228 386 226 374 Q224 362 222 350 Q222 349 221 347 Q224 349 225.5 351 Q227 353 229 355 Q286 420 343.5 482.5 Q401 545 461 606 Q484 628 506 650 Q528 672 551 693 Q557 699 563.5 703.5 Q570 708 577 713 Q585 719 594 716 Q605 713 607 702 Q609 689 600 682 Q564 656 534 624.5 Q504 593 472 562 Q404 493 340 422 Q276 351 213 278 Q211 276 210.5 274.5 Q210 273 209 271 Q204 238 201 205 Q198 172 196 139 Q194 107 195.5 76 Q197 45 205 15 Q208 4 212 -7 Q216 -18 222 -28 Q227 -34 235 -36 Q243 -38 255 -27 Q256 -26 256.5 -26 Q257 -26 258 -25 Q263 -20 268.5 -15.5 Q274 -11 279 -6 Q290 4 300.5 13.5 Q311 23 322 33 L409 111 Q453 150 495.5 188.5 Q538 227 581 266 Q596 279 609 266 Z " />
<glyph glyph-name="Y" unicode="Y" horiz-adv-x="538" d="M559 269 Q566 266 568.5 257.5 Q571 249 566 243 Q555 226 540 214 Q525 202 510 190 Q494 177 478 165 Q462 153 445 142 Q403 115 358 97.5 Q313 80 265 69 Q261 64 258 59 Q255 54 252 49 Q241 35 230.5 21 Q220 7 209 -6 Q186 -32 162 -55.5 Q138 -79 109 -98 Q89 -111 68.5 -120 Q48 -129 25 -132 Q9 -134 -6.5 -133.5 Q-22 -133 -37 -127 Q-86 -107 -81 -51 Q-81 -46 -80.5 -42.5 Q-80 -39 -79 -34 Q-73 -10 -62 6.5 Q-51 23 -38.5 33.5 Q-26 44 -14.5 49 Q-3 54 2 56 Q20 62 38 65 Q89 76 139.5 84 Q190 92 241 103 Q243 107 247 113 Q248 114 248 115 Q267 145 281 171.5 Q295 198 306 218 Q317 241 327 261 Q348 306 366 350.5 Q384 395 400 441 Q413 476 424 512 Q435 548 446 583 Q447 584 447 586 L446 586 Q442 581 438 575 Q434 569 430 564 Q395 513 357.5 465 Q320 417 278 372 Q255 346 231.5 322.5 Q208 299 182 278 Q165 265 147 254 Q129 243 109 237 Q90 232 72 233 Q54 234 38 247 Q27 255 20.5 266.5 Q14 278 10 291 Q5 307 3 322.5 Q1 338 1 355 Q2 403 12 448.5 Q22 494 36 540 Q47 573 60 605.5 Q73 638 87 670 Q90 676 92.5 682 Q95 688 97 693 Q105 710 122 705 Q130 703 133.5 695 Q137 687 132 677 Q126 662 120 647 Q114 632 107 617 Q90 576 76 535.5 Q62 495 53 452 Q48 429 44.5 405.5 Q41 382 41 359 Q41 345 42 332 Q43 319 47 306 L50 297 Q63 266 96 275 Q117 281 138 295 Q161 310 180.5 327.5 Q200 345 218 365 Q260 408 297.5 454 Q335 500 370 548 Q388 572 405 596 Q422 620 439 643 Q444 649 449.5 655 Q455 661 460 666 Q470 676 481 673 Q490 671 495.5 664.5 Q501 658 500 648 Q498 637 496.5 626 Q495 615 492 604 Q466 507 432.5 414 Q399 321 355 230 Q346 212 336 194 Q328 178 317 158 Q306 138 294 117 Q299 119 304.5 120.5 Q310 122 315 124 Q323 126 330.5 129 Q338 132 346 135 L355 138 Q355 138 357 139 Q357 139 359 140 Q360 140 360 141 L375 147 Q390 155 405 163 Q420 171 434 181 Q441 186 447.5 190.5 Q454 195 461 200 Q462 201 463 201.5 Q464 202 465 203 Q465 203 466 204 L467 205 Q469 207 470.5 207.5 Q472 208 474 210 Q477 213 480 215.5 Q483 218 487 221 Q493 226 499.5 231 Q506 236 512 241 L524 253 Q526 255 527 255.5 Q528 256 529 258 Q530 258 530 259 Q530 259 531 260 Q531 261 532 262 Q537 269 544 271.5 Q551 274 559 269 Z M191 34 Q201 44 209 57 Q204 56 198.5 55 Q193 54 187 53 Q152 46 116 40.5 Q80 35 45 27 Q37 25 29.5 23 Q22 21 14 19 Q10 18 4 16 L3 15 Q2 15 2 14.5 Q2 14 1 14 Q0 14 -0.5 13.5 Q-1 13 -2 13 Q-5 11 -10 7.5 Q-15 4 -21 -2.5 Q-27 -9 -32.5 -18.5 Q-38 -28 -40 -41 Q-42 -46 -42 -50 Q-42 -54 -42 -59 Q-42 -81 -24 -88 Q-11 -93 1 -93 Q15 -95 29 -91.5 Q43 -88 57 -82 Q79 -72 98.5 -58 Q118 -44 135 -27 Q167 1 191 33 L191 34 Z " />
<glyph glyph-name="Z" unicode="Z" horiz-adv-x="517" d="M538 267 Q543 262 543 253.5 Q543 245 538 240 Q503 211 464 187 Q425 163 383 143 Q369 136 355 130 Q341 124 327 118 Q322 93 311.5 62.5 Q301 32 280 -4 Q264 -29 249 -50 Q249 -51 248.5 -51 Q248 -51 248 -52 Q236 -69 222.5 -84.5 Q209 -100 195 -115 Q162 -148 122.5 -173.5 Q83 -199 38 -210 Q-3 -222 -49 -217 Q-71 -214 -92.5 -207 Q-114 -200 -132 -185 Q-152 -168 -162 -147 Q-163 -145 -163.5 -144.5 Q-164 -144 -165 -142 Q-176 -112 -172 -86.5 Q-168 -61 -155 -40.5 Q-142 -20 -123.5 -4 Q-105 12 -87.5 23 Q-70 34 -57.5 39.5 Q-45 45 -43 46 Q-20 55 2.5 61.5 Q25 68 48 74 Q92 86 135 97.5 Q178 109 221 122 Q238 127 254.5 133 Q271 139 288 145 Q289 170 280.5 198 Q272 226 247 253 Q233 266 219 276.5 Q205 287 193 295 Q179 304 166 310 Q165 311 164 311 Q163 311 162 312 Q160 314 157.5 314.5 Q155 315 152 317 Q142 322 132 326 Q122 330 111 334 Q100 339 98 352 Q97 364 107 371 Q108 372 109 372 Q109 373 110 373 Q112 374 114 376 Q117 379 123 383 Q128 387 132 390 Q136 393 141 397 Q149 404 157.5 411 Q166 418 174 425 Q188 439 202 452.5 Q216 466 229 480 Q236 488 242.5 495 Q249 502 255 510 Q261 516 263 519 Q264 521 266 523 Q266 524 267 524 Q270 528 273 532 Q276 536 279 540 Q305 573 324 607 Q328 615 330 618 L330 620 L332 623 Q334 628 335.5 632.5 Q337 637 338 642 Q339 644 341 650 Q328 645 319 640 Q295 629 277 615 Q276 615 276 614.5 Q276 614 275 614 L274 614 Q274 613 273 613 Q272 612 271 611.5 Q270 611 269 609 Q263 605 260 602 Q255 598 250.5 594 Q246 590 241 586 Q236 581 231.5 576.5 Q227 572 223 567 Q220 563 214 557 Q213 556 213 555.5 Q213 555 212 554 L211 553 L210 552 Q208 550 208 550 Q200 539 193 528 Q186 517 179 505 Q174 498 167 497 Q160 496 153 500 Q146 505 144.5 513 Q143 521 147 528 Q155 542 164 555.5 Q173 569 184 582 Q215 620 254 648.5 Q293 677 339 692 Q345 694 352.5 695 Q360 696 366.5 693 Q373 690 377.5 682.5 Q382 675 381 660 Q379 638 371.5 618 Q364 598 353 580 Q343 561 331 544 Q319 527 306 510 Q292 493 278.5 477 Q265 461 250 445 Q228 421 205 399.5 Q182 378 156 358 Q201 337 238 311 Q270 288 297 255 Q324 222 329 178 Q329 172 330 169 L330 166 L330 161 Q332 163 332 163 L333 163 Q335 164 336 164 Q337 164 338 165 Q348 169 357 173 Q366 177 375 182 Q393 191 411 200.5 Q429 210 446 221 Q455 226 463.5 232 Q472 238 480 244 Q486 248 489 251 Q491 252 499.5 259 Q508 266 510 267 Q524 279 538 267 Z M195 -56 Q233 -8 253 31 Q273 70 281 101 L277 100 Q238 86 199 75 Q160 64 121 53 Q102 48 84 43 Q66 38 47 34 Q28 29 9.5 24 Q-9 19 -27 11 Q-47 3 -70 -12 Q-93 -27 -109.5 -46.5 Q-126 -66 -131 -89 Q-136 -112 -119 -137 Q-107 -157 -88 -166.5 Q-69 -176 -47.5 -178 Q-26 -180 -3.5 -177 Q19 -174 38 -168 Q85 -153 124.5 -123 Q164 -93 195 -56 Z " />
<glyph glyph-name="exclam" unicode="&#x21;" horiz-adv-x="246" d="M-73 -37 Q-72 -35 -71.5 -32.5 Q-71 -30 -69 -28 Q-43 32 -16.5 90 Q10 148 36 207 Q93 338 150.5 466 Q208 594 266 724 Q271 735 279 740 Q291 745 299 738 Q309 731 306 720 Q304 714 301.5 708 Q299 702 296 696 L35 111 Q18 73 1 35 Q-16 -3 -33 -41 Q-38 -53 -48 -57 Q-58 -60 -66 -54 Q-74 -48 -73 -37 Z M-114 -129 Q-113 -121 -107 -115 Q-101 -109 -93 -109 Q-84 -109 -78 -116 Q-72 -123 -73 -132 Q-74 -140 -79.5 -145.5 Q-85 -151 -93 -151 Q-102 -151 -108.5 -144.5 Q-115 -138 -114 -129 Z " />
<glyph glyph-name="asciitilde" unicode="&#x7e;" horiz-adv-x="295" d="M181 141 Q149 141 136 162 Q132 168 129 174.5 Q126 181 123 188 Q121 193 118.5 197.5 Q116 202 113 207 Q111 211 108 208 Q104 205 100 202 Q96 199 93 196 Q70 175 49 152 Q44 147 39.5 141 Q35 135 30 129 Q23 120 13.5 119.5 Q4 119 -2 128 Q-9 138 -3 149 Q1 155 4 160 Q7 165 12 170 Q43 206 77 234 Q85 241 94 245 Q121 259 140 236 Q152 223 158 207 Q160 202 161.5 198 Q163 194 165 189 Q172 176 185 182 Q195 187 206 196 Q213 201 219 207 Q225 213 231 218 Q242 229 252 226 Q263 223 266.5 212.5 Q270 202 262 194 Q250 181 236.5 169.5 Q223 158 208 150 Q193 141 181 141 Z " />
<glyph glyph-name="at" unicode="&#x40;" horiz-adv-x="535" d="M313 149 Q298 137 286 128 Q274 120 263 114 Q253 109 244 109 Q220 108 212 132 Q210 140 210 147.5 Q210 155 212 163 Q214 168 215.5 173.5 Q217 179 219 184 Q229 205 242.5 223.5 Q256 242 275 256 Q285 264 296 269.5 Q307 275 321 277 Q334 278 347.5 272 Q361 266 366 249 Q368 239 368 234 Q369 226 366.5 219.5 Q364 213 355 209 Q360 201 359.5 193.5 Q359 186 357 178 Q355 167 352 157.5 Q349 148 347 137 Q346 130 346 124 Q346 118 346 111 Q347 99 360 103 L378 112 Q400 127 416 149 Q465 213 481 288 Q486 314 485 339 Q484 364 474 389 Q452 448 392 460 Q358 467 320 456 Q294 449 271 437 Q248 425 227 409 Q185 378 153.5 340.5 Q122 303 97 259 Q75 220 60 178.5 Q45 137 37 93 Q31 60 29.5 26.5 Q28 -7 34 -40 Q39 -65 49 -87 Q57 -102 69 -112.5 Q81 -123 98 -127 Q124 -133 151 -123 Q166 -118 179 -111 Q192 -104 205 -96 Q237 -74 267 -51 Q297 -28 326 -3 Q334 4 340 10.5 Q346 17 351 26 Q355 33 361.5 35 Q368 37 374 34 Q390 27 383 12 Q381 7 378.5 2.5 Q376 -2 372 -6 Q364 -17 352 -27 Q290 -81 223 -126 Q205 -138 186.5 -147 Q168 -156 147 -161 Q106 -170 69 -155 Q36 -141 19 -108 Q2 -76 -3 -35 Q-8 -6 -7.5 23 Q-7 52 -2 81 Q22 236 124 359 Q150 390 179.5 416 Q209 442 244 462 Q267 475 291 484 Q315 493 341 496 Q377 501 409.5 493 Q442 485 469 461 Q505 429 516 377 Q523 347 521 316.5 Q519 286 510 256 Q490 194 453 140 Q433 109 400 85 Q389 78 378.5 73 Q368 68 355 67 Q328 64 315 88 Q310 99 309 110.5 Q308 122 310 133 Q311 137 311.5 140.5 Q312 144 313 149 Z M335 215 Q335 217 334 218.5 Q333 220 333 222 Q332 225 332 231 Q331 244 319 241 Q314 239 309 237 Q304 235 300 231 Q283 219 271 203 Q259 187 251 168 Q246 156 247 145 Q251 147 254.5 149 Q258 151 261 153 Q274 164 287 175 Q300 186 313 197 Q319 202 324.5 206 Q330 210 335 215 Z " />
<glyph glyph-name="numbersign" unicode="&#x23;" horiz-adv-x="297" d="M290 188 Q291 181 287 174.5 Q283 168 276 166 Q272 164 262 162 Q247 161 232 160.5 Q217 160 202 158 Q193 158 184 157.5 Q175 157 165 156 Q162 149 159 142 Q156 135 152 128 L146 116 Q141 108 133.5 104.5 Q126 101 119 104 Q104 111 112 130 Q113 133 117 141 Q119 144 120 146.5 Q121 149 123 153 Q109 152 96.5 151.5 Q84 151 70 149 Q62 130 54 112 Q46 94 38 76 Q34 68 30.5 59.5 Q27 51 22 43 Q16 30 2 29 Q-7 29 -12 36 Q-17 43 -14 52 Q-12 58 -10 60 Q-2 80 7 100 Q16 120 25 140 Q26 142 26 143 Q26 144 27 146 Q17 146 12 145 Q-6 145 -6 163 Q-6 171 -0.5 177 Q5 183 13 185 Q20 187 26.5 187 Q33 187 40 188 L47 188 Q50 194 53 200 Q56 206 58 212 Q50 211 43.5 211 Q37 211 30 210 Q20 210 16 211 Q-3 213 2 232 Q4 240 10 245 Q16 250 24 250 Q35 251 47 252 Q59 253 71 253 Q78 254 81 261 Q89 280 98 298 Q107 316 115 335 Q116 341 120 346 Q128 359 142 356 Q156 353 154 338 Q154 332 151 325 Q145 311 138.5 296.5 Q132 282 125 268 Q123 262 121 258 Q133 259 144.5 259.5 Q156 260 168 261 Q170 265 171 268 Q172 271 173 274 L194 325 Q198 333 201 337 Q211 349 224 344 Q236 339 233 324 Q233 320 230 316 Q225 304 221 292.5 Q217 281 212 270 Q210 266 210 264 L212 264 L213 264 L252 266 Q260 266 265 259 Q269 252 266 244.5 Q263 237 256 233 Q251 231 246 229 Q241 227 236 226 Q225 223 214.5 223.5 Q204 224 193 222 Q191 216 188 210.5 Q185 205 183 198 Q188 198 188 198 Q208 199 227 200 Q246 201 266 203 L274 203 Q290 203 290 188 Z M143 199 Q145 204 147 209 Q149 214 151 220 Q138 218 126 217.5 Q114 217 102 216 Q99 210 96 204 Q93 198 91 191 Q103 192 114 192.5 Q125 193 136 194 Q141 194 143 199 Z " />
<glyph glyph-name="dollar" unicode="&#x24;" horiz-adv-x="415" d="M-78 -166 Q-106 -170 -135 -167 Q-160 -164 -176 -153 Q-205 -135 -202 -97 Q-199 -46 -171 -2 Q-139 51 -81 63 Q-79 63 -76 63.5 Q-73 64 -71 64 Q-56 62 -54 48 Q-54 32 -69 27 Q-72 25 -74.5 25 Q-77 25 -80 24 Q-114 17 -134 -14 Q-161 -55 -162 -98 Q-162 -115 -147 -122 Q-139 -126 -131 -127 Q-123 -128 -115 -129 Q-103 -130 -91.5 -128.5 Q-80 -127 -68 -125 Q-60 -124 -56 -115 Q-41 -80 -26 -45 Q-11 -10 5 25 Q35 91 65.5 157 Q96 223 126 290 Q126 292 128 294 Q132 301 126 307 Q115 322 103.5 337 Q92 352 81 368 Q62 394 53 428 Q38 487 76 540 Q93 565 114.5 583 Q136 601 162 615 Q210 640 263 645 L287 645 Q290 650 292 655.5 Q294 661 296 666 Q301 677 305 687 Q309 697 314 707 Q316 711 320 717 Q332 734 347 727 Q362 720 354 702 Q351 694 347.5 686.5 Q344 679 341 671 Q334 656 327 638 L327 636 Q329 635 331 634 Q333 633 335 632 Q390 603 390 536 Q389 519 385 501.5 Q381 484 375 467 Q355 417 330 372 Q325 362 319 356 Q310 345 297 350 Q284 354 286 367 Q286 374 291 379 Q306 407 319 435 Q332 463 342 492 Q346 505 348.5 518 Q351 531 349 545 Q345 579 315 595 Q314 596 313.5 596 Q313 596 312 597 L310 597 Q307 593 306 589 L183 322 Q179 314 179.5 311.5 Q180 309 185 301 Q199 284 212 267 Q225 250 236 230 Q247 210 254 187.5 Q261 165 262 141 Q265 76 225 18 Q206 -10 182 -32.5 Q158 -55 131 -75 Q59 -126 -24 -153 Q-31 -154 -34 -162 Q-39 -176 -45 -189.5 Q-51 -203 -56 -217 Q-58 -220 -59 -223.5 Q-60 -227 -62 -230 Q-67 -239 -74 -243 Q-81 -247 -89 -244 Q-106 -239 -98 -218 Q-93 -206 -89 -194.5 Q-85 -183 -80 -172 Q-79 -170 -79 -169 Q-79 -168 -78 -166 Z M158 266 Q155 262 142 233.5 Q129 205 110.5 164.5 Q92 124 71 77.5 Q50 31 32.5 -9 Q15 -49 3 -76.5 Q-9 -104 -9 -107 Q-8 -107 -7 -106.5 Q-6 -106 -5 -106 Q34 -90 70.5 -69.5 Q107 -49 139 -21 Q174 9 195 43 Q217 76 221 110 Q224 133 220 153 Q216 173 208 193 Q198 213 186 230.5 Q174 248 160 265 Q160 266 158 266 Z M271 605 Q266 605 262.5 605.5 Q259 606 255 605 Q212 601 173 578 Q153 567 136 552.5 Q119 538 106 518 Q95 501 91 482.5 Q87 464 92 445 Q95 429 103 413 Q112 394 123.5 378 Q135 362 148 346 Q149 346 151 344 Q182 410 212 474.5 Q242 539 271 605 Z " />
<glyph glyph-name="percent" unicode="&#x25;" horiz-adv-x="380" d="M101 -60 L93 -68 Q62 -98 31 -127.5 Q0 -157 -32 -187 Q-34 -190 -40 -194 Q-50 -202 -62 -196 Q-72 -190 -72 -176 Q-72 -142 -61.5 -111.5 Q-51 -81 -39 -51 Q-26 -19 -9.5 11.5 Q7 42 24 73 Q87 185 156 289.5 Q225 394 303 496 Q312 508 322 519.5 Q332 531 342 543 Q344 545 345 546.5 Q346 548 348 550 Q346 550 344.5 550.5 Q343 551 341 551 Q328 550 316 549.5 Q304 549 292 549 Q282 548 278 539 Q272 524 263 508 Q247 482 219 479 Q198 476 182 490.5 Q166 505 168 529 Q168 534 170 542 Q178 565 193.5 580.5 Q209 596 232 604 Q240 607 253 605 Q270 603 276 587 L327 590 Q342 591 357 592 Q372 593 387 594 L393 594 Q407 596 413 584 Q418 571 411 560 Q409 558 408 556.5 Q407 555 405 553 Q365 511 330.5 466 Q296 421 262 374 Q199 285 142 194.5 Q85 104 34 8 Q18 -21 4 -51 Q-10 -81 -19 -113 Q-21 -116 -22 -123 Q-20 -121 -19 -120.5 Q-18 -120 -17 -119 Q16 -87 48.5 -55.5 Q81 -24 113 8 Q118 13 123.5 17 Q129 21 137 19 Q137 21 137.5 21.5 Q138 22 138 23 Q145 37 157.5 41.5 Q170 46 184 39 Q200 31 209 16 Q218 1 216 -16 Q215 -52 187 -76 Q165 -93 140 -89 Q117 -86 105 -66 Q105 -66 101 -60 Z M153 -4 Q151 -8 149 -11.5 Q147 -15 145 -20 Q143 -25 141 -29 Q139 -33 138 -38 Q136 -44 140.5 -48 Q145 -52 151 -50 Q158 -47 165 -42 Q174 -31 176 -15 Q177 -5 170 0 Q165 -1 161.5 -2 Q158 -3 153 -4 Z M246 566 Q243 565 239 565 Q217 554 208 531 L208 529 Q208 522 210 520 Q213 516 219 520 Q229 524 234 536 Q240 549 246 566 Z " />
<glyph glyph-name="ampersand" unicode="&#x26;" horiz-adv-x="474" d="M245 33 Q265 46 284 58 Q303 70 320 84 Q324 87 327 90 Q330 93 333 96 Q342 106 355 106 Q363 105 367 99 Q371 93 367 85 Q365 82 363.5 79 Q362 76 359 73 Q353 68 346.5 62 Q340 56 333 51 Q315 38 297 26.5 Q279 15 261 3 Q257 -1 253 -2 Q254 -5 254 -7 Q254 -9 255 -11 Q265 -50 274 -88.5 Q283 -127 292 -165 Q294 -171 295.5 -176.5 Q297 -182 299 -188 Q302 -197 294.5 -205.5 Q287 -214 275 -215 Q263 -216 258 -205 Q254 -197 251 -183 Q245 -160 239.5 -136.5 Q234 -113 228 -90 Q225 -76 222 -63 Q219 -50 215 -36 Q215 -34 213 -28 Q209 -30 206 -32 Q203 -34 199 -36 Q170 -53 141 -71 Q112 -89 83 -106 Q50 -125 18 -138 Q-5 -147 -27 -150 Q-50 -154 -65 -144.5 Q-80 -135 -82 -115 Q-85 -95 -75 -71 Q-66 -46 -52.5 -22.5 Q-39 1 -23 24 Q5 64 36 101.5 Q67 139 100 177 Q113 191 126 206 Q139 221 153 235 Q159 243 158 250 Q155 282 154.5 314 Q154 346 157 379 Q159 409 165.5 439 Q172 469 183 500 Q193 526 207.5 550.5 Q222 575 242 598 Q262 620 284.5 636.5 Q307 653 336 664 Q384 683 424 671 Q453 662 466.5 638.5 Q480 615 474 584 Q469 563 459.5 542.5 Q450 522 436 502 Q419 476 399 452 Q379 428 358 405 Q322 366 285.5 327 Q249 288 213 249 Q212 248 211.5 247 Q211 246 209 245 Q202 238 204 231 Q210 185 219 141.5 Q228 98 239 53 Q241 48 242 43.5 Q243 39 245 33 Z M198 288 L201 288 Q208 296 215 303 Q222 310 229 318 Q259 351 289.5 384 Q320 417 350 450 Q383 487 409 529 Q417 543 423.5 557 Q430 571 432 585 Q436 608 422.5 622.5 Q409 637 383 638 Q366 638 349.5 632.5 Q333 627 317 617 Q300 606 286 593 Q272 580 261 565 Q245 544 235 522.5 Q225 501 217 478 Q206 445 202 413 Q198 381 198 349 L198 288 Z M165 195 Q161 192 157 188 Q139 166 120.5 145 Q102 124 83 102 Q59 73 36.5 43.5 Q14 14 -6 -18 Q-16 -34 -24 -50.5 Q-32 -67 -37 -84 Q-39 -89 -39 -93.5 Q-39 -98 -39 -103 Q-39 -113 -26 -113 Q-12 -113 6 -105 Q20 -99 33 -93.5 Q46 -88 59 -80 Q95 -59 130.5 -37.5 Q166 -16 201 6 Q201 6 205 8 Q193 55 182.5 100.5 Q172 146 165 195 Z " />
<glyph glyph-name="asterisk" unicode="&#x2a;" horiz-adv-x="236" d="M223 648 Q229 637 216 626 Q213 624 210 622 Q207 620 204 618 Q196 613 187.5 608.5 Q179 604 170 598 Q176 598 180.5 597.5 Q185 597 190 597 Q194 596 202 596 Q220 591 214 574 Q206 558 187 558 Q181 558 175.5 558.5 Q170 559 164 559 L157 559 Q160 554 162 551 Q164 548 166 545 Q172 536 176 528 Q180 517 173 507 Q163 495 151 495 Q143 494 137 501 L114 536 Q113 534 112 532 Q111 530 110 528 Q105 517 100.5 506 Q96 495 91 484 Q89 477 85 473 Q75 461 61 463 Q45 467 50 481 Q51 483 51.5 486 Q52 489 53 491 Q58 503 62.5 515 Q67 527 72 539 Q71 538 70 538 Q69 538 67 536 Q45 523 28 508 Q20 499 9 499 Q-3 498 -6.5 507 Q-10 516 -1 527 Q4 532 9 536 Q14 540 19 545 Q25 550 31.5 554.5 Q38 559 46 564 Q41 565 36.5 565 Q32 565 27 565 Q23 565 19 565 Q15 565 10 566 Q-5 569 -3 583 Q-1 592 7 598 Q15 604 26 604 Q34 604 42.5 603.5 Q51 603 59 603 L65 603 Q63 605 63 606.5 Q63 608 62 609 Q59 614 55.5 618.5 Q52 623 49 628 Q45 636 45 642 Q44 650 49.5 656.5 Q55 663 63 666 Q76 671 83 662 Q84 662 84 661 L113 622 Q118 632 122 641.5 Q126 651 131 660 Q133 665 135.5 669.5 Q138 674 142 679 Q155 694 171 687 Q183 681 175 664 Q170 656 167 648.5 Q164 641 159 633 Q162 634 166 636 Q173 640 179 643.5 Q185 647 191 650 Q194 652 196.5 653 Q199 654 202 655 Q218 660 223 648 Z " />
<glyph glyph-name="parenleft" unicode="&#x28;" horiz-adv-x="249" d="M16 173 Q43 257 76 327 Q95 368 115 407.5 Q135 447 158 486 Q179 521 201.5 554 Q224 587 253 619 Q266 633 279.5 647 Q293 661 308 673 Q312 676 315.5 678.5 Q319 681 324 683 Q340 691 347 679 Q354 666 339 654 Q297 622 266.5 583.5 Q236 545 210 503 Q185 463 163.5 423 Q142 383 122 341 Q106 307 91.5 273.5 Q77 240 66 205 Q55 172 46.5 139 Q38 106 33 73 Q28 41 30 10 Q32 -21 39 -50 Q44 -73 50.5 -95.5 Q57 -118 64 -140 Q64 -142 66 -146 Q69 -163 51 -173 Q43 -178 35 -176 Q27 -174 25 -167 Q23 -164 23 -160.5 Q23 -157 21 -154 L6 -103 Q-4 -68 -8.5 -31 Q-13 6 -10 46 Q-8 67 -4.5 88 Q-1 109 4 130 Q7 143 10.5 154.5 Q14 166 16 173 Z " />
<glyph glyph-name="parenright" unicode="&#x29;" horiz-adv-x="385" d="M270 245 Q237 154 191.5 72.5 Q146 -9 86 -88 Q69 -111 51.5 -133.5 Q34 -156 17 -179 Q12 -184 7.5 -188 Q3 -192 -3 -194 Q-14 -197 -19.5 -190.5 Q-25 -184 -20 -173 Q-16 -167 -10 -159 Q13 -128 35.5 -98 Q58 -68 81 -37 Q110 2 134 42 Q158 82 179 124 Q199 165 215 205 Q231 245 244 286 Q258 330 268.5 372.5 Q279 415 287 457 Q301 537 280 607 Q276 621 269 633.5 Q262 646 256 659 Q254 664 253 668 Q252 672 255 677 Q260 688 270.5 692.5 Q281 697 289 692 Q294 690 297 683 Q308 664 316 645 Q324 626 328 604 Q343 522 322 429 Q314 396 306 363 Q298 330 287 297 Q282 282 277.5 268 Q273 254 270 245 Z " />
<glyph glyph-name="hyphen" unicode="&#x2d;" horiz-adv-x="236" d="M51 151 Q49 151 47 151.5 Q45 152 43 152 Q26 155 24 172 Q24 188 40 190 Q42 191 48 191 Q63 191 78 191.5 Q93 192 108 192 Q125 192 141.5 192 Q158 192 175 193 L184 193 Q191 193 197 188.5 Q203 184 204 178 Q209 160 193 155 Q185 153 179 153 Q159 153 140 153 Q121 153 101 152 Q88 152 76 151.5 Q64 151 51 151 Z " />
<glyph glyph-name="underscore" unicode="&#x5f;" horiz-adv-x="371" d="M327 1 L325 1 Q308 7 291.5 6 Q275 5 258 6 L221 6 Q192 5 164 4.5 Q136 4 107 4 Q95 4 83.5 4.5 Q72 5 60 5 Q59 5 58 5.5 Q57 6 55 6 Q39 11 39 26 Q39 42 55 44 Q58 45 61 44.5 Q64 44 67 44 Q90 44 112 44.5 Q134 45 157 45 L215 45 Q236 45 257.5 45 Q279 45 300 44 Q308 44 315 43 Q322 42 329 40 Q336 38 341 33 Q351 23 346 11 Q341 -1 327 1 Z " />
<glyph glyph-name="plus" unicode="&#x2b;" horiz-adv-x="207" d="M118 223 L129 223 Q140 222 152 222 Q164 222 175 221 Q185 219 190 212 Q198 200 185 187 Q171 175 160 181 Q152 184 144 184 L106 184 Q102 184 100 183 Q88 160 78 136 Q72 122 66 108.5 Q60 95 54 81 Q52 79 51 76.5 Q50 74 48 72 Q44 65 37 61.5 Q30 58 24 59 Q17 60 14 65 Q11 70 14 78 Q17 86 20 93 Q23 100 27 108 Q35 125 42 141.5 Q49 158 57 175 Q58 177 58 177.5 Q58 178 59 180 Q57 180 55.5 180.5 Q54 181 52 180 Q40 179 28 178.5 Q16 178 4 176 Q-4 174 -9.5 178 Q-15 182 -14 189 Q-13 197 -7.5 203.5 Q-2 210 7 212 Q16 215 24 215 Q36 217 48 217.5 Q60 218 72 219 Q72 219 78 221 Q82 229 85.5 237.5 Q89 246 93 255 Q101 273 109 291 Q117 309 125 327 Q127 332 131 338 Q141 350 154 348 Q160 347 163 342.5 Q166 338 164 331 Q162 325 159.5 318.5 Q157 312 154 305 L121 230 Q119 226 118 223 Z " />
<glyph glyph-name="equal" unicode="&#x3d;" horiz-adv-x="208" d="M144 130 Q140 130 138 132 Q130 136 120 134 Q100 134 79.5 133.5 Q59 133 38 132 L27 132 Q7 134 7 150 Q7 168 27 170 Q32 170 35.5 170 Q39 170 44 171 Q66 171 87.5 171.5 Q109 172 130 173 Q146 173 157 163 Q167 153 161 141 Q157 131 144 130 Z M44 235 Q44 243 50.5 249 Q57 255 65 253 Q78 251 90 251.5 Q102 252 115 252 L161 252 Q166 252 170.5 252 Q175 252 180 251 Q189 249 194 243 Q199 237 198 229 Q196 221 189.5 216.5 Q183 212 174 213 Q171 213 167.5 213.5 Q164 214 161 214 Q143 213 125 213 Q107 213 88 213 Q83 213 77.5 213 Q72 213 66 214 Q44 216 44 235 Z " />
<glyph glyph-name="braceleft" unicode="&#x7b;" horiz-adv-x="315" d="M344 639 Q357 629 347 615 Q335 600 319 605 Q318 605 314 607 Q300 611 287 601 Q284 599 280.5 596 Q277 593 275 590 Q263 576 256 565 Q242 545 231.5 524 Q221 503 211 481 Q199 455 187.5 429 Q176 403 164 377 Q140 324 95 279 L82 266 Q87 265 90 265 Q93 265 96 264 Q106 262 111 256.5 Q116 251 114 241 Q111 224 104 212 Q91 186 78.5 161.5 Q66 137 53 112 Q42 89 31 66.5 Q20 44 10 21 Q2 3 -3 -14.5 Q-8 -32 -10 -50 Q-12 -76 12 -83 Q18 -85 26 -87 Q27 -87 27.5 -87.5 Q28 -88 29 -88 Q33 -90 36 -94 Q39 -98 34 -108 Q27 -122 17 -123 Q7 -124 5 -123 Q0 -122 -10 -118 Q-57 -104 -51 -52 Q-49 -34 -44 -16 Q-39 2 -32 20 Q-18 55 -0.5 89.5 Q17 124 35 159 Q43 173 50 187 Q57 201 64 215 L70 227 Q64 229 59 229 Q54 229 49 231 Q34 236 31.5 247 Q29 258 40 272 Q45 278 51 284 Q57 290 62 295 Q100 333 120 373 Q127 387 133 401 Q139 415 146 429 Q161 463 176.5 497 Q192 531 212 565 Q220 579 230 592 Q240 605 253 618 Q274 639 303 644 Q327 649 344 639 Z " />
<glyph glyph-name="braceright" unicode="&#x7d;" horiz-adv-x="361" d="M345 611 Q347 602 345.5 593 Q344 584 342 574 Q337 552 328 530 Q319 508 308 486 Q294 457 279 428.5 Q264 400 248 371 Q242 359 235.5 347.5 Q229 336 222 325 Q221 322 218 316 Q222 315 226 312 Q230 310 234 308.5 Q238 307 242 304 Q250 299 248 289.5 Q246 280 236 272 Q234 271 232 269 Q214 258 206 238 Q198 221 191.5 203 Q185 185 179 168 Q165 132 152.5 96 Q140 60 126 24 Q113 -14 90 -52 Q72 -82 47 -103.5 Q22 -125 -10 -140 Q-19 -145 -27.5 -146 Q-36 -147 -42 -142 Q-48 -138 -48 -131 L-48 -130 Q-48 -126 -47 -125 Q-46 -123 -46 -122 Q-46 -121 -45 -119 Q-39 -111 -30 -109.5 Q-21 -108 -13 -105 Q5 -99 19 -88 Q48 -65 63 -33 Q77 -7 88 18.5 Q99 44 108 70 Q119 101 129.5 131.5 Q140 162 151 193 Q155 205 160 217 Q165 229 170 240 Q179 262 196 280 Q192 282 191 282 Q169 296 185 324 Q192 338 199.5 350.5 Q207 363 214 376 Q228 401 240.5 425.5 Q253 450 266 475 Q277 498 288 522 Q294 537 299 551.5 Q304 566 306 581 L306 584 Q308 595 306 597 Q304 599 292 599 Q285 599 279 602 Q271 607 276 619 Q283 632 295 634 Q305 636 314 636.5 Q323 637 331 633 Q343 628 345 611 Z " />
<glyph glyph-name="bracketleft" unicode="&#x5b;" horiz-adv-x="354" d="M64 -114 L98 -114 Q100 -114 101.5 -113 Q103 -112 105 -112 Q121 -107 125 -116 Q129 -126 120 -138 Q110 -149 97 -151 Q73 -153 49 -151 Q43 -151 35 -149 Q14 -141 24 -117 Q29 -106 34 -94 Q39 -82 44 -70 Q56 -44 68.5 -17.5 Q81 9 92 35 Q111 78 128.5 121 Q146 164 165 207 Q182 247 198.5 286 Q215 325 232 365 L277 467 Q291 497 304 526.5 Q317 556 330 586 L342 607 Q353 625 369.5 637 Q386 649 412 651 L431 651 Q449 651 444 634 Q442 627 435.5 621.5 Q429 616 421 614 Q417 613 409 613 Q406 612 403.5 612.5 Q401 613 398 612 Q384 611 376 598 Q370 586 364 574 Q358 562 353 551 Q339 519 325 487.5 Q311 456 297 424 Q285 397 273 369.5 Q261 342 249 314 Q234 280 219.5 246 Q205 212 191 178 Q183 158 175 139 Q167 120 159 100 Q145 69 131.5 38 Q118 7 104 -24 Q96 -44 87 -62.5 Q78 -81 69 -100 Q68 -103 67 -106 Q66 -109 64 -114 Z " />
<glyph glyph-name="bracketright" unicode="&#x5d;" horiz-adv-x="282" d="M335 634 Q341 629 342.5 621.5 Q344 614 343 606 Q341 598 339 590 Q337 582 335 574 Q326 543 314 513 Q302 483 288 453 Q275 424 263 396.5 Q251 369 238 341 Q229 320 219.5 299.5 Q210 279 200 258 Q189 235 179 211.5 Q169 188 159 165 Q147 139 135.5 113 Q124 87 113 61 Q102 35 90.5 9.5 Q79 -16 68 -42 Q56 -71 43 -98 Q41 -104 38.5 -110 Q36 -116 33 -122 Q23 -143 2 -146 Q-9 -148 -19 -149 Q-29 -150 -40 -151 Q-48 -152 -53 -147 Q-58 -142 -57 -134 Q-55 -125 -47 -118 Q-39 -111 -29 -111 Q-26 -112 -21 -112 Q-16 -111 -11 -111 Q-6 -111 -1 -110 Q9 -89 18 -68 Q27 -47 36 -27 Q46 -6 55 15 Q64 36 73 57 Q83 79 92 101 Q101 123 111 145 Q122 169 132.5 193 Q143 217 154 241 Q169 276 184.5 310 Q200 344 216 378 Q227 401 236.5 424 Q246 447 257 470 Q269 498 279.5 525 Q290 552 298 580 Q300 585 301 590.5 Q302 596 303 602 Q298 603 293 603 Q288 603 283 604 Q279 605 275 606 Q271 607 267 609 Q261 612 261 619.5 Q261 627 266 634 Q270 639 275.5 643 Q281 647 287 647 Q289 647 290 646 L290 647 L322 639 Q326 639 328 638 Q330 637 331.5 636.5 Q333 636 335 634 Z " />
<glyph glyph-name="bar" unicode="&#x7c;" horiz-adv-x="319" d="M330 601 Q320 580 311.5 560 Q303 540 294 520 Q285 501 276.5 482 Q268 463 259 444 Q248 418 236.5 393 Q225 368 214 343 Q206 323 197 304 Q188 285 180 265 Q169 240 157.5 215 Q146 190 135 165 Q126 145 117.5 126 Q109 107 100 88 Q89 62 77.5 37.5 Q66 13 55 -13 Q47 -33 38 -52 Q29 -71 21 -91 Q13 -108 5.5 -125 Q-2 -142 -10 -159 Q-15 -170 -24.5 -172.5 Q-34 -175 -42 -167 Q-51 -158 -46 -147 Q-45 -143 -41 -135 Q-33 -115 -24 -96 Q-15 -77 -7 -58 Q4 -32 15.5 -7.5 Q27 17 38 43 Q47 63 55.5 82 Q64 101 73 121 Q84 146 95.5 170.5 Q107 195 118 221 Q126 240 135 259 Q144 278 152 298 Q163 323 174.5 348 Q186 373 197 398 Q206 418 214.5 437.5 Q223 457 232 477 L277 576 Q281 584 284.5 593 Q288 602 292 611 Q294 614 295.5 617.5 Q297 621 299 624 Q308 638 322 631 Q336 625 333 608 Q332 606 331 604 Q330 602 330 601 Z " />
<glyph glyph-name="colon" unicode="&#x3a;" horiz-adv-x="192" d="M96 207 Q88 207 85 214 Q82 221 86 229 Q90 237 97.5 242 Q105 247 113 248 Q121 248 124.5 241.5 Q128 235 123 226 Q120 218 111 212.5 Q102 207 96 207 Z M69 149 Q88 149 78 129 Q74 120 67 114.5 Q60 109 52 109 Q44 109 41 115 Q38 121 41 129 Q45 137 53 143 Q61 149 69 149 Z " />
<glyph glyph-name="quotedbl" unicode="&#x22;" horiz-adv-x="193" d="M99 663 Q97 658 94.5 652 Q92 646 89 639 Q80 619 71.5 599.5 Q63 580 54 560 Q49 549 39 545 Q29 541 20 546 Q9 554 14 568 Q25 594 37 618.5 Q49 643 60 669 Q65 683 79 686 Q89 688 95 681 Q101 674 99 663 Z M148 686 Q158 688 164 681 Q170 674 168 663 Q166 658 163.5 652 Q161 646 158 639 Q149 619 140.5 599.5 Q132 580 123 560 Q118 549 108 545 Q98 541 89 546 Q78 554 83 568 Q94 594 106 618.5 Q118 643 129 669 Q134 683 148 686 Z " />
<glyph glyph-name="quotesingle" unicode="&#x27;" horiz-adv-x="152" d="M107 686 Q117 688 123 681 Q129 674 127 663 Q125 658 122.5 652 Q120 646 117 639 Q108 619 99 599.5 Q90 580 81 560 Q76 549 66.5 545 Q57 541 48 546 Q43 550 41 556 Q39 562 42 568 Q53 594 64.5 618.5 Q76 643 87 669 Q94 683 107 686 Z " />
<glyph glyph-name="grave" unicode="&#x60;" horiz-adv-x="104" d="M18 681 Q24 689 33 689 Q42 689 48 679 Q50 674 52.5 668 Q55 662 58 656 Q66 635 73.5 614.5 Q81 594 89 574 Q94 563 89.5 553 Q85 543 75 541 Q69 539 63 542.5 Q57 546 55 552 Q45 578 35.5 603.5 Q26 629 16 655 Q11 671 18 681 Z " />
<glyph glyph-name="asciicircum" unicode="&#x5e;" horiz-adv-x="174" d="M83 624 Q78 618 73 612.5 Q68 607 63 602 Q55 593 48 583.5 Q41 574 33 564 Q28 557 22 554 Q11 548 3 554 Q-5 560 -3 572 Q-1 582 4 587 Q12 598 20.5 608 Q29 618 38 628 Q53 646 66 658 Q69 662 72.5 664.5 Q76 667 80 669 Q93 677 103 674 Q113 671 117 657 Q119 650 120 643.5 Q121 637 122 629 Q124 618 125 606.5 Q126 595 128 583 Q130 575 134 571 Q142 558 133 546 Q124 532 110 537 Q97 541 94 557 Q92 566 90.5 575.5 Q89 585 87 595 Q86 602 85.5 609 Q85 616 83 624 Z " />
<glyph glyph-name="less" unicode="&#x3c;" horiz-adv-x="201" d="M245 341 Q247 329 234 321 Q231 318 223 314 Q172 286 122 255.5 Q72 225 22 193 Q17 190 15 189 Q13 188 12 186 L121 68 Q126 62 131 55 Q138 47 133 36 Q127 23 113 20 Q98 17 93 27 Q91 31 88.5 35 Q86 39 83 42 Q64 61 45.5 79 Q27 97 8 116 Q0 124 -7.5 133 Q-15 142 -23 152 Q-27 158 -31 170 Q-36 190 -16 207 Q-11 212 -5 216 Q1 220 7 225 Q58 257 109 288 Q160 319 213 348 Q218 350 222.5 352 Q227 354 232 353 Q245 351 245 341 Z " />
<glyph glyph-name="greater" unicode="&#x3e;" horiz-adv-x="262" d="M231 211 Q236 201 233 190 Q229 176 213 163 Q205 156 196 150 Q187 144 178 138 Q138 112 98 86.5 Q58 61 17 35 Q13 33 9.5 30 Q6 27 1 24 Q-11 15 -24 19 Q-35 24 -28 36 Q-26 41 -23 44.5 Q-20 48 -16 51 Q-11 55 -5.5 58 Q0 61 6 65 Q45 91 84.5 116 Q124 141 164 167 Q170 170 175.5 173.5 Q181 177 186 181 Q189 183 189 187 L97 310 Q95 311 94.5 312 Q94 313 93 314 Q90 318 88 321.5 Q86 325 87 330 Q90 344 107 351 Q124 358 131 347 Q133 343 136 340 L145 328 L227 217 Q228 215 229 214 Q230 213 231 211 Z " />
<glyph glyph-name="question" unicode="&#x3f;" horiz-adv-x="484" d="M461 476 Q459 472 459 469 Q452 449 441.5 430.5 Q431 412 417 395 Q397 369 374.5 346.5 Q352 324 329 302 Q303 277 276.5 252.5 Q250 228 223 204 Q186 169 155 130 Q124 91 98 49 Q78 14 57 -24 Q55 -28 53.5 -32 Q52 -36 50 -41 Q45 -55 29 -55 Q13 -55 11 -40 Q11 -31 14 -23 Q20 -6 29 9 Q38 24 47 40 Q66 72 86.5 102 Q107 132 131 161 Q152 187 175.5 209.5 Q199 232 222 255 Q254 284 285 313.5 Q316 343 346 373 Q363 390 377.5 407 Q392 424 404 444 Q413 459 419 475 Q425 491 423 508 Q418 558 370 576 Q351 584 331 584.5 Q311 585 291 580 Q252 572 217.5 555.5 Q183 539 154 511 Q145 502 137.5 491.5 Q130 481 125 470 Q123 465 121 455 Q121 441 131 435 Q141 427 138 415 Q135 404 123 401 Q113 397 103 404 Q90 412 85 424.5 Q80 437 80 451 Q80 468 86.5 482 Q93 496 103 510 Q132 550 179 577 Q211 597 245 608.5 Q279 620 316 622 Q345 624 371 618.5 Q397 613 418 596 Q474 555 462 483 Q462 481 461.5 479.5 Q461 478 461 476 Z M-5 -142 Q3 -144 7 -150.5 Q11 -157 9 -165 Q6 -173 -2 -178.5 Q-10 -184 -18 -182 Q-26 -180 -30 -174 Q-34 -168 -32 -160 Q-29 -151 -21 -145.5 Q-13 -140 -5 -142 Z " />
<glyph glyph-name="period" unicode="&#x2e;" horiz-adv-x="76" d="M38 -20 Q29 -20 23 -14 Q17 -8 17 0 Q17 8 23 14 Q29 20 37 20 Q45 20 51.5 14 Q58 8 58 0 Q58 -8 52 -14 Q46 -20 38 -20 Z " />
<glyph glyph-name="one" unicode="1" horiz-adv-x="258" d="M228 593 Q223 589 219 586 Q215 583 210 580 Q197 569 184 575 Q177 578 175 585 Q173 592 178 598 Q181 603 186 606 Q197 614 209 622 Q221 630 233 638 Q242 644 251 645 Q265 648 274 640.5 Q283 633 281 620 Q279 609 275.5 599.5 Q272 590 267 580 Q239 523 211.5 468 Q184 413 157 356 Q130 299 104.5 242 Q79 185 53 128 Q39 96 25.5 63.5 Q12 31 -2 -1 Q-10 -23 -16 -41 Q-18 -47 -17 -49 Q-14 -62 -27 -69 Q-33 -72 -40.5 -72 Q-48 -72 -53 -67 Q-63 -59 -60 -48 Q-56 -37 -53 -27 Q-50 -17 -46 -6 Q-32 27 -18.5 60.5 Q-5 94 9 127 Q27 168 45 208 Q63 248 82 289 Q107 342 132 394 Q157 446 182 500 Q193 523 205 545 Q217 567 228 590 Q228 591 228.5 591 Q229 591 229 592 Q228 592 228 593 Z " />
<glyph glyph-name="zero" unicode="0" horiz-adv-x="495" d="M477 391 Q472 347 457.5 301.5 Q443 256 421 211 Q396 160 364.5 114 Q333 68 293 26 Q266 -3 235 -26 Q204 -49 169 -66 Q152 -74 134 -79.5 Q116 -85 98 -87 Q32 -93 -4 -40 Q-16 -22 -22 -1.5 Q-28 19 -30 42 Q-32 71 -28 100.5 Q-24 130 -16 159 Q0 213 25 263.5 Q50 314 86 359 Q122 404 160.5 445.5 Q199 487 243 525 Q254 535 265 543 Q276 551 290 556 Q296 558 301.5 559.5 Q307 561 313 560 Q326 557 326 544 Q328 532 314 525 Q314 525 310 523 Q299 521 289.5 515 Q280 509 271 502 Q251 485 232 466.5 Q213 448 194 428 Q174 406 154.5 384 Q135 362 116 339 Q48 252 19 143 Q11 116 8.5 89.5 Q6 63 10 37 Q13 7 27 -15 Q53 -57 108 -48 Q132 -43 154.5 -32.5 Q177 -22 197 -8 Q231 15 259.5 43.5 Q288 72 312 104 Q388 203 424 319 Q438 369 441 416 Q446 487 416 546 Q404 571 383 587 Q356 608 323 599 Q314 597 310 590 Q301 578 287 583 Q281 585 278 591 Q275 597 277 603 Q280 617 293 625 Q304 633 316.5 636 Q329 639 342 640 Q392 640 425 602 Q442 584 452.5 562.5 Q463 541 470 517 Q484 461 477 391 Z " />
<glyph glyph-name="two" unicode="2" horiz-adv-x="322" d="M-5 83 Q6 84 15 85 Q24 86 33 87 Q59 89 86 90.5 Q113 92 139 94 Q150 94 155 89 Q166 78 158 61 Q150 45 136 50 Q132 51 128 51 Q124 51 120 51 Q80 49 40.5 45.5 Q1 42 -40 35 Q-46 33 -52 33 Q-58 33 -64 33 Q-77 33 -80 48 Q-83 62 -72 73 Q-65 81 -55 88 Q6 139 64 193 Q122 247 177 308 Q201 334 223 362.5 Q245 391 265 423 Q273 437 280.5 450 Q288 463 293 478 Q295 485 297 492 Q299 499 300 507 Q303 537 279 542 Q262 545 246 539 Q217 529 191 513 Q165 497 142 471 Q132 460 123.5 447 Q115 434 110 419 Q109 416 108.5 412.5 Q108 409 107 406 Q100 388 87 389 Q81 389 77 394.5 Q73 400 74 408 Q75 419 78 428 Q81 437 86 447 Q109 495 150 528 Q176 549 202 563.5 Q228 578 257 584 Q270 586 282 585.5 Q294 585 305 579 Q322 569 329.5 549 Q337 529 334 503 Q331 483 324 465 Q317 447 308 430 Q291 398 271.5 370 Q252 342 230 316 Q194 272 155.5 232.5 Q117 193 76 156 Q57 138 38 121 Q19 104 0 87 Q-2 86 -2.5 85 Q-3 84 -5 83 Z " />
<glyph glyph-name="three" unicode="3" horiz-adv-x="425" d="M4 -111 Q-2 -109 -6 -109 Q-23 -104 -33.5 -93.5 Q-44 -83 -50 -68 Q-54 -57 -54.5 -45 Q-55 -33 -55 -21 Q-55 -2 -53 16.5 Q-51 35 -46 54 Q-44 62 -41.5 69 Q-39 76 -36 83 Q-27 98 -10 106 Q-2 110 5.5 108.5 Q13 107 16 100 Q19 94 15.5 87 Q12 80 4 75 Q-3 70 -5 61 Q-10 47 -11.5 33.5 Q-13 20 -14 6 Q-15 -16 -14 -37 Q-14 -42 -13 -46 Q-12 -50 -10 -55 Q-2 -76 26 -73 Q40 -72 52.5 -67.5 Q65 -63 78 -57 Q106 -43 130 -25 Q154 -7 176 15 Q199 40 218.5 66.5 Q238 93 252 123 Q291 208 245 275 Q240 282 236 288 Q232 294 228 300 Q213 323 229 350 Q234 358 240.5 366 Q247 374 253 382 Q269 402 285 423 Q301 444 317 465 Q339 494 351 529 Q358 549 357.5 567 Q357 585 347 602 Q336 621 314 625 Q299 628 283 622 Q266 616 251 605.5 Q236 595 222 583 Q212 574 203.5 564 Q195 554 188 543 Q187 541 186 538.5 Q185 536 184 534 Q181 529 184 525 Q191 512 178 501 Q164 491 153 499 Q141 508 143 527 Q144 537 148.5 546 Q153 555 159 563 Q179 592 203.5 614 Q228 636 260 650 Q299 669 332.5 661 Q366 653 383 622 Q395 602 397 579.5 Q399 557 392 533 Q384 504 368.5 478 Q353 452 334 427 Q320 409 305.5 391.5 Q291 374 277 356 Q274 352 271 348 Q268 344 265 340 Q258 330 264 320 Q277 304 285 289 Q311 247 310 197 Q309 151 285 106 Q256 51 215.5 5.5 Q175 -40 119 -74 Q99 -87 78.5 -95.5 Q58 -104 35 -109 Q32 -110 29 -110 Q26 -110 23 -111 L4 -111 Z " />
<glyph glyph-name="four" unicode="4" horiz-adv-x="327" d="M33 379 Q39 379 45 379 Q51 379 57 380 Q89 385 121 389.5 Q153 394 185 399 L239 408 Q242 408 245 412 Q267 459 288.5 505 Q310 551 332 599 Q335 605 337.5 611.5 Q340 618 342 625 Q346 636 353 641 Q363 648 373 642 Q384 637 379 624 Q374 605 367 590 Q347 547 327 504.5 Q307 462 287 419 Q286 418 286 417 Q286 416 285 414 Q290 415 294 415 Q298 415 302 415 Q318 417 321 403 Q323 394 317 386 Q311 378 300 377 Q292 376 284.5 375.5 Q277 375 269 374 Q265 374 264 370 Q237 311 210 252.5 Q183 194 157 135 Q137 89 116.5 44 Q96 -1 76 -47 Q72 -55 69 -63.5 Q66 -72 62 -81 Q58 -91 50 -95.5 Q42 -100 34 -96 Q21 -89 27 -74 Q30 -65 33.5 -56 Q37 -47 41 -38 Q58 0 74.5 38 Q91 76 108 114 Q126 153 143.5 192 Q161 231 179 269 Q190 293 200.5 316.5 Q211 340 222 363 Q223 364 223 365 Q223 366 224 367 Q212 365 201 363.5 Q190 362 179 360 Q149 355 119 351 Q89 347 58 342 Q50 341 41.5 341 Q33 341 25 341 Q20 341 16.5 342 Q13 343 8 345 Q-3 350 -6 361 Q-9 372 -4 385 Q1 399 9 410.5 Q17 422 26 433 Q51 465 76.5 495.5 Q102 526 128 557 Q147 580 166 602.5 Q185 625 205 648 L214 660 Q219 668 226.5 670.5 Q234 673 240 669 Q246 665 247.5 658 Q249 651 244 643 Q229 621 213 603 Q182 566 151.5 530 Q121 494 90 458 Q76 441 64 425 Q52 409 39 392 Q37 390 36 387 Q35 384 33 382 L33 379 Z " />
<glyph glyph-name="six" unicode="6" horiz-adv-x="350" d="M57 -58 Q55 -57 53 -56 Q51 -55 49 -54 Q32 -49 20.5 -38.5 Q9 -28 1 -14 Q-8 1 -11.5 18 Q-15 35 -16 52 Q-17 78 -13 102.5 Q-9 127 -3 152 Q9 203 29 250 Q49 297 75 344 Q104 398 137.5 447.5 Q171 497 213 544 Q227 561 242.5 576 Q258 591 274 607 Q279 612 285.5 616.5 Q292 621 299 626 Q304 630 309.5 631.5 Q315 633 321 634 Q329 635 334 631 Q339 627 341 621 Q343 615 340 609 Q337 603 330 601 Q321 598 314.5 593 Q308 588 302 583 Q281 563 262 543 Q243 523 225 501 Q177 441 138.5 378 Q100 315 70 247 Q48 196 34 138 Q33 135 33 130 Q36 131 37 134 Q51 153 68 170 Q85 187 103 203 Q120 217 136 230 Q152 243 169 256 Q189 272 215 281 Q226 285 237 287 Q248 289 260 287 Q287 282 301 261 Q308 250 310 239 Q312 228 311 216 Q310 199 306 182 Q302 165 295 148 Q269 79 222 23 Q209 8 194.5 -6 Q180 -20 163 -31 Q146 -42 126.5 -49.5 Q107 -57 85 -59 Q83 -59 81 -59.5 Q79 -60 77 -60 Q72 -59 67 -59 Q62 -59 57 -58 Z M25 76 L25 56 Q25 42 27.5 29 Q30 16 37 3 Q59 -34 105 -20 Q128 -13 149 3 Q162 13 173 24.5 Q184 36 194 48 Q232 94 255 152 Q260 166 264.5 180.5 Q269 195 270 210 Q271 218 270.5 224.5 Q270 231 267 239 Q262 251 249 252 Q243 252 238 251 Q233 250 228 248 Q209 241 191 228 Q161 205 133.5 181 Q106 157 82 130 Q75 122 70.5 114.5 Q66 107 61 99 Q59 96 58 93 Q57 90 55 87 Q47 73 31 75 Q29 76 25 76 Z " />
<glyph glyph-name="five" unicode="5" horiz-adv-x="385" d="M353 578 Q364 576 367 567 Q370 558 364 550 Q357 540 344 540 Q315 541 287 541.5 Q259 542 230 542 Q225 542 219.5 542 Q214 542 208 541 Q196 539 187 529 Q185 526 183.5 523.5 Q182 521 180 518 Q160 489 144 457 Q128 425 113 391 Q116 393 118 394 Q120 395 122 396 Q151 413 179 422 Q202 429 223 428.5 Q244 428 264 419 Q281 411 291.5 399.5 Q302 388 310 372 Q326 341 323 303 Q315 164 213 62 Q190 39 158 20 Q156 19 140.5 11.5 Q125 4 102 -1 Q79 -6 53 -5 Q27 -4 4 11 Q-6 18 -13 26 L-16 29 Q-23 35 -27 43 Q-29 46 -31 50 Q-44 77 -23 85 Q-15 88 -8.5 81.5 Q-2 75 2 70 Q8 63 14.5 56.5 Q21 50 29 45 Q43 37 63.5 32 Q84 27 111 36 Q122 40 137 48 Q138 49 139 49.5 Q140 50 141 51 Q173 69 198 96.5 Q223 124 241 156 Q278 218 284 283 Q285 294 284.5 304 Q284 314 283 325 Q283 334 280 342 Q277 350 272 358 Q247 400 195 389 Q177 384 160.5 376.5 Q144 369 129 359 Q121 354 114.5 349.5 Q108 345 101 340 Q93 334 88 332 Q75 325 66 331 Q57 337 59 351 Q60 356 61.5 361 Q63 366 65 371 Q81 409 98.5 446 Q116 483 137 518 Q142 526 147 533 Q152 540 157 548 Q180 578 214 579 Q230 580 245 579.5 Q260 579 275 579 L326 579 Q333 579 339.5 579 Q346 579 353 578 Z " />
<glyph glyph-name="seven" unicode="7" horiz-adv-x="350" d="M409 612 Q443 599 430 569 Q428 561 424 554.5 Q420 548 415 541 Q399 520 383 499 Q367 478 350 457 L308 403 L159 202 L158 201 Q119 146 79.5 91 Q40 36 1 -20 Q-2 -24 -4.5 -27.5 Q-7 -31 -10 -35 Q-19 -47 -31 -46 Q-41 -46 -45.5 -40 Q-50 -34 -47 -26 Q-45 -22 -43 -18.5 Q-41 -15 -39 -11 Q-10 29 17.5 68.5 Q45 108 74 149 Q79 156 83.5 162 Q88 168 93 175 L294 446 L372 545 Q377 552 381 558.5 Q385 565 390 572 Q392 577 391.5 578 Q391 579 386 580 Q379 582 372.5 583 Q366 584 359 584 Q312 585 266 584 Q237 582 208.5 581.5 Q180 581 151 583 Q143 584 136 583.5 Q129 583 121 584 Q104 584 102 597 Q100 605 106 610.5 Q112 616 121 618 Q133 620 146 618 Q204 615 264 618 Q291 620 317.5 620.5 Q344 621 370 619 Q393 617 409 612 Z " />
<glyph glyph-name="eight" unicode="8" horiz-adv-x="350" d="M188 224 Q190 220 192.5 216 Q195 212 197 208 Q205 194 211.5 180.5 Q218 167 223 153 Q231 129 231 106 Q231 83 221 60 Q212 40 195 21 Q166 -11 130 -26.5 Q94 -42 49 -40 Q26 -38 5.5 -31.5 Q-15 -25 -32 -11 Q-86 33 -71 101 Q-67 121 -58.5 139.5 Q-50 158 -39 175 Q-21 204 -1 232 Q19 260 44 284 Q61 301 77 313 Q88 324 103 327 Q101 335 101 338 Q92 384 108 427 Q124 467 156 501 Q183 530 215 553 Q247 576 285 590 Q324 604 361 600 Q369 598 375.5 596.5 Q382 595 388 590 Q412 576 412 549 Q413 535 409 522 Q405 509 399 497 Q387 471 371 449 Q355 427 338 405 Q303 360 266.5 316 Q230 272 192 228 Q191 227 190.5 226 Q190 225 188 224 Z M113 290 Q111 289 108 288 Q105 287 103 285 Q94 277 85 269.5 Q76 262 68 254 Q43 228 22.5 199.5 Q2 171 -15 139 Q-22 126 -27.5 113.5 Q-33 101 -35 87 Q-43 45 -10 20 Q2 9 15.5 4.5 Q29 0 45 -2 Q87 -6 119 10.5 Q151 27 176 59 Q192 79 193 103 Q193 114 191 125 Q189 136 184 146 Q178 160 171.5 173 Q165 186 158 200 Q156 205 152 206 Q140 212 142 226 Q142 229 140 233 Q134 247 127.5 261 Q121 275 113 290 Z M169 260 Q171 263 174 266 Q211 309 246 351.5 Q281 394 315 439 Q329 456 340.5 472.5 Q352 489 362 509 Q369 523 374 541 Q378 559 359 562 Q354 563 350 563 Q346 563 342 563 Q331 563 322 561 Q313 559 303 556 Q212 521 159 443 Q146 423 140 401.5 Q134 380 137 356 Q139 330 148 307 Q157 284 169 260 Z " />
<glyph glyph-name="nine" unicode="9" horiz-adv-x="451" d="M443 479 Q442 477 442 471 Q438 460 435 449.5 Q432 439 428 428 Q426 423 422 415 Q407 374 390.5 334.5 Q374 295 356 255 Q336 213 313 174.5 Q290 136 260 99 Q239 75 215.5 53 Q192 31 163 14 Q143 1 122 -8.5 Q101 -18 78 -23 Q58 -27 39.5 -26.5 Q21 -26 4 -18 Q-10 -12 -20 -2 Q-44 20 -57 50 Q-58 51 -59 55.5 Q-60 60 -60 65.5 Q-60 71 -57.5 77 Q-55 83 -48 86 Q-36 92 -31 87.5 Q-26 83 -24 80 L-24 78 Q-19 62 -10 49 Q-1 36 11 24 Q28 7 58 10 Q75 12 90.5 17 Q106 22 121 30 Q164 52 198 86 Q224 112 244.5 139.5 Q265 167 282 196 Q299 225 313 254.5 Q327 284 340 314 Q348 334 356 353.5 Q364 373 372 393 Q374 398 375.5 402.5 Q377 407 379 412 Q375 409 371 405 Q357 390 342 374.5 Q327 359 312 345 Q281 317 246 298 Q229 289 212.5 283 Q196 277 177 276 Q127 275 105 313 Q91 341 96 376 Q101 402 113.5 425.5 Q126 449 143 472 Q163 496 185.5 517.5 Q208 539 235 558 Q258 573 283 584 Q308 595 336 598 Q357 601 376 598.5 Q395 596 412 585 Q426 577 433.5 566 Q441 555 440 539 Q440 519 425 500 Q427 500 428 499.5 Q429 499 431 499 Q444 492 443 479 Z M325 408 Q346 430 365 452.5 Q384 475 407 496 Q394 503 393 510 Q393 516 396 524 Q401 536 398.5 542.5 Q396 549 385 556 Q366 566 341 563 Q321 561 302 554 Q283 547 266 536 Q205 497 167 442 Q155 425 146.5 407 Q138 389 136 370 Q133 344 145 326 Q156 312 176 312 Q185 312 193 314 Q201 316 209 319 Q220 323 230 328.5 Q240 334 250 341 Q271 355 289.5 372.5 Q308 390 325 408 Z " />
<glyph glyph-name="semicolon" unicode="&#x3b;" horiz-adv-x="192" d="M118 268 Q110 269 107 275.5 Q104 282 108 291 Q112 299 119.5 304 Q127 309 135 309 Q143 309 146.5 302.5 Q150 296 145 287 Q142 279 133.5 273.5 Q125 268 118 268 Z M90 212 Q100 214 106 207 Q112 200 110 189 Q108 184 105.5 178 Q103 172 100 166 Q91 146 82 126 Q73 106 64 86 Q59 75 49.5 71 Q40 67 31 72 Q26 76 24 82 Q22 88 25 94 Q36 120 47.5 144.5 Q59 169 70 195 Q76 209 90 212 Z " />
<glyph glyph-name="comma" unicode="&#x2c;" horiz-adv-x="175" d="M139 107 Q149 109 155 102 Q161 95 159 84 Q156 75 149 61 Q141 41 132 21 Q123 1 114 -19 Q109 -30 99 -34 Q89 -38 81 -33 Q69 -25 74 -11 Q97 38 120 90 Q126 104 139 107 Z " />
<glyph glyph-name="slash" unicode="&#x2f;" horiz-adv-x="472" d="M499 602 Q485 583 472.5 565.5 Q460 548 447 530 Q435 513 423 496 Q411 479 398 462 Q382 439 366 417 Q350 395 334 372 Q321 355 309 337.5 Q297 320 284 303 Q268 281 252.5 259 Q237 237 220 214 Q208 197 195.5 179.5 Q183 162 171 145 Q154 123 138.5 101 Q123 79 107 56 Q94 39 81.5 21.5 Q69 4 57 -13 Q46 -29 35 -44 Q24 -59 13 -74 Q6 -84 -4 -84 Q-14 -84 -20 -76 Q-26 -65 -20 -55 Q-17 -49 -12 -44 L36 25 Q53 47 69 69 Q85 91 101 114 Q114 131 126 148.5 Q138 166 151 183 Q167 206 182.5 228 Q198 250 215 272 Q227 289 239.5 306.5 Q252 324 264 341 Q280 364 296 385.5 Q312 407 328 430 Q341 447 353 465 Q365 483 378 500 Q394 522 410 544 Q426 566 442 588 Q447 596 452.5 603.5 Q458 611 464 619 L473 631 Q478 636 485 636.5 Q492 637 497 633 Q511 624 503 609 Q501 604 499 602 Z " />
<glyph glyph-name="backslash" unicode="&#x5c;" horiz-adv-x="262" d="M42 637 Q48 614 53 593 Q58 572 63 551 Q68 531 73.5 510.5 Q79 490 84 469 Q91 443 97.5 416 Q104 389 111 362 Q116 342 121 321 Q126 300 131 280 Q138 253 144.5 226.5 Q151 200 158 173 Q163 153 168 132 Q173 111 178 91 Q185 65 191.5 38 Q198 11 205 -15 Q210 -36 215 -57 Q220 -78 225 -99 Q230 -117 234.5 -135 Q239 -153 244 -172 Q246 -183 240 -191 Q234 -199 223 -197 Q212 -196 207 -184 Q206 -181 205.5 -177.5 Q205 -174 204 -171 Q199 -151 194 -130.5 Q189 -110 184 -90 L157 18 Q152 38 146.5 59 Q141 80 136 100 Q129 127 123 153.5 Q117 180 110 206 Q105 227 99.5 247.5 Q94 268 89 289 Q82 315 76 342 Q70 369 63 395 Q58 416 52.5 437 Q47 458 42 478 Q35 505 28.5 531.5 Q22 558 16 584 Q14 593 11 602.5 Q8 612 6 621 L3 636 Q3 651 17 656 Q33 659 40 644 Q42 638 42 637 Z " />
<glyph glyph-name="dieresis" unicode="&#xa8;" horiz-adv-x="243" d="M191 650 Q182 650 176 656 Q170 662 170 670 Q170 678 176 684 Q182 690 190 690 Q198 690 204.5 684 Q211 678 211 670 Q211 662 205 656 Q199 650 191 650 Z M255 650 Q246 650 240 656 Q234 662 234 670 Q234 678 240 684 Q246 690 254 690 Q262 690 268.5 684 Q275 678 275 670 Q275 662 269 656 Q263 650 255 650 Z " />
<glyph glyph-name="ydieresis" unicode="&#xff;" horiz-adv-x="315" d="M334 264 Q338 254 332 246 Q329 242 326 239 L78 73 Q73 70 72 65 Q55 30 38.5 -6 Q22 -42 5 -77 Q-21 -132 -62 -176 Q-82 -196 -104 -212.5 Q-126 -229 -152 -239 Q-157 -241 -162 -242.5 Q-167 -244 -173 -245 Q-185 -248 -202 -246 Q-215 -245 -228 -238 Q-255 -222 -255 -188 Q-254 -106 -184 -46 Q-164 -28 -142.5 -14 Q-121 0 -98 12 L22 78 Q27 81 32.5 84.5 Q38 88 43 91 Q46 94 46 95 L85 182 L84 182 Q82 181 81.5 180 Q81 179 79 178 Q68 166 56 154 Q44 142 31 131 Q20 120 1 113 Q-13 109 -23 113.5 Q-33 118 -37 130 Q-42 142 -41.5 155 Q-41 168 -37 182 Q-37 185 -35 189 Q-26 218 -18.5 236.5 Q-11 255 -5 265 Q1 275 5 279 Q9 283 10 283 Q10 283 12 284 Q23 289 31 281 Q39 273 33 261 Q28 250 21.5 238 Q15 226 10 214 Q5 200 1 186.5 Q-3 173 -3 159 L-3 153 Q-3 152 -2.5 151.5 Q-2 151 -2 149 Q0 151 3 152.5 Q6 154 8 156 Q18 165 27.5 174 Q37 183 47 193 Q61 207 74 221.5 Q87 236 101 250 Q107 256 110 258 Q124 268 133 263 Q145 257 142 243 Q139 228 133 213 Q126 193 118.5 174 Q111 155 103 135 Q102 134 101 130 L103 132 L315 269 Q319 271 323 272 Q326 272 329 270.5 Q332 269 334 264 Z M4 2 Q8 11 12 19.5 Q16 28 20 37 Q19 36 17 36 Q-7 23 -30.5 10 Q-54 -3 -78 -16 Q-98 -27 -117 -38.5 Q-136 -50 -153 -64 Q-167 -75 -179.5 -88 Q-192 -101 -200 -117 Q-218 -151 -217 -186 Q-215 -200 -203 -206 Q-189 -212 -173 -208 Q-157 -204 -143 -196.5 Q-129 -189 -115 -178 Q-92 -161 -75 -139.5 Q-58 -118 -44 -94 Q-30 -71 -18.5 -46.5 Q-7 -22 4 2 Z M67 371 Q58 371 52 377 Q46 383 46 391 Q46 399 52 405 Q58 411 66 411 Q74 411 80.5 405 Q87 399 87 391 Q87 383 81 377 Q75 371 67 371 Z M131 371 Q122 371 116 377 Q110 383 110 391 Q110 399 116 405 Q122 411 130 411 Q138 411 144.5 405 Q151 399 151 391 Q151 383 145 377 Q139 371 131 371 Z " />
<glyph glyph-name="odieresis" unicode="&#xf6;" horiz-adv-x="233" d="M248 262 Q250 253 247 248 Q244 243 237 239 Q228 234 219 229 Q210 224 201 219 Q176 207 149.5 198.5 Q123 190 96 186 Q93 185 89 185 Q85 184 72 184 Q72 179 70 169 Q70 167 69.5 166 Q69 165 69 164 Q66 152 62 145 Q49 109 16 84 Q-16 60 -51 63 Q-74 65 -87 79 Q-100 93 -101 115 Q-101 139 -94 160 Q-83 186 -68 209 Q-55 229 -38 246.5 Q-21 264 1 272 Q4 274 11 275 Q18 276 27 274 Q29 274 33 272 Q43 269 46 258 Q47 256 47.5 255 Q48 254 50 252 Q55 251 61 245 Q65 239 66 236 Q66 235 67 231.5 Q68 228 70 221 L81 221 Q82 222 84 222 Q90 222 92 223 Q133 229 168 245 L216 266 Q226 270 231 271 Q234 272 239 272 Q246 271 248 262 Z M31 198 Q33 203 29 205 Q24 211 20.5 217.5 Q17 224 17 233 Q9 231 5 230 Q-5 223 -11 216 Q-42 185 -56 138 Q-59 128 -58 119 Q-58 105 -44 105 Q-28 105 -14 114 Q9 130 19 151 Q29 172 31 198 Z M23 337 Q14 337 8 343 Q2 349 2 357 Q2 365 8 371 Q14 377 22 377 Q30 377 36.5 371 Q43 365 43 357 Q43 349 37 343 Q31 337 23 337 Z M87 337 Q78 337 72 343 Q66 349 66 357 Q66 365 72 371 Q78 377 86 377 Q94 377 100.5 371 Q107 365 107 357 Q107 349 101 343 Q95 337 87 337 Z " />
<glyph glyph-name="udieresis" unicode="&#xfc;" horiz-adv-x="296" d="M319 266 Q324 261 324 252.5 Q324 244 319 239 Q299 223 280.5 207.5 Q262 192 242 176 Q224 162 206.5 148.5 Q189 135 170 122 Q161 116 152 109.5 Q143 103 133 97 Q124 92 115 86 Q106 80 96 75 Q88 71 79 71 Q70 71 63 78 Q58 83 56.5 89.5 Q55 96 56 103 Q57 111 58 118 Q59 125 61 133 Q63 139 65 147.5 Q67 156 70 164 Q73 173 77 182 L70 175 Q60 165 50.5 154.5 Q41 144 30 134 Q22 127 14.5 120.5 Q7 114 -1 108 Q-12 99 -27 101 Q-34 103 -36 105 Q-46 113 -46 131.5 Q-46 150 -41 171.5 Q-36 193 -28.5 213 Q-21 233 -17 244 Q-10 261 -4.5 266.5 Q1 272 4 274 Q12 276 16 276 Q26 276 30.5 268.5 Q35 261 31 251 Q29 248 28 244.5 Q27 241 25 238 Q22 233 19.5 227.5 Q17 222 15 217 Q15 217 13 213 Q11 210 10.5 207 Q10 204 8 201 Q5 192 2.5 184 Q0 176 -2 169 Q-4 161 -5 155 Q7 166 18 177 L51 210 L51 211 Q56 216 61 221 Q66 226 71 231 Q79 239 87 245.5 Q95 252 103 260 Q113 268 124 268 Q132 268 138 264 Q144 260 144 252 Q145 242 142 232 Q140 229 139.5 226.5 Q139 224 137 221 L98 121 Q100 123 104 125 Q138 146 170 170 Q174 173 178 176 Q182 179 186 182 Q189 184 193 188 Q195 189 195.5 189.5 Q196 190 198 191 L199 191 L199 192 Q207 198 214.5 204 Q222 210 230 216 Q245 229 260.5 241.5 Q276 254 291 266 Q305 278 319 266 Z M63 379 Q54 379 48 385 Q42 391 42 399 Q42 407 48 413 Q54 419 62 419 Q70 419 76.5 413 Q83 407 83 399 Q83 391 77 385 Q71 379 63 379 Z M127 379 Q118 379 112 385 Q106 391 106 399 Q106 407 112 413 Q118 419 126 419 Q134 419 140.5 413 Q147 407 147 399 Q147 391 141 385 Q135 379 127 379 Z " />
<glyph glyph-name="idieresis" unicode="&#xef;" horiz-adv-x="230" d="M250 265 Q245 273 238 272.5 Q231 272 223 268 Q194 254 165 237 Q136 220 110 202 Q89 187 67.5 172 Q46 157 25 143 Q16 137 6.5 132 Q-3 127 -12 122 Q-15 120 -17.5 120 Q-20 120 -23 119 Q-23 123 -23 123 Q-23 128 -22 130 Q-14 159 -2 185 Q10 211 24 237 Q34 254 23 266 Q10 279 -4 266 Q-34 219 -45.5 188.5 Q-57 158 -59 147 Q-61 139 -62 132.5 Q-63 126 -64 118 Q-66 104 -60 93 Q-54 82 -43 77 Q-33 73 -21 74 Q0 77 15 87 Q30 97 45.5 106 Q61 115 75 126 Q99 142 122.5 158 Q146 174 169 190 Q170 191 170.5 191 Q171 191 172 192 L246 239 Q249 243 252 247 Q254 251 254.5 255.5 Q255 260 250 265 Z M37 352 Q28 352 22 358 Q16 364 16 372 Q16 380 22 386 Q28 392 36 392 Q44 392 50.5 386 Q57 380 57 372 Q57 364 51 358 Q45 352 37 352 Z M101 352 Q92 352 86 358 Q80 364 80 372 Q80 380 86 386 Q92 392 100 392 Q108 392 114.5 386 Q121 380 121 372 Q121 364 115 358 Q109 352 101 352 Z " />
<glyph glyph-name="edieresis" unicode="&#xeb;" horiz-adv-x="247" d="M272 266 Q277 261 277.5 252.5 Q278 244 272 239 Q254 222 235 207.5 Q216 193 196 179 Q179 167 162.5 156 Q146 145 129 134 Q104 117 78.5 101 Q53 85 24 77 Q12 74 -1.5 73.5 Q-15 73 -27 76.5 Q-39 80 -48 88 Q-57 96 -61 110 Q-69 136 -61.5 164 Q-54 192 -43 216 Q-33 238 -16.5 257.5 Q0 277 26 282 Q44 286 62.5 275 Q81 264 78 242 Q75 225 60 210 Q41 193 22 188.5 Q3 184 -6 185 L-12 185 L-15 176 Q-22 157 -22 140 Q-22 132 -18.5 123.5 Q-15 115 -7 113 Q1 111 10 113.5 Q19 116 27 119 Q39 124 50.5 130.5 Q62 137 74 145 Q87 153 99.5 161.5 Q112 170 125 178 Q141 188 156.5 199 Q172 210 188 221 Q192 223 195.5 226 Q199 229 203 232 L206 234 L208 236 Q211 239 215 241 Q223 247 230 253.5 Q237 260 244 266 Q250 272 258 272 Q266 272 272 266 Z M34 243 Q26 241 19.5 235.5 Q13 230 8 223 L9 223 Q11 225 13 225 Q14 226 15 226.5 Q16 227 17 228 Q19 229 19.5 229.5 Q20 230 22 231 Q22 231 24 232 Q27 236 35 242 Q35 243 34 243 Z M44 376 Q35 376 29 382 Q23 388 23 396 Q23 404 29 410 Q35 416 43 416 Q51 416 57.5 410 Q64 404 64 396 Q64 388 58 382 Q52 376 44 376 Z M108 376 Q99 376 93 382 Q87 388 87 396 Q87 404 93 410 Q99 416 107 416 Q115 416 121.5 410 Q128 404 128 396 Q128 388 122 382 Q116 376 108 376 Z " />
<glyph glyph-name="adieresis" unicode="&#xe4;" horiz-adv-x="278" d="M300 266 Q305 261 305 252.5 Q305 244 300 239 Q283 222 265.5 205.5 Q248 189 231 172 Q215 158 199.5 143.5 Q184 129 167 115 Q158 108 149.5 101.5 Q141 95 132 88 Q121 79 108 72.5 Q95 66 81 66 Q50 68 41 96 Q39 102 38.5 107.5 Q38 113 37 119 Q37 122 36.5 125 Q36 128 36 131 Q36 132 36 135 Q36 138 37 139 Q26 130 14 122 Q2 114 -12 109 Q-20 107 -31.5 107.5 Q-43 108 -51 117 Q-64 130 -64 149.5 Q-64 169 -61 182 Q-56 199 -49 212.5 Q-42 226 -33 239 Q-7 277 36 291 Q43 293 52.5 294 Q62 295 71 292.5 Q80 290 86.5 284 Q93 278 95 266 Q96 264 96 262.5 Q96 261 98 260 Q111 245 103 220 Q99 209 95.5 198 Q92 187 89 176 Q85 165 82.5 153.5 Q80 142 78 130 Q76 123 77 112.5 Q78 102 90 107 Q93 109 96 110.5 Q99 112 102 114 Q118 125 132 136.5 Q146 148 160 160 Q189 186 216.5 212.5 Q244 239 272 266 Q278 272 286 272 Q294 272 300 266 Z M23 177 Q40 194 49.5 208.5 Q59 223 64 234 Q69 247 71 258 L70 258 Q55 256 42 246 Q29 236 18.5 222.5 Q8 209 0 194.5 Q-8 180 -12 170 Q-12 169 -13.5 165.5 Q-15 162 -16 158.5 Q-17 155 -16.5 152.5 Q-16 150 -12 151 Q-4 155 5 161 Q10 165 14 168.5 Q18 172 23 177 Z M56 390 Q47 390 41 396 Q35 402 35 410 Q35 418 41 424 Q47 430 55 430 Q63 430 69.5 424 Q76 418 76 410 Q76 402 70 396 Q64 390 56 390 Z M120 390 Q111 390 105 396 Q99 402 99 410 Q99 418 105 424 Q111 430 119 430 Q127 430 133.5 424 Q140 418 140 410 Q140 402 134 396 Q128 390 120 390 Z " />
<glyph glyph-name="Udieresis" unicode="&#xdc;" horiz-adv-x="643" d="M395 365 Q387 353 379 341 Q371 329 363 317 Q334 275 304 233.5 Q274 192 241 152 Q220 126 197 101.5 Q174 77 147 55 Q133 44 119 34 Q105 24 88 18 Q32 -4 -1 35 Q-11 47 -16 61 Q-21 75 -23 90 Q-27 113 -26.5 136.5 Q-26 160 -22 185 Q-14 240 3.5 294 Q21 348 42 402 Q61 451 83 498 Q105 545 128 593 Q135 607 141 621.5 Q147 636 154 650 Q156 655 158.5 659.5 Q161 664 166 667 Q181 679 193 670 Q205 659 194 645 Q193 644 191 640 Q175 607 160 574.5 Q145 542 129 509 Q103 452 80 394.5 Q57 337 40 278 Q31 248 25 218.5 Q19 189 17 159 Q15 139 16 119 Q17 99 25 81 Q30 68 38 60 Q54 43 82 55 Q93 59 102.5 65 Q112 71 120 79 Q142 96 160.5 115 Q179 134 196 154 Q231 195 262.5 237 Q294 279 323 323 Q362 383 401 442 Q440 501 479 561 Q484 570 490 578.5 Q496 587 502 595 Q505 601 510 606 Q523 620 537 615 Q543 613 546 607 Q549 601 546 593 Q542 583 538 573.5 Q534 564 529 554 Q502 497 474.5 440 Q447 383 420 326 Q393 268 368.5 210 Q344 152 323 93 Q314 69 307 44.5 Q300 20 295 -4 Q291 -21 289.5 -37 Q288 -53 290 -69 Q291 -76 295 -83 Q300 -92 312 -88 Q324 -84 336 -76 Q355 -64 371 -49.5 Q387 -35 402 -20 Q453 32 493 84 Q525 124 557 163.5 Q589 203 621 243 Q625 248 628 252 Q631 256 635 261 Q643 272 656 272 Q668 272 671 261 Q674 253 666 242 L630 194 Q594 150 558.5 107 Q523 64 487 20 Q464 -6 440 -31.5 Q416 -57 389 -80 Q375 -92 360 -102.5 Q345 -113 328 -121 Q310 -129 294 -128.5 Q278 -128 265 -117 Q259 -112 255.5 -104.5 Q252 -97 250 -89 Q247 -75 247 -61 Q247 -47 249 -33 Q255 15 270.5 60.5 Q286 106 304 152 Q324 205 347 256.5 Q370 308 394 360 Q395 362 395 362.5 Q395 363 396 365 L395 365 Z M354 778 Q345 778 339 784 Q333 790 333 798 Q333 806 339 812 Q345 818 353 818 Q361 818 367.5 812 Q374 806 374 798 Q374 790 368 784 Q362 778 354 778 Z M418 778 Q409 778 403 784 Q397 790 397 798 Q397 806 403 812 Q409 818 417 818 Q425 818 431.5 812 Q438 806 438 798 Q438 790 432 784 Q426 778 418 778 Z " />
<glyph glyph-name="Odieresis" unicode="&#xd6;" horiz-adv-x="627" d="M651 263 Q655 256 651.5 248.5 Q648 241 641 236 Q620 222 596 212 Q508 177 418 192 Q418 191 417.5 190.5 Q417 190 417 189 Q416 187 415 185.5 Q414 184 413 182 L395 149 Q394 148 393.5 147 Q393 146 392 145 Q372 110 348.5 77 Q325 44 297 13 Q264 -23 227.5 -53 Q191 -83 147 -106 Q128 -116 109 -123 Q90 -130 70 -132 Q32 -137 1.5 -124.5 Q-29 -112 -47 -77 Q-55 -61 -58.5 -43.5 Q-62 -26 -64 -8 Q-66 21 -62.5 50.5 Q-59 80 -53 109 Q-32 208 7 299.5 Q46 391 103 479 Q129 520 159.5 556.5 Q190 593 226 625 Q240 638 254.5 649.5 Q269 661 286 669 Q298 676 307 677 Q319 679 325.5 671 Q332 663 328 652 Q323 642 315 639 Q304 636 295 630.5 Q286 625 277 618 Q249 596 225.5 571.5 Q202 547 180 519 Q141 470 110.5 417.5 Q80 365 55 309 Q35 266 20 223 Q5 180 -6 135 Q-14 106 -18 78.5 Q-22 51 -23 22 Q-24 6 -23 -9.5 Q-22 -25 -17 -39 Q-14 -48 -10 -56 Q9 -96 57 -93 Q72 -92 86.5 -88 Q101 -84 115 -78 Q143 -66 168 -49 Q193 -32 216 -12 Q250 16 278 49 Q306 82 330 118 Q341 136 352 154.5 Q363 173 374 192 Q376 194 376.5 196.5 Q377 199 379 201 Q377 202 376 202.5 Q375 203 373 203 Q268 246 262 359 Q260 401 271.5 441 Q283 481 306 519 Q325 552 353 571 Q374 586 397 589 Q418 591 434 583.5 Q450 576 462 561 Q472 549 477.5 535 Q483 521 486 506 Q491 480 491 455 Q491 430 487 404 Q478 340 455 275 Q453 271 448.5 258.5 Q444 246 436 229 L438 229 Q440 228 444 228 Q448 228 451 227.5 Q454 227 458 227 Q469 226 481 226.5 Q493 227 505 228 Q507 228 508.5 228.5 Q510 229 512 229 L514 229 Q517 230 520 230 Q523 230 526 231 Q531 232 536.5 233 Q542 234 548 236 Q553 238 559 239.5 Q565 241 570 243 Q572 244 575 244.5 Q578 245 581 247 L582 247 L588 250 Q598 254 607 259 Q616 264 625 270 Q632 275 639.5 272 Q647 269 651 263 Z M383 244 Q386 242 389.5 241.5 Q393 241 396 239 Q398 240 398 241 Q400 243 400 243 Q423 295 436.5 348 Q450 401 450 456 Q450 470 448.5 483.5 Q447 497 442 509 Q437 528 425 539 Q409 555 385 545 Q376 541 368 534 Q352 521 341 502 Q320 467 310 431 Q300 395 303 357 Q310 277 383 244 Z M402 795 Q393 795 387 801 Q381 807 381 815 Q381 823 387 829 Q393 835 401 835 Q409 835 415.5 829 Q422 823 422 815 Q422 807 416 801 Q410 795 402 795 Z M466 795 Q457 795 451 801 Q445 807 445 815 Q445 823 451 829 Q457 835 465 835 Q473 835 479.5 829 Q486 823 486 815 Q486 807 480 801 Q474 795 466 795 Z " />
<glyph glyph-name="Idieresis" unicode="&#xcf;" horiz-adv-x="432" d="M458 266 Q465 261 464 253 Q463 245 458 239 Q441 216 418 199 Q395 182 370 168 Q347 155 322 144.5 Q297 134 272 125 Q245 116 217.5 110.5 Q190 105 162 101 Q157 93 152 86 Q145 76 138.5 66.5 Q132 57 124 48 Q107 27 89 8.5 Q71 -10 48 -24 Q44 -26 41 -28 Q38 -30 35 -32 Q23 -39 10.5 -43.5 Q-2 -48 -16 -50 Q-29 -52 -42 -51 Q-55 -50 -66 -43 Q-80 -35 -88.5 -20.5 Q-97 -6 -96 14 Q-96 19 -95.5 23.5 Q-95 28 -94 33 L-94 34 Q-94 35 -93.5 36 Q-93 37 -93 38 Q-93 40 -92.5 40.5 Q-92 41 -92 43 Q-91 44 -91 46 Q-84 67 -71 80.5 Q-58 94 -43.5 102.5 Q-29 111 -16 115 Q-3 119 4 121 Q15 123 27 124.5 Q39 126 50 128 Q73 131 96 133.5 Q119 136 142 138 Q142 139 143 140 L143 141 Q146 146 148.5 150 Q151 154 154 159 Q183 210 210.5 260 Q238 310 262 364 Q279 402 295.5 440.5 Q312 479 329 517 Q343 549 357 579.5 Q371 610 385 642 Q388 648 390.5 654.5 Q393 661 395 667 Q396 669 396 672 Q396 675 397 678 Q389 678 385 677 Q355 671 325 665 Q295 659 264 652 Q256 650 250 650 Q232 647 230 664 Q228 680 245 687 Q247 688 248.5 688 Q250 688 252 689 Q285 696 318 702.5 Q351 709 384 715 Q398 718 409 717 Q436 717 438 689 Q439 678 436.5 668.5 Q434 659 429 649 Q417 620 404 592 Q391 564 379 535 Q361 495 343.5 455.5 Q326 416 309 376 Q286 325 261 274 Q260 273 253.5 261 Q247 249 236.5 230 Q226 211 213.5 188.5 Q201 166 188 144 Q195 146 201 146.5 Q207 147 213 149 Q227 152 240.5 156 Q254 160 267 165 Q274 167 280.5 170 Q287 173 294 175 Q295 175 296 176 Q297 176 297.5 176.5 Q298 177 299 177 Q301 179 304 179 Q307 181 309.5 182 Q312 183 315 184 Q326 189 337 194.5 Q348 200 359 206 Q364 210 369.5 213 Q375 216 380 219 Q382 221 384.5 223 Q387 225 390 227 Q390 227 392 229 L393 229 L394 230 Q394 230 396 232 Q414 246 431 266 Q436 273 444.5 272 Q453 271 458 266 Z M85 58 Q101 77 114 96 Q111 96 108.5 95.5 Q106 95 103 95 L76 92 Q72 91 68.5 91 Q65 91 61 90 Q56 90 54 89 L51 89 L49 89 Q48 89 48 88.5 Q48 88 47 88 L46 88 L43 88 Q41 88 40 87.5 Q39 87 37 87 Q33 86 30 86 Q27 86 23 85 Q17 83 10.5 82.5 Q4 82 -2 80 Q-6 79 -15 75.5 Q-24 72 -33 65 Q-42 58 -49 46.5 Q-56 35 -56 19 Q-56 3 -45.5 -6.5 Q-35 -16 -10 -10 Q-1 -8 8 -4 Q17 0 25 5 Q42 16 56.5 29 Q71 42 85 58 Z M359 799 Q350 799 344 805 Q338 811 338 819 Q338 827 344 833 Q350 839 358 839 Q366 839 372.5 833 Q379 827 379 819 Q379 811 373 805 Q367 799 359 799 Z M423 799 Q414 799 408 805 Q402 811 402 819 Q402 827 408 833 Q414 839 422 839 Q430 839 436.5 833 Q443 827 443 819 Q443 811 437 805 Q431 799 423 799 Z " />
<glyph glyph-name="Edieresis" unicode="&#xcb;" horiz-adv-x="567" d="M591 266 Q596 261 596 252.5 Q596 244 591 239 Q559 211 526 183.5 Q493 156 461 129 Q401 79 342 31 Q283 -17 220 -62 Q205 -73 189.5 -84.5 Q174 -96 158 -107 Q144 -117 129 -127 Q114 -137 99 -145 Q76 -159 54 -166 Q27 -175 7.5 -174.5 Q-12 -174 -25.5 -168.5 Q-39 -163 -47.5 -154.5 Q-56 -146 -60 -138 Q-78 -105 -72 -56 Q-68 -29 -58.5 -4 Q-49 21 -36 45 Q-17 80 6.5 111 Q30 142 57 171 Q145 267 257 319 Q258 319 262 321 Q250 322 239.5 322 Q229 322 219 323 Q210 325 201 326 Q192 327 184 330 Q131 348 128 410 Q127 434 134 456.5 Q141 479 152 501 Q179 551 214.5 590.5 Q250 630 297 660 Q319 674 341.5 682.5 Q364 691 388 694 Q427 699 459 684 Q506 662 503 604 Q502 579 496 555 Q490 531 479 508 Q476 500 471.5 493 Q467 486 462 479 Q457 471 449 469 Q441 467 434 472 Q428 476 426.5 484 Q425 492 430 500 Q435 508 440 516 Q445 524 448 533 Q458 563 463 593 Q468 638 428 649 Q407 654 386.5 651 Q366 648 345 640 Q332 635 320 627.5 Q308 620 296 612 Q230 563 189 488 Q173 461 170 433 Q169 428 169 423.5 Q169 419 169 414 Q172 371 213 368 Q249 365 284 365 Q310 365 335.5 365.5 Q361 366 387 367 Q396 367 401 366 Q413 363 415 349 Q417 335 403 326 Q399 324 395.5 323 Q392 322 388 320 Q365 312 341 305 Q317 298 294 290 Q231 267 177.5 227.5 Q124 188 77 136 Q53 109 31.5 79.5 Q10 50 -6 18 Q-17 -2 -24 -23 Q-31 -44 -33 -66 Q-35 -82 -30 -97 Q-23 -123 -7 -129.5 Q9 -136 28.5 -132 Q48 -128 68 -117.5 Q88 -107 102 -98 Q133 -78 162.5 -56.5 Q192 -35 221 -13 Q229 -8 236 -2 Q243 4 251 9 L266 21 L267 21 Q269 23 271 24 L277 30 Q292 41 306.5 52.5 Q321 64 335 75 Q394 123 450 170.5 Q506 218 563 266 Q576 279 591 266 Z M400 837 Q391 837 385 843 Q379 849 379 857 Q379 865 385 871 Q391 877 399 877 Q407 877 413.5 871 Q420 865 420 857 Q420 849 414 843 Q408 837 400 837 Z M464 837 Q455 837 449 843 Q443 849 443 857 Q443 865 449 871 Q455 877 463 877 Q471 877 477.5 871 Q484 865 484 857 Q484 849 478 843 Q472 837 464 837 Z " />
<glyph glyph-name="Adieresis" unicode="&#xc4;" horiz-adv-x="866" d="M886 269 Q893 265 894.5 257.5 Q896 250 893 243 Q890 238 887 233.5 Q884 229 881 224 Q851 184 805 162.5 Q759 141 712 127 Q694 122 675.5 117.5 Q657 113 638 110 Q632 95 625.5 80 Q619 65 613 51 Q613 49 612 49 L612 47 Q610 45 610 43 Q608 39 606 33 Q604 28 602 24 Q600 20 598 15 Q594 5 590 -4.5 Q586 -14 582 -24 Q574 -44 566 -63 Q558 -82 550 -102 Q543 -119 526 -116 Q518 -114 513.5 -106.5 Q509 -99 512 -92 Q530 -47 548.5 -3 Q567 41 586 86 Q588 91 590 95 Q592 99 594 103 Q568 101 543 99.5 Q518 98 492 100 Q478 100 463 101 Q448 102 434 104 Q420 84 405.5 63.5 Q391 43 376 23 Q343 -25 306.5 -71 Q270 -117 224 -154 Q201 -173 175 -189 Q149 -205 120 -215 Q90 -224 58.5 -222.5 Q27 -221 0 -204 Q-41 -179 -60 -138 Q-79 -97 -86 -51 Q-90 -19 -87 6.5 Q-84 32 -78 51 Q-72 70 -64.5 82.5 Q-57 95 -52 102 Q-47 107 -42.5 112 Q-38 117 -33 122 Q5 155 57 168 Q84 175 112 176.5 Q140 178 168 177 Q226 174 283 165 Q311 161 338.5 156.5 Q366 152 395 148 Q397 148 398.5 147.5 Q400 147 402 147 Q404 147 405 146 L406 146 Q412 146 415 145 Q420 151 424 157.5 Q428 164 433 170 L514 280 Q523 292 532 304 Q541 316 549 327 Q589 381 629 433 Q669 485 710 538 Q715 545 720 551 Q725 557 730 564 L799 653 L800 654 Q803 658 814.5 672 Q826 686 840 698 Q847 704 860 711 Q873 718 886 713 Q895 708 895.5 694 Q896 680 883 648 Q881 646 880.5 643 Q880 640 878 637 Q876 635 876 632 Q868 616 861 600 Q854 584 848 571 Q848 571 847 570 Q833 540 818 509 Q795 461 773 412.5 Q751 364 728 315 L728 313 Q724 305 722 300 L665 172 Q664 170 663.5 168.5 Q663 167 662 165 L662 164 Q660 161 659.5 158.5 Q659 156 657 153 Q672 156 686.5 160 Q701 164 716 169 Q728 173 740 177 Q752 181 763 186 L764 186 Q765 186 765.5 186.5 Q766 187 767 187 Q769 189 772 189 Q778 193 782 194 Q787 197 791.5 199.5 Q796 202 801 205 Q810 210 821 218 L823 220 Q825 222 827 223 Q832 228 835 230 Q837 232 838.5 234 Q840 236 842 238 Q844 239 844.5 240 Q845 241 846 242 Q846 243 847 243.5 Q848 244 848 245 Q855 253 859 262 Q863 270 871 271.5 Q879 273 886 269 Z M323 14 Q340 38 356.5 62 Q373 86 390 109 Q359 114 328 119 Q297 124 266 128 Q264 129 259 129 Q258 130 254 130 Q251 131 248 131 Q245 131 242 132 L215 135 Q201 136 187 137 Q173 138 159 138 Q145 139 131.5 138.5 Q118 138 104 137 Q101 136 98 136 Q95 136 92 135 L87 135 Q85 134 81 134 Q75 132 68.5 131 Q62 130 56 128 Q53 126 49.5 125.5 Q46 125 43 123 Q41 123 37 121 Q36 121 35.5 120.5 Q35 120 34 120 Q24 116 14 109 L5 103 Q3 101 2 101 Q0 99 -1 99 L-16 84 Q-21 79 -23 76 Q-28 70 -34 58.5 Q-40 47 -44.5 30 Q-49 13 -50 -10 Q-51 -33 -45 -63 Q-44 -66 -42 -74 Q-39 -89 -33 -104 Q-33 -105 -32.5 -105.5 Q-32 -106 -32 -107 Q-32 -108 -31 -108 Q-30 -110 -30 -111 Q-30 -112 -28 -114 Q-27 -117 -26 -119.5 Q-25 -122 -23 -125 Q-21 -128 -19 -131 Q-17 -134 -15 -137 Q-14 -139 -13.5 -139.5 Q-13 -140 -12 -142 L-11 -142 L-11 -143 Q-10 -143 -10 -144 Q-1 -154 9 -163 Q9 -164 10 -164 L11 -165 L12 -165 Q15 -168 17 -169 Q19 -171 22 -172 Q25 -173 27 -175 Q29 -175 31 -177 L32 -177 Q33 -177 33.5 -177.5 Q34 -178 32 -177 Q34 -178 35 -178 Q36 -178 38 -179 Q43 -181 51 -183 L55 -183 Q58 -184 62 -184 L75 -184 Q77 -184 79.5 -183.5 Q82 -183 84 -183 L83 -183 L84 -183 L85 -183 L87 -183 Q95 -181 100 -180 Q104 -179 107.5 -178 Q111 -177 114 -176 Q116 -175 117.5 -174.5 Q119 -174 121 -173 Q125 -173 125 -171 Q138 -166 150 -159 Q162 -152 173 -144 L185 -135 Q187 -134 189 -132 Q190 -132 193 -129 Q203 -122 214 -111 Q225 -102 234.5 -92.5 Q244 -83 254 -72 Q264 -61 273 -50.5 Q282 -40 290 -29 Q292 -27 293 -25.5 Q294 -24 296 -22 Q296 -22 297 -20 Q297 -19 298 -19 Q300 -16 302 -13.5 Q304 -11 306 -9 Q310 -3 314 2.5 Q318 8 323 14 Z M673 285 L678 296 Q689 321 700 345 Q711 369 722 394 Q750 456 779 516.5 Q808 577 837 637 Q831 630 825.5 623.5 Q820 617 814 609 Q803 595 793.5 582 Q784 569 773 555 Q762 541 753 530 Q744 519 733 505 Q723 491 713 478 Q703 465 692 451 Q658 406 624 361.5 Q590 317 556 272 L556 271 Q551 264 546 257.5 Q541 251 536 244 L534 242 Q533 240 532 239 Q531 238 530 236 Q528 234 524 228 L494 187 Q491 183 488 179.5 Q485 176 483 172 L481 169 Q475 161 473 158 L472 157 Q469 152 466 148.5 Q463 145 460 140 Q471 139 481 139 Q491 139 502 138 Q516 138 529.5 138 Q543 138 557 139 Q565 140 571.5 140.5 Q578 141 585 142 Q589 142 592.5 142.5 Q596 143 599 143 Q601 143 602 143.5 Q603 144 605 144 L609 144 Q610 145 611 145 Q613 150 615 154 Q617 158 619 163 L673 285 Z M840 839 Q831 839 825 845 Q819 851 819 859 Q819 867 825 873 Q831 879 839 879 Q847 879 853.5 873 Q860 867 860 859 Q860 851 854 845 Q848 839 840 839 Z M904 839 Q895 839 889 845 Q883 851 883 859 Q883 867 889 873 Q895 879 903 879 Q911 879 917.5 873 Q924 867 924 859 Q924 851 918 845 Q912 839 904 839 Z " />
<glyph glyph-name="a" unicode="a" horiz-adv-x="278" d="M300 266 Q305 261 305 252.5 Q305 244 300 239 Q283 222 265.5 205.5 Q248 189 231 172 Q215 158 199.5 143.5 Q184 129 167 115 Q158 108 149.5 101.5 Q141 95 132 88 Q121 79 108 72.5 Q95 66 81 66 Q50 68 41 96 Q39 102 38.5 107.5 Q38 113 37 119 Q37 122 36.5 125 Q36 128 36 131 Q36 132 36 135 Q36 138 37 139 Q26 130 14 122 Q2 114 -12 109 Q-20 107 -31.5 107.5 Q-43 108 -51 117 Q-64 130 -64 149.5 Q-64 169 -61 182 Q-56 199 -49 212.5 Q-42 226 -33 239 Q-7 277 36 291 Q43 293 52.5 294 Q62 295 71 292.5 Q80 290 86.5 284 Q93 278 95 266 Q96 264 96 262.5 Q96 261 98 260 Q111 245 103 220 Q99 209 95.5 198 Q92 187 89 176 Q85 165 82.5 153.5 Q80 142 78 130 Q76 123 77 112.5 Q78 102 90 107 Q93 109 96 110.5 Q99 112 102 114 Q118 125 132 136.5 Q146 148 160 160 Q189 186 216.5 212.5 Q244 239 272 266 Q278 272 286 272 Q294 272 300 266 Z M23 177 Q40 194 49.5 208.5 Q59 223 64 234 Q69 247 71 258 L70 258 Q55 256 42 246 Q29 236 18.5 222.5 Q8 209 0 194.5 Q-8 180 -12 170 Q-12 169 -13.5 165.5 Q-15 162 -16 158.5 Q-17 155 -16.5 152.5 Q-16 150 -12 151 Q-4 155 5 161 Q10 165 14 168.5 Q18 172 23 177 Z " />
<glyph glyph-name="b" unicode="b" horiz-adv-x="356" d="M381 262 Q386 255 383.5 247.5 Q381 240 374 236 Q363 227 351 219 Q339 211 326 203 Q285 178 239.5 161 Q194 144 145 143 Q141 135 136 130 Q136 129 134 127 Q110 97 76 74 Q45 54 14 51 Q2 51 -10 54 Q-24 59 -28.5 71.5 Q-33 84 -26 100 Q-23 108 -18 115 Q-13 122 -7 128 Q25 160 63 172 Q76 177 88.5 179 Q101 181 115 183 Q118 184 125 184 Q135 200 133 215 Q133 221 132 227.5 Q131 234 129 239 Q125 252 108 249 Q103 247 99 245.5 Q95 244 90 242 Q79 237 69 229.5 Q59 222 49 213 Q29 196 13.5 175 Q-2 154 -15 131 Q-17 128 -19 124.5 Q-21 121 -24 118 Q-35 104 -49 109 Q-63 114 -58 130 Q-58 133 -56 137 L-44 167 Q-44 167 -43 169 L4 285 Q16 314 28 343 Q40 372 52 401 Q75 458 100 514 Q125 570 153 626 Q161 643 167.5 659.5 Q174 676 182 693 Q183 695 183.5 696.5 Q184 698 186 700 Q190 709 197.5 713 Q205 717 213 715 Q221 713 223.5 706.5 Q226 700 223 692 Q220 684 217 677 Q214 670 211 663 Q198 636 185.5 609.5 Q173 583 161 556 Q136 502 113 448.5 Q90 395 68 341 Q60 319 51 298 Q42 277 33 255 Q33 253 30 246 Q33 248 34.5 249 Q36 250 38 252 Q50 261 62 269 Q74 277 88 283 Q105 290 119 291 Q151 292 166 266 Q179 242 174 209 Q173 208 173 206 Q172 204 172 202 Q172 200 171 198 Q171 196 166 183 L167 183 Q169 184 171 184 Q173 184 174.5 184.5 Q176 185 178 185 Q190 187 202.5 190 Q215 193 227 198 Q230 199 233 200 Q236 201 240 202 Q242 204 244 204 Q245 205 246 205 Q247 205 248 206 Q253 208 259 211 Q265 214 270 216 Q293 228 313.5 241.5 Q334 255 355 269 Q362 274 369.5 271 Q377 268 381 262 Z M14 94 Q21 92 31.5 95 Q42 98 53.5 104.5 Q65 111 76 120 Q87 129 95 139 Q66 136 42.5 121 Q19 106 14 94 Z " />
<glyph glyph-name="c" unicode="c" horiz-adv-x="248" d="M273 266 Q278 261 278 252.5 Q278 244 273 239 Q255 222 236 207.5 Q217 193 197 179 Q180 167 163.5 156 Q147 145 130 134 Q105 117 79 101 Q53 85 24 77 Q0 70 -26 76.5 Q-52 83 -61 110 Q-69 136 -61 164 Q-53 192 -42 216 Q-36 229 -28 241.5 Q-20 254 -9 264 Q-7 266 9 276 Q25 286 44 284 Q44 283 45 283 L46 283 Q56 280 65 274 Q76 266 76 250 Q74 236 61 231 Q48 228 39 238 Q38 240 35 243 Q24 241 17 233 Q10 225 5 217 Q-1 207 -5.5 197 Q-10 187 -14 176 Q-21 157 -21 140 Q-21 132 -18 123.5 Q-15 115 -7 113 Q2 111 10.5 113.5 Q19 116 27 119 Q40 124 51.5 130.5 Q63 137 74 145 Q88 153 100.5 161.5 Q113 170 126 178 Q142 188 157.5 199 Q173 210 188 221 Q193 223 196.5 226 Q200 229 204 232 L205 233 Q206 233 206 233.5 Q206 234 207 234 Q207 234 209 236 Q213 240 216 241 Q224 247 231 253.5 Q238 260 245 266 Q251 272 259 272 Q267 272 273 266 Z " />
<glyph glyph-name="quotedblleft" unicode="&#x201c;" horiz-adv-x="178" d="M99 663 Q97 658 94.5 652 Q92 646 89 639 Q80 619 71.5 599.5 Q63 580 54 560 Q49 549 39 545 Q29 541 20 546 Q9 554 14 568 Q25 594 37 618.5 Q49 643 60 669 Q65 683 79 686 Q89 688 95 681 Q101 674 99 663 Z M148 686 Q158 688 164 681 Q170 674 168 663 Q166 658 163.5 652 Q161 646 158 639 Q149 619 140.5 599.5 Q132 580 123 560 Q118 549 108 545 Q98 541 89 546 Q78 554 83 568 Q94 594 106 618.5 Q118 643 129 669 Q134 683 148 686 Z " />
<glyph glyph-name="quotedblright" unicode="&#x201d;" horiz-adv-x="177" d="M99 663 Q97 658 94.5 652 Q92 646 89 639 Q80 619 71.5 599.5 Q63 580 54 560 Q49 549 39 545 Q29 541 20 546 Q9 554 14 568 Q25 594 37 618.5 Q49 643 60 669 Q65 683 79 686 Q89 688 95 681 Q101 674 99 663 Z M148 686 Q158 688 164 681 Q170 674 168 663 Q166 658 163.5 652 Q161 646 158 639 Q149 619 140.5 599.5 Q132 580 123 560 Q118 549 108 545 Q98 541 89 546 Q78 554 83 568 Q94 594 106 618.5 Q118 643 129 669 Q134 683 148 686 Z " />
<glyph glyph-name="quoteleft" unicode="&#x2018;" horiz-adv-x="146" d="M107 686 Q117 688 123 681 Q129 674 127 663 Q125 658 122.5 652 Q120 646 117 639 Q108 619 99 599.5 Q90 580 81 560 Q76 549 66.5 545 Q57 541 48 546 Q43 550 41 556 Q39 562 42 568 Q53 594 64.5 618.5 Q76 643 87 669 Q94 683 107 686 Z " />
<glyph glyph-name="quoteright" unicode="&#x2019;" horiz-adv-x="142" d="M107 686 Q117 688 123 681 Q129 674 127 663 Q125 658 122.5 652 Q120 646 117 639 Q108 619 99 599.5 Q90 580 81 560 Q76 549 66.5 545 Q57 541 48 546 Q43 550 41 556 Q39 562 42 568 Q53 594 64.5 618.5 Q76 643 87 669 Q94 683 107 686 Z " />
</font>
</svg>
