<?xml version="1.0" encoding="UTF-8"?>
<svg xmlns="http://www.w3.org/2000/svg" xmlns:xlink="http://www.w3.org/1999/xlink" version="1.2" >
<font id="Sustans">
<font-face  font-family="Sustans" units-per-em="1000" ascent="750" descent="-250" font-style="normal" font-weight="400" font-stretch="normal" cap-height="700" x-height="500" underline-position="-75" underline-thickness="50" />
<missing-glyph  horiz-adv-x="180" d="" />
<glyph glyph-name="NULL" d="" />
<glyph glyph-name="nonmarkingreturn" unicode="&#xd;" horiz-adv-x="180" d="" />
<glyph glyph-name="space" unicode="&#x20;" horiz-adv-x="180" d="" />
<glyph glyph-name="e" unicode="e" horiz-adv-x="134" d="M-24 261 Q-35 239 -44 217 Q-53 195 -55 171 Q-55 167 -55 162 Q-55 157 -52 155 Q-50 157 -47.5 158.5 Q-45 160 -43 162 Q-26 179 -9 196.5 Q8 214 27 231 Q53 257 76.5 282 Q100 307 126 333 Q132 339 135 341 Q148 348 155 337 Q163 327 154 318 Q150 315 144 309 Q104 266 63 225.5 Q22 185 -20 144 Q-25 140 -28.5 137 Q-32 134 -36 131 Q-50 122 -62.5 126.5 Q-75 131 -81 148 Q-86 169 -81 190 Q-79 201 -76 211 Q-73 221 -70 232 Q-61 253 -51.5 272.5 Q-42 292 -29 311 Q-21 322 -11.5 333.5 Q-2 345 12 345 Q25 346 34 334 Q44 320 45 298 Q46 276 31 262 Q6 240 -24 261 Z M14 316 Q12 317 7.5 311 Q3 305 -1 297 Q-5 289 -5.5 283 Q-6 277 0 279 Q10 279 15 290 Q18 296 17 302.5 Q16 309 14 316 Z " />
<glyph glyph-name="f" unicode="f" horiz-adv-x="139" d="M-3 193 Q-3 186 -2 182 Q-1 159 -6.5 136.5 Q-12 114 -20 91 Q-34 44 -52.5 -1 Q-71 -46 -91 -91 Q-96 -102 -101 -113.5 Q-106 -125 -111 -136 Q-114 -142 -117.5 -147.5 Q-121 -153 -125 -158 Q-132 -165 -139 -168 Q-147 -171 -154 -166 Q-161 -161 -161 -150 Q-161 -145 -161 -139 Q-161 -133 -159 -128 Q-153 -108 -147 -87 Q-141 -66 -134 -46 Q-108 30 -83 105 Q-58 180 -32 255 Q-18 295 -3.5 334.5 Q11 374 27 413 Q33 428 39 443 Q45 458 51 472 Q72 526 93 578 Q114 630 136 683 Q140 692 143 701.5 Q146 711 150 720 Q152 725 156 731 Q158 735 162.5 737 Q167 739 171 737 Q181 735 181 725 Q180 720 179 714.5 Q178 709 174 704 L171 698 Q163 677 154.5 656 Q146 635 137 614 Q133 603 122.5 576 Q112 549 98 513.5 Q84 478 68.5 437.5 Q53 397 38.5 359.5 Q24 322 12 291.5 Q0 261 -6 245 Q27 267 59.5 288.5 Q92 310 125 333 Q125 333 127 335 L140 343 Q141 344 144 344 Q147 344 154 339 Q156 337 157 335 Q159 329 156 326 Q154 324 136.5 310.5 Q119 297 96 280 Q73 263 49 245 Q25 227 10 217 Q6 214 2.5 211.5 Q-1 209 -5 206 Q-3 198 -3 193 Z M-41 117 Q-37 131 -34 144 Q-31 157 -31 171 Q-32 171 -33 172 Q-52 115 -70 59.5 Q-88 4 -107 -53 Q-108 -54 -108 -56 Q-108 -56 -107 -57 L-106 -57 Q-106 -56 -105.5 -55.5 Q-105 -55 -105 -54 Q-86 -12 -70 30.5 Q-54 73 -41 117 Z " />
<glyph glyph-name="g" unicode="g" horiz-adv-x="164" d="M174 312 Q160 297 146 282 Q132 267 118 251 Q95 225 71.5 198 Q48 171 25 144 Q18 137 15 128 Q1 88 -14.5 48.5 Q-30 9 -48 -30 Q-65 -64 -83 -97 Q-101 -130 -124 -161 Q-136 -178 -149 -192.5 Q-162 -207 -179 -220 Q-186 -225 -193.5 -229.5 Q-201 -234 -209 -239 Q-219 -244 -229 -244 Q-240 -246 -248 -240 Q-256 -234 -259 -223 Q-261 -215 -260 -208 Q-259 -201 -257 -194 Q-249 -166 -233 -138 Q-216 -108 -196.5 -80.5 Q-177 -53 -156 -26 Q-125 15 -92 53 Q-59 91 -25 129 Q-6 151 3 177 Q10 199 17 220 Q24 241 31 263 Q32 263 32 265 L31 266 Q26 261 22.5 255.5 Q19 250 14 245 Q6 237 -0.5 229.5 Q-7 222 -15 214 Q-25 204 -40 202 Q-55 200 -60 217 Q-65 231 -60 246 Q-46 304 -2 341 Q4 346 10.5 348 Q17 350 24 352 Q48 357 56 334 Q59 328 63 326 Q71 319 70 310 Q68 299 66.5 289 Q65 279 62 269 Q59 256 55 244 Q51 232 47 219 Q47 217 46.5 216 Q46 215 47 213 Q51 217 53 220 Q75 243 96 267 Q117 291 138 315 Q143 321 150 328 Q157 335 164 340 Q166 342 171 343 Q176 344 182 339 Q188 332 183 324.5 Q178 317 175 313 L174 312 Z M28 308 Q32 314 29 324 Q20 322 9 311.5 Q-2 301 -11.5 287.5 Q-21 274 -27 259.5 Q-33 245 -32 236 Q-25 243 -22 247 Q-9 262 3.5 277 Q16 292 28 308 Z M-37 69 Q-36 70 -36 73 Q-37 73 -38 74 Q-38 72 -40 70 Q-94 8 -145 -56 Q-164 -81 -181.5 -106.5 Q-199 -132 -213 -159 Q-218 -170 -222.5 -180.5 Q-227 -191 -230 -202 Q-231 -205 -231 -209 Q-231 -213 -232 -218 Q-226 -215 -221.5 -213 Q-217 -211 -212 -209 Q-201 -203 -192 -195 Q-183 -187 -174 -178 Q-160 -163 -147.5 -145.5 Q-135 -128 -124 -110 Q-97 -68 -76 -23 Q-55 22 -37 69 Z " />
<glyph glyph-name="h" unicode="h" horiz-adv-x="218" d="M236 340 Q248 331 237 318 Q231 309 223 301 L74 124 Q73 123 73 122.5 Q73 122 72 121 Q70 120 69.5 119 Q69 118 68 117 L68 116 Q64 112 61 110 Q54 104 44 109 Q34 115 36 126 Q36 132 40 140 Q50 168 59.5 195 Q69 222 80 249 Q82 254 85.5 263.5 Q89 273 92 283 Q96 294 100 307 Q78 285 60 266 Q44 249 29 232.5 Q14 216 6 208 L-30 169 Q-31 166 -34 165 Q-35 163 -38 160 Q-44 154 -48.5 153 Q-53 152 -55 153 Q-59 154 -60 157 Q-62 161 -62 166.5 Q-62 172 -59 181 Q-18 297 26 410.5 Q70 524 118 637 Q126 657 133.5 678 Q141 699 149 720 Q151 723 151 726.5 Q151 730 152 734 L152 735 Q154 738 156.5 742 Q159 746 166 745 Q185 743 180 725 L180 724 L180 723 Q180 721 179.5 720 Q179 719 179 718 Q172 695 163.5 673.5 Q155 652 146 630 Q120 564 93 498.5 Q66 433 40 367 Q34 350 27 335 L-9 235 L7 252 L8 253 L10 255 L65 312 Q73 319 80 326 Q86 331 92.5 337 Q99 343 104 345 L105 345 Q109 348 115 348 Q123 348 128.5 343.5 Q134 339 134 331 Q136 321 133 313 Q129 301 125.5 289.5 Q122 278 117 266 Q115 261 113 255 Q111 249 109 243 Q107 239 104 231 Q101 223 98 215 Q94 205 91 194 Q92 194 94 196 Q111 216 128 235 Q145 254 162 274 L214 336 Q225 349 236 340 Z " />
<glyph glyph-name="j" unicode="j" horiz-adv-x="194" d="M212 339 Q224 329 213 316 L198 301 L171 273 L170 272 Q169 271 168.5 270 Q168 269 166 268 L164 266 L150 252 L52 158 Q39 144 26 131.5 Q13 119 -1 105 Q-5 101 -7 94 Q-23 56 -37.5 17 Q-52 -22 -68 -61 Q-85 -105 -109 -146 Q-123 -173 -141 -192 Q-149 -201 -158 -209 Q-167 -217 -178 -222 Q-196 -232 -213 -229 Q-227 -226 -237 -215.5 Q-247 -205 -249 -190 Q-252 -172 -246 -155 Q-239 -129 -223 -104 Q-209 -80 -192 -58.5 Q-175 -37 -156 -16 Q-127 17 -97 48.5 Q-67 80 -36 111 Q-33 115 -31 118 Q-29 121 -27 126 Q-9 174 9 221 Q27 268 45 316 Q49 326 50 331 Q50 331 49 332 Q44 330 39 327 Q30 323 21.5 319.5 Q13 316 4 312 Q-2 309 -10 309 Q-22 309 -24 322 Q-25 327 -22.5 331 Q-20 335 -15 336 Q-6 338 1.5 341.5 Q9 345 17 349 Q25 353 32 356 Q39 359 47 363 Q51 365 61 367 Q69 368 75.5 362.5 Q82 357 82 348 Q83 340 80 330 Q75 313 69 297.5 Q63 282 57 266 L24 179 Q23 177 22.5 175 Q22 173 23 170 L29 176 Q57 203 84 230 Q111 257 139 285 L153 299 L163 310 L166 313 Q172 319 178 325 Q184 331 190 338 Q201 349 212 339 Z M-58 42 Q-58 44 -57 46 Q-58 46 -59 47 Q-60 44 -63 43 Q-88 17 -111.5 -9 Q-135 -35 -158 -63 Q-171 -79 -182.5 -95 Q-194 -111 -204 -129 Q-209 -138 -213.5 -147.5 Q-218 -157 -220 -168 Q-221 -173 -221.5 -177 Q-222 -181 -221 -186 Q-219 -206 -200 -200 Q-190 -197 -183 -191 Q-176 -185 -169 -179 Q-162 -173 -156 -165 Q-143 -149 -133.5 -131.5 Q-124 -114 -115 -96 Q-98 -62 -85 -27.5 Q-72 7 -58 42 Z M100 428 Q92 427 84 436 Q78 447 86 453 Q88 455 91.5 456.5 Q95 458 98 460 Q104 462 110 457.5 Q116 453 118 445 Q118 443 116 437 Q110 429 100 428 Z " />
<glyph glyph-name="k" unicode="k" horiz-adv-x="233" d="M250 340 Q263 328 252 317 Q248 312 245 308.5 Q242 305 238 301 L236 299 L159 217 L113 168 Q97 152 84 136 Q79 131 75 127.5 Q71 124 66 119 Q63 117 59.5 115.5 Q56 114 53 112 Q43 107 34 110.5 Q25 114 20 124 Q15 136 13 151 L13 202 Q13 204 12.5 206 Q12 208 12 210 Q10 210 5 205 Q-6 192 -17 179.5 Q-28 167 -39 154 L-52 120 L-52 119 Q-55 113 -60 110 Q-69 107 -72.5 110 Q-76 113 -77 115 Q-77 116 -77.5 117 Q-78 118 -78 119 Q-78 126 -75 134 Q-72 145 -68.5 155 Q-65 165 -61 175 Q-20 293 24.5 407.5 Q69 522 118 637 Q126 657 133.5 678 Q141 699 149 720 Q150 724 152 734 L152 735 Q153 738 155.5 741.5 Q158 745 165 745 Q183 743 180 725 L180 724 Q180 723 179 723 Q179 719 178 718 Q172 695 163 673.5 Q154 652 146 630 Q119 564 92 498.5 Q65 433 39 367 Q28 338 17.5 308.5 Q7 279 -4 250 L-12 228 Q11 252 33.5 276 Q56 300 79 324 Q83 328 87 331.5 Q91 335 96 339 Q105 346 113 342 Q122 337 122 329 Q123 321 116 316 Q112 313 108 310.5 Q104 308 101 305 Q86 290 71 274.5 Q56 259 42 244 Q39 241 39 235 Q40 227 40 220 Q40 213 41 205 Q42 191 41 176.5 Q40 162 42 148 Q43 146 43 144 Q43 142 44 140 Q46 142 47.5 142.5 Q49 143 50 144 Q57 151 63 157 Q69 163 75 170 Q81 176 86.5 182 Q92 188 98 194 L116 212 L212 318 L212 319 Q217 324 220.5 328 Q224 332 229 337 Q239 349 250 340 Z " />
<glyph glyph-name="l" unicode="l" horiz-adv-x="119" d="M10 288 Q-1 258 -10.5 227.5 Q-20 197 -28 165 Q-29 161 -29.5 158 Q-30 155 -31 151 Q-25 157 -19 164 Q-14 170 -7.5 177.5 Q-1 185 7 194 L50 251 L54 256 L98 312 Q101 315 108 325 Q115 335 116 336 Q126 349 137 340 Q151 331 141 318 Q138 313 134.5 309 Q131 305 128 301 L126 298 L19 162 Q16 157 12.5 153.5 Q9 150 6 146 Q-5 133 -16 125 Q-19 122 -23 120.5 Q-27 119 -31 117 Q-51 112 -57 131 Q-61 140 -59 152 Q-56 172 -50.5 192 Q-45 212 -39 232 Q-25 278 -7.5 322.5 Q10 367 27 412 Q46 459 64 505.5 Q82 552 101 599 Q112 624 122 648 Q132 672 143 697 Q146 704 149 711 Q152 718 155 726 Q156 728 156 728.5 Q156 729 157 731 Q162 740 172 738 Q182 735 183 726 Q183 719 180 713 Q170 689 160 665 Q150 641 140 617 Q124 579 109.5 541.5 Q95 504 80 466 Q62 421 44.5 377 Q27 333 10 288 Z " />
<glyph glyph-name="m" unicode="m" horiz-adv-x="338" d="M-6 225 Q1 234 7.5 243 Q14 252 21 262 Q33 277 45.5 291.5 Q58 306 73 319 Q77 323 85 329 Q93 333 97 333 Q105 335 111.5 330 Q118 325 120 317 Q121 312 120.5 308.5 Q120 305 119 301 Q113 280 106 259 Q99 238 94 217 Q108 233 121 251 Q134 269 147.5 286 Q161 303 176 318.5 Q191 334 211 345 Q221 349 229.5 342.5 Q238 336 237 325 Q238 320 237 316 Q236 312 234 307 Q230 293 226 280 Q222 267 218 253 Q214 236 209.5 220.5 Q205 205 203 188 Q235 228 267.5 267.5 Q300 307 338 342 Q348 347 357 338 Q364 328 357 320 Q353 315 348.5 311.5 Q344 308 340 303 Q310 270 281 236.5 Q252 203 226 167 Q220 159 214 152.5 Q208 146 202 139 Q195 132 191 130 Q182 125 173.5 130.5 Q165 136 164 147 Q164 152 164 157 Q164 162 166 167 Q171 187 176 206.5 Q181 226 186 246 Q189 259 192 272 Q195 285 200 299 L193 292 Q177 276 164 259 Q151 242 138 225 Q127 211 117.5 196 Q108 181 97 167 Q94 162 90.5 158.5 Q87 155 84 151 Q81 147 76 145 Q68 140 60 145 Q50 152 51 161 Q51 165 52 168.5 Q53 172 53 177 Q59 203 65.5 228 Q72 253 81 277 Q81 279 81.5 281 Q82 283 81 285 L75 279 Q61 261 46.5 243 Q32 225 17 207 Q10 197 3.5 187.5 Q-3 178 -10 169 Q-14 164 -17.5 160.5 Q-21 157 -24 153 Q-36 144 -46 151 Q-53 155 -54.5 160.5 Q-56 166 -55 172 Q-52 188 -45 208.5 Q-38 229 -30 250.5 Q-22 272 -14.5 293.5 Q-7 315 -2 334 Q-2 341 3.5 345 Q9 349 15 347 Q22 345 26.5 340 Q31 335 29 328 Q27 323 25.5 317.5 Q24 312 22 307 Q15 289 9 271 Q3 253 -4 235 L-7 226 L-6 225 Z " />
<glyph glyph-name="n" unicode="n" horiz-adv-x="236" d="M255 338 Q257 337 258 333 Q259 329 254 324 Q251 320 241.5 309.5 Q232 299 221 286.5 Q210 274 199 262.5 Q188 251 184 247 Q170 232 156.5 217 Q143 202 129 187 Q114 169 96 151 Q91 146 81 142 Q72 138 64 143 Q56 148 54 158 Q52 172 56 181 Q60 195 64 208.5 Q68 222 73 236 L94 296 L93 297 Q89 293 85 289.5 Q81 286 77 282 Q54 260 34.5 236 Q15 212 -5 186 Q-13 175 -21 165 Q-29 155 -37 144 Q-41 138 -47 134 Q-56 127 -65 133 Q-75 139 -73 150 Q-71 156 -69.5 162 Q-68 168 -66 174 Q-54 204 -42 234.5 Q-30 265 -18 296 Q-13 307 -9.5 317 Q-6 327 -2 338 Q1 350 14 348 Q19 346 23 341.5 Q27 337 26 332 Q26 324 23 320 Q21 313 18 306.5 Q15 300 12 293 Q8 283 3.5 271.5 Q-1 260 -5 249 Q-9 237 -14 224 L-9 229 Q0 240 9.5 251.5 Q19 263 29 274 Q43 290 58 304.5 Q73 319 90 333 Q99 340 107 343 Q117 347 124.5 341.5 Q132 336 132 326 Q132 316 129 307 Q119 276 108 247.5 Q97 219 89 187 L95 193 Q124 226 154 257.5 Q184 289 215 320 L224 329 Q225 331 228 334 L235 341 Q237 342 240 343 Q245 345 252 342 L252 341 L253 341 Q255 339 255 338 Z " />
<glyph glyph-name="o" unicode="o" horiz-adv-x="147" d="M167 335 Q171 329 168.5 323.5 Q166 318 161 313 Q156 308 150 304 Q144 300 140 297 Q124 285 101 275 Q92 271 82 267.5 Q72 264 62 263 L60 263 Q59 259 57.5 252.5 Q56 246 53 238 Q53 237 52.5 237 Q52 237 52 236 L52 235 Q51 235 51 234 Q40 206 23 187 Q18 182 14 178 Q10 174 5 170 Q-4 162 -16 161 Q-33 159 -44.5 170 Q-56 181 -58 200 Q-61 227 -53 252 Q-47 272 -39 289.5 Q-31 307 -20 322 Q-17 326 -11.5 332.5 Q-6 339 2.5 343.5 Q11 348 21 348 Q31 348 42 340 Q42 340 44 338 Q44 338 45 337 Q56 329 59.5 318 Q63 307 64 296 L64 294 Q68 296 92.5 307 Q117 318 146 341 L150 343 Q153 345 158 343 Q159 343 159.5 342.5 Q160 342 161 342 L161 341 Q165 339 167 335 Z M21 241 Q23 243 26.5 252 Q30 261 33 272 Q23 280 18.5 290.5 Q14 301 12 308 L12 313 Q10 310 8 308 Q-13 280 -24 248 Q-26 240 -28 231.5 Q-30 223 -31 213 Q-31 208 -31 202.5 Q-31 197 -29 191 Q-21 191 -16 194 Q-11 197 -7 201 Q10 218 21 241 Z " />
<glyph glyph-name="p" unicode="p" horiz-adv-x="199" d="M217 338 Q224 330 215 321 Q213 319 212 318.5 Q211 318 209 316 Q152 277 98.5 235.5 Q45 194 -9 149 Q-13 145 -19 141 Q-25 137 -28 136 Q-39 131 -46 138 Q-53 144 -48 155 Q-46 158 -43.5 161.5 Q-41 165 -39 168 Q-27 182 -15 195.5 Q-3 209 10 223 Q21 236 32 248.5 Q43 261 54 275 Q59 280 62 285 Q65 290 68 296 Q66 296 62 294 Q46 284 32.5 272.5 Q19 261 7 248 Q-4 237 -13.5 223 Q-23 209 -29 199 Q-33 194 -40 178 Q-72 103 -101.5 28.5 Q-131 -46 -160 -122 Q-165 -134 -171 -150.5 Q-177 -167 -179 -172 Q-181 -176 -181 -178 Q-185 -187 -188 -196.5 Q-191 -206 -194 -216 Q-199 -231 -212 -229 Q-218 -228 -221 -223.5 Q-224 -219 -222 -212 Q-219 -202 -216 -192.5 Q-213 -183 -209 -173 Q-207 -165 -204 -158.5 Q-201 -152 -199 -145 Q-197 -142 -195.5 -136.5 Q-194 -131 -192 -126 Q-164 -54 -135.5 17 Q-107 88 -78 160 Q-60 203 -41.5 246 Q-23 289 -4 332 Q-2 335 -1.5 338 Q-1 341 1 344 Q9 355 19 354 Q30 352 30 339 Q29 337 29 334.5 Q29 332 27 329 L27 330 L27 329 L8 287 Q10 289 12.5 290.5 Q15 292 17 294 Q26 301 34.5 307 Q43 313 53 319 Q58 322 62.5 323.5 Q67 325 72 327 Q86 330 95 322 Q104 314 100 300 Q98 294 95.5 288.5 Q93 283 90 278 Q85 271 80 264.5 Q75 258 70 251 Q68 249 65 243 Q67 245 69 246 Q71 247 73 248 Q102 271 131.5 292.5 Q161 314 190 336 Q196 340 200 342 Q212 347 217 338 Z " />
<glyph glyph-name="q" unicode="q" horiz-adv-x="153" d="M167 343 Q175 343 177 338.5 Q179 334 177 330 Q176 328 169 315 Q162 302 154 288 L147 276 L82 164 Q80 162 79 159 Q78 156 76 154 Q67 138 54.5 115.5 Q42 93 27.5 67.5 Q13 42 -2 15 Q-17 -12 -31 -38 Q-64 -99 -101 -166 Q-103 -170 -105 -173.5 Q-107 -177 -109 -181 Q-113 -189 -116 -191 Q-123 -198 -132 -194 Q-141 -191 -141 -181 L-138 -166 Q-112 -84 -85.5 -3 Q-59 78 -26 157 Q-22 166 -19 174.5 Q-16 183 -12 192 Q-11 193 -11 194 Q-11 195 -10 197 L-11 197 Q-14 194 -17.5 190.5 Q-21 187 -24 183 Q-29 178 -33.5 174 Q-38 170 -43 165 Q-51 159 -55 158 Q-66 153 -74 157 Q-82 161 -85 172 Q-89 184 -86 200 Q-74 266 -32 315 Q-22 326 -9 336 Q-3 341 4 343 Q11 345 19 345 Q33 346 42.5 336 Q52 326 53 314 Q53 306 57 301 Q61 295 58 285 Q55 278 52.5 271.5 Q50 265 47 258 Q38 238 29.5 217.5 Q21 197 12 177 Q11 174 6 161 Q1 148 -6.5 129 Q-14 110 -23 87.5 Q-32 65 -39.5 43.5 Q-47 22 -53 4 Q-59 -14 -61 -23 Q-59 -19 -57 -17 Q-17 51 22.5 118.5 Q62 186 102 254 Q104 256 105 259 Q106 262 108 264 L107 264 L108 265 Q113 273 117 279.5 Q121 286 125 293 L153 338 Q154 340 156 341 Q160 343 167 343 Z M-42 206 Q-25 224 -10 244 Q5 264 19 284 Q21 288 21 289 Q20 296 25 306 Q26 310 23 315 Q19 319 13 316 Q7 314 4 311 Q-3 305 -9 298 Q-38 264 -52 220 Q-54 213 -56 205.5 Q-58 198 -57 190 Q-53 194 -49 197.5 Q-45 201 -42 206 Z " />
<glyph glyph-name="r" unicode="r" horiz-adv-x="162" d="M14 292 Q18 295 21 297.5 Q24 300 27 303 Q35 309 42.5 315 Q50 321 58 327 Q64 331 72 333 Q79 335 85 330.5 Q91 326 91 318 Q91 311 88 305 Q85 297 81.5 288.5 Q78 280 74 272 Q64 251 57 229 Q50 207 44 184 Q43 182 43 176 L49 185 Q73 222 98 257 Q123 292 150 327 Q156 335 160 339 Q170 349 181 339 Q190 330 181 319 Q151 282 123.5 243 Q96 204 70 163 Q65 155 59 147 Q53 139 47 131 Q42 124 35 120 Q27 112 16 118 Q6 122 6 135 Q5 140 5.5 144.5 Q6 149 7 154 Q19 214 40 267 Q42 273 43 275 L43 277 Q38 274 36 273 Q31 270 26 267 Q21 264 16 262 Q6 259 -1.5 263.5 Q-9 268 -13 278 Q-17 289 -14 302 Q-11 323 -3 337 Q0 343 6 345 Q15 350 22 341 Q27 336 24 324 Q22 318 19 311.5 Q16 305 14 298 L14 292 Z " />
<glyph glyph-name="s" unicode="s" horiz-adv-x="164" d="M182 340 Q192 332 183 320 Q180 316 177 313 Q174 310 172 306 Q171 306 168.5 302 Q166 298 149 278 L122 244 L101 217 Q97 212 88.5 200.5 Q80 189 71 178 Q60 164 47 149 Q48 144 50 136 Q53 114 41 91 Q34 79 27 67 Q20 55 12 44 Q-14 6 -44.5 -29 Q-75 -64 -108 -96 Q-116 -104 -123.5 -110.5 Q-131 -117 -139 -123 Q-143 -126 -146.5 -127.5 Q-150 -129 -154 -131 Q-165 -134 -172.5 -128.5 Q-180 -123 -180 -112 Q-179 -107 -178 -102.5 Q-177 -98 -175 -94 Q-167 -71 -156 -55 Q-151 -46 -145.5 -37 Q-140 -28 -134 -20 Q-132 -17 -129.5 -14 Q-127 -11 -123 -6 Q-116 4 -109 13 Q-102 22 -94 30 Q-80 47 -64.5 65 Q-49 83 -35 100 L11 153 Q9 156 6.5 158 Q4 160 1 162 Q-5 167 -11 171.5 Q-17 176 -23 181 Q-38 193 -44 207 Q-49 218 -48.5 230 Q-48 242 -45 253 Q-39 277 -29 296 Q-27 298 -26.5 300.5 Q-26 303 -24 305 Q-23 306 -23 307 Q-23 308 -22 309 L-21 310 L-19 314 Q-14 322 -9 329.5 Q-4 337 2 345 Q3 346 5.5 348.5 Q8 351 13 350 L15 350 Q22 348 25 345 Q33 336 26 323 Q20 313 14.5 303 Q9 293 3 283 Q0 278 -4 269.5 Q-8 261 -12 251.5 Q-16 242 -17.5 232.5 Q-19 223 -17 217 Q-15 215 -15 215 Q-15 213 -14 213 Q-11 208 -5 203 Q0 199 4.5 195.5 Q9 192 14 188 Q16 186 17 185.5 Q18 185 20 183 Q21 182 21.5 182 Q22 182 23 181 L26 178 L29 175 L59 210 L64 215 Q70 223 76 231 Q82 239 88 247 L116 282 L152 326 Q155 330 157.5 333 Q160 336 163 339 Q172 348 182 340 Z M6 87 Q14 101 17 109 Q19 113 19 117 L-29 62 L-28 62 Q-42 47 -55 32 Q-68 17 -81 1 Q-97 -18 -111.5 -37.5 Q-126 -57 -138 -79 Q-140 -85 -142 -88 Q-133 -80 -124 -71 L-90 -37 Q-72 -17 -55.5 3 Q-39 23 -23 44 Q-15 55 -8 65.5 Q-1 76 6 87 Z " />
<glyph glyph-name="t" unicode="t" horiz-adv-x="90" d="M554 436 Q565 432 563 420 Q561 409 549 409 Q541 409 533.5 408.5 Q526 408 518 408 L517 408 Q513 407 503 407 L499 407 L443 404 Q417 403 393 402 Q373 401 352.5 400 Q332 399 321 399 Q298 398 275 397 Q252 396 229 395 Q187 393 146 392.5 Q105 392 63 390 Q52 390 49.5 388 Q47 386 42 375 Q33 352 24 329 Q15 306 7 283 L7 282 Q4 274 1.5 266.5 Q-1 259 -4 251 Q-12 229 -20.5 203 Q-29 177 -34 161 Q-40 142 -46 123.5 Q-52 105 -57 85 Q-62 65 -66 45.5 Q-70 26 -75 6 Q-76 2 -74 -5 Q-72 -18 -78 -28 Q-86 -39 -96 -35 Q-107 -32 -107 -19 Q-107 -15 -107 -11 Q-107 -7 -106 -3 Q-98 42 -87 85 Q-76 128 -62 170 Q-55 189 -48.5 208 Q-42 227 -36 246 Q-32 258 -28 269.5 Q-24 281 -19 293 Q-11 315 -3 336.5 Q5 358 13 379 L16 388 Q-36 386 -87 383 Q-131 381 -180 378 Q-229 375 -269 373 Q-282 372 -290.5 372 Q-299 372 -301 372 Q-306 371 -311.5 371 Q-317 371 -322 370 Q-326 370 -334 372 Q-345 377 -343 388 Q-341 399 -330 399 Q-322 400 -314 400 Q-306 400 -298 401 L-284 401 L-280 402 L24 417 Q28 419 29 421 Q30 423 32 425 L96 575 Q103 577 108 574 Q117 569 115 558 Q113 553 112 549.5 Q111 546 109 542 Q98 513 86 485 Q74 457 63 428 Q61 422 60 418 L64 418 Q93 419 122 419.5 Q151 420 180 421 Q207 422 234 423 Q261 424 288 426 Q310 427 331.5 427.5 Q353 428 376 429 L446 433 Q453 433 459 433.5 Q465 434 472 434 Q474 434 477 434.5 Q480 435 483 435 L489 435 Q502 436 510 436 Q518 436 521 437 Q526 437 531.5 437 Q537 437 542 438 Q546 438 554 436 Z " />
<glyph glyph-name="v" unicode="v" horiz-adv-x="198" d="M212 333 Q212 329 211 326 Q209 319 204 319 Q201 318 197 317 Q193 316 184.5 314.5 Q176 313 161.5 311 Q147 309 124 305 Q119 305 116 302.5 Q113 300 110 297 Q98 279 86 261.5 Q74 244 62 227 Q51 212 41.5 197.5 Q32 183 21 169 Q12 157 2 147 Q-5 140 -12 137 Q-22 132 -30.5 135 Q-39 138 -42 149 Q-44 156 -44 163 Q-44 170 -43 178 Q-40 220 -26 258 Q-12 296 -2 336 Q2 347 15 344 Q28 342 25 327 Q23 322 22 317 Q21 312 19 307 Q13 288 6.5 269 Q0 250 -5 231 Q-9 218 -11 205.5 Q-13 193 -15 180 Q-16 177 -16 170 Q-15 170 -14 169 Q-11 173 -8 176 Q-5 179 -3 183 L42 246 Q53 262 64.5 278 Q76 294 87 311 Q100 331 123 334 Q136 336 148.5 337.5 Q161 339 174 341 Q179 342 183.5 342.5 Q188 343 193 343 Q199 343 205 342.5 Q211 342 212 333 Z " />
<glyph glyph-name="u" unicode="u" horiz-adv-x="188" d="M206 340 Q208 339 208 335 Q208 331 201 322 Q198 318 190 306.5 Q182 295 171.5 279.5 Q161 264 148.5 247 Q136 230 125 214 Q118 205 111.5 195.5 Q105 186 97 176 Q89 163 76 148 Q69 139 61 134 Q50 126 41.5 130.5 Q33 135 32 147 Q31 157 34 169 Q35 174 35.5 178 Q36 182 38 187 L38 188 Q40 197 43 206 Q46 215 48 223 Q50 228 51 233.5 Q52 239 54 243 Q56 247 57 251 Q48 242 41 234 Q35 227 28.5 220 Q22 213 20 211 L20 210 Q15 205 10.5 199.5 Q6 194 1 189 Q-4 184 -9.5 178.5 Q-15 173 -21 168 Q-29 162 -35 161 Q-43 158 -50 162 Q-57 166 -59 175 Q-62 184 -58 198 Q-51 234 -35 268 Q-27 285 -19.5 302 Q-12 319 -4 336 Q-1 342 3 346 Q9 355 20 350 Q29 345 26 335 Q25 330 23 326.5 Q21 323 19 319 Q9 298 0 277 Q-8 259 -15.5 237.5 Q-23 216 -28 198 Q-25 202 -21 205 Q2 232 26 258.5 Q50 285 73 312 Q76 315 78.5 318 Q81 321 84 324 Q89 329 97 329 Q103 329 107 325.5 Q111 322 110 316 Q110 308 107 299 Q107 299 106 297 L65 179 L106 235 Q114 246 122 256.5 Q130 267 138 278 L139 279 Q152 293 163 309.5 Q174 326 188 340 Q197 347 206 340 Z " />
<glyph glyph-name="w" unicode="w" horiz-adv-x="263" d="M273 341 Q275 339 277 335.5 Q279 332 276 325 Q272 319 265.5 317 Q259 315 255 315 Q253 315 250.5 314.5 Q248 314 246 314 Q233 312 220.5 310.5 Q208 309 195 307 Q178 304 171 289 Q156 259 141 229 Q126 199 110 169 Q106 161 103 154 Q100 147 95 140 Q90 132 85 127 Q77 119 66.5 122 Q56 125 53 137 Q51 145 50.5 153.5 Q50 162 50 170 Q49 181 49.5 192.5 Q50 204 51 215 Q51 215 50 217 L44 211 Q33 197 23 183 Q13 169 2 155 Q-1 151 -4.5 147.5 Q-8 144 -12 140 Q-16 136 -20 135 Q-31 129 -40 134 Q-49 139 -51 151 Q-52 158 -51.5 165 Q-51 172 -50 179 Q-46 202 -40 224 Q-34 246 -26 268 Q-21 285 -15 303 Q-9 321 -4 338 L2 347 Q9 353 17 347 Q25 342 24 333 Q24 329 22 321 Q15 300 8 279 Q1 258 -6 237 Q-10 223 -13.5 208 Q-17 193 -21 178 Q-21 176 -22 173 Q-18 177 -16 178 Q-2 197 11 215 Q24 233 38 251 Q42 258 48 264 Q50 266 51.5 267 Q53 268 55 270 Q63 275 71 271 Q79 267 81 257 Q82 253 81.5 249.5 Q81 246 81 242 Q80 225 79.5 207.5 Q79 190 77 172 L79 172 Q81 174 81.5 175.5 Q82 177 83 179 Q97 207 111 234.5 Q125 262 139 290 Q142 295 145 300.5 Q148 306 150 311 Q161 328 178 332 Q186 334 194.5 335.5 Q203 337 211 339 Q222 341 234 341.5 Q246 342 257 343 Q262 345 267 343 Q270 343 272 341 L273 341 L273 341 Z " />
<glyph glyph-name="x" unicode="x" horiz-adv-x="171" d="M192 337 Q194 335 194 331 Q194 328 193 324 Q192 320 188 315 Q184 308 176 297.5 Q168 287 160 278 Q158 276 157.5 275 Q157 274 155 272 Q136 249 119 225.5 Q102 202 85 178 Q80 170 74.5 163.5 Q69 157 64 150 Q60 146 52 140 Q40 132 28.5 135.5 Q17 139 10 152 Q7 158 5.5 163.5 Q4 169 2 175 Q-1 187 -4 202 Q-7 200 -7 199 L-49 148 Q-53 143 -54 136 Q-54 129 -59 125.5 Q-64 122 -70 123 Q-76 124 -80.5 128.5 Q-85 133 -84 140 Q-84 148 -79 155 Q-72 165 -65.5 174.5 Q-59 184 -51 193 Q-41 205 -31 217 Q-21 229 -11 240 Q-8 244 -6 253 Q-6 272 -5.5 291 Q-5 310 -4 330 Q-3 332 -3 335 Q-3 338 -1 340 Q3 351 15 347 Q26 344 26 332 Q25 326 24.5 320.5 Q24 315 24 310 Q23 302 22.5 294.5 Q22 287 22 279 Q25 281 28 284 Q41 298 53 311.5 Q65 325 79 339 Q85 345 90 347 Q98 351 105 345.5 Q112 340 112 331 Q111 325 105 321 Q99 317 97 315 Q80 296 63 277.5 Q46 259 29 241 Q21 233 23 223 Q24 218 24.5 213 Q25 208 26 203 Q27 198 28.5 191 Q30 184 32 178 Q34 171 35 164 Q41 171 46 177 Q51 182 56 188.5 Q61 195 66 201 Q89 236 116.5 271 Q144 306 171 338 Q173 340 179.5 343 Q186 346 192 337 Z " />
<glyph glyph-name="z" unicode="z" horiz-adv-x="195" d="M211 338 Q217 330 212 323 Q210 321 209.5 320 Q209 319 207 318 Q171 290 138 260.5 Q105 231 71 202 Q59 191 47 181.5 Q35 172 23 162 Q12 154 -2 146 Q-5 144 -9 143.5 Q-13 143 -18 142 Q-26 141 -32 146.5 Q-38 152 -38 160 Q-40 169 -37 176 Q-35 182 -33 187.5 Q-31 193 -29 199 Q-15 228 4 255.5 Q23 283 46 307 L62 323 Q64 325 65 326.5 Q66 328 68 330 L65 330 Q62 330 56.5 329.5 Q51 329 46 327 Q37 325 28 323 Q19 321 10 319 Q1 318 -4 323 Q-10 327 -8 336 Q-4 347 5 348 Q19 351 32 353.5 Q45 356 59 358 Q64 359 69.5 359 Q75 359 80 359 Q94 357 100 347.5 Q106 338 101 327 Q99 322 95.5 318 Q92 314 88 309 Q80 300 71 291 Q62 282 54 273 Q36 253 22 230.5 Q8 208 -3 184 Q-5 180 -6 176 Q-4 178 -3 178.5 Q-2 179 0 180 Q11 189 22.5 198 Q34 207 45 217 Q77 244 107.5 271 Q138 298 169 324 Q174 328 178 331.5 Q182 335 187 338 Q190 341 195 343 Q204 347 211 338 Z " />
<glyph glyph-name="y" unicode="y" horiz-adv-x="213" d="M229 339 Q235 330 233.5 323.5 Q232 317 229 313 Q219 298 209 283 Q199 268 189 252 Q158 201 127.5 151 Q97 101 67 50 Q48 16 31 -18 Q14 -52 -4 -87 Q-9 -97 -14 -107 Q-19 -117 -25 -127 Q-27 -132 -30.5 -136 Q-34 -140 -38 -145 Q-44 -151 -49 -152 Q-57 -155 -64 -150.5 Q-71 -146 -72 -137 Q-73 -128 -70 -116 Q-61 -82 -49 -46 Q-30 10 -10.5 64.5 Q9 119 30 173 Q31 173 31 174 Q34 182 38.5 194 Q43 206 47 217 Q51 230 57 244 Q55 242 54.5 240 Q54 238 52 236 Q44 228 36 218.5 Q28 209 19 201 Q9 191 -4 185 Q-18 179 -28 185.5 Q-38 192 -40 207 Q-41 215 -40 223.5 Q-39 232 -37 240 Q-32 265 -23 288 Q-14 311 -3 334 L0 340 Q8 347 16 344 Q25 339 25 330 Q26 323 22 317 Q20 316 18 312 Q10 292 3 272.5 Q-4 253 -9 233 Q-11 228 -11 224 Q-11 220 -12 215 L-9 214 Q-5 218 -1 221 Q3 224 7 229 Q27 253 45 276 Q56 290 65.5 303 Q75 316 86 330 Q89 334 92 337 Q95 340 98 343 Q108 351 117 346 Q126 340 125 328 Q124 323 122.5 318.5 Q121 314 119 309 Q108 284 98 260 Q88 236 77 212 Q51 148 27.5 83.5 Q4 19 -19 -47 Q-19 -48 -19.5 -49 Q-20 -50 -19 -52 Q-17 -50 -17 -48 Q14 15 48.5 75 Q83 135 121 195 Q140 225 158.5 255.5 Q177 286 196 316 Q200 321 203.5 326 Q207 331 211 336 Q213 338 218.5 342.5 Q224 347 229 339 Z " />
<glyph glyph-name="d" unicode="d" horiz-adv-x="140" d="M206 709 Q216 707 216 696 Q216 683 210 676 Q207 673 207 669 Q176 588 145 507.5 Q114 427 84 346 Q46 243 9 140 Q-28 37 -63 -67 L-81 -127 Q-83 -131 -83 -135 Q-83 -139 -83 -143 Q-83 -157 -95 -160 Q-109 -164 -111 -150 Q-113 -138 -110 -129 Q-104 -108 -98 -87 Q-92 -66 -84 -45 Q-68 1 -52.5 46.5 Q-37 92 -20 137 L20 250 L-31 201 Q-39 194 -49 186.5 Q-59 179 -67 181 L-70 181 Q-70 182 -71 182 Q-83 187 -82 202 Q-82 212 -79 221 Q-76 229 -73 236.5 Q-70 244 -65 252 Q-46 292 -22 320 Q-14 329 -5 337 Q6 348 15 345.5 Q24 343 31 336 Q38 329 41 321 Q44 313 43 313 L121 521 Q134 554 146.5 587.5 Q159 621 172 654 Q176 664 179 673 Q182 682 185 691 Q189 699 191 702 Q197 711 206 709 Z M-18 257 Q-11 264 -3.5 272 Q4 280 9.5 287.5 Q15 295 17.5 301 Q20 307 19 310 L18 311 Q13 315 2.5 303.5 Q-8 292 -18 276 Q-30 258 -43 233 L-41 235 Q-38 238 -32 243.5 Q-26 249 -18 257 Z " />
<glyph glyph-name="A" unicode="A" horiz-adv-x="257" d="M329 702 Q331 686 327 675 Q322 657 316.5 639 Q311 621 304 603 Q285 555 266 506.5 Q247 458 228 410 Q219 386 208 360 Q199 338 188 311 Q177 284 167 257 L167 256 Q147 205 128.5 153.5 Q110 102 92 49 Q74 -5 58.5 -60 Q43 -115 29 -171 Q28 -174 28 -176.5 Q28 -179 27 -182 Q24 -195 12 -193 Q1 -191 -1 -179 Q-1 -174 1 -164 Q15 -107 30.5 -52 Q46 3 65 58 Q88 124 111 189 Q134 254 160 318 Q161 320 161.5 322 Q162 324 163 327 Q155 325 147 322.5 Q139 320 131 318 Q116 314 101 310 Q86 306 71 302 Q61 299 57 291 L-36 96 Q-69 27 -101 -42.5 Q-133 -112 -165 -181 Q-168 -187 -167 -193 Q-165 -200 -174 -207 Q-176 -209 -177.5 -210.5 Q-179 -212 -181 -214 Q-191 -225 -201 -218 Q-206 -215 -207 -209 Q-208 -203 -205 -197 Q-198 -183 -191 -168.5 Q-184 -154 -177 -139 Q-138 -54 -98.5 30.5 Q-59 115 -19 200 Q-10 220 -0.5 239 Q9 258 19 278 Q20 281 23 287 Q20 286 18.5 286 Q17 286 15 285 Q-83 254 -173 216 Q-179 214 -185 210.5 Q-191 207 -197 203 Q-205 198 -213 204 Q-221 210 -219 220 Q-216 228 -208 231 Q-203 235 -196.5 237.5 Q-190 240 -184 243 Q-79 287 34 321 Q41 323 46 331 Q78 394 112 454.5 Q146 515 184 575 Q201 601 218 626.5 Q235 652 255 676 Q262 685 269.5 693 Q277 701 285 709 Q289 712 292.5 715 Q296 718 301 720 Q311 725 319.5 719.5 Q328 714 329 702 Z M294 661 Q296 666 297 671 Q298 676 300 681 L298 681 Q294 677 290.5 673 Q287 669 283 665 Q272 651 262 638 Q252 625 242 611 Q197 546 158 478 Q119 410 82 339 Q82 338 81.5 337.5 Q81 337 81 336 L84 336 Q106 341 127.5 347 Q149 353 170 358 Q177 359 180 366 Q197 410 214 452 Q231 494 248 538 Q260 568 271.5 599 Q283 630 294 661 Z " />
<glyph glyph-name="S" unicode="S" horiz-adv-x="334" d="M347 625 Q349 606 346.5 588 Q344 570 340 552 Q332 520 322.5 489.5 Q313 459 299 429 Q293 416 286 404 Q279 392 270 381 Q265 375 259 371 Q255 367 249 367 Q241 366 235 375 Q232 385 239 391 Q248 398 254 407 Q260 416 265 425 Q274 441 280.5 457.5 Q287 474 293 491 Q301 514 307.5 538 Q314 562 317 586 Q319 597 319.5 606.5 Q320 616 318 627 Q318 629 317.5 630 Q317 631 317 633 Q311 651 294 648 Q287 646 281 644.5 Q275 643 269 640 Q255 635 242 626.5 Q229 618 217 609 Q189 587 165 562.5 Q141 538 118 511 Q91 479 67.5 445.5 Q44 412 24 376 Q17 365 12.5 353.5 Q8 342 3 330 Q1 328 1 326 Q1 324 0 322 Q-1 317 0 311.5 Q1 306 10 306 Q15 306 17 307 L19 307 L21 307 Q41 312 59.5 316.5 Q78 321 98 326 Q143 338 189 344 Q200 345 210 344.5 Q220 344 231 341 Q260 332 262 302 Q262 288 257 271 Q251 255 243 237 Q241 235 240.5 232.5 Q240 230 238 227 Q233 218 228 208 Q223 198 218 189 Q210 175 203 161.5 Q196 148 188 134 Q180 120 172 106 Q164 92 156 78 Q99 -19 35 -116 Q28 -126 21.5 -135 Q15 -144 7 -154 Q3 -158 -0.5 -162 Q-4 -166 -9 -170 Q-18 -178 -28 -172 Q-38 -166 -36 -154 Q-35 -149 -34 -145 Q-33 -141 -31 -137 Q-24 -123 -17.5 -110.5 Q-11 -98 -3 -85 Q21 -44 48.5 -6.5 Q76 31 105 67 Q114 78 123 88.5 Q132 99 140 110 Q144 112 147 119 Q165 148 182 178 Q199 208 214 240 Q219 251 223 262.5 Q227 274 231 285 Q233 289 233 293 Q233 297 233 301 Q233 311 223 314 Q220 315 216.5 315 Q213 315 210 316 Q195 316 181 314 Q167 312 153 309 L39 282 Q31 280 23.5 279.5 Q16 279 8 278 Q3 277 -5 279 Q-27 284 -29 307 Q-29 321 -26 333 Q-22 347 -16.5 360 Q-11 373 -3 386 Q33 450 77 506.5 Q121 563 176 611 Q203 637 239 657 Q260 669 282 675 Q289 676 296 676.5 Q303 677 310 675 Q331 670 340 651 Q345 640 347 625 Z " />
<glyph glyph-name="B" unicode="B" horiz-adv-x="287" d="M328 571 Q341 568 346 559 Q351 550 348 538 Q345 525 335 513 Q326 503 317 493 Q308 483 298 474 Q269 448 239 425 Q209 402 178 378 Q163 366 147.5 354 Q132 342 117 330 Q113 327 110 324 Q107 321 102 317 L103 317 Q106 315 114.5 307.5 Q123 300 134 288.5 Q145 277 157.5 261 Q170 245 180 226 Q184 218 188 208.5 Q192 199 195 188 Q197 182 197 180 Q199 175 200 171 Q201 167 202 162 L205 141 Q208 98 198 60 Q176 -14 132 -68.5 Q88 -123 18 -158 Q4 -164 -10 -168.5 Q-24 -173 -38 -175 Q-57 -178 -75 -172 Q-92 -167 -103 -153 Q-114 -139 -116 -121 Q-117 -109 -115 -97.5 Q-113 -86 -110 -75 Q-104 -58 -96 -42 Q-88 -26 -79 -10 Q-55 27 -26 61 Q-25 63 -19 66.5 Q-13 70 -5 65 Q3 60 0.5 53 Q-2 46 -4 44 Q-30 13 -50 -18 Q-71 -50 -82 -82 Q-84 -90 -86 -97.5 Q-88 -105 -88 -113 Q-86 -144 -56 -147 Q-33 -148 -7 -137 Q35 -120 67.5 -93 Q100 -66 125 -29 Q146 2 159.5 34.5 Q173 67 177 105 Q179 134 173.5 158 Q168 182 160 202 Q158 205 156.5 208.5 Q155 212 153 216 Q147 230 140.5 239.5 Q134 249 130 255 L121 264 Q116 269 110.5 274 Q105 279 98 285 Q97 286 96 286.5 Q95 287 94 289 Q83 297 69 305 Q16 227 -28.5 146 Q-73 65 -106 -23 Q-107 -25 -107.5 -28 Q-108 -31 -110 -33 Q-116 -46 -128 -41 Q-139 -38 -136 -24 Q-136 -20 -135 -19 Q-109 50 -84.5 119 Q-60 188 -34 258 Q-4 339 29 418.5 Q62 498 97 577 Q107 598 115.5 619.5 Q124 641 133 663 Q135 668 135.5 672 Q136 676 137 681 Q138 683 138.5 685 Q139 687 140 689 Q147 699 157 696 Q169 693 167 680 Q167 673 164 666 Q156 645 147.5 623.5 Q139 602 130 580 Q98 507 67 433.5 Q36 360 7 285 Q2 274 -1.5 262.5 Q-5 251 -10 240 Q-12 236 -11 234 Q-9 236 -8.5 238 Q-8 240 -6 242 Q26 296 62 345.5 Q98 395 140 442 Q163 468 188 492.5 Q213 517 241 537 Q253 546 264.5 553.5 Q276 561 290 566 L311 572 Q316 572 320 572 Q324 572 328 571 Z M310 527 Q313 531 315.5 534.5 Q318 538 321 543 Q311 544 300 539 Q274 529 250 508 Q213 479 181 444.5 Q149 410 120 373 Q120 373 118 369 Q122 371 122 371 Q157 398 191.5 425.5 Q226 453 261 480 Q289 502 310 527 Z " />
<glyph glyph-name="C" unicode="C" horiz-adv-x="327" d="M211 529 Q243 567 252 616 Q253 623 252 631 Q251 641 239 640 Q237 639 234 639 Q231 639 229 637 Q223 633 218 630 Q213 627 208 622 Q191 608 177 591 Q163 574 150 557 Q122 518 98.5 477 Q75 436 55 393 Q25 328 1.5 262 Q-22 196 -39 127 Q-47 98 -51.5 68 Q-56 38 -59 8 Q-61 -14 -61 -35.5 Q-61 -57 -57 -79 Q-56 -87 -54 -94.5 Q-52 -102 -50 -110 Q-49 -113 -47.5 -116.5 Q-46 -120 -44 -123 Q-39 -130 -31 -126 Q-18 -122 -7 -109 Q3 -98 12.5 -87.5 Q22 -77 31 -66 Q66 -20 101.5 25 Q137 70 173 115 L199 148 L208 160 L208 161 L210 163 Q216 170 222 177 Q228 184 234 192 Q236 196 243 200 Q251 204 260 197 Q265 188 261 181 Q259 177 259 177 Q254 171 248.5 164.5 Q243 158 238 152 L229 140 Q219 128 211 117 Q203 108 196.5 99 Q190 90 187 87 Q164 57 140 27.5 Q116 -2 93 -31 Q78 -50 63.5 -69 Q49 -88 34 -106 Q27 -114 19.5 -122 Q12 -130 4 -137 Q-8 -149 -24 -154 Q-50 -162 -66 -141 Q-74 -130 -79 -112 Q-85 -92 -87 -73 Q-89 -54 -89 -42 Q-88 47 -70 117 Q-45 225 -5 325.5 Q35 426 92 521 Q107 546 123 569 Q139 592 159 614 Q177 635 201 653 Q214 663 231 668 Q250 672 264 662 Q278 652 281 633 Q282 625 281.5 618 Q281 611 279 603 Q272 577 260.5 553.5 Q249 530 231 510 Q227 504 224 503 Q215 497 206 504 Q200 512 204 521 Q206 523 207.5 525 Q209 527 211 529 Z " />
<glyph glyph-name="D" unicode="D" horiz-adv-x="377" d="M361 493 Q361 476 358.5 458.5 Q356 441 352 424 Q349 410 346 397 Q343 384 338 371 Q338 370 334.5 361 Q331 352 325.5 337.5 Q320 323 313 306 Q306 289 297 271 Q292 260 286.5 250 Q281 240 275 229 Q273 225 271 224 Q199 98 86 -2 Q61 -25 35.5 -45 Q10 -65 -19 -83 Q-33 -92 -48 -99.5 Q-63 -107 -80 -112 Q-88 -114 -96.5 -115.5 Q-105 -117 -113 -115 Q-138 -110 -141 -84 Q-143 -71 -138 -57 Q-131 -35 -118 -12 Q-99 20 -76 48.5 Q-53 77 -27 103 Q-3 127 22.5 148 Q48 169 75 189 Q79 191 83.5 191 Q88 191 93 186 Q99 179 95.5 173 Q92 167 87 163 Q87 163 85 162 Q85 162 83 160 Q41 130 5 95.5 Q-31 61 -62 20 Q-75 3 -86 -14 Q-97 -31 -105 -50 Q-108 -55 -109.5 -61 Q-111 -67 -113 -72 Q-116 -90 -98 -87 Q-86 -86 -73 -79 Q-58 -74 -44.5 -66 Q-31 -58 -18 -49 Q0 -36 18 -22 Q36 -8 53 6 Q82 32 109.5 59.5 Q137 87 162 117 Q188 147 210.5 179.5 Q233 212 252 247 Q258 258 264 269.5 Q270 281 275 292 Q293 330 307 370.5 Q321 411 329 453 Q331 467 332 480.5 Q333 494 331 508 Q331 510 330 510 Q324 538 298 529 Q290 527 283.5 523.5 Q277 520 270 516 Q237 496 207 466 Q165 428 128.5 385 Q92 342 58 297 Q29 258 3 217.5 Q-23 177 -44 133 Q-47 127 -49.5 121.5 Q-52 116 -54 111 Q-57 105 -62 102 Q-68 97 -74.5 100.5 Q-81 104 -82 112 Q-82 118 -81 121 Q-51 205 -22 287.5 Q7 370 41 452 Q61 500 81.5 547.5 Q102 595 122 643 Q124 649 126.5 654.5 Q129 660 131 666 Q136 678 135 688 Q134 702 146 716 Q153 723 161 720 Q171 716 171 706 Q171 702 170.5 698 Q170 694 169 689 Q163 669 155 649.5 Q147 630 139 611 Q102 529 69 446.5 Q36 364 6 279 Q5 277 4.5 275 Q4 273 3 271 L4 271 Q8 275 9 278 Q42 326 78.5 370 Q115 414 155 456 Q174 475 193.5 493 Q213 511 235 527 Q246 535 257.5 542 Q269 549 282 554 Q290 557 299 559 Q308 561 317 559 Q340 556 353 532 Q361 516 361 493 Z " />
<glyph glyph-name="i" unicode="i" horiz-adv-x="102" d="M51 438 Q41 436 35 446 Q29 457 37 463 Q42 467 50 470 Q56 472 61.5 467.5 Q67 463 69 455 Q69 453 67 447 Q61 440 51 438 Z M120 338 Q121 337 122.5 333.5 Q124 330 119 324 Q116 320 99 299 Q82 278 61.5 253 Q41 228 23 206 Q5 184 1 179 L-20 158 Q-22 156 -24.5 154.5 Q-27 153 -29 151 Q-39 146 -48 152 Q-57 158 -57 170 Q-57 180 -56 184 Q-51 201 -47 218 Q-43 235 -38 251 Q-30 274 -21 297 Q-12 320 -1 341 Q3 344 8 343.5 Q13 343 17 340 Q27 333 24 324 Q24 322 23.5 321.5 Q23 321 23 319 L-20 202 Q-18 204 -16 206.5 Q-14 209 -12 211 Q-4 219 3 227.5 Q10 236 18 245 L60 293 L72 306 L75 309 Q81 316 87.5 323.5 Q94 331 100 338 Q109 348 119 339 Q119 339 120 338 Z " />
<glyph glyph-name="E" unicode="E" horiz-adv-x="342" d="M403 626 Q408 623 410 617 Q412 611 410 606 Q408 601 402.5 599 Q397 597 392 599 Q384 603 374 601 L314 595 Q297 593 281 590.5 Q265 588 249 586 Q235 584 221.5 581 Q208 578 194 576 Q187 574 186 570 Q160 508 133 447.5 Q106 387 80 326 Q79 324 78.5 322 Q78 320 76 316 Q84 318 90 319 Q96 320 103 322 Q130 327 157.5 333 Q185 339 212 345 Q225 347 230 336 Q232 331 230 325.5 Q228 320 222 318 Q217 316 212 315.5 Q207 315 202 313 Q169 306 136 299.5 Q103 293 69 285 Q64 285 61 279 Q38 219 17 158.5 Q-4 98 -20 35 Q-31 -4 -35 -43 Q-36 -54 -36 -64 Q-36 -74 -33 -85 Q-30 -97 -20 -93 Q-13 -91 -7 -88.5 Q-1 -86 5 -82 Q31 -67 55.5 -51.5 Q80 -36 106 -21 Q114 -16 122.5 -10 Q131 -4 139 1 Q143 4 146.5 7.5 Q150 11 153 14 Q162 23 172 17 Q184 10 177 -2 Q172 -10 165 -16 Q157 -22 149 -27.5 Q141 -33 133 -38 Q108 -54 83.5 -69 Q59 -84 33 -99 Q24 -105 14.5 -109.5 Q5 -114 -4 -118 Q-9 -120 -14.5 -121 Q-20 -122 -25 -123 Q-45 -123 -55 -104 Q-61 -94 -63 -77 Q-65 -61 -63.5 -46 Q-62 -31 -60 -16 Q-55 22 -45 57.5 Q-35 93 -23 128 Q-12 163 0.5 197 Q13 231 25 265 Q26 271 29 276 Q22 274 16 273 Q10 272 4 270 Q-4 268 -12.5 265 Q-21 262 -30 259 L-42 256 Q-57 253 -61 267 Q-63 273 -59.5 278.5 Q-56 284 -50 285 Q-35 287 -21.5 292 Q-8 297 6 300 Q14 302 20.5 303.5 Q27 305 34 307 Q42 308 45 316 Q53 337 62 358.5 Q71 380 80 401 Q97 440 114.5 479 Q132 518 149 557 Q151 563 153 567 Q144 565 135.5 563.5 Q127 562 119 560 Q109 558 100 556 Q91 554 81 552 Q75 551 70 547 Q65 544 56.5 544.5 Q48 545 43 548 Q36 553 36 560.5 Q36 568 43 572 Q47 575 54 575 Q80 581 107 587 Q134 593 161 599 Q167 599 169 605 Q174 619 180 633.5 Q186 648 191 662 Q193 665 194.5 668.5 Q196 672 198 675 Q207 689 219 678 Q225 674 226 667 Q227 660 222 655 Q219 652 218 649 Q217 646 215 643 Q212 634 208.5 625 Q205 616 201 607 Q213 609 224.5 610.5 Q236 612 247 614 L331 626 Q345 628 360 629 Q375 630 390 629 Q393 629 396.5 628 Q400 627 403 626 Z " />
<glyph glyph-name="F" unicode="F" horiz-adv-x="346" d="M487 627 Q490 616 481 610 Q476 605 468 604 Q460 603 454 608 Q448 611 442 610 Q425 608 407 605.5 Q389 603 372 601 Q347 597 323 593 Q299 589 275 584 Q261 582 246.5 578.5 Q232 575 218 573 Q208 572 205 563 L178 500 Q169 477 160 455.5 Q151 434 141 411 Q141 410 139 404 Q156 409 171.5 414 Q187 419 202 424 Q222 429 242.5 435 Q263 441 283 446 Q289 447 295 446 Q308 446 308 433 Q308 420 296 418 Q282 417 268.5 413.5 Q255 410 241 405 Q214 397 187 388.5 Q160 380 132 371 Q124 370 121 360 Q89 282 60 203 Q31 124 2 44 Q-17 -9 -35.5 -61 Q-54 -113 -73 -165 Q-74 -168 -76 -172 Q-78 -177 -82.5 -178.5 Q-87 -180 -92 -179 Q-103 -175 -101 -164 Q-101 -161 -100.5 -158.5 Q-100 -156 -99 -153 Q-86 -117 -73.5 -81 Q-61 -45 -48 -10 Q-16 75 15 158.5 Q46 242 77 327 Q80 334 82.5 340.5 Q85 347 88 355 Q85 353 83 353 Q81 353 79 352 Q62 345 46.5 339 Q31 333 14 326 Q4 322 -1 321 Q-12 318 -19 327 Q-23 336 -17 345 Q-15 347 -13.5 349 Q-12 351 -10 353 Q-2 360 6 357 Q9 355 15 357 Q36 365 56.5 373 Q77 381 98 389 Q103 391 105 398 Q115 422 124.5 445.5 Q134 469 144 493 Q151 509 157.5 524 Q164 539 171 555 Q172 557 172.5 559 Q173 561 174 563 Q163 561 153.5 559 Q144 557 135 554 Q108 547 80.5 540.5 Q53 534 26 526 Q24 525 23 525 Q22 525 20 524 Q4 519 -1 533 Q-6 547 11 552 Q20 554 29.5 556.5 Q39 559 49 561 Q82 569 115.5 577.5 Q149 586 183 594 Q188 596 191 601 Q198 617 204.5 633 Q211 649 218 665 Q220 669 220.5 672.5 Q221 676 222 679 Q227 694 238 691 Q252 689 250 674 Q250 670 248 664 Q242 650 236.5 635.5 Q231 621 225 607 Q224 606 224 603 Q234 605 243 607 Q252 609 262 611 Q286 615 309.5 619 Q333 623 357 627 Q377 630 396.5 633 Q416 636 436 638 Q443 639 450 639.5 Q457 640 464 640 Q472 640 475 639 Q485 636 487 627 Z " />
<glyph glyph-name="G" unicode="G" horiz-adv-x="280" d="M283 608 Q282 604 281.5 600 Q281 596 280 592 Q278 579 266 579 Q253 579 253 592 Q252 595 252.5 598.5 Q253 602 253 606 Q254 619 243 616 Q232 614 225 610 Q211 603 200 594.5 Q189 586 178 576 Q158 557 140.5 536 Q123 515 107 492 Q85 463 67.5 432 Q50 401 37 368 Q32 354 27.5 339.5 Q23 325 25 310 Q25 302 26 298 Q28 289 36 292 Q45 293 56 298 Q70 304 80.5 312 Q91 320 102 329 Q125 346 146 365.5 Q167 385 188 405 Q194 411 200.5 417.5 Q207 424 215 431 Q218 434 222 436.5 Q226 439 230 441 Q241 446 249 441 Q257 436 257 424 Q257 407 250 393 Q247 383 244 374 Q241 365 236 356 Q228 336 220 318 Q213 301 205.5 283 Q198 265 191 250 Q162 190 130.5 133 Q99 76 60 22 Q40 -6 19.5 -32.5 Q-1 -59 -24 -82 Q-38 -94 -51.5 -105.5 Q-65 -117 -81 -128 Q-98 -140 -117.5 -147.5 Q-137 -155 -158 -157 Q-189 -160 -205 -136 Q-216 -122 -218 -107 Q-220 -92 -215 -75 Q-210 -63 -205.5 -52 Q-201 -41 -194 -30 Q-177 -5 -159 17 Q-141 39 -121 60 Q-38 143 54 214 Q86 237 116.5 258.5 Q147 280 179 303 Q187 308 190 315 Q198 334 205 352 Q212 370 219 389 Q221 395 223 399 Q217 395 215 393 Q196 376 178.5 359 Q161 342 142 325 Q129 314 115.5 304 Q102 294 89 284 Q72 272 50 265 Q45 264 40 263.5 Q35 263 30 263 Q6 266 0 289 Q-2 299 -2 309 Q-2 319 -1 329 Q3 366 21 400 Q44 451 76 497 Q108 543 147 584 Q169 608 195 626 Q205 632 215.5 637 Q226 642 237 644 Q239 644 240 644.5 Q241 645 243 645 Q261 647 271.5 636.5 Q282 626 283 608 Z M161 252 Q161 252 163 258 Q157 255 156 254 Q148 249 141 243.5 Q134 238 127 233 Q14 153 -84 58 Q-105 38 -125 15.5 Q-145 -7 -162 -31 Q-175 -49 -184 -71 Q-190 -86 -189 -99 Q-190 -115 -179.5 -123 Q-169 -131 -155 -129 Q-141 -127 -129 -122.5 Q-117 -118 -105 -110 Q-87 -99 -69 -84 Q-40 -61 -17 -34 Q6 -7 26 22 Q67 76 99.5 134 Q132 192 161 252 Z " />
<glyph glyph-name="H" unicode="H" horiz-adv-x="320" d="M401 689 Q404 684 404.5 679 Q405 674 401 670 Q395 664 392 655 Q365 584 336 514.5 Q307 445 281 373 Q281 373 280 372 Q276 361 272 349.5 Q268 338 264 327 Q263 325 261 319 Q258 309 254 297.5 Q250 286 245 274 Q245 273 244 272 Q242 263 238.5 254 Q235 245 232 236 Q228 225 224.5 213 Q221 201 216 190 Q190 113 164 36 Q138 -41 115 -119 Q111 -134 107.5 -149.5 Q104 -165 100 -181 Q98 -187 98 -193.5 Q98 -200 98 -206 Q97 -208 97.5 -209 Q98 -210 97 -212 Q97 -221 86 -223 Q75 -225 72 -216 Q70 -210 70 -206 Q68 -197 69.5 -187.5 Q71 -178 73 -169 Q81 -134 91 -100 Q101 -66 112 -32 Q135 39 159 109 Q183 179 206 249 Q208 252 208.5 254.5 Q209 257 211 261 Q208 259 206.5 259 Q205 259 203 258 Q160 238 118 219 Q76 200 34 180 Q27 178 22 169 Q5 118 -12.5 68.5 Q-30 19 -47 -32 Q-51 -40 -54 -48 Q-57 -56 -61 -64 Q-74 -90 -87.5 -98 Q-101 -106 -113 -105 Q-125 -104 -133 -98.5 Q-141 -93 -143 -91 Q-149 -85 -153.5 -77.5 Q-158 -70 -163 -61 Q-164 -60 -164 -58 Q-166 -54 -167 -50.5 Q-168 -47 -170 -43 Q-171 -37 -172 -29.5 Q-173 -22 -175 -14 L-175 -7 L-175 -4 Q-176 5 -175.5 15 Q-175 25 -173 36 Q-172 39 -168 52 Q-164 65 -152 84 Q-140 103 -119 124.5 Q-98 146 -63 165 Q-55 169 -47 172.5 Q-39 176 -31 180 Q-20 187 -4 194 Q4 197 6 205 Q29 267 51.5 328 Q74 389 97 452 Q109 484 121.5 516.5 Q134 549 146 581 Q148 590 147 595 Q146 613 157 626 Q164 633 173 630 Q182 625 184 616 Q183 612 183 608.5 Q183 605 181 601 Q175 582 169 563 Q163 544 156 525 Q130 456 104.5 389 Q79 322 54 254 Q50 246 47.5 238.5 Q45 231 42 223 Q41 221 41 219 Q41 217 40 215 Q42 217 44 217 Q46 217 48 218 Q90 238 132 257 Q174 276 217 296 Q223 297 226 305 Q250 375 277 443.5 Q304 512 332 581 Q341 602 349.5 623.5 Q358 645 366 667 Q369 676 375 685 Q378 690 383 693 Q394 698 401 689 Z M-13 149 Q-11 155 -11 157 Q-12 157 -12 157.5 Q-12 158 -13 158 L-43 143 Q-73 128 -92 110 Q-111 92 -122 75.5 Q-133 59 -137.5 45.5 Q-142 32 -143 26 Q-146 10 -145.5 -8 Q-145 -26 -138 -47 Q-135 -56 -127 -68 Q-125 -70 -122 -72 Q-118 -75 -109 -76 Q-100 -77 -88 -56 Q-86 -51 -84 -46 Q-82 -41 -80 -36 Q-68 -5 -57 25.5 Q-46 56 -35 87 Q-30 103 -24 118.5 Q-18 134 -13 149 Z " />
<glyph glyph-name="I" unicode="I" horiz-adv-x="107" d="M174 699 Q185 695 180 682 Q178 676 176 672 Q164 644 151.5 616.5 Q139 589 127 560 Q40 353 -29 140 Q-46 86 -64 33.5 Q-82 -19 -99 -73 Q-104 -89 -107.5 -104.5 Q-111 -120 -116 -135 Q-117 -138 -117 -140.5 Q-117 -143 -118 -145 Q-120 -157 -132 -159 Q-146 -159 -146 -145 Q-146 -143 -145.5 -141.5 Q-145 -140 -145 -138 L-146 -138 Q-142 -124 -138.5 -109.5 Q-135 -95 -130 -81 Q-104 8 -74 95.5 Q-44 183 -13 271 Q23 374 62.5 475 Q102 576 147 676 Q149 680 150.5 683.5 Q152 687 154 691 Q162 704 174 699 Z " />
<glyph glyph-name="J" unicode="J" horiz-adv-x="307" d="M348 632 Q347 604 337 574 Q323 529 306.5 485.5 Q290 442 272 399 Q265 385 260 370.5 Q255 356 248 342 Q247 341 240 325.5 Q233 310 221.5 287 Q210 264 196 236.5 Q182 209 168 183 Q159 169 152 154.5 Q145 140 135 126 Q135 124 132 123 Q119 100 104.5 79 Q90 58 75 37 Q31 -22 -18 -71 Q-32 -84 -46.5 -95.5 Q-61 -107 -78 -117 Q-95 -128 -114 -132 Q-134 -136 -147 -125.5 Q-160 -115 -160 -95 Q-159 -82 -157 -70 Q-155 -58 -149 -47 Q-140 -27 -127.5 -9.5 Q-115 8 -101 25 Q-78 51 -53.5 73.5 Q-29 96 -4 118 Q35 150 77 179.5 Q119 209 161 239 Q167 242 170.5 246.5 Q174 251 177 257 Q215 332 247.5 409.5 Q280 487 306 567 Q310 578 312 589.5 Q314 601 317 612 Q321 624 317 635 Q313 634 309.5 634.5 Q306 635 302 633 Q288 628 274 623 Q260 618 246 613 Q208 596 170.5 578 Q133 560 95 541 Q88 536 80 532.5 Q72 529 64 525 Q62 524 59.5 523 Q57 522 54 522 Q43 519 38 530 Q37 535 39 540.5 Q41 546 46 548 L67 557 Q85 566 103.5 575.5 Q122 585 141 594 Q173 611 206.5 626 Q240 641 275 654 Q285 658 295 660.5 Q305 663 316 663 Q346 663 348 632 Z M137 185 Q138 186 138 186.5 Q138 187 139 188 L138 189 Q136 187 134.5 186.5 Q133 186 131 184 Q108 167 85 150.5 Q62 134 39 117 Q-6 81 -49 41 Q-65 24 -80.5 6 Q-96 -12 -110 -32 Q-117 -43 -122.5 -54.5 Q-128 -66 -129 -79 Q-131 -83 -131 -87.5 Q-131 -92 -131 -97 Q-131 -106 -122 -104 Q-117 -103 -112.5 -102 Q-108 -101 -104 -99 Q-87 -90 -72 -81 Q-49 -64 -28.5 -43.5 Q-8 -23 9 -1 Q46 43 77.5 89 Q109 135 137 185 Z " />
<glyph glyph-name="K" unicode="K" horiz-adv-x="226" d="M349 -148 Q361 -151 359 -164 Q357 -177 345 -175 Q336 -175 328 -170 Q320 -166 312.5 -162 Q305 -158 297 -153 Q147 -57 3 48 Q-8 56 -19 65 Q-30 74 -41 82 Q-43 84 -45.5 85.5 Q-48 87 -50 89 Q-54 85 -55 83 Q-72 57 -88.5 31 Q-105 5 -119 -22 Q-123 -30 -126 -33 Q-134 -41 -144 -36 Q-153 -31 -151 -19 Q-148 -8 -141 0 Q-138 3 -134 11 L-110 65 Q-106 74 -103 83 Q-100 92 -96 101 Q-94 105 -93 108.5 Q-92 112 -94 117 Q-96 124 -89 129 Q-83 133 -81 142 Q-41 251 1.5 357 Q44 463 88 570 Q99 597 109.5 624 Q120 651 131 679 Q132 680 132 681 Q132 682 133 684 Q142 698 153 692 Q159 689 161 682.5 Q163 676 160 670 Q156 661 152.5 651.5 Q149 642 145 632 Q125 584 105.5 536 Q86 488 66 440 Q37 368 8.5 297 Q-20 226 -46 154 L-49 145 Q-48 145 -48 144.5 Q-48 144 -47 144 Q-43 150 -42 151 L174 442 Q181 450 187 461 Q192 468 204 468 Q214 466 217 458 Q219 451 212 442 Q205 434 198 425 Q191 416 184 407 Q130 335 78 264.5 Q26 194 -28 122 Q-32 116 -35 112 Q-15 97 3.5 82.5 Q22 68 42 54 Q111 4 180.5 -43 Q250 -90 322 -135 Q328 -139 334.5 -142.5 Q341 -146 349 -148 Z " />
<glyph glyph-name="L" unicode="L" horiz-adv-x="238" d="M248 157 Q250 146 238 141 Q232 138 226 135.5 Q220 133 214 129 Q179 108 144.5 87 Q110 66 75 45 Q56 34 36.5 23 Q17 12 -3 1 Q-24 -12 -46 -16 Q-51 -17 -57 -17.5 Q-63 -18 -68 -16 Q-79 -14 -84 -6.5 Q-89 1 -91 11 Q-92 16 -92 20.5 Q-92 25 -93 28 Q-91 47 -88.5 63 Q-86 79 -82 96 Q-70 147 -53.5 196 Q-37 245 -19 294 Q9 369 40 442.5 Q71 516 105 589 Q116 612 125.5 635 Q135 658 146 681 Q148 686 152 694 Q160 708 173 702 Q178 699 180 692 Q182 685 178 679 Q168 665 162.5 649.5 Q157 634 149 619 Q123 562 97.5 505 Q72 448 49 391 Q24 329 1.5 267.5 Q-21 206 -40 143 Q-48 120 -53.5 96 Q-59 72 -62 48 Q-63 40 -63.5 33.5 Q-64 27 -63 20 Q-63 9 -52 12 Q-46 14 -40 15.5 Q-34 17 -28 20 Q-12 28 3.5 36.5 Q19 45 35 54 Q73 77 111 100 Q149 123 187 146 Q195 151 204 155.5 Q213 160 221 165 Q227 168 234 168 Q246 168 248 157 Z " />
<glyph glyph-name="M" unicode="M" horiz-adv-x="413" d="M467 617 Q477 614 477 604 Q477 594 474 587 Q471 580 468 573 Q465 566 461 559 Q424 493 390.5 427.5 Q357 362 326 294 Q274 182 224 70 Q174 -42 126 -156 Q123 -162 120.5 -168.5 Q118 -175 116 -181 Q113 -191 103 -192 Q94 -193 88 -184 Q82 -175 89 -167 Q90 -165 91 -163.5 Q92 -162 93 -160 Q122 -94 151 -27.5 Q180 39 209 105 Q244 185 279.5 263 Q315 341 354 419 Q371 453 389 486 Q407 519 425 553 Q426 555 427 557 Q428 559 429 561 L428 562 Q424 559 421 556 Q418 553 414 550 Q337 479 271.5 400 Q206 321 149 233 L131 206 Q127 199 123 197 Q115 189 106 194 Q95 197 97 209 Q97 214 99 224 Q111 261 122.5 297.5 Q134 334 146 371 Q151 384 155 396 Q159 408 164 421 Q165 423 165 427 Q162 426 161 423 Q119 363 78 303.5 Q37 244 -5 184 Q-25 155 -42.5 125.5 Q-60 96 -75 65 Q-78 60 -82 54 Q-89 45 -99 50 Q-110 54 -107 66 Q-107 69 -105 75 Q-63 190 -21.5 303.5 Q20 417 70 529 Q84 560 96.5 590 Q109 620 122 651 Q125 658 127 664.5 Q129 671 132 678 Q134 684 138 687 Q145 693 153 688 Q161 683 160 674 Q160 671 159 668 Q158 665 157 661 Q145 628 130.5 595.5 Q116 563 102 531 Q67 453 35.5 373 Q4 293 -25 212 Q-26 210 -26 206 Q-22 210 -21 212 Q23 275 66 336.5 Q109 398 153 460 Q159 469 165 477 Q171 485 178 493 Q183 500 190 504 Q198 509 206.5 505 Q215 501 215 490 Q215 482 212 475 L185 397 Q176 371 167.5 344.5 Q159 318 150 292 Q148 286 149 284 Q150 286 154 290 Q257 441 387 564 Q399 575 411 585 Q423 595 436 606 Q439 609 443 611.5 Q447 614 451 616 Q458 620 467 617 Z " />
<glyph glyph-name="N" unicode="N" horiz-adv-x="274" d="M318 597 Q319 592 318.5 588.5 Q318 585 318 580 Q314 570 311.5 560 Q309 550 304 541 Q291 511 278.5 481 Q266 451 252 422 Q203 311 158.5 199.5 Q114 88 69 -25 Q56 -57 43.5 -88 Q31 -119 20 -151 Q18 -156 16 -161 Q14 -166 12 -171 Q9 -181 -1 -179 Q-6 -177 -9.5 -174 Q-13 -171 -14 -166 Q-14 -160 -13 -156 Q-10 -149 -8 -142.5 Q-6 -136 -3 -129 Q60 35 124.5 195 Q189 355 261 513 Q267 528 273 542.5 Q279 557 284 572 Q286 575 288 583 Q288 583 286 584 Q265 570 246 551 Q198 508 156.5 461 Q115 414 76 363 Q43 320 14.5 274 Q-14 228 -40 179 Q-44 171 -47 167 Q-55 158 -66 164 Q-76 169 -73 182 Q-72 184 -72 185 Q-72 186 -71 187 Q-51 243 -30 297.5 Q-9 352 11 407 Q33 462 55 516.5 Q77 571 99 626 Q104 635 107 644.5 Q110 654 114 664 Q116 666 117 669 Q118 672 120 674 Q122 679 127 680 Q132 681 137 678 Q149 671 144 659 Q137 640 130 621.5 Q123 603 115 584 Q90 524 66.5 464 Q43 404 18 344 Q18 342 17.5 339.5 Q17 337 17 334 Q18 336 19 336.5 Q20 337 21 339 Q50 381 82 420.5 Q114 460 149 498 Q173 524 198.5 549 Q224 574 253 597 Q263 606 278 614 Q283 617 291 619 Q302 621 309.5 614.5 Q317 608 318 597 Z " />
<glyph glyph-name="O" unicode="O" horiz-adv-x="342" d="M349 556 Q348 526 342 497 Q336 468 328 439 Q309 373 282.5 311 Q256 249 223 189 Q198 142 170 97.5 Q142 53 109 11 Q85 -19 60 -46.5 Q35 -74 7 -98 Q-16 -118 -37 -129 Q-54 -139 -71 -142 Q-106 -147 -122 -118 Q-132 -103 -135 -80 Q-137 -61 -135 -42 Q-133 -23 -129 -4 Q-120 40 -104.5 81 Q-89 122 -71 163 Q-48 213 -22 260.5 Q4 308 31 355 Q58 401 86 446 Q114 491 143 536 Q151 549 159.5 561 Q168 573 178 585 Q180 589 183.5 592 Q187 595 190 597 Q199 603 207 600 Q218 596 218 584 Q216 571 205 568 Q196 567 193 560 Q182 543 171 527.5 Q160 512 149 495 Q107 431 69 367 Q31 303 -3 237 Q-26 193 -46.5 149 Q-67 105 -83 59 Q-91 38 -95.5 17 Q-100 -4 -105 -26 Q-107 -40 -107.5 -54 Q-108 -68 -105 -82 Q-104 -86 -103.5 -90 Q-103 -94 -101 -98 Q-92 -118 -70 -113 Q-62 -111 -54 -107 Q-46 -103 -38 -98 Q-24 -88 -11 -77 Q2 -66 14 -54 Q45 -23 73 10.5 Q101 44 126 81 Q179 159 220.5 242 Q262 325 291 415 Q310 468 317 520 Q321 543 321 565.5 Q321 588 316 611 Q311 629 301 644 Q278 671 244 664 Q224 661 206 651 Q188 641 171 627 Q163 622 156.5 615 Q150 608 144 601 Q134 590 128 573 Q126 560 113 562 Q108 563 104 567 Q100 571 102 577 Q103 582 103.5 586 Q104 590 106 594 Q111 601 115 608 Q119 615 124 621 Q146 646 171.5 663.5 Q197 681 229 690 Q255 698 276 692 Q292 689 303 680.5 Q314 672 325 660 Q344 632 347 595 Q349 585 348.5 575.5 Q348 566 349 556 Z " />
<glyph glyph-name="P" unicode="P" horiz-adv-x="317" d="M346 555 Q348 522 336 493 Q329 471 318 451 Q307 431 295 411 Q263 364 225.5 323.5 Q188 283 143 249 Q126 238 109.5 228 Q93 218 73 213 Q42 204 16 201 Q-1 199 -16 206 Q-18 203 -19 200.5 Q-20 198 -21 196 Q-56 98 -90.5 1.5 Q-125 -95 -160 -192 Q-162 -198 -163 -200 Q-169 -208 -179 -205 Q-190 -200 -190 -190 Q-188 -184 -186 -181 Q-137 -45 -88 89.5 Q-39 224 10 361 Q12 369 14 376.5 Q16 384 19 392 Q-1 400 6 420 Q7 428 10 435.5 Q13 443 16 450 Q25 473 40 493 Q55 513 72 533 Q77 537 81 545 Q95 574 107 604 Q119 634 131 663 Q142 683 143 702 Q143 708 147.5 711.5 Q152 715 158 714 Q170 712 172 700 Q172 691 169 684 Q165 670 160 657.5 Q155 645 150 632 Q146 623 142 614 Q138 605 133 595 Q132 593 132 592 Q132 591 131 589 L132 588 Q136 590 139 593 Q157 605 176 614.5 Q195 624 216 630 Q232 635 249 635.5 Q266 636 284 631 Q310 623 326.5 602.5 Q343 582 346 555 Z M318 543 Q320 563 310.5 578 Q301 593 284 601 Q267 609 244 607 Q228 605 214 600 Q200 595 186 588 Q163 575 143 559 Q123 543 104 524 Q100 520 100 515 Q74 455 50.5 395 Q27 335 7 274 Q6 272 6 268 Q8 268 9.5 268.5 Q11 269 13 269 Q20 267 22 257 Q24 252 22.5 248.5 Q21 245 19 243 Q14 237 7 231 L8 230 Q12 230 14.5 229.5 Q17 229 19 230 Q48 234 74 244 Q100 254 123 272 Q180 313 228 370 Q248 395 266 421.5 Q284 448 298 477 Q306 493 311 509.5 Q316 526 318 543 Z " />
<glyph glyph-name="Q" unicode="Q" horiz-adv-x="345" d="M382 616 Q384 593 381 570.5 Q378 548 372 526 Q363 492 350 460.5 Q337 429 323 398 Q285 317 237 244.5 Q189 172 132 106 Q127 100 127 92 Q128 72 128 52.5 Q128 33 130 13 Q132 -7 134 -26.5 Q136 -46 138 -66 Q139 -68 139 -69 Q139 -70 140 -71 Q153 -75 157 -86 Q161 -97 153 -108 Q148 -117 138.5 -117 Q129 -117 123 -108 Q120 -104 118.5 -100 Q117 -96 115 -91 Q110 -73 108 -55 Q106 -37 104 -18 Q103 3 102 23.5 Q101 44 99 65 L99 71 Q97 69 95.5 68 Q94 67 92 65 Q73 49 53 41 Q37 34 18 37 Q-3 41 -17 62 Q-26 75 -30.5 89 Q-35 103 -38 118 Q-42 146 -41.5 173 Q-41 200 -37 227 Q-20 323 12.5 410.5 Q45 498 96 579 Q110 602 127.5 623 Q145 644 165 661 Q184 677 204 684 Q229 693 247 681 Q265 669 270 646 Q271 640 271.5 634.5 Q272 629 273 623 Q275 625 276 625.5 Q277 626 279 628 Q287 636 294.5 642.5 Q302 649 311 654 Q320 659 333 663 Q359 669 374 645 Q378 638 379.5 631 Q381 624 382 616 Z M107 222 Q118 287 136 349 Q154 411 180 471 Q194 501 209 529.5 Q224 558 244 586 Q239 593 241 604 Q241 608 243 614 Q244 622 243.5 629.5 Q243 637 241 645 Q235 661 219 658 Q214 657 210 655 Q206 653 201 651 Q190 645 182 637.5 Q174 630 166 622 Q135 591 112 551 Q70 482 42.5 409 Q15 336 -2 258 Q-9 230 -11.5 201.5 Q-14 173 -12 144 Q-11 130 -9 117.5 Q-7 105 -2 93 Q0 88 3 83.5 Q6 79 9 74 Q19 62 35 65 Q47 68 58 76 L94 106 Q99 111 99 120 Q99 146 101 171 Q103 196 107 222 Z M355 591 Q356 609 352 625 Q348 638 335 634 Q323 629 315 622 Q307 615 299.5 608 Q292 601 285 593 Q263 567 246 538 Q229 509 215 478 Q151 342 132 192 Q130 181 129.5 170 Q129 159 128 148 Q128 147 130 147 Q131 149 133 151 Q196 227 248 316 Q275 363 298 411.5 Q321 460 338 512 Q345 532 349.5 551.5 Q354 571 355 591 Z " />
<glyph glyph-name="R" unicode="R" horiz-adv-x="293" d="M374 -147 Q382 -160 371 -166 Q358 -172 352 -161 Q296 -92 241 -23.5 Q186 45 132 115 Q108 144 88 174.5 Q68 205 51 238 Q49 243 46.5 247.5 Q44 252 42 257 Q32 279 49 292 Q56 300 63 306.5 Q70 313 78 320 Q107 345 137 370 Q167 395 196 421 Q217 440 236.5 461 Q256 482 273 506 Q279 516 284.5 526.5 Q290 537 294 548 Q295 552 295.5 555.5 Q296 559 295 564 Q290 565 287 564 Q284 563 280 562 Q268 558 258 552 Q248 546 237 539 Q219 526 202.5 511 Q186 496 171 480 Q102 408 46.5 328.5 Q-9 249 -54 158 Q-60 144 -66 129.5 Q-72 115 -77 100 Q-80 92 -85 83 Q-91 71 -103 76 Q-115 81 -112 95 Q-110 101 -108 104 Q-83 167 -60.5 231 Q-38 295 -15 359 Q9 428 36.5 495 Q64 562 95 629 Q97 636 100 642 Q103 648 105 654 Q108 660 115 665 Q126 670 133 663 Q140 656 138 648 Q138 646 137 645 Q136 644 135 642 Q133 639 131 636.5 Q129 634 127 631 Q95 557 64 482.5 Q33 408 7 332 Q6 330 5.5 327 Q5 324 3 322 Q4 322 5 321 Q11 329 13 334 Q46 382 83.5 427.5 Q121 473 164 515 Q178 530 194.5 544 Q211 558 229 569 Q240 576 251 582 Q262 588 276 591 Q281 592 286 592 Q291 592 296 592 Q307 591 314.5 584 Q322 577 323 567 Q325 556 323 545 Q321 537 317.5 529 Q314 521 311 513 Q303 497 293.5 483.5 Q284 470 272 457 Q249 430 223.5 405 Q198 380 169 357 Q147 338 125 319.5 Q103 301 81 282 Q79 280 77 279 Q75 278 73 276 Q68 271 67.5 269 Q67 267 71 259 Q73 254 75 250.5 Q77 247 79 243 Q96 211 116 182 Q136 153 159 125 Q201 72 242 20 Q283 -32 326 -85 Q336 -98 346 -110.5 Q356 -123 366 -136 Q368 -139 370 -141.5 Q372 -144 374 -147 Z " />
<glyph glyph-name="T" unicode="T" horiz-adv-x="147" d="M385 638 Q387 625 374 620 Q372 619 369 618 Q366 617 364 618 Q356 620 348.5 619 Q341 618 333 616 Q292 608 252.5 599.5 Q213 591 172 583 Q164 580 162 574 Q135 514 111 454.5 Q87 395 64 334 Q35 256 6 179 Q-23 102 -49 24 Q-55 7 -60 -10 Q-65 -27 -70 -44 Q-72 -51 -73 -57 Q-74 -63 -74 -70 Q-75 -76 -79 -80.5 Q-83 -85 -89 -85 Q-103 -85 -103 -69 Q-103 -59 -101 -49.5 Q-99 -40 -96 -31 Q-85 3 -74 37 Q-63 71 -51 105 Q-16 201 19.5 295.5 Q55 390 93 485 Q101 504 109 523 Q117 542 125 562 Q128 566 129 573 Q118 570 108.5 568 Q99 566 90 564 Q44 553 -0.5 541 Q-45 529 -90 514 Q-101 510 -110.5 506.5 Q-120 503 -131 499 Q-134 497 -137.5 495.5 Q-141 494 -144 492 Q-146 490 -149 490 Q-164 485 -169 498 Q-174 511 -160 517 Q-146 523 -131.5 528.5 Q-117 534 -103 539 Q-58 554 -14 566 Q30 578 75 589 Q135 603 195.5 616 Q256 629 316 642 Q328 644 340 646 Q352 648 364 650 L369 650 Q382 648 385 638 Z " />
<glyph glyph-name="U" unicode="U" horiz-adv-x="357" d="M417 624 Q410 606 403.5 588.5 Q397 571 390 553 Q331 402 277 251 Q223 100 172 -54 Q166 -73 161 -92 Q156 -111 151 -130 Q147 -141 140 -143 Q133 -145 127.5 -139.5 Q122 -134 123 -123 Q125 -115 127.5 -105 Q130 -95 133 -84 Q150 -33 166.5 16.5 Q183 66 200 117 Q228 197 256.5 276.5 Q285 356 315 435 L282 378 Q257 334 230.5 291 Q204 248 176 205 Q152 170 126 134.5 Q100 99 69 69 Q58 58 46.5 48 Q35 38 21 30 Q10 24 -2 20.5 Q-14 17 -27 20 Q-43 25 -53 38.5 Q-63 52 -68 67 Q-76 91 -74 117.5 Q-72 144 -67 169 Q-57 225 -38.5 277 Q-20 329 -1 382 Q3 394 7 406 Q11 418 15 430 Q23 453 31.5 475.5 Q40 498 48 521 Q84 611 123 701 Q126 706 132.5 707.5 Q139 709 144 706 Q150 703 151 697 Q152 691 149 686 Q132 644 114.5 604 Q97 564 81 522 Q67 487 55 453 Q43 419 31 384 Q13 332 -5.5 281 Q-24 230 -35 176 Q-37 169 -38 162.5 Q-39 156 -40 148 Q-40 147 -40.5 146.5 Q-41 146 -41 144 Q-41 139 -42 137 Q-42 134 -42.5 131 Q-43 128 -43 125 Q-43 118 -43.5 112 Q-44 106 -43 100 Q-43 94 -42 90 L-42 86 Q-41 85 -41 82 Q-40 78 -38 72 L-38 70 Q-38 69 -37 68 L-35 66 Q-34 64 -33.5 62.5 Q-33 61 -31 59 Q-31 58 -30.5 58 Q-30 58 -30 57 Q-28 55 -28 55 L-25 52 Q-24 52 -23 51 L-21 50 Q-19 50 -19 49 L-17 49 L-14 49 L-11 49 Q-10 49 -9 50 Q-7 50 -6 50.5 Q-5 51 -4 51 Q-3 51 -2.5 51.5 Q-2 52 -1 52 Q1 54 3.5 54.5 Q6 55 8 57 Q11 59 13.5 60.5 Q16 62 19 64 Q21 66 22 66 Q24 68 25 68.5 Q26 69 28 71 Q34 76 40 81.5 Q46 87 51 93 Q58 100 64 107 Q70 114 76 121 Q80 125 83 129 Q86 133 89 137 Q92 140 96 146 Q97 146 97 147 L101 151 Q115 170 128 189 Q141 208 155 228 Q183 270 209 313.5 Q235 357 261 402 Q284 441 305.5 480 Q327 519 348 559 Q357 577 366.5 595 Q376 613 385 631 L397 653 Q398 654 398 654.5 Q398 655 399 656 Q406 668 418 661 Q429 656 424 644 Q423 643 423 640 Q422 640 422 639 L420 634 L417 625 L417 624 L417 624 Z " />
<glyph glyph-name="V" unicode="V" horiz-adv-x="277" d="M372 649 Q376 640 370 634 Q369 631 367 628.5 Q365 626 363 623 Q292 506 222 391 Q152 276 80 159 Q54 115 29.5 71.5 Q5 28 -19 -17 Q-24 -28 -30 -37 Q-36 -46 -42 -56 Q-44 -59 -47 -62.5 Q-50 -66 -55 -68 Q-63 -75 -72 -71.5 Q-81 -68 -85 -57 Q-87 -49 -87 -45 Q-88 -31 -87.5 -17 Q-87 -3 -85 11 Q-77 74 -63.5 135 Q-50 196 -33 257 Q-7 355 25.5 448.5 Q58 542 98 635 Q102 645 106 649 Q111 658 122 655 Q132 653 134 643 Q137 632 129 627 Q127 625 125.5 623 Q124 621 123 619 Q20 379 -37 119 Q-51 55 -58 -8 Q-58 -13 -58 -16.5 Q-58 -20 -60 -25 Q-59 -26 -58 -26 L-57 -26 Q-54 -21 -51 -16.5 Q-48 -12 -46 -7 Q-20 37 2.5 80 Q25 123 51 166 Q111 266 171 363.5 Q231 461 292 561 Q303 581 314.5 600 Q326 619 338 638 Q339 641 341 644 Q343 647 345 649 Q349 654 357 656 Q365 657 372 649 Z " />
<glyph glyph-name="W" unicode="W" horiz-adv-x="376" d="M463 680 Q470 669 460 661 Q456 658 453.5 654 Q451 650 449 645 Q435 618 422.5 591 Q410 564 397 537 Q349 437 302 338 Q255 239 208 139 Q190 101 173.5 63 Q157 25 140 -13 Q137 -21 133 -29 Q129 -37 125 -45 Q122 -52 115 -59 Q107 -67 97 -64 Q87 -61 85 -49 Q83 -44 83 -39.5 Q83 -35 82 -30 Q82 -4 85 21.5 Q88 47 92 73 Q103 140 116.5 205 Q130 270 147 335 Q148 337 148 338.5 Q148 340 149 343 Q147 340 145 338 Q102 272 60 208 Q18 144 -22 77 Q-36 54 -49.5 30.5 Q-63 7 -77 -16 Q-79 -20 -81 -23 Q-83 -26 -85 -30 Q-87 -33 -93 -37 Q-100 -42 -106.5 -38.5 Q-113 -35 -115 -27 Q-117 -18 -115 -8 Q-110 27 -101.5 61.5 Q-93 96 -83 130 Q-50 246 -7.5 357 Q35 468 89 574 L119 634 Q123 642 125 645 Q131 652 141 649 Q149 646 151 636 Q151 629 150 624 Q149 619 143 615 Q142 615 140 611 Q115 561 91 512 Q67 463 46 412 Q14 334 -14 254 Q-42 174 -64 91 Q-67 81 -69.5 71.5 Q-72 62 -74 51 Q-75 50 -75 46 Q-73 48 -72.5 49 Q-72 50 -71 52 Q-34 116 5 177 Q44 238 85 299 Q102 325 118.5 350 Q135 375 152 400 Q158 409 165 416 Q170 421 175 423 Q182 425 187.5 421 Q193 417 194 410 Q195 401 194 394 Q189 378 185 363 Q181 348 176 332 Q156 260 141.5 186.5 Q127 113 116 38 Q113 17 113 -3 Q113 -2 115 0 Q161 112 214 220 Q267 328 318 438 Q368 544 418 647 Q422 659 430 671 Q433 675 436 678.5 Q439 682 443 685 Q456 692 463 680 Z " />
<glyph glyph-name="X" unicode="X" horiz-adv-x="241" d="M355 686 Q364 679 358 668 Q356 666 354 663.5 Q352 661 350 660 Q345 659 342 656.5 Q339 654 336 651 Q319 631 303 611 Q287 591 270 570 Q226 515 187 458.5 Q148 402 110 343 Q106 338 106 330 Q106 309 106 288 Q106 267 107 246 Q108 219 108.5 192 Q109 165 111 138 Q111 84 114 30 Q116 -2 118.5 -34 Q121 -66 123 -98 Q123 -104 127 -114 Q130 -126 120 -133 Q107 -138 101 -127 Q97 -118 95 -107 L89 -23 Q87 3 86 28.5 Q85 54 83 80 Q83 100 82 119 Q81 138 81 158 Q80 181 79.5 204.5 Q79 228 79 251 Q78 259 78 268 Q78 277 78 286 L78 290 Q77 291 76 291 Q75 290 75 289 Q75 288 74 287 Q33 222 -6.5 157.5 Q-46 93 -84 27 Q-95 9 -103.5 -9.5 Q-112 -28 -122 -46 Q-124 -49 -124.5 -52 Q-125 -55 -127 -58 L-124 -61 Q-119 -68 -121.5 -75 Q-124 -82 -132 -85 Q-142 -88 -149.5 -82.5 Q-157 -77 -157 -66 Q-157 -61 -156 -57 Q-155 -53 -153 -48 Q-148 -37 -143 -26.5 Q-138 -16 -133 -5 Q-108 42 -81.5 86.5 Q-55 131 -27 176 Q-2 217 22.5 256.5 Q47 296 73 336 Q78 343 78 353 Q79 386 79 419 Q79 452 81 485 Q81 506 82 527 Q83 548 85 570 Q86 584 88 599 Q90 614 92 629 Q92 633 94 639 Q100 648 109 648 Q119 648 121 639 Q123 634 123.5 628.5 Q124 623 125 618 Q125 613 119 607 Q116 602 116 599 Q114 570 112.5 542 Q111 514 109 485 Q107 468 107 452 Q107 436 106 419 Q106 412 106 405.5 Q106 399 107 391 Q110 393 110.5 394.5 Q111 396 113 398 Q144 446 176 491 Q208 536 243 580 Q262 604 281 627.5 Q300 651 320 674 Q329 683 338 689 Q348 695 355 686 Z " />
<glyph glyph-name="Y" unicode="Y" horiz-adv-x="231" d="M293 607 Q294 600 291 593 Q289 587 286.5 580.5 Q284 574 281 568 Q239 484 205.5 398.5 Q172 313 140 225 Q116 154 92.5 84 Q69 14 44 -57 Q42 -63 41 -68.5 Q40 -74 38 -79 Q37 -86 32 -88.5 Q27 -91 21 -89 Q6 -82 9 -69 Q19 -43 27 -17.5 Q35 8 45 34 Q74 124 105 212.5 Q136 301 171 389 Q182 417 193.5 444.5 Q205 472 216 501 Q217 503 217.5 504.5 Q218 506 219 508 L219 509 Q207 495 198 482 Q175 449 152.5 415.5 Q130 382 108 349 Q99 338 90.5 327 Q82 316 73 305 Q68 299 62 294.5 Q56 290 51 286 Q38 279 29 282 Q19 284 14.5 290 Q10 296 8 305 Q6 315 5.5 325 Q5 335 5 345 Q6 377 13 408 Q20 439 29 469 Q41 506 54.5 542 Q68 578 85 612 Q90 621 95.5 629.5 Q101 638 106 646 Q112 654 116 657 Q124 662 132.5 658 Q141 654 143 644 Q144 633 143 623 Q141 610 128 612 Q126 612 120 614 Q117 610 113 602 Q95 568 82 533 Q69 498 57 461 Q49 435 43 409 Q37 383 34 356 Q34 345 33 334 Q32 323 35 312 Q37 313 38 313 Q39 313 40 314 Q44 319 48 323 Q52 327 56 332 Q69 349 82 366 Q95 383 107 400 Q139 451 175 500 Q211 549 249 597 Q253 601 256 605 Q259 609 263 613 Q266 617 273 620 Q280 623 286 619 Q292 615 293 607 Z " />
<glyph glyph-name="Z" unicode="Z" horiz-adv-x="312" d="M344 660 Q354 659 360 652 Q366 645 365 635 Q365 624 361 616 Q351 597 342 582 Q323 557 305 532.5 Q287 508 268 483 Q241 448 214 413 Q187 378 160 343 Q159 342 153 334 L161 334 Q183 338 204 342 Q225 346 247 350 Q255 350 259 349 Q267 346 267 336 Q268 328 259 323 Q258 323 257 322.5 Q256 322 254 322 Q224 317 194 311 Q164 305 133 300 Q125 299 120 292 L9 148 Q-18 113 -45 77 Q-72 41 -99 6 Q-101 3 -103 0.5 Q-105 -2 -108 -6 Q-105 -5 -103.5 -5 Q-102 -5 -100 -4 Q-23 27 54 54 Q131 81 209 108 Q218 111 226.5 114 Q235 117 243 119 Q249 121 251 121 Q262 121 265 110 Q268 100 258 95 Q254 93 254 93 Q210 78 167 63 Q124 48 81 33 Q35 16 -10 -0.5 Q-55 -17 -100 -34 Q-108 -37 -115.5 -39.5 Q-123 -42 -131 -42 Q-142 -42 -147 -35 Q-152 -28 -148 -18 Q-146 -13 -144 -9.5 Q-142 -6 -140 -2 Q-126 18 -111.5 37 Q-97 56 -82 76 Q-43 127 -4 177 Q35 227 74 278 Q76 280 77 282 Q78 284 80 286 Q79 286 79 288 Q64 283 49 278.5 Q34 274 19 269 Q14 267 9.5 266 Q5 265 0 263 Q-3 262 -9 262 Q-19 262 -23 271 Q-26 279 -19 286 Q-14 290 -9.5 292.5 Q-5 295 0 298 Q4 300 8 299 Q12 297 15.5 298 Q19 299 22 300 Q42 306 61.5 311.5 Q81 317 101 322 Q109 324 112 328 Q158 387 203 445 Q248 503 293 563 Q302 575 310.5 587.5 Q319 600 328 613 L337 631 Q336 631 336 632 Q331 631 325.5 630.5 Q320 630 315 628 Q285 618 256.5 605.5 Q228 593 200 578 Q186 570 173 561 Q160 552 146 544 Q135 537 133 527 Q131 520 124 518.5 Q117 517 112 521 Q101 530 106 541 Q108 544 109.5 547.5 Q111 551 114 553 Q127 566 139 574 Q168 594 199.5 609.5 Q231 625 263 639 Q277 645 291.5 650.5 Q306 656 322 659 Q327 660 333 660 Q339 660 344 660 Z " />
<glyph glyph-name="ampersand" unicode="&#x26;" horiz-adv-x="247" d="M207 562 Q217 557 217 543 Q216 538 215.5 534 Q215 530 213 526 L165 418 Q158 404 152 389.5 Q146 375 139 361 Q136 353 137 344 Q140 332 127 330 Q98 328 75 313.5 Q52 299 32 276 Q30 274 28.5 270.5 Q27 267 25 264 L27 262 Q41 265 54.5 268 Q68 271 81 278 Q83 280 85 280 Q90 282 94.5 278.5 Q99 275 101 270 Q104 265 104 259.5 Q104 254 100 251 Q98 249 95 247.5 Q92 246 90 244 Q56 211 34 168 Q33 166 33 162 Q39 164 42 166 Q56 175 69.5 184 Q83 193 97 202 Q99 204 105 206 Q113 209 120 201 Q128 191 125 182 Q122 170 118 163 Q103 128 89 92.5 Q75 57 62 20 Q54 0 47.5 -20 Q41 -40 34 -60 L31 -72 Q31 -77 32 -79 Q40 -96 29 -102 Q16 -107 8 -91 Q4 -84 4 -75 Q4 -60 8 -49 Q16 -26 24 -2 Q32 22 40 45 Q49 70 58.5 94.5 Q68 119 78 143 Q79 145 79 145.5 Q79 146 80 148 L79 149 Q74 147 70.5 144 Q67 141 62 139 Q57 137 52.5 134.5 Q48 132 43 130 Q37 127 31 127 Q19 127 10.5 137 Q2 147 4 162 Q5 168 6.5 174 Q8 180 10 185 Q15 195 20 204 Q25 213 30 222 Q31 224 32 225.5 Q33 227 35 229 Q31 230 28 230 Q25 230 22 231 Q11 232 3.5 242 Q-4 252 -3 266 Q-2 274 0.5 280.5 Q3 287 6 293 Q20 315 42 331 Q74 355 106 362 Q110 364 111 366 Q118 388 127 407 Q136 426 145 446 Q154 466 163 486 Q172 506 181 526 Q184 533 186.5 539.5 Q189 546 191 553 Q191 554 193 558 Q196 567 207 562 Z " />
<glyph glyph-name="percent" unicode="&#x25;" horiz-adv-x="310" d="M296 516 Q303 508 296 498 Q279 475 262.5 451.5 Q246 428 230 405 Q166 311 106.5 217 Q47 123 -10 26 Q-16 17 -21 7.5 Q-26 -2 -31 -12 Q-33 -18 -31 -21 Q-25 -30 -34 -38 Q-42 -46 -52 -41 Q-63 -34 -62 -17 Q-61 -15 -60.5 -11.5 Q-60 -8 -58 -5 Q-51 8 -44.5 20.5 Q-38 33 -31 45 Q8 112 49 177 Q90 242 132 307 Q164 358 197.5 406.5 Q231 455 266 504 Q268 507 271 510 Q274 513 277 516 Q282 520 287 519.5 Q292 519 296 516 Z M135 428 Q130 434 126 443 Q122 447 126 456 Q130 466 137 473.5 Q144 481 153 487 Q163 494 173 488 Q179 484 182 483 Q187 480 191.5 476.5 Q196 473 200 468 Q204 460 203 453 Q201 435 184 423.5 Q167 412 150 417 Q139 420 135 428 Z M163 459 Q156 447 161 444 Q166 441 173 450 Q174 451 173.5 451 Q173 451 174 453 Q171 455 163 459 Z M109 137 Q121 139 126 127 Q129 122 129.5 116 Q130 110 129 104 Q127 94 124 85.5 Q121 77 113 69 Q108 65 104 62.5 Q100 60 95 58 Q73 51 66 69 Q64 74 64 84 Q65 106 83 125 Q88 131 95 133 Q102 135 109 137 Z M96 90 Q97 92 99 98 L97 98 Q96 96 95.5 94 Q95 92 94 90 L96 90 Z " />
<glyph glyph-name="asciicircum" unicode="&#x5e;" horiz-adv-x="260" d="M258 710 Q260 707 260 700 Q259 684 258.5 669 Q258 654 258 638 Q257 630 257 621.5 Q257 613 257 605 Q257 597 255 594 Q251 587 242 588 Q232 589 230 599 Q229 604 228.5 608 Q228 612 229 617 Q229 630 229.5 642.5 Q230 655 231 668 Q230 668 229 669 Q228 667 226 665 Q218 652 209.5 639.5 Q201 627 192 614 Q190 611 187 609 Q181 603 172 607 Q163 612 165 622 Q167 627 170 632 Q184 652 197 670.5 Q210 689 224 709 Q226 713 234 719 Q242 724 249 721 Q256 718 258 710 Z " />
<glyph glyph-name="dollar" unicode="&#x24;" horiz-adv-x="383" d="M255 434 L252 425 Q254 424 255 424 Q256 424 257 423 Q278 418 286 403.5 Q294 389 289 367 Q273 307 231 255 Q226 249 220 244 Q215 239 209.5 239.5 Q204 240 201 244 Q193 254 204 263 Q211 271 216.5 278.5 Q222 286 227 294 Q237 310 245 326 Q253 342 258 359 Q261 366 261 372 Q265 396 240 396 Q237 390 234.5 383.5 Q232 377 229 371 Q218 344 207.5 316.5 Q197 289 186 262 Q184 256 187 252 Q192 245 196 238.5 Q200 232 204 224 Q217 196 198 162 Q188 146 175 133 Q162 120 147 109 Q142 105 137.5 102 Q133 99 128 96 Q121 92 118 85 Q110 64 102.5 43 Q95 22 87 1 Q82 -13 77 -27 Q72 -41 67 -55 Q66 -58 65.5 -61.5 Q65 -65 64 -68 Q64 -82 52 -85 Q47 -87 42 -84 Q37 -81 36 -76 Q34 -69 36 -62 Q38 -54 41 -45.5 Q44 -37 47 -29 Q56 -3 65.5 22.5 Q75 48 85 74 Q82 73 78 73 Q59 67 42 79 Q25 91 27 113 Q28 122 31.5 129.5 Q35 137 40 145 Q48 156 59 164.5 Q70 173 81 179 Q92 186 101 188 Q124 197 121 173 L121 172 Q123 177 126 183 Q129 189 131 194 Q136 205 140 217 Q144 229 149 240 Q152 247 147 252 Q139 260 130.5 269 Q122 278 114 286 Q108 293 102 299.5 Q96 306 90 314 Q85 320 82.5 327 Q80 334 82 343 Q83 358 96 371 Q103 376 109 381 Q115 386 122 390 Q168 416 219 424 L222 424 Q223 426 223.5 427.5 Q224 429 225 431 Q236 457 247 484 Q258 511 269 538 Q270 541 274 545 Q280 552 289 550 Q298 545 297 537 Q295 532 294 527.5 Q293 523 291 518 L255 434 Z M112 145 Q114 152 116.5 158 Q119 164 121 171 Q117 167 113 164.5 Q109 162 104 160 Q87 154 72 141 Q64 133 58 124 Q51 113 58 106 Q62 102 66.5 100 Q71 98 77 101 Q82 103 85.5 104 Q89 105 93 107 Q98 108 100 115 L112 145 Z M173 173 Q180 184 180.5 195.5 Q181 207 170 221 Q162 199 154 178.5 Q146 158 138 137 Q160 153 173 173 Z M164 280 Q175 309 186.5 336.5 Q198 364 209 393 Q200 392 188 388.5 Q176 385 163.5 380.5 Q151 376 140 370 Q129 364 122 359 Q120 357 119 356.5 Q118 356 116 354 Q107 344 112 336 Q115 332 118 328 Q121 324 124 320 Q133 310 142.5 300.5 Q152 291 161 282 Q162 281 162.5 281 Q163 281 164 280 Z " />
<glyph glyph-name="asterisk" unicode="&#x2a;" horiz-adv-x="217" d="M245 576 Q253 570 248 560 Q243 549 232 551 Q222 554 212.5 553 Q203 552 192 551 Q193 546 195 543 Q197 540 199 537 Q201 535 201.5 533.5 Q202 532 204 530 Q211 519 200 512 Q191 503 182 511 Q178 515 176 518 Q174 520 173 521.5 Q172 523 170 525 Q169 522 168.5 520 Q168 518 167 516 Q165 511 163 506 Q161 501 159 496 Q153 481 140 485 Q127 489 132 503 Q135 511 138.5 520 Q142 529 145 537 Q147 540 147.5 542.5 Q148 545 150 549 Q142 548 135.5 548 Q129 548 122 547 Q117 547 113 546.5 Q109 546 105 546 Q90 548 92 559 Q92 572 106 574 Q113 575 119.5 575.5 Q126 576 133 576 Q134 576 135 576.5 Q136 577 138 577 Q135 581 131 585 Q121 595 129 604 Q137 615 148 609 Q154 606 159 599 Q161 597 163 594 Q165 591 168 588 Q173 597 176.5 605 Q180 613 184 621 Q185 625 189 629 Q193 636 198.5 638.5 Q204 641 209 638 Q221 633 213 619 Q210 611 206.5 604.5 Q203 598 200 591 Q198 589 197.5 586 Q197 583 195 581 L216 581 Q221 581 226 581 Q231 581 236 580 Q239 580 245 576 Z " />
<glyph glyph-name="parenleft" unicode="&#x28;" horiz-adv-x="190" d="M214 618 Q222 620 226.5 615 Q231 610 229 602 Q228 599 222 593 Q218 589 214 586 Q210 583 206 579 Q196 568 186.5 557 Q177 546 169 534 Q134 484 104.5 432 Q75 380 55 323 Q32 261 22 199 Q17 168 15.5 138 Q14 108 16 78 Q18 52 19.5 25.5 Q21 -1 23 -27 Q24 -35 25 -42 Q26 -49 31 -56 Q36 -65 27 -72 Q20 -80 10 -75 Q3 -71 -1 -60 Q-3 -52 -4 -44.5 Q-5 -37 -6 -29 Q-10 4 -11.5 38 Q-13 72 -14 106 Q-14 123 -13 139 Q-12 155 -11 164 Q-2 239 19.5 303.5 Q41 368 73 430 Q91 465 112 498.5 Q133 532 158 564 Q177 590 198 609 Q202 612 205.5 614.5 Q209 617 214 618 Z " />
<glyph glyph-name="parenright" unicode="&#x29;" horiz-adv-x="254" d="M138 563 Q145 540 148.5 516.5 Q152 493 151 468 Q151 455 151 443.5 Q151 432 150 424 Q147 393 141.5 366 Q136 339 129 313 Q119 276 107 239 Q95 202 81 167 Q44 77 -13 2 L-67 -67 Q-69 -70 -71.5 -72.5 Q-74 -75 -76 -78 Q-78 -80 -84 -84 Q-95 -91 -102 -82 Q-108 -74 -100 -64 L-40 11 Q-6 54 19 100.5 Q44 147 63 197 Q93 274 111 355 Q121 398 123 440.5 Q125 483 117 525 Q115 537 111.5 548 Q108 559 105 570 Q103 576 99.5 581.5 Q96 587 91 592 Q83 601 91 610 Q94 615 99 616.5 Q104 618 109 615 Q116 610 121 603 Q127 594 131 584 Q135 574 138 563 Z " />
<glyph glyph-name="plus" unicode="&#x2b;" horiz-adv-x="270" d="M155 260 Q155 249 145 246 Q143 245 137 245 Q126 244 114.5 244 Q103 244 92 243 L83 243 Q79 233 75 223 Q71 213 67 203 Q62 191 58 179.5 Q54 168 49 156 Q47 151 46 147.5 Q45 144 46 139 Q46 129 37 126 Q29 121 22 128 Q15 135 17 146 L23 167 Q30 184 36.5 200.5 Q43 217 50 234 Q51 236 51 237.5 Q51 239 52 241 L34 241 Q29 241 24 240.5 Q19 240 14 241 Q0 241 2 255 Q2 267 16 269 Q27 270 38 270.5 Q49 271 60 271 Q66 271 67 276 Q74 292 80.5 308 Q87 324 94 340 Q95 342 95 344.5 Q95 347 96 349 Q101 364 114 361 Q128 359 123 343 Q118 326 111 310 L99 280 Q97 276 96 273 Q101 273 105.5 272.5 Q110 272 114 273 L138 273 Q140 274 141.5 273.5 Q143 273 145 273 Q155 270 155 260 Z " />
<glyph glyph-name="underscore" unicode="&#x5f;" horiz-adv-x="244" d="M108 201 Q120 198 118 185 Q116 174 104 174 L101 174 Q83 174 66.5 174.5 Q50 175 33 174 Q19 174 6.5 173.5 Q-6 173 -19 172 Q-22 172 -25.5 172 Q-29 172 -32 173 Q-42 176 -42 186 Q-44 195 -33 199 Q-31 200 -27 200 Q5 202 36 202.5 Q67 203 99 202 Q105 202 108 201 Z " />
<glyph glyph-name="hyphen" unicode="&#x2d;" horiz-adv-x="254" d="M136 255 Q137 250 133.5 245 Q130 240 123 239 Q115 238 108 238 Q101 238 93 238 Q78 238 63.5 238 Q49 238 34 237 L34 238 Q29 238 27 239 Q16 241 14 252 Q12 263 24 266 L35 266 Q56 267 76.5 267 Q97 267 118 268 Q133 268 136 255 Z " />
<glyph glyph-name="greater" unicode="&#x3e;" horiz-adv-x="327" d="M204 275 Q207 267 204 257 Q198 249 192 243 Q182 233 172 226 Q147 206 122.5 187 Q98 168 73 149 Q67 145 64 144 Q59 142 54.5 143 Q50 144 47 147 Q40 152 47 161 Q50 163 55 168 L145 237 Q152 242 158 247.5 Q164 253 170 258 Q175 262 175 265 L117 333 Q116 333 116 334 Q113 337 113.5 341 Q114 345 117 348 Q122 355 132 353 Q136 353 140 351 L204 275 L204 275 Z " />
<glyph glyph-name="equal" unicode="&#x3d;" horiz-adv-x="267" d="M126 230 Q130 217 114 215 Q106 214 99 214 Q92 214 84 213 L25 213 Q20 213 17 214 Q6 216 4 227 Q4 240 14 241 Q18 242 26 242 Q46 242 67 242 Q88 242 108 243 Q123 243 126 230 Z M144 276 Q146 263 132 261 Q124 260 116.5 259.5 Q109 259 101 259 L43 259 Q37 259 35 260 Q24 262 22 273 Q20 285 32 287 Q36 288 44 288 Q64 288 85 288 Q106 288 126 289 Q141 289 144 276 Z " />
<glyph glyph-name="braceleft" unicode="&#x7b;" horiz-adv-x="280" d="M237 600 Q247 594 243 583 Q239 573 226 573 Q225 573 224.5 573.5 Q224 574 222 574 Q211 563 207 550 Q202 536 197.5 521.5 Q193 507 188 492 Q177 460 166.5 428 Q156 396 142 364 Q133 342 122 322 Q111 302 95 285 Q89 279 82.5 273 Q76 267 69 260 Q75 258 77 257 Q90 250 89 237 Q87 225 83 215 Q77 201 70.5 186.5 Q64 172 59 158 Q49 130 42.5 102 Q36 74 31 45 Q29 32 28.5 19 Q28 6 30 -7 Q33 -26 40.5 -33.5 Q48 -41 68 -45 Q71 -46 74 -45.5 Q77 -45 80 -45 Q83 -42 84 -40 Q93 -30 101 -34 Q112 -39 109 -51 Q102 -72 81 -74 Q52 -76 29 -62 Q13 -52 6 -31 Q2 -18 1 -5 Q0 8 1 22 Q3 51 8.5 78.5 Q14 106 22 134 Q34 177 54 219 Q55 221 55.5 223 Q56 225 57 227 Q58 227 58 230 Q55 230 51.5 230 Q48 230 45 229 L38 229 Q27 230 23 238 Q19 246 26 256 Q29 260 35 266 Q41 271 47 277 Q53 283 59 288 Q79 305 92 327 Q105 349 116 372 Q128 400 137.5 428.5 Q147 457 156 486 Q161 503 166.5 519 Q172 535 178 552 Q181 560 185 567.5 Q189 575 194 583 Q201 593 211 599 Q217 604 224 604 Q231 604 237 600 Z " />
<glyph glyph-name="braceright" unicode="&#x7d;" horiz-adv-x="307" d="M205 568 Q209 545 203 520 Q197 487 186 455 Q175 423 164 391 Q157 370 150 349 Q143 328 135 307 Q135 305 134.5 304 Q134 303 134 301 Q128 284 140 274 Q146 268 147 263 Q150 253 141 244 Q138 242 135 239.5 Q132 237 130 235 Q119 227 116 212 Q114 201 113 191 Q112 181 111 170 Q106 134 97.5 98.5 Q89 63 77 28 Q67 0 50 -22.5 Q33 -45 10 -65 Q5 -69 0 -71 Q-5 -73 -11 -71 Q-21 -66 -19 -57 Q-19 -48 -9 -43 Q-1 -39 2 -36 Q24 -17 36.5 6 Q49 29 57 55 Q77 120 85 191 Q86 198 87 204 Q88 210 89 217 Q92 237 109 253 Q111 254 113 256 Q113 256 114 258 Q104 269 103 281 Q102 293 107 307 Q114 329 121 349.5 Q128 370 135 392 Q144 418 153 445 Q162 472 170 499 Q180 530 177 558 L177 562 Q175 570 172.5 572 Q170 574 161 572 Q159 572 157.5 571.5 Q156 571 154 571 Q143 573 143 582 Q141 592 150 597 Q161 602 176 602 Q191 602 199 587 Q203 578 205 568 Z " />
<glyph glyph-name="bracketleft" unicode="&#x5b;" horiz-adv-x="270" d="M259 599 Q264 597 264.5 593 Q265 589 263 584 Q260 575 247 573 Q242 573 236 572 Q230 571 225 571 Q220 570 217 567.5 Q214 565 211 560 Q205 547 199 534.5 Q193 522 186 510 Q164 463 145 417 Q126 371 108 324 Q93 280 76 237.5 Q59 195 43 152 Q32 120 20.5 89 Q9 58 1 26 Q-4 9 -7 -8 Q-10 -25 -14 -42 Q-14 -44 -14.5 -46 Q-15 -48 -15 -50 L-2 -50 Q3 -50 6 -45 Q14 -35 24 -40 Q34 -43 29 -56 Q26 -67 17 -71 Q4 -76 -2 -77 Q-15 -80 -30 -77 Q-38 -75 -40.5 -70 Q-43 -65 -44 -57 Q-43 -52 -43 -46 Q-43 -40 -41 -35 Q-35 -10 -28 14.5 Q-21 39 -13 64 Q-5 88 1.5 112.5 Q8 137 18 161 Q32 203 48.5 243 Q65 283 79 324 Q102 384 127 442.5 Q152 501 181 560 Q184 565 186.5 569.5 Q189 574 192 579 Q200 593 217 596 Q230 600 246 602 Q253 603 259 599 Z " />
<glyph glyph-name="bracketright" unicode="&#x5d;" horiz-adv-x="284" d="M242 577 Q242 565 239 552.5 Q236 540 233 528 Q217 478 198 429.5 Q179 381 158 332 Q129 264 101.5 197 Q74 130 49 61 Q41 38 33 15.5 Q25 -7 17 -30 Q15 -33 14.5 -35.5 Q14 -38 12 -41 Q4 -62 -17 -67 Q-25 -69 -32 -70 Q-39 -71 -46 -73 L-51 -73 Q-65 -73 -65 -60 Q-63 -48 -50 -45 Q-43 -44 -37 -43 Q-31 -42 -26 -41 Q-20 -40 -17 -37 Q-14 -34 -12 -29 Q-2 -4 6.5 20.5 Q15 45 24 70 Q44 126 66.5 181 Q89 236 112 291 Q135 344 156 397 Q177 450 197 504 Q202 519 206 534 Q210 549 213 564 L213 571 L213 575 Q205 574 198 574.5 Q191 575 183 570 Q174 564 167 573 Q161 581 168 589 Q173 598 184 600 Q193 601 202.5 602 Q212 603 221 603 Q242 601 242 577 Z " />
<glyph glyph-name="bar" unicode="&#x7c;" horiz-adv-x="274" d="M242 675 Q253 670 249 658 Q240 635 232 612.5 Q224 590 215 567 Q156 415 102 264.5 Q48 114 -3 -40 Q-9 -59 -14 -78 Q-19 -97 -24 -116 Q-28 -127 -35 -129 Q-43 -131 -48 -126 Q-53 -121 -52 -110 Q-50 -102 -48 -91.5 Q-46 -81 -42 -70 Q-25 -19 -8.5 30.5 Q8 80 25 131 Q60 233 96.5 333 Q133 433 171 533 Q183 564 194.5 595 Q206 626 217 657 Q219 660 220.5 663.5 Q222 667 224 670 Q231 682 242 675 Z " />
<glyph glyph-name="slash" unicode="&#x2f;" horiz-adv-x="313" d="M304 672 Q314 665 307 653 Q296 630 284.5 608 Q273 586 261 563 Q180 414 104 264 Q28 114 -45 -39 Q-54 -58 -62 -77 Q-70 -96 -78 -115 Q-81 -126 -90 -127 Q-98 -129 -102 -122 Q-106 -115 -104 -104 Q-100 -96 -96.5 -86 Q-93 -76 -88 -65 Q-64 -14 -40 35.5 Q-16 85 9 135 Q108 336 213 534 Q230 565 245.5 595.5 Q261 626 277 656 Q279 660 281 663 Q283 666 285 669 Q293 680 304 672 Z " />
<glyph glyph-name="backslash" unicode="&#x5c;" horiz-adv-x="346" d="M292 -101 Q297 -111 291 -117 Q286 -122 279.5 -120.5 Q273 -119 268 -110 Q265 -102 261 -93 Q257 -84 254 -73 Q239 -24 223.5 25 Q208 74 194 123 Q165 223 137.5 323 Q110 423 84 524 L51 647 Q49 657 49 661 Q47 675 60 675 Q70 677 74 664 Q80 641 86.5 618.5 Q93 596 98 573 Q136 421 178.5 271.5 Q221 122 267 -29 Q272 -47 279 -65 Q286 -83 292 -101 Z " />
<glyph glyph-name="colon" unicode="&#x3a;" horiz-adv-x="204" d="M73 291 Q77 283 71.5 274 Q66 265 57 265 Q48 265 45 272 Q42 277 43.5 281.5 Q45 286 48 291 Q55 299 63 298 Q69 298 73 291 Z M33 220 Q39 220 43 215.5 Q47 211 47 205 Q47 191 33 191 Q27 191 23 195.5 Q19 200 19 205 Q19 211 23.5 215.5 Q28 220 33 220 Z " />
<glyph glyph-name="semicolon" unicode="&#x3b;" horiz-adv-x="224" d="M45 216 Q55 213 55 202 Q55 200 54 198 Q51 190 48 181 Q45 172 42 164 Q40 158 38 156 Q31 146 21 151 Q16 153 13.5 157 Q11 161 13 166 Q17 177 20.5 187.5 Q24 198 28 209 Q33 220 45 216 Z M82 288 Q86 280 80.5 271 Q75 262 66 262 Q59 262 54 269 Q51 274 52.5 278.5 Q54 283 57 288 Q64 296 72 295 Q78 295 82 288 Z " />
<glyph glyph-name="comma" unicode="&#x2c;" horiz-adv-x="189" d="M34 185 Q47 183 44 168 Q44 165 42 157 Q39 148 35.5 138.5 Q32 129 29 120 Q28 116 22 108 Q15 99 4 104 Q-3 110 0 120 Q4 134 8 147 Q12 160 17 173 Q24 187 34 185 Z " />
<glyph glyph-name="period" unicode="&#x2e;" horiz-adv-x="168" d="M13 185 Q27 185 27 171 Q27 157 13 157 Q-1 157 -1 171 Q-1 185 13 185 Z " />
<glyph glyph-name="quotedbl" unicode="&#x22;" horiz-adv-x="260" d="M220 683 Q219 681 219 680 Q219 679 218 677 Q214 668 211 659.5 Q208 651 204 642 Q202 638 200.5 634 Q199 630 196 625 Q195 623 192.5 621.5 Q190 620 188 618 Q180 615 174 621 Q168 627 171 636 Q176 648 180 660 Q184 672 189 683 Q191 687 195 693 Q201 701 211 697 Q218 694 220 683 Z M254 690 Q260 685 260 677 Q260 677 258 671 Q255 663 252 654 Q249 645 246 636 Q244 634 243.5 631 Q243 628 241 625 Q239 621 234.5 619.5 Q230 618 225 620 Q220 622 217 626 Q214 630 216 635 Q219 648 223 660 Q227 672 233 684 Q236 690 242 692 Q248 694 254 690 Z " />
<glyph glyph-name="quotesingle" unicode="&#x27;" horiz-adv-x="230" d="M229 688 Q230 685 228 677 Q223 665 218.5 652.5 Q214 640 209 628 Q207 622 205 619 Q203 615 194 613 Q187 613 182.5 618.5 Q178 624 180 631 Q185 646 190 661 Q195 676 203 690 Q208 700 217 698 Q228 696 229 688 Z " />
<glyph glyph-name="exclam" unicode="&#x21;" horiz-adv-x="253" d="M227 665 Q240 662 237 647 Q235 640 233.5 633.5 Q232 627 230 619 Q220 578 206.5 539 Q193 500 178 461 Q146 376 116 293 Q86 210 57 125 Q55 120 53 114 Q51 108 49 103 Q47 98 46.5 92.5 Q46 87 48 82 Q49 75 42 68 Q35 64 26 67 Q15 72 17 90 Q18 92 18.5 96 Q19 100 21 105 Q41 161 60 215.5 Q79 270 99 326 Q117 378 136.5 429.5 Q156 481 175 533 Q186 561 193.5 589 Q201 617 208 646 Q208 648 208.5 649 Q209 650 209 652 Q214 667 227 665 Z M-4 -15 Q2 -15 6.5 -19 Q11 -23 10 -29 Q9 -35 4 -39.5 Q-1 -44 -7 -45 Q-22 -45 -20 -31 Q-20 -24 -15 -19.5 Q-10 -15 -4 -15 Z " />
<glyph glyph-name="numbersign" unicode="&#x23;" horiz-adv-x="373" d="M241 310 Q255 307 255 294 Q253 281 240 284 Q230 286 221 285 Q212 284 203 283 Q196 283 195 277 Q194 272 192.5 268 Q191 264 189 259 Q194 259 197 259.5 Q200 260 203 260 Q208 261 213.5 261 Q219 261 224 262 Q230 262 232 261 Q242 259 245 250 Q249 240 241 237 Q235 234 229 234 Q218 232 207 231.5 Q196 231 185 230 Q177 228 176 223 L146 136 Q145 134 144.5 131 Q144 128 143 126 Q137 111 123 119 Q110 125 115 139 Q117 147 120 155 Q123 163 125 171 Q129 182 133 194 Q137 206 141 218 Q141 218 143 224 L137 224 Q128 224 125 214 Q120 197 114.5 181.5 Q109 166 104 149 Q102 144 101.5 138 Q101 132 100 127 Q98 113 86 115 Q80 116 75.5 120.5 Q71 125 71 131 Q71 143 74 154 Q78 168 82 181.5 Q86 195 91 209 Q92 211 92 213 Q92 215 94 219 Q88 217 83 217 Q78 217 73 215 Q69 215 65.5 215 Q62 215 58 217 Q50 221 48 229 Q46 238 54 241 Q56 243 59 243 Q62 243 64 244 Q73 245 81.5 246 Q90 247 98 248 Q105 248 106 253 Q107 258 108.5 262.5 Q110 267 112 273 Q107 272 102.5 271.5 Q98 271 93 270 Q88 270 83.5 269.5 Q79 269 74 269 Q59 269 57 282 Q54 295 69 297 Q81 298 93 299 Q105 300 117 302 Q122 302 125 308 Q130 322 134.5 335 Q139 348 144 362 Q147 370 151 374 Q157 380 166 377 Q175 372 177 364 Q177 359 175 355 Q170 343 165.5 331.5 Q161 320 156 307 Q161 308 164.5 308 Q168 308 171 309 Q175 309 175 313 Q178 319 180.5 325.5 Q183 332 185 338 Q186 340 187 342 Q188 344 189 346 Q196 355 207 349 Q217 342 216 332 L210 317 Q210 316 209.5 315 Q209 314 209 312 Q214 312 218 312.5 Q222 313 226 312 Q236 312 241 310 Z M155 257 Q157 262 159 267.5 Q161 273 163 278 Q144 280 143 266 Q142 263 141 260 Q140 257 138 253 Q143 253 146 253.5 Q149 254 151 254 Q155 256 155 257 Z " />
<glyph glyph-name="less" unicode="&#x3c;" horiz-adv-x="270" d="M168 351 Q171 342 165 336 Q163 334 161.5 333.5 Q160 333 158 331 Q138 317 118.5 303 Q99 289 79 275 Q71 270 64.5 263.5 Q58 257 50 250 L39 239 Q42 236 44 233.5 Q46 231 48 229 Q80 200 107 167 Q109 165 113 159 Q115 154 113.5 149.5 Q112 145 108 142 Q98 134 90 142 Q88 144 86 146 Q84 148 82 150 Q57 181 27 208 Q22 213 16 221 Q5 237 19 254 Q22 258 26 262 Q30 266 34 270 Q48 284 63.5 296 Q79 308 96 319 Q120 337 143 351 Q149 356 156 357 Q165 358 168 351 Z " />
<glyph glyph-name="grave" unicode="&#x60;" horiz-adv-x="214" d="M182 696 Q186 693 188 687 Q193 675 197 662.5 Q201 650 206 638 L209 629 Q210 622 205 617 Q199 612 192.5 613 Q186 614 183 621 Q176 635 170.5 650 Q165 665 161 680 Q158 691 167 696 Q174 702 182 696 Z " />
<glyph glyph-name="at" unicode="&#x40;" horiz-adv-x="350" d="M267 399 Q271 372 264 347 Q262 339 259.5 331 Q257 323 254 315 Q238 271 212 230 Q207 223 202 217 Q197 211 192 205 Q185 198 173 193 Q164 189 156.5 193.5 Q149 198 145 208 Q144 209 144 213 Q140 210 134 206 Q132 205 130.5 204 Q129 203 127 202 Q116 197 107 202.5 Q98 208 96 221 Q94 228 95 234.5 Q96 241 98 248 Q109 280 129 303 Q138 314 151 318 Q160 321 168 317.5 Q176 314 180 305 Q182 300 184 290 Q186 279 175 275 Q164 272 157 284 Q156 284 156 285 Q156 286 155.5 286 Q155 286 155 288 Q135 268 126 240 L128 238 Q132 243 136 247 Q140 251 145 256 Q151 264 155 267 Q164 274 173 268 Q182 264 180 253 Q178 245 177 240 Q175 234 176 230 Q177 232 178 233 Q179 234 180 236 Q198 263 213 292.5 Q228 322 236 354 Q238 363 239.5 372 Q241 381 240 391 Q239 396 238.5 400 Q238 404 236 409 Q231 421 219 420 Q210 419 199 415 Q187 410 177 402 Q167 394 159 385 Q134 359 117 330 Q97 296 83 260 Q69 224 63 184 Q61 167 60 151 Q59 135 63 118 Q65 107 69 98 Q72 90 79 93 Q84 95 89 98 Q112 115 133 133.5 Q154 152 173 173 Q177 177 179.5 181 Q182 185 184 189 Q191 201 202 196 Q207 194 209.5 188.5 Q212 183 210 178 Q209 172 203 164 Q194 152 184 142 Q148 104 109 77 Q99 69 89 66 Q61 57 45 83 Q40 92 37.5 102 Q35 112 33 122 Q30 149 32.5 174.5 Q35 200 42 226 Q55 272 75 313.5 Q95 355 125 392 Q135 403 145 412.5 Q155 422 167 430 Q182 440 199 446 Q225 454 244.5 440.5 Q264 427 267 399 Z " />
<glyph glyph-name="question" unicode="&#x3f;" horiz-adv-x="307" d="M292 577 Q293 572 292.5 568.5 Q292 565 292 561 Q291 544 286 528 Q281 512 275 495 Q262 464 247 434 Q232 404 217 373 Q175 287 132.5 202.5 Q90 118 47 32 Q44 25 41 18 Q38 11 35 4 Q30 -7 19 -7 Q14 -6 10 -1.5 Q6 3 7 8 Q9 17 13 24 Q26 50 38.5 77 Q51 104 65 131 Q103 207 140.5 282 Q178 357 216 433 Q227 456 237 478.5 Q247 501 255 524 Q260 540 263 552 Q265 564 263 578 Q260 594 241 599 Q233 601 224.5 600 Q216 599 208 597 Q164 586 129 556 Q125 553 121.5 549 Q118 545 115 541 Q110 534 110 528 Q108 514 96 514 Q91 513 86.5 517 Q82 521 81 527 Q81 537 85 545 Q92 559 105 572 Q154 618 217 627 Q225 629 233.5 628.5 Q242 628 250 626 Q289 618 292 577 Z M-12 -96 Q2 -96 2 -110 Q1 -116 -4.5 -121.5 Q-10 -127 -16 -127 Q-21 -127 -25 -122.5 Q-29 -118 -29 -112 Q-27 -98 -12 -96 Z " />
<glyph glyph-name="asciitilde" unicode="&#x7e;" horiz-adv-x="323" d="M208 289 Q216 281 210 272 Q208 268 206 267 Q195 257 183.5 247.5 Q172 238 161 229 Q158 225 152 223 Q143 218 135 221 Q127 224 123 233 Q121 238 120 242 Q119 246 117 251 Q115 257 114 261 Q106 255 103 252 Q99 247 95.5 242.5 Q92 238 88 233 Q87 231 84 228 Q76 220 67 225 Q62 227 60.5 231.5 Q59 236 60 241 Q60 242 61 243 Q69 257 79 268.5 Q89 280 103 287 Q130 300 141 272 Q143 267 143.5 262.5 Q144 258 146 253 Q154 259 155 260 Q163 267 170.5 273.5 Q178 280 186 287 Q189 290 191 291 Q202 296 208 289 Z " />
<glyph glyph-name="one" unicode="1" horiz-adv-x="82" d="M50 438 Q59 432 56 420 Q54 411 51.5 401.5 Q49 392 45 383 Q35 357 25 330.5 Q15 304 6 277 Q-7 241 -19.5 204.5 Q-32 168 -44 132 Q-45 129 -45 124 Q-45 115 -52 105 Q-58 97 -68 99 Q-79 103 -76 112 Q-75 125 -70 139 L-37 235 Q-24 274 -10 313 Q4 352 19 390 Q20 392 20 392.5 Q20 393 21 395 L15 395 Q7 395 4 402 Q1 409 7 417 Q9 419 11 420.5 Q13 422 15 424 Q19 427 22.5 429.5 Q26 432 30 435 Q41 442 50 438 Z " />
<glyph glyph-name="two" unicode="2" horiz-adv-x="142" d="M94 438 Q104 435 110 426 Q116 417 115 405 Q113 386 106 370 Q99 358 92.5 346 Q86 334 78 323 Q52 285 25.5 249 Q-1 213 -27 176 Q-33 167 -39.5 158 Q-46 149 -53 140 Q-55 138 -56 135.5 Q-57 133 -59 131 Q-56 131 -54 130.5 Q-52 130 -50 131 Q-38 132 -25.5 133 Q-13 134 -1 136 Q4 136 10 140 Q22 146 28 137 Q31 132 30 126 Q29 120 24 116 Q17 109 10 108 Q2 106 -5 105 Q-12 104 -20 103 L-71 100 Q-75 100 -83 102 Q-91 104 -94.5 111 Q-98 118 -94 127 Q-89 136 -84 143 Q-59 177 -34.5 210.5 Q-10 244 14 279 Q28 297 40.5 315.5 Q53 334 65 353 Q70 361 74.5 370.5 Q79 380 84 388 L87 400 Q87 410 78 409 Q75 408 67 406 Q45 397 28 381 Q24 377 21.5 373.5 Q19 370 16 365 Q9 354 0 358 Q-11 362 -9 374 Q-7 380 -5 383 Q-2 388 1 392 Q4 396 8 399 Q31 422 63 435 Q71 438 78.5 439 Q86 440 94 438 Z " />
<glyph glyph-name="three" unicode="3" horiz-adv-x="177" d="M94 439 Q113 441 120 430 Q127 419 124 405 Q122 398 119 391.5 Q116 385 113 378 Q104 363 93 349.5 Q82 336 71 323 Q68 319 65 316 Q62 313 59 309 Q61 307 61 307 Q94 289 92 246 Q90 214 78 185.5 Q66 157 42 132 Q31 120 17.5 111.5 Q4 103 -13 100 Q-31 97 -44 104 Q-66 117 -74 137 Q-79 148 -75.5 159 Q-72 170 -61 178 L-55 181 Q-44 186 -39 176 Q-33 168 -42 159 Q-43 158 -49 154 Q-43 141 -32 133 Q-27 130 -17 129 Q-7 128 9 139 Q21 146 28 156 Q40 170 47.5 185 Q55 200 60 217 Q65 235 63 252 Q60 275 40 284 Q12 295 34 321 Q40 329 46.5 335.5 Q53 342 59 350 Q67 361 74 370.5 Q81 380 89 391 Q92 396 94 400.5 Q96 405 95 411 Q87 409 83 407 Q63 398 46 383 Q39 376 35 369 Q27 356 16 361 Q4 365 9 379 Q11 383 13.5 386.5 Q16 390 19 394 Q45 422 83 436 Q89 439 94 439 Z " />
<glyph glyph-name="four" unicode="4" horiz-adv-x="140" d="M107 427 Q114 423 113 414 Q112 409 108 399 L5 116 Q3 114 2.5 111 Q2 108 0 106 Q-5 98 -15 100 Q-24 103 -24 113 Q-24 116 -22 120 Q-22 122 -20 126 L57 345 L53 341 L47 335 Q41 330 35 325 Q29 320 23 315 Q16 310 9 307 Q-5 301 -15 308 Q-25 315 -24 330 Q-24 339 -21.5 348 Q-19 357 -15 366 Q-7 383 2.5 399 Q12 415 24 429 Q27 434 32 437 Q42 445 51 436 Q58 427 48 417 Q20 386 6 346 Q5 343 5 340.5 Q5 338 3 333 Q10 337 13 340 Q21 348 29.5 356.5 Q38 365 46 373 Q56 384 65 394.5 Q74 405 83 416 L92 425 Q100 430 107 427 Z " />
<glyph glyph-name="six" unicode="6" horiz-adv-x="147" d="M80 439 Q93 444 105 435 Q117 426 112 403 Q111 397 108 390.5 Q105 384 102 379 Q98 372 92.5 370 Q87 368 82 371 Q73 377 81 393 Q83 397 85 400.5 Q87 404 86 408 Q80 411 73 404 Q67 399 61.5 393 Q56 387 51 381 Q41 369 34 356 Q27 343 20 329 Q11 309 3 288.5 Q-5 268 -11 246 Q-9 248 -8 249 Q-7 250 -5 251 Q2 257 8 262.5 Q14 268 21 273 Q26 278 32 281 Q38 284 45 285 Q59 288 67.5 280.5 Q76 273 76 258 Q77 251 75 244 Q73 237 71 230 Q63 207 53 185.5 Q43 164 30 144 Q26 137 21.5 131 Q17 125 12 120 Q6 113 -2 108 Q-28 90 -44 112 Q-55 126 -55 150 Q-56 164 -54 178.5 Q-52 193 -49 207 Q-36 267 -10 324 Q-2 343 7.5 360 Q17 377 29 394 Q36 404 43.5 413 Q51 422 61 429 Q69 434 80 439 Z M-11 205 Q-5 184 -26 178 Q-30 163 -27 147 Q-26 145 -25.5 142 Q-25 139 -24 137 Q-18 127 -10 135 Q-6 139 -2.5 142.5 Q1 146 3 150 Q17 171 28 193.5 Q39 216 47 240 Q50 249 48 255 Q43 255 35 250 Q27 245 18 237.5 Q9 230 1 221 Q-7 212 -11 205 Z " />
<glyph glyph-name="five" unicode="5" horiz-adv-x="160" d="M122 438 Q134 434 131 419 Q128 404 114 406 Q106 408 100 406 Q86 404 73 401.5 Q60 399 47 397 Q36 374 26.5 353 Q17 332 9 309 L32 309 Q37 308 40.5 308 Q44 308 48 306 Q73 296 71 261 Q70 241 65.5 222 Q61 203 54 185 Q37 142 10 117 Q-1 106 -13 102 Q-25 98 -38 100 Q-48 100 -55 104 Q-76 114 -63 142 Q-61 147 -58 152 Q-55 157 -50 160 Q-39 170 -32 160 Q-25 150 -35 138 Q-36 136 -37 135.5 Q-38 135 -39 133 L-37 131 Q-28 129 -19.5 131.5 Q-11 134 -3 142 Q8 152 15.5 164 Q23 176 29 190 Q41 217 45 247 Q46 254 45 262 Q45 277 33 277 Q26 277 19 276.5 Q12 276 5 276 L4 276 Q-12 273 -17.5 283 Q-23 293 -18 309 Q-11 327 -4 344.5 Q3 362 11 379 Q15 387 16 391 Q20 397 19 404 L19 405 Q19 413 24 417 Q29 421 32 427.5 Q35 434 43 434 Q46 434 48.5 433 Q51 432 55 430 Q69 432 84 434 Q99 436 113 438 Q115 439 117.5 438.5 Q120 438 122 438 Z " />
<glyph glyph-name="seven" unicode="7" horiz-adv-x="157" d="M117 440 Q124 440 128 435 Q132 430 130 422 Q129 414 124 406 Q120 398 115.5 390.5 Q111 383 106 375 Q92 352 79 329.5 Q66 307 53 284 Q52 283 48 275 Q52 275 54.5 275.5 Q57 276 60 276 Q63 276 66 276.5 Q69 277 72 276 Q82 273 80 263 Q78 251 67 248 Q61 247 54.5 246.5 Q48 246 41 245 Q31 245 27 236 Q12 206 -3.5 176.5 Q-19 147 -34 118 Q-36 114 -40 108 Q-44 103 -49 101.5 Q-54 100 -58 102 Q-67 106 -63 119 Q-61 121 -60.5 123.5 Q-60 126 -58 128 Q-44 154 -31 180 Q-18 206 -4 232 Q-3 234 -1 240 L-14 240 L-22 240 Q-28 240 -31 244.5 Q-34 249 -33 254 Q-31 268 -18 268 Q-10 269 -1 269.5 Q8 270 16 271 Q26 289 35 306.5 Q44 324 55 341 Q65 358 75.5 374.5 Q86 391 97 409 Q88 407 82 406 Q70 402 58 398.5 Q46 395 34 392 Q31 391 25 391 Q16 391 14 401 Q14 412 23 417 Q25 419 28 419 Q46 424 64 429 Q82 434 100 439 Q105 440 109 440.5 Q113 441 117 440 Z " />
<glyph glyph-name="eight" unicode="8" horiz-adv-x="152" d="M118 438 Q127 432 122 418 Q120 410 117 403.5 Q114 397 111 390 L39 243 Q36 237 35 232 Q34 227 36 222 Q42 210 42 195 Q42 181 33 168 Q31 165 28.5 161.5 Q26 158 24 155 Q-15 116 -60 101 Q-63 100 -65.5 99.5 Q-68 99 -71 99 Q-97 99 -91 131 Q-89 139 -86.5 145.5 Q-84 152 -81 159 Q-74 174 -65.5 187.5 Q-57 201 -47 213 Q-39 224 -30 235 Q-21 246 -12 257 Q-8 261 -8 267 Q-8 294 5 317 Q15 335 25 351 Q50 388 82 420 Q86 425 90 428.5 Q94 432 99 436 Q110 444 118 438 Z M6 174 Q14 181 14.5 185.5 Q15 190 13 198 Q-11 195 1 221 Q3 225 2 227 Q1 229 0 231 Q-2 229 -3 228.5 Q-4 228 -5 226 Q-15 213 -24.5 200.5 Q-34 188 -44 174 Q-49 167 -52.5 159 Q-56 151 -61 143 Q-63 141 -63 138 Q-63 135 -65 131 Q-60 131 -56 133 Q-23 145 6 174 Z M22 264 Q36 292 49 319 Q62 346 76 373 Q66 365 52 345 Q38 325 30 311 Q28 306 25.5 301 Q23 296 21 291 Q16 277 22 264 Z " />
<glyph glyph-name="nine" unicode="9" horiz-adv-x="135" d="M79 380 Q86 376 86.5 369 Q87 362 85 354 Q80 340 76 325.5 Q72 311 67 296 Q56 267 45 238 Q34 209 20 181 Q14 170 7.5 159.5 Q1 149 -6 138 Q-10 132 -14.5 127 Q-19 122 -24 117 Q-38 103 -53 100 Q-68 97 -82 101 Q-84 101 -88 103 Q-97 111 -96 124 Q-95 131 -90 138 Q-85 145 -80 147 Q-69 152 -65 139 Q-64 137 -64 131 Q-49 129 -35 143 Q-24 154 -14 172 Q-6 186 1 200 Q8 214 14 228 Q22 248 29.5 268 Q37 288 45 308 Q46 310 46 311.5 Q46 313 47 316 Q45 314 44 313 Q43 312 42 311 Q37 306 32.5 301.5 Q28 297 23 292 Q18 289 14 286.5 Q10 284 6 282 Q-17 274 -20 301 Q-22 309 -20.5 316 Q-19 323 -17 331 Q-5 377 24 414 Q31 422 38.5 428.5 Q46 435 55 438 Q66 442 73.5 436.5 Q81 431 83 419 Q85 411 84 402.5 Q83 394 81 386 Q80 384 80 383 Q80 382 79 380 Z M55 386 Q57 391 58 396.5 Q59 402 57 407 Q50 405 41.5 394 Q33 383 25 368.5 Q17 354 11.5 339 Q6 324 6 315 Q14 320 28 335 Q42 350 53 365 Q51 370 52 375.5 Q53 381 55 386 Z " />
<glyph glyph-name="zero" unicode="0" horiz-adv-x="147" d="M103 414 Q103 405 103 396 Q103 387 102 378 Q97 336 89.5 295 Q82 254 62 214 Q53 195 42.5 177.5 Q32 160 19 143 Q11 133 2.5 125 Q-6 117 -16 111 Q-24 106 -35 102 Q-62 95 -70 124 Q-73 144 -70 165 Q-66 190 -59.5 214 Q-53 238 -44 262 Q-32 297 -17 329.5 Q-2 362 18 393 Q23 399 27 405 Q31 411 35 418 Q37 420 39 422.5 Q41 425 43 427 Q56 444 68 429 Q70 431 71 432 Q72 433 74 435 Q82 442 89 441 Q96 440 99 432 Q103 424 103 414 Z M76 385 Q76 390 75 393 Q64 390 59 403 Q54 401 52 397.5 Q50 394 48 391 Q28 362 13 331 Q-2 300 -15 267 Q-25 241 -33 214.5 Q-41 188 -44 161 Q-44 155 -44 149 Q-44 143 -43 138 Q-43 129 -36 133 Q-34 134 -32 134.5 Q-30 135 -28 136 Q-12 146 -2 160 Q33 202 53 259 Q64 290 68.5 321.5 Q73 353 76 385 Z " />
<glyph glyph-name="quotedblleft" unicode="&#x201c;" horiz-adv-x="262" d="M218 677 L204 642 Q202 638 200.5 634 Q199 630 196 625 Q195 623 192.5 621.5 Q190 620 188 618 Q180 615 174 621 Q168 627 171 636 L189 683 L195 693 Q201 701 211 697 Q218 694 220 683 L218 677 Z M254 690 Q260 685 260 677 Q260 677 258 671 L246 636 Q244 634 243.5 631 Q243 628 241 625 Q239 621 234.5 619.5 Q230 618 225 620 Q220 622 217 626 Q214 630 216 635 Q219 648 223 660 Q227 672 233 684 Q236 690 242 692 Q248 694 254 690 Z " />
<glyph glyph-name="quotedblright" unicode="&#x201d;" horiz-adv-x="262" d="M218 677 L204 642 Q202 638 200.5 634 Q199 630 196 625 Q195 623 192.5 621.5 Q190 620 188 618 Q180 615 174 621 Q168 627 171 636 L189 683 L195 693 Q201 701 211 697 Q218 694 220 683 L218 677 Z M254 690 Q260 685 260 677 Q260 677 258 671 L246 636 Q244 634 243.5 631 Q243 628 241 625 Q239 621 234.5 619.5 Q230 618 225 620 Q220 622 217 626 Q214 630 216 635 Q219 648 223 660 Q227 672 233 684 Q236 690 242 692 Q248 694 254 690 Z " />
<glyph glyph-name="quoteleft" unicode="&#x2018;" horiz-adv-x="232" d="M229 688 Q230 685 228 677 Q223 665 218.5 652.5 Q214 640 209 628 Q207 622 205 619 Q203 615 194 613 Q187 613 182.5 618.5 Q178 624 180 631 Q185 646 190 661 Q195 676 203 690 Q208 700 217 698 Q228 696 229 688 Z " />
<glyph glyph-name="quoteright" unicode="&#x2019;" horiz-adv-x="231" d="M229 688 Q230 685 228 677 Q223 665 218.5 652.5 Q214 640 209 628 Q207 622 205 619 Q203 615 194 613 Q187 613 182.5 618.5 Q178 624 180 631 Q185 646 190 661 Q195 676 203 690 Q208 700 217 698 Q228 696 229 688 Z " />
<glyph glyph-name="b" unicode="b" horiz-adv-x="226" d="M239 338 Q241 330 238 323 Q236 319 233 317 Q228 314 224 311 Q220 309 215 305.5 Q210 302 205 300 L186 288 L111 246 Q105 242 100 234 Q88 211 73 190.5 Q58 170 39 152 Q30 144 20.5 137 Q11 130 0 125 Q-9 120 -18 119 Q-39 114 -42 135 Q-43 136 -43 138 L-45 138 Q-54 111 -62.5 83.5 Q-71 56 -80 29 Q-81 26 -81 20 Q-83 6 -96 6 Q-110 6 -110 21 Q-109 26 -108.5 30 Q-108 34 -106 39 Q-97 68 -88 97.5 Q-79 127 -68 156 Q-33 256 4 354.5 Q41 453 83 551 Q101 593 119.5 635 Q138 677 157 719 Q159 723 160 726 Q161 729 163 733 Q164 735 167.5 740.5 Q171 746 178 745 Q186 745 189 738 Q192 731 192 725 Q190 716 184 711 Q183 710 181 706 Q152 640 122.5 574 Q93 508 67 440 Q56 410 44.5 380.5 Q33 351 22 321 Q21 320 20 315 Q23 318 27 320 Q38 328 48 334 Q58 340 71 342 Q94 347 108 336 Q122 325 122 302 Q122 297 121.5 292.5 Q121 288 120 283 L222 341 L228 343 Q234 345 237 340 L238 340 Q238 339 239 338 Z M-3 156 Q24 172 45 202 Q31 192 19 181 Q7 170 -3 156 Z M83 262 Q88 273 91 283 Q94 293 93 304 Q93 310 90 313 Q90 313 89 314 Q81 320 66 312.5 Q51 305 36 293 Q18 279 -1 260 Q-10 234 -19.5 209 Q-29 184 -37 159 Q-21 183 0 201 Q21 219 44 236 L77 257 Q79 259 80.5 259.5 Q82 260 83 262 Z " />
<glyph glyph-name="c" unicode="c" horiz-adv-x="129" d="M142 311 Q128 298 115 284.5 Q102 271 90 257 Q66 231 42.5 205.5 Q19 180 -5 154 Q-20 137 -35 125 Q-38 122 -41.5 119.5 Q-45 117 -50 115 Q-62 109 -73 115 Q-84 121 -86 135 Q-88 143 -88 151.5 Q-88 160 -87 169 Q-83 198 -73.5 224 Q-64 250 -51 276 Q-39 298 -24 318 Q-20 324 -14.5 329.5 Q-9 335 -3 340 Q5 346 17 345 Q35 342 42 322 Q47 305 38 290 Q37 286 32 284 Q24 279 16 285 Q8 292 11 301 Q13 304 14 307.5 Q15 311 14 316 Q12 314 10.5 313 Q9 312 7 310 Q4 306 1 303 Q-2 300 -5 296 Q-44 238 -58 169 Q-59 163 -59 157 Q-59 151 -60 144 Q-56 145 -54 147 Q-49 152 -43.5 157 Q-38 162 -33 168 Q-9 194 14.5 219.5 Q38 245 62 271 Q78 289 95 306.5 Q112 324 129 341 Q131 342 136 343.5 Q141 345 147 340 Q153 335 150 324 Q147 313 142 311 Z " />
<glyph glyph-name="a" unicode="a" horiz-adv-x="146" d="M167 334 Q167 332 167 328.5 Q167 325 163 320 L42 136 Q39 133 36.5 130 Q34 127 30 125 Q22 120 14 124 Q6 128 4 138 L4 161 Q6 183 10.5 203 Q15 223 21 243 Q22 245 22 250 L-31 194 Q-32 194 -32 193 L-33 193 Q-39 187 -46 183 Q-57 178 -66 183.5 Q-75 189 -75 202 Q-76 207 -75.5 211.5 Q-75 216 -74 221 Q-71 229 -68.5 236.5 Q-66 244 -63 252 Q-54 271 -45 288 Q-36 305 -23 320 Q-19 325 -15.5 329 Q-12 333 -7 337 Q-3 341 5 345 Q16 349 25 342.5 Q34 336 36 323 L36 315 Q40 319 44 321 Q55 328 63 321 Q73 315 71 303 Q70 295 65 284 Q64 278 58.5 261 Q53 244 47.5 227 Q42 210 39 197.5 Q36 185 39 190 Q41 192 42 193.5 Q43 195 44 197 Q53 210 61.5 224 Q70 238 81.5 254 Q93 270 107 289.5 Q121 309 140 334 L147 342 Q148 343 151 343 Q157 343 161 341 Q163 341 163 340 L166 337 Q166 335 167 335 L167 334 Z M-15 257 Q-1 271 10 287 Q21 303 18 310 L17 311 Q12 315 2.5 303.5 Q-7 292 -16 276 Q-27 258 -38 233 Q-38 233 -37 235 Q-34 238 -28 243.5 Q-22 249 -15 257 Z " />
</font>
</svg>
