<?xml version="1.0" encoding="UTF-8"?>
<svg xmlns="http://www.w3.org/2000/svg" xmlns:xlink="http://www.w3.org/1999/xlink" version="1.2" >
<font id="Gladise">
<font-face  font-family="Gladise" units-per-em="1000" ascent="750" descent="-250" font-style="normal" font-weight="400" font-stretch="normal" cap-height="700" x-height="500" underline-position="-75" underline-thickness="50" />
<missing-glyph  horiz-adv-x="65" d="" />
<glyph glyph-name="NULL" d="" />
<glyph glyph-name="nonmarkingreturn" unicode="&#xd;" horiz-adv-x="65" d="" />
<glyph glyph-name="space" unicode="&#x20;" horiz-adv-x="134" d="" />
<glyph glyph-name="E" unicode="E" horiz-adv-x="516" d="M550 683 Q553 662 544.5 640.5 Q536 619 518 603 Q513 598 508.5 603.5 Q504 609 510 614 Q517 620 524 630 Q533 646 535 665 Q537 684 529 699 Q521 713 505 718 Q489 723 474 724 Q455 725 436 720.5 Q417 716 398 709 Q378 701 358.5 690.5 Q339 680 321 668 Q286 645 255 616 Q224 587 201 551 Q190 534 180.5 513.5 Q171 493 167.5 473 Q164 453 168 434.5 Q172 416 190 404 Q200 397 211 393 Q222 389 234 385 Q246 381 258 378.5 Q270 376 284 374 Q304 372 325 372.5 Q346 373 366 375 Q374 377 381 377.5 Q388 378 395 380 Q403 380 403 375 Q403 372 401.5 369 Q400 366 396 365 Q389 363 382 362.5 Q375 362 367 360 Q365 360 364 359.5 Q363 359 361 359 Q282 343 206.5 308.5 Q131 274 65 223 Q33 198 4.5 169.5 Q-24 141 -50 109 Q-73 80 -95 49 Q-117 18 -134 -14 Q-146 -38 -157 -66.5 Q-168 -95 -171 -123 Q-174 -151 -166 -175 Q-158 -199 -132 -213 Q-105 -227 -71 -227 Q-37 -227 -4 -219 Q29 -211 63 -195 Q97 -179 129 -158 Q196 -115 254.5 -59.5 Q313 -4 371 53 Q376 58 380.5 52.5 Q385 47 379 42 Q372 35 365 28 Q358 21 350 13 Q291 -44 229.5 -100 Q168 -156 96 -194 Q27 -232 -45 -240 Q-78 -244 -111 -238 Q-144 -232 -165 -209 Q-184 -189 -186.5 -161 Q-189 -133 -183 -105 Q-177 -74 -164 -44.5 Q-151 -15 -135 13 Q-115 48 -90.5 80.5 Q-66 113 -39 143 Q-10 175 20.5 203 Q51 231 86 256 Q185 325 297 358 Q272 360 249 365 Q236 367 223.5 371.5 Q211 376 199 381 Q188 386 178 392.5 Q168 399 162 410 Q150 427 150.5 448.5 Q151 470 157 491 Q164 514 176 536 Q188 558 202 578 Q230 615 265 644.5 Q300 674 340 696 Q358 707 379 716.5 Q400 726 421.5 732 Q443 738 464 739.5 Q485 741 504 735 Q523 728 535 717 Q548 704 550 683 Z " />
<glyph glyph-name="F" unicode="F" horiz-adv-x="390" d="M809 722 Q824 710 817 693 Q814 684 808 676.5 Q802 669 794 662 Q789 657 784 662.5 Q779 668 784 673 Q789 678 797.5 686.5 Q806 695 804 704 Q802 711 794 713.5 Q786 716 781 718 Q758 723 736 724.5 Q714 726 691 727 Q649 727 607.5 724 Q566 721 524 716 Q482 711 441.5 706 Q401 701 359 694 Q342 692 325.5 689 Q309 686 292 683 Q268 641 245 598.5 Q222 556 199 513 Q176 470 153.5 426.5 Q131 383 109 339 Q114 340 120 340.5 Q126 341 131 341 Q192 348 252 354.5 Q312 361 373 367 Q376 368 378.5 365 Q381 362 381 360 Q381 354 373 352 Q356 350 338.5 348.5 Q321 347 304 345 Q253 340 202.5 334 Q152 328 101 323 Q78 278 56 232.5 Q34 187 12 141 Q-10 94 -31.5 47.5 Q-53 1 -74 -47 Q-116 -142 -155 -236 Q-159 -243 -164 -242 Q-172 -238 -170 -232 Q-165 -221 -160 -209 Q-140 -161 -119.5 -113.5 Q-99 -66 -78 -18 L9 171 Q27 209 45.5 246 Q64 283 83 321 Q78 321 72.5 320.5 Q67 320 62 319 Q54 319 54 327 Q54 334 62 334 Q70 335 76.5 335.5 Q83 336 91 337 Q93 342 96 347 Q99 352 101 357 Q125 405 149 450.5 Q173 496 198 543 Q217 578 235 611.5 Q253 645 273 679 Q211 667 150 653 Q89 639 29 622 Q21 620 19 627 Q17 634 25 636 Q119 663 219 684 L282 696 Q287 704 291 711.5 Q295 719 300 727 Q304 733 310.5 729.5 Q317 726 313 719 Q307 710 302 700 Q367 711 432.5 720 Q498 729 564 735 Q607 739 650 741.5 Q693 744 737 739 Q759 737 780 733 Q788 731 795.5 729 Q803 727 809 722 Z " />
<glyph glyph-name="G" unicode="G" horiz-adv-x="534" d="M627 652 Q633 628 630.5 603.5 Q628 579 622 556 Q616 533 607 510.5 Q598 488 587 466 Q567 422 539 383.5 Q511 345 478 310 Q473 305 467.5 310 Q462 315 467 320 L497 353 Q526 388 549.5 427.5 Q573 467 590 509 Q599 531 606 554 Q613 577 615 600 Q617 620 614 641 Q611 662 597 679 Q586 693 569.5 701 Q553 709 535 712 Q514 715 492.5 710.5 Q471 706 451 698 Q428 689 407.5 676.5 Q387 664 367 650 Q349 637 332.5 623 Q316 609 299 595 Q265 566 235 533 Q205 500 177 465 Q149 430 124.5 392 Q100 354 77 315 Q54 273 35 227 Q16 181 15 131 Q15 114 18.5 96 Q22 78 30 62 Q38 46 51.5 33.5 Q65 21 83 17 Q106 11 128 17.5 Q150 24 170 33 Q193 44 214 56.5 Q235 69 256 83 Q299 109 340.5 137.5 Q382 166 421 198 Q426 201 431 199 Q436 197 434 191 Q432 183 429 175 Q426 167 424 159 Q403 99 374 41 Q376 35 369 32 Q353 1 335 -28 Q317 -57 296 -85 Q277 -112 256 -137.5 Q235 -163 210 -185 Q189 -203 160.5 -218 Q132 -233 103 -229 Q89 -227 78.5 -219.5 Q68 -212 64 -199 Q61 -190 60.5 -181 Q60 -172 61 -164 Q64 -147 73 -131.5 Q82 -116 93 -102 Q107 -86 123 -73 Q139 -60 156 -48 Q175 -35 194.5 -24.5 Q214 -14 234 -4 Q253 5 271.5 13 Q290 21 310 29 Q322 34 334 38 Q346 42 359 45 Q375 76 388 107.5 Q401 139 412 172 Q407 167 401.5 163.5 Q396 160 391 156 Q349 124 305 95.5 Q261 67 216 41 Q197 30 175.5 19.5 Q154 9 132 3.5 Q110 -2 88 0.5 Q66 3 46 19 Q29 32 19 50.5 Q9 69 4.5 89.5 Q0 110 0 131.5 Q0 153 4 173 Q9 199 18 223 Q27 247 38 270 Q49 293 60.5 314.5 Q72 336 85 357 Q109 398 136.5 436 Q164 474 194 510 Q225 545 258 577.5 Q291 610 328 639 Q366 668 409 694.5 Q452 721 501 727 Q521 729 541.5 726 Q562 723 579 713 Q616 693 627 652 Z M229 -146 Q251 -122 270 -96.5 Q289 -71 307 -45 Q318 -27 328.5 -9.5 Q339 8 349 27 Q317 17 287 4 Q257 -9 228 -24 Q208 -34 189.5 -44.5 Q171 -55 154 -68 Q138 -79 123.5 -91.5 Q109 -104 98 -119 Q88 -132 82 -146 Q76 -160 75 -175 Q75 -183 77 -192 Q79 -201 87 -207 Q96 -215 109 -214.5 Q122 -214 133 -212 Q162 -204 185.5 -185.5 Q209 -167 229 -146 Z " />
<glyph glyph-name="H" unicode="H" horiz-adv-x="430" d="M569 681 Q573 688 579.5 684 Q586 680 582 674 Q556 626 530.5 578.5 Q505 531 480 483 Q448 424 418 365.5 Q388 307 359 247 L367 247 Q375 248 375 240.5 Q375 233 367 232 Q363 232 359 232 Q355 232 351 231 Q340 208 328.5 185.5 Q317 163 306 140 Q264 53 223.5 -33 Q183 -119 144 -207 Q141 -214 133 -210 Q128 -205 131 -199 Q153 -150 175 -101.5 Q197 -53 220 -4 Q248 55 276.5 113.5 Q305 172 334 230 Q323 230 313 229.5 Q303 229 292 228 Q260 226 229.5 223.5 Q199 221 167 218 Q151 185 135 152.5 Q119 120 103 88 Q61 6 21 -75.5 Q-19 -157 -60 -239 Q-64 -246 -70.5 -242 Q-77 -238 -73 -232 Q-68 -222 -63.5 -212 Q-59 -202 -54 -192 Q-14 -113 25 -34 Q64 45 104 124 Q126 170 150 216 Q87 210 28 201 Q20 201 20 209 Q20 216 28 216 Q47 219 65.5 221.5 Q84 224 102 226 Q116 228 130 229 Q144 230 158 232 Q184 285 210 336.5 Q236 388 262 441 Q281 479 298.5 516 Q316 553 327 594 Q332 613 334 631.5 Q336 650 334 670 Q332 686 326.5 702.5 Q321 719 304 726 Q288 733 270 730.5 Q252 728 236 723 Q219 718 202.5 711 Q186 704 171 695 Q139 676 113 651.5 Q87 627 65 598 Q21 539 -2.5 469 Q-26 399 -21 325 Q-20 318 -27.5 318 Q-35 318 -36 325 Q-37 342 -36 360 Q-34 436 -4.5 507 Q25 578 76 635 Q101 663 131 686.5 Q161 710 196 725 Q213 732 230 737 Q247 742 265 744 Q283 746 301.5 742.5 Q320 739 332 722 Q343 708 346.5 689 Q350 670 350 652 Q350 632 346.5 612.5 Q343 593 337 573 Q324 531 304.5 492.5 Q285 454 266 415 Q220 324 175 233 Q217 238 258 241 Q299 244 341 246 Q353 270 365 293.5 Q377 317 389 341 Q433 427 477.5 511.5 Q522 596 569 681 Z " />
<glyph glyph-name="I" unicode="I" horiz-adv-x="182" d="M476 719 Q482 714 476.5 708.5 Q471 703 466 708 Q452 720 434.5 721 Q417 722 401 722 Q378 722 355 721.5 Q332 721 309 720 Q307 714 304 708.5 Q301 703 299 697 Q276 652 254 607 Q232 562 210 516 Q187 471 165.5 426 Q144 381 122 336 Q99 291 77.5 246 Q56 201 33 156 Q-11 66 -56 -25 Q-97 -109 -139 -194 Q-104 -189 -69.5 -187 Q-35 -185 0 -184 Q8 -184 8 -191.5 Q8 -199 0 -199 Q-15 -199 -30 -199.5 Q-45 -200 -60 -201 Q-113 -205 -165 -213.5 Q-217 -222 -268 -236 Q-275 -238 -277 -230.5 Q-279 -223 -272 -221 Q-257 -217 -242 -213.5 Q-227 -210 -212 -207 Q-198 -204 -184.5 -201.5 Q-171 -199 -157 -197 Q-151 -186 -146 -175 Q-123 -130 -101.5 -84.5 Q-80 -39 -57 6 Q-35 51 -13 96 Q9 141 31 186 Q54 231 75.5 276 Q97 321 120 366 Q142 412 164 457 Q186 502 208 547 Q229 590 250 633 Q271 676 292 719 Q193 713 94 698 Q87 696 85 703 Q84 706 85.5 709 Q87 712 90 712 Q135 719 180 724 Q260 733 340 736 Q359 737 378 737.5 Q397 738 417 737 Q433 737 448.5 733.5 Q464 730 476 719 Z " />
<glyph glyph-name="J" unicode="J" horiz-adv-x="460" d="M506 670 Q507 644 504 617 Q501 590 496 564 Q477 461 437 358 Q402 263 356 175 Q309 88 251 7 Q192 -73 122 -143 Q89 -176 48.5 -204.5 Q8 -233 -40 -238 Q-61 -240 -82 -236 Q-103 -232 -120 -221 Q-139 -209 -150.5 -191 Q-162 -173 -168 -152 Q-180 -103 -164.5 -54.5 Q-149 -6 -123 36 Q-94 80 -59.5 119.5 Q-25 159 14 192 Q20 197 25 192 Q30 187 24 182 Q15 174 6.5 165.5 Q-2 157 -10 149 Q-49 113 -78 74 Q-93 54 -107 33.5 Q-121 13 -132 -10 Q-142 -30 -148.5 -52 Q-155 -74 -157 -96.5 Q-159 -119 -154.5 -141 Q-150 -163 -138 -182 Q-127 -199 -110 -208.5 Q-93 -218 -73.5 -221 Q-54 -224 -33.5 -221.5 Q-13 -219 5 -211 Q25 -202 45 -188.5 Q65 -175 83 -160 Q100 -144 117 -127 Q134 -110 150 -92 Q182 -57 211.5 -20 Q241 17 267 56 Q293 96 317 137 Q341 178 362 221 Q384 265 402.5 309 Q421 353 436 398 Q453 448 466.5 498.5 Q480 549 486 601 Q488 615 489 628 Q490 641 491 655 Q491 665 490.5 675 Q490 685 487 695 Q485 703 480 711 Q475 719 466 723 Q457 728 446.5 726.5 Q436 725 425 723 Q381 711 342 684 Q303 657 274 622 Q272 620 269 620 Q266 620 264 622 Q259 627 264 632 Q272 642 280.5 650.5 Q289 659 298 667 Q334 698 377 720 Q388 725 399.5 729.5 Q411 734 422 737 Q433 740 444.5 741.5 Q456 743 467 739 Q490 732 497.5 711.5 Q505 691 506 670 Z " />
<glyph glyph-name="K" unicode="K" horiz-adv-x="418" d="M624 705 Q631 708 634.5 701.5 Q638 695 632 692 Q593 669 555.5 644.5 Q518 620 483 592 Q420 542 363.5 487 Q307 432 253 372 Q216 331 181 289 Q146 247 111 204 Q118 199 123 188 Q128 177 133.5 167 Q139 157 145 146 Q184 68 223 -9 Q262 -86 300 -164 Q303 -170 296.5 -174 Q290 -178 287 -171 Q276 -150 266.5 -129.5 Q257 -109 246 -88 Q228 -51 209.5 -15 Q191 21 173 57 Q164 76 154.5 94 Q145 112 136 131 Q131 140 126.5 149 Q122 158 117 167 Q115 172 112.5 176.5 Q110 181 108 186 L103 191 L102 192 Q102 192 101 191 Q101 191 100 190 Q86 174 73.5 158 Q61 142 48 125 Q40 108 32 92 Q24 76 16 59 Q-16 -8 -46 -74.5 Q-76 -141 -106 -209 Q-101 -214 -104 -219 Q-108 -224 -111 -228 Q-114 -232 -118 -237 Q-123 -243 -128.5 -239.5 Q-134 -236 -131 -229 Q-127 -221 -123.5 -212 Q-120 -203 -115 -194 Q-84 -123 -52 -53 Q-20 17 13 87 Q46 158 80.5 227 Q115 296 150 365 Q167 400 185 434 Q203 468 221 503 Q238 536 258 571 Q266 588 275 604 Q284 620 291 637 Q297 651 299 666.5 Q301 682 296 697 Q291 710 280.5 718.5 Q270 727 256 727 Q247 727 238.5 724.5 Q230 722 222 718 Q207 712 192 703 Q163 688 137 669 Q111 650 86.5 628 Q62 606 41 580 Q31 567 21 553.5 Q11 540 4 526 Q-4 512 -1 497 Q1 483 12 477 Q20 475 17 468 Q15 461 8 463 Q-5 469 -13 483 Q-20 499 -15.5 515.5 Q-11 532 -2 546 Q15 573 39 600 Q62 626 87.5 648.5 Q113 671 142 691 Q156 701 171 709 Q186 717 202 725 Q218 733 236 739 Q254 745 272 740 Q286 735 296 724.5 Q306 714 311 700 Q316 683 314 666.5 Q312 650 306 634 Q299 616 290 599 Q281 582 271 565 Q262 547 252.5 529 Q243 511 233 493 Q214 458 195.5 422 Q177 386 159 350 Q117 268 77 186 Q95 209 113.5 231 Q132 253 150 276 Q202 339 255.5 398 Q309 457 368 513 Q427 568 490.5 616.5 Q554 665 624 705 Z " />
<glyph glyph-name="L" unicode="L" horiz-adv-x="226" d="M303 738 Q308 740 310.5 736 Q313 732 311 727 Q309 722 306.5 718 Q304 714 301 709 Q302 704 297 702 Q296 698 293 694 Q220 561 151 428 Q117 364 85 299 Q53 234 24 167 Q-4 102 -25.5 35.5 Q-47 -31 -59 -100 Q-62 -117 -64 -132.5 Q-66 -148 -67 -165 Q-68 -176 -66.5 -188 Q-65 -200 -60 -211 Q-55 -221 -46 -226 Q-37 -231 -25 -228 Q-9 -224 4 -213 Q17 -202 29 -191 Q86 -140 143.5 -90.5 Q201 -41 259 10 Q264 15 269.5 9.5 Q275 4 269 -1 Q262 -7 255 -13 Q248 -19 241 -26 Q211 -52 181.5 -78 Q152 -104 122 -130 Q107 -143 92.5 -155.5 Q78 -168 63 -181 Q49 -193 35.5 -205.5 Q22 -218 7 -229 Q-6 -237 -21 -242 Q-36 -247 -51 -240 Q-62 -235 -68.5 -225 Q-75 -215 -78 -204 Q-82 -192 -82.5 -179 Q-83 -166 -81 -153 Q-79 -135 -76.5 -117.5 Q-74 -100 -71 -83 Q-57 -11 -33.5 57.5 Q-10 126 19 192 Q49 261 82.5 328 Q116 395 151 461 Q184 524 217.5 586 Q251 648 285 711 Q284 720 289.5 727.5 Q295 735 303 738 Z " />
<glyph glyph-name="M" unicode="M" horiz-adv-x="930" d="M1054 697 Q1056 686 1053.5 674.5 Q1051 663 1048 652 Q1040 627 1027 600 Q1001 548 974.5 497 Q948 446 921 395 Q895 343 868 291.5 Q841 240 815 188 Q789 136 764 84 Q739 32 715 -21 Q690 -76 668 -127 Q657 -154 647 -181 Q637 -208 629 -236 Q627 -243 619.5 -241 Q612 -239 614 -232 Q618 -218 622 -205.5 Q626 -193 631 -179 Q651 -125 674 -73.5 Q697 -22 721 29 Q746 81 771 132 Q796 183 822 234 Q848 285 874.5 335.5 Q901 386 927 437 Q952 487 979 538 Q992 563 1004.5 588 Q1017 613 1028 639 Q1032 650 1035.5 662 Q1039 674 1040 685 Q1040 693 1038.5 702.5 Q1037 712 1029 717 Q1019 724 1006.5 719 Q994 714 985 709 Q961 696 943 681 Q923 665 905 647 Q887 629 870 610 Q853 590 836 570.5 Q819 551 802 531 Q735 449 678 364 Q649 321 621.5 276.5 Q594 232 568 187 Q542 142 518 96 Q494 50 470 3 Q447 -44 425 -90 Q403 -136 381 -184 Q380 -187 376.5 -188 Q373 -189 371 -187 Q366 -184 368 -176 Q369 -176 369 -174 L370 -173 Q375 -160 380 -147.5 Q385 -135 390 -122 Q411 -69 434 -18 Q457 33 481 84 Q505 135 530 185 Q555 235 580 286 Q605 336 630 385 Q655 434 679 484 Q690 507 700.5 530 Q711 553 719 577 Q723 590 725 604 Q725 605 725.5 606.5 Q726 608 726 609 L726 615 L726 621 L726 623 L726 625 Q725 626 725 627 Q725 628 724 629 L724 631 Q724 631 723 633 Q721 636 719 638 L718 639 Q717 639 717 639.5 Q717 640 716 640 Q716 640 714 641 L713 641 Q709 643 703 643 Q692 643 682 638.5 Q672 634 662 629 Q643 618 622 602 Q602 588 584 573 Q566 558 549 541 Q514 508 483.5 471.5 Q453 435 424 397 Q394 358 365.5 318.5 Q337 279 308 238 Q276 193 246 146.5 Q216 100 187 52 Q160 7 134 -38.5 Q108 -84 83 -130 Q82 -133 81 -135.5 Q80 -138 78 -141 Q76 -146 71 -144 Q67 -143 65 -140 Q63 -137 65 -133 Q67 -131 67.5 -128 Q68 -125 70 -123 Q73 -117 75.5 -111.5 Q78 -106 81 -101 Q113 -34 145 32.5 Q177 99 209 166 Q240 230 271 294 Q302 358 328 424 Q341 457 352 490 Q358 507 363.5 524 Q369 541 371 558 Q373 570 371.5 583.5 Q370 597 362 608 Q355 616 346 619.5 Q337 623 327 623 Q314 623 301.5 619 Q289 615 277 610 Q250 597 227 580 Q204 562 184 540.5 Q164 519 147 495 Q109 444 87.5 383.5 Q66 323 71 259 Q72 251 64.5 251 Q57 251 56 259 Q56 267 55.5 275.5 Q55 284 56 292 Q58 358 85 417.5 Q112 477 154 528 Q173 552 195.5 572.5 Q218 593 244 609 Q257 617 271 623.5 Q285 630 300 634 Q325 642 348 635 Q371 627 381 605 Q387 590 387 574 Q387 558 383 542 Q379 525 373.5 507 Q368 489 362 472 Q356 455 350 438 Q344 421 336 404 Q322 371 307 338 Q292 305 276 272 Q259 238 243 204 Q227 170 210 135 Q202 117 193.5 99.5 Q185 82 177 64 Q191 90 205 110 Q234 158 266 203.5 Q298 249 330 295 Q359 334 387.5 373.5 Q416 413 447 451 Q478 489 511 524.5 Q544 560 582 591 Q601 606 621 620.5 Q641 635 662 646 Q676 654 694.5 658 Q713 662 727 651 Q736 644 739 632.5 Q742 621 741 610 Q740 596 736 582 Q732 568 727 554 Q716 526 703.5 499 Q691 472 677 446 Q651 394 625.5 342.5 Q600 291 574 240 Q561 214 548.5 188.5 Q536 163 523 137 Q538 164 553.5 191.5 Q569 219 585 246 Q613 292 641.5 336 Q670 380 701 424 Q732 467 764.5 508.5 Q797 550 832 589 Q849 609 867 628.5 Q885 648 904 666 Q923 684 943.5 700 Q964 716 987 727 Q998 732 1011.5 735 Q1025 738 1036 730 Q1045 725 1049 716 Q1053 707 1054 697 Z " />
<glyph glyph-name="N" unicode="N" horiz-adv-x="602" d="M722 669 Q724 659 721.5 649 Q719 639 715 629 Q710 618 704 606.5 Q698 595 692 584 Q663 533 635.5 483 Q608 433 581 382 Q555 331 530 280 Q505 229 482 176 Q460 125 441.5 72.5 Q423 20 408 -34 Q393 -88 384 -142 Q382 -155 380 -168.5 Q378 -182 383 -195 Q391 -217 412 -217 Q420 -216 420 -223.5 Q420 -231 412 -232 Q390 -232 376 -213 Q368 -203 366 -190.5 Q364 -178 365 -166 Q367 -152 369.5 -138.5 Q372 -125 374 -111 Q386 -55 401 -4 Q417 50 436 101.5 Q455 153 478 204 Q501 257 526.5 307.5 Q552 358 578 409 Q605 460 632.5 509 Q660 558 688 609 Q693 619 698 628.5 Q703 638 706 649 Q708 656 708 664.5 Q708 673 700 678 Q695 680 689 679.5 Q683 679 678 677 Q671 675 665 672 Q659 669 653 666 Q642 659 630.5 652 Q619 645 608 637 Q585 621 565 603.5 Q545 586 525 568 Q505 548 485.5 529 Q466 510 447 490 Q409 450 373 409 Q337 368 302 326 Q267 283 234 239.5 Q201 196 169 151 Q137 106 106 61 Q75 16 44 -30 Q14 -76 -16 -122 Q-46 -168 -76 -214 Q-76 -215 -77 -215 Q-79 -222 -85 -220 Q-93 -218 -91 -210 Q-86 -200 -82 -190.5 Q-78 -181 -74 -170 Q-38 -86 1.5 -5.5 Q41 75 83 156 Q125 237 167 316.5 Q209 396 250 477 Q261 497 271 517.5 Q281 538 291 559 Q301 579 310 598.5 Q319 618 325 639 Q330 656 332.5 677 Q335 698 324 714 Q314 728 297.5 729 Q281 730 267 726 Q250 722 233.5 714 Q217 706 201 698 Q166 679 138 658 Q108 636 80.5 611 Q53 586 27 558 Q-25 501 -68 438.5 Q-111 376 -150 310 Q-154 303 -160.5 307 Q-167 311 -163 317 Q-158 325 -153 333.5 Q-148 342 -143 350 Q-102 416 -56.5 479 Q-11 542 45 598 Q98 651 164 694 Q181 704 197.5 713 Q214 722 232 730 Q248 737 265.5 741.5 Q283 746 301 743 Q319 741 331 728 Q343 715 346 697 Q349 677 344.5 655.5 Q340 634 333 614 Q325 593 315 572.5 Q305 552 295 532 Q284 512 274 491 Q264 470 253 449 Q211 367 167.5 285.5 Q124 204 82 121 Q50 58 19 -5 Q-12 -68 -41 -133 Q-15 -93 10.5 -54 Q36 -15 62 23 Q93 69 124.5 114 Q156 159 189 204 Q222 249 256.5 292 Q291 335 326 378 Q362 420 399 461 Q436 502 476 541 Q514 579 555.5 615.5 Q597 652 645 678 Q656 684 669 690 Q682 696 696 694 Q706 693 713 686.5 Q720 680 722 669 Z " />
<glyph glyph-name="O" unicode="O" horiz-adv-x="644" d="M681 613 Q683 593 681 574 Q679 555 676 536 Q673 519 669.5 502.5 Q666 486 662 469 Q645 400 617.5 334 Q590 268 555 205 Q485 76 386 -33 Q339 -86 286 -133 Q272 -144 259 -155 Q246 -166 232 -177 Q217 -188 201.5 -199 Q186 -210 169 -218 Q140 -232 107 -237.5 Q74 -243 42 -229 Q18 -218 1.5 -197.5 Q-15 -177 -24 -153 Q-35 -124 -36 -95 Q-37 -66 -35 -37 Q-31 28 -15 95 Q0 163 25 227.5 Q50 292 84 353 Q118 413 160 466.5 Q202 520 253 565 Q258 569 263 563.5 Q268 558 263 554 Q251 543 240 532.5 Q229 522 218 510 Q172 462 135 406.5 Q98 351 69 291 Q40 231 20 167.5 Q0 104 -11 38 Q-16 7 -19 -24.5 Q-22 -56 -21 -87 Q-20 -113 -13 -138 Q-6 -163 9 -183 Q41 -227 96 -224 Q132 -222 163.5 -204 Q195 -186 224 -165 Q332 -81 419 29 Q464 84 502 144 Q540 204 571 268 Q601 329 623.5 393.5 Q646 458 659 526 Q665 561 667 599.5 Q669 638 653 672 Q646 685 637 696 Q628 707 615 714 Q591 726 563 721 Q546 719 531.5 712.5 Q517 706 503 698 Q488 690 474 679.5 Q460 669 447 658 Q421 635 397.5 609 Q374 583 352 557 Q303 497 262.5 432.5 Q222 368 191 297 Q188 292 180 294 Q175 299 178 305 Q193 339 211 374 Q249 446 295 508 Q338 568 389 623 Q414 649 441 672.5 Q468 696 499 713 Q527 729 558 735.5 Q589 742 619 728 Q635 720 646.5 707.5 Q658 695 665.5 679.5 Q673 664 676.5 646.5 Q680 629 681 613 Z " />
<glyph glyph-name="P" unicode="P" horiz-adv-x="608" d="M241 562 Q219 518 198 475 Q177 432 156 387 Q118 310 80.5 233.5 Q43 157 5 79 L-145 -230 Q-149 -237 -155.5 -233 Q-162 -229 -158 -223 Q-137 -179 -116 -136 Q-95 -93 -73 -49 L77 260 Q115 338 152.5 414.5 Q190 491 228 569 Q231 576 237.5 572 Q244 568 241 562 Z M701 647 Q709 623 707.5 597 Q706 571 700 548 Q692 522 681.5 497.5 Q671 473 658 450 Q644 425 628.5 402 Q613 379 596 357 Q561 312 522 272 Q483 232 440 196 Q409 170 377.5 145 Q346 120 311 98 Q295 88 278.5 79.5 Q262 71 245 63 Q229 57 212.5 52 Q196 47 179 46 Q164 45 149 48.5 Q134 52 122 61 Q107 72 99 88.5 Q91 105 86 123 Q80 150 89 176.5 Q98 203 115 224 Q133 247 157 263 Q181 279 206 293 Q212 296 215.5 290 Q219 284 213 280 Q202 273 190 266 Q178 259 167 251 Q145 236 128 216 Q111 196 103 170 Q91 127 116 89 Q131 67 159 62 Q173 60 188.5 62 Q204 64 218 69 Q251 80 281 97.5 Q311 115 339 135 Q412 187 477 249 Q517 287 553 327.5 Q589 368 618 413 Q633 436 646 459.5 Q659 483 670 508 Q679 530 685.5 553 Q692 576 693 600 Q693 625 686 646 Q677 668 657 685 Q637 702 613 709.5 Q589 717 565 721 Q517 729 468.5 722.5 Q420 716 374 702 Q323 687 276 665 Q229 643 184 617 Q140 592 99 565.5 Q58 539 17 510 Q11 505 7 511.5 Q3 518 9 523 Q19 530 28.5 536.5 Q38 543 48 549 Q92 579 137 607 Q182 635 230 659 Q278 683 327.5 702 Q377 721 429 731 Q454 736 479 738.5 Q504 741 530 739 Q555 738 580.5 733.5 Q606 729 629 719 Q653 708 673 690.5 Q693 673 701 647 Z " />
<glyph glyph-name="Q" unicode="Q" horiz-adv-x="656" d="M714 687 Q719 670 719 653.5 Q719 637 718 620 Q713 543 689 470 Q665 397 635 327 Q609 265 577.5 206.5 Q546 148 508 92 Q470 37 425.5 -13 Q381 -63 329 -106 Q306 -126 284 -142 Q300 -148 314 -160 Q322 -167 328.5 -174.5 Q335 -182 342 -190 Q349 -198 356.5 -204 Q364 -210 373 -215 Q388 -222 408 -224 Q448 -227 479 -202 Q485 -198 489 -202 Q491 -204 491 -207.5 Q491 -211 489 -213 Q472 -227 450.5 -234 Q429 -241 406 -239 Q366 -236 337 -207 Q323 -192 309 -177 Q295 -162 275 -155 Q273 -154 271.5 -154 Q270 -154 268 -153 Q255 -162 241.5 -170.5 Q228 -179 214 -187 Q182 -204 147 -216 Q112 -228 75 -227 Q56 -226 40 -221 Q24 -216 10 -202 Q-1 -191 -9.5 -177 Q-18 -163 -24 -148 Q-36 -118 -38.5 -85 Q-41 -52 -39 -20 Q-36 14 -29 47.5 Q-22 81 -13 113 Q3 177 26 239 Q50 302 84.5 358.5 Q119 415 170 460 Q175 465 180.5 460 Q186 455 181 450 Q169 439 158 428 Q147 417 137 405 Q95 356 68 297.5 Q41 239 21 178 Q1 115 -12 54 Q-19 22 -23 -10.5 Q-27 -43 -25 -75 Q-23 -105 -13 -135 Q-3 -165 17 -188 Q22 -193 28 -198 Q34 -203 42 -206 Q50 -210 59.5 -211 Q69 -212 78 -212 Q88 -212 97.5 -211 Q107 -210 118 -208 Q148 -167 192 -147 Q228 -131 265 -137 Q267 -136 270 -133 Q321 -97 369 -50 Q416 -4 455.5 47 Q495 98 529 153 Q563 209 591.5 267 Q620 325 643 385 Q657 420 669 456.5 Q681 493 689 530 Q694 549 697 568 Q700 587 702 606 Q704 623 704.5 640 Q705 657 702 674 Q699 688 691.5 700 Q684 712 670 717 Q657 722 642.5 722 Q628 722 614 720 Q582 713 552 699.5 Q522 686 494 669 Q437 633 388.5 586.5 Q340 540 296 489 Q249 435 208.5 377 Q168 319 144 252 Q141 245 134 247 Q127 249 129 256 Q135 273 142 289 Q149 305 157 320 Q174 353 194.5 383 Q215 413 238 442 Q260 471 283.5 498 Q307 525 332 551 Q380 601 434 644.5 Q488 688 553 716 Q568 722 583 727 Q598 732 614 735 Q629 737 645 737 Q661 737 675 732 Q690 726 699.5 714 Q709 702 714 687 Z M146 -200 Q173 -192 197.5 -179 Q222 -166 246 -150 Q217 -150 190 -165 Q163 -180 143 -201 Q145 -201 146 -200 Z " />
<glyph glyph-name="R" unicode="R" horiz-adv-x="584" d="M174 426 Q138 354 103 282.5 Q68 211 33 139 Q-2 67 -35.5 -5.5 Q-69 -78 -101 -152 Q-104 -157 -111 -155 Q-116 -151 -114 -144 Q-96 -103 -77.5 -62.5 Q-59 -22 -40 20 Q27 164 98 308 Q134 380 170 451 Q206 522 244 594 Q248 601 254.5 597 Q261 593 257 586 Q236 546 215 506.5 Q194 467 174 426 Z M623 647 Q642 602 638 553 Q634 504 620 459 Q598 385 556 317 Q536 282 511 248.5 Q486 215 458 185 Q429 155 397.5 128.5 Q366 102 331 80 Q297 59 260.5 42.5 Q224 26 186 18 Q153 11 119 12 Q150 -21 179.5 -54 Q209 -87 241 -117 Q276 -151 315 -178.5 Q354 -206 399 -223 Q406 -226 404 -233 Q402 -240 395 -238 Q343 -218 301 -187 Q262 -159 228 -126 Q194 -93 162 -58 Q130 -22 98 12 Q98 13 97 13 Q75 16 54 23.5 Q33 31 15 44 Q7 50 15 57 Q27 66 40.5 65.5 Q54 65 67 58 Q78 53 87 44.5 Q96 36 104 28 Q133 25 163 29.5 Q193 34 221 44 Q258 56 291.5 74.5 Q325 93 357 116 Q421 162 473 225 Q526 287 561 356 Q579 391 593 428 Q607 465 615 503 Q624 544 622 588 Q620 632 595 668 Q578 693 551 705.5 Q524 718 495 721 Q462 725 429 720.5 Q396 716 364 707 Q284 686 216 644 Q139 599 79 534 Q74 529 68.5 534 Q63 539 68 544 Q76 552 83.5 560 Q91 568 99 576 Q167 638 249 679 Q320 715 397 730 Q429 736 463.5 737.5 Q498 739 530 729 Q561 721 585 700 Q610 679 623 647 Z M34 50 Q44 43 57 38 L78 32 Q68 41 56.5 47 Q45 53 34 50 Z " />
<glyph glyph-name="S" unicode="S" horiz-adv-x="670" d="M766 647 Q777 618 774 587.5 Q771 557 762 529 Q740 462 689 415 Q638 368 577 337 Q571 334 567 340.5 Q563 347 570 350 Q585 358 599.5 366.5 Q614 375 628 385 Q654 403 677.5 426 Q701 449 719 475.5 Q737 502 748 532.5 Q759 563 759 596 Q759 610 756.5 624 Q754 638 748 651 Q741 665 730.5 674.5 Q720 684 708 692 Q681 707 649.5 712 Q618 717 588 718 Q559 719 530.5 717 Q502 715 473 711 Q415 703 360 684 Q303 664 253 631.5 Q203 599 164 553 Q125 507 102 448 Q89 413 83.5 376 Q78 339 84 302 Q90 264 111 233 Q120 219 131.5 206.5 Q143 194 156 183 Q181 162 211 145 Q242 127 279 116 Q296 110 314 104.5 Q332 99 349 92 Q354 90 358 88 Q362 86 367 84 Q374 87 380.5 90 Q387 93 395 96 Q401 100 405 93 Q409 87 402 83 Q397 81 392.5 79 Q388 77 383 75 Q401 64 412 51 Q422 40 428 27 Q434 14 434 -1 Q435 -15 430.5 -28.5 Q426 -42 420 -55 Q405 -82 383 -104.5 Q361 -127 338 -147 Q308 -172 274.5 -193 Q241 -214 203 -225 Q163 -238 127 -232 Q113 -230 99.5 -224 Q86 -218 78 -207 Q67 -191 69.5 -172.5 Q72 -154 80 -138 Q96 -105 123 -76 Q149 -47 180 -22.5 Q211 2 244 22 Q270 37 296 50 Q322 63 349 76 Q332 83 316 88.5 Q300 94 283 99 Q265 104 247.5 110.5 Q230 117 213 127 Q181 144 157 163 Q128 186 106 214 Q84 242 74 277 Q63 315 66.5 354 Q70 393 81 430 Q99 490 135 539.5 Q171 589 221 627 Q269 663 324.5 686 Q380 709 438 720 Q467 726 495 728.5 Q523 731 552 733 Q583 734 614.5 732 Q646 730 676 721 Q705 712 730 694 Q755 676 766 647 Z M409 31 Q401 43 390 51.5 Q379 60 366 67 L327 49 Q290 31 255.5 11 Q221 -9 189 -35 Q160 -58 134 -86 Q108 -114 92 -148 Q85 -162 84.5 -179 Q84 -196 98 -206 Q110 -214 125 -216.5 Q140 -219 154 -219 Q194 -217 231 -199 Q268 -181 300 -158 Q330 -136 357 -110 Q368 -100 377 -89.5 Q386 -79 394 -67 Q410 -45 417.5 -19 Q425 7 409 31 Z " />
<glyph glyph-name="T" unicode="T" horiz-adv-x="180" d="M800 680 Q805 675 799.5 669.5 Q794 664 789 669 Q784 673 780 676 Q776 679 771 682 Q751 693 728.5 696.5 Q706 700 683 702 Q631 707 582 708 Q481 709 379 699 Q368 697 356 696 Q344 695 333 693 Q330 688 327 682 Q324 676 321 671 L231 491 Q208 446 186 401 Q164 356 142 311 Q119 266 97.5 220.5 Q76 175 55 130 Q33 84 12 38.5 Q-9 -7 -31 -53 Q-52 -99 -72.5 -144.5 Q-93 -190 -113 -236 Q-117 -242 -124 -238 Q-129 -235 -126 -228 Q-124 -222 -121 -216.5 Q-118 -211 -116 -205 Q-96 -159 -75 -113.5 Q-54 -68 -33 -22 Q-12 23 9.5 68.5 Q31 114 52 160 Q74 205 95.5 250 Q117 295 139 341 Q162 386 184 431 Q206 476 229 522 Q250 564 271.5 606 Q293 648 315 691 Q247 681 179 664 Q129 652 81 637 Q33 622 -15 603 Q-63 585 -108.5 563.5 Q-154 542 -199 518 Q-206 514 -210 520.5 Q-214 527 -207 531 Q-202 534 -196 537 Q-190 540 -184 543 Q-93 591 5 627 Q53 644 102.5 659 Q152 674 203 685 Q254 696 304.5 704 Q355 712 407 717 Q459 722 510.5 723 Q562 724 614 722 Q640 720 665 718.5 Q690 717 715 714 Q738 711 760 703.5 Q782 696 800 680 Z " />
<glyph glyph-name="U" unicode="U" horiz-adv-x="760" d="M924 729 Q929 734 935 731 Q941 728 937 721 Q934 716 931 710 Q928 704 925 698 Q900 652 875.5 607 Q851 562 827 516 Q802 469 778 423.5 Q754 378 731 331 Q708 285 685 239 Q662 193 640 146 Q617 99 596 53 Q575 7 555 -41 Q535 -89 516 -136 Q497 -183 480 -231 Q477 -238 470 -236 Q463 -234 465 -227 L474 -203 Q492 -155 511.5 -108 Q531 -61 551 -13 Q571 35 592.5 81 Q614 127 637 174 Q660 222 683 268 Q706 314 729 361 Q753 408 777 453.5 Q801 499 826 545 Q835 563 844.5 581 Q854 599 864 617 Q836 575 809.5 532 Q783 489 757 446 Q725 392 692.5 338 Q660 284 626 230 Q597 183 567.5 138 Q538 93 506 48 Q473 3 437.5 -39 Q402 -81 360 -119 Q340 -137 319 -154 Q298 -171 275 -186 Q252 -202 228 -214.5 Q204 -227 178 -235 Q153 -243 126.5 -245.5 Q100 -248 74 -242 Q51 -236 32 -221.5 Q13 -207 3 -184 Q-8 -161 -10 -136 Q-12 -111 -10 -87 Q-8 -59 -3 -32 Q2 -5 8 21 Q21 81 39.5 139.5 Q58 198 81 255 Q128 370 192 481 Q224 537 258 590 Q292 643 329 696 Q334 702 340.5 698 Q347 694 342 688 Q333 675 324 662.5 Q315 650 307 637 Q272 585 239.5 532.5 Q207 480 178 424 Q149 370 123.5 314 Q98 258 76 201 Q56 144 40 87 Q24 30 13 -30 Q8 -55 5.5 -79.5 Q3 -104 5 -129 Q7 -152 15 -173.5 Q23 -195 41 -209 Q59 -225 83.5 -228.5 Q108 -232 131 -230 Q157 -227 181.5 -218.5 Q206 -210 229 -197 Q277 -171 318 -136 Q359 -101 396 -62 Q434 -23 466.5 20 Q499 63 530 108 Q560 153 588.5 198.5 Q617 244 645 290 Q680 345 712.5 400.5 Q745 456 779 511 Q814 568 849.5 622 Q885 676 924 729 Z " />
<glyph glyph-name="V" unicode="V" horiz-adv-x="486" d="M737 740 Q742 745 747.5 740 Q753 735 748 729 L727 705 Q685 657 643 609.5 Q601 562 559 514 Q517 466 475.5 418.5 Q434 371 392 323 Q350 275 308.5 227.5 Q267 180 225 132 Q183 84 141.5 36.5 Q100 -11 58 -59 Q18 -105 -22 -150.5 Q-62 -196 -107 -237 Q-112 -242 -117 -238.5 Q-122 -235 -120 -230 Q-120 -229 -119.5 -228.5 Q-119 -228 -119 -226 Q-114 -216 -109 -206.5 Q-104 -197 -99 -187 L60 128 Q80 167 99.5 206.5 Q119 246 139 285 Q158 323 177 360.5 Q196 398 213 437 Q229 473 243 514 Q250 533 255.5 553 Q261 573 263 593 Q264 609 261.5 626.5 Q259 644 252 659.5 Q245 675 233 687 Q221 699 204 705 Q187 711 168 712 Q149 713 131 711 Q94 708 62 698 Q29 687 -2 670 Q-33 653 -59 630 Q-113 581 -138.5 512.5 Q-164 444 -159 372 Q-158 364 -165.5 364 Q-173 364 -174 372 Q-175 381 -175 390 Q-175 399 -175 408 Q-172 483 -137.5 550.5 Q-103 618 -42 663 Q17 706 89 720 Q124 727 164 727 Q183 726 201.5 721.5 Q220 717 235 705 Q265 682 273.5 644.5 Q282 607 275 572 Q271 551 264.5 530.5 Q258 510 250 490 Q234 447 217 410 Q199 370 179.5 331.5 Q160 293 140 254 L59 92 L-88 -199 Q-69 -180 -51 -160 Q-33 -140 -15 -120 Q6 -96 26.5 -72.5 Q47 -49 68 -25 Q110 23 151.5 70.5 Q193 118 235 166 L403 358 Q445 406 486.5 453.5 Q528 501 570 549 Q612 597 653.5 644.5 Q695 692 737 740 Z " />
<glyph glyph-name="W" unicode="W" horiz-adv-x="1032" d="M1038 580 Q1046 534 1040.5 487.5 Q1035 441 1023 396 Q1009 345 988 297.5 Q967 250 941 205 Q913 158 881 116.5 Q849 75 814 35 Q777 -7 738.5 -44.5 Q700 -82 657 -116 Q636 -133 614 -148.5 Q592 -164 569 -178 Q546 -192 521.5 -205 Q497 -218 471 -226 Q447 -234 419.5 -234.5 Q392 -235 372 -216 Q362 -208 356.5 -196.5 Q351 -185 348 -174 Q342 -149 342 -122 Q340 -68 352.5 -16 Q365 36 382 87 Q395 129 412 171 Q361 88 298 15 Q250 -42 195 -94 Q168 -120 139 -144.5 Q110 -169 77 -186 Q62 -194 44.5 -200.5 Q27 -207 9 -209 Q-9 -211 -26 -206.5 Q-43 -202 -56 -188 Q-67 -177 -73 -162.5 Q-79 -148 -81 -133 Q-83 -118 -82 -102 Q-81 -86 -79 -72 Q-68 3 -42.5 73.5 Q-17 144 19 210 Q55 277 98.5 339 Q142 401 188 461 Q194 467 199 464 Q201 462 202 459 Q203 456 201 454 Q196 446 190.5 439.5 Q185 433 180 425 Q135 366 94 305 Q53 244 19 178 Q-15 112 -37 44 Q-48 10 -56 -25 Q-64 -60 -66 -96 Q-67 -109 -66 -124 Q-65 -139 -60.5 -152.5 Q-56 -166 -47 -176.5 Q-38 -187 -23 -191 Q-6 -196 11.5 -193 Q29 -190 45 -184 Q62 -178 77.5 -169 Q93 -160 108 -149 Q137 -127 164 -102 Q191 -77 217 -51 Q243 -25 267 2 Q291 29 314 57 Q360 115 399 177.5 Q438 240 470 306 Q473 310 477 309 Q481 309 483.5 306 Q486 303 484 298 Q478 285 472.5 272.5 Q467 260 461 247 Q438 196 418.5 144.5 Q399 93 383 39 Q376 14 370 -11 Q364 -36 361 -62 Q357 -87 356.5 -112 Q356 -137 361 -162 Q363 -173 367.5 -184.5 Q372 -196 381 -204 Q389 -212 400.5 -215.5 Q412 -219 424 -219 Q450 -219 475.5 -209.5 Q501 -200 524 -187 Q570 -162 612 -132 Q654 -102 692 -67 Q731 -32 766.5 5.5 Q802 43 836 83 Q869 123 898 165 Q927 207 950 253 Q996 340 1017 435 Q1026 479 1027.5 524 Q1029 569 1015 612 Q1009 632 998.5 651 Q988 670 972 685 Q958 699 941 707.5 Q924 716 904 720 Q866 728 826.5 719 Q787 710 752 693 Q745 690 741 696.5 Q737 703 744 706 Q761 715 782 721 Q820 735 863 738 Q906 741 944 723 Q986 704 1008.5 664 Q1031 624 1038 580 Z " />
<glyph glyph-name="X" unicode="X" horiz-adv-x="422" d="M758 727 Q764 722 764 716 Q764 710 758 706 Q752 703 748.5 707 Q745 711 747 716 Q747 717 746 717 Q742 719 735 717 Q669 704 610.5 674 Q552 644 498 605 Q471 585 445.5 564 Q420 543 395 520 Q370 497 346.5 472.5 Q323 448 301 422 Q256 369 223 309 Q190 249 171 183 Q161 149 155.5 115.5 Q150 82 149 47 Q148 16 152 -15 Q156 -46 170 -75 Q195 -128 248 -148 Q274 -157 301.5 -155 Q329 -153 352 -138 Q358 -134 362 -140 Q366 -146 360 -151 Q350 -157 333 -164 Q305 -174 275.5 -170 Q246 -166 220 -151 Q192 -136 174 -111 Q156 -86 147 -56 Q136 -24 134.5 10 Q133 44 136 77 Q139 112 146 146 Q153 180 164 212 Q126 142 80.5 77 Q35 12 -19 -48 Q-48 -80 -78 -110 Q-108 -140 -140 -169 Q-169 -194 -201.5 -214.5 Q-234 -235 -272 -240 Q-280 -240 -281 -234 Q-283 -227 -276 -225 Q-260 -224 -242 -217 Q-207 -204 -178.5 -181 Q-150 -158 -124 -133 Q-92 -104 -62.5 -72.5 Q-33 -41 -5 -9 Q101 117 173 262 Q191 299 207 337 Q223 375 236 414 Q250 454 257.5 496 Q265 538 259 580 Q255 612 241 641.5 Q227 671 202 693 Q179 714 147 722 Q128 727 108.5 726 Q89 725 70 720 Q32 711 -3 693 Q-38 675 -68 652 Q-97 630 -120.5 602.5 Q-144 575 -158 542 Q-159 540 -162.5 539 Q-166 538 -168 540 Q-173 542 -171 550 Q-167 558 -163 565.5 Q-159 573 -154 581 Q-134 613 -106.5 639 Q-79 665 -47 685 Q-13 706 25.5 722 Q64 738 106 740 Q142 742 174 728 Q206 714 229 686 Q252 659 263.5 624.5 Q275 590 276 555 Q278 510 267 466.5 Q256 423 241 381 Q237 372 234 363 Q231 354 227 345 Q247 378 270.5 408 Q294 438 320 467 Q369 519 425 566 Q452 589 480.5 610 Q509 631 539 651 Q598 689 663 713 Q695 725 730 731 Q738 733 745 732.5 Q752 732 758 727 Z M751 714 L749 715 L750 714 L751 714 Z " />
<glyph glyph-name="Y" unicode="Y" horiz-adv-x="502" d="M581 606 Q588 604 586 596 Q582 588 578.5 579.5 Q575 571 572 562 Q543 493 513.5 424.5 Q484 356 452 288 Q420 219 385.5 153 Q351 87 313 22 Q294 -10 274 -40 Q254 -70 232 -99 Q211 -126 188.5 -153 Q166 -180 139 -202 Q115 -221 85 -233 Q55 -245 23 -240 Q9 -237 -2.5 -229 Q-14 -221 -19 -208 Q-25 -194 -26.5 -179 Q-28 -164 -28 -150 Q-26 -87 3.5 -30 Q33 27 77 71 Q82 76 87 71 Q92 66 87 61 Q82 55 76 49 Q70 43 65 37 Q28 -7 5.5 -62.5 Q-17 -118 -12 -176 Q-10 -190 -5.5 -202.5 Q-1 -215 13 -221 Q24 -226 37.5 -226 Q51 -226 64 -223 Q95 -216 120.5 -197 Q146 -178 167 -155 Q214 -103 252.5 -45 Q291 13 325 73 Q362 137 394.5 202.5 Q427 268 457 335 Q483 390 506.5 445 Q530 500 553 557 Q511 509 469 463 Q427 417 382 372 Q358 348 334 324.5 Q310 301 286 278 Q273 267 261 255.5 Q249 244 236 232 Q224 221 212 211 Q200 201 187 191 Q177 183 165 175 Q153 167 139.5 161.5 Q126 156 112 154.5 Q98 153 85 158 Q59 167 51.5 193.5 Q44 220 46 244 Q48 278 58 310 Q68 342 79 374 Q90 406 102.5 436.5 Q115 467 129 497 Q157 560 189 619.5 Q221 679 257 737 Q261 743 267.5 739 Q274 735 270 729 Q261 716 253 701 Q218 644 188 586 Q158 528 132 467 Q119 438 108 408.5 Q97 379 86 349 Q75 319 67 287 Q59 255 61 222 Q62 212 64.5 201 Q67 190 75 182 Q83 174 93.5 171.5 Q104 169 115 171 Q129 173 141.5 179.5 Q154 186 166 194 Q190 210 211 230 Q260 274 307 319 Q354 364 400 412 Q445 458 488 505.5 Q531 553 573 603 Q577 607 581 606 Z " />
<glyph glyph-name="Z" unicode="Z" horiz-adv-x="480" d="M542 692 Q565 666 568.5 631.5 Q572 597 564 564 Q556 534 542.5 506 Q529 478 512 452 Q475 398 427.5 354.5 Q380 311 329 271 Q291 242 252.5 215.5 Q214 189 174 163 Q195 165 216.5 161.5 Q238 158 257 147 Q276 136 290 119.5 Q304 103 311 82 Q319 58 316 32 Q313 6 305 -17 Q295 -43 280.5 -65 Q266 -87 248 -107 Q231 -127 211 -144 Q191 -161 170 -178 Q148 -194 124.5 -207.5 Q101 -221 75 -230 Q53 -237 30 -238.5 Q7 -240 -14 -229 Q-33 -220 -44 -202.5 Q-55 -185 -56 -164 Q-57 -141 -45.5 -117.5 Q-34 -94 -13 -83 Q-6 -79 -2 -85.5 Q2 -92 -5 -96 Q-10 -98 -13.5 -101 Q-17 -104 -21 -107 Q-35 -122 -39.5 -144 Q-44 -166 -36 -185 Q-29 -202 -14.5 -211.5 Q0 -221 17 -223 Q40 -225 62 -218 Q84 -211 104 -201 Q127 -190 147.5 -175.5 Q168 -161 187 -144 Q223 -113 254.5 -75.5 Q286 -38 297 10 Q302 31 301 53 Q300 75 289 95 Q280 112 264.5 124 Q249 136 230 142 Q190 154 148 145 Q146 145 145.5 144.5 Q145 144 143 144 Q125 133 107 122 Q89 111 71 100 Q65 96 61 101 Q57 106 62 111 Q69 121 80 129 Q104 148 137 158 Q190 190 241 225 Q292 260 340 299 Q388 338 432.5 380 Q477 422 509 475 Q525 501 536.5 529 Q548 557 553 587 Q558 616 550 646 Q542 676 517 695 Q497 710 472.5 714.5 Q448 719 424 718 Q398 717 371.5 711.5 Q345 706 320 698 Q263 681 213 647.5 Q163 614 133 562 Q129 556 123 559.5 Q117 563 120 569 Q127 582 137 595 Q174 645 228.5 675.5 Q283 706 343 721 Q369 728 396 731.5 Q423 735 450 733 Q476 731 500.5 721.5 Q525 712 542 692 Z " />
<glyph glyph-name="a" unicode="a" horiz-adv-x="70" d="M69 268 Q74 273 80 268 Q86 263 81 258 Q72 248 63.5 239 Q55 230 46 221 Q45 219 44 218.5 Q43 218 42 217 Q37 211 32 207 Q27 203 22.5 200 Q18 197 13 197 L11 197 Q6 197 5 201 Q4 205 4 210 Q4 215 6 223 L-7 210 Q-12 205 -18.5 203 Q-25 201 -30 207 Q-34 212 -32.5 218.5 Q-31 225 -29 230 Q-20 253 -1 269 Q4 273 10 275 Q16 277 22 272 Q27 267 28 264 Q31 263 33.5 260 Q36 257 34 253 L21 217 Q21 219 23 219 Q27 224 30.5 227.5 Q34 231 38 235 Q46 243 53.5 251.5 Q61 260 69 268 Z M15 255 Q15 257 14 258 Q14 260 12 259 Q10 258 9 257 Q7 255 4.5 252.5 Q2 250 0 248 Q-10 238 -14 225 Q-12 227 -9.5 230 Q-7 233 -5 235 L15 255 Z " />
<glyph glyph-name="b" unicode="b" horiz-adv-x="76" d="M256 723 Q260 720 260 714.5 Q260 709 260 704 Q259 698 258 692 Q257 686 255 680 Q251 666 246 652 Q241 638 236 624 Q216 576 190 530.5 Q164 485 138 440 Q112 397 85.5 356 Q59 315 30 273 L18 256 Q32 260 46.5 263.5 Q61 267 75 270 Q83 272 85 265 Q87 258 79 256 Q63 252 47.5 248.5 Q32 245 17 240 Q18 235 18 228 L18 226 Q18 209 9 191.5 Q0 174 -16 163 Q-18 161 -20.5 160 Q-23 159 -25 161 Q-34 170 -30 186 Q-28 195 -25 203.5 Q-22 212 -19 220 Q-7 254 8 289 Q21 319 35 348.5 Q49 378 63 408 Q77 436 90.5 464 Q104 492 118 520 Q118 521 118.5 521.5 Q119 522 119 523 L146 574 Q154 587 161 599.5 Q168 612 175 625 Q179 630 182 636 Q185 642 189 647 Q190 648 190 648.5 Q190 649 191 650 Q193 653 195 656.5 Q197 660 199 663 Q204 671 208.5 677.5 Q213 684 218 691 Q222 697 226 703 Q230 709 235 715 Q238 719 243 723 Q248 727 254 725 Q254 725 256 723 Z M-17 180 Q-5 191 0 206.5 Q5 222 2 236 Q1 233 0 230 Q-1 227 -2 224 Q-5 216 -7.5 209 Q-10 202 -12 194 Q-13 192 -14.5 188 Q-16 184 -17 180 Z M183 547 Q203 585 220 624 Q237 663 245 705 Q229 683 214.5 660.5 Q200 638 186 615 Q154 562 127 508 Q100 454 74 399 Q61 371 48 344 Q35 317 23 289 Q37 308 50 327.5 Q63 347 76 367 Q104 412 131 456.5 Q158 501 183 547 Z " />
<glyph glyph-name="c" unicode="c" horiz-adv-x="62" d="M61 268 Q66 273 71 268 Q76 263 71 258 Q59 247 47 236.5 Q35 226 22 215 Q17 211 11 207 Q5 203 -1 198 Q-6 195 -12 193 Q-18 191 -23 193 Q-36 198 -32.5 210.5 Q-29 223 -25 233 Q-22 239 -19 244.5 Q-16 250 -13 255 Q-9 260 -5 265.5 Q-1 271 4 273 Q18 280 26 271 Q32 260 22 252 Q15 248 11 252 Q7 256 11 261 L10 261 Q6 257 4 254 Q-1 247 -7 236 Q-9 233 -10 230.5 Q-11 228 -12 225 Q-13 223 -16 214.5 Q-19 206 -15 207 L-14 207 Q-11 208 -8.5 209.5 Q-6 211 -4 213 Q-2 215 0.5 216.5 Q3 218 5 220 Q15 227 24 236 Q34 244 43 252 Q52 260 61 268 Z " />
<glyph glyph-name="d" unicode="d" horiz-adv-x="88" d="M289 739 Q293 736 293 730.5 Q293 725 292 720 Q291 714 290 708 Q289 702 287 696 Q283 682 278.5 668 Q274 654 268 640 Q248 592 222.5 546.5 Q197 501 170 456 Q159 437 143 411.5 Q127 386 109 358.5 Q91 331 72.5 303.5 Q54 276 37 254 Q36 251 30.5 237 Q25 223 20 208 Q15 193 11.5 182.5 Q8 172 11 176 Q21 184 30 194.5 Q39 205 47 215 Q67 239 87 267 Q91 273 97 269 Q104 265 100 259 Q91 247 82 235 Q73 223 63 211 Q55 200 46 189 Q37 178 26 169 Q21 165 14.5 161 Q8 157 2 162 Q-3 167 -4 173.5 Q-5 180 -4 186 Q-2 194 0.5 201 Q3 208 5 216 Q-2 209 -8 206 Q-22 198 -24.5 203.5 Q-27 209 -27 214 Q-24 238 -8 261 Q-3 267 2.5 272 Q8 277 16 277 Q23 277 27 273 Q31 281 34 289 Q37 297 41 305 Q55 337 72 374 Q89 411 107.5 448.5 Q126 486 144 522 Q162 558 179 590 Q188 606 203 631 Q218 656 232 679 Q235 683 241 694 Q247 705 254.5 716 Q262 727 270.5 734.5 Q279 742 286 740 Q288 740 289 739 Z M22 259 Q19 262 16 262 L13 262 Q4 253 -1 243.5 Q-6 234 -10 222 Q-10 222 -9 223 Q-8 224 -5 227.5 Q-2 231 4 238 Q10 245 22 259 Z M215 563 Q236 601 253 640 Q270 679 278 721 Q247 678 219 630 Q171 552 133 470 Q95 388 57 305 Q84 344 108 383 Q137 428 163.5 472 Q190 516 215 563 Z " />
<glyph glyph-name="e" unicode="e" horiz-adv-x="57" d="M57 268 Q62 273 67 268 Q72 263 67 257 Q57 246 46.5 235.5 Q36 225 23 217 Q18 214 12 210.5 Q6 207 0 205.5 Q-6 204 -11.5 205 Q-17 206 -21 213 Q-25 219 -24 226 Q-23 233 -21 239 Q-16 253 -8 263 Q2 275 14 275 Q28 275 31 262 Q33 252 26 246 Q19 240 11 238 Q10 238 10 237 Q3 235 0 236.5 Q-3 238 -4 239 L-5 240 Q-7 235 -8.5 230 Q-10 225 -8 221 Q-7 218 -2 219.5 Q3 221 8.5 224.5 Q14 228 18.5 232 Q23 236 25 237 Q41 249 57 268 Z M9 256 Q8 256 5.5 254 Q3 252 4 250 L5 250 Q5 250 7 250 Q10 251 12 253 Q14 255 16 257 Q17 258 16 259 Q14 261 9 257 L9 256 Z " />
<glyph glyph-name="f" unicode="f" horiz-adv-x="83" d="M262 723 Q266 720 266 714.5 Q266 709 266 704 Q265 694 261 681 Q257 666 252 652 Q247 638 241 624 Q221 576 195.5 530.5 Q170 485 143 440 Q104 377 62 314 Q45 289 32 274 Q19 259 15 255 Q32 259 48.5 262.5 Q65 266 82 270 Q89 272 91 265 Q93 258 86 256 Q67 251 48.5 247 Q30 243 11 238 Q10 236 10 234 L7 219 Q5 215 4.5 211 Q4 207 3 202 Q2 201 2 199 Q1 197 1 194 L0 194 Q-14 145 -33 98.5 Q-52 52 -72 6 Q-82 -20 -95 -49 Q-97 -53 -102.5 -65 Q-108 -77 -115.5 -90.5 Q-123 -104 -131.5 -116.5 Q-140 -129 -148 -134 Q-156 -138 -161 -137 Q-167 -136 -168.5 -130.5 Q-170 -125 -169.5 -118 Q-169 -111 -167 -104 Q-165 -97 -164 -93 Q-160 -82 -156.5 -70.5 Q-153 -59 -148 -48 Q-140 -25 -130.5 -2 Q-121 21 -111 44 Q-96 79 -79.5 113 Q-63 147 -45 180 L81 436 Q92 457 102 478.5 Q112 500 123 521 Q123 521 125 523 Q132 536 138.5 549 Q145 562 152 575 Q160 588 166.5 600 Q173 612 181 625 Q185 631 188 636.5 Q191 642 195 647 Q195 648 197 650 Q199 654 201 657 Q203 660 205 663 Q210 671 214.5 677.5 Q219 684 224 691 Q228 697 232 703.5 Q236 710 241 715 Q244 719 249 723 Q254 727 260 725 Q260 725 262 723 Z M-52 92 Q-40 122 -29 152 Q-18 182 -10 214 Q-21 195 -30.5 176.5 Q-40 158 -50 138 Q-67 104 -82.5 70 Q-98 36 -113 1 Q-120 -16 -126.5 -33.5 Q-133 -51 -139 -68 Q-141 -75 -143.5 -81 Q-146 -87 -148 -94 Q-149 -97 -150 -101 Q-151 -105 -151.5 -109 Q-152 -113 -151.5 -114.5 Q-151 -116 -148 -113 Q-146 -111 -146 -110 L-145 -110 Q-141 -105 -136.5 -98 Q-132 -91 -128.5 -84.5 Q-125 -78 -122 -73 Q-119 -68 -119 -67 L-119 -65 Q-102 -26 -85.5 13 Q-69 52 -52 92 Z M188 547 Q209 585 226 624 Q243 663 251 705 Q235 683 220.5 660.5 Q206 638 192 615 Q160 562 132.5 508 Q105 454 79 399 Q66 371 53 344 Q40 317 28 289 Q42 309 54.5 328 Q67 347 80 367 Q109 412 136 456.5 Q163 501 188 547 Z " />
<glyph glyph-name="g" unicode="g" horiz-adv-x="81" d="M80 267 Q85 273 91 269.5 Q97 266 92 259 Q86 251 80 243 Q74 235 68 227 Q61 218 55 209.5 Q49 201 42 192 L30 174 L-29 93 L-32 86 Q-35 78 -38 71.5 Q-41 65 -44 58 Q-49 47 -53 36 Q-57 25 -62 14 L-62 12 Q-68 -2 -73.5 -15 Q-79 -28 -85 -42 Q-95 -65 -104 -88 Q-113 -111 -123 -134 Q-125 -139 -127.5 -144.5 Q-130 -150 -133 -156 Q-140 -169 -147 -181 L-149 -183 Q-153 -188 -155.5 -191 Q-158 -194 -160 -196 Q-175 -207 -180 -201 Q-185 -195 -185 -194 Q-187 -186 -185.5 -177.5 Q-184 -169 -181 -161 Q-175 -147 -169 -134 Q-163 -121 -156 -108 Q-133 -59 -107.5 -11.5 Q-82 36 -55 83 Q-50 91 -45.5 99 Q-41 107 -36 115 Q-36 115 -35 117 L10 226 L5 222 L4 222 L3 221 Q1 220 0 219 Q-1 218 -3 217 Q-7 215 -11 213 Q-15 211 -20 213 Q-28 215 -26.5 222 Q-25 229 -23 234 Q-18 247 -11 257 Q-8 262 -4 267 Q0 272 6 274 Q10 275 14.5 274.5 Q19 274 22 272 Q25 270 27 266 Q28 268 30 269 Q33 270 38 269 Q42 267 40 259 L39 256 L21 212 L8 183 L-5 151 L26 193 Q35 206 46.5 222 Q58 238 80 267 Z M-1 238 Q8 244 15 253 L11 259 Q9 259 7.5 257 Q6 255 5 254 Q5 253 4.5 253 Q4 253 4 252 Q-3 244 -8 232 Q-6 234 -4.5 235 Q-3 236 -1 238 Z M-80 8 Q-85 0 -88.5 -7 Q-92 -14 -96 -21 Q-108 -44 -120 -67.5 Q-132 -91 -143 -114 Q-148 -125 -153 -135.5 Q-158 -146 -163 -157 Q-164 -160 -166 -165 Q-168 -170 -169.5 -174.5 Q-171 -179 -171 -182 Q-171 -185 -169 -184 Q-168 -183 -167.5 -183 Q-167 -183 -166 -181 L-160 -172 Q-158 -170 -151 -157.5 Q-144 -145 -135 -125 L-135 -124 Q-135 -124 -134 -122 Q-133 -120 -132.5 -118.5 Q-132 -117 -131 -115 L-80 8 Z " />
<glyph glyph-name="h" unicode="h" horiz-adv-x="79" d="M252 723 Q257 720 257 714.5 Q257 709 256 704 Q255 698 254 692 Q253 686 251 680 Q247 666 242 652 Q237 638 232 624 Q212 576 186.5 530.5 Q161 485 134 440 Q114 407 93.5 374 Q73 341 51 309 L47 304 L35 286 L10 249 Q15 253 19.5 256.5 Q24 260 29 264 Q33 267 37 263.5 Q41 260 40 255 Q38 247 36 239 Q34 231 32 223 L35 226 Q41 232 44 234 Q60 252 78 268 Q83 273 88.5 268 Q94 263 89 258 Q79 248 69.5 238.5 Q60 229 49 219 L28 199 Q26 197 23.5 195.5 Q21 194 19 194 L17 194 L16 194 Q11 196 12 203 Q14 211 16 220 Q18 229 20 238 Q12 230 5.5 223 Q-1 216 -8 208 Q-11 203 -16.5 206.5 Q-22 210 -20 215 Q-20 218 -18 224 Q-18 225 -12.5 240 Q-7 255 2 278 Q11 301 22.5 328 Q34 355 46 380 Q49 387 52.5 393.5 Q56 400 59 408 Q73 436 86.5 464 Q100 492 114 520 Q115 521 115 521.5 Q115 522 116 523 Q122 536 129 548.5 Q136 561 143 574 Q150 587 157 599.5 Q164 612 172 625 Q175 630 178.5 636 Q182 642 185 647 Q187 649 187 650 Q189 653 191.5 656.5 Q194 660 196 663 Q201 671 205 677.5 Q209 684 214 691 Q219 697 222.5 703 Q226 709 231 715 Q235 719 239.5 723 Q244 727 250 725 Q252 723 252 723 Z M179 547 Q199 585 216.5 624 Q234 663 242 705 Q225 683 210.5 660.5 Q196 638 182 615 Q151 562 124 508 Q97 454 71 399 Q57 371 44.5 344 Q32 317 20 289 Q34 308 46.5 327.5 Q59 347 72 367 Q101 412 127.5 456.5 Q154 501 179 547 Z " />
<glyph glyph-name="i" unicode="i" horiz-adv-x="43" d="M37 325 Q29 325 29.5 332.5 Q30 340 38 340 Q45 340 44.5 332.5 Q44 325 37 325 Z M52 268 Q53 267 54.5 265.5 Q56 264 54 261 Q53 260 47.5 253.5 Q42 247 34.5 239 Q27 231 18 222 Q9 213 1 207 Q-13 196 -18.5 200 Q-24 204 -24 209 Q-24 215 -21.5 222 Q-19 229 -17 234 Q-16 235 -14 239 Q-12 243 -9 250.5 Q-6 258 1 272 Q1 272 3 274 Q4 274 5 275 Q9 278 14 275.5 Q19 273 16 267 L-9 216 Q-7 217 -1 223 L11 235 Q19 243 26.5 251.5 Q34 260 42 268 Q47 273 52 268 Z " />
<glyph glyph-name="j" unicode="j" horiz-adv-x="53" d="M32 323 Q24 323 25 330.5 Q26 338 34 338 Q41 338 40.5 330.5 Q40 323 32 323 Z M52 267 Q57 273 63 269.5 Q69 266 64 259 Q57 251 51 243 Q45 235 39 227 Q33 218 26.5 209.5 Q20 201 14 192 L1 174 L-57 93 L-60 86 Q-63 78 -66 71.5 Q-69 65 -72 58 Q-77 47 -81 36 Q-85 25 -90 14 L-91 12 Q-96 -2 -102 -15 Q-108 -28 -113 -42 Q-123 -65 -132 -88 Q-141 -111 -151 -134 Q-153 -139 -156 -144.5 Q-159 -150 -161 -156 Q-165 -162 -168 -168.5 Q-171 -175 -176 -181 Q-176 -182 -176.5 -182 Q-177 -182 -177 -183 Q-184 -193 -189 -196 Q-203 -207 -208 -201 Q-213 -195 -213 -194 Q-216 -186 -214 -177.5 Q-212 -169 -209 -161 Q-204 -147 -197.5 -134 Q-191 -121 -184 -108 Q-140 -12 -83 83 Q-78 91 -73.5 99 Q-69 107 -64 115 L-64 117 L-15 232 L0 269 Q3 277 10 275 Q17 273 14 266 Q13 264 13 263 Q13 262 12 260 L-8 212 L-20 183 L-33 151 L-2 193 Q7 206 16.5 219 Q26 232 35 245 L36 246 Q40 251 44 256.5 Q48 262 52 267 Z M-159 -115 Q-147 -84 -134.5 -53.5 Q-122 -23 -109 8 Q-113 0 -116.5 -7 Q-120 -14 -124 -21 Q-137 -44 -148.5 -67.5 Q-160 -91 -171 -114 Q-176 -125 -181 -135.5 Q-186 -146 -191 -157 Q-192 -160 -194 -165 Q-196 -170 -197.5 -174.5 Q-199 -179 -199.5 -182 Q-200 -185 -197 -184 L-194 -181 L-188 -172 Q-186 -170 -179 -157.5 Q-172 -145 -164 -125 L-164 -124 Q-163 -124 -163 -122 Q-162 -120 -161.5 -118.5 Q-161 -117 -159 -115 Z " />
<glyph glyph-name="k" unicode="k" horiz-adv-x="78" d="M258 732 Q262 729 262 723.5 Q262 718 261 713 Q261 702 256 689 Q252 675 247.5 661 Q243 647 237 633 Q217 585 191.5 539.5 Q166 494 139 449 Q130 433 121 418 Q112 403 102 388 Q94 377 84 361.5 Q74 346 63 330 Q59 324 53 314.5 Q47 305 40 295 Q32 284 24 272 L3 241 Q11 249 18 257 Q25 265 33 273 Q38 278 43.5 272.5 Q49 267 44 262 Q36 254 29.5 247 Q23 240 15 232 Q15 230 14.5 225.5 Q14 221 16 220 Q17 220 19.5 221.5 Q22 223 28.5 228.5 Q35 234 46.5 243.5 Q58 253 76 268 Q82 273 86.5 268 Q91 263 86 258 Q74 247 58.5 235.5 Q43 224 32 213 Q23 206 17.5 205.5 Q12 205 8 207.5 Q4 210 2.5 213 Q1 216 1 216 L1 217 Q-3 213 -6.5 209.5 Q-10 206 -13 201 Q-17 197 -22.5 200.5 Q-28 204 -26 209 Q-24 213 -23 216 Q-22 219 -20 223 Q-18 229 -11 246 Q-4 263 4 281.5 Q12 300 18.5 315.5 Q25 331 26 334 Q35 355 45 375.5 Q55 396 65 416 Q79 445 92.5 473 Q106 501 120 529 Q120 530 120.5 530.5 Q121 531 121 532 L148 583 Q156 596 162.5 608.5 Q169 621 177 634 Q181 639 184 644.5 Q187 650 191 656 Q191 657 193 659 Q196 666 201 672 Q206 679 210.5 686 Q215 693 220 700 Q224 706 228 712 Q232 718 237 723 Q240 727 245 731 Q250 735 255 733 Q257 733 258 732 Z M184 556 Q205 594 222 633 Q239 672 247 714 Q216 671 188 623 Q156 570 129 516 Q102 462 76 407 Q63 380 50 352.5 Q37 325 25 297 Q39 317 51.5 336.5 Q64 356 77 376 Q106 421 132.5 465 Q159 509 184 556 Z " />
<glyph glyph-name="l" unicode="l" horiz-adv-x="71" d="M262 743 Q266 739 266 733.5 Q266 728 265 723 Q265 712 260 700 Q256 685 251.5 671 Q247 657 241 643 Q222 595 196 549.5 Q170 504 143 459 Q126 431 109 403.5 Q92 376 74 349 Q67 338 57.5 324 Q48 310 39 297.5 Q30 285 23 275 Q16 265 14 262 Q10 250 8 239 Q6 231 6.5 224.5 Q7 218 12 221 Q15 223 20 228 Q22 230 24.5 232 Q27 234 30 236 Q40 244 49.5 252 Q59 260 69 268 Q75 273 79.5 268 Q84 263 78 258 Q64 246 51 234.5 Q38 223 24 212 Q14 204 4 205 Q-6 208 -7.5 220.5 Q-9 233 -6 248.5 Q-3 264 2.5 279 Q8 294 11 302 L14 308 Q27 338 41 368 Q55 398 69 427 Q96 484 124 540 Q124 540 125 542 Q132 555 138.5 568 Q145 581 152 594 Q160 607 166.5 619.5 Q173 632 181 644 Q185 650 188 655.5 Q191 661 195 666 Q195 667 197 669 Q199 673 201 676 Q203 679 205 682 Q210 690 214.5 696.5 Q219 703 224 711 Q228 716 232 722.5 Q236 729 241 734 Q244 738 249 742 Q254 746 259 744 Q260 744 260.5 743.5 Q261 743 262 743 Z M188 566 Q209 604 226 643.5 Q243 683 251 724 Q235 702 220.5 679.5 Q206 657 192 634 Q160 581 133 527 Q106 473 80 418 Q70 397 60 375.5 Q50 354 40 333 Q39 331 36.5 324.5 Q34 318 31 310 Q44 329 56.5 348 Q69 367 81 386 Q110 431 136.5 475.5 Q163 520 188 566 Z " />
<glyph glyph-name="m" unicode="m" horiz-adv-x="114" d="M112 268 Q118 273 123 268 Q128 263 123 258 Q109 246 95 234 Q81 222 67 210 Q64 208 59.5 208 Q55 208 54 213 Q52 221 54.5 228 Q57 235 60 242 L51 233 Q46 229 42.5 225.5 Q39 222 35 218 Q34 218 34 217 Q33 217 33 216.5 Q33 216 32 216 Q29 213 23 207.5 Q17 202 12 204 Q11 205 10 205 Q7 208 7 212 Q6 217 8.5 221 Q11 225 13 230 Q17 235 20 243 Q10 235 1 225 Q-8 215 -16 206 Q-21 201 -25.5 205 Q-30 209 -28 215 Q-20 229 -13 243 Q-6 257 0 271 Q4 277 10 273 Q16 270 13 263 Q11 261 10.5 258 Q10 255 8 252 Q19 263 35 271 Q40 274 43.5 270 Q47 266 45 261 Q42 255 39.5 249.5 Q37 244 34 238 L47 251 Q52 256 58 261.5 Q64 267 69 271 Q71 273 75 275 L76 275 Q80 275 80 275 Q84 273 84 268 Q84 265 82 259.5 Q80 254 78 249 Q75 243 73 235 L112 268 L112 268 Z " />
<glyph glyph-name="n" unicode="n" horiz-adv-x="88" d="M97 268 Q103 262 97 258 Q83 248 68.5 238 Q54 228 41 217 Q37 214 33 211 Q29 208 24 208 Q18 208 16 212 Q14 216 14.5 221 Q15 226 17 231 Q19 236 21 239 Q23 242 24.5 244.5 Q26 247 28 250 Q25 248 22.5 245 Q20 242 17 239 L-13 209 Q-18 205 -23 208.5 Q-28 212 -26 217 L0 271 Q5 276 10.5 272 Q16 268 13 262 L6 249 L9 252 Q17 260 24.5 266 Q32 272 42 276 Q45 277 48.5 274.5 Q52 272 51 269 Q50 256 41 242 Q35 234 33 229 Q36 232 38 233 Q42 236 45.5 239 Q49 242 54 245 Q62 250 70 256 Q78 262 86 268 Q92 273 97 268 Z " />
<glyph glyph-name="o" unicode="o" horiz-adv-x="64" d="M63 268 Q68 273 73.5 268 Q79 263 74 258 Q66 250 55.5 242.5 Q45 235 33 235 Q26 235 23 237 Q15 218 -1 210 Q-6 208 -11.5 207.5 Q-17 207 -22 212 Q-26 216 -26.5 221 Q-27 226 -25 231 Q-22 242 -14.5 252.5 Q-7 263 1 271 Q8 276 13 270 Q18 271 22 269 Q30 265 28 251 Q30 250 34 250 Q43 251 50 256.5 Q57 262 63 268 Z M8 240 Q9 242 9 242.5 Q9 243 10 245 Q7 248 5 252 Q1 247 -4.5 240.5 Q-10 234 -10 226 Q-10 225 -7 226 Q-4 227 -0.5 229.5 Q3 232 5.5 234.5 Q8 237 8 240 Z " />
<glyph glyph-name="p" unicode="p" horiz-adv-x="88" d="M86 269 Q93 273 97 266.5 Q101 260 94 257 Q80 250 66.5 241.5 Q53 233 39 225 Q34 222 28.5 219.5 Q23 217 17 214 Q15 212 13 210.5 Q11 209 9 207 Q4 204 -0.5 200 Q-5 196 -11 194 Q-15 192 -22 194 Q-27 185 -32 175.5 Q-37 166 -42 157 Q-65 110 -87.5 64 Q-110 18 -131 -30 Q-152 -78 -172 -124.5 Q-192 -171 -212 -219 Q-214 -227 -221 -224 Q-223 -223 -225.5 -220.5 Q-228 -218 -226 -215 Q-215 -188 -204 -161 Q-193 -134 -182 -107 Q-161 -59 -140 -12.5 Q-119 34 -96 81 Q-90 94 -75.5 122 Q-61 150 -46 179.5 Q-31 209 -18 234.5 Q-5 260 0 269 Q2 274 7 273 Q12 272 13 267 Q20 274 27.5 278 Q35 282 43 277 Q51 272 49.5 263 Q48 254 44 246 Q55 252 65 258 Q75 264 86 269 Z M25 257 Q21 253 17 249 Q13 245 9 240 Q5 235 1 230 Q-3 225 -7 220 Q-4 221 -1.5 222 Q1 223 3 224 L9 227 L15 233 Q22 240 27 247.5 Q32 255 34 264 Q28 260 25 257 Z " />
<glyph glyph-name="q" unicode="q" horiz-adv-x="59" d="M58 267 Q62 273 68.5 269 Q75 265 70 259 Q41 214 16 166 Q-6 124 -25.5 81.5 Q-45 39 -65 -4 Q-85 -48 -105.5 -90 Q-126 -132 -150 -173 Q-154 -178 -160 -175.5 Q-166 -173 -164 -167 Q-156 -143 -148 -119 Q-140 -95 -132 -71 Q-79 76 -7 215 Q-10 213 -13.5 211 Q-17 209 -20 207 Q-25 205 -28.5 208 Q-32 211 -31 216 Q-29 229 -23.5 241.5 Q-18 254 -8 263 Q-3 268 3 272 Q9 276 17 274 Q24 273 26 265 Q29 263 31 260.5 Q33 258 31 254 Q18 231 6 208.5 Q-6 186 -17 163 Q-48 100 -74.5 36 Q-101 -28 -124 -94 Q-121 -88 -118.5 -82 Q-116 -76 -113 -70 Q-92 -28 -72.5 15 Q-53 58 -33 100 Q-13 143 9.5 185 Q32 227 58 267 Z M-6 240 Q-9 235 -11 230 Q2 240 13 254 Q12 255 12 258 Q10 258 10 257 Q7 256 3 252 L-6 240 Z " />
<glyph glyph-name="r" unicode="r" horiz-adv-x="61" d="M69 268 Q71 266 71.5 262.5 Q72 259 70 257 Q62 249 54.5 240.5 Q47 232 39 224 L33 218 L32 217 Q29 214 21.5 208 Q14 202 8 206 L7 206 Q3 210 3 215 Q3 220 4 225 Q5 230 7 235 Q9 240 11 246 Q6 246 5 248 Q-1 237 -7 225.5 Q-13 214 -18 203 Q-22 194 -28 202 L-29 202 L-29 203 Q-30 204 -30 208 Q-30 209 -29 210 L2 273 Q2 274 3 275 Q5 277 8 277 Q11 277 14 274.5 Q17 272 15 267 Q14 265 14 263 Q15 263 17 265 Q19 266 21 267 Q23 268 25 268 Q29 269 31.5 266 Q34 263 32 258 L32 257 Q30 255 25 243.5 Q20 232 18 224 Q19 224 19 225 Q22 228 25.5 231.5 Q29 235 32 239 Q39 246 45.5 253 Q52 260 59 267 Q64 272 69 268 Z " />
<glyph glyph-name="t" unicode="t" horiz-adv-x="55" d="M326 515 Q334 515 334 507.5 Q334 500 326 500 L120 500 Q119 498 117.5 495 Q116 492 114 488 Q112 484 110 479 L102 463 L58 371 Q53 361 48.5 351 Q44 341 39 328 Q34 315 27 298 Q20 281 11 259 Q9 252 6.5 246 Q4 240 2 233 Q0 227 -1.5 220.5 Q-3 214 -5 207 Q-6 203 -6 193 Q-5 193 -1 197 Q3 201 7.5 206.5 Q12 212 16.5 217.5 Q21 223 23 226 Q31 237 38.5 247 Q46 257 54 268 Q59 273 64 268 Q69 263 65 259 Q57 248 50 237.5 Q43 227 35 216 Q28 207 21 198.5 Q14 190 6 183 Q2 179 -3 177.5 Q-8 176 -13 179 Q-21 183 -21 195 Q-21 203 -19 212 Q-17 221 -15 229 Q-14 235 -11 242 Q-9 248 -6 255.5 Q-3 263 0 271 Q6 287 13 304.5 Q20 322 31.5 347.5 Q43 373 60 409.5 Q77 446 103 500 L-104 500 Q-112 500 -112 507.5 Q-112 515 -104 515 L111 515 Q112 520 114 522 Q138 570 163 618 Q188 666 213 714 Q217 721 223.5 717 Q230 713 226 707 Q210 676 194.5 646 Q179 616 164 585 Q160 578 155 568.5 Q150 559 145 549 Q140 539 135.5 530 Q131 521 128 515 L326 515 L326 515 Z " />
<glyph glyph-name="s" unicode="s" horiz-adv-x="59" d="M57 268 Q63 273 67.5 268 Q72 263 66 258 Q57 250 48 243.5 Q39 237 30 230 Q27 228 24 225 Q21 222 17 220 Q10 201 -10 199 Q-13 199 -15.5 202 Q-18 205 -16 208 Q-11 216 -1 223 Q0 225 1 225.5 Q2 226 3 227 L3 228 Q2 231 0 233.5 Q-2 236 -4 239 Q-8 244 -8 253 Q-7 261 -2.5 267 Q2 273 10 275 Q26 278 31 263 Q32 260 29.5 257.5 Q27 255 24 254 Q18 252 16 259 Q15 260 11 260 Q9 259 8 257 Q7 255 7 253 Q7 249 12 244 Q14 242 14.5 240.5 Q15 239 16 237 Q17 237 17 237.5 Q17 238 18 238 L57 268 L57 268 Z " />
<glyph glyph-name="u" unicode="u" horiz-adv-x="78" d="M77 268 Q82 273 87 268 Q92 263 87 258 Q80 251 73.5 244.5 Q67 238 59 231 L46 218 Q43 215 39.5 212 Q36 209 32 207 Q27 206 24 209 Q21 212 20 216 Q18 224 22 231 Q21 231 19 229 L5 215 Q-1 209 -8 209 Q-18 209 -18.5 217.5 Q-19 226 -16 236.5 Q-13 247 -7.5 257 Q-2 267 0 270 Q4 276 10.5 272.5 Q17 269 13 263 Q9 257 6 250.5 Q3 244 0 237 Q0 235 -2 229 L17 248 L38 269 Q43 274 47.5 269.5 Q52 265 50 260 L41 239 Q40 235 37 231 Q39 233 39 233 Q42 236 45 238.5 Q48 241 51 244 Q58 250 64 256 Q70 262 77 268 Z " />
<glyph glyph-name="v" unicode="v" horiz-adv-x="74" d="M73 270 Q80 272 82 265 Q84 258 78 256 Q77 256 76 255 L67 252 Q59 250 54 249.5 Q49 249 46 249 Q45 249 44.5 249.5 Q44 250 43 250 Q41 250 41 250.5 Q41 251 40 251 Q39 251 39 252 L36 249 Q32 244 28 239 Q24 234 20 229 Q17 225 13.5 221.5 Q10 218 7 215 Q0 207 -7 208 Q-15 211 -14.5 218.5 Q-14 226 -12 234 Q-9 242 -6.5 250.5 Q-4 259 -1 267 Q0 270 3.5 271.5 Q7 273 9 272 Q15 271 13 263 Q11 257 9 251.5 Q7 246 5 240 Q4 237 3 234.5 Q2 232 1 229 L1 228 Q9 238 16.5 247 Q24 256 32 265 Q36 271 42 269 Q42 268 43 268 Q43 268 46 265 Q49 264 57 266 Q61 267 64.5 267.5 Q68 268 73 270 Z " />
<glyph glyph-name="w" unicode="w" horiz-adv-x="92" d="M91 270 Q95 271 97 269 Q99 267 99 264 Q99 261 97 258.5 Q95 256 92 255 Q74 250 57 252 L55 252 Q54 252 52.5 252.5 Q51 253 50 253 Q50 252 49 251 Q46 246 43.5 242.5 Q41 239 39 235 Q37 231 35 227 Q33 223 28 221 Q20 217 15 224 Q13 228 13 230 Q11 228 9 225 Q7 222 5 220 Q0 215 -6 208.5 Q-12 202 -20 207 Q-23 210 -22 214 Q-18 228 -13 242 Q-8 256 0 269 Q4 276 10.5 273.5 Q17 271 13 264 Q9 257 5.5 250 Q2 243 0 236 Q0 236 1 238 Q6 243 9.5 248 Q13 253 18 258 Q22 263 27 261 Q32 259 31 253 Q31 251 30.5 249.5 Q30 248 30 246 Q32 250 33 251 Q37 259 40 263 Q45 269 51 268 Q57 267 64 267 Q77 267 91 270 Z " />
<glyph glyph-name="x" unicode="x" horiz-adv-x="56" d="M55 268 Q60 273 65 268 Q70 263 65 257 Q58 250 45 236 Q32 222 25 216 Q21 213 17 210 Q13 207 8 207 Q3 208 2 213 Q0 219 -1 223 Q-5 218 -8 214 Q-11 210 -14 205 Q-18 198 -24.5 201.5 Q-31 205 -27 212 Q-18 227 -3 243 Q-3 249 -3 255 Q-3 261 -1 268 Q0 271 2.5 272 Q5 273 8 272.5 Q11 272 13 269.5 Q15 267 14 264 Q14 263 13.5 262.5 Q13 262 13 261 L22 270 Q27 275 32 270 Q37 265 32 260 Q27 255 22 249.5 Q17 244 12 239 Q12 237 12.5 235 Q13 233 13 231 L14 225 Q16 227 21 231 Q26 235 34 244 L55 268 L55 268 Z " />
<glyph glyph-name="y" unicode="y" horiz-adv-x="90" d="M89 267 Q94 273 100 269.5 Q106 266 101 259 Q95 251 89 243 Q83 235 77 227 Q70 218 64 209.5 Q58 201 51 192 L39 174 L-20 93 L-23 86 Q-26 78 -28.5 71.5 Q-31 65 -34 58 Q-39 47 -43 36 Q-47 25 -52 14 L-53 12 Q-59 -2 -64.5 -15 Q-70 -28 -76 -42 Q-85 -65 -94.5 -88 Q-104 -111 -114 -134 Q-116 -139 -118.5 -144.5 Q-121 -150 -124 -156 Q-131 -169 -138 -181 L-140 -183 Q-145 -192 -151 -196 Q-158 -202 -162.5 -202.5 Q-167 -203 -170 -201 Q-173 -199 -174.5 -196.5 Q-176 -194 -176 -194 Q-178 -186 -176.5 -177.5 Q-175 -169 -171 -161 Q-166 -147 -159.5 -134 Q-153 -121 -147 -108 Q-124 -59 -98.5 -11.5 Q-73 36 -46 83 Q-41 91 -36.5 99 Q-32 107 -27 115 Q-27 115 -26 117 L-16 140 L13 213 Q14 215 14.5 217 Q15 219 16 221 L10 215 Q7 212 2.5 210.5 Q-2 209 -7 212 Q-14 216 -15.5 224 Q-17 232 -14.5 240.5 Q-12 249 -8 257 Q-4 265 -1 269 Q3 274 9 268 Q14 264 11 257 Q0 244 0 228 Q11 237 19.5 247.5 Q28 258 36 269 Q40 274 45.5 269 Q51 264 49 259 Q48 257 47.5 255.5 Q47 254 46 252 L30 212 L18 183 L4 151 L35 193 Q45 206 56 222 Q67 238 89 267 Z M-71 8 Q-76 0 -79.5 -7 Q-83 -14 -87 -21 Q-99 -44 -111 -67.5 Q-123 -91 -134 -114 Q-139 -125 -144 -135.5 Q-149 -146 -154 -157 Q-155 -160 -157 -165 Q-159 -170 -160.5 -174.5 Q-162 -179 -162 -182 Q-162 -185 -159 -184 Q-159 -185 -157 -181 Q-155 -179 -153.5 -176.5 Q-152 -174 -150 -172 Q-150 -174 -146.5 -167.5 Q-143 -161 -138.5 -151.5 Q-134 -142 -129 -131.5 Q-124 -121 -122 -115 L-71 8 Z " />
<glyph glyph-name="z" unicode="z" horiz-adv-x="96" d="M95 267 Q100 273 105.5 269.5 Q111 266 106 259 Q100 251 94 243 Q88 235 82 227 Q75 218 69 209.5 Q63 201 57 192 L44 174 L-15 93 L-18 86 Q-20 78 -23 71.5 Q-26 65 -29 58 Q-34 47 -38 36 Q-42 25 -47 14 L-48 12 Q-53 -2 -59 -15 Q-65 -28 -70 -42 Q-80 -65 -89.5 -88 Q-99 -111 -109 -134 Q-111 -139 -113.5 -144.5 Q-116 -150 -118 -156 Q-122 -162 -125 -168.5 Q-128 -175 -133 -181 Q-133 -182 -133.5 -182 Q-134 -182 -134 -183 Q-141 -193 -146 -196 Q-153 -202 -157.5 -202.5 Q-162 -203 -165 -201 Q-168 -199 -169.5 -196.5 Q-171 -194 -171 -194 Q-173 -186 -171 -177.5 Q-169 -169 -166 -161 Q-161 -147 -154.5 -134 Q-148 -121 -142 -108 Q-119 -59 -93.5 -11.5 Q-68 36 -41 83 Q-36 91 -31.5 99 Q-27 107 -22 115 Q-21 115 -21 117 L-11 140 L-4 157 Q2 172 3 179 Q4 186 3 188 Q3 190 2 191 Q-2 199 -9 198 Q-14 197 -17.5 201.5 Q-21 206 -16 211 Q-6 220 4 227.5 Q14 235 22 245 Q24 247 25.5 249.5 Q27 252 27 254 Q28 258 27 260 Q24 264 17 261.5 Q10 259 6 257 Q-1 253 -5 259 Q-9 267 -2 270 Q6 273 16 276 Q26 279 34 274 Q42 269 43 261 Q44 253 40 245 Q34 234 24.5 225.5 Q15 217 5 209 Q14 204 16 195.5 Q18 187 18 185 Q18 177 17 173 Q16 172 14.5 165.5 Q13 159 10 151 L12 154 L40 193 Q50 206 59 219 Q68 232 78 245 L79 246 Q83 251 86.5 256.5 Q90 262 95 267 Z M-66 8 Q-70 0 -73.5 -7 Q-77 -14 -82 -21 Q-94 -44 -105.5 -67.5 Q-117 -91 -128 -114 Q-133 -125 -138 -135.5 Q-143 -146 -148 -157 Q-149 -160 -151 -165 Q-153 -170 -154.5 -174.5 Q-156 -179 -156.5 -182 Q-157 -185 -154 -184 Q-154 -185 -152 -181 Q-149 -178 -145 -172 Q-144 -170 -136.5 -157.5 Q-129 -145 -121 -125 L-121 -124 Q-120 -124 -120 -122 Q-119 -120 -118.5 -118.5 Q-118 -117 -117 -115 L-66 8 Z " />
<glyph glyph-name="D" unicode="D" horiz-adv-x="490" d="M564 674 Q566 657 564.5 639.5 Q563 622 561 605 Q552 536 529.5 470 Q507 404 475 341 Q441 273 400 210 Q359 147 312 87 Q271 33 227 -17 Q183 -67 135 -115 Q117 -133 99 -149.5 Q81 -166 61 -182 Q42 -197 22 -210.5 Q2 -224 -21 -233 Q-37 -240 -55.5 -242 Q-74 -244 -91 -234 Q-111 -221 -118.5 -197 Q-126 -173 -126 -151 Q-126 -118 -115 -86.5 Q-104 -55 -89 -27 Q-72 5 -50.5 34.5 Q-29 64 -5 91 Q-1 96 4.5 90.5 Q10 85 6 80 Q-5 67 -15.5 54.5 Q-26 42 -36 28 Q-56 0 -73 -30 Q-90 -60 -101 -92 Q-109 -118 -111 -146.5 Q-113 -175 -101 -200 Q-93 -217 -80 -223 Q-78 -224 -77 -224 Q-76 -224 -74 -225 Q-73 -225 -72 -225.5 Q-71 -226 -70 -226 L-68 -226 Q-59 -227 -52 -226 Q-49 -226 -44.5 -225 Q-40 -224 -35 -222 Q-26 -219 -18 -215 Q-7 -210 2.5 -204.5 Q12 -199 21 -193 Q59 -167 93 -135 Q127 -103 159 -69 Q210 -14 258 43 Q306 100 349 162 Q391 221 427 283 Q463 345 492 412 Q505 444 515.5 475.5 Q526 507 534 540 Q541 570 546 604 Q548 621 550 637.5 Q552 654 550 670 Q548 686 540 697 L540 698 L538 700 Q538 700 536 702 Q534 704 533 704 Q533 705 532 705 L532 706 L526 709 Q525 710 524 710 Q523 710 522.5 710.5 Q522 711 521 711 Q519 712 517.5 712 Q516 712 514 713 L512 713 L509 713 Q500 713 496 712 Q491 711 487.5 710 Q484 709 480 708 Q472 705 463.5 701 Q455 697 447 692 Q408 667 376 638 Q359 623 342.5 607 Q326 591 309 574 Q272 537 237 499 Q202 461 169 420 Q121 362 80 299.5 Q39 237 6 169 Q2 163 -4.5 166.5 Q-11 170 -7 177 L53 300 Q80 354 106.5 408.5 Q133 463 160 517 Q187 572 214 626.5 Q241 681 267 736 Q271 742 277.5 738.5 Q284 735 280 728 L220 605 Q193 551 166.5 496.5 Q140 442 113 388 Q107 375 101 363 Q95 351 89 338 Q117 379 148 417 Q179 455 211 492 Q241 526 272.5 558.5 Q304 591 336 622 Q354 639 372.5 655 Q391 671 411 685 Q427 697 444.5 707.5 Q462 718 482 724 Q498 729 514 728 Q530 727 543 716 Q553 708 557.5 697 Q562 686 564 674 Z " />
<glyph glyph-name="B" unicode="B" horiz-adv-x="432" d="M536 738 Q547 733 555.5 723.5 Q564 714 563 701 Q562 691 558.5 683 Q555 675 550 667 Q546 660 541.5 653.5 Q537 647 532 639 Q523 626 513.5 613 Q504 600 493 587 Q451 536 404.5 491 Q358 446 307 403 Q267 368 226.5 334 Q186 300 146 265 Q175 279 207 289.5 Q239 300 273 298 Q289 298 304.5 294 Q320 290 333 281 Q345 273 353 261 Q361 249 366 235 Q376 205 370 173 Q364 141 351 113 Q335 79 312.5 50 Q290 21 265 -6 Q238 -35 210 -61.5 Q182 -88 152 -114 Q124 -138 94 -161 Q64 -184 32 -202 Q0 -219 -35.5 -230.5 Q-71 -242 -108 -242 Q-124 -241 -140.5 -238 Q-157 -235 -171 -226 Q-185 -217 -192 -203.5 Q-199 -190 -201 -174 Q-203 -156 -200 -139 Q-197 -122 -192 -105 Q-187 -88 -181.5 -71.5 Q-176 -55 -169 -38 Q-139 30 -92 89 Q-88 93 -81 89 Q-77 84 -81 78 Q-87 71 -92 64.5 Q-97 58 -102 50 Q-143 -6 -166 -72 Q-171 -88 -176 -103.5 Q-181 -119 -183 -136 Q-186 -150 -186.5 -165.5 Q-187 -181 -180 -195 Q-173 -209 -159.5 -215.5 Q-146 -222 -132 -225 Q-101 -229 -68 -223 Q-33 -216 -1.5 -201.5 Q30 -187 59 -167 Q89 -147 117 -124 Q145 -101 171 -77 Q198 -52 223.5 -26.5 Q249 -1 273 26 Q296 52 315.5 80 Q335 108 346 140 Q355 166 356.5 195.5 Q358 225 343 249 Q326 275 296.5 280.5 Q267 286 239 281 Q203 275 169 259.5 Q135 244 103 227 Q98 224 93.5 229 Q89 234 94 239 Q100 244 106 249.5 Q112 255 117 260 Q165 303 215 344 Q265 385 313 428 Q361 470 406.5 514 Q452 558 492 609 Q511 635 527 659 Q532 667 536.5 674 Q541 681 545 689 Q547 694 547.5 700.5 Q548 707 545 712 Q540 722 528.5 725 Q517 728 506 727 Q490 727 474 721.5 Q458 716 443 709 Q412 695 383.5 675.5 Q355 656 329 635 Q303 613 278.5 589.5 Q254 566 231 541 Q183 487 141 428 Q99 369 58 309 Q54 303 48.5 306.5 Q43 310 46 317 Q56 340 66.5 363 Q77 386 88 409 Q126 491 166.5 570.5 Q207 650 248 731 Q252 738 258.5 734 Q265 730 261 724 Q250 701 238 678 Q226 655 215 632 Q184 572 154 511.5 Q124 451 95 390 Q130 440 167.5 488 Q205 536 247 580 Q272 605 298 628 Q324 651 353 672 Q383 694 412 710 Q428 719 445 726.5 Q462 734 479 738 Q493 742 507.5 742.5 Q522 743 536 738 Z " />
<glyph glyph-name="C" unicode="C" horiz-adv-x="446" d="M505 714 Q516 700 519.5 682.5 Q523 665 521 648 Q520 640 512.5 640 Q505 640 506 648 Q507 662 504 679 Q501 694 492 706 Q483 718 468 722 Q451 727 433.5 721 Q416 715 402 707 Q367 688 335.5 661 Q304 634 276 605 Q246 573 219.5 538.5 Q193 504 168 467 Q115 390 72 308 Q51 268 32.5 227.5 Q14 187 -2 145 Q-10 123 -18 101.5 Q-26 80 -34 58 Q-42 35 -48 13 Q-54 -9 -59 -32 Q-67 -65 -68.5 -99.5 Q-70 -134 -61 -166 Q-57 -178 -51.5 -189.5 Q-46 -201 -38 -210 Q-21 -227 7 -227 Q28 -225 48 -216 Q68 -207 86 -196 Q105 -185 121.5 -171.5 Q138 -158 155 -143 Q187 -114 216 -81.5 Q245 -49 272 -14 Q274 -12 277.5 -12 Q281 -12 283 -14 Q287 -18 283 -25 Q276 -33 269 -42 Q262 -51 255 -59 Q226 -94 194 -126.5 Q162 -159 126 -186 Q107 -200 87.5 -212.5 Q68 -225 46 -233 Q29 -239 11.5 -241.5 Q-6 -244 -23 -237 Q-51 -226 -63.5 -199.5 Q-76 -173 -80 -146 Q-86 -106 -80.5 -66.5 Q-75 -27 -64 11 Q-57 35 -49 58 Q-41 81 -33 104 Q-18 149 0 191 Q38 280 84 361 Q108 403 133.5 443 Q159 483 188 521 Q214 558 243.5 592.5 Q273 627 308 657 Q339 685 374 708 Q391 718 408.5 726.5 Q426 735 445 738 Q463 740 478.5 734 Q494 728 505 714 Z " />
<glyph glyph-name="A" unicode="A" horiz-adv-x="344" d="M495 740 Q502 738 503.5 733 Q505 728 503.5 723 Q502 718 499.5 712.5 Q497 707 495 703 Q472 655 447 609 Q422 563 398 516 Q348 424 302 330 Q290 306 278 282 Q266 258 255 234 Q268 234 280.5 234.5 Q293 235 306 236 Q314 236 314 228.5 Q314 221 306 221 Q292 220 277 219.5 Q262 219 248 218 Q239 199 230.5 180.5 Q222 162 213 143 Q192 95 171.5 48.5 Q151 2 131 -46 Q112 -94 93.5 -141 Q75 -188 57 -236 Q55 -243 47.5 -241 Q40 -239 43 -232 Q47 -221 51 -209.5 Q55 -198 60 -187 Q78 -139 96 -93 Q114 -47 134 -1 Q154 47 174.5 93 Q195 139 216 185 L231 218 Q229 218 226 217.5 Q223 217 221 217 Q170 215 119.5 209 Q69 203 20 191 Q12 181 4 171.5 Q-4 162 -12 151 Q-42 113 -73 76.5 Q-104 40 -136 4 Q-141 -1 -146.5 4 Q-152 9 -147 15 Q-139 23 -131 32 Q-123 41 -115 51 Q-86 83 -59 116.5 Q-32 150 -5 184 Q-43 173 -80 157 Q-87 155 -90 160 Q-92 162 -91 165.5 Q-90 169 -87 170 Q-47 188 -4 200 Q1 202 11 204 Q41 242 71 280 Q101 318 130 356 Q161 394 191.5 432 Q222 470 254 508 Q286 546 318.5 582.5 Q351 619 385 655 Q402 672 419.5 689.5 Q437 707 457 722 Q465 728 474.5 735.5 Q484 743 495 740 Z M488 723 Q489 723 489 725 L486 725 Q484 723 483 723 L474 717 Q469 713 464.5 709.5 Q460 706 455 702 Q446 694 437 685.5 Q428 677 420 669 Q403 652 386.5 634 Q370 616 353 598 Q320 563 288.5 526.5 Q257 490 227 452 Q196 415 166.5 377.5 Q137 340 107 302 Q89 279 71 256 Q53 233 35 210 Q85 221 136 226 Q187 231 238 233 Q255 268 271 301.5 Q287 335 304 369 Q327 416 351 461 Q375 506 399 552 Q412 575 424 597.5 Q436 620 448 643 Q454 654 460 665.5 Q466 677 471 688 Q474 694 477 700 Q480 706 483 711 Q487 719 488 723 Z " />
<glyph glyph-name="zero" unicode="0" horiz-adv-x="132" d="M120 324 Q122 318 120.5 311.5 Q119 305 117 299 Q115 293 113.5 286.5 Q112 280 110 274 Q102 253 92.5 232.5 Q83 212 69 194 Q64 186 57.5 179 Q51 172 43 168 Q34 163 24.5 165 Q15 167 9 175 Q2 184 2.5 195 Q3 206 6 216 Q13 237 24 259 Q34 279 45.5 297.5 Q57 316 73 332 Q78 337 83.5 332 Q89 327 84 322 Q70 308 59 290.5 Q48 273 39 255 Q31 240 24 221 Q21 213 18.5 204 Q16 195 19 187 Q22 178 28 178.5 Q34 179 40 184 Q46 189 51.5 196 Q57 203 59 206 Q70 221 78 237 Q86 253 93 270 Q96 279 99 288 Q102 297 104 306 Q104 309 105.5 314 Q107 319 105 322 Q104 323 103 324.5 Q102 326 100 324 Q95 319 90 324.5 Q85 330 90 335 Q98 342 108 338.5 Q118 335 120 324 Z " />
<glyph glyph-name="nine" unicode="9" horiz-adv-x="112" d="M90 341 Q100 338 101 328.5 Q102 319 100 311 Q98 303 90.5 305 Q83 307 85 315 Q86 316 87 320.5 Q88 325 86 326 Q84 328 80.5 325 Q77 322 75 320 Q69 314 63.5 307.5 Q58 301 53 293 Q51 289 49.5 285.5 Q48 282 46 278 Q45 276 45 274 Q45 272 44 270 L47 270 Q56 272 63.5 277.5 Q71 283 77 288 Q82 293 87 289 Q92 285 89 279 Q83 266 76.5 253.5 Q70 241 64 228 Q58 217 52.5 205 Q47 193 39 182 Q32 173 21 166.5 Q10 160 -1 168 Q-11 176 -12.5 187.5 Q-14 199 -8 209 Q-5 216 1.5 212 Q8 208 5 202 Q0 194 3 186 Q7 179 13 180 Q18 181 21 184 Q24 187 27 191 Q30 195 32.5 199 Q35 203 37 207 Q44 221 50 233.5 Q56 246 63 260 Q53 255 45 255 Q40 255 35.5 257 Q31 259 29 265 Q27 270 29 275 Q31 280 33 285 Q41 304 54 320 Q60 327 69.5 335 Q79 343 90 341 Z " />
<glyph glyph-name="eight" unicode="8" horiz-adv-x="114" d="M77 339 Q88 341 96.5 335.5 Q105 330 104 318 Q103 297 88.5 280 Q74 263 59 251 Q55 249 54 249 Q62 241 66 233 Q68 228 69 222.5 Q70 217 68 212 Q66 207 62 202.5 Q58 198 54 193 Q46 185 37 178 Q28 171 17 167 Q7 163 -4.5 167 Q-16 171 -16 184 Q-16 190 -13.5 195 Q-11 200 -9 205 Q-6 210 -3 215 Q0 220 3 225 Q15 243 30 258 Q26 265 26 275 Q27 286 31.5 296.5 Q36 307 43 316 Q50 324 58 330.5 Q66 337 77 339 Z M54 219 Q56 222 52 226 Q50 231 47.5 234 Q45 237 42 240 Q41 242 40 242.5 Q39 243 38 245 Q30 237 23.5 228.5 Q17 220 11 210 Q8 205 4.5 199 Q1 193 -1 187 Q-3 180 3.5 180 Q10 180 14 182 Q25 187 33 194.5 Q41 202 48 210 Q50 212 52 214 Q54 216 54 219 Z M89 316 Q89 318 89.5 320 Q90 322 88 324 Q86 326 84 325.5 Q82 325 80 325 Q70 323 62.5 315.5 Q55 308 50 300 Q45 292 42 281.5 Q39 271 44 261 Q46 259 46 258 Q47 259 47 259.5 Q47 260 48 261 Q57 269 66 277 Q75 285 81 295 Q88 305 89 316 Z " />
<glyph glyph-name="seven" unicode="7" horiz-adv-x="88" d="M100 340 Q105 340 106.5 335.5 Q108 331 105 327 Q75 289 46 250.5 Q17 212 -3 167 Q-7 161 -13 165 Q-19 168 -16 175 Q3 217 29 253 Q55 289 84 324 Q69 323 54.5 322 Q40 321 26 319 Q23 318 20.5 321 Q18 324 18 326 Q18 332 26 334 Q62 338 100 340 Z " />
<glyph glyph-name="six" unicode="6" horiz-adv-x="120" d="M92 339 Q97 344 102.5 338.5 Q108 333 102 328 Q88 315 74.5 301 Q61 287 50 270 Q46 265 42.5 259 Q39 253 35 247 Q43 252 52 255.5 Q61 259 70 256 Q79 252 81 243.5 Q83 235 81 227 Q78 208 64 192 Q50 176 33 168 Q25 163 17 165 Q9 167 4 175 Q0 182 0 189.5 Q0 197 2 205 Q5 225 14.5 242 Q24 259 35 275 Q47 292 61 308.5 Q75 325 92 339 Z M38 231 Q31 226 27 233 Q25 228 22.5 222 Q20 216 18 211 Q18 209 16.5 203 Q15 197 15 191 Q15 185 17 181.5 Q19 178 24 180 Q28 182 31.5 184.5 Q35 187 38 189 Q46 195 50 199 Q62 212 66 227 Q67 230 67.5 234.5 Q68 239 65 241 Q63 243 59 242 Q55 241 52 239 Q44 236 38 231 Z " />
<glyph glyph-name="five" unicode="5" horiz-adv-x="116" d="M107 335 Q115 335 115 327.5 Q115 320 107 320 Q98 321 89 320.5 Q80 320 72 319 Q67 311 63.5 304.5 Q60 298 56 291 Q64 294 70.5 294 Q77 294 80 286 Q83 280 83 273 Q83 266 82 259 Q80 245 76 232 Q66 205 47 187 Q42 182 37 178.5 Q32 175 27 171 Q21 168 14.5 165 Q8 162 0 164 Q-12 166 -14.5 178.5 Q-17 191 -11 200 Q-7 206 -0.5 202.5 Q6 199 2 193 Q0 190 -1 185.5 Q-2 181 2 179 Q5 177 11.5 180.5 Q18 184 21 186 Q42 198 54 219 Q66 242 68 268 L68 273 Q67 274 67 279 Q66 279 66 278.5 Q66 278 65 278 Q64 278 60 276 Q54 272 48.5 268.5 Q43 265 38 261 Q33 257 28 260.5 Q23 264 27 270 Q34 283 41 295.5 Q48 308 56 321 Q58 323 59.5 326.5 Q61 330 63 332 Q66 334 70.5 334 Q75 334 79 334 Q86 335 93 335.5 Q100 336 107 335 Z " />
<glyph glyph-name="four" unicode="4" horiz-adv-x="116" d="M101 336 Q105 342 111.5 338.5 Q118 335 114 328 Q109 317 103.5 306.5 Q98 296 93 285 Q97 283 96.5 278 Q96 273 91 271 Q89 270 88 270 Q87 270 85 269 Q72 244 60 219 Q48 194 36 168 Q33 161 26.5 165 Q20 169 23 175 Q34 198 44.5 220 Q55 242 66 265 Q58 262 51 262 Q46 260 41.5 259.5 Q37 259 32 258 Q22 258 20 264 Q18 269 19.5 273.5 Q21 278 23 282 L32 300 Q37 309 41 318 Q45 327 49 336 Q53 343 58 342 Q66 340 64 332 Q58 317 50.5 303 Q43 289 36 274 Q38 274 39 275 Q44 276 47.5 276.5 Q51 277 55 278 Q67 280 74 282 L101 336 L101 336 Z " />
<glyph glyph-name="three" unicode="3" horiz-adv-x="116" d="M98 314 Q92 299 82 287.5 Q72 276 61 266 L62 266 Q74 261 77 251 Q80 240 76.5 229 Q73 218 68 210 Q57 192 41 177 Q33 171 23.5 166 Q14 161 4 166 Q-5 170 -9 179 Q-13 188 -10 197 Q-8 205 -1 203 Q6 201 4 193 Q2 186 7 181 Q12 177 20 181 Q28 184 35 191 Q42 198 47 205 Q52 213 56.5 221 Q61 229 63 238 Q65 248 58 251 Q54 253 49.5 252.5 Q45 252 40 251 Q33 249 31 254.5 Q29 260 34 264 Q46 273 58 283 Q70 293 78 307 Q80 310 81.5 313 Q83 316 84 320 Q85 321 85 324 Q84 325 82 324.5 Q80 324 79 324 Q66 321 59 307 Q55 301 48.5 305 Q42 309 46 315 Q51 323 59 330 Q67 337 77 339 Q90 341 96 334 Q100 329 100 324 Q100 319 98 314 Z " />
<glyph glyph-name="two" unicode="2" horiz-adv-x="122" d="M83 343 Q91 344 96 340 Q101 336 103 330 Q105 324 104.5 317.5 Q104 311 103 305 Q100 291 92.5 277.5 Q85 264 76 252 Q62 233 44.5 216 Q27 199 7 184 Q41 187 70 183 Q77 181 75 174 Q74 168 66 168 Q23 174 -19 165 Q-26 163 -28 169 Q-30 175 -25 178 Q-12 188 0.5 197.5 Q13 207 24 218 Q43 235 60.5 255.5 Q78 276 86 300 Q88 305 89.5 310.5 Q91 316 90 321 Q89 330 80 326 Q69 321 61.5 312 Q54 303 49 292 Q48 290 44.5 289 Q41 288 39 290 Q34 292 36 300 Q44 317 56 327 Q61 332 68 337 Q75 342 83 343 Z " />
<glyph glyph-name="one" unicode="1" horiz-adv-x="72" d="M69 340 Q74 342 76.5 338 Q79 334 77 329 Q38 248 -2 168 Q-6 162 -12.5 165.5 Q-19 169 -15 176 Q2 211 19.5 245.5 Q37 280 54 315 Q49 314 45.5 318.5 Q42 323 47 328 Q56 336 69 340 Z " />
<glyph glyph-name="hyphen" unicode="&#x2d;" horiz-adv-x="138" d="M71 250 Q79 250 79 242.5 Q79 235 71 235 L49 235 Q41 235 41 242.5 Q41 250 49 250 L71 250 L71 250 Z " />
<glyph glyph-name="underscore" unicode="&#x5f;" horiz-adv-x="160" d="M94 214 Q102 214 102 206.5 Q102 199 94 199 L32 199 Q24 199 24 206.5 Q24 214 32 214 L94 214 L94 214 Z " />
<glyph glyph-name="plus" unicode="&#x2b;" horiz-adv-x="150" d="M95 251 Q102 250 102.5 242.5 Q103 235 95 236 L73 236 Q69 228 65 219.5 Q61 211 57 203 Q53 197 46.5 200.5 Q40 204 44 211 Q51 223 55 234 L39 234 Q36 235 34.5 237.5 Q33 240 34 243 Q35 246 37.5 248 Q40 250 43 249 Q48 248 53 248.5 Q58 249 63 250 Q66 257 69.5 263.5 Q73 270 76 278 Q80 284 86 280 Q92 277 89 270 Q87 265 84.5 260.5 Q82 256 80 251 L95 251 L95 251 Z " />
<glyph glyph-name="equal" unicode="&#x3d;" horiz-adv-x="148" d="M92 261 Q100 261 100 253.5 Q100 246 92 246 L47 246 Q40 246 40 253.5 Q40 261 47 261 L92 261 Z M81 238 Q89 238 89 230.5 Q89 223 81 223 L36 223 Q28 223 28 230.5 Q28 238 36 238 L81 238 Z " />
<glyph glyph-name="parenright" unicode="&#x29;" horiz-adv-x="156" d="M130 485 Q130 492 137.5 492 Q145 492 145 485 Q144 456 139 427.5 Q134 399 126 371 Q112 320 90 271 Q68 222 42 175 Q17 130 -12.5 88 Q-42 46 -78 8 Q-83 3 -88.5 8.5 Q-94 14 -89 19 Q-69 39 -52 60.5 Q-35 82 -19 105 Q11 148 36 194 Q61 240 81 288 Q101 335 114.5 384.5 Q128 434 130 485 Z " />
<glyph glyph-name="parenleft" unicode="&#x28;" horiz-adv-x="148" d="M210 490 Q215 495 220 489.5 Q225 484 220 479 Q200 459 183 437.5 Q166 416 150 393 Q120 350 94.5 304 Q69 258 48 210 Q28 163 14 114 Q0 65 -2 14 Q-2 6 -9.5 6 Q-17 6 -17 14 Q-15 43 -10.5 71 Q-6 99 2 127 Q17 179 39.5 227.5 Q62 276 88 323 Q114 368 143.5 410.5 Q173 453 210 490 Z " />
<glyph glyph-name="braceright" unicode="&#x7d;" horiz-adv-x="104" d="M157 482 Q161 475 160 468 Q159 461 156 455 Q151 441 144.5 428.5 Q138 416 132 403 Q125 390 118.5 377.5 Q112 365 105 351 Q98 338 91.5 325.5 Q85 313 78 301 Q74 295 70.5 289 Q67 283 64 276 Q63 274 61.5 268 Q60 262 65 260 Q69 258 70.5 253 Q72 248 67 246 Q55 241 48 227 Q44 219 41 212 Q38 205 34 197 Q20 167 6.5 137 Q-7 107 -21 78 Q-28 64 -35 51.5 Q-42 39 -50 28 Q-55 22 -59 16.5 Q-63 11 -69 7 Q-74 4 -80.5 3.5 Q-87 3 -91 8 Q-96 13 -91 18.5 Q-86 24 -81 18 Q-80 18 -79 19 Q-77 19 -76.5 20 Q-76 21 -74 22 Q-72 24 -69.5 27 Q-67 30 -65 32 Q-60 39 -56 45 Q-52 51 -48 58 Q-41 71 -35 83.5 Q-29 96 -23 109 Q-16 123 -10 137.5 Q-4 152 3 166 Q10 180 16.5 194.5 Q23 209 29 223 Q34 231 38.5 239.5 Q43 248 50 254 Q49 256 48 258.5 Q47 261 47 264 Q46 271 48.5 277.5 Q51 284 55 290 Q69 315 82 339.5 Q95 364 108 389 Q117 408 127 426 Q137 444 144 464 Q145 466 145 472.5 Q145 479 139 477 Q132 475 130 482.5 Q128 490 135 492 Q151 494 157 482 Z " />
<glyph glyph-name="braceleft" unicode="&#x7b;" horiz-adv-x="138" d="M221 490 Q229 488 226 481 Q225 479 222.5 476.5 Q220 474 217 476 Q210 479 203.5 475.5 Q197 472 192 467 Q180 458 170 441 Q152 416 139.5 388.5 Q127 361 116 333 Q110 319 104 305 Q98 291 92 277 Q89 271 85.5 264 Q82 257 76 252 Q73 250 64 248 Q69 244 67 238 Q60 224 53.5 211.5 Q47 199 40 186 Q29 163 17.5 140.5 Q6 118 -5 95 Q-10 84 -14.5 72.5 Q-19 61 -24 49 Q-26 44 -27.5 38 Q-29 32 -31 26 Q-31 25 -31.5 23.5 Q-32 22 -31 21 L-30 21 L-29 21 Q-27 27 -21 25 Q-13 23 -15 16 Q-21 4 -35 7 Q-42 9 -44.5 15 Q-47 21 -46 28 Q-44 35 -42 41.5 Q-40 48 -38 55 Q-35 62 -32.5 68.5 Q-30 75 -27 82 Q-21 96 -15 109 Q-9 122 -2 136 Q11 162 24 187.5 Q37 213 50 239 Q48 240 47.5 240.5 Q47 241 45 242 Q38 246 42 252 Q45 258 55 261 Q58 262 61.5 262.5 Q65 263 68 265 Q70 267 71.5 271 Q73 275 75 278 Q80 286 83 294 Q97 323 108 353 Q119 383 134 412 Q150 443 170 467 Q179 477 193 487 Q207 497 221 490 Z " />
<glyph glyph-name="bracketright" unicode="&#x5d;" horiz-adv-x="96" d="M157 492 Q161 493 164 489.5 Q167 486 165 481 L114 376 Q91 330 69 284 Q47 238 24 192 Q-22 100 -67 7 Q-69 3 -74 3 L-75 3 L-106 3 Q-114 3 -114 10.5 Q-114 18 -106 18 L-78 18 Q-66 44 -53.5 68.5 Q-41 93 -29 119 Q-6 165 16 211 Q38 257 61 303 Q82 345 102.5 386 Q123 427 143 469 Q143 471 144 472 Q145 474 145 475 Q145 476 146 477 L124 477 Q117 477 117 484.5 Q117 492 124 492 L156 492 L157 492 L157 492 Z " />
<glyph glyph-name="bracketleft" unicode="&#x5b;" horiz-adv-x="110" d="M189 492 Q196 492 196 484.5 Q196 477 189 477 L162 477 Q149 452 137 427 Q125 402 112 376 Q89 330 67 284 Q45 238 22 192 Q1 148 -20.5 105 Q-42 62 -63 18 L-40 18 Q-32 18 -32 10.5 Q-32 3 -40 3 L-71 3 L-73 3 Q-77 2 -80.5 5.5 Q-84 9 -81 14 L-30 119 Q-7 165 15 211 Q37 257 60 303 Q80 345 100.5 386 Q121 427 141 469 Q141 470 141.5 470.5 Q142 471 142 472 Q144 476 146.5 480 Q149 484 151 489 Q153 494 158 492 L189 492 L189 492 Z " />
<glyph glyph-name="bar" unicode="&#x7c;" horiz-adv-x="138" d="M170 491 Q174 497 180 493.5 Q186 490 183 483 Q170 457 157.5 431 Q145 405 132 379 Q109 332 87 286.5 Q65 241 42 194 Q-4 102 -49 9 Q-52 2 -58.5 6 Q-65 10 -62 16 L-11 121 Q12 168 34 213.5 Q56 259 79 306 Q100 348 120.5 389 Q141 430 161 472 Q161 472 162 474 Q164 479 166 482.5 Q168 486 170 491 Z " />
<glyph glyph-name="backslash" unicode="&#x5c;" horiz-adv-x="178" d="M104 9 Q105 1 97.5 1 Q90 1 89 9 Q87 35 86 60.5 Q85 86 83 112 Q77 200 71.5 287.5 Q66 375 61 464 Q61 464 60 466 L60 483 Q59 491 66.5 491 Q74 491 75 483 Q77 457 78 431 Q79 405 81 379 Q87 286 92.5 194 Q98 102 104 9 Z " />
<glyph glyph-name="quotedbl" unicode="&#x22;" horiz-adv-x="290" d="M276 696 Q279 703 285.5 699 Q292 695 289 688 Q286 682 282.5 676 Q279 670 276 664 Q273 657 266.5 661 Q260 665 263 672 Q267 678 270 684 Q273 690 276 696 Z M251 696 Q254 703 260.5 699 Q267 695 264 688 L252 664 Q248 657 241.5 661 Q235 665 239 672 L251 696 Z " />
<glyph glyph-name="quotesingle" unicode="&#x27;" horiz-adv-x="236" d="M222 696 Q226 703 232 699 Q238 695 235 688 L223 664 Q220 657 213.5 661 Q207 665 210 672 L222 696 L222 696 Z " />
<glyph glyph-name="slash" unicode="&#x2f;" horiz-adv-x="170" d="M208 490 Q212 496 218 492.5 Q224 489 221 482 Q205 456 190 430 Q175 404 160 378 L52 192 Q25 146 -2 100 Q-29 54 -56 8 Q-59 2 -65.5 5.5 Q-72 9 -69 15 Q-53 41 -38 67.5 Q-23 94 -8 120 Q19 167 46 212.5 Q73 258 100 305 Q124 347 148 388 Q172 429 197 471 Q197 471 198 473 Q202 481 208 490 Z " />
<glyph glyph-name="colon" unicode="&#x3a;" horiz-adv-x="106" d="M56 262 Q58 261 58 257 L58 255 Q58 252 56 250 Q54 248 51 248 Q49 248 48 249 Q46 249 46 250 Q43 253 43 255 L43 257 Q43 260 46 262 Q47 264 51 264 L54 264 Q56 264 56 262 Z M33 232 Q41 232 41 224.5 Q41 217 33 217 Q26 217 26 224.5 Q26 232 33 232 Z " />
<glyph glyph-name="greater" unicode="&#x3e;" horiz-adv-x="210" d="M150 251 Q157 245 149 239 Q109 216 69.5 194 Q30 172 -11 149 Q-17 145 -20.5 151.5 Q-24 158 -18 162 Q20 183 57 204.5 Q94 226 132 247 Q114 264 96.5 279.5 Q79 295 61 312 Q56 317 61.5 322.5 Q67 328 72 323 L150 251 L150 251 Z " />
<glyph glyph-name="less" unicode="&#x3c;" horiz-adv-x="222" d="M194 324 Q201 328 204.5 321.5 Q208 315 202 311 Q164 289 126.5 268 Q89 247 51 226 Q69 209 87 193.5 Q105 178 122 161 Q127 156 122 150.5 Q117 145 112 150 Q92 168 72.5 186 Q53 204 33 222 Q27 228 35 234 L194 324 L194 324 Z " />
<glyph glyph-name="semicolon" unicode="&#x3b;" horiz-adv-x="104" d="M54 262 Q56 260 56 257 L56 255 Q56 254 54 250 Q52 248 49 248 Q47 248 46 249 Q44 249 43 250 Q41 254 41 255 L41 257 Q41 260 43 262 Q45 264 49 264 L52 264 L54 262 Z M27 230 Q31 237 37.5 233 Q44 229 40 222 Q37 217 34 211 Q31 205 28 200 Q25 193 18.5 197 Q12 201 15 207 Q18 213 21 218.5 Q24 224 27 230 Z " />
<glyph glyph-name="period" unicode="&#x2e;" horiz-adv-x="88" d="M26 226 Q34 226 34 218.5 Q34 211 26 211 Q19 211 19 218.5 Q19 226 26 226 Z " />
<glyph glyph-name="exclam" unicode="&#x21;" horiz-adv-x="118" d="M132 421 Q137 426 142 421.5 Q147 417 144 412 Q133 393 123.5 375 Q114 357 103 338 Q68 272 35 205.5 Q2 139 -30 70 Q-31 67 -34.5 66 Q-38 65 -40 67 Q-45 70 -43 77 Q-34 97 -25 115.5 Q-16 134 -7 154 Q54 283 125 409 Q123 412 127 416 L132 421 Z M-59 15 Q-52 15 -52 7.5 Q-52 0 -60 0 Q-67 0 -67 7.5 Q-67 15 -59 15 Z " />
<glyph glyph-name="question" unicode="&#x3f;" horiz-adv-x="212" d="M174 436 Q189 434 198.5 424 Q208 414 207 399 Q206 383 200 367.5 Q194 352 186 338 Q178 324 169.5 309.5 Q161 295 152 281 Q115 223 76 167.5 Q37 112 -4 57 Q-8 51 -14 54 Q-21 58 -17 64 Q4 93 25 122 Q46 151 66 180 Q85 206 102.5 232.5 Q120 259 137 286 Q145 299 153 311.5 Q161 324 169 338 Q177 352 183 365.5 Q189 379 192 394 Q193 400 192 406 Q191 412 186 416 Q181 420 175.5 421 Q170 422 164 422 Q151 420 138.5 414.5 Q126 409 115 402 Q94 388 77 368.5 Q60 349 51 326 Q48 320 41 321 Q34 323 36 330 Q48 359 69 382.5 Q90 406 118 421 Q130 428 145 433 Q160 438 174 436 Z M-41 17 Q-34 17 -34 9.5 Q-34 2 -41 2 Q-49 2 -49 9.5 Q-49 17 -41 17 Z " />
<glyph glyph-name="asciitilde" unicode="&#x7e;" horiz-adv-x="130" d="M79 251 Q83 257 89.5 253 Q96 249 92 243 Q89 238 86 234 Q83 230 80 226 Q73 217 64 218 Q56 221 54 232 Q53 235 53 241 Q50 239 47.5 236 Q45 233 42 231 Q37 225 32 230.5 Q27 236 32 241 Q43 253 55 261 Q61 265 64 260 Q69 255 68 249 Q67 243 69 236 Q69 237 70 237.5 Q71 238 71 239 Q77 247 79 251 Z " />
<glyph glyph-name="grave" unicode="&#x60;" horiz-adv-x="248" d="M246 669 Q248 662 241 660 Q234 658 231 665 Q229 673 226 680 Q223 687 220 695 Q217 702 224.5 704 Q232 706 234 699 L246 669 L246 669 Z " />
<glyph glyph-name="at" unicode="&#x40;" horiz-adv-x="196" d="M146 319 Q156 311 160 299 Q164 287 164 276 Q162 251 150 231 Q146 226 142.5 221.5 Q139 217 135 212 Q131 207 125.5 202.5 Q120 198 114 199 Q106 199 104 204.5 Q102 210 103 218 Q101 216 99 213.5 Q97 211 94 209 Q85 203 78 210 Q74 215 76 225 Q78 235 83 243.5 Q88 252 95 258 Q99 261 103.5 263.5 Q108 266 113 264 Q124 259 122 248 Q126 246 124 241 Q123 236 122 232 Q121 228 120 223 Q119 221 119 217 Q119 217 121 219 L127 225 Q133 232 138 241 Q148 259 149 277 Q149 284 146.5 292.5 Q144 301 138 306 Q131 311 122 309 Q113 307 105 304 Q90 296 79 284 Q68 272 60 257 Q52 242 48 223.5 Q44 205 49 188 Q51 180 56 173.5 Q61 167 69 165 Q85 162 93 177 Q96 183 102.5 179.5 Q109 176 106 169 Q100 157 87 152 Q74 147 61 152 Q47 157 40.5 170 Q34 183 32 197 Q30 221 38.5 245 Q47 269 62 288 Q76 306 97 317 Q108 322 121.5 324.5 Q135 327 146 319 Z M109 245 Q108 246 108 249 Q107 249 107 248 L104 245 Q101 243 97 237 Q93 233 92 228 L92 227 Q92 228 94 230 L109 245 Z " />
<glyph glyph-name="numbersign" unicode="&#x23;" horiz-adv-x="176" d="M129 262 Q137 262 136.5 254.5 Q136 247 129 247 Q124 246 118.5 246 Q113 246 108 245 Q107 243 106 240.5 Q105 238 104 236 Q107 237 115 237 Q118 238 120 235.5 Q122 233 122 230 Q122 224 115 222 Q110 222 105.5 221.5 Q101 221 96 221 Q91 213 87 204.5 Q83 196 79 188 Q75 181 68.5 185 Q62 189 66 196 Q69 201 72 207 Q75 213 78 219 Q74 218 66 218 Q58 204 54 191 Q52 188 48.5 187.5 Q45 187 43 188 Q38 193 41 199 Q43 203 44.5 207 Q46 211 48 216 Q44 215 41 215 Q38 215 34 214 Q26 214 26 222 Q26 229 34 229 Q39 230 44.5 230.5 Q50 231 56 232 Q57 234 58 236.5 Q59 239 61 242 Q55 241 49.5 241 Q44 241 39 240 Q31 240 31 247.5 Q31 255 39 255 Q47 256 54 256.5 Q61 257 68 257 Q73 266 77.5 275 Q82 284 87 292 Q91 298 97.5 294.5 Q104 291 100 284 Q92 272 86 259 Q94 259 98 260 Q102 267 105.5 273.5 Q109 280 112 288 Q115 295 121.5 291 Q128 287 125 280 Q123 275 120.5 270.5 Q118 266 116 261 Q119 261 122.5 261 Q126 261 129 262 Z M86 235 Q88 237 88.5 239.5 Q89 242 91 244 Q87 244 84 243.5 Q81 243 78 243 Q76 241 75.5 238.5 Q75 236 73 233 Q76 234 79.5 234 Q83 234 86 235 Z " />
<glyph glyph-name="percent" unicode="&#x25;" horiz-adv-x="162" d="M102 335 Q92 333 88.5 341 Q85 349 87 357 Q90 375 104 381 Q105 382 106 382 Q108 383 110 385 Q115 387 118 385 Q125 380 126.5 372 Q128 364 125 356 Q122 348 116 342 Q110 336 102 335 Z M101 350 Q104 350 107 354.5 Q110 359 111 361 Q113 365 112 368 Q112 368 110 367 Q105 363 102 358 Q102 356 101.5 355 Q101 354 101 352 L101 350 Z M184 400 Q189 395 184 390 L127 315 Q76 247 29 178 Q-18 109 -63 37 Q-67 30 -73.5 34 Q-80 38 -75 44 Q-51 84 -24 125 Q22 196 71.5 264.5 Q121 333 174 400 Q176 403 179 402.5 Q182 402 184 400 Z M23 104 Q28 101 28 94 Q25 78 16 67 Q12 62 6 57 Q0 52 -8 56 Q-15 60 -15.5 67 Q-16 74 -13 80 Q-11 85 -6 90.5 Q-1 96 6 94 Q4 99 9 102 Q16 105 23 104 Z M0 71 Q0 71 2 73 Q4 75 4.5 76.5 Q5 78 7 80 Q6 80 5 79 Q1 76 -1 71 L-1 70 Q-1 70 0 71 Z " />
<glyph glyph-name="dollar" unicode="&#x24;" horiz-adv-x="166" d="M156 371 Q161 367 160.5 361.5 Q160 356 158 351 Q156 345 153.5 338.5 Q151 332 147 327 Q136 306 118 285 Q113 280 107.5 285.5 Q102 291 107 296 Q127 318 139 344 Q141 347 141.5 350 Q142 353 144 357 L144 359 Q143 359 141.5 358.5 Q140 358 139 358 Q137 357 135.5 356.5 Q134 356 132 355 Q124 338 115 321 Q107 305 99.5 289 Q92 273 84 257 Q87 255 89.5 252.5 Q92 250 94 248 Q100 239 101 228 Q102 217 100 206 Q97 194 90 185 Q83 176 73 168 Q64 161 53 155.5 Q42 150 31 148 L28 148 Q25 142 22 136 Q19 130 16 125 Q13 118 6.5 122 Q0 126 3 132 Q5 137 8 141.5 Q11 146 13 151 Q0 159 1 174 Q1 188 9 196.5 Q17 205 28 213 Q30 215 33 214 Q36 213 38 210 Q41 205 35 200 Q30 196 24.5 191.5 Q19 187 17 181 Q15 177 15.5 172 Q16 167 20 164 L32 188 Q40 204 48 219.5 Q56 235 64 251 Q59 253 54.5 254.5 Q50 256 46 260 Q35 270 39 283 Q41 290 44.5 295.5 Q48 301 53 306 Q61 318 71 326 Q80 336 90 344 Q100 352 111 360 Q115 364 121 366 Q123 371 125.5 375.5 Q128 380 130 385 Q133 392 139.5 388 Q146 384 143 377 Q142 376 142 375.5 Q142 375 141 374 Q151 376 156 371 Z M54 272 Q57 269 61.5 267.5 Q66 266 71 264 Q80 283 89 301.5 Q98 320 108 339 Q100 333 93 327 Q86 321 80 314 Q69 303 62 293 Q59 289 54.5 283 Q50 277 54 272 Z M87 217 Q87 234 77 243 Q67 223 57 203.5 Q47 184 37 164 L43 167 Q49 170 54.5 173 Q60 176 65 181 Q74 188 80 197 Q86 206 87 217 Z " />
<glyph glyph-name="ampersand" unicode="&#x26;" horiz-adv-x="203" d="M154 333 Q141 308 124.5 287.5 Q108 267 90 248 Q87 227 87 206 Q97 212 106 217.5 Q115 223 125 229 Q131 233 134 225.5 Q137 218 131 214 Q108 199 87 188 Q88 167 95 144 Q97 135 92 133 Q90 131 87 132.5 Q84 134 83 137 Q76 160 75 181 Q73 180 70.5 179 Q68 178 66 177 Q58 172 49.5 168 Q41 164 33 160 Q25 156 18 153.5 Q11 151 3 154 Q-4 157 -1 164 Q2 171 4 174 Q21 197 39 216 Q57 235 76 255 Q76 256 77 257 Q78 262 78.5 267.5 Q79 273 81 278 Q84 292 87 306.5 Q90 321 95 335 Q100 347 106 358.5 Q112 370 120 378 Q128 386 142 391.5 Q156 397 164 384 Q172 372 165.5 357.5 Q159 343 154 333 Z M103 311 Q101 303 98.5 294 Q96 285 94 276 Q119 303 139 336 Q140 338 143.5 343.5 Q147 349 150 355.5 Q153 362 154 367.5 Q155 373 152 375 Q147 377 142 374 Q137 371 134 369 Q129 366 126 362.5 Q123 359 120 355 Q114 345 110 334 Q106 323 103 311 Z M74 199 Q73 207 73.5 215.5 Q74 224 74 232 Q60 217 46.5 202.5 Q33 188 21 171 Q25 173 28.5 175 Q32 177 35 179 L65 194 Q67 196 69.5 196.5 Q72 197 74 199 Z " />
<glyph glyph-name="asciicircum" unicode="&#x5e;" horiz-adv-x="266" d="M274 676 Q280 672 279 664.5 Q278 657 276 652 Q273 636 267 624 Q263 618 256 622 Q251 625 254 632 Q256 637 257.5 641.5 Q259 646 261 651 Q259 649 258 648.5 Q257 648 256 646 Q251 641 247 637 Q243 633 239 628 Q234 623 228.5 628.5 Q223 634 228 639 Q239 650 249.5 662 Q260 674 274 676 Z " />
<glyph glyph-name="asterisk" unicode="&#x2a;" horiz-adv-x="220" d="M280 616 Q286 620 289 612.5 Q292 605 286 601 L271 592 L274 592 Q281 591 280.5 583 Q280 575 273 575 Q269 576 261 576 Q261 575 261.5 574.5 Q262 574 262 573 Q265 565 259 561.5 Q253 558 250 566 Q249 567 249 569 Q246 564 244 559 Q240 552 235 556.5 Q230 561 232 567 Q229 565 226 563 Q223 561 219 559 Q214 555 211 562.5 Q208 570 214 574 L223 580 Q218 582 218.5 589.5 Q219 597 226 596 Q229 596 232 595.5 Q235 595 239 595 L236 601 Q233 609 239.5 612.5 Q246 616 249 609 Q249 607 249.5 606 Q250 605 250 604 Q252 608 254 611.5 Q256 615 258 618 Q261 626 267 621 Q273 616 269 609 Q272 611 274.5 612.5 Q277 614 280 616 Z " />
<glyph glyph-name="comma" unicode="&#x2c;" horiz-adv-x="104" d="M24 222 Q28 229 34 225 Q40 221 37 214 Q34 209 31 203 Q28 197 25 192 Q22 185 15.5 189 Q9 193 12 199 Q15 205 18 210.5 Q21 216 24 222 Z " />
<glyph glyph-name="quotedblleft" unicode="&#x201c;" horiz-adv-x="291" d="M276 696 Q279 703 285.5 699 Q292 695 289 688 L276 664 Q273 657 266.5 661 Q260 665 263 672 Q267 678 270 684 Q273 690 276 696 Z M251 696 Q254 703 260.5 699 Q267 695 264 688 L252 664 Q248 657 241.5 661 Q235 665 239 672 L251 696 Z " />
<glyph glyph-name="quotedblright" unicode="&#x201d;" horiz-adv-x="291" d="M276 696 Q279 703 285.5 699 Q292 695 289 688 L276 664 Q273 657 266.5 661 Q260 665 263 672 Q267 678 270 684 Q273 690 276 696 Z M251 696 Q254 703 260.5 699 Q267 695 264 688 L252 664 Q248 657 241.5 661 Q235 665 239 672 L251 696 Z " />
<glyph glyph-name="quoteleft" unicode="&#x2018;" horiz-adv-x="236" d="M222 696 Q226 703 232 699 Q238 695 235 688 L223 664 Q220 657 213.5 661 Q207 665 210 672 L222 696 L222 696 Z " />
<glyph glyph-name="quoteright" unicode="&#x2019;" horiz-adv-x="236" d="M222 696 Q226 703 232 699 Q238 695 235 688 L223 664 Q220 657 213.5 661 Q207 665 210 672 L222 696 L222 696 Z " />
</font>
</svg>
