<?xml version="1.0" encoding="UTF-8"?>
<svg xmlns="http://www.w3.org/2000/svg" xmlns:xlink="http://www.w3.org/1999/xlink" version="1.2" >
<font id="Contaur">
<font-face  font-family="Contaur" units-per-em="1000" ascent="750" descent="-250" font-style="normal" font-weight="400" font-stretch="normal" cap-height="700" x-height="500" underline-position="-75" underline-thickness="50" />
<missing-glyph  horiz-adv-x="194" d="" />
<glyph glyph-name="NULL" d="" />
<glyph glyph-name="nonmarkingreturn" unicode="&#xd;" horiz-adv-x="194" d="" />
<glyph glyph-name="space" unicode="&#x20;" horiz-adv-x="194" d="" />
<glyph glyph-name="e" unicode="e" horiz-adv-x="145" d="M153 310 Q159 304 154 299 Q149 294 143.5 288.5 Q138 283 132 278 Q93 237 52 198 Q47 193 35.5 183 Q24 173 11 171 L10 171 Q6 170 4 170.5 Q2 171 -2 173 Q-11 176 -16 188 Q-22 199 -20 214 Q-20 236 -16 257 Q-12 278 -5 298 Q-1 309 3 320.5 Q7 332 12 343 Q20 357 33 372 Q52 392 75 385 Q91 382 91 362 Q90 333 64 313 Q58 307 45 305 L38 305 Q33 291 29 278.5 Q25 266 23 253 Q14 231 16 209 Q14 199 17 193 Q24 200 31.5 206.5 Q39 213 46 220 Q63 237 81 253 Q99 269 117 286 Q129 298 144 310 Q145 311 148 312 Q151 313 153 310 Z M62 355 Q51 340 47 324 Q61 336 62 355 Z " />
<glyph glyph-name="f" unicode="f" horiz-adv-x="139" d="M145 687 Q137 663 130.5 639 Q124 615 117 591 Q115 585 110.5 569 Q106 553 99 530.5 Q92 508 84 481.5 Q76 455 68 428 Q49 365 25 288 L28 289 L72 298 L113 306 L140 312 Q145 312 147 310 Q148 308 149 307 Q149 304 146 302 L33 276 Q35 270 38 265 Q40 260 42 254 Q44 248 46 242 Q46 241 46.5 240 Q47 239 47 238 L47 237 Q51 222 53 205 Q54 199 54 192.5 Q54 186 55 180 Q56 151 52 119 Q49 92 42 57.5 Q35 23 20 -12 Q18 -18 17 -20 Q16 -23 11 -33 Q6 -43 -1.5 -54 Q-9 -65 -18.5 -73.5 Q-28 -82 -39 -82 Q-50 -80 -55 -69 Q-59 -61 -60 -52 Q-61 -43 -62 -34 Q-64 -8 -62.5 17.5 Q-61 43 -57 69 Q-53 99 -47 129 Q-41 159 -34 189 Q-29 211 -23.5 232.5 Q-18 254 -12 275 Q-12 277 -11 278 Q-6 295 -1.5 310.5 Q3 326 8 343 Q10 351 12.5 359 Q15 367 17 375 Q22 390 25.5 404.5 Q29 419 34 434 Q44 465 53.5 495 Q63 525 74 555 Q88 597 102.5 639.5 Q117 682 131 725 Q133 730 135 736 Q138 741 142 740 Q155 736 152 727 Q150 716 148.5 706.5 Q147 697 145 687 Z M30 71 Q40 129 40 166.5 Q40 204 35 227 Q30 253 19 268 L15 252 Q5 212 -4 173 Q-13 134 -20 94 Q-24 71 -26.5 49 Q-29 27 -31 4 L-31 -18 Q-32 -38 -29 -48.5 Q-26 -59 -24 -61 Q-18 -54 -12.5 -45 Q-7 -36 -2.5 -28 Q2 -20 4.5 -14 Q7 -8 8 -6 Q18 22 25 47 Q29 59 30 71 Z " />
<glyph glyph-name="g" unicode="g" horiz-adv-x="179" d="M179 311 Q184 316 189.5 310.5 Q195 305 189 300 Q166 278 143.5 256 Q121 234 99 211 Q90 201 81 191 Q72 181 63 171 L58 153 Q57 152 57 150 L57 149 L36 86 Q20 41 1 -2.5 Q-18 -46 -42 -89 Q-47 -98 -52.5 -107 Q-58 -116 -65 -125 Q-67 -128 -72 -135 Q-77 -142 -83.5 -148 Q-90 -154 -97.5 -158.5 Q-105 -163 -111 -162 Q-121 -160 -123.5 -150 Q-126 -140 -124.5 -128.5 Q-123 -117 -120 -106.5 Q-117 -96 -116 -93 Q-112 -82 -108.5 -71.5 Q-105 -61 -100 -51 Q-77 0 -48 47 Q-19 94 16 138 L25 166 Q25 167 26 168 Q32 189 38 210 Q44 231 50 253 Q51 256 52 259.5 Q53 263 54 266 L54 267 L61 292 Q48 276 36 265 Q25 255 13.5 249 Q2 243 -6 248 Q-12 254 -12 262 Q-13 269 -11.5 276 Q-10 283 -8 291 Q-3 308 3 323.5 Q9 339 19 355 Q22 360 25.5 365.5 Q29 371 33 376 L42 385 Q53 394 67.5 390.5 Q82 387 84 373 Q87 355 82 332 Q81 331 81 329 Q83 329 83.5 328.5 Q84 328 86 328 Q90 328 96 326 Q105 323 104 312 Q102 302 100 292.5 Q98 283 95 274 Q93 268 92 262.5 Q91 257 89 252 L85 239 L76 210 L74 205 Q100 232 126 258.5 Q152 285 179 311 Z M2 91 Q2 93 4 97 Q-18 66 -37 38 Q-51 15 -63.5 -9 Q-76 -33 -87 -58 L-102 -97 Q-103 -99 -105.5 -107 Q-108 -115 -109.5 -123.5 Q-111 -132 -110.5 -137 Q-110 -142 -105 -138 Q-103 -137 -98 -130 Q-78 -103 -63 -74 Q-48 -45 -36 -15 Q-26 11 -17.5 35.5 Q-9 60 0 86 Q0 87 0.5 88 Q1 89 1 90 L2 91 Z M66 353 Q67 358 66.5 362 Q66 366 66 371 Q60 365 53 352 Q46 339 40 324 Q34 309 30 296 Q26 283 27 277 Q37 287 46 296.5 Q55 306 65 316 Q61 318 61 320.5 Q61 323 61 326 Q63 333 64 339.5 Q65 346 66 353 Z " />
<glyph glyph-name="h" unicode="h" horiz-adv-x="184" d="M184 310 Q189 315 194 309.5 Q199 304 194 299 Q178 280 162.5 262 Q147 244 131 225 Q123 216 115.5 207 Q108 198 100 190 L97 187 Q92 182 82.5 175 Q73 168 64 173 Q59 176 57.5 182.5 Q56 189 56 196 Q56 203 57.5 209.5 Q59 216 60 220 Q62 228 63 231 L63 233 Q64 239 67 244 Q72 263 78 282 Q84 301 90 320 Q91 325 91.5 329.5 Q92 334 92 339 Q73 319 57.5 296.5 Q42 274 31 253 Q20 232 12 214.5 Q4 197 0 185 Q-2 180 -8.5 173.5 Q-15 167 -26 172 Q-36 176 -36 184.5 Q-36 193 -34 196 L-25 231 Q-23 237 -22 241 Q-20 246 -19 251.5 Q-18 257 -16 263 Q-11 277 -6 295 Q-3 305 0 314.5 Q3 324 5 334 Q9 345 12 356.5 Q15 368 18 379 L32 426 Q36 437 39 449 Q42 461 46 473 L59 518 Q62 528 65 537.5 Q68 547 71 558 Q73 566 75.5 574.5 Q78 583 81 591 Q88 621 99 651 Q102 661 105.5 670.5 Q109 680 112 690 Q119 709 125 729 Q126 731 126.5 734 Q127 737 129 739 Q131 743 135 741 Q140 739 143 735 Q146 731 144 725 Q142 714 140.5 704 Q139 694 136 684 Q125 645 113.5 605.5 Q102 566 91 526 Q89 520 85.5 507.5 Q82 495 77.5 477.5 Q73 460 67.5 440 Q62 420 56 400 Q43 352 28 296 Q30 297 32 301 Q42 315 51.5 327.5 Q61 340 72 352 Q79 359 83 362 Q94 372 111 362 Q122 355 125 341 Q126 333 125 326.5 Q124 320 123 314 Q119 297 113.5 281 Q108 265 103 248 Q102 246 101.5 243 Q101 240 100 238 Q98 230 95 221 Q92 212 89 201 Q92 204 94.5 207 Q97 210 100 212 Q107 220 113.5 228 Q120 236 127 244 L184 310 L184 310 Z " />
<glyph glyph-name="i" unicode="i" horiz-adv-x="101" d="M58 455 Q51 453 47 459 Q45 463 49 464 Q50 465 53 465 Q56 465 60 463 Q63 460 63 459 Q61 455 58 455 Z M109 312 Q111 312 113 311 Q115 310 114 304 L44 226 L43 225 Q36 217 29.5 209.5 Q23 202 17 194 L14 191 L12 189 Q8 184 -1 177 Q-10 170 -20 173 Q-21 173 -21 174 Q-23 174 -24 175 Q-29 179 -29.5 186 Q-30 193 -29 199 Q-29 211 -26 223 Q-20 257 -8 290 Q-8 293 -2 307 L1 317 L10 341 Q12 347 13 349 Q18 363 22.5 373.5 Q27 384 29 386 Q39 389 48 383 Q56 378 55 371 Q55 366 55 361 Q55 356 53 351 L52 350 Q51 348 51 346 Q51 344 50 342 L48 336 L37 305 Q35 298 33 291.5 Q31 285 29 278 Q26 267 23 256.5 Q20 246 17 235 Q15 230 14 223 Q13 219 12 214 L21 223 L22 225 L91 298 L96 303 L101 308 L101 309 Q105 312 109 312 Z " />
<glyph glyph-name="j" unicode="j" horiz-adv-x="108" d="M54 458 Q52 457 48 459 Q44 461 43 463 Q41 465 44 467 Q46 468 46.5 468 Q47 468 49 469 Q51 468 52.5 467.5 Q54 467 55 466 Q60 464 58 462 Q58 458 54 458 Z M109 310 Q115 315 119.5 309.5 Q124 304 119 299 Q96 277 72.5 255 Q49 233 26 210 Q17 200 8 190.5 Q-1 181 -9 170 L-15 152 Q-16 151 -16 149 Q-23 133 -28.5 117 Q-34 101 -39 85 Q-56 40 -77.5 -3.5 Q-99 -47 -123 -89 Q-130 -99 -136 -108 Q-142 -117 -148 -126 Q-150 -129 -155.5 -136 Q-161 -143 -168 -149 Q-175 -155 -182.5 -159.5 Q-190 -164 -196 -163 Q-205 -161 -207 -151 Q-209 -141 -207.5 -129.5 Q-206 -118 -203 -107.5 Q-200 -97 -198 -94 Q-194 -83 -189.5 -72.5 Q-185 -62 -180 -51 Q-156 0 -124.5 46.5 Q-93 93 -58 137 L-48 165 Q-47 166 -47 167 Q-45 172 -43 178 Q-41 184 -39 190 Q-37 198 -35 204 Q-35 206 -33 210 Q-24 239 -15 267.5 Q-6 296 2 325 Q2 329 1 331 Q1 333 1 335 Q1 337 2 339 Q2 344 6 354 Q9 360 11.5 366 Q14 372 16 378 Q19 385 27 386 Q31 386 33 385 Q46 383 43 371 Q41 361 40 351 Q39 341 37 330 Q33 319 30.5 309 Q28 299 26 288 Q23 277 18.5 262.5 Q14 248 10 235 Q5 220 0 204 Q28 232 54.5 258 Q81 284 109 310 Z M-73 90 Q-71 94 -71 97 Q-82 82 -93 67 Q-104 52 -114 37 Q-128 14 -142 -10 Q-156 -34 -167 -59 Q-172 -68 -176 -77.5 Q-180 -87 -183 -98 Q-184 -100 -187 -108 Q-190 -116 -192 -124.5 Q-194 -133 -194 -138 Q-194 -143 -188 -139 Q-184 -135 -182 -131 Q-161 -104 -145 -75 Q-129 -46 -115 -15 Q-104 10 -95 35 Q-86 60 -75 85 Q-75 87 -74.5 87.5 Q-74 88 -74 89 L-73 90 Z " />
<glyph glyph-name="k" unicode="k" horiz-adv-x="207" d="M224 311 Q228 308 225 304 Q208 282 191 260.5 Q174 239 158 216 Q153 209 149 203 Q145 197 141 190 Q130 176 117 158.5 Q104 141 90 127 Q71 109 61.5 108.5 Q52 108 47 113 Q42 117 41 125 Q39 132 39 138.5 Q39 145 39 152 Q40 172 42 190.5 Q44 209 47 228 L50 252 Q50 252 48 248 Q32 224 16 196 Q14 194 12 190 Q7 179 -2 176 Q-11 173 -22 175 Q-33 176 -32 188 Q-30 199 -28 208.5 Q-26 218 -24 229 Q-23 238 -19 251 Q-16 262 -9.5 285 Q-3 308 5 335 Q13 362 22 389 Q31 416 37 436 Q39 440 39.5 443.5 Q40 447 41 449 Q42 452 43 454 L48 471 L50 476 Q56 496 62.5 515.5 Q69 535 76 555 Q90 597 104.5 639.5 Q119 682 133 725 Q134 728 135 730.5 Q136 733 137 736 Q140 741 144 740 Q155 737 154 727 Q152 716 150.5 706.5 Q149 697 146 687 Q135 645 123 605 Q111 565 98 523 Q93 506 89 490.5 Q85 475 80 458 Q78 453 75 441 Q72 429 67.5 413.5 Q63 398 58 381 Q53 364 49 350 L41 320 Q37 306 33.5 291.5 Q30 277 25 263 L25 260 L26 260 Q30 265 33.5 269.5 Q37 274 40 279 Q59 304 77.5 328.5 Q96 353 115 377 Q120 383 124.5 389 Q129 395 134 400 Q143 409 154 405 Q161 400 154 396 Q152 394 150.5 392.5 Q149 391 148 389 Q134 371 121 352.5 Q108 334 94 316 Q88 309 83 300 Q82 300 82 299 Q80 297 80 296 Q83 289 81 279 Q80 262 79 244 Q78 226 76 207 Q75 191 74.5 175 Q74 159 73 142 L73 138 L73 135 L158 246 L163 253 L196 295 Q202 302 209 308 Q215 314 224 311 Z " />
<glyph glyph-name="l" unicode="l" horiz-adv-x="122" d="M186 711 Q187 691 184 673 Q181 655 176 636 Q165 597 151 559 Q137 521 120 483 Q107 452 92 422 Q77 392 59 363 Q57 361 57 361 Q49 351 45 340 Q41 329 39 317 Q35 296 30.5 275.5 Q26 255 22 234 Q16 205 17 178 Q17 175 18 174 Q18 171 19 169 Q23 172 29 178 Q38 186 45 194.5 Q52 203 59 213 Q64 220 68 226.5 Q72 233 76 240 L123 312 Q123 312 125 311 Q133 305 127 298 L127 297 Q116 278 105 259 Q94 240 83 220 Q78 211 72.5 202 Q67 193 60 185 Q55 179 50.5 172.5 Q46 166 41 161 Q33 152 23 150 Q13 148 2 151 Q-11 154 -17 167 Q-22 178 -22 195 Q-22 209 -20 223.5 Q-18 238 -15 253 Q-2 313 13.5 371.5 Q29 430 47 489 Q61 536 78 582 Q95 628 115 673 Q120 684 125 693.5 Q130 703 135 713 Q139 719 143.5 724.5 Q148 730 154 735 Q162 741 170 739.5 Q178 738 183 729 Q185 725 185.5 720.5 Q186 716 186 711 Z M162 634 Q167 654 170.5 673 Q174 692 174 712 Q174 716 173.5 719.5 Q173 723 171 727 Q168 725 166 722 Q164 719 162 717 Q151 699 144 681 Q136 659 128.5 637.5 Q121 616 113 594 Q99 552 87.5 509.5 Q76 467 65 424 Q62 414 59.5 404.5 Q57 395 55 385 L56 385 Q58 387 59.5 390 Q61 393 63 396 Q75 418 85 440 Q95 462 105 485 Q122 522 136.5 559 Q151 596 162 634 Z " />
<glyph glyph-name="m" unicode="m" horiz-adv-x="266" d="M283 307 Q272 297 264 286 Q256 275 247 264 Q234 248 222 231 Q210 214 199 197 Q197 195 195.5 192 Q194 189 192 187 Q185 178 174 168 Q163 158 150 161 Q148 161 148 162 Q140 165 139 176 Q138 187 138 193 Q139 198 139 202.5 Q139 207 140 212 Q148 257 162 297 Q162 298 162.5 299 Q163 300 163 301 L162 301 Q161 299 160 297.5 Q159 296 158 294 Q147 274 136.5 254.5 Q126 235 115 215 Q108 201 101.5 187.5 Q95 174 87 160 Q85 156 83.5 153 Q82 150 80 147 Q75 139 64 139 Q53 139 48 144 Q45 147 45 152 Q44 157 44.5 161 Q45 165 46 170 Q51 209 61 247 Q71 285 86 322 Q87 323 87 324 Q87 325 88 327 L88 328 Q85 325 84 323 Q52 282 24 234 Q22 232 20.5 229 Q19 226 17 224 Q11 217 4 218 Q-2 218 -10 220 Q-21 225 -18 235 Q-17 253 -12 273 Q-5 300 4.5 326.5 Q14 353 25 379 Q25 380 25.5 380.5 Q26 381 26 382 Q29 388 35.5 389.5 Q42 391 47 386 Q51 381 50 377 Q49 372 48 367 Q47 362 46 357 L25 282 Q25 279 24 276 L28 280 Q44 301 60 321.5 Q76 342 92 363 Q94 365 97 367.5 Q100 370 102 373 Q107 378 115 377 Q123 376 127 372 Q132 367 130 361 Q128 355 127 349 Q126 343 124 338 Q119 321 113.5 305.5 Q108 290 103 274 Q97 255 92.5 236 Q88 217 84 198 L84 194 Q85 198 87 200 Q99 223 110.5 244.5 Q122 266 135 289 Q143 303 151.5 316 Q160 329 168 343 L174 352 Q187 367 205 357 Q213 351 212 345 Q212 340 212 335 Q212 330 210 325 Q206 310 202 295.5 Q198 281 194 267 Q191 255 188 242.5 Q185 230 182 218 Q182 216 181.5 215.5 Q181 215 181 214 Q179 208 179 201 Q196 222 211.5 243 Q227 264 244 285 Q248 290 252.5 295.5 Q257 301 262 306 Q269 313 276 312 Q279 311 283 308 L283 307 Z " />
<glyph glyph-name="n" unicode="n" horiz-adv-x="202" d="M24 267 Q25 268 26 268.5 Q27 269 28 271 L91 349 Q94 354 99 357 Q108 365 121 358 Q132 353 132 342 Q131 336 130.5 329.5 Q130 323 128 317 Q123 300 118.5 283.5 Q114 267 109 250 Q104 232 99.5 213.5 Q95 195 92 176 Q92 171 93 168 Q95 172 97 173 Q118 202 139.5 229.5 Q161 257 183 285 Q187 290 191.5 295.5 Q196 301 201 306 Q207 313 215 312 Q218 311 222 308 Q222 307 221 307 Q211 297 202.5 286 Q194 275 186 264 Q166 238 147.5 211 Q129 184 111 156 Q109 152 106 148.5 Q103 145 100 141 Q94 133 84 131.5 Q74 130 66 133 Q55 138 55 149 L55 177 Q58 207 65 235 Q72 263 82 291 Q85 299 87.5 306.5 Q90 314 92 322 Q91 319 88 318 Q69 293 51.5 268 Q34 243 18 216 Q16 214 16 212 Q9 200 -6 202 Q-13 204 -18 207 Q-26 210 -26 220 Q-24 227 -23.5 233.5 Q-23 240 -21 247 Q-17 265 -11 282.5 Q-5 300 1 317 Q7 333 13 348 Q19 363 25 379 Q27 385 29 386.5 Q31 388 36 387 Q50 385 50 375 Q50 370 49.5 364.5 Q49 359 48 354 Q43 339 39.5 324 Q36 309 31 294 Q29 287 27 280.5 Q25 274 23 267 L24 267 Z " />
<glyph glyph-name="o" unicode="o" horiz-adv-x="170" d="M170 311 Q177 315 180 308.5 Q183 302 178 298 Q158 284 135.5 275.5 Q113 267 90 264 Q90 260 89 257 Q88 254 88 252 Q85 241 77.5 222.5 Q70 204 59 187 Q48 170 33.5 158 Q19 146 1 147 L-1 147 L-2 147 L-2 148 Q-9 149 -19 156 Q-28 162 -30.5 172 Q-33 182 -34 193 Q-34 210 -30.5 226.5 Q-27 243 -21 260 Q-13 283 -4 304.5 Q5 326 18 346 Q22 354 28 360.5 Q34 367 40 374 Q52 387 64.5 387.5 Q77 388 86 381 Q93 376 95 369 Q97 362 95.5 353.5 Q94 345 90 337 Q86 329 83 323 Q82 318 77 318 Q61 316 64 333 Q65 336 66 339 Q67 342 67 345 L68 349 Q61 346 53 336 Q46 328 38 313 Q30 298 22 275 Q22 275 17.5 259.5 Q13 244 9.5 225 Q6 206 4.5 190.5 Q3 175 9 174 L11 174 L12 175 Q14 177 15.5 178 Q17 179 19 181 Q51 216 60 261 Q60 268 58 271 Q52 282 64 285 Q72 288 78 285 Q78 285 82 283 Q85 280 86 278 Q109 281 130.5 289 Q152 297 170 311 Z " />
<glyph glyph-name="p" unicode="p" horiz-adv-x="232" d="M239 307 Q240 303 237 300 L228 291 Q214 281 201.5 271 Q189 261 176 250 Q174 248 159.5 238 Q145 228 124.5 217.5 Q104 207 82.5 201 Q61 195 46 201 Q42 203 42 203 Q32 211 43 219 Q46 221 49 221.5 Q52 222 54 224 Q79 233 96 252 Q106 261 114.5 271 Q123 281 130 293 Q133 298 134.5 302 Q136 306 138 311 Q139 314 139 319 Q133 319 125 315 Q111 308 100 297 Q71 271 48 237 Q27 208 9.5 178.5 Q-8 149 -23 117 Q-25 112 -26.5 108 Q-28 104 -30 99 Q-41 65 -52.5 31 Q-64 -3 -75 -38 Q-77 -45 -79.5 -52 Q-82 -59 -84 -67 Q-87 -76 -99 -75 Q-103 -75 -109 -73 Q-113 -71 -113.5 -69 Q-114 -67 -113 -63 Q-112 -59 -111 -55.5 Q-110 -52 -109 -47 L17 376 Q19 379 19.5 382 Q20 385 22 388 Q26 393 31 392 Q34 391 37 390 Q40 389 42 388 Q53 382 50 371 Q48 361 45.5 351.5 Q43 342 40 333 L7 219 Q7 218 6.5 217 Q6 216 6 214 L7 214 Q9 216 10 219 Q11 222 13 224 Q28 246 43.5 267 Q59 288 78 306 Q85 313 91.5 318.5 Q98 324 106 329 Q111 331 115.5 333 Q120 335 126 336 Q144 339 156.5 326 Q169 313 164 295 Q163 287 157 276 Q155 271 149 263 Q148 262 148 261.5 Q148 261 147 260 Q146 260 146 259.5 Q146 259 145 259 Q144 257 137 248.5 Q130 240 123 233 Q138 242 156 253.5 Q174 265 191 279 Q209 292 233 312 Q238 310 239 307 Z " />
<glyph glyph-name="q" unicode="q" horiz-adv-x="174" d="M190 306 Q164 240 138 175.5 Q112 111 86 46 Q84 44 82 38 Q71 11 58.5 -15.5 Q46 -42 29 -67 Q19 -84 4 -85 Q0 -86 -6 -86 Q-20 -83 -23 -69 Q-24 -62 -24 -55 Q-24 -48 -24 -40 Q-23 -13 -18.5 13 Q-14 39 -8 65 Q2 107 14.5 147.5 Q27 188 41 228 Q41 230 41.5 231 Q42 232 42 234 L58 277 Q48 263 38 254 Q30 246 20 241 Q10 236 3 241 Q-9 250 -9 266 Q-9 283 -5 299.5 Q-1 316 5 332 Q10 342 15 351.5 Q20 361 27 369 Q34 379 45 385 Q51 388 58 388 Q65 388 72 384.5 Q79 381 84 374 Q89 367 89 358 L89 357 Q98 361 108 356 Q118 350 117 339 Q115 324 111 311 L84 230 Q70 191 57.5 151.5 Q45 112 34 71 Q28 44 22.5 17.5 Q17 -9 13 -36 Q12 -42 11 -48.5 Q10 -55 11 -63 Q15 -59 15 -59 Q20 -52 24 -45.5 Q28 -39 32 -32 Q49 -1 62.5 31 Q76 63 89 95 Q110 147 131.5 199 Q153 251 174 304 Q180 317 190 307 L190 306 Z M34 273 Q45 284 54.5 295.5 Q64 307 73 320 Q75 324 77 332 Q69 336 67.5 338 Q66 340 68 350 L68 352 L68 363 Q63 358 56.5 346 Q50 334 44 320 Q38 306 34.5 292 Q31 278 32 271 Q34 273 34 273 Z " />
<glyph glyph-name="r" unicode="r" horiz-adv-x="150" d="M169 307 Q158 297 150 286 Q142 275 134 264 Q124 252 114.5 239.5 Q105 227 97 214 Q90 205 83 197 Q77 190 71 183 Q65 176 61 174 Q50 167 43 168 L41 168 L38 168 L37 169 Q28 172 27 182 Q25 195 27 209 Q35 259 56 305 Q60 311 61 314 L61 315 Q58 312 55 309 Q52 306 49 304 Q30 288 7 299 Q-1 302 -4 309 Q-7 316 -8 324 Q-8 349 4 372 Q5 373 5.5 374 Q6 375 7 376 Q18 392 35 385 Q45 382 42 372 Q41 362 37 349 Q33 336 34 321 L34 314 Q37 315 41 317 Q49 322 56 326.5 Q63 331 71 336 Q80 342 88 339 Q97 335 97 326 Q96 322 96 318 Q96 314 94 310 Q90 299 86.5 287 Q83 275 79 263 Q74 249 70.5 234.5 Q67 220 65 205 L65 202 L88 231 Q99 245 109.5 258 Q120 271 131 285 Q135 290 139 295.5 Q143 301 148 306 Q155 313 162 312 Q166 312 169 308 L169 307 Z " />
<glyph glyph-name="s" unicode="s" horiz-adv-x="160" d="M171 309 Q171 307 169 305 L74 233 L76 225 Q77 221 77 215 L77 213 Q75 198 68 183 Q60 169 50 156 Q32 134 10 116 Q-5 105 -19.5 97.5 Q-34 90 -46 87 Q-58 84 -67 84 Q-76 84 -79 88 Q-84 94 -80.5 103 Q-77 112 -74 117 Q-60 136 -40.5 155.5 Q-21 175 -14 182 L-11 185 Q-9 187 -9 187 Q2 196 13 204.5 Q24 213 34 221 Q36 223 37 223.5 Q38 224 40 226 Q39 235 36.5 243.5 Q34 252 31 259 Q27 267 22 273 L13 288 Q9 294 5 300 Q1 306 -2 312 Q-8 322 -8 334 Q-8 346 0 357 Q18 383 49 386 Q57 387 66 385.5 Q75 384 83 379.5 Q91 375 97 367 Q103 359 104 348 Q105 337 100 321 Q90 299 73 288 Q66 282 58 289 Q59 290 59 290.5 Q59 291 60 292 Q79 316 81 348 Q81 361 73 368 Q70 373 63 371 L57 368 Q40 359 31 343 Q24 328 30 315 Q32 312 33.5 308.5 Q35 305 37 301 Q41 295 44.5 289.5 Q48 284 52 278 Q54 276 55.5 273 Q57 270 59 268 L59 267 Q60 266 63 260.5 Q66 255 70 247 Q71 248 72 248.5 Q73 249 74 250 L75 251 Q90 262 105 272.5 Q120 283 134 294 Q140 298 146 301.5 Q152 305 157 309 Q161 312 167 312 L169 312 Q171 310 171 309 Z M33 196 Q34 198 36.5 202.5 Q39 207 39 208 Q36 206 33 203 Q30 201 27 198 Q24 195 19 192 Q17 190 15 189 Q13 187 10.5 185 Q8 183 6 181 Q-8 169 -19.5 157.5 Q-31 146 -39 138 Q-49 127 -55 119 Q-59 114 -61.5 110 Q-64 106 -62 104 Q-61 104 -58 105 Q-55 106 -46 111 Q-35 118 -26 126 Q-17 134 -8 142 Q-8 143 -7 144 L-6 144 Q11 161 19.5 174 Q28 187 33 195 L33 196 Z " />
<glyph glyph-name="t" unicode="t" horiz-adv-x="131" d="M408 619 Q417 619 420 611 Q417 608 414 608 Q411 608 409 608 Q399 607 390 607 Q381 607 371 606 Q347 604 322.5 602 Q298 600 274 598 Q251 596 228 593.5 Q205 591 182 589 Q177 588 173.5 587.5 Q170 587 165 587 L163 586 Q158 586 152.5 585.5 Q147 585 141 584 L111 581 Q107 566 103 551 Q99 536 94 521 Q89 504 84.5 488.5 Q80 473 75 456 Q73 450 70 438 Q68 430 65 421 Q62 412 60 402 Q55 385 49.5 364 Q44 343 37 317 Q25 275 16 239 Q8 208 2 179.5 Q-4 151 -3 141 Q3 148 11 157.5 Q19 167 27 177 Q36 188 46 200 L125 299 L134 311 L135 311 Q136 311 136.5 311.5 Q137 312 139 312 Q141 312 141 309 Q141 306 140 303 Q139 302 139 301 Q138 300 138 299.5 Q138 299 137 298 Q125 280 103 248 Q81 216 57.5 185.5 Q34 155 12.5 132 Q-9 109 -19 109 Q-19 109 -20 110 L-22 110 Q-31 112 -33.5 121.5 Q-36 131 -36 133 Q-36 148 -33 170 Q-30 192 -25.5 214.5 Q-21 237 -15.5 258 Q-10 279 -6 294 Q8 343 22 390 Q36 437 48 475.5 Q60 514 68 541 Q76 568 79 577 L64 576 Q61 575 54 575 Q48 574 42 573.5 Q36 573 29 572 L28 571 Q13 569 -2 568 Q-17 567 -31 565 Q-50 563 -68 561 Q-86 559 -104 557 Q-120 555 -135.5 553.5 Q-151 552 -167 550 L-236 544 Q-240 544 -248 546 Q-254 548 -254 553 Q-253 556 -248 556 Q-238 554 -229 555 Q-220 556 -210 557 Q-190 559 -169.5 562 Q-149 565 -128 567 Q-108 569 -87 571.5 Q-66 574 -46 577 Q-28 579 -9.5 581 Q9 583 27 585 Q32 586 37.5 586 Q43 586 49 587 Q50 587 60 588 Q70 589 84 591 L129 723 Q130 729 133 734 Q135 740 140 737 Q145 736 148 733 Q151 730 149 725 Q147 714 145.5 704.5 Q144 695 142 685 L115 595 Q134 597 149 598.5 Q164 600 168 600 Q179 602 190.5 603 Q202 604 213 605 Q228 607 242.5 608 Q257 609 271 611 Q283 613 294.5 613.5 Q306 614 318 615 Q332 617 345 617.5 Q358 618 371 619 L408 619 L408 619 Z " />
<glyph glyph-name="u" unicode="u" horiz-adv-x="175" d="M170 305 Q181 317 188 306 L187 305 Q168 281 149 256.5 Q130 232 111 208 Q109 206 108.5 205 Q108 204 106 202 Q101 197 94.5 189 Q88 181 81 176 Q65 165 58 175 Q56 177 56 178 L56 179 Q52 187 53 199.5 Q54 212 55 219 Q57 230 59.5 240.5 Q62 251 65 262 L67 268 L72 285 Q71 285 71 284 Q69 282 68 280 Q67 278 65 276 Q63 274 62.5 272 Q62 270 60 268 Q57 264 54.5 260.5 Q52 257 49 253 Q44 246 39 237.5 Q34 229 27.5 221.5 Q21 214 13.5 209 Q6 204 -3 206 L-5 206 Q-5 207 -7 207 Q-9 209 -10 209 Q-11 209 -11 210 Q-16 214 -17 222 L-17 240 Q-16 255 -13 269.5 Q-10 284 -5 298 Q0 316 5 333 Q10 350 17 367 Q19 371 19 373 Q23 384 29.5 386 Q36 388 44 386 Q53 383 49 374 Q44 357 40 340 Q36 323 31 306 Q30 302 28 296 Q26 289 24.5 280 Q23 271 21.5 262 Q20 253 19 246 Q18 239 18 236 Q20 238 20.5 239 Q21 240 23 242 L59 293 Q60 294 65 302 Q70 310 76.5 319.5 Q83 329 89 339.5 Q95 350 98 356 Q100 360 100 361 L101 362 Q105 369 113 371.5 Q121 374 126 370 Q131 366 130 359 Q128 354 127.5 347.5 Q127 341 125 336 Q120 321 115.5 305.5 Q111 290 106 275 Q103 264 100 251.5 Q97 239 95 228 Q92 216 91 203 Q111 229 130.5 254 Q150 279 170 305 Z " />
<glyph glyph-name="v" unicode="v" horiz-adv-x="170" d="M178 310 Q180 306 178 301 Q176 296 173 293 Q160 279 140.5 268 Q121 257 104 264 Q96 267 93 274 Q77 247 61 225 Q47 206 32.5 189.5 Q18 173 7 171 L6 171 L5 171 L4 171 L2 171 L-1 171 Q-9 173 -10 181 Q-16 195 -14 212 Q-14 244 -8.5 276 Q-3 308 6 340 Q8 346 10 352.5 Q12 359 15 365 Q17 373 27 376 L34 376 Q46 377 46 365 Q44 354 42 342 Q40 330 38 319 Q35 297 32.5 276 Q30 255 29 234 Q27 223 29 211 Q30 213 31 213.5 Q32 214 33 215 Q44 230 54.5 245.5 Q65 261 76 277 Q78 279 81 284.5 Q84 290 87 295 Q86 302 87 308.5 Q88 315 90 322 Q95 340 102 357 Q109 374 120 389 Q123 392 126.5 395.5 Q130 399 135 400 Q144 400 144 391 Q145 385 141 375 Q139 370 137.5 366 Q136 362 134 358 Q128 341 120 324 Q112 307 103 290 Q104 277 112.5 275.5 Q121 274 132.5 279 Q144 284 154.5 293 Q165 302 170 310 L172 311 Q173 311 174.5 311.5 Q176 312 178 310 Z M113 346 Q109 339 108 333 Q110 339 112 342 Q114 347 116 352 Q118 357 120 362 Q118 358 116 354.5 Q114 351 113 346 Z " />
<glyph glyph-name="w" unicode="w" horiz-adv-x="210" d="M210 311 Q216 315 219.5 308 Q223 301 217 297 Q200 286 181 278 Q162 270 143 279 Q137 282 132 287 L132 285 Q131 282 129 274 Q124 257 117 239 Q110 221 101.5 205.5 Q93 190 83.5 180 Q74 170 64 171 Q53 171 51 182 Q50 187 49.5 192 Q49 197 49 202 Q49 216 50.5 230.5 Q52 245 54 260 L59 293 Q43 263 29 241 Q23 232 16.5 223 Q10 214 3.5 207.5 Q-3 201 -8.5 198 Q-14 195 -18 197 Q-24 200 -23 209 Q-23 223 -20 238 Q-16 264 -9 290 Q-2 316 9 342 Q11 347 14 352 Q17 357 19 362 Q25 371 35 372 Q41 372 44 371 Q53 370 50 359 Q43 340 39 325 Q34 311 30.5 296.5 Q27 282 23 268 Q23 267 22.5 265.5 Q22 264 22 261 Q26 267 26 267 Q31 275 34.5 281.5 Q38 288 43 296 Q46 303 51 309 Q58 319 68 322.5 Q78 326 87 322 Q96 319 96 309 Q96 301 96 293.5 Q96 286 95 278 Q94 267 93 255.5 Q92 244 91 233 Q91 229 92 227 Q94 233 95 235 Q102 255 108.5 273 Q115 291 120 311 Q118 325 120 340 Q121 352 123 363.5 Q125 375 127 386 Q129 392 129.5 397.5 Q130 403 132 408 Q134 413 135.5 417 Q137 421 140 425 Q147 433 155 430.5 Q163 428 163 417 Q164 412 163 406 Q162 400 161 395 Q159 390 158.5 385 Q158 380 157 375 Q155 367 153 358.5 Q151 350 149 341 Q147 338 144.5 327.5 Q142 317 138 306 Q139 305 139 304 Q139 303 140 302 Q146 293 158 291 Q172 288 185.5 295.5 Q199 303 210 311 Z M151 416 Q151 417 150.5 416.5 Q150 416 150 414 L151 414 L151 416 Z M145 400 Q139 376 136 352 Q138 357 138.5 361.5 Q139 366 141 371 Q143 380 144.5 388.5 Q146 397 147 405 L147 407 Q147 404 145 400 Z " />
<glyph glyph-name="x" unicode="x" horiz-adv-x="118" d="M119 308 Q122 315 128.5 311 Q135 307 131 301 Q123 287 116 273.5 Q109 260 101 246 L80 210 Q74 200 69 192 Q64 185 58.5 179 Q53 173 48 172 Q46 171 43 171 Q30 170 22 188.5 Q14 207 9 227 Q-19 191 -46.5 152 Q-74 113 -96 74 Q-107 78 -102 89 Q-100 94 -98.5 98 Q-97 102 -95 106 Q-78 135 -61 158 Q-45 181 -28.5 202.5 Q-12 224 5 247 Q5 249 4.5 251 Q4 253 4 255 Q3 264 2 275 Q1 286 0 296 Q-1 306 -1.5 313.5 Q-2 321 -2 322 Q-2 336 -1 349.5 Q0 363 2 377 Q4 386 7.5 388 Q11 390 20 388 Q33 384 34 369 Q34 366 34.5 362.5 Q35 359 35 356 L35 348 L36 343 L36 344 L38 320 Q38 318 39 314 Q39 311 39.5 307.5 Q40 304 41 299 Q50 313 60 325 Q68 336 76.5 346.5 Q85 357 90 364 L105 379 Q110 384 113 386 Q120 391 130 388 Q124 382 118 374 Q113 367 105.5 358 Q98 349 89 337 Q88 336 88 335.5 Q88 335 87 334 Q85 331 81 326 Q77 321 72 314 Q71 314 71 313.5 Q71 313 70 313 L58 297 Q55 292 52 289 Q49 286 47 283 Q44 279 43 277 Q45 264 46 253.5 Q47 243 48 241 L48 238 L53 197 L59 206 Q67 217 74 229.5 Q81 242 88 255 Q102 280 119 308 Z " />
<glyph glyph-name="y" unicode="y" horiz-adv-x="176" d="M176 310 Q181 315 186.5 309.5 Q192 304 186 299 Q163 277 141 255 Q119 233 97 210 Q76 189 61 170 L55 152 Q54 151 54 149 Q49 133 43.5 117.5 Q38 102 33 85 Q3 -5 -45 -89 Q-56 -110 -67 -126 Q-70 -129 -75 -135.5 Q-80 -142 -86.5 -148.5 Q-93 -155 -100.5 -159.5 Q-108 -164 -114 -163 Q-124 -161 -126.5 -151 Q-129 -141 -127.5 -129.5 Q-126 -118 -123 -107.5 Q-120 -97 -119 -94 Q-112 -74 -102 -51 Q-80 0 -51 46.5 Q-22 93 13 137 L22 165 Q22 166 23 167 Q29 188 35 209 Q41 230 47 252 L48 253 L51 265 L51 266 L52 267 L54 276 Q45 264 31.5 252.5 Q18 241 7 248 Q-1 253 -2 261 Q-6 274 -4 290 Q-3 323 10 354 Q15 367 20 376 Q20 376 21 377 Q23 382 32.5 386 Q42 390 48 383 Q50 381 51 378 Q52 375 51 373 L44 349 Q41 340 38.5 329 Q36 318 34.5 307.5 Q33 297 32.5 288.5 Q32 280 33 276 Q33 276 34 277 L35 278 Q35 279 35.5 279 Q36 279 36 280 Q38 282 39 284 Q42 288 45 292 Q48 296 51 300 Q56 305 58 308 Q60 310 61 312 Q62 314 64 316 Q66 319 72 323 Q78 329 86 327 Q92 327 98 323 Q103 319 101 311 Q98 292 92 273 Q90 268 89 262 Q88 256 86 251 L82 239 L73 210 L71 204 Q97 232 123 258 Q149 284 176 310 Z M-1 90 Q0 92 0 93.5 Q0 95 1 97 Q-10 82 -20 67 Q-30 52 -39 37 Q-68 -11 -89 -58 Q-94 -68 -97.5 -77.5 Q-101 -87 -105 -98 Q-105 -100 -107.5 -108 Q-110 -116 -112 -124.5 Q-114 -133 -113.5 -138 Q-113 -143 -108 -139 Q-104 -135 -101 -131 Q-81 -103 -66 -74 Q-51 -45 -39 -15 Q-29 10 -20.5 35 Q-12 60 -3 85 Q-2 86 -2 87 Q-2 88 -1 89 L-1 90 Z " />
<glyph glyph-name="z" unicode="z" horiz-adv-x="189" d="M192 310 Q197 315 202 309.5 Q207 304 202 299 Q183 281 164.5 263 Q146 245 128 227 L128 226 L116 214 Q118 200 116.5 180.5 Q115 161 108.5 136.5 Q102 112 89 80.5 Q76 49 55 11 Q30 -34 10 -65.5 Q-10 -97 -26 -117 Q-42 -137 -54.5 -147.5 Q-67 -158 -76 -162 Q-98 -172 -109 -154 Q-112 -148 -112 -138.5 Q-112 -129 -110.5 -120 Q-109 -111 -106.5 -104 Q-104 -97 -103 -94 Q-99 -83 -95 -72.5 Q-91 -62 -86 -51 Q-67 -6 -42.5 34.5 Q-18 75 11 114 Q11 114 13 116 Q16 120 19.5 124 Q23 128 26 133 Q37 147 51 163 Q65 179 79 194 Q81 211 79.5 222.5 Q78 234 76 242 Q73 251 70 256 L67 256 Q54 256 44 262 Q29 271 34 286 Q38 301 48 319 Q52 327 56.5 335.5 Q61 344 66 352 Q67 353 67 354 Q67 355 69 357 Q66 357 65 356 Q37 342 21 317 Q19 313 17 309.5 Q15 306 14 302 Q13 299 13 293 Q13 286 7 286 Q1 288 -1 289 Q-23 299 -15 322 Q-13 327 -10.5 331.5 Q-8 336 -5 340 Q15 366 42 380 Q46 382 56 386 Q78 393 99 377 Q113 364 108 348 Q106 343 105 340 Q104 337 102 333 Q96 322 90 311 Q84 300 78 289 Q76 284 73.5 280.5 Q71 277 69 272 L71 272 Q71 272 75 270 Q83 267 91 261 Q97 256 102.5 248.5 Q108 241 112 230 Q116 234 118 236.5 Q120 239 122 241 Q139 258 156.5 275.5 Q174 293 192 310 Z M53 97 Q61 118 66.5 136 Q72 154 75 169 Q57 147 41.5 127.5 Q26 108 16 95 Q16 96 16.5 96 Q17 96 17 97 Q14 92 10.5 88 Q7 84 4 79 Q-4 68 -10.5 58 Q-17 48 -24 37 Q-38 14 -50.5 -10 Q-63 -34 -74 -59 Q-78 -68 -81.5 -77 Q-85 -86 -88 -96 Q-89 -98 -91 -105.5 Q-93 -113 -95 -121 Q-97 -129 -97 -135 Q-97 -141 -93 -141 L-92 -141 L-91 -141 Q-86 -139 -81 -134.5 Q-76 -130 -73 -127 Q-71 -124 -68 -121 Q-65 -118 -63 -115 Q-50 -99 -34.5 -75 Q-19 -51 -3.5 -22.5 Q12 6 26.5 36.5 Q41 67 53 97 Z " />
<glyph glyph-name="d" unicode="d" horiz-adv-x="211" d="M232 741 Q243 739 242 728 Q240 718 238.5 708.5 Q237 699 234 689 Q222 647 210 606.5 Q198 566 186 525 Q178 498 171 471.5 Q164 445 156 419 L132 330 Q131 327 130.5 323.5 Q130 320 129 317 L115 249 L116 249 Q114 244 113.5 239 Q113 234 111 229 L106 204 Q95 150 88 96 Q94 106 99 115 Q104 123 109 131 Q114 139 117 145 Q137 179 154 210 Q166 230 178 251 Q190 272 202 293 L211 308 Q218 316 227 309 Q229 307 228 304 L225 298 Q205 261 185 225 Q165 189 145 153 Q135 134 125.5 116 Q116 98 105 80 Q103 75 100 70.5 Q97 66 94 61 Q88 53 77 52 Q66 51 59 58 Q54 63 54 67 Q53 72 52.5 78 Q52 84 53 90 Q55 107 56.5 124 Q58 141 61 158 Q63 172 66 187 Q69 202 72 216 L72 217 L75 238 L78 253 Q72 240 66.5 227.5 Q61 215 54 202 Q52 197 48.5 191.5 Q45 186 42 181 Q37 173 29 171 Q21 169 13 171 Q5 173 -1.5 178 Q-8 183 -11 190 Q-15 201 -16 209 Q-18 225 -17 240.5 Q-16 256 -13 272 Q-8 293 -0.5 313.5 Q7 334 18 352 Q22 359 26.5 364.5 Q31 370 36 375 Q40 380 49 384 Q61 391 78 381 Q87 374 89 362 Q92 347 89 332 L92 335 Q94 340 95.5 344 Q97 348 99 353 L102 361 L137 478 L164 556 L221 727 Q222 729 223 732 Q224 735 225 738 Q228 742 232 741 Z M21 199 Q37 225 50 251.5 Q63 278 77 304 L70 304 Q60 305 64 314 Q71 331 71 351 Q70 356 69.5 360 Q69 364 67 369 Q57 362 46.5 339.5 Q36 317 29 290 Q22 263 19 237.5 Q16 212 21 199 Z " />
<glyph glyph-name="A" unicode="A" horiz-adv-x="450" d="M254 314 Q255 315 259 317 Q266 323 271 331 Q276 339 281 347 Q289 362 296 377.5 Q303 393 309 409 Q326 453 341 496.5 Q356 540 367 586 Q372 603 375 621 Q378 639 380 657 Q381 668 380.5 679 Q380 690 378 701 Q375 713 371.5 716 Q368 719 357 716 Q346 713 333 705 Q316 695 301.5 682 Q287 669 273 655 Q226 604 189 537 Q95 372 58 183 Q51 149 47.5 115.5 Q44 82 44 47 Q45 25 47 4 Q49 -17 54 -37 Q56 -43 58 -49 Q60 -55 62 -61 Q63 -66 67 -69 Q72 -77 75.5 -78.5 Q79 -80 86 -75 Q101 -65 112 -54 Q132 -35 151 -14 Q170 7 187 29 Q218 67 245.5 107 Q273 147 300 189 Q316 215 331.5 241.5 Q347 268 364 294 Q366 298 368 301.5 Q370 305 372 309 Q375 314 380 314 Q392 316 400 310 Q407 303 405 295 L402 283 Q394 257 385 232.5 Q376 208 368 182 Q349 126 332 70.5 Q315 15 301 -43 Q293 -76 286 -109 Q279 -142 274 -177 Q272 -187 271.5 -196.5 Q271 -206 270 -216 Q268 -221 273 -225 Q281 -233 272 -241 Q267 -245 258 -245 Q249 -245 244 -240 Q239 -236 238 -228 Q236 -220 237 -211 Q238 -202 238 -194 Q241 -162 246 -130.5 Q251 -99 257 -67 Q265 -26 273.5 13.5 Q282 53 293 93 Q299 117 307 140 Q315 163 323 186 Q323 188 323.5 190 Q324 192 324 194 Q323 192 322 191 Q321 190 320 188 Q298 156 276.5 124.5 Q255 93 232 61 Q211 31 189 2.5 Q167 -26 142 -52 Q128 -67 110 -82 Q97 -93 78 -95 Q51 -98 33 -74 Q25 -63 20.5 -50.5 Q16 -38 13 -24 Q6 6 4 38 Q2 67 3.5 95.5 Q5 124 9 153 Q18 228 38.5 298.5 Q59 369 88 438 Q126 531 181 608 Q200 636 221.5 660.5 Q243 685 268 705 Q281 715 294 723 Q307 731 321 736 Q340 743 356 740 Q376 736 387.5 722 Q399 708 401 685 Q403 668 401 651.5 Q399 635 396 619 Q391 590 383 563.5 Q375 537 366 510 Q355 478 343.5 446 Q332 414 318 383 Q313 372 307.5 360.5 Q302 349 295 338 Q288 325 273 311 Q265 307 261 308 Q259 308 258 309 Q257 310 255 311 Q255 312 254.5 312.5 Q254 313 254 314 Z " />
<glyph glyph-name="B" unicode="B" horiz-adv-x="383" d="M346 49 Q353 33 350 15 Q347 -3 342 -19 Q337 -36 329.5 -51.5 Q322 -67 314 -82 Q300 -108 285 -132.5 Q270 -157 251 -179 Q239 -194 225 -207 Q211 -220 194 -230 Q183 -236 172 -240 Q161 -244 149 -245 Q143 -245 137.5 -244.5 Q132 -244 126 -243 Q104 -236 93 -212 Q88 -201 87 -190.5 Q86 -180 87 -169 Q89 -149 95 -130 Q101 -111 111 -94 Q118 -80 126.5 -67.5 Q135 -55 145 -43 Q170 -13 196 15 Q222 43 250 70 L255 75 Q251 77 250 77 Q237 79 225 80 Q213 81 200 83 Q191 85 182 86.5 Q173 88 164 90 Q159 91 155 93 Q151 95 147 97 Q124 108 127 132 Q128 145 132 159 Q137 179 145 197 Q153 215 162 232 Q182 270 203 308.5 Q224 347 245 385 Q264 420 283 456 Q302 492 319 529 Q327 545 333 560.5 Q339 576 344 593 Q346 600 347 607 Q348 614 349 621 Q349 623 348.5 626 Q348 629 348 632 Q341 632 339 631 Q334 628 329.5 625.5 Q325 623 320 620 Q305 609 292.5 596 Q280 583 268 569 Q239 535 212.5 499 Q186 463 161 425 Q144 399 128.5 373 Q113 347 98 321 Q94 314 93 308 Q79 256 64 204.5 Q49 153 34 102 Q25 69 16 36.5 Q7 4 -3 -29 Q-9 -46 -16 -61 Q-20 -72 -31 -72 Q-34 -73 -38 -72 Q-44 -72 -46 -65 Q-47 -60 -47.5 -55.5 Q-48 -51 -48 -46 Q-48 -23 -45 -2 Q-42 19 -37 40 Q-28 80 -15 117 Q-2 154 15 191 Q23 206 30.5 221.5 Q38 237 45 253 Q47 256 48 258.5 Q49 261 50 265 Q74 348 100 430 Q126 512 156 593 Q160 605 164 616.5 Q168 628 173 640 Q177 651 184 666.5 Q191 682 197 696 Q203 710 207.5 720 Q212 730 212 730 Q214 733 214.5 735.5 Q215 738 217 741 Q221 747 226 745 Q235 740 235 734 Q234 732 234 731 Q234 730 233 728 Q231 720 229 717 Q229 716 226 707 Q223 698 218.5 686.5 Q214 675 210 663.5 Q206 652 204 647 L204 646 Q196 626 189.5 606.5 Q183 587 176 567 L116 384 Q116 382 115.5 381 Q115 380 116 378 L119 384 Q142 419 164.5 454 Q187 489 212 523 Q229 546 246.5 568.5 Q264 591 284 611 Q292 619 299 625 Q306 631 314 637 Q316 639 319 640 Q322 641 324 643 Q340 651 354 642 Q368 633 372 619 Q375 604 372 590 Q370 578 367 567 Q364 556 360 545 Q352 522 342 500.5 Q332 479 321 458 Q300 418 279 378.5 Q258 339 238 299 Q224 273 211 246.5 Q198 220 185 194 Q180 183 176 173.5 Q172 164 168 153 Q166 147 165.5 141 Q165 135 164 129 Q164 112 180 106 Q203 99 226.5 97.5 Q250 96 273 91 Q293 87 313 80.5 Q333 74 343 55 L346 49 Z M-26 -29 Q-15 15 -4.5 58 Q6 101 17 144 Q16 145 15 145 Q0 103 -12.5 60.5 Q-25 18 -28 -29 L-26 -29 Z M311 -11 Q316 7 313 24 Q308 56 279 69 Q278 69 278 68 Q273 63 269 59.5 Q265 56 260 51 Q234 24 209.5 -3.5 Q185 -31 162 -61 Q137 -94 125 -132 Q117 -153 119 -176 Q119 -190 125 -202 Q135 -225 160 -222 Q176 -219 189 -208 Q204 -196 213 -186 Q236 -160 254.5 -132 Q273 -104 289 -73 Q296 -58 301.5 -43 Q307 -28 311 -11 Z " />
<glyph glyph-name="C" unicode="C" horiz-adv-x="370" d="M382 288 L337 216 Q314 178 291 140 Q268 102 245 63 Q212 8 179 -45.5 Q146 -99 111 -153 L78 -201 Q74 -206 70 -210.5 Q66 -215 62 -220 Q46 -236 24 -239 Q-1 -244 -15 -219 Q-22 -204 -25 -185 Q-28 -166 -28.5 -147.5 Q-29 -129 -27 -110 Q-23 -52 -12.5 3.5 Q-2 59 11 114 Q45 263 98 406 Q115 451 133.5 493 Q152 535 175 577 Q192 606 210.5 633.5 Q229 661 252 686 Q270 707 293 724 Q311 737 329 740 Q345 743 357.5 735 Q370 727 377 714 Q381 707 382.5 699.5 Q384 692 385 684 Q387 666 385 648 Q383 630 380 613 Q372 579 362 546.5 Q352 514 340 482 Q331 457 320.5 433.5 Q310 410 296 387 Q288 373 279 360.5 Q270 348 259 337 Q249 327 239 322 Q232 319 226 321 L222 325 Q224 327 224 327 Q232 330 237 335.5 Q242 341 247 347 Q263 366 275 390 Q303 444 324.5 501.5 Q346 559 360 621 Q364 637 366.5 653 Q369 669 367 686 Q367 697 364 708 Q362 716 358.5 718.5 Q355 721 347 720 Q342 719 337 717 Q332 715 327 713 Q316 707 307.5 699 Q299 691 290 682 Q273 665 259 645 Q245 625 232 603 Q209 565 189 524 Q169 483 152 440 Q127 380 108 319 Q89 258 72 195 Q57 141 45 88 Q33 35 23 -20 Q18 -49 14 -79 Q10 -109 10 -139 Q10 -153 11 -166 Q12 -179 15 -193 Q18 -204 24 -213 Q25 -215 26 -216 Q27 -217 29 -219 Q33 -215 36.5 -212 Q40 -209 42 -205 Q53 -192 62 -179 Q97 -128 130.5 -76.5 Q164 -25 196 29 Q228 81 259.5 132.5 Q291 184 323 236 L365 299 Q369 305 371 307 Q372 309 374 310 Q378 312 381 312 Q386 311 388 306.5 Q390 302 387 297 L382 288 Z " />
<glyph glyph-name="D" unicode="D" horiz-adv-x="402" d="M-20 -28 L-26 -28 Q-32 -26 -31 -18 Q-28 -6 -25.5 6 Q-23 18 -20 30 Q15 179 56 323 Q97 467 143 611 Q145 617 146 623.5 Q147 630 149 636 Q152 651 157.5 664.5 Q163 678 169 692 Q174 703 178.5 714.5 Q183 726 188 737 Q192 746 197 743 Q207 738 205 729 Q205 727 203 721 Q186 665 169 610.5 Q152 556 135 500 Q121 454 108.5 408.5 Q96 363 82 317 Q82 315 81.5 313 Q81 311 81 309 Q85 316 88 323 Q111 374 137 420.5 Q163 467 193 512 Q216 546 241 576.5 Q266 607 294 633 Q304 642 314 650 Q324 658 335 663 Q341 666 347.5 668 Q354 670 360 668 Q380 664 390 639 Q395 629 397.5 618 Q400 607 401 595 Q403 574 401.5 553.5 Q400 533 397 513 Q390 468 378.5 425 Q367 382 353 340 Q333 277 307.5 218 Q282 159 255 101 Q232 54 208 9 Q184 -36 157 -79 Q123 -135 77 -181 Q63 -195 47 -208 Q31 -221 14 -230 Q6 -234 -2.5 -236.5 Q-11 -239 -20 -240 Q-33 -242 -44 -235 Q-64 -223 -64 -196 Q-65 -188 -64 -180 Q-63 -172 -61 -164 Q-54 -129 -44.5 -96.5 Q-35 -64 -21 -33 Q-21 -30 -20 -28 Z M76 38 Q74 35 72.5 35 Q71 35 69 35 L59 35 Q42 32 26 13 Q17 2 9.5 -12 Q2 -26 -4 -40 Q-18 -71 -27 -103.5 Q-36 -136 -41 -171 Q-42 -178 -42.5 -184.5 Q-43 -191 -42 -199 Q-37 -228 -16 -219 Q-2 -214 8 -205 Q25 -193 39.5 -177 Q54 -161 67 -144 Q92 -111 113 -75.5 Q134 -40 154 -2 Q177 42 198 87 Q219 132 239 178 Q263 233 285 288 Q307 343 325 401 Q338 444 349 486.5 Q360 529 368 574 Q370 588 372 601 Q374 614 373 628 Q372 642 368.5 645.5 Q365 649 354 647 Q338 643 320 630 Q309 622 299 613 Q289 604 278 593 Q252 565 228 533 Q204 501 182 466 Q144 405 112 339 Q80 273 53 203 Q49 194 45.5 185.5 Q42 177 40 168 Q28 126 16.5 85 Q5 44 -6 2 Q-7 1 -7 -3 Q-6 -2 -2 4 Q5 15 12.5 24 Q20 33 30 39 Q48 50 67 45 Q74 43 76 38 Z " />
<glyph glyph-name="E" unicode="E" horiz-adv-x="422" d="M487 676 Q485 671 484.5 666.5 Q484 662 482 658 Q471 626 444 601 Q441 598 437.5 595 Q434 592 430 589 Q425 585 420 587.5 Q415 590 413 596 Q412 600 415 602 Q420 607 425.5 612.5 Q431 618 436 624 Q456 647 464 673 Q469 686 469 698 Q469 709 460 711 Q455 713 450.5 714.5 Q446 716 441 716 Q421 718 402 714.5 Q383 711 364 706 Q343 700 323.5 690.5 Q304 681 286 669 Q231 632 183.5 587 Q136 542 96 486 Q66 447 49 404 Q44 392 41.5 380.5 Q39 369 38 356 Q38 345 42 336 Q51 335 62 338 Q78 343 93 349 Q108 355 122 363 Q154 380 185.5 398 Q217 416 248 437 Q257 443 266 438 Q268 436 269.5 435.5 Q271 435 273 433 Q281 426 282 420 Q283 414 279 406 Q272 392 262 377 Q245 348 228 320.5 Q211 293 194 264 Q164 213 136 163 Q108 113 82 59 Q68 29 55 -2 Q42 -33 33 -66 Q28 -86 24 -105.5 Q20 -125 19 -146 Q18 -158 18.5 -170 Q19 -182 22 -194 Q24 -199 25.5 -204 Q27 -209 31 -213 Q35 -218 40 -220.5 Q45 -223 51 -220 Q63 -216 76 -208 Q90 -199 103 -187.5 Q116 -176 128 -163 Q193 -100 251 -23 Q269 1 286.5 25.5 Q304 50 322 74 Q329 83 335 96 Q337 98 337.5 100.5 Q338 103 339 105 Q341 112 346 112 Q352 112 354 111 Q359 109 362 105.5 Q365 102 361 94 Q357 87 354 80.5 Q351 74 346 69 Q333 50 320.5 32 Q308 14 294 -4 Q267 -40 238.5 -75 Q210 -110 179 -143 Q165 -158 151.5 -171.5 Q138 -185 124 -199 Q116 -207 106.5 -214 Q97 -221 87 -226 Q65 -240 42 -240 Q31 -240 21 -237 Q-10 -226 -16 -186 Q-19 -169 -18.5 -151.5 Q-18 -134 -16 -117 Q-11 -83 -1.5 -51 Q8 -19 20 13 Q38 61 60 105 Q82 149 106 193 Q132 241 160 286.5 Q188 332 218 377 Q220 379 222 386 Q221 385 219.5 384.5 Q218 384 217 383 Q197 372 178 361 Q159 350 139 339 Q125 332 111 326 Q97 320 82 316 Q73 314 63.5 313 Q54 312 44 315 Q32 320 25 326 Q9 338 9 362 Q9 374 11.5 385.5 Q14 397 18 408 Q24 426 32.5 442.5 Q41 459 51 476 Q71 508 93 535.5 Q115 563 141 589 Q196 646 260 691 Q287 710 315.5 721 Q344 732 375 737 Q389 739 403 740.5 Q417 742 431 740 Q439 738 447 735.5 Q455 733 463 728 Q477 719 483 703 Q485 700 485 697 Q485 694 487 692 L487 676 Z " />
<glyph glyph-name="F" unicode="F" horiz-adv-x="450" d="M19 -240 Q10 -236 8.5 -233 Q7 -230 8 -219 Q9 -203 11.5 -188 Q14 -173 17 -157 Q32 -82 49.5 -8.5 Q67 65 86 140 Q96 177 105.5 213.5 Q115 250 125 288 Q125 290 125.5 291.5 Q126 293 126 295 Q124 295 123 294.5 Q122 294 120 294 Q77 277 35 260 Q-7 243 -49 223 Q-52 221 -54.5 220 Q-57 219 -60 218 Q-69 215 -74 223 Q-79 227 -73 231 Q-71 233 -69.5 233.5 Q-68 234 -66 235 Q-46 247 -25 256.5 Q-4 266 18 274 Q45 285 72.5 295.5 Q100 306 128 317 Q132 318 135 325 Q153 391 173.5 455 Q194 519 218 582 Q218 581 220 587 Q214 585 212 584 Q174 567 137 550.5 Q100 534 63 517 Q46 510 30 503 Q14 496 -3 489 Q-13 485 -19 485 Q-31 482 -36 495 Q-33 502 -28 500 Q-24 500 -21.5 501 Q-19 502 -16 503 Q2 512 20 521 Q38 530 55 538 Q97 558 138.5 575 Q180 592 222 609 Q230 612 233 620 Q244 650 256.5 678.5 Q269 707 282 736 Q286 743 292 741 Q294 740 296 739 Q298 738 300 737 Q307 732 306 722 Q304 717 303 711.5 Q302 706 300 701 Q295 685 289.5 669.5 Q284 654 278 638 Q277 636 276.5 634 Q276 632 275 629 Q277 630 278.5 630 Q280 630 282 631 Q320 645 358 656.5 Q396 668 435 678 Q487 692 535 698 Q549 700 561.5 700.5 Q574 701 587 702 Q596 702 604 700 Q612 698 620 695 Q630 692 636 683 Q648 668 644 649 Q642 638 637 629 Q632 620 626 611 Q611 590 588 576 Q582 572 578 578 Q573 583 580 589 Q594 598 605.5 611 Q617 624 625 639 Q628 645 629.5 651 Q631 657 633 663 Q634 676 624 680 Q607 686 590 686 Q558 686 525 680 Q460 669 397.5 650 Q335 631 272 608 Q266 605 264 599 Q243 539 223.5 479.5 Q204 420 186 360 Q184 354 182 348.5 Q180 343 178 336 Q182 337 188 339 Q220 350 251 361 Q282 372 314 380 Q329 385 344 388 Q359 391 374 393 Q399 396 420 392 Q424 391 427 390 Q430 389 432 385 Q433 383 433 379 Q429 377 428 377 Q420 378 412.5 378.5 Q405 379 397 379 Q383 378 369 375.5 Q355 373 341 369 Q299 358 258 344 Q217 330 176 315 Q171 313 169 307 Q156 261 143 215.5 Q130 170 117 124 Q100 61 84.5 -1 Q69 -63 55 -126 Q51 -143 48 -159 Q45 -175 41 -191 Q41 -197 42 -199 Q49 -214 41 -231 Q39 -235 35.5 -236.5 Q32 -238 29 -240 L19 -240 Z " />
<glyph glyph-name="G" unicode="G" horiz-adv-x="461" d="M367 309 Q363 305 362 303 Q342 280 321.5 257 Q301 234 280 211 Q254 182 226.5 154.5 Q199 127 169 102 Q159 94 149 87 Q139 80 128 74 Q106 62 86 63 Q52 68 42 106 Q35 129 37 160 Q39 193 45 225 Q51 257 60 289 Q86 376 121 456 Q156 536 203 610 Q220 637 240 661.5 Q260 686 283 707 Q307 729 332 739 Q367 752 393 732 Q419 712 423 668 Q426 630 420 594 Q412 546 398 500.5 Q384 455 366 410 Q360 395 353 381 Q346 367 336 355 Q332 350 328 345.5 Q324 341 319 336 Q312 329 304 332 Q299 334 298 339 Q300 341 302 341 Q305 341 307 343 Q309 345 311 347 Q319 356 324.5 366 Q330 376 335 387 Q346 407 353.5 428 Q361 449 369 471 Q378 498 386 525.5 Q394 553 400 582 Q404 601 406 619.5 Q408 638 407 657 Q407 674 402 691 Q400 694 399.5 697 Q399 700 397 703 Q390 721 371 719 Q359 718 345 709 Q323 697 302 674 Q281 652 263 627 Q245 602 229 575 Q203 531 181 485 Q159 439 139 391 Q110 320 91 247 Q80 204 76 164 Q73 134 77 109 Q78 100 83 91 Q87 79 98 83 Q105 86 111.5 89 Q118 92 125 96 Q164 120 200 153 Q226 176 250.5 202 Q275 228 298 256 Q315 276 331.5 296.5 Q348 317 365 337 Q370 343 375 346.5 Q380 350 387 348 Q405 345 405 322 Q403 296 398 276 Q382 204 359.5 137 Q337 70 309 4 Q295 -28 279.5 -59 Q264 -90 246 -119 Q232 -142 216 -161 Q200 -180 181 -197 Q167 -209 153 -219 Q139 -229 122 -234 Q111 -237 101 -238 Q91 -239 80 -235 Q49 -225 55 -183 Q58 -164 65 -149 Q85 -102 109.5 -60 Q134 -18 165 19 Q179 35 192.5 48 Q206 61 222 70 Q252 87 278 79 Q284 77 291 74 Q314 131 332.5 189.5 Q351 248 367 309 Z M286 59 Q275 68 263 67 Q255 66 249 63.5 Q243 61 236 57 Q223 49 212.5 38 Q202 27 191 15 Q161 -22 137.5 -63.5 Q114 -105 95 -151 Q93 -157 92 -163 Q91 -169 89 -176 Q86 -190 90 -203 Q95 -218 108 -214 Q115 -211 122 -207 Q133 -201 143 -192 Q153 -183 162 -173 Q176 -157 188 -139 Q200 -121 211 -102 Q239 -51 262 3 Q268 17 274 31 Q280 45 286 59 Z " />
<glyph glyph-name="H" unicode="H" horiz-adv-x="283" d="M378 735 Q386 728 385 718 Q383 712 382.5 706 Q382 700 381 694 Q380 685 379 676 Q378 667 376 659 Q376 651 370 654 Q363 659 364 665 L364 685 Q363 681 361 677 Q345 642 331 606.5 Q317 571 304 534 Q280 467 257 399.5 Q234 332 212 263 L211 261 Q209 255 207 249 Q205 243 203 237 L203 235 L195 212 L195 210 Q191 198 187.5 186 Q184 174 179 162 Q154 81 129 0.5 Q104 -80 81 -161 Q76 -178 72 -194 Q68 -210 63 -227 Q61 -234 58.5 -236 Q56 -238 50 -240 L44 -240 Q33 -239 36 -227 Q41 -207 46.5 -187 Q52 -167 57 -147 Q81 -58 107 28.5 Q133 115 159 203 Q160 205 160 207.5 Q160 210 162 213 Q154 212 147.5 211.5 Q141 211 133 211 Q119 209 104.5 208 Q90 207 76 206 Q65 205 55.5 204.5 Q46 204 35 203 Q30 202 29.5 201.5 Q29 201 27 196 Q3 114 -21 32.5 Q-45 -49 -67 -132 Q-72 -149 -75.5 -165 Q-79 -181 -83 -198 Q-84 -201 -84 -208 Q-86 -215 -90 -216 Q-100 -221 -108 -218 Q-114 -216 -113 -208 Q-112 -200 -111 -193.5 Q-110 -187 -108 -179 Q-91 -113 -74 -48 Q-57 17 -39 83 L16 282 Q24 310 31.5 337 Q39 364 47 392 Q68 462 91 530.5 Q114 599 141 667 Q148 686 158 707 Q162 718 171 714 Q183 709 180 697 Q178 686 175 675.5 Q172 665 169 654 Q155 610 141.5 567 Q128 524 114 480 Q94 416 74.5 352.5 Q55 289 35 225 Q35 223 34.5 221.5 Q34 220 34 218 Q36 218 53.5 218.5 Q71 219 93 220.5 Q115 222 136 224 Q157 226 166 227 Q168 234 170 240 Q172 246 174 253 Q189 302 204 351 Q219 400 236 449 Q251 495 267.5 540 Q284 585 304 630 Q314 651 324 671.5 Q334 692 345 712 Q350 721 355 728 Q361 737 367 740 L369 740 Q371 738 373.5 737.5 Q376 737 378 735 Z " />
<glyph glyph-name="I" unicode="I" horiz-adv-x="167" d="M198 704 Q191 704 184.5 703.5 Q178 703 171 703 Q164 702 157.5 701.5 Q151 701 144 701 Q135 701 131 702 Q121 704 121 714 Q122 715 125 715 Q135 716 144.5 715.5 Q154 715 163 716 Q173 716 182 717 Q191 718 201 718 Q206 718 209 724 Q211 728 212.5 731 Q214 734 216 738 Q222 747 231 742 Q240 736 241 722 Q246 723 250 723 Q254 723 258 724 Q284 726 308.5 728.5 Q333 731 358 734 L363 734 Q370 734 374 725 Q372 724 370.5 723 Q369 722 367 722 Q354 720 341.5 719 Q329 718 315 716 Q298 714 280.5 712.5 Q263 711 246 709 L243 709 Q234 708 233.5 707 Q233 706 228 697 Q210 648 193.5 599.5 Q177 551 161 501 Q132 411 104 322 Q76 233 49 143 Q30 80 12.5 18 Q-5 -44 -22 -107 Q-29 -130 -35.5 -153 Q-42 -176 -48 -199 Q-48 -199 -50 -205 L-42 -205 Q-31 -203 -20 -202 Q-9 -201 2 -200 L10 -200 Q15 -202 15 -207 Q13 -208 12 -209 Q11 -210 9 -210 Q-1 -212 -11 -213 Q-21 -214 -31 -215 Q-37 -216 -42.5 -216.5 Q-48 -217 -53 -218 Q-55 -221 -55.5 -224.5 Q-56 -228 -58 -231 Q-61 -240 -69 -240 Q-72 -240 -74 -239 Q-82 -237 -81 -225 L-81 -222 Q-86 -223 -91 -223 Q-96 -223 -101 -225 L-143 -234 Q-152 -237 -158 -228 Q-156 -224 -149 -222 Q-139 -220 -129.5 -218 Q-120 -216 -109 -214 Q-101 -212 -94.5 -211.5 Q-88 -211 -80 -209 Q-79 -209 -78.5 -208.5 Q-78 -208 -76 -208 Q-72 -194 -68.5 -179 Q-65 -164 -61 -150 Q-42 -76 -23 -3 Q-4 70 15 144 Q27 194 40 242.5 Q53 291 67 340 Q90 416 115.5 490.5 Q141 565 170 639 Q176 654 182.5 668 Q189 682 195 697 Q197 701 198 704 Z " />
<glyph glyph-name="J" unicode="J" horiz-adv-x="317" d="M178 208 Q183 222 187 235 Q191 248 195 262 Q210 313 225 364.5 Q240 416 254 467 Q270 524 289 579 Q308 634 331 688 Q333 694 333 697 Q331 696 328 693 Q306 671 285 650 Q264 629 243 607 Q211 574 180.5 541.5 Q150 509 119 476 Q109 466 102 456 Q97 451 91 457 Q85 463 90 469 Q95 474 99.5 480 Q104 486 109 491 Q136 520 163.5 548 Q191 576 218 605 Q247 636 275.5 666.5 Q304 697 333 728 Q340 735 344 738 Q350 744 358 738 Q370 729 370 711 Q370 694 366 681 Q359 660 353 638.5 Q347 617 340 596 Q325 545 311.5 494.5 Q298 444 285 393 Q265 316 242.5 242 Q220 168 194 95 Q176 46 156 -1.5 Q136 -49 113 -94 Q100 -118 85.5 -141 Q71 -164 54 -184 Q38 -202 20.5 -215.5 Q3 -229 -18 -236 Q-42 -244 -65 -236 Q-109 -221 -118 -164 Q-122 -141 -120 -118.5 Q-118 -96 -113 -73 Q-100 -18 -69 27 Q-43 64 -15 98 Q13 132 44 161 Q59 175 75 187.5 Q91 200 108 210 Q116 215 125 218 Q134 221 142 222 Q158 223 173 213 L178 208 Z M-93 -135 Q-93 -139 -93 -144 Q-93 -149 -92 -154 Q-90 -184 -75 -204 Q-63 -218 -48 -218 Q-30 -217 -12 -202 Q-1 -193 8 -182 Q17 -171 26 -159 Q41 -136 54 -111.5 Q67 -87 78 -61 Q105 -1 127.5 61.5 Q150 124 172 188 Q174 195 170 199 Q166 205 162 205 Q152 205 147 204 Q132 199 121 192 Q104 183 88.5 170 Q73 157 59 143 Q32 117 8 87.5 Q-16 58 -39 26 Q-59 -3 -72 -35 Q-81 -58 -86.5 -82.5 Q-92 -107 -93 -135 Z " />
<glyph glyph-name="K" unicode="K" horiz-adv-x="320" d="M-84 -218 Q-83 -214 -82.5 -210 Q-82 -206 -81 -201 Q-76 -175 -70.5 -149 Q-65 -123 -59 -97 Q-46 -42 -32 12.5 Q-18 67 -3 121 L0 130 Q-3 132 -5.5 132 Q-8 132 -10 136 Q-9 138 -8.5 140 Q-8 142 -6 144 Q-2 151 2 158 Q6 165 10 172 Q12 174 12.5 177 Q13 180 15 183 Q20 198 23.5 213.5 Q27 229 32 245 Q35 251 33 258 Q30 265 36 266 Q39 268 41 274 Q47 294 52.5 314 Q58 334 64 354 Q90 435 119.5 513 Q149 591 183 669 Q183 672 185 674 L185 677 Q183 674 180 671 Q172 660 163.5 650 Q155 640 147 630 Q143 624 140 621 Q131 614 125 625 Q130 630 134 635 Q138 640 142 645 Q174 686 203 730 Q207 736 209 738 Q213 745 220 742 Q228 740 232.5 733.5 Q237 727 235 718 Q232 700 226 680 Q220 661 213.5 642.5 Q207 624 200 605 Q181 552 163 500 Q145 448 127 395 Q117 369 108 342 Q99 315 90 289 Q89 287 89 285.5 Q89 284 88 282 Q91 283 92 286 Q115 312 137 338 Q159 364 182 390 Q220 433 258.5 474.5 Q297 516 337 558 Q365 587 394 615.5 Q423 644 453 672 Q469 686 485.5 700.5 Q502 715 520 727 Q538 740 557 743 Q559 744 565 744 Q572 744 574 735 Q572 733 570 733 Q559 731 549 726.5 Q539 722 529 715 Q512 703 496.5 689.5 Q481 676 466 662 Q431 630 398.5 598 Q366 566 334 532 Q295 491 257.5 449.5 Q220 408 183 366 Q157 336 132 305.5 Q107 275 81 245 Q79 242 77 239.5 Q75 237 73 234 Q74 232 75 231 Q76 230 77 228 Q94 204 111.5 180 Q129 156 147 132 Q179 90 212.5 50 Q246 10 281 -28 Q298 -46 315.5 -63 Q333 -80 353 -96 Q365 -105 377.5 -112.5 Q390 -120 404 -125 Q406 -126 407.5 -126.5 Q409 -127 409 -129 Q408 -132 405 -135 Q401 -139 395 -137 Q369 -128 347 -113 Q327 -98 308.5 -81 Q290 -64 273 -46 Q235 -6 199 36 Q163 78 129 122 Q113 142 97.5 163 Q82 184 67 205 Q67 205 64 208 Q62 204 62 202 Q38 126 15 49.5 Q-8 -27 -28 -105 Q-33 -128 -38.5 -152 Q-44 -176 -49 -200 L-52 -218 Q-52 -224 -50 -227 Q-47 -233 -53 -237 Q-58 -240 -65.5 -240 Q-73 -240 -78 -236 Q-82 -230 -84 -226 L-84 -218 Z " />
<glyph glyph-name="L" unicode="L" horiz-adv-x="224" d="M-28 -162 Q-27 -172 -35 -173 Q-44 -176 -52 -173 Q-57 -171 -62 -172 Q-100 -185 -136.5 -200.5 Q-173 -216 -209 -234 Q-210 -234 -210.5 -234.5 Q-211 -235 -212 -235 Q-215 -239 -219 -238 Q-225 -236 -228 -231 Q-230 -227 -227 -226 Q-224 -223 -219 -221 Q-184 -199 -146.5 -183 Q-109 -167 -70 -154 Q-66 -153 -60 -151 Q-59 -151 -58 -150 L-55 -129 Q-50 -98 -43 -68 Q-36 -38 -28 -7 Q-5 84 19 174.5 Q43 265 69 356 Q92 437 119 514.5 Q146 592 178 670 Q180 675 181.5 679 Q183 683 185 688 L183 688 Q180 683 178 678 Q176 674 171 674 Q160 675 165 686 Q178 713 198 738 Q202 745 210 742 Q227 737 225 719 Q222 697 214 672 Q204 639 193.5 606.5 Q183 574 172 541 Q148 465 123 389.5 Q98 314 75 237 Q53 162 32 87 Q11 12 -9 -64 Q-14 -82 -17.5 -100 Q-21 -118 -25 -136 Q-26 -137 -26 -140 Q-22 -140 -18 -138 Q33 -122 84.5 -108 Q136 -94 188 -80 Q224 -71 260 -63 Q296 -55 334 -49 Q354 -46 373 -43.5 Q392 -41 412 -42 Q425 -43 436 -47 Q447 -51 455 -61 Q461 -69 463 -72 Q464 -74 463.5 -75 Q463 -76 463 -77 Q458 -77 458 -77 Q453 -74 452 -71 Q442 -59 426 -57 Q403 -56 375 -59 Q326 -66 278 -77 Q230 -88 181 -101 Q130 -115 79.5 -129.5 Q29 -144 -22 -160 Q-24 -161 -25 -161 Q-26 -161 -28 -162 Z " />
<glyph glyph-name="M" unicode="M" horiz-adv-x="555" d="M297 612 Q289 600 284 589 Q204 446 131 301 Q105 249 82 197 Q59 145 39 90 Q32 72 25.5 53.5 Q19 35 12 16 L6 1 Q3 -8 -5 -9 Q-14 -11 -20 -7 Q-26 -4 -25 2 Q-24 8 -23.5 14.5 Q-23 21 -21 27 Q-10 82 3.5 136.5 Q17 191 31 246 Q55 337 81.5 427 Q108 517 137 606 Q145 629 153.5 651.5 Q162 674 170 697 Q173 707 176.5 716.5 Q180 726 183 735 Q187 745 195 741 Q208 736 205 720 Q202 708 199 696 Q196 684 192 672 Q169 595 146.5 519 Q124 443 104 365 L59 200 Q59 199 58.5 198 Q58 197 59 195 Q59 196 61 198 Q87 256 116 311.5 Q145 367 175 423 Q210 488 244.5 551.5 Q279 615 314 680 Q320 691 326 702 Q332 713 338 724 Q340 726 342 730 Q346 735 352 733 Q359 729 363 723.5 Q367 718 364 707 Q362 699 359.5 692 Q357 685 355 678 Q321 580 292.5 481.5 Q264 383 237 282 Q226 241 215.5 200.5 Q205 160 196 118 Q195 116 196 112 Q197 114 198 115.5 Q199 117 200 119 Q215 146 229.5 173 Q244 200 260 226 Q292 283 327.5 336 Q363 389 399 442 Q441 502 482 561.5 Q523 621 565 681 Q573 692 581 704 Q589 716 597 728 Q599 731 602 734 Q605 737 607 740 Q612 746 621 742 Q627 737 632 728.5 Q637 720 634 706 Q632 696 629 686 Q626 676 623 666 Q614 642 604.5 618 Q595 594 586 570 Q566 518 549 465 Q532 412 515 358 Q478 241 446 123 Q414 5 387 -116 Q382 -140 377 -164.5 Q372 -189 368 -214 Q368 -217 367.5 -220 Q367 -223 367 -226 Q369 -234 362 -237 Q350 -243 337 -237 Q331 -234 331 -227 Q331 -221 331 -215 Q331 -209 332 -203 Q335 -178 340 -154 Q345 -130 350 -106 Q400 124 461 346 Q481 420 506 491.5 Q531 563 560 633 Q561 635 561 638 L558 635 Q523 587 489 540 Q455 493 423 443 Q393 398 363.5 353.5 Q334 309 305 262 Q283 225 263 187.5 Q243 150 223 112 Q215 95 203 77 Q199 71 197 69 Q184 54 166 62 Q158 67 157 77 Q157 86 158 95 Q159 104 161 113 Q168 153 177 192 Q186 231 197 270 Q219 356 243.5 439.5 Q268 523 297 607 Q297 608 297.5 609 Q298 610 298 612 L297 612 Z " />
<glyph glyph-name="N" unicode="N" horiz-adv-x="359" d="M177 -218 Q179 -220 179 -220 Q185 -224 184.5 -229 Q184 -234 179 -237 Q173 -242 163 -239.5 Q153 -237 148 -230 Q144 -223 144 -214 Q145 -205 145.5 -196.5 Q146 -188 148 -179 Q153 -148 159 -118 Q165 -88 173 -58 Q205 67 237.5 190.5 Q270 314 306 438 Q320 484 333 529 Q346 574 359 619 Q361 623 360 627 Q358 624 356.5 621.5 Q355 619 353 617 Q335 593 319 568 Q303 543 287 517 Q249 457 213 396 Q177 335 143 272 Q108 206 74 139.5 Q40 73 10 4 Q5 -7 0.5 -18 Q-4 -29 -9 -40 Q-11 -46 -12 -48 Q-17 -58 -25 -60.5 Q-33 -63 -41 -57 Q-45 -55 -45.5 -51 Q-46 -47 -46 -43 L-43 -16 Q-38 12 -32 39 Q-26 66 -19 93 Q1 175 24.5 255.5 Q48 336 71 417 Q88 475 105.5 533 Q123 591 141 649 Q146 667 152.5 685 Q159 703 165 720 Q167 725 169 729 Q171 733 173 738 Q177 744 182 742 Q189 740 192 733 Q192 730 191 729 Q183 700 174 670.5 Q165 641 157 612 Q125 487 91 364.5 Q57 242 22 117 Q18 104 15 91.5 Q12 79 8 66 Q8 64 7.5 62.5 Q7 61 7 59 Q8 60 10 64 Q53 155 100 242 Q147 329 198 414 L315 606 Q324 620 333 633 Q342 646 352 660 Q354 664 357 667 Q360 670 363 673 Q372 683 384 676 Q386 674 388 672 Q390 670 392 668 Q398 662 398 651 Q399 637 397 624 Q395 611 392 598 Q384 563 375 530 Q366 497 356 463 L296 265 Q270 175 246 85.5 Q222 -4 200 -95 Q194 -121 188.5 -146 Q183 -171 179 -197 Q178 -201 178 -204.5 Q178 -208 177 -212 L177 -218 Z " />
<glyph glyph-name="O" unicode="O" horiz-adv-x="476" d="M263 478 Q256 473 251 476 Q246 479 244 486 Q244 491 246 501 Q250 521 263 540 Q276 565 293 585.5 Q310 606 330 623 Q346 638 362 643 Q391 653 420 630 Q430 620 436 608 Q442 596 447 582 Q460 540 457 492 Q456 447 449 403.5 Q442 360 431 315 Q389 129 304 -43 Q288 -75 269.5 -105 Q251 -135 228 -161 Q209 -183 188 -200.5 Q167 -218 142 -229 Q107 -243 74 -239 Q53 -236 36 -223 Q19 -210 7 -190 Q-7 -170 -14.5 -147.5 Q-22 -125 -26 -99 Q-28 -87 -29 -74 Q-30 -61 -30 -48 Q-30 -19 -27 10 Q-20 78 -3.5 142.5 Q13 207 35 271 Q50 309 66.5 345.5 Q83 382 100 418 Q125 469 151 519 Q177 569 205 618 Q219 643 233.5 666 Q248 689 265 711 Q272 718 277.5 724 Q283 730 290 735 Q313 750 330 730 Q337 721 336 708 Q334 697 327 702 Q320 704 320 714 L320 715 Q321 730 310 724 Q307 722 304.5 720 Q302 718 298 715 Q282 699 268 677 Q251 653 236 627.5 Q221 602 207 575 Q178 522 151.5 468 Q125 414 100 357 Q74 296 52.5 233 Q31 170 17 103 Q12 75 7.5 46.5 Q3 18 1 -11 Q-1 -41 0.5 -70 Q2 -99 10 -128 Q15 -146 22 -161.5 Q29 -177 40 -191 Q50 -202 61 -209.5 Q72 -217 86 -219 Q104 -222 125 -212 Q143 -202 159.5 -188 Q176 -174 190 -157 Q209 -135 224.5 -110 Q240 -85 254 -59 Q274 -23 290 15.5 Q306 54 320 93 Q373 233 405 385 Q410 411 414.5 437.5 Q419 464 421 491 Q424 512 424.5 533.5 Q425 555 421 576 Q420 582 419 588 Q418 594 416 600 Q413 612 406 619 Q399 627 389 627 Q375 627 361 619 Q341 607 327 592 Q312 577 299 560.5 Q286 544 276 524 Q271 517 268 509.5 Q265 502 262 494 Q258 484 263 478 Z " />
<glyph glyph-name="P" unicode="P" horiz-adv-x="388" d="M133 181 Q136 182 139 183 Q142 184 144 185 Q155 190 163.5 197.5 Q172 205 181 213 Q203 233 222 255 Q241 277 259 301 Q332 397 381 502 Q389 520 396 538.5 Q403 557 408 576 Q414 597 413 614 Q413 625 409.5 628.5 Q406 632 396 633 Q385 635 375 632.5 Q365 630 355 626 Q325 614 299 594 Q196 520 126 414 L120 405 Q109 390 102.5 373.5 Q96 357 91 340 Q65 260 41.5 180.5 Q18 101 -3 20 Q-14 -19 -23.5 -58.5 Q-33 -98 -43 -137 Q-46 -153 -49 -168.5 Q-52 -184 -55 -199 Q-56 -204 -56 -213 Q-58 -219 -54 -224 Q-50 -228 -57 -235 Q-61 -237 -64.5 -237.5 Q-68 -238 -73 -238 Q-86 -238 -87 -223 Q-87 -218 -87 -212 Q-87 -206 -86 -200 Q-82 -181 -79.5 -163 Q-77 -145 -72 -126 Q-47 -14 -17.5 96.5 Q12 207 44 318 Q66 393 91.5 467 Q117 541 146 614 L179 701 Q180 704 181 707.5 Q182 711 182 715 L179 712 Q174 704 169 697.5 Q164 691 159 683 Q158 679 153 679 Q151 679 148 681 Q145 683 145 685 Q145 688 146 689 Q160 715 177 734 Q180 737 183 740 Q186 743 191 741 Q204 739 207 728 Q209 718 208 711 Q206 698 203.5 685.5 Q201 673 198 660 Q188 627 177 594.5 Q166 562 155 529 Q151 517 147 505.5 Q143 494 139 482 Q139 481 138.5 480.5 Q138 480 139 478 Q140 480 141 480.5 Q142 481 143 483 Q206 563 281 619 Q296 630 311.5 639.5 Q327 649 344 656 Q352 659 360.5 661 Q369 663 378 663 Q407 664 430 638 Q456 607 448 560 Q445 537 437 516 Q429 495 419 475 Q400 437 378 402 Q356 367 332 333 Q311 303 287.5 275 Q264 247 238 221 Q210 192 177 173 Q162 164 146 161 Q130 158 116 166 Q100 175 106 196 Q109 206 115 217 Q135 253 158.5 287 Q182 321 210 352 Q221 364 232 375 Q243 386 257 394 Q267 401 275 402 Q292 405 302 391 Q304 389 304 386.5 Q304 384 305 381 Q305 374 299 376 Q291 378 290 385 Q289 391 283 389 Q280 388 277 386.5 Q274 385 271 383 Q260 375 250.5 365.5 Q241 356 231 346 Q205 316 183.5 283.5 Q162 251 143 216 Q133 198 133 181 Z " />
<glyph glyph-name="Q" unicode="Q" horiz-adv-x="412" d="M120 -49 Q127 -57 133 -65.5 Q139 -74 146 -82 Q171 -111 198 -136.5 Q225 -162 254 -184 Q268 -195 282 -204 Q296 -213 312 -218 Q316 -220 320 -220.5 Q324 -221 328 -222 Q336 -222 340 -215 Q345 -205 345 -195 Q345 -188 351.5 -183 Q358 -178 363 -181 Q366 -183 366 -187 Q368 -197 364 -208.5 Q360 -220 352 -227 Q340 -236 327 -239 Q317 -241 307.5 -239.5 Q298 -238 289 -235 Q273 -229 258.5 -221 Q244 -213 230 -203 Q162 -153 105 -87 L93 -72 Q91 -68 90 -67 Q87 -68 84.5 -69 Q82 -70 80 -71 Q51 -85 23 -83 Q-6 -81 -23.5 -59 Q-41 -37 -40 -5 Q-40 15 -32 36 Q-31 42 -27 47 Q-9 81 24 70 Q31 68 37 64.5 Q43 61 48 56 Q58 47 65.5 36 Q73 25 81 13 Q86 5 91.5 -4 Q97 -13 102 -21 Q103 -23 104 -24 Q105 -25 106 -27 Q111 -23 114.5 -20 Q118 -17 121 -13 Q144 9 162 33.5 Q180 58 197 85 Q254 176 297.5 273.5 Q341 371 370 477 Q378 503 383 529 Q388 555 393 581 Q396 604 397 625.5 Q398 647 395 669 Q394 676 392.5 682.5 Q391 689 389 695 Q384 710 368 713 Q356 715 344 713 Q332 711 321 707 Q301 699 283 688 Q265 677 248 663 Q191 616 148.5 557.5 Q106 499 79 425 Q57 368 55 306 Q55 287 60 276 Q62 269 66 266 Q72 264 66 260 Q58 254 51 260 Q47 263 46 268 Q44 274 44 277 Q42 295 40 312.5 Q38 330 40 348 Q42 377 49 405 Q56 433 67 459 Q85 506 110 547 Q135 588 167 624 Q189 649 212.5 670.5 Q236 692 262 709 Q288 728 315 736 Q350 748 376.5 735 Q403 722 419 693 Q428 677 432 660 Q436 643 438 624 Q441 583 433 537 Q423 480 406.5 427 Q390 374 368 322 Q342 260 312 202 Q282 144 245 89 Q228 63 209 38.5 Q190 14 167 -8 Q150 -26 126 -44 Q123 -47 120 -49 Z M77 -48 Q73 -40 69.5 -33.5 Q66 -27 62 -19 L29 41 Q27 44 24.5 47 Q22 50 19 53 Q15 59 8 54 Q5 51 1.5 48 Q-2 45 -4 41 Q-24 7 -15 -28 Q-3 -69 35 -66 Q46 -64 56.5 -59.5 Q67 -55 77 -48 Z " />
<glyph glyph-name="R" unicode="R" horiz-adv-x="384" d="M138 198 Q140 190 142 186 Q156 144 171 102 Q184 70 199 41 Q214 12 231 -17 Q245 -43 260.5 -67.5 Q276 -92 293 -115 Q300 -125 307 -134 Q314 -143 323 -151 Q332 -160 336 -145 L336 -144 Q348 -139 352 -151 Q356 -162 345 -169 Q337 -174 329 -169 Q324 -167 319.5 -164 Q315 -161 310 -158 Q300 -150 292 -140.5 Q284 -131 276 -120 Q253 -89 233.5 -56.5 Q214 -24 195 10 Q181 36 167 62.5 Q153 89 141 117 Q133 135 126.5 154 Q120 173 115 193 Q114 196 114 198.5 Q114 201 113 204 Q113 212 119 214 Q131 220 141 228.5 Q151 237 161 247 Q194 279 225.5 311.5 Q257 344 288 378 Q311 403 332 428.5 Q353 454 372 483 Q380 495 387.5 507 Q395 519 400 533 Q404 542 407 553 Q409 560 408 561.5 Q407 563 401 565 Q396 567 390.5 567 Q385 567 380 567 Q352 562 328 551 Q302 538 277.5 522.5 Q253 507 229 488 Q218 479 207 470 Q196 461 185 451 Q180 448 179 442 Q159 379 140 316 Q121 253 103 189 Q83 123 65 58 Q47 -7 28 -73 L-17 -226 Q-17 -227 -17.5 -227.5 Q-18 -228 -18 -229 Q-18 -234 -20 -235 Q-23 -238 -27 -238 Q-33 -238 -35 -237 Q-42 -234 -39 -225 L-18 -150 Q-2 -92 13.5 -34.5 Q29 23 45 80 Q59 132 73 183.5 Q87 235 101 286 Q108 312 115 338 Q122 364 129 390 Q130 391 130 393 Q129 392 128.5 392 Q128 392 127 391 Q105 365 87 336 Q69 307 56 273 Q52 263 49 252.5 Q46 242 45 231 Q44 228 44 222 Q46 220 50 218 Q50 217 50.5 216 Q51 215 51 214 Q51 213 47 211 Q41 209 35 213 Q29 217 27 225 Q25 235 27 246 Q29 265 35.5 282.5 Q42 300 50 317 Q66 351 87 381 Q108 411 134 437 Q147 449 153 468 Q167 518 183.5 567 Q200 616 218 665 Q219 667 219 668.5 Q219 670 220 672 L214 675 Q208 679 212 685 Q217 695 222.5 704.5 Q228 714 234 724 Q236 727 237.5 730.5 Q239 734 241 737 Q246 744 251 741 Q255 739 259.5 734 Q264 729 262 721 Q260 713 258 704.5 Q256 696 254 688 L215 559 Q210 545 206 530 Q202 515 197 500 Q196 498 196 497 Q196 496 195 494 Q199 496 200 497 Q225 517 250.5 535 Q276 553 303 568 Q318 577 334 584 Q350 591 367 595 Q375 597 383.5 597 Q392 597 400 594 Q408 591 414 585 Q434 565 433 532 Q430 509 419 485 Q410 468 399.5 452.5 Q389 437 377 422 Q350 389 321.5 358.5 Q293 328 262 299 Q239 278 216 258 Q193 238 169 219 Q157 209 140 200 L138 198 Z " />
<glyph glyph-name="S" unicode="S" horiz-adv-x="452" d="M349 93 Q366 85 377.5 73 Q389 61 389 50 Q382 46 376 53 Q374 57 373 58 Q364 75 349 81 Q344 83 342.5 82.5 Q341 82 339 78 Q317 46 293.5 16.5 Q270 -13 244 -42 Q218 -73 189.5 -101.5 Q161 -130 132 -156 Q112 -174 90.5 -190 Q69 -206 46 -219 Q35 -225 24 -230 Q13 -235 2 -237 Q-19 -242 -36 -236 Q-47 -232 -52 -225 Q-61 -216 -58 -201 Q-55 -185 -47 -170 Q-39 -153 -28.5 -139.5 Q-18 -126 -7 -113 Q6 -98 20.5 -85.5 Q35 -73 49 -60 Q78 -34 108.5 -10.5 Q139 13 171 34 Q196 51 221.5 64.5 Q247 78 274 88 Q281 90 288 91.5 Q295 93 302 95 Q306 97 307 99 Q317 114 325 129.5 Q333 145 340 162 Q344 172 346.5 181.5 Q349 191 349 202 Q351 229 336 248 Q328 258 319 264.5 Q310 271 300 277 Q283 286 266 293 Q249 300 232 307 Q208 316 183.5 324.5 Q159 333 135 342 Q109 352 83 370 Q74 377 66 384 Q58 391 51 401 Q32 432 43 469 Q47 482 52.5 493.5 Q58 505 64 516 Q76 535 89 552 Q102 569 117 585 Q144 617 174 644 Q204 671 238 693 Q261 708 284 719.5 Q307 731 332 737 Q343 739 353.5 741 Q364 743 375 741 Q394 739 411 729 Q439 711 442 670 Q444 656 443 643 Q442 630 440 616 Q435 585 428 554.5 Q421 524 412 495 Q405 473 394 449 Q392 447 391 444 Q390 441 388 439 Q380 429 370 436 Q367 438 369 444 Q373 455 377 466 Q381 477 384 488 Q395 520 402.5 553 Q410 586 415 619 Q417 635 418.5 650 Q420 665 418 680 Q416 692 414 699 Q410 716 391 718 Q379 720 366.5 717.5 Q354 715 342 711 Q322 704 304 694 Q286 684 268 672 Q179 609 112 516 Q104 505 96 492.5 Q88 480 83 466 Q81 460 79 453.5 Q77 447 75 440 Q69 415 85 396 Q96 384 110 377 Q124 369 139.5 362.5 Q155 356 170 351 Q195 341 220 332 Q245 323 270 313 Q305 301 334 279 Q352 268 368 247 Q396 210 381 161 Q372 132 355 105 L349 93 Z M-24 -217 Q-22 -217 -20 -216.5 Q-18 -216 -16 -216 Q3 -209 23 -196 Q44 -183 63 -168.5 Q82 -154 100 -138 Q130 -111 158.5 -82.5 Q187 -54 214 -23 Q234 0 252.5 23 Q271 46 289 71 L292 77 L290 77 Q288 76 287 76 Q286 76 284 75 Q242 59 200 31 Q156 2 115.5 -30 Q75 -62 37 -100 Q21 -115 8.5 -133.5 Q-4 -152 -15 -172 Q-23 -188 -26 -204 Q-26 -207 -26 -210.5 Q-26 -214 -24 -217 Z " />
<glyph glyph-name="T" unicode="T" horiz-adv-x="140" d="M-235 616 Q-131 639 -27.5 654.5 Q76 670 181 684 Q185 690 186 693 Q189 697 192 696 Q198 695 203 691 Q207 687 211 688 Q225 690 238.5 692 Q252 694 266 696 Q277 698 288.5 699 Q300 700 312 702 Q326 704 340.5 706 Q355 708 370 710 L418 716 L469 722 Q480 724 489.5 725 Q499 726 510 727 Q522 729 534 730 Q546 731 558 732 Q566 733 574.5 733.5 Q583 734 592 735 Q602 736 611.5 736 Q621 736 630 736 Q635 736 639 736 Q643 736 647 734 Q659 730 662 714 Q664 709 660 706 Q657 704 652 706 Q649 709 644 709 Q629 708 614.5 707.5 Q600 707 586 705 Q575 704 563.5 703 Q552 702 541 701 Q527 699 514 697.5 Q501 696 488 694 Q478 693 468.5 692 Q459 691 449 689 L401 683 Q389 681 377.5 680 Q366 679 355 677 Q341 675 326 673 Q311 671 297 669 Q286 667 275.5 666 Q265 665 254 663 Q240 661 227 659 Q214 657 200 655 Q199 653 198.5 651 Q198 649 197 647 Q173 581 151.5 514 Q130 447 108 380 Q82 299 58 218 Q34 137 10 56 Q-4 5 -18 -46.5 Q-32 -98 -46 -149 Q-51 -167 -55 -185.5 Q-59 -204 -63 -222 Q-64 -224 -64 -229 Q-64 -235 -69 -237 Q-77 -240 -83 -237 Q-88 -235 -88 -229 Q-87 -224 -87 -219.5 Q-87 -215 -86 -210 Q-80 -185 -74.5 -160 Q-69 -135 -62 -110 Q-32 8 1 123.5 Q34 239 67 356 Q83 410 100 462.5 Q117 515 135 568 Q137 572 137 580 Q135 589 138 596 Q140 605 144 613.5 Q148 622 153 631 Q155 636 157.5 640 Q160 644 163 649 Q157 649 152 648.5 Q147 648 142 647 Q129 645 116.5 643 Q104 641 91 639 L31 630 L-26 621 Q-43 618 -59 615.5 Q-75 613 -92 610 Q-104 608 -116.5 606.5 Q-129 605 -142 603 Q-153 601 -164 599.5 Q-175 598 -186 596 Q-202 594 -217 593 Q-232 592 -248 593 Q-262 593 -271 603 Q-285 617 -266 627 Q-256 631 -245 628 Q-238 627 -235 616 Z " />
<glyph glyph-name="U" unicode="U" horiz-adv-x="364" d="M266 317 Q264 312 262 308 Q260 304 258 299 Q235 244 210.5 189.5 Q186 135 160 81 Q149 61 139 40.5 Q129 20 116 2 Q103 -17 89 -30 Q68 -46 48 -45 Q26 -45 17 -18 Q12 -7 10.5 4.5 Q9 16 8 29 Q6 52 7 75.5 Q8 99 10 122 Q17 195 31 264 Q45 333 64 400 Q78 452 94 502 Q110 552 130 600 Q139 625 150 648.5 Q161 672 172 695 Q175 701 178 706.5 Q181 712 184 717 Q191 726 199 722 Q202 720 206 716 Q211 710 211 706 Q211 702 209 697 Q201 678 194 660 Q187 642 180 623 Q150 546 126 466.5 Q102 387 82 303 Q74 274 68 244 Q62 214 57 183 Q52 155 49.5 127.5 Q47 100 46 71 Q44 44 49 17 Q50 5 55 -7 Q56 -12 62 -18 Q66 -16 68.5 -13 Q71 -10 74 -6 Q79 2 84.5 10 Q90 18 95 26 Q114 56 131 87.5 Q148 119 165 151 Q196 211 224.5 271 Q253 331 281 393 Q286 407 292 419.5 Q298 432 304 445 Q306 449 307 453 Q308 457 310 462 Q324 506 338.5 548 Q353 590 370 632 Q381 658 393 683 Q405 708 420 730 Q422 735 427 741 Q430 746 436 744 Q445 740 449 730 Q450 724 449 718 Q445 711 444 705 Q424 661 404 613 Q384 564 367.5 513.5 Q351 463 335 412 Q293 274 257 135 Q221 -4 189 -147 Q185 -164 182 -180.5 Q179 -197 175 -214 Q174 -218 174 -226 Q172 -235 169 -237 Q160 -246 148 -241 Q143 -240 143 -231 L143 -227 Q140 -221 145 -216 Q145 -215 145.5 -214 Q146 -213 146 -211 Q156 -154 168 -99 Q180 -44 194 12 Q211 83 228 153 Q245 223 262 295 Q263 300 264 305.5 Q265 311 267 316 L266 317 Z " />
<glyph glyph-name="V" unicode="V" horiz-adv-x="332" d="M485 727 Q464 686 443 645.5 Q422 605 401 563 Q330 423 260 284 Q190 145 121 2 Q100 -42 80.5 -86.5 Q61 -131 42 -176 Q37 -186 33 -196 Q29 -206 24 -216 L21 -222 Q13 -236 0.5 -239 Q-12 -242 -24 -232 Q-33 -225 -34 -215 Q-35 -210 -35.5 -205 Q-36 -200 -36 -195 Q-37 -176 -35 -157 Q-33 -138 -31 -119 Q-23 -48 -9.5 21.5 Q4 91 20 160 Q37 238 56 314.5 Q75 391 97 468 Q105 498 114 528 Q123 558 132 588 Q133 591 133 596 Q131 592 129 588.5 Q127 585 125 581 Q122 576 117.5 575.5 Q113 575 111 580 Q108 583 110 586 Q110 589 112 593 Q121 610 130 626.5 Q139 643 148 660 Q153 670 163 666 Q177 659 176 640 Q174 629 172.5 618 Q171 607 168 596 Q157 551 146.5 505.5 Q136 460 125 415 Q105 330 86.5 247 Q68 164 51 79 Q43 42 36 6 Q29 -30 22 -67 Q17 -92 13 -117 Q9 -142 7 -167 L7 -174 Q8 -171 9 -169 Q10 -167 11 -165 Q23 -138 35 -111 Q47 -84 61 -57 Q90 3 119 61 Q148 119 177 178 Q283 389 393 601 Q409 633 426.5 664 Q444 695 461 727 Q462 732 467 737 Q471 744 476 740 Q482 737 485 730 L485 727 Z " />
<glyph glyph-name="W" unicode="W" horiz-adv-x="612" d="M183 686 Q181 685 179.5 684 Q178 683 176 682 Q155 663 134.5 643 Q114 623 94 602 Q49 556 9 497 Q7 492 4 487 Q1 482 -3 477 Q-5 475 -4.5 473 Q-4 471 -5 469 Q-7 463 -13.5 460 Q-20 457 -25 461 Q-28 464 -27 468 Q-26 474 -23 479 Q-15 495 -4.5 509 Q6 523 16 537 Q39 570 66 599 Q93 628 122 656 Q134 668 146 679.5 Q158 691 169 702 Q178 711 187 715 Q201 725 213 711 Q220 702 219 692 Q215 681 213 670.5 Q211 660 207 649 Q196 617 184.5 585.5 Q173 554 162 522 Q133 442 108.5 361.5 Q84 281 62 199 Q48 148 35.5 98 Q23 48 12 -3 Q4 -40 -0.5 -77 Q-5 -114 -9 -152 Q-11 -164 -10.5 -175.5 Q-10 -187 -12 -198 Q-11 -199 -10 -199 Q-8 -195 -8 -193 Q4 -167 15 -141 Q26 -115 38 -89 Q74 -9 112.5 68 Q151 145 191 223 Q234 308 274.5 393 Q315 478 353 567 Q359 581 365 594.5 Q371 608 376 622 Q380 633 390 629 Q392 628 393.5 627.5 Q395 627 397 626 Q404 622 405.5 617 Q407 612 406 604 Q403 595 400.5 585.5 Q398 576 395 567 Q376 507 360 446 Q344 385 330 323 Q317 265 305.5 207 Q294 149 286 89 Q281 59 277 29 Q273 -1 272 -32 Q269 -70 273 -104 Q275 -109 275.5 -114.5 Q276 -120 278 -125 Q280 -128 281.5 -131 Q283 -134 285 -139 Q290 -134 291 -132 Q296 -124 302 -116 Q308 -108 313 -100 Q342 -54 367 -7.5 Q392 39 417 87 Q479 208 536 331.5 Q593 455 646 583 Q661 620 674 657.5 Q687 695 698 733 Q699 744 709 740 Q710 740 714 738 Q723 734 720 723 Q716 710 713.5 697 Q711 684 707 671 Q696 630 681.5 591.5 Q667 553 652 515 Q596 383 537 256 Q478 129 412 4 Q396 -25 381 -52.5 Q366 -80 349 -107 Q340 -120 331.5 -130.5 Q323 -141 312 -150 Q304 -156 295.5 -160 Q287 -164 277 -166 Q262 -169 253 -162.5 Q244 -156 240 -142 Q238 -134 236 -126.5 Q234 -119 234 -111 Q230 -91 229.5 -70.5 Q229 -50 231 -30 Q234 32 243 91 Q252 150 263 210 Q274 263 285.5 314.5 Q297 366 311 418 Q312 420 312 425 Q310 421 309 420 Q277 356 244.5 292 Q212 228 179 164 Q143 92 109 18 Q75 -56 43 -131 Q35 -150 27 -168 Q19 -186 11 -204 Q8 -211 4.5 -217 Q1 -223 -3 -230 Q-9 -243 -26 -243 Q-40 -241 -43 -228 Q-45 -220 -45.5 -212 Q-46 -204 -47 -196 Q-49 -170 -47.5 -145 Q-46 -120 -44 -94 Q-37 -31 -25 29 Q-13 89 2 149 Q49 349 121 539 Q135 574 150 608 Q165 642 179 677 Q181 679 181.5 681 Q182 683 184 685 Q183 686 183 686 Z " />
<glyph glyph-name="X" unicode="X" horiz-adv-x="268" d="M-138 -239 Q-138 -239 -142 -237 Q-149 -233 -147 -224 Q-145 -218 -143 -211.5 Q-141 -205 -138 -198 Q-124 -166 -109 -136 Q-94 -106 -78 -76 Q-40 -3 0 68.5 Q40 140 82 212 Q84 216 85 219 Q86 222 85 227 Q83 250 81.5 272 Q80 294 79 317 Q76 398 82 479 Q85 511 89.5 543 Q94 575 102 607 Q103 608 103 611 Q100 609 92.5 601 Q85 593 76 582.5 Q67 572 59.5 562 Q52 552 50 548 Q48 549 47 549 Q46 549 44 550 Q34 553 40 562 Q42 566 44.5 569 Q47 572 49 575 Q63 592 76 608 Q89 624 102 640 Q106 645 109.5 648 Q113 651 118 649 Q133 646 136 634 Q137 631 137 624 Q136 613 135.5 601.5 Q135 590 133 579 Q131 556 129.5 532 Q128 508 127 484 Q125 452 125 421.5 Q125 391 125 359 Q125 344 125.5 328.5 Q126 313 127 298 Q127 295 128 294 Q131 297 132 299 Q152 334 173 369 Q194 404 215 439 Q247 491 282 540.5 Q317 590 356 638 Q371 656 386 673 Q401 690 418 707 Q433 722 450 736 Q455 740 463 743 Q469 745 473.5 742 Q478 739 479 733 Q470 728 464 721.5 Q458 715 452 707 Q409 658 370 607 Q331 556 294 502 Q250 439 210 375.5 Q170 312 131 246 Q129 240 129 236 Q132 204 134 171.5 Q136 139 140 106 Q145 52 151 -2 Q157 -56 168 -110 Q170 -121 172.5 -131.5 Q175 -142 177 -153 Q177 -154 177.5 -155 Q178 -156 178 -158 Q180 -159 182.5 -159 Q185 -159 187 -160 Q198 -165 200.5 -177 Q203 -189 199 -197 Q196 -203 189 -207 Q178 -212 168 -210 Q165 -209 162 -207.5 Q159 -206 157 -203 Q155 -198 152.5 -193 Q150 -188 148 -183 Q143 -167 139 -151 Q135 -135 132 -118 Q123 -74 116 -30 Q109 14 104 59 Q100 87 97 114.5 Q94 142 91 169 Q91 170 90.5 171 Q90 172 90 174 Q87 171 87 169 Q45 97 4.5 25 Q-36 -47 -75 -121 Q-87 -144 -98 -166 Q-109 -188 -119 -211 Q-123 -221 -125 -225 Q-124 -227 -124 -227 Q-120 -233 -126 -237 Q-128 -239 -129 -239 L-138 -239 Z " />
<glyph glyph-name="Y" unicode="Y" horiz-adv-x="384" d="M438 741 Q459 729 452 700 Q447 682 442 664.5 Q437 647 432 630 Q409 555 386.5 480 Q364 405 341 330 Q318 252 292.5 176 Q267 100 240 23 Q239 21 238.5 19 Q238 17 237 14 Q239 13 240 13 Q241 13 243 12 Q267 6 285 -18 Q285 -19 285.5 -19 Q286 -19 286 -20 Q287 -22 288 -24.5 Q289 -27 288 -29 Q287 -32 285 -32 Q283 -32 281 -31 Q274 -31 269 -24 Q259 -9 246 -5 Q236 -1 231 -2 Q225 -18 218.5 -33.5 Q212 -49 207 -64 Q197 -88 187 -110.5 Q177 -133 166 -156 Q157 -173 147 -188.5 Q137 -204 125 -217 Q102 -243 71 -243 Q48 -241 33 -221 Q22 -205 25 -179 Q28 -163 38 -144 Q52 -122 66.5 -102.5 Q81 -83 98 -65 Q108 -53 119.5 -42.5 Q131 -32 142 -22 Q160 -7 180 3 Q186 5 189 14 Q206 70 223.5 124.5 Q241 179 258 235 Q281 309 303.5 381.5 Q326 454 349 528 Q354 544 359.5 559.5 Q365 575 371 591 Q372 593 372 595 Q372 597 373 599 L372 599 Q365 588 358 576 Q351 564 345 553 Q315 500 285 447.5 Q255 395 225 342 Q201 301 177 261 Q153 221 127 182 Q122 173 115 164.5 Q108 156 102 148 Q97 141 91 135.5 Q85 130 78 128 Q61 123 49.5 130.5 Q38 138 35 158 Q33 169 33 179.5 Q33 190 33 201 Q35 233 39 264 Q43 295 49 327 Q63 396 83 462.5 Q103 529 126 595 Q128 600 129 604.5 Q130 609 132 614 Q132 615 131 616 Q128 620 127.5 621.5 Q127 623 130 628 Q136 641 141.5 653 Q147 665 154 677 Q158 685 161.5 692.5 Q165 700 169 708 Q172 713 174 714 Q176 715 180 713 Q192 705 188 689 Q181 669 175.5 648 Q170 627 162 607 Q147 559 132.5 511.5 Q118 464 105 415 Q94 368 84.5 321.5 Q75 275 71 227 Q69 210 68.5 194 Q68 178 70 162 Q70 160 70.5 159 Q71 158 71 156 Q73 158 74.5 159.5 Q76 161 78 163 Q92 179 103.5 196 Q115 213 128 231 Q163 282 194.5 334 Q226 386 258 440 Q300 512 340.5 583.5 Q381 655 422 727 Q426 733 427 736 Q432 743 438 741 Z M168 -46 Q171 -39 175 -25 Q174 -26 170 -28 Q138 -53 111 -85.5 Q84 -118 61 -156 Q59 -161 56.5 -165.5 Q54 -170 53 -175 Q51 -187 51.5 -197.5 Q52 -208 59 -216 Q70 -232 87 -219 Q99 -209 105 -199 Q109 -191 112.5 -184.5 Q116 -178 119 -170 Q134 -140 145.5 -109 Q157 -78 168 -46 Z " />
<glyph glyph-name="Z" unicode="Z" horiz-adv-x="356" d="M412 733 Q417 725 419 713 L419 705 Q415 695 409 687.5 Q403 680 397 673 Q369 639 341.5 606.5 Q314 574 287 540 Q255 498 222.5 457 Q190 416 158 374 Q155 369 151.5 364.5 Q148 360 145 355 Q147 356 148 356 Q149 356 150 357 Q164 361 176.5 364.5 Q189 368 203 370 Q215 372 226.5 371 Q238 370 249 363 Q281 345 290 301 Q294 284 294 267.5 Q294 251 292 234 Q288 199 278.5 166.5 Q269 134 256 102 Q255 100 254.5 98 Q254 96 252 94 L258 91 Q286 80 304 52 Q306 49 310 41 Q310 36 309 35 Q307 33 304 35 Q302 37 300.5 38.5 Q299 40 297 42 Q282 63 257 69 Q252 70 242 70 Q240 68 239.5 65.5 Q239 63 237 61 Q211 7 180.5 -42.5 Q150 -92 114 -136 Q96 -158 76.5 -177.5 Q57 -197 35 -211 Q-3 -236 -40 -239 Q-52 -240 -62.5 -238 Q-73 -236 -84 -229 Q-88 -227 -88 -227 Q-108 -213 -112.5 -190.5 Q-117 -168 -105 -145 Q-102 -137 -98 -131 Q-94 -125 -89 -119 Q-36 -54 23.5 -4.5 Q83 45 152 77 Q164 82 176 86 Q188 90 200 93 Q206 95 207 99 Q222 131 234.5 165 Q247 199 255 234 Q259 250 261.5 265.5 Q264 281 264 298 Q264 303 263.5 309 Q263 315 263 320 Q262 330 252 333 Q245 337 238 337.5 Q231 338 223 337 Q206 335 190 330.5 Q174 326 157 319 Q141 312 126 305 Q111 298 95 291 Q89 287 85 286 Q79 284 76 285 Q60 291 53 309 Q50 319 55 325 Q61 333 66.5 340.5 Q72 348 78 356 Q128 423 179 487 Q230 551 283 613 Q301 634 319 653.5 Q337 673 355 693 Q357 694 359 696 L359 697 L356 697 Q291 675 228 649 Q165 623 104 588 Q95 583 85.5 576.5 Q76 570 67 564 Q66 563 65 562.5 Q64 562 63 561 Q58 555 53 560 Q50 563 49 565 Q45 572 49 578 Q54 583 62 589 Q80 603 99.5 614 Q119 625 139 636 Q174 654 210.5 669.5 Q247 685 284 699 L386 738 Q388 739 389.5 739.5 Q391 740 393 741 Q405 744 412 733 Z M184 52 Q185 53 187 58 Q181 56 179 55 Q145 41 115 21 Q75 -4 39 -35 Q3 -66 -31 -103 Q-42 -114 -52 -127 Q-62 -140 -72 -153 Q-83 -166 -88 -185 Q-91 -206 -77 -213 Q-71 -216 -64.5 -216.5 Q-58 -217 -52 -217 Q-37 -215 -23 -209 Q-9 -203 4 -194 Q22 -181 37.5 -165 Q53 -149 67 -132 Q101 -90 129.5 -44 Q158 2 184 52 Z " />
<glyph glyph-name="zero" unicode="0" horiz-adv-x="216" d="M139 398 Q131 394 122 384 Q111 371 102 356.5 Q93 342 85 326 Q56 268 50 208 Q48 194 48.5 181.5 Q49 169 52 156 Q53 152 54.5 148.5 Q56 145 58 142 Q61 136 68 139 Q86 144 100 159 Q113 173 123 188 Q133 203 142 220 Q149 233 153.5 246.5 Q158 260 162 274 Q166 287 169.5 300 Q173 313 175 326 Q175 329 175.5 332 Q176 335 176 338 Q177 341 174 346 Q170 350 177 353 Q184 356 191 353 Q198 350 199 343 Q201 337 199 329 Q197 309 193 292 Q191 279 187.5 266.5 Q184 254 181 241 Q177 229 171.5 217 Q166 205 159 194 Q151 181 142.5 170 Q134 159 123 148 Q98 123 67 120 Q55 118 43.5 120.5 Q32 123 23 132 Q12 141 9 160 Q6 176 6.5 193 Q7 210 9 227 Q18 292 56 355 Q71 382 95 403 Q102 408 109.5 412 Q117 416 125 417 Q139 418 151.5 409.5 Q164 401 164 381 Q164 365 159 355 Q159 354 158.5 353.5 Q158 353 158 352 Q151 340 140 348 Q137 350 139 354 Q143 363 143.5 372 Q144 381 142 390 Q140 396 139 398 Z " />
<glyph glyph-name="one" unicode="1" horiz-adv-x="156" d="M18 112 Q13 116 11.5 121.5 Q10 127 11 133 Q13 143 14.5 152.5 Q16 162 18 172 Q27 213 39 252 Q51 291 63 331 Q66 342 70 351 Q74 360 78 371 Q78 372 78.5 372.5 Q79 373 79 374 Q77 373 76.5 372.5 Q76 372 74 371 Q65 364 58 371 Q55 373 59 377 Q67 386 76 395.5 Q85 405 94 415 Q95 417 96 417.5 Q97 418 98 420 Q101 427 108 425 Q116 423 120 419 Q129 413 125 401 Q121 389 117.5 376.5 Q114 364 109 352 Q102 332 95 312.5 Q88 293 81 273 Q72 245 64 217.5 Q56 190 48 161 Q46 152 44.5 143 Q43 134 41 125 L41 121 Q41 116 46 116 Q51 117 56 117.5 Q61 118 66 119 Q74 120 80.5 120.5 Q87 121 95 119 Q97 119 99.5 118 Q102 117 104 116 Q106 113 105 112 Q105 110 102 110 Q101 109 99 109 Q92 111 85.5 110.5 Q79 110 72 109 Q55 105 38.5 102 Q22 99 5 95 Q0 94 -4.5 93 Q-9 92 -14 91 Q-22 88 -27 93 Q-32 97 -26 100 Q-21 102 -15.5 103.5 Q-10 105 -5 107 Q0 109 6 109.5 Q12 110 18 112 Z " />
<glyph glyph-name="two" unicode="2" horiz-adv-x="194" d="M16 115 L37 118 Q52 120 67 122 Q82 124 97 126 Q106 127 115 128 Q124 129 133 132 Q136 133 144 131 Q151 129 144 124 Q136 119 125 117 Q102 113 80 109.5 Q58 106 36 102 Q28 101 21 100 Q14 99 6 98 Q0 98 -6 99 Q-12 100 -17 105 Q-23 111 -20 117 Q-12 135 -4 148 Q10 174 26 199.5 Q42 225 59 250 Q73 272 86 293.5 Q99 315 111 338 Q116 348 120.5 357.5 Q125 367 128 378 Q131 388 130 396 Q129 400 125 399 Q121 397 117 394.5 Q113 392 109 389 Q80 366 67 331 Q64 326 65 319 Q64 318 64 317 Q63 316 62 316 Q55 313 49 317 Q43 321 43 329 Q43 340 48 352 Q65 386 94 406 Q118 424 143 412 Q162 402 161 378 Q161 367 158 357 Q155 347 150 337 Q140 314 128.5 293.5 Q117 273 104 253 Q84 219 62.5 186 Q41 153 19 121 Q18 119 17.5 118 Q17 117 16 115 Z " />
<glyph glyph-name="three" unicode="3" horiz-adv-x="176" d="M2 117 Q15 122 24 131 Q52 156 72.5 186 Q93 216 105 253 Q108 264 109 274.5 Q110 285 108 296 Q106 301 103 306 Q101 311 97 312 Q93 313 89 314 Q73 316 63 322 Q57 326 55 328 Q49 337 55 345 Q59 352 66 359 Q74 367 82.5 374.5 Q91 382 99 390 L104 395 L103 396 Q90 391 78 384.5 Q66 378 56 367 Q54 365 53 362 Q52 359 50 357 Q47 354 50 352 Q51 347 47 346 Q44 346 38 348 Q21 355 31 371 Q35 380 46 389 Q60 400 74.5 407.5 Q89 415 106 417 Q115 419 123.5 417 Q132 415 139 408 Q146 399 142 390 Q137 380 126 369 Q114 354 97 339 Q96 337 92 333 Q97 331 102 329.5 Q107 328 112 326 Q144 310 146 269 Q147 253 142.5 238 Q138 223 130 209 Q117 183 101 161.5 Q85 140 64 122 Q53 114 42 107.5 Q31 101 18 98 Q10 97 2 97.5 Q-6 98 -14 102 Q-30 107 -30 121 Q-30 126 -29 130 Q-28 134 -26 139 Q-20 159 -11.5 177 Q-3 195 9 212 Q16 223 23.5 232 Q31 241 42 248 Q57 256 70 259 Q77 259 82 255 Q84 253 84 251 Q84 251 81 248 Q64 243 52.5 231 Q41 219 31 204 Q10 169 1 131 Q-1 124 2 117 Z " />
<glyph glyph-name="four" unicode="4" horiz-adv-x="183" d="M63 308 Q67 310 69.5 310.5 Q72 311 75 313 Q85 317 94.5 321 Q104 325 113 329 Q116 330 117 333 Q122 350 127.5 366.5 Q133 383 141 399 Q141 401 143 405 Q147 412 154 411 Q160 411 165 408 Q173 405 171 396 Q167 384 164 372.5 Q161 361 157 350 Q157 349 156.5 348.5 Q156 348 156 347 Q164 345 168 343 Q169 343 172 340 Q177 335 170 333 Q160 327 150 323 Q147 321 147 319 Q138 292 129.5 264.5 Q121 237 113 210 Q107 190 101.5 170 Q96 150 91 130 Q89 125 89 119 Q89 113 87 107 Q87 105 83 103 Q71 101 65 106 Q62 108 62 114 L65 135 Q70 155 75 174 Q80 193 85 213 Q90 235 96 256.5 Q102 278 107 299 Q107 300 107.5 300.5 Q108 301 108 302 Q107 302 106.5 301.5 Q106 301 105 301 Q99 298 92.5 295 Q86 292 80 289 Q57 277 37 291 Q23 301 28 318 Q33 341 45 361 Q51 373 58 384.5 Q65 396 72 408 Q76 413 83 412 Q85 412 86 411 Q99 406 95 395 L83 362 Q78 351 74 339 Q70 327 65 315 Q64 313 64 311.5 Q64 310 63 308 Z " />
<glyph glyph-name="five" unicode="5" horiz-adv-x="187" d="M108 300 Q106 298 103.5 297.5 Q101 297 99 295 Q89 290 81 283 Q73 276 65 268 Q57 260 47.5 259 Q38 258 30 265 Q25 269 26 276 Q31 299 37 322.5 Q43 346 51 369 Q53 375 55 381 Q57 387 59 393 Q66 410 86 413 Q103 415 118.5 414.5 Q134 414 150 410 Q152 409 154 408 Q156 407 158 406 Q160 404 159.5 402 Q159 400 157 400 Q153 399 146 399 Q141 399 135.5 399.5 Q130 400 125 400 Q120 400 114 399.5 Q108 399 103 398 Q98 398 95 392 L83 353 Q80 341 76.5 329 Q73 317 70 304 L69 303 L69 301 Q73 303 73 303 Q87 314 99 315 Q114 317 126.5 310.5 Q139 304 143 286 Q146 265 142 246 Q133 200 106 160 Q97 146 86 135 Q75 124 61 116 Q41 104 17 106 Q8 106 0 111 Q-9 118 -5 129 Q0 146 8.5 161 Q17 176 27 191 Q32 198 37.5 203.5 Q43 209 50 214 Q64 225 79 219 Q86 219 84 214 Q83 211 77 211 Q71 211 67 207 Q61 202 56.5 195.5 Q52 189 47 182 Q39 170 33.5 158 Q28 146 24 132 Q23 130 23.5 127.5 Q24 125 24 123 Q26 124 27.5 124 Q29 124 31 125 Q42 130 50 138 Q58 146 66 156 Q99 201 109 253 Q111 263 112 273 Q113 283 110 293 Q110 294 108 300 Z " />
<glyph glyph-name="six" unicode="6" horiz-adv-x="167" d="M52 212 Q57 217 61.5 221 Q66 225 71 229 Q74 231 78 233.5 Q82 236 86 238 Q92 241 100 240 Q108 239 113 234 Q118 229 118 220 Q119 211 117 202.5 Q115 194 112 185 Q108 173 103 161 Q98 149 90 138 Q85 132 80 127 Q75 122 67 120 Q51 117 34 124.5 Q17 132 11 153 Q8 164 7.5 176 Q7 188 9 200 Q14 242 26 282 Q38 322 58 360 Q69 382 85 398 Q91 404 97.5 408 Q104 412 112 412 Q130 414 141 401 Q145 395 144 386 Q141 375 132 369 Q125 363 118 370 Q114 372 117 376 Q121 384 123 389 L122 389 Q121 388 120.5 388 Q120 388 119 386 Q110 375 103 363 Q96 351 90 337 Q77 307 68 276 Q59 245 52 213 L52 212 Z M54 137 Q56 139 58 141 Q60 143 62 145 Q70 154 74.5 164.5 Q79 175 84 186 Q86 194 88 202 Q90 210 92 219 Q88 217 88 217 Q63 198 51 168 Q49 164 48 161 Q47 158 48 153 Q50 149 50.5 145 Q51 141 54 137 Z " />
<glyph glyph-name="seven" unicode="7" horiz-adv-x="174" d="M114 292 Q119 293 123.5 294 Q128 295 133 296 Q141 298 146 293 Q150 289 145 286 Q136 282 129 281 Q124 279 119 278.5 Q114 278 109 276 Q108 276 105 273 Q93 247 83 221 Q73 195 64 169 Q59 153 54 137.5 Q49 122 44 106 L44 102 Q44 97 42 91 Q42 86 35 84 Q25 81 16 86 Q10 89 11 96 Q13 103 14 110 Q15 117 17 124 Q26 159 37.5 193 Q49 227 60 261 L60 264 Q55 263 51 262 Q47 261 43 260 Q29 257 20 262 Q19 262 19 263 Q18 264 16 268 Q18 269 18.5 270 Q19 271 21 271 Q32 273 42.5 276 Q53 279 64 281 Q67 281 67 284 Q80 317 96 348 Q112 379 131 410 Q133 412 134 414 Q126 412 119.5 410.5 Q113 409 106 407 Q99 405 92.5 404 Q86 403 79 402 Q71 402 68 407 Q65 412 70 414 L82 417 L139 435 Q155 440 170 430 Q179 422 174 409 Q167 393 158 377 L116 296 Q116 296 114 292 Z " />
<glyph glyph-name="eight" unicode="8" horiz-adv-x="177" d="M99 248 Q100 246 104 242 Q107 238 109.5 234.5 Q112 231 114 227 Q127 206 117 182 Q112 171 106 162 Q100 153 92 145 Q79 131 65.5 118 Q52 105 35 95 Q27 90 20 87 Q13 84 5 83 Q-16 81 -30 94 Q-43 106 -37 124 Q-31 142 -22 160 Q-5 203 18 238 Q20 242 23 245.5 Q26 249 29 253 Q35 260 43.5 261 Q52 262 59 256 Q60 256 62 254 Q66 249 59 247 Q52 247 49 240 Q44 231 39 222.5 Q34 214 29 205 Q20 188 12 170.5 Q4 153 -2 134 Q-7 121 -7 108 Q-3 110 0.5 112 Q4 114 7 117 Q27 133 45.5 151.5 Q64 170 79 192 Q82 197 84.5 202.5 Q87 208 89 213 Q92 224 86 234 Q81 242 76.5 249 Q72 256 67 264 Q59 278 52 293.5 Q45 309 43 326 Q38 358 52 383 Q77 424 119 424 Q133 425 148 413.5 Q163 402 164 379 Q164 371 162 363.5 Q160 356 158 348 Q149 325 138 304 Q127 283 113 263 Q111 261 110 259.5 Q109 258 107 256 L99 248 Z M87 268 Q89 270 89 271 Q116 314 134 359 Q141 376 141 389 Q141 397 139 399.5 Q137 402 130 401 L129 401 Q117 398 107.5 391.5 Q98 385 90 376 Q71 354 71 321 Q72 307 76 294 Q80 281 87 268 Z " />
<glyph glyph-name="nine" unicode="9" horiz-adv-x="164" d="M96 293 Q93 290 90 286.5 Q87 283 83 279 Q81 277 78.5 275 Q76 273 73 270 Q69 266 62.5 265.5 Q56 265 49.5 267 Q43 269 38 273.5 Q33 278 33 286 Q31 302 34 314 Q39 355 58 391 Q61 396 64 401 Q67 406 71 411 Q84 427 99 426 Q114 425 125 414 Q131 408 133.5 400 Q136 392 137 383 Q138 370 135 355 Q134 354 136 352 Q143 347 142 340 Q140 331 139 322.5 Q138 314 136 305 Q129 264 113 218 Q101 178 80 144 Q72 131 63.5 120 Q55 109 42 101 Q25 90 7 89 Q-13 89 -23 104 Q-27 110 -29.5 116.5 Q-32 123 -31 131 Q-31 147 -19 158 Q-14 163 -9.5 166 Q-5 169 0 173 Q5 177 12 175 Q15 173 15 172 Q16 171 13 168 Q10 165 6.5 162.5 Q3 160 0 157 Q-11 146 -11 134 Q-11 122 -4 112 Q0 108 1 106 Q3 103 8 105 Q15 109 20 114.5 Q25 120 30 126 Q41 142 49.5 159 Q58 176 65 193 Q75 217 82 241 Q89 265 95 289 Q96 291 96 293 Z M109 409 Q107 407 105 405 Q103 403 101 401 Q96 395 92.5 389.5 Q89 384 86 377 Q76 358 70.5 337.5 Q65 317 63 296 Q62 292 62 285 Q63 284 63 284 Q66 287 72 291 Q80 298 85.5 305.5 Q91 313 97 321 Q100 327 104 332.5 Q108 338 111 345 Q119 364 116 389 Q114 401 109 409 Z " />
<glyph glyph-name="bar" unicode="&#x7c;" horiz-adv-x="120" d="M119 679 Q117 665 115 650.5 Q113 636 111 620 Q107 594 103 569 Q99 544 95 518 Q90 492 86.5 466 Q83 440 79 414 Q76 390 73 366 Q70 342 66 318 Q64 298 61 277 Q58 256 55 236 L46 155 Q44 137 43 119 Q42 101 40 82 Q38 64 43 46 Q44 39 37 38 Q28 35 25 44 Q22 52 21 60 Q20 68 20 76 Q20 87 20.5 99 Q21 111 22 123 Q24 140 25 157 Q26 174 28 191 Q30 207 32 222.5 Q34 238 36 255 Q38 272 40 289.5 Q42 307 44 324 Q46 338 47.5 353 Q49 368 51 382 Q53 398 55 414 Q57 430 59 447 Q61 464 63.5 480.5 Q66 497 68 514 Q70 533 73 551.5 Q76 570 79 589 Q81 608 84 626.5 Q87 645 90 664 Q92 674 93.5 683.5 Q95 693 97 702 L97 704 Q98 713 108 710 Q112 708 114.5 706.5 Q117 705 117 700 Q118 695 118 690 Q118 685 119 679 Z " />
<glyph glyph-name="slash" unicode="&#x2f;" horiz-adv-x="183" d="M244 679 Q238 665 232 650.5 Q226 636 219 620 Q208 594 195.5 569 Q183 544 172 518 Q161 492 149 466 Q137 440 126 414 Q115 390 105.5 366 Q96 342 85 318 Q77 298 67.5 277 Q58 256 50 236 L17 155 Q11 137 4 119 Q-3 101 -10 82 Q-17 62 -18 46 Q-18 39 -26 38 Q-36 35 -36 44 Q-38 60 -32 76 Q-28 87 -24.5 99 Q-21 111 -16 123 Q-9 140 -3 157 Q3 174 10 191 Q16 207 22.5 222.5 Q29 238 36 255 Q44 272 50.5 289.5 Q57 307 65 324 Q70 338 76.5 353 Q83 368 89 382 Q96 398 102 414 Q108 430 116 447 Q123 464 130 480.5 Q137 497 144 514 L177 589 Q185 608 194 626.5 Q203 645 211 664 Q216 674 220 683.5 Q224 693 229 702 L229 704 Q234 712 242 710 Q249 707 248 700 Q247 695 246 690 Q245 685 244 679 Z " />
<glyph glyph-name="backslash" unicode="&#x5c;" horiz-adv-x="190" d="M46 679 Q48 665 51 650.5 Q54 636 56 620 Q60 594 63 569 Q66 544 70 518 Q75 492 78.5 466 Q82 440 86 414 Q90 390 94 366 Q98 342 102 318 Q106 298 109 277 Q112 256 116 236 L131 155 Q135 137 138.5 119 Q142 101 146 82 Q150 66 160 46 Q163 39 157 38 Q149 35 143 44 Q133 59 128 76 Q125 87 122 99 Q119 111 116 123 Q112 140 109 157 Q106 174 102 191 Q99 207 96 222.5 Q93 238 90 255 L78 324 Q75 338 72.5 353 Q70 368 68 382 Q65 398 62 414 Q59 430 57 447 Q54 464 51 480.5 Q48 497 45 514 L33 589 Q30 608 27.5 626.5 Q25 645 22 664 Q21 674 20 683.5 Q19 693 17 702 L17 704 Q15 713 26 710 Q30 708 33 706.5 Q36 705 38 700 Q40 695 42 690 Q44 685 46 679 Z " />
<glyph glyph-name="equal" unicode="&#x3d;" horiz-adv-x="177" d="M19 266 Q23 268 26 268 Q31 269 35.5 269 Q40 269 45 269 L84 269 L111 269 Q115 269 123 271 Q130 274 136 268 Q142 264 137 262 Q135 260 133 259 Q131 258 128 258 Q123 257 119 257 Q115 257 110 256 L67 256 L39 256 Q33 256 27 259 Q22 259 19 266 Z M33 312 Q35 313 36.5 314 Q38 315 40 315 Q45 316 49 316 Q53 316 58 316 L97 316 L125 316 Q129 316 137 318 Q144 319 150 315 Q155 311 150 308 Q148 307 146 306 Q144 305 142 305 Q137 304 133 303.5 Q129 303 124 303 L81 303 L53 303 Q49 303 41 305 Q34 307 33 312 Z " />
<glyph glyph-name="hyphen" unicode="&#x2d;" horiz-adv-x="170" d="M25 287 Q29 289 32 289 Q37 290 41 290.5 Q45 291 50 291 Q60 291 69.5 290.5 Q79 290 89 290 L117 290 Q121 290 129 292 Q135 294 142 289 Q146 286 142 283 Q138 279 134 279 Q129 278 125 278 Q121 278 116 278 Q105 277 94.5 277 Q84 277 73 277 L45 277 Q42 278 39 278 Q36 278 33 280 Q26 282 25 287 Z " />
<glyph glyph-name="braceleft" unicode="&#x7b;" horiz-adv-x="140" d="M187 696 Q185 694 185 693 Q181 687 180 684 Q172 670 168 655 Q164 640 160 626 Q153 600 147.5 573.5 Q142 547 137 521 Q135 511 133 502 Q131 493 129 484 Q121 458 94 443 Q92 441 90 440 Q91 438 91 436.5 Q91 435 92 433 Q101 412 94 386 Q89 369 84 352 Q79 335 74 318 Q69 301 63 283 Q57 265 51 248 Q43 222 35.5 197.5 Q28 173 20 148 Q16 136 13 123.5 Q10 111 7 98 Q1 76 15 59 Q17 60 18.5 61 Q20 62 22 63 Q29 64 33 59 Q36 55 32 48 Q25 40 17 41 Q5 43 -1 51 Q-6 57 -10 63 Q-14 69 -18 76 Q-21 81 -20 87 Q-20 93 -20 98.5 Q-20 104 -18 110 Q-15 124 -12 136.5 Q-9 149 -4 163 Q1 183 7 202 Q13 221 19 241 Q30 275 41.5 308.5 Q53 342 62 375 Q67 391 67.5 404.5 Q68 418 62 431 Q59 438 61 441 Q63 444 72 450 Q91 460 95 477 Q97 484 98.5 490.5 Q100 497 102 504 Q107 527 111.5 550.5 Q116 574 121 597 Q127 629 141 662 Q148 679 157 691 Q165 702 176 707 Q187 712 198 710 Q208 708 212.5 701.5 Q217 695 221 687 Q221 685 221.5 683.5 Q222 682 220 680 Q218 676 210 676 Q207 676 205 678 Q203 680 202.5 682 Q202 684 200 686 Q197 689 194.5 691.5 Q192 694 187 696 Z " />
<glyph glyph-name="quotedbl" unicode="&#x22;" horiz-adv-x="131" d="M127 707 Q129 705 129.5 703.5 Q130 702 131 701 Q129 696 129 696 Q126 684 122.5 672 Q119 660 115 649 Q113 643 111 639 Q104 628 97 637 Q94 640 97 643 Q98 646 99 648.5 Q100 651 102 654 Q105 667 108.5 679 Q112 691 115 704 Q116 706 116.5 707.5 Q117 709 119 711 Q123 711 127 707 Z M99 701 Q99 699 98.5 698 Q98 697 98 696 Q94 684 91 672 Q88 660 84 649 Q82 643 80 639 Q74 628 65 637 Q63 640 65 643 Q67 646 68 648.5 Q69 651 70 654 Q74 667 77.5 679 Q81 691 84 704 Q85 706 85.5 707.5 Q86 709 88 711 Q92 711 96 707 Q98 705 98 703.5 Q98 702 99 701 Z " />
<glyph glyph-name="quotesingle" unicode="&#x27;" horiz-adv-x="116" d="M116 701 Q114 696 114 696 Q111 684 107.5 672 Q104 660 100 649 Q98 643 96 639 Q89 628 82 637 Q79 640 82 643 Q84 646 85 648.5 Q86 651 87 654 Q91 667 94 679 Q97 691 100 704 Q101 706 101.5 707.5 Q102 709 104 711 Q109 711 113 707 Q114 705 114.5 703.5 Q115 702 116 701 Z " />
<glyph glyph-name="plus" unicode="&#x2b;" horiz-adv-x="197" d="M75 274 L50 274 Q44 274 38 274 Q32 274 27 276 Q25 278 24 278.5 Q23 279 21 281 Q18 285 24 287 Q28 288 31 288.5 Q34 289 38 289 Q49 291 59 291.5 Q69 292 80 293 Q81 296 83 300 Q86 311 89 322 Q92 333 95 344 L101 359 Q104 365 110 365 Q113 365 119 363 Q126 361 123 354 Q121 349 120.5 343.5 Q120 338 118 333 Q115 325 112.5 316.5 Q110 308 107 300 Q107 299 106.5 298 Q106 297 106 295 L122 295 Q131 295 139.5 295 Q148 295 156 294 Q161 294 168 289 Q171 286 170 283 Q169 279 162 279 L130 279 Q122 279 115 278.5 Q108 278 100 277 Q98 271 96.5 265.5 Q95 260 93 254 Q90 243 86.5 232 Q83 221 80 210 Q78 202 78 196 Q78 190 72 190 Q60 188 58 199 Q58 201 57.5 203.5 Q57 206 58 208 Q61 219 63.5 229.5 Q66 240 69 251 Q71 257 72 262.5 Q73 268 75 274 Z " />
<glyph glyph-name="less" unicode="&#x3c;" horiz-adv-x="150" d="M30 279 Q35 288 46 295 Q70 314 93 336 Q104 347 116 356 Q120 360 127 362 Q129 364 132 364 Q138 364 134 360 Q128 352 125 349 Q119 343 113 337 Q107 331 100 326 Q93 319 86.5 313 Q80 307 72 300 Q70 298 67 296 Q64 294 62 292 Q64 287 65.5 282 Q67 277 69 272 Q72 262 75 252 Q78 242 81 231 Q83 226 84 220 Q85 214 87 209 Q89 202 81 195 Q79 194 77.5 193 Q76 192 74 191 Q68 189 67 194 Q67 196 66.5 196.5 Q66 197 66 198 Q59 215 52.5 231 Q46 247 37 261 Q33 267 30 277 L30 279 Z " />
<glyph glyph-name="greater" unicode="&#x3e;" horiz-adv-x="130" d="M98 277 Q93 272 89.5 268.5 Q86 265 81 261 Q63 247 47 231 Q31 215 15 198 Q13 196 12 194 Q7 189 3 191 Q1 192 -2 195 Q-7 201 0 209 Q5 214 9.5 220 Q14 226 19 231 Q28 242 37 252 Q46 262 56 272 Q61 277 65 282 Q69 287 74 292 Q72 294 71 296 Q70 298 69 300 Q62 313 56 326 Q49 338 45 349 Q43 351 43 354 Q43 357 42 360 Q42 364 47 364 Q49 364 51 362 Q57 360 58 356 Q61 351 64.5 346 Q68 341 70 336 Q79 316 93 295 Q99 287 98 279 L98 277 Z " />
<glyph glyph-name="colon" unicode="&#x3a;" horiz-adv-x="93" d="M46 308 Q43 308 39 310 Q39 315 40 317 Q40 320 42 322 Q47 327 54 326.5 Q61 326 65 321 Q69 319 67 312 Q66 308 61 308 L46 308 Z M44 259 Q49 257 50 253 Q50 248 45 246 Q42 245 38.5 244 Q35 243 32 242 Q30 243 28 243 Q26 243 24 244 Q19 246 19 251 Q19 254 23 258 Q33 262 44 259 Z " />
<glyph glyph-name="semicolon" unicode="&#x3b;" horiz-adv-x="103" d="M51 308 Q49 308 45 310 L45 317 Q45 320 47 322 Q52 327 59 326.5 Q66 326 71 321 Q74 318 73 312 Q72 308 66 308 L51 308 Z M15 221 Q21 226 22 233.5 Q23 241 25 248 Q25 255 30 255 Q38 257 42 253 Q43 252 43 248 Q40 235 36 225 Q34 221 30 219 Q23 213 15 221 Z " />
<glyph glyph-name="underscore" unicode="&#x5f;" horiz-adv-x="247" d="M150 201 Q156 200 162 199.5 Q168 199 173 198 Q180 196 186 191 Q190 187 189 183 Q188 180 182 180 L180 180 Q165 182 149.5 181.5 Q134 181 119 181 L85 181 Q71 180 56.5 180 Q42 180 28 180 Q22 180 12 182 Q7 183 2 188 Q-2 192 3 194 Q9 196 10 196 Q26 198 41 199 Q56 200 71 200 Q91 200 111 200.5 Q131 201 150 201 Z " />
<glyph glyph-name="asciitilde" unicode="&#x7e;" horiz-adv-x="174" d="M68 293 Q65 291 63 289.5 Q61 288 59 286 Q53 281 47.5 274.5 Q42 268 39 260 Q36 257 36 257 Q28 254 22 260 Q16 265 19 271 Q32 298 57 308 Q66 312 77 307.5 Q88 303 93 295 Q97 289 99 283 Q100 281 102 277 Q110 281 116 286 Q122 291 128 296 Q134 302 137 304 Q146 312 154 304 Q159 301 156 297 Q153 292 150 288 Q147 284 142 280 Q137 275 130.5 271 Q124 267 118 262 Q108 255 95.5 259 Q83 263 78 271 Q76 275 74.5 279 Q73 283 71 287 Q70 289 69.5 290 Q69 291 68 293 Z " />
<glyph glyph-name="braceright" unicode="&#x7d;" horiz-adv-x="140" d="M163 696 Q157 694 152.5 691.5 Q148 689 143 686 Q137 680 134 678 Q130 676 127 676 Q120 676 119 680 Q119 683 123 687 Q131 695 140 701.5 Q149 708 160 710 Q171 712 179.5 707 Q188 702 190 691 Q191 679 188 662 Q185 646 180.5 630 Q176 614 169 597 L133 504 Q130 497 127.5 490.5 Q125 484 123 477 Q119 460 130 450 Q136 444 136 441 Q136 438 128 431 Q115 418 107.5 404.5 Q100 391 95 375 Q84 342 75.5 308.5 Q67 275 58 241 Q53 221 47 202 Q41 183 35 163 Q31 149 26.5 136.5 Q22 124 17 110 Q15 104 12 98.5 Q9 93 6 87 Q0 79 -4 76 Q-12 69 -20 63 Q-28 57 -36 51 Q-46 43 -59 41 Q-70 39 -70 48 Q-70 55 -65 59 Q-58 64 -52 63 Q-50 62 -49.5 61 Q-49 60 -47 59 Q-24 74 -15 98 Q-10 111 -6 123.5 Q-2 136 2 148 Q10 173 16.5 197.5 Q23 222 30 248 Q35 265 39.5 283 Q44 301 49 318 Q54 335 59.5 352 Q65 369 70 386 Q78 411 99 433 Q103 436 106 440 L103 443 Q85 459 94 484 Q97 493 100 502 Q103 511 107 521 Q118 547 128.5 573.5 Q139 600 147 626 Q152 640 156.5 655 Q161 670 163 684 L163 693 L163 696 Z " />
<glyph glyph-name="exclam" unicode="&#x21;" horiz-adv-x="147" d="M195 690 Q195 688 194.5 687.5 Q194 687 194 686 L194 685 Q191 665 186.5 647 Q182 629 177 611 Q165 569 152 526.5 Q139 484 125 442 Q112 400 100 359.5 Q88 319 76 277 Q64 236 52.5 196 Q41 156 29 116 L14 62 Q11 52 7 46 Q3 39 -2.5 38 Q-8 37 -12 39 Q-17 40 -16 47 Q-11 64 -7.5 80.5 Q-4 97 1 114 Q13 159 25 203 Q37 247 49 292 Q58 327 67.5 360.5 Q77 394 87 429 Q98 465 107.5 501 Q117 537 128 573 Q138 605 147.5 637 Q157 669 167 701 Q170 713 180 710 Q182 709 183.5 708.5 Q185 708 187 707 Q197 702 195 690 Z M-22 -48 Q-17 -51 -21 -55 Q-25 -60 -33 -60.5 Q-41 -61 -45 -56 L-45 -54 Q-41 -49 -33.5 -47 Q-26 -45 -22 -48 Z " />
<glyph glyph-name="at" unicode="&#x40;" horiz-adv-x="240" d="M110 226 L101 217 Q94 211 84.5 210.5 Q75 210 67 215 Q63 219 61 226 Q59 246 64.5 264 Q70 282 86 298 Q98 311 113.5 310.5 Q129 310 137 302 Q151 290 152 276 Q154 267 149 259 Q149 258 148.5 257.5 Q148 257 148 256 Q146 248 145 240.5 Q144 233 142 225 Q143 225 144 224 Q145 226 146 227 Q147 228 148 230 Q163 251 170 274 Q182 304 182 337 Q181 345 179 352.5 Q177 360 172 367 Q157 386 132 377 Q122 374 114 368 Q106 362 99 354 Q79 334 67 309 Q54 283 46.5 257 Q39 231 37 203 Q37 189 38 175.5 Q39 162 44 149 Q49 135 57 126 Q60 123 68 117 Q77 112 86 119 Q101 129 114 143 Q122 153 129.5 162 Q137 171 145 180 Q151 187 160 186 Q168 186 165 178 Q163 172 160 169 Q155 161 151 155 Q147 149 142 142 L133 130 Q113 100 78 97 Q52 95 35.5 107 Q19 119 11 139 Q9 146 7 153 Q5 160 4 168 Q-2 200 6 233 Q10 255 16 275 Q22 295 33 315 Q52 350 81 373 Q105 394 132 395 Q172 398 195 371 Q209 357 209 334 Q210 318 207 303 Q204 288 199 273 Q194 261 189.5 249.5 Q185 238 177 227 Q170 218 159 208 Q147 196 127 199 Q112 203 111 218 Q111 223 110 226 Z M118 296 Q113 294 110 290.5 Q107 287 105 284 Q90 262 89 237 Q89 237 89 232 L95 238 Q100 245 105.5 252 Q111 259 116 266 Q118 270 121.5 273 Q125 276 130 277 Q127 288 118 296 Z " />
<glyph glyph-name="numbersign" unicode="&#x23;" horiz-adv-x="207" d="M55 245 Q50 243 42 241 Q37 239 32 238.5 Q27 238 22 236 Q18 236 14.5 236.5 Q11 237 7 239 Q5 239 5 242 Q5 244 9 246 Q10 247 12 247 Q23 250 34.5 252.5 Q46 255 57 258 Q58 258 58 258.5 Q58 259 59 259 Q61 266 63 272.5 Q65 279 67 287 Q60 285 54.5 284 Q49 283 43 282 Q38 280 34 278.5 Q30 277 25 276 Q21 275 18 275.5 Q15 276 12 276 Q12 276 6 280 Q12 284 13 284 L31 290 Q41 292 50.5 294 Q60 296 70 298 Q72 303 73 307 Q74 311 75 316 Q78 326 81 336 Q84 346 87 356 Q87 359 89 361 Q92 369 98 371.5 Q104 374 111 370 Q117 367 115 361 L106 328 Q104 322 102 316 Q100 310 98 303 Q103 304 108 304.5 Q113 305 118 306 Q120 313 122.5 319.5 Q125 326 127 332 Q129 338 131 344 Q133 350 135 356 Q136 359 140 365 Q142 370 146 373 Q150 376 158 374 Q167 373 165 363 Q163 356 161 350 Q159 344 157 337 Q155 331 152.5 324.5 Q150 318 148 311 Q157 311 165.5 311.5 Q174 312 181 304 Q177 300 170 302 Q164 305 157.5 303.5 Q151 302 145 302 Q143 295 141 288.5 Q139 282 136 275 Q140 276 145 276 Q150 277 154.5 277 Q159 277 164 277 Q169 277 174 271 Q176 269 175 267.5 Q174 266 171 266 Q169 265 167 265.5 Q165 266 163 266 Q159 268 158 268 Q151 266 145 265.5 Q139 265 133 263 Q131 256 129 249.5 Q127 243 125 236 Q121 223 118 210.5 Q115 198 111 184 Q110 179 109.5 175.5 Q109 172 111 167 Q114 163 108 161 Q100 158 93 161.5 Q86 165 85 173 Q84 176 84.5 180 Q85 184 86 188 Q89 201 92 214 Q95 227 99 240 Q100 244 100.5 247.5 Q101 251 103 256 Q97 255 92 254 Q87 253 82 252 Q80 242 77 232.5 Q74 223 71 214 L62 178 L62 168 Q62 163 56 162 Q48 160 43 165 Q38 170 40 178 Q41 185 42 191 Q43 197 45 203 Q47 212 49.5 221.5 Q52 231 55 240 L55 245 Z M95 293 Q93 285 91 279 Q89 273 87 265 Q92 266 96 266.5 Q100 267 105 269 Q106 269 108 273 Q109 276 110 279 Q111 282 112 285 Q113 288 113.5 290.5 Q114 293 115 297 Q107 295 95 293 Z " />
<glyph glyph-name="grave" unicode="&#x60;" horiz-adv-x="118" d="M111 633 Q105 635 103 639 Q97 647 94 656 Q90 667 86 678.5 Q82 690 79 701 Q75 713 83 711 Q90 708 93 702 Q94 700 94 697.5 Q94 695 95 693 Q100 682 104 670.5 Q108 659 112 648 Q113 646 113 644.5 Q113 643 114 641 Q118 633 111 633 Z " />
<glyph glyph-name="dollar" unicode="&#x24;" horiz-adv-x="235" d="M78 227 Q72 232 66.5 236.5 Q61 241 56 246 Q53 249 50 252.5 Q47 256 44 260 Q24 287 35 323 Q41 339 53 355 Q72 382 98 407 Q106 415 115 423 Q124 431 133 439 Q138 443 141 449 Q143 457 145 463.5 Q147 470 149 478 Q151 482 152 483 Q156 494 165 493 Q178 491 178 479 L178 474 Q182 476 183 477 Q191 482 199.5 488 Q208 494 216 499 Q222 503 225 504 Q236 509 246.5 505 Q257 501 261 490 Q264 481 261 474 Q256 460 247 445 Q227 405 209 365.5 Q191 326 174 285 Q172 280 171 274 Q170 268 168 263 Q164 254 171 250 Q171 249 171.5 249 Q172 249 172 248 Q176 242 169 242 Q167 241 166.5 241.5 Q166 242 164 242 Q153 245 147.5 254.5 Q142 264 144 276 Q146 287 150 297 Q154 307 158 318 Q170 347 183 376.5 Q196 406 209 435 Q214 443 217.5 452 Q221 461 225 469 Q225 470 225.5 470.5 Q226 471 226 473 Q222 471 222 471 Q210 462 197.5 453.5 Q185 445 173 436 Q171 434 169 430 Q157 393 145 356 Q133 319 121 282 Q118 271 114.5 259.5 Q111 248 108 237 Q107 235 107 234.5 Q107 234 106 232 Q108 230 109.5 229 Q111 228 113 227 Q121 222 128.5 216.5 Q136 211 143 206 Q152 200 157 190 Q173 170 159 145 Q154 137 148 130.5 Q142 124 135 119 Q108 98 71 88 Q65 87 64 81 Q61 70 58.5 59 Q56 48 53 37 Q51 32 50 28.5 Q49 25 47 20 Q45 15 39 13.5 Q33 12 29 15 Q28 16 28 20 Q28 24 28.5 28 Q29 32 30 37 Q32 48 34.5 59 Q37 70 39 81 L39 83 Q34 85 29 85 Q24 85 19 87 Q11 89 4 93 Q-3 97 -8 104 Q-15 114 -16 124 Q-17 156 5 183 Q10 188 18.5 188 Q27 188 31 183 Q33 180 32 176 Q30 169 28 163 Q26 157 24 150 Q24 147 21 147 Q18 145 18 143 Q16 136 15 130 Q14 124 16 118 Q17 114 19 108 Q22 101 31 101 Q34 101 37.5 101.5 Q41 102 44 102 Q52 134 61 165 Q70 196 78 227 Z M84 249 Q94 285 104 320 Q114 355 124 391 Q121 389 121 389 Q108 376 96.5 362.5 Q85 349 77 333 Q69 320 66 307 Q61 290 65.5 274.5 Q70 259 84 249 Z M71 111 Q74 112 76 112 Q87 117 97 124 Q107 131 116 140 Q125 150 130 161 Q132 168 132.5 175 Q133 182 129 188 Q124 196 116.5 201.5 Q109 207 100 213 Q93 187 86 162 Q79 137 71 111 Z " />
<glyph glyph-name="percent" unicode="&#x25;" horiz-adv-x="230" d="M260 529 Q263 525 260 521 Q258 519 254 514 Q216 458 180.5 401 Q145 344 111 285 Q82 236 54.5 187 Q27 138 -1 89 Q-9 75 -15 62.5 Q-21 50 -28 36 Q-31 28 -34 20 Q-37 12 -40 4 Q-42 -2 -48 -2 Q-62 -1 -61 11 Q-61 21 -56 33 Q-50 46 -44.5 58.5 Q-39 71 -33 84 Q20 184 77 280 Q100 320 122.5 359 Q145 398 168 437 Q195 482 225 520 Q228 523 230.5 526 Q233 529 237 532 Q242 537 249 536 Q256 535 260 529 Z M102 398 Q89 403 82 413 Q75 423 77 436 Q78 445 83 451 Q87 458 97 458 Q106 456 111 451 Q117 447 114 441 Q112 437 111 432.5 Q110 428 107 424 Q106 423 106 418 Q114 424 119.5 437 Q125 450 127 464 Q119 466 116 468 Q107 473 111 482 Q119 507 143 493 Q152 487 153 476 Q155 468 153.5 459.5 Q152 451 150 442 Q149 437 147.5 432 Q146 427 144 422 Q139 410 130 403 Q119 393 102 398 Z M102 132 Q111 128 111 120 Q111 94 100 76 Q87 53 61 61 Q41 69 41 91 Q39 111 52 128 Q62 143 78 133 Q78 133 82 131 Q91 137 102 132 Z M70 76 Q78 83 81.5 91.5 Q85 100 87 110 Q85 111 84 111 Q83 111 81 112 Q75 114 72 107 Q71 103 69 93 Q68 89 68 85 Q68 81 70 76 Z " />
<glyph glyph-name="asciicircum" unicode="&#x5e;" horiz-adv-x="130" d="M97 641 Q94 635 89 630 Q85 625 81.5 620.5 Q78 616 73 611 Q65 603 51 608 Q46 610 45 615 Q46 616 46.5 617 Q47 618 49 619 Q52 622 55 625 Q58 628 61 632 Q72 647 83 662.5 Q94 678 105 694 L114 706 Q117 711 125 711 Q128 709 131.5 708.5 Q135 708 139 706 Q147 701 144 691 Q142 686 140.5 681 Q139 676 137 671 Q133 658 129.5 645 Q126 632 122 619 Q120 614 119.5 609 Q119 604 123 599 Q125 596 120 594 L118 594 Q109 593 101.5 600 Q94 607 95 616 Q95 621 96 626.5 Q97 632 98 638 L98 640 L97 641 Z " />
<glyph glyph-name="ampersand" unicode="&#x26;" horiz-adv-x="203" d="M33 -35 Q32 -35 31.5 -34.5 Q31 -34 30 -34 Q24 -32 25 -25 Q25 -20 25.5 -14.5 Q26 -9 27 -4 Q35 33 44.5 69.5 Q54 106 65 142 Q76 178 87 214 Q98 250 111 286 Q111 287 111.5 287.5 Q112 288 112 290 Q110 289 108 287 Q104 285 101 282.5 Q98 280 94 278 Q79 270 61 277 Q43 285 47 302 Q49 312 51 319 Q61 340 77 361 Q78 363 78.5 363.5 Q79 364 80 366 L80 367 Q79 367 78 366.5 Q77 366 76 366 Q71 364 66 363 Q61 362 56 361 Q40 359 29 366 Q13 374 19 389 Q22 401 28 408 Q56 453 103 477 Q120 486 135 487 L147 487 Q148 488 148 488.5 Q148 489 149 490 Q160 528 173 564 Q186 600 200 637 Q203 646 205.5 654.5 Q208 663 211 672 L214 678 Q216 685 217.5 686.5 Q219 688 223 687 Q229 686 233.5 682.5 Q238 679 238 674 L238 660 Q236 646 231.5 631.5 Q227 617 222 603 Q211 571 200.5 539.5 Q190 508 179 476 Q177 472 176 469 Q175 466 174 462 Q171 456 166 456 Q159 456 153 458 Q147 460 142 468 Q139 466 136 464.5 Q133 463 129 461 Q108 449 91 432 Q74 415 60 395 Q58 392 57 389 Q56 386 54 383 Q54 381 53 380 Q55 380 56.5 380.5 Q58 381 60 381 Q85 388 108 402 Q110 404 112 404.5 Q114 405 116 407 Q128 412 142 406 Q152 400 145 392 Q140 384 134 377.5 Q128 371 123 363 Q114 351 106 339 Q98 327 91 314 L85 302 Q86 302 87 301 L99 313 Q108 323 116.5 333 Q125 343 134 353 Q136 355 137 357 Q138 359 140 361 Q146 367 157 367 Q168 367 174 360 Q177 356 176 352 Q175 349 174.5 345.5 Q174 342 173 339 Q168 327 163 315 Q158 303 153 290 Q125 224 103 158 Q81 92 61 23 Q58 11 55.5 -1.5 Q53 -14 50 -26 Q50 -31 44 -33 Q42 -34 41 -34 Q40 -34 38 -35 L33 -35 Z " />
<glyph glyph-name="asterisk" unicode="&#x2a;" horiz-adv-x="183" d="M43 334 Q49 338 55 334 Q57 332 60 329.5 Q63 327 65 325 Q70 320 74 315.5 Q78 311 83 306 L87 302 Q89 308 90 313.5 Q91 319 93 325 Q94 333 98 344 Q99 350 104 348 Q108 348 112 346 Q118 342 117 334 Q115 330 114.5 325.5 Q114 321 112 316 Q116 318 119 320 Q122 322 124 324 L136 330 Q148 333 153 322 Q142 316 131.5 310.5 Q121 305 111 297 Q121 297 130.5 296 Q140 295 150 298 Q159 301 163 292 Q161 289 154 287 Q150 286 141 286 L103 286 Q104 284 106 282 Q111 277 116 271.5 Q121 266 126 261 Q127 260 131 254 Q128 251 123 253 Q121 255 119.5 256 Q118 257 116 259 Q112 262 108.5 265.5 Q105 269 100 274 Q98 269 97 264 Q96 259 94 254 Q91 241 84 230 Q81 225 76 225.5 Q71 226 68 231 Q66 233 68 237 Q73 246 75 255.5 Q77 265 80 275 L79 276 Q78 275 76.5 274.5 Q75 274 74 272 Q64 264 54.5 256 Q45 248 35 240 Q25 233 18 245 Q38 265 64 285 L59 285 L41 285 Q38 285 34.5 285.5 Q31 286 28 288 Q24 292 24 295 Q26 297 28 297 Q30 297 32 297 L69 297 L77 297 Q75 299 74.5 300 Q74 301 72 302 Q67 308 61 314 Q55 320 50 325 Q47 328 43 334 Z " />
<glyph glyph-name="parenleft" unicode="&#x28;" horiz-adv-x="183" d="M256 691 Q251 691 246 686 Q238 679 231 670.5 Q224 662 217 654 Q187 612 163 564 Q149 537 135 510 Q121 483 107 455 Q92 423 80.5 389.5 Q69 356 59 321 Q53 298 48 274 Q43 250 39 225 Q37 202 36 178 Q35 154 39 131 Q41 117 45 104.5 Q49 92 56 81 Q60 75 64.5 69.5 Q69 64 75 60 Q87 53 97 56 Q105 59 112 55 Q120 50 113 45 Q106 38 95 38 Q53 37 27 76 Q19 89 14 103.5 Q9 118 7 134 Q4 151 4 169 Q4 187 6 204 Q11 252 23 297.5 Q35 343 50 388 Q60 417 72.5 445 Q85 473 99 500 Q119 539 140.5 577.5 Q162 616 187 651 Q194 662 201.5 671.5 Q209 681 217 691 Q223 698 233 705 Q246 715 256 708.5 Q266 702 271 692 Q275 681 270 675 Q270 671 266 671 Q261 670 257 675.5 Q253 681 255 686 Q255 689 256 691 Z " />
<glyph glyph-name="parenright" unicode="&#x29;" horiz-adv-x="143" d="M143 577 Q142 573 142 566 Q141 542 138.5 518 Q136 494 131 470 Q121 418 106.5 367.5 Q92 317 71 268 Q53 225 33 183.5 Q13 142 -10 101 L-37 59 Q-43 51 -51 45 Q-60 36 -76 39 Q-78 40 -78.5 40.5 Q-79 41 -81 42 Q-85 46 -85 52 Q-83 59 -79 60 L-64 60 Q-62 62 -60.5 64.5 Q-59 67 -57 69 Q-46 86 -36 104 Q-26 122 -17 140 Q-4 166 8 192.5 Q20 219 31 247 Q41 270 48 294.5 Q55 319 62 343 Q73 385 84 425 Q95 465 103 507 Q118 576 118 646 Q117 655 116.5 664 Q116 673 114 683 Q113 691 111.5 692.5 Q110 694 102 692 Q97 691 92.5 690 Q88 689 83 687 Q72 686 68 700 Q68 700 72 702 Q77 704 82.5 705.5 Q88 707 93 709 Q110 714 122 699 Q134 686 137 663 Q142 641 142 624 Q142 615 143 611 L143 577 Z " />
<glyph glyph-name="comma" unicode="&#x2c;" horiz-adv-x="100" d="M27 196 Q29 195 32 194.5 Q35 194 37 192 Q40 189 39 185 Q36 177 33 169 Q30 161 27 153 Q24 146 20 144 Q17 140 10.5 141 Q4 142 2 146 L2 149 Q5 158 8.5 166.5 Q12 175 15 184 L18 190 Q19 196 27 196 Z " />
<glyph glyph-name="period" unicode="&#x2e;" horiz-adv-x="100" d="M29 178 Q25 179 21 180 Q17 181 15 185 Q11 191 17 194 Q22 196 28.5 194.5 Q35 193 38 189 Q42 181 32 179 Q30 179 29 178 Z " />
<glyph glyph-name="question" unicode="&#x3f;" horiz-adv-x="214" d="M259 702 Q275 688 268 662 Q266 656 264.5 650 Q263 644 261 638 Q253 615 243 594 Q233 573 222 552 Q205 519 188.5 486 Q172 453 156 419 Q135 373 114.5 327 Q94 281 74 234 Q59 199 44 164 Q29 129 16 94 Q14 86 11.5 79.5 Q9 73 7 65 Q6 61 6 57.5 Q6 54 5 51 Q5 44 1 43 Q-4 40 -9.5 42.5 Q-15 45 -17 51 Q-20 63 -15 81 Q-5 113 6.5 143.5 Q18 174 31 204 Q54 261 78 317 Q102 373 125 430 Q145 478 166.5 523.5 Q188 569 211 615 Q218 629 225 643.5 Q232 658 237 674 Q238 675 238 678 Q239 678 239 680 Q229 678 220.5 673 Q212 668 203 663 Q179 647 157.5 628 Q136 609 116 583 Q110 575 105.5 568 Q101 561 96 553 Q94 549 92 545 Q90 541 92 536 Q92 535 91.5 535 Q91 535 91 534 Q90 533 90 532 Q88 531 83 531 Q74 534 71.5 543.5 Q69 553 74 566 Q79 578 85 588.5 Q91 599 98 608 Q153 676 218 706 Q229 711 240 710.5 Q251 710 259 702 Z M-5 -36 Q-5 -36 -4 -38 Q-1 -40 -1.5 -45 Q-2 -50 -6 -52 Q-11 -54 -18 -53 Q-25 -52 -28 -48 Q-32 -44 -31 -38.5 Q-30 -33 -25 -31 Q-23 -30 -20.5 -30 Q-18 -30 -16 -29 Q-14 -30 -12 -30.5 Q-10 -31 -8 -32 Q-6 -34 -5 -36 Z " />
<glyph glyph-name="bracketleft" unicode="&#x5b;" horiz-adv-x="143" d="M147 707 Q155 711 162 711 Q174 710 186 710 Q198 710 210 709 Q223 709 232 704 Q234 703 237 700 Q239 698 237.5 696.5 Q236 695 234 695 Q232 695 231 695.5 Q230 696 228 696 Q220 698 215 698 L183 698 L176 698 Q174 690 173.5 683.5 Q173 677 171 670 Q167 656 163.5 642.5 Q160 629 156 615 Q141 570 126 522 Q121 505 115 488 Q109 471 103 454 L79 376 Q73 358 67.5 339.5 Q62 321 57 303 Q52 285 46.5 267.5 Q41 250 36 233 Q31 217 27 201.5 Q23 186 18 169 Q11 145 5 120.5 Q-1 96 -6 71 Q-8 63 -8 58 Q-9 56 -8.5 54 Q-8 52 -8 49 Q-6 50 -3.5 50 Q-1 50 1 51 Q6 51 16 53 Q22 53 26 57 Q28 59 30 59 Q33 61 36.5 59.5 Q40 58 40 56 Q40 51 33 49 Q26 45 19 44 Q11 42 3.5 41 Q-4 40 -12 39 Q-31 36 -31 54 Q-31 58 -30.5 62 Q-30 66 -29 71 Q-25 88 -21.5 105.5 Q-18 123 -14 141 Q-9 161 -3.5 180.5 Q2 200 7 220 Q12 237 16 252.5 Q20 268 25 285 Q30 304 36 322 Q42 340 47 359 Q52 376 56.5 392 Q61 408 66 425 Q71 442 76.5 459 Q82 476 87 493 Q92 512 98.5 531 Q105 550 111 569 Q119 596 127.5 623.5 Q136 651 145 678 Q146 682 147 686 Q148 690 150 695 Q152 702 149 704 Q148 705 148 705.5 Q148 706 147 707 Z " />
<glyph glyph-name="bracketright" unicode="&#x5d;" horiz-adv-x="136" d="M195 707 Q193 706 193 705.5 Q193 705 192 704 Q187 702 185 695 Q183 690 182.5 686 Q182 682 180 678 Q173 651 166 623.5 Q159 596 151 569 Q146 550 141 531 Q136 512 131 493 Q126 476 121 459 Q116 442 111 425 Q106 408 101.5 392 Q97 376 92 359 Q87 340 81.5 322 Q76 304 71 285 Q66 268 61 252.5 Q56 237 51 220 Q45 200 39 180.5 Q33 161 26 141 Q20 123 13.5 105.5 Q7 88 1 71 Q-2 61 -8 54 Q-17 36 -36 39 Q-43 40 -49.5 41 Q-56 42 -63 44 Q-67 45 -69.5 46 Q-72 47 -75 49 Q-79 51 -77 56 Q-73 63 -65 59 Q-63 59 -63 57 Q-60 53 -56 53 Q-46 51 -41 51 Q-39 50 -37 50 Q-35 50 -33 49 Q-31 52 -30 54 Q-29 56 -28 58 Q-26 61 -25 64.5 Q-24 68 -22 71 Q-12 96 -4.5 120.5 Q3 145 11 169 Q16 186 20.5 201.5 Q25 217 30 233 Q35 250 40 267.5 Q45 285 50 303 Q55 321 60 339.5 Q65 358 70 376 L91 454 Q96 471 99.5 488 Q103 505 108 522 Q114 546 120 569 Q126 592 133 615 Q140 641 149 670 Q151 677 154.5 683.5 Q158 690 161 698 L154 698 L122 698 Q116 698 108 696 Q106 696 104.5 695.5 Q103 695 101 695 Q99 695 99 696.5 Q99 698 101 700 Q103 701 105 702 Q107 703 109 704 Q119 709 133 709 Q146 710 158 710 Q170 710 182 711 Q190 711 195 707 Z " />
<glyph glyph-name="Euro" unicode="&#x20ac;" horiz-adv-x="317" d="M74 319 Q67 317 60.5 315 Q54 313 47 311 Q34 307 25 306 Q18 303 11 310 Q6 314 12 316 Q25 320 38 324 Q51 328 64 332 Q72 334 76 336 Q78 336 78 338 Q88 386 105 435 L105 437 Q98 435 92 434 Q86 433 79 432 Q74 431 70.5 430.5 Q67 430 62 430 Q54 430 50 436 Q44 441 52 443 Q71 449 91 452 Q98 454 110 456 Q111 456 113 459 Q120 479 128 497.5 Q136 516 145 535 Q160 565 177.5 593.5 Q195 622 217 648 Q229 662 241.5 674 Q254 686 270 697 Q287 707 302 710 Q339 716 357 684 Q366 669 368 649 Q368 614 358 583 Q354 573 349 567 Q347 563 341.5 564 Q336 565 334 569 Q334 569 334 573 Q336 580 337.5 586 Q339 592 341 598 Q344 612 346 626.5 Q348 641 347 655 Q346 663 344.5 670.5 Q343 678 338 685 Q334 693 324 692 Q316 690 309.5 687 Q303 684 296 679 Q282 668 270 656 Q258 644 247 630 Q225 602 207 571.5 Q189 541 175 509 Q170 499 165.5 488.5 Q161 478 156 467 Q155 467 155 466 L155 464 Q161 465 167 466 Q173 467 178 468 Q198 471 217.5 474 Q237 477 257 479 Q270 481 283 482 Q296 483 310 482 Q321 482 337 475 Q339 474 340 473 Q341 472 343 471 Q344 470 344 466 Q343 465 340 465 Q336 466 333 466.5 Q330 467 326 468 Q321 468 315 468.5 Q309 469 302 468 Q264 465 226 459 Q188 453 150 446 Q147 444 147 442 Q139 422 132.5 401.5 Q126 381 121 360 Q120 357 119.5 354.5 Q119 352 119 349 L119 348 Q121 348 123 349 Q147 355 170.5 361 Q194 367 218 373 Q230 376 242 377.5 Q254 379 266 381 Q273 382 280 376 Q283 372 278 370 Q270 368 262 367.5 Q254 367 246 365 Q221 360 197 353.5 Q173 347 148 340 Q140 338 133 336 Q126 334 118 332 Q114 331 113 328 Q111 317 109.5 307 Q108 297 106 286 Q101 263 99 239.5 Q97 216 96 193 Q95 173 95.5 154 Q96 135 100 116 Q106 89 123 64 Q127 58 133 54 Q135 50 137 54 Q140 56 143.5 59 Q147 62 149 65 Q158 76 165 89 Q172 102 179 115 Q188 133 197 150.5 Q206 168 215 185 Q218 191 224 191 Q226 191 228.5 190.5 Q231 190 233 190 Q239 188 236 182 Q228 165 220.5 148 Q213 131 205 114 Q198 100 191 87 Q184 74 176 62 Q168 53 159 45 Q148 37 131 37.5 Q114 38 103 49 Q95 57 89.5 65 Q84 73 79 82 Q68 102 64 123 Q60 144 59 167 Q59 215 65 263 Q67 277 69.5 291 Q72 305 74 319 Z " />
<glyph glyph-name="sterling" unicode="&#xa3;" horiz-adv-x="274" d="M110 335 Q103 334 97 333.5 Q91 333 85 331 Q73 329 61 327 Q49 325 37 323 Q30 321 24 320 Q18 319 11 317 Q3 315 -1 321 Q-3 324 1 326 Q4 327 7.5 328 Q11 329 14 330 Q25 332 35 334 Q45 336 56 338 Q67 340 77 341.5 Q87 343 98 345 Q102 346 105 346.5 Q108 347 112 347 Q115 347 115 350 Q123 374 130.5 398 Q138 422 145 446 Q156 485 166.5 524 Q177 563 188 602 Q193 620 199 637 Q205 654 214 670 Q221 683 229 693 Q242 708 256.5 710 Q271 712 285 703 Q293 698 297 689.5 Q301 681 303 671 Q306 647 300 623 Q299 619 298 615 Q297 611 295 606 Q291 597 284 596 Q276 596 273 600 Q270 603 274 605 Q274 605 277 608 Q279 615 280.5 621 Q282 627 284 634 Q289 655 286 674 Q285 683 278 693 Q274 697 269 694 Q263 689 258 683 Q252 674 247.5 664 Q243 654 239 644 Q228 609 221 575 Q215 550 209 526 Q203 502 196 477 Q188 446 179 416 Q170 386 160 356 Q159 356 159 354 Q167 355 174 356 Q181 357 188 358 L221 361 Q232 362 241.5 362.5 Q251 363 261 364 Q266 364 268 363 Q270 363 274 361 Q274 361 276 357 Q272 355 271 355 Q266 354 262.5 353.5 Q259 353 254 353 Q242 351 230 350.5 Q218 350 206 348 Q182 346 160 342 L158 342 Q154 342 153 339 Q141 304 127.5 269.5 Q114 235 98 201 Q85 175 71 149.5 Q57 124 38 101 Q31 92 24 83.5 Q17 75 9 67 Q7 65 6 63 Q11 63 14.5 63.5 Q18 64 21 63 Q32 62 43.5 61.5 Q55 61 66 59 Q87 56 108 52.5 Q129 49 151 46 Q168 43 186 40.5 Q204 38 222 35 Q225 34 228 34 Q231 34 234 33 Q236 32 236.5 31.5 Q237 31 239 30 Q237 28 236 26.5 Q235 25 234 25 Q229 24 224.5 23.5 Q220 23 215 24 Q190 27 166.5 30.5 Q143 34 119 38 Q100 40 81.5 43 Q63 46 44 48 Q37 49 30 50 Q23 51 15 52 Q2 54 -7 50 Q-12 48 -14 46 Q-23 41 -31 44 Q-36 45 -32 49 Q-10 70 5 93.5 Q20 117 33 143 Q47 171 59 199.5 Q71 228 82 257 Q90 276 96 295 Q102 314 109 333 Q109 334 109.5 334 Q110 334 110 335 Z " />
<glyph glyph-name="yen" unicode="&#xa5;" horiz-adv-x="241" d="M128 416 Q126 416 125.5 416.5 Q125 417 123 417 Q112 420 107 430 Q101 443 99 461 Q97 487 98.5 513 Q100 539 103 565 Q105 578 107 590 Q109 602 111 615 Q113 630 116 645 Q119 660 122 675 Q123 679 128 680 Q134 680 139 676.5 Q144 673 144 668 Q145 665 144.5 662 Q144 659 144 656 Q142 634 139 612.5 Q136 591 134 569 Q132 552 131.5 535.5 Q131 519 130 502 Q130 488 131 474 Q132 460 135 446 Q137 442 138 438.5 Q139 435 142 431 Q145 434 148.5 437 Q152 440 154 443 Q159 448 162.5 452 Q166 456 170 461 Q190 487 209 514 Q228 541 247 568 Q268 599 289 629 Q310 659 331 690 Q334 695 337.5 699 Q341 703 345 708 Q348 712 354 711 Q360 710 362 706 Q362 703 361 702 Q356 693 350.5 684.5 Q345 676 340 668 Q310 622 280 577.5 Q250 533 221 488 Q213 475 205 463.5 Q197 452 187 441 Q180 434 172.5 428.5 Q165 423 156 419 Q155 418 155 418 Q155 417 154 417 Q152 400 147 383.5 Q142 367 137 350 Q136 349 136 348 Q144 349 151 349.5 Q158 350 165 350 Q184 354 197 351 Q202 349 205.5 347.5 Q209 346 212 342 Q213 341 212.5 340 Q212 339 213 338 Q211 338 210 337.5 Q209 337 207 337 Q205 338 203.5 338.5 Q202 339 200 341 Q196 343 193 343 Q186 342 179.5 342 Q173 342 166 341 Q158 340 150.5 339.5 Q143 339 135 338 Q132 336 132 335 Q127 320 122 304.5 Q117 289 112 274 L112 273 Q118 274 123.5 274.5 Q129 275 134 276 Q145 278 154.5 279.5 Q164 281 174 283 Q180 284 185 281 Q189 281 186 278 Q186 276 183 276 Q177 274 171.5 273 Q166 272 160 271 Q148 269 136 267 Q124 265 112 263 Q108 262 107 259 Q99 230 90 200.5 Q81 171 72 142 Q65 119 59 97.5 Q53 76 46 53 Q45 48 39 42 Q37 39 31 38.5 Q25 38 22 40 Q21 41 21 43 Q23 50 24.5 56 Q26 62 28 68 Q32 80 35 91.5 Q38 103 41 115 Q45 129 49 144 Q53 159 57 173 Q62 189 66.5 204.5 Q71 220 76 236 Q78 241 79 246 Q80 251 82 256 L82 258 Q74 257 67.5 256 Q61 255 53 254 Q44 253 35 252 Q26 251 17 250 Q8 248 2 253 Q0 254 0 254 Q-3 257 -1 257 Q-1 259 3 259 Q14 260 24.5 261 Q35 262 46 263 Q55 264 64 265 Q73 266 82 268 Q84 268 86 271 Q91 287 95 302 Q99 317 103 332 L103 333 Q100 332 96.5 332 Q93 332 89 331 L35 322 Q28 321 22 325 Q20 325 20 328 Q20 329 24 331 Q31 332 37 333 Q43 334 50 336 Q64 338 77.5 340 Q91 342 105 344 Q107 344 107 346 Q110 355 112.5 364 Q115 373 117 382 Q120 390 122.5 398.5 Q125 407 128 415 L128 416 Z " />
<glyph glyph-name="quotedblleft" unicode="&#x201c;" horiz-adv-x="131" d="M127 707 Q129 705 129.5 703.5 Q130 702 131 701 Q129 696 129 696 Q126 684 122.5 672 Q119 660 115 649 Q113 643 111 639 Q104 628 97 637 Q94 640 97 643 Q98 646 99 648.5 Q100 651 102 654 L115 704 Q116 706 116.5 707.5 Q117 709 119 711 Q123 711 127 707 Z M99 701 Q99 699 98.5 698 Q98 697 98 696 Q94 684 91 672 Q88 660 84 649 Q82 643 80 639 Q74 628 65 637 Q63 640 65 643 Q67 646 68 648.5 Q69 651 70 654 Q74 667 77.5 679 Q81 691 84 704 Q85 706 85.5 707.5 Q86 709 88 711 Q92 711 96 707 Q98 705 98 703.5 Q98 702 99 701 Z " />
<glyph glyph-name="quotedblright" unicode="&#x201d;" horiz-adv-x="131" d="M127 707 Q129 705 129.5 703.5 Q130 702 131 701 Q129 696 129 696 Q126 684 122.5 672 Q119 660 115 649 Q113 643 111 639 Q104 628 97 637 Q94 640 97 643 Q98 646 99 648.5 Q100 651 102 654 L115 704 Q116 706 116.5 707.5 Q117 709 119 711 Q123 711 127 707 Z M99 701 Q99 699 98.5 698 Q98 697 98 696 Q94 684 91 672 Q88 660 84 649 Q82 643 80 639 Q74 628 65 637 Q63 640 65 643 Q67 646 68 648.5 Q69 651 70 654 Q74 667 77.5 679 Q81 691 84 704 Q85 706 85.5 707.5 Q86 709 88 711 Q92 711 96 707 Q98 705 98 703.5 Q98 702 99 701 Z " />
<glyph glyph-name="quoteright" unicode="&#x2019;" horiz-adv-x="116" d="M116 701 Q114 696 114 696 Q111 684 107.5 672 Q104 660 100 649 Q98 643 96 639 Q89 628 82 637 Q79 640 82 643 Q84 646 85 648.5 Q86 651 87 654 Q91 667 94 679 Q97 691 100 704 Q101 706 101.5 707.5 Q102 709 104 711 Q109 711 113 707 L116 701 L116 701 Z " />
<glyph glyph-name="quoteleft" unicode="&#x2018;" horiz-adv-x="116" d="M116 701 Q114 696 114 696 Q111 684 107.5 672 Q104 660 100 649 Q98 643 96 639 Q89 628 82 637 Q79 640 82 643 Q84 646 85 648.5 Q86 651 87 654 Q91 667 94 679 Q97 691 100 704 Q101 706 101.5 707.5 Q102 709 104 711 Q109 711 113 707 L116 701 L116 701 Z " />
<glyph glyph-name="b" unicode="b" horiz-adv-x="206" d="M207 311 Q213 315 216.5 308.5 Q220 302 215 298 Q204 290 192 283.5 Q180 277 167 272 Q157 267 147 264 Q137 261 126 259 Q124 256 122.5 252.5 Q121 249 119 246 Q103 216 78 189 Q69 178 58 169 Q44 159 30 156 Q20 154 14 159 Q7 164 7 174 Q7 181 9.5 188.5 Q12 196 15.5 202 Q19 208 22.5 213 Q26 218 28 220 Q33 225 37.5 229.5 Q42 234 46 238 Q47 239 60 249 Q73 259 90 265 Q92 265 92.5 265.5 Q93 266 94 266 Q99 274 102 281.5 Q105 289 107 294 Q109 298 109 300 Q111 304 111 305 Q111 306 111.5 306.5 Q112 307 112 308 L112 309 Q120 329 121 350 Q121 355 120.5 361 Q120 367 117 372 Q115 371 113 371 Q111 371 109 370 Q104 366 99 363.5 Q94 361 89 356 Q51 326 26 284 L7 214 Q4 209 -2 207 Q-9 206 -17 209 Q-24 213 -23 221 Q-21 228 -19.5 234.5 Q-18 241 -16 248 Q-9 281 -1 313.5 Q7 346 16 379 Q29 425 43.5 470 Q58 515 73 560 Q87 602 101.5 644.5 Q116 687 131 730 Q132 733 132.5 735.5 Q133 738 134 741 Q137 746 141 745 Q146 743 149.5 740.5 Q153 738 151 732 Q149 722 147.5 712 Q146 702 143 692 Q132 650 120 610 Q108 570 96 528 Q82 480 68 433 Q54 386 40 338 Q40 339 41 339 Q51 349 60.5 358 Q70 367 81 375 Q85 377 88.5 379 Q92 381 96 383 Q113 391 130 383 Q148 376 151 355 Q152 353 151 333.5 Q150 314 134 276 Q140 278 146 280 Q152 282 158 284 Q184 294 207 311 Z M69 225 Q73 230 76.5 235.5 Q80 241 83 246 Q60 232 48 219 Q36 206 31 196 Q25 185 25 174 Q50 195 69 225 Z " />
<glyph glyph-name="c" unicode="c" horiz-adv-x="149" d="M160 308 Q164 304 158 298 Q129 275 102 248 Q75 221 49 195 Q47 193 41 188 Q35 183 27.5 179 Q20 175 11.5 173 Q3 171 -3 175 Q-13 181 -17.5 190.5 Q-22 200 -22.5 211 Q-23 222 -21 233.5 Q-19 245 -17 254 Q-13 271 -8 290 Q-3 309 5 327 Q13 345 24.5 360 Q36 375 51 384 Q61 390 75 384 Q81 382 82.5 376.5 Q84 371 82.5 364 Q81 357 78.5 350.5 Q76 344 75 340 Q71 334 64 340 Q60 343 61 347 Q62 351 64 354 Q66 357 65 362 Q57 352 47 328.5 Q37 305 28.5 278.5 Q20 252 16 228 Q12 204 15 194 Q26 202 34.5 211 Q43 220 54 228 Q71 243 87.5 258 Q104 273 122 288 Q127 292 133 297 Q139 302 150 312 L154 312 Q157 312 160 308 Z " />
<glyph glyph-name="a" unicode="a" horiz-adv-x="200" d="M203 309 Q207 313 212.5 312 Q218 311 221 306 Q214 298 208.5 290 Q203 282 198 274 Q193 266 188 258 Q183 250 178 242 L166 223 L155 204 Q142 184 129 168 Q118 154 105.5 143 Q93 132 83 134 L81 134 L79 134 Q78 135 77 135 Q69 139 67 143 Q62 150 62.5 166 Q63 182 66 198.5 Q69 215 73 229 Q77 243 78 247 L78 248 Q76 246 75 244 Q65 234 56 224 Q47 214 38 203 Q34 199 30.5 195 Q27 191 22 188 Q14 181 2.5 181 Q-9 181 -17 187 Q-23 192 -26 197 Q-32 208 -30 221 Q-27 262 -10.5 295.5 Q6 329 32 358 Q42 370 56 379 Q63 383 70.5 385.5 Q78 388 86 387 Q113 384 115 356 Q115 337 105 317 Q104 315 103.5 313.5 Q103 312 102 310 Q102 310 103 309 Q106 314 109 318.5 Q112 323 114 328 Q118 336 127 336 Q129 335 132 335 Q148 331 144 315 Q142 307 139.5 299.5 Q137 292 134 284 Q131 274 127.5 265 Q124 256 121 247 Q121 247 120 245 Q119 242 118.5 238.5 Q118 235 116 232 Q111 218 108.5 206 Q106 194 104 184 Q101 173 100 163 Q103 165 109.5 173.5 Q116 182 124 192 L142 218 L175 268 Q180 276 185.5 283.5 Q191 291 196 299 Q199 305 203 309 Z M5 203 Q57 249 97 302 Q92 302 88 302 Q84 302 81 307 Q82 311 85 314 Q90 323 93 332 Q96 341 97 352 Q97 357 96.5 363 Q96 369 92 374 Q84 373 78 368 L63 353 Q49 336 39 318.5 Q29 301 21 281 Q15 267 11 253.5 Q7 240 5 225 Q4 215 5 203 Z " />
</font>
</svg>
