<?xml version="1.0" encoding="UTF-8"?>
<svg xmlns="http://www.w3.org/2000/svg" xmlns:xlink="http://www.w3.org/1999/xlink" version="1.2" >
<font id="Bouttiques">
<font-face  font-family="Bouttiques" units-per-em="1000" ascent="750" descent="-250" font-style="normal" font-weight="400" font-stretch="normal" cap-height="700" x-height="500" underline-position="-75" underline-thickness="50" />
<missing-glyph  horiz-adv-x="87" d="" />
<glyph glyph-name="NULL" d="" />
<glyph glyph-name="CR" unicode="&#xd;" horiz-adv-x="87" d="" />
<glyph glyph-name="space" unicode="&#x20;" horiz-adv-x="87" d="" />
<glyph glyph-name="exclam" unicode="&#x21;" horiz-adv-x="150" d="M201 557 C201 558 201 558 201 558 C201 563 198 566 193 567 C188 568 186 567 183 562 C183 560 182 558 181 556 C174 538 167 520 161 502 C146 459 132 416 118 373 C100 321 80 269 63 216 C48 173 35 128 20 84 C8 47 -5 10 -18 -28 C-20 -33 -21 -39 -22 -44 C-24 -49 -22 -52 -19 -55 C-15 -58 -11 -59 -6 -57 C-4 -57 -3 -55 -3 -53 C-4 -49 -3 -46 -2 -42 C5 -23 12 -3 19 16 C34 57 50 97 64 138 C95 229 126 320 156 412 C170 453 183 495 196 537 C198 544 199 550 201 557 C201 557 201 557 201 557 L201 557 Z M-19 -87 C-24 -84 -29 -83 -33 -91 C-39 -102 -45 -113 -51 -124 C-53 -128 -53 -129 -49 -131 C-47 -132 -46 -132 -43 -133 C-42 -132 -39 -131 -37 -130 C-35 -127 -32 -125 -31 -122 C-26 -116 -23 -109 -19 -103 C-18 -101 -16 -99 -15 -96 C-14 -92 -14 -89 -19 -87 L-19 -87 Z " />
<glyph glyph-name="quotedbl" unicode="&#x22;" horiz-adv-x="199" d="M202 574 C198 579 192 581 186 582 C180 582 176 575 177 569 C178 568 178 566 178 564 C171 548 168 531 164 515 C163 509 162 504 161 498 C160 490 166 483 174 483 C177 482 178 483 179 485 C183 504 189 522 196 539 C199 547 202 556 204 565 C205 568 205 571 202 574 L202 574 Z M143 582 C136 582 132 575 133 569 C134 568 134 566 134 564 C128 548 125 531 121 515 C119 509 118 504 117 498 C116 490 122 483 130 483 C133 482 134 483 135 485 C139 504 146 522 152 539 C155 547 158 556 160 565 C161 568 161 571 158 574 C154 579 148 581 143 582 L143 582 Z " />
<glyph glyph-name="numbersign" unicode="&#x23;" horiz-adv-x="241" d="M111 226 C112 228 112 229 113 231 C118 246 123 261 128 276 C129 280 130 284 130 288 C130 289 129 292 128 293 C123 298 116 297 112 291 C109 287 107 283 105 278 C98 261 92 243 85 225 C84 223 83 221 80 220 C71 219 63 218 54 217 C49 216 43 215 37 214 C33 213 33 210 36 208 C39 205 43 204 47 204 C55 203 62 203 70 203 C72 203 75 203 78 204 C75 194 72 185 69 176 C66 175 64 175 62 174 C51 172 41 169 30 166 C27 166 24 164 21 162 C18 161 18 158 21 156 C23 155 25 154 27 153 C33 153 39 153 46 153 C51 153 56 154 61 154 C61 152 60 150 60 148 C54 131 49 113 43 96 C41 90 40 83 39 76 C38 74 38 72 40 70 C45 65 54 66 57 73 C59 77 60 82 62 86 C69 109 77 131 85 154 C86 156 86 158 89 158 C102 159 114 160 126 161 C127 161 129 161 131 161 C129 154 127 148 125 141 C120 122 115 103 109 83 C108 81 109 80 111 78 C117 74 123 76 127 82 C128 85 130 89 131 92 C138 114 145 136 151 158 C153 162 154 163 158 163 C168 164 178 165 188 165 C191 166 194 165 198 163 C203 159 209 157 215 160 C222 163 223 168 218 173 C216 175 214 177 212 177 C208 179 203 181 198 182 C188 182 177 182 167 182 C165 182 163 182 160 182 C163 193 166 204 170 214 C176 215 181 215 186 215 C189 215 192 215 195 214 C197 213 200 212 202 212 C207 212 209 216 206 221 C205 223 203 224 201 226 C196 228 191 230 186 230 C183 230 180 230 176 230 C177 233 178 236 179 239 C182 249 185 258 188 268 C190 274 187 278 181 280 C175 282 172 280 168 274 C168 273 167 272 167 271 C162 259 157 247 153 234 C152 232 151 231 151 229 C137 228 124 227 111 226 L111 226 Z M95 179 C95 180 95 181 95 182 C98 189 100 197 103 204 C104 206 104 207 107 208 C119 209 132 211 145 212 C145 212 145 212 146 212 C143 202 140 192 137 182 C123 181 109 180 95 179 L95 179 Z " />
<glyph glyph-name="dollar" unicode="&#x24;" horiz-adv-x="226" d="M157 433 C154 433 152 433 150 433 C133 432 117 430 102 423 C86 416 72 405 62 390 C54 379 51 366 54 351 C55 342 58 332 62 323 C70 304 80 286 90 268 C93 263 93 259 92 254 C82 228 73 201 65 175 C50 129 36 82 21 36 C20 35 20 32 18 31 C13 47 9 63 10 79 C11 92 13 103 26 110 C29 111 28 114 26 115 C23 118 19 119 15 118 C4 116 -4 111 -9 101 C-11 96 -12 91 -13 86 C-16 63 -12 40 -3 19 C-1 13 3 8 8 5 C10 3 11 1 10 -2 C4 -22 -1 -42 -6 -61 C-11 -82 -18 -103 -23 -124 C-25 -131 -26 -138 -27 -145 C-28 -153 -17 -159 -9 -155 C-8 -155 -7 -153 -7 -152 C-11 -146 -7 -140 -6 -134 C1 -113 8 -92 15 -71 C22 -50 30 -30 38 -10 C38 -10 38 -9 39 -8 C39 -8 40 -8 40 -8 C56 -10 71 -8 86 -3 C115 8 137 28 154 54 C167 74 173 96 174 120 C174 145 169 169 159 192 C151 213 140 233 128 252 C126 256 125 260 127 265 C145 313 162 362 179 411 C180 412 181 414 181 415 C183 415 185 415 187 414 C204 410 217 399 222 381 C224 375 224 368 224 361 C224 356 226 353 232 351 C237 350 240 352 243 357 C246 363 247 370 245 377 C243 389 236 399 227 407 C217 416 205 422 192 427 C190 427 188 428 186 428 C187 430 187 432 188 433 C202 471 216 510 231 548 C237 564 244 580 247 596 C248 600 249 604 249 608 C249 613 245 616 240 617 C235 618 234 618 231 612 C227 603 223 594 219 585 C204 553 190 521 177 489 C170 470 164 452 157 433 L157 433 Z M44 8 C67 80 89 151 113 223 C115 221 115 219 116 218 C126 198 133 176 136 154 C144 97 124 53 77 21 C69 15 60 11 51 9 C49 9 47 8 44 8 L44 8 Z M150 415 C135 375 120 335 105 295 C104 296 103 297 103 298 C97 310 91 321 87 334 C80 358 86 378 104 395 C117 406 132 412 150 415 L150 415 Z " />
<glyph glyph-name="percent" unicode="&#x25;" horiz-adv-x="186" d="M266 518 C264 519 262 520 260 521 C255 521 252 516 249 512 C234 491 219 470 204 449 C185 422 167 393 151 363 C129 322 106 281 84 240 C41 160 0 78 -38 -8 C-43 -20 -48 -33 -53 -45 C-56 -53 -59 -61 -62 -69 C-64 -78 -63 -84 -56 -88 C-54 -90 -51 -91 -48 -91 C-46 -91 -44 -90 -43 -86 C-40 -77 -37 -69 -33 -61 C-16 -21 4 17 24 55 C65 132 106 210 148 287 C170 329 192 371 217 410 C231 434 246 457 260 480 C264 486 267 493 270 500 C274 508 272 513 266 518 L266 518 Z M78 27 C75 30 71 31 66 31 C60 30 56 23 59 18 C60 17 60 15 60 14 C57 -1 51 -15 41 -27 C39 -30 37 -31 35 -34 C34 -33 34 -33 34 -33 C34 -30 34 -28 34 -26 C37 -7 44 9 54 25 C55 27 56 28 57 30 C58 32 58 34 56 36 C52 41 43 42 38 37 C33 33 29 29 26 24 C19 13 15 1 12 -12 C11 -17 11 -23 11 -29 C11 -35 13 -41 18 -45 C25 -51 37 -55 49 -49 C56 -45 61 -40 66 -35 C79 -19 82 0 82 19 C82 22 81 25 78 27 L78 27 Z M139 450 C155 436 176 438 189 456 C191 459 192 463 191 466 C190 476 186 485 179 492 C177 494 174 496 172 497 C167 499 161 499 158 494 C157 494 156 495 155 495 C149 496 144 495 141 490 C139 484 136 479 134 473 C131 465 132 456 139 450 L139 450 Z M161 480 C164 480 166 479 168 479 C168 471 163 466 157 461 C156 468 159 474 161 480 L161 480 Z " />
<glyph glyph-name="ampersand" unicode="&#x26;" horiz-adv-x="217" d="M130 189 C129 190 129 191 129 191 C123 209 117 226 111 244 C109 249 110 253 114 258 C133 285 153 311 172 338 C185 357 198 377 207 399 C212 413 217 427 218 442 C218 449 218 456 214 462 C208 473 197 476 186 477 C175 479 164 476 153 471 C125 458 105 437 89 411 C75 388 70 362 68 335 C66 310 69 285 74 260 C74 258 74 257 73 255 C55 230 38 205 24 178 C6 144 -8 108 -17 71 C-19 60 -21 49 -20 37 C-20 29 -16 24 -8 21 C-2 19 4 19 10 20 C18 22 24 27 30 32 C43 43 55 55 65 69 C82 90 99 112 116 134 C116 135 117 135 118 136 C122 127 125 118 128 110 C137 86 143 61 141 35 C141 32 141 29 141 26 C141 22 143 20 146 19 C150 18 155 19 157 22 C158 25 160 28 160 30 C162 40 164 50 164 60 C165 77 163 94 158 110 C152 128 146 145 140 163 C139 165 139 166 140 168 C143 171 145 174 147 177 C155 187 162 198 170 208 C173 213 172 216 167 218 C161 220 153 218 148 213 C146 211 144 208 142 206 C138 200 134 195 130 189 L130 189 Z M184 460 C185 453 184 446 182 439 C176 413 165 389 150 366 C136 342 119 319 102 296 C102 295 102 295 101 294 C101 297 100 299 100 302 C99 315 98 328 99 342 C103 387 122 423 160 449 C167 454 174 457 182 460 C183 460 183 460 184 460 L184 460 Z M11 45 C12 52 13 60 15 68 C25 110 43 149 65 186 C72 197 78 207 85 218 C86 217 86 216 87 215 C92 198 99 180 106 164 C107 162 107 161 106 160 C88 136 70 112 52 88 C40 73 28 59 14 46 C13 45 12 45 12 44 C11 44 11 44 11 45 L11 45 Z " />
<glyph glyph-name="quotesingle" unicode="&#x27;" horiz-adv-x="211" d="M193 584 C187 584 182 577 184 571 C184 570 185 568 184 566 C178 550 175 533 171 517 C170 511 168 506 168 500 C166 492 173 485 181 485 C183 484 185 485 185 487 C190 506 196 524 203 541 C206 549 208 558 211 567 C212 570 212 573 209 576 C204 581 198 583 193 584 L193 584 Z " />
<glyph glyph-name="parenleft" unicode="&#x28;" horiz-adv-x="100" d="M-54 -51 C-54 -66 -54 -80 -50 -94 C-46 -111 -42 -128 -37 -144 C-34 -156 -30 -168 -25 -179 C-21 -189 -11 -193 -2 -190 C-1 -189 0 -189 1 -188 C3 -186 3 -185 2 -182 C0 -178 -2 -175 -3 -171 C-6 -158 -10 -145 -13 -131 C-19 -102 -22 -71 -22 -41 C-21 -11 -17 18 -10 47 C12 151 44 250 89 344 C124 418 166 486 217 548 C234 569 252 590 270 610 C272 613 275 616 276 618 C279 623 279 627 275 630 C269 636 263 636 256 631 C251 628 246 623 242 619 C223 598 203 577 184 555 C160 526 139 494 119 461 C42 333 -11 196 -42 47 C-49 15 -54 -18 -54 -51 L-54 -51 Z " />
<glyph glyph-name="parenright" unicode="&#x29;" horiz-adv-x="159" d="M177 560 C177 573 177 585 176 597 C176 606 174 615 171 623 C169 627 166 629 162 631 C158 632 156 631 155 627 C154 625 154 623 154 621 C153 610 152 599 151 588 C149 566 147 544 145 523 C142 501 138 479 135 458 C128 420 121 382 111 346 C101 313 91 281 81 249 C64 195 46 142 25 89 C9 50 -8 11 -29 -25 C-53 -66 -76 -106 -100 -147 C-105 -156 -110 -165 -116 -174 C-117 -177 -118 -179 -119 -181 C-120 -183 -120 -185 -118 -187 C-112 -193 -101 -192 -96 -185 C-91 -180 -87 -174 -83 -168 C-72 -152 -61 -135 -50 -118 C-27 -86 -7 -52 12 -17 C37 29 56 77 74 126 C92 174 107 223 123 272 C133 304 143 337 151 370 C159 409 167 449 171 489 C174 513 177 536 177 560 L177 560 Z " />
<glyph glyph-name="asterisk" unicode="&#x2a;" horiz-adv-x="200" d="M195 263 C195 264 195 265 195 266 C194 267 194 267 193 268 C190 275 184 278 177 274 C171 271 166 268 161 264 C149 255 137 244 125 235 C124 234 123 233 121 232 C122 234 122 236 123 238 C126 246 129 254 132 262 C133 264 133 266 131 268 C127 275 119 275 115 268 C114 267 113 265 113 264 C109 257 106 251 103 244 C103 243 102 241 101 240 C100 242 100 243 99 244 C97 251 95 258 93 265 C91 273 86 275 77 274 C72 273 70 270 71 265 C71 262 72 258 72 255 C76 240 79 226 83 211 C83 210 83 208 84 206 C81 206 79 205 78 205 C67 204 57 204 47 203 C44 202 40 202 39 199 C38 195 40 193 42 190 C46 185 52 184 58 183 C61 183 64 183 68 183 C66 181 65 180 63 179 C53 170 43 161 33 152 C29 148 24 143 20 138 C19 137 18 135 18 133 C17 127 24 120 29 119 C31 119 34 119 34 121 C34 124 36 126 38 127 C49 138 61 148 73 158 C73 158 74 158 75 158 C74 156 74 154 73 152 C70 140 66 128 62 117 C60 110 61 106 70 102 C74 100 76 101 77 105 C83 123 89 140 94 157 C95 159 95 160 96 161 C96 161 97 161 97 160 C100 148 103 136 106 124 C107 123 106 122 106 121 C104 116 105 114 109 112 C114 109 119 109 124 111 C128 112 130 115 129 119 C129 120 129 122 129 123 C125 136 122 150 119 163 C118 170 117 176 115 183 C117 183 118 183 118 183 C130 183 142 183 153 183 C156 183 159 182 161 181 C164 180 167 179 170 180 C175 180 177 183 175 189 C175 190 174 191 174 191 C170 197 165 202 158 203 C153 204 148 204 143 205 C140 205 138 206 134 206 C137 208 138 209 139 210 C157 224 173 238 188 254 C191 257 192 260 195 263 L195 263 Z " />
<glyph glyph-name="plus" unicode="&#x2b;" horiz-adv-x="268" d="M122 208 C118 207 115 207 111 207 C89 205 67 202 45 200 C40 200 36 198 32 197 C28 196 27 193 29 189 C31 185 34 182 39 182 C43 181 46 181 50 181 C68 181 86 182 105 183 C107 183 109 183 112 183 C111 181 111 180 111 179 C103 159 97 139 91 119 C89 111 86 104 84 96 C83 92 84 90 86 88 C90 85 94 83 99 83 C102 83 104 85 106 88 C106 89 107 90 107 91 C118 120 129 149 140 179 C142 184 142 184 148 185 C149 185 149 185 150 185 C169 186 188 186 207 187 C218 188 228 189 238 190 C243 190 244 192 243 196 C242 203 235 210 228 211 C207 212 187 213 166 211 C161 211 157 211 152 211 C154 219 157 227 159 235 C165 254 172 274 175 294 C177 302 173 307 166 308 C162 309 160 309 158 305 C156 302 154 298 153 295 C148 283 144 270 140 258 C134 242 128 225 122 208 L122 208 Z " />
<glyph glyph-name="comma" unicode="&#x2c;" horiz-adv-x="109" d="M42 174 C34 174 29 167 33 159 C33 158 34 157 34 156 C34 154 33 152 32 149 C29 141 25 133 22 125 C21 123 21 120 20 117 C19 111 23 104 29 101 C33 100 34 101 35 104 C43 117 51 131 59 145 C60 147 61 150 63 152 C65 156 64 161 61 165 C56 171 50 174 42 174 L42 174 Z " />
<glyph glyph-name="hyphen" unicode="&#x2d;" horiz-adv-x="194" d="M117 182 C124 182 135 182 145 182 C150 182 152 185 150 190 C146 197 140 202 132 202 C125 203 119 204 112 204 C93 203 75 202 57 202 C54 202 51 201 48 201 C45 201 44 199 45 196 C46 194 47 193 49 191 C54 186 60 184 67 183 C83 181 98 181 117 182 L117 182 Z " />
<glyph glyph-name="period" unicode="&#x2e;" horiz-adv-x="90" d="M27 161 C25 161 22 160 19 159 C16 157 15 154 16 150 C17 144 27 136 34 136 C39 136 42 139 42 145 C43 152 35 160 27 161 L27 161 Z " />
<glyph glyph-name="slash" unicode="&#x2f;" horiz-adv-x="244" d="M-80 -193 C-73 -192 -68 -190 -64 -184 C-53 -165 -41 -146 -31 -127 C6 -62 40 4 73 70 C108 139 141 207 175 276 C200 325 225 374 251 422 C285 483 320 543 354 603 C360 613 366 623 371 633 C374 639 372 641 367 643 C363 644 360 644 357 639 C351 630 345 621 339 612 C299 551 262 489 228 426 C181 341 137 255 94 170 C56 93 17 16 -24 -60 C-46 -100 -67 -141 -86 -182 C-89 -189 -88 -191 -82 -192 C-81 -192 -80 -193 -80 -193 L-80 -193 Z " />
<glyph glyph-name="zero" unicode="0" horiz-adv-x="258" d="M252 345 C251 355 249 364 246 374 C240 391 228 403 209 407 C197 410 184 410 171 408 C168 407 165 406 163 407 C154 408 147 406 139 402 C129 396 119 387 110 379 C75 347 48 309 27 267 C2 219 -11 167 -12 110 C-12 102 -12 91 -10 81 C-9 66 -6 51 0 37 C6 24 15 13 30 8 C39 5 50 5 60 6 C70 8 79 11 87 16 C114 32 137 52 156 76 C201 133 230 196 246 266 C250 281 252 296 252 312 C253 322 252 334 252 345 L252 345 Z M218 293 C212 247 197 205 178 164 C164 136 149 109 130 85 C113 63 94 45 71 30 C67 27 61 24 56 22 C51 20 47 21 43 24 C37 28 34 33 31 39 C25 52 22 65 20 79 C17 98 16 118 17 137 C19 156 23 175 27 194 C39 242 61 285 90 324 C106 345 124 364 144 381 C145 382 145 382 146 383 C147 382 149 381 150 381 C158 378 160 379 164 384 C168 389 174 392 180 393 C186 394 210 395 216 363 C217 361 217 359 217 356 C217 355 218 354 218 353 C220 333 220 313 218 293 L218 293 Z " />
<glyph glyph-name="one" unicode="1" horiz-adv-x="75" d="M-44 -4 C-41 4 -38 11 -36 18 C-16 83 6 147 29 211 C41 243 53 276 65 308 C77 346 90 384 104 421 C106 424 106 428 107 431 C108 435 107 438 104 440 C99 444 93 445 87 444 C85 444 83 442 82 441 C74 431 66 420 58 410 C56 407 56 405 61 403 C63 402 67 402 70 401 C68 397 66 392 65 387 C53 352 41 317 28 282 C14 242 -1 203 -15 164 C-27 130 -38 96 -49 62 C-56 40 -62 17 -69 -6 C-70 -8 -70 -8 -72 -9 C-79 -10 -86 -12 -92 -14 C-94 -15 -96 -16 -97 -17 C-98 -19 -98 -20 -97 -21 C-95 -22 -93 -24 -91 -24 C-86 -24 -81 -24 -76 -24 C-64 -23 -51 -21 -39 -20 C-27 -18 -15 -16 -3 -13 C-1 -13 2 -11 4 -10 C7 -8 6 -5 4 -4 C2 -2 -1 -1 -3 -1 C-12 -1 -21 -2 -30 -3 C-35 -3 -39 -3 -44 -4 L-44 -4 Z " />
<glyph glyph-name="two" unicode="2" horiz-adv-x="200" d="M-43 9 C-41 13 -39 17 -37 20 C-32 28 -28 35 -23 42 C12 86 50 127 88 168 C115 197 141 227 165 259 C182 282 196 305 206 332 C213 350 216 370 212 389 C208 405 201 418 188 428 C172 440 153 442 134 439 C114 436 97 428 82 416 C59 399 46 375 39 347 C37 341 36 335 38 328 C39 322 49 319 53 323 C54 323 55 324 55 325 C56 328 57 330 58 333 C64 353 73 371 87 387 C102 405 121 417 144 422 C161 425 165 424 172 406 C177 395 177 383 176 371 C174 355 169 340 163 325 C150 297 134 271 115 247 C90 215 63 184 35 154 C6 123 -21 91 -47 57 C-60 41 -72 23 -79 3 C-82 -3 -81 -5 -76 -8 C-69 -11 -63 -11 -56 -10 C-40 -8 -24 -5 -9 -2 C2 -1 12 1 22 1 C40 2 58 1 77 1 C94 1 111 2 128 2 C133 2 137 4 141 8 C142 10 142 12 139 14 C137 15 134 16 131 17 C125 17 119 18 112 18 C104 19 97 20 88 20 C65 22 42 20 18 19 C3 18 -11 15 -26 13 C-31 11 -37 10 -43 9 L-43 9 Z " />
<glyph glyph-name="three" unicode="3" horiz-adv-x="245" d="M127 282 C128 284 129 285 130 286 C140 297 150 307 160 317 C175 333 189 349 202 366 C209 377 215 387 217 400 C220 416 214 429 200 437 C194 441 188 443 182 444 C162 447 144 443 128 432 C108 420 92 403 79 384 C76 380 74 375 73 370 C73 368 74 366 76 364 C81 360 88 361 92 366 C103 383 118 398 134 410 C146 419 160 426 176 428 C181 428 182 428 183 422 C183 421 183 421 183 421 C185 412 183 404 179 396 C173 382 165 369 155 357 C139 339 123 321 106 303 C102 299 99 295 95 291 C92 287 92 283 96 279 C97 278 98 277 99 276 C103 274 107 271 112 269 C120 266 128 261 134 254 C151 234 162 211 166 185 C171 156 170 128 158 100 C146 72 128 49 104 30 C88 17 70 4 51 -5 C39 -11 26 -16 12 -15 C1 -14 -9 -12 -17 -5 C-31 8 -38 23 -40 42 C-42 59 -40 76 -37 92 C-30 124 -16 152 0 179 C1 180 2 181 3 181 C5 182 8 184 8 186 C8 189 6 191 4 192 C-3 195 -12 194 -17 189 C-21 185 -24 180 -27 175 C-39 159 -48 141 -56 122 C-67 99 -72 75 -71 49 C-71 35 -68 22 -61 9 C-50 -11 -34 -25 -11 -29 C13 -32 36 -30 58 -22 C81 -13 101 -1 120 14 C148 34 171 58 186 89 C202 122 208 156 200 192 C193 223 177 249 152 267 C144 273 136 277 127 282 L127 282 Z " />
<glyph glyph-name="four" unicode="4" horiz-adv-x="168" d="M13 134 C13 134 12 135 12 135 C12 138 11 142 11 145 C11 156 14 166 17 177 C26 213 39 248 56 282 C78 325 100 368 122 410 C126 418 129 425 132 433 C133 436 133 438 129 440 C124 442 116 443 112 436 C108 430 103 424 100 418 C74 375 50 331 27 286 C9 251 -6 215 -15 176 C-18 166 -20 155 -20 145 C-20 133 -15 126 -4 121 C3 118 12 117 20 118 C31 120 41 124 50 130 C58 134 65 138 72 143 C72 141 72 141 72 140 C59 100 46 61 33 22 C30 12 28 2 26 -9 C24 -17 22 -24 20 -32 C19 -36 21 -41 25 -43 C29 -46 34 -46 38 -44 C41 -43 42 -42 40 -39 C40 -38 40 -36 40 -34 C44 -24 49 -13 53 -2 C56 6 61 15 64 24 C81 73 98 121 114 170 C116 175 118 180 123 184 C125 186 127 188 129 190 C130 191 131 192 131 194 C132 196 132 198 130 199 C128 200 126 200 124 201 C125 202 125 203 125 203 C141 249 156 294 172 339 C183 370 195 401 207 432 C209 438 210 444 212 451 C213 455 211 458 206 459 C201 461 197 459 195 455 C189 446 185 437 181 428 C158 378 138 327 119 275 C107 243 96 210 85 177 C84 175 83 173 80 172 C72 168 64 163 56 159 C45 152 34 146 23 140 C20 138 16 136 13 134 L13 134 Z " />
<glyph glyph-name="five" unicode="5" horiz-adv-x="185" d="M54 255 C55 256 56 257 56 258 C76 298 95 339 115 379 C121 392 128 405 135 418 C137 421 139 424 141 425 C144 427 148 428 152 428 C168 431 185 434 202 437 C210 438 217 440 224 442 C227 443 230 445 232 447 C234 449 234 452 231 454 C230 455 227 457 224 457 C215 456 206 456 197 455 C182 453 167 451 152 449 C141 447 130 445 120 441 C112 438 105 433 101 425 C94 411 87 397 80 382 C60 343 42 303 22 262 C16 249 10 234 3 220 C1 215 2 213 7 210 C17 204 29 206 37 213 C44 219 51 225 58 231 C67 238 76 244 86 248 C88 249 89 249 90 247 C91 244 93 241 94 238 C98 227 99 216 100 205 C100 189 98 173 95 157 C89 118 74 82 51 50 C39 32 24 17 8 3 C-4 -7 -17 -17 -30 -24 C-32 -25 -34 -25 -35 -24 C-40 -18 -43 -11 -44 -4 C-46 4 -46 13 -46 21 C-46 26 -45 30 -44 35 C-43 37 -42 38 -39 39 C-37 39 -35 39 -32 40 C-30 40 -28 42 -29 44 C-29 45 -31 47 -33 47 C-37 48 -40 48 -44 48 C-57 48 -66 41 -69 28 C-72 13 -72 -1 -70 -16 C-67 -32 -56 -41 -40 -42 C-29 -43 -19 -40 -9 -36 C7 -27 22 -17 37 -5 C60 14 81 36 97 62 C123 104 136 150 136 199 C136 212 135 225 131 237 C126 252 116 261 101 265 C88 267 76 266 65 260 C61 259 58 257 54 255 L54 255 Z " />
<glyph glyph-name="six" unicode="6" horiz-adv-x="168" d="M44 218 C45 219 45 220 45 221 C52 233 58 245 65 257 C99 321 140 380 189 433 C194 439 200 445 205 451 C208 455 207 458 204 460 C199 463 192 464 186 461 C183 459 179 457 177 454 C165 443 153 431 142 419 C116 389 92 357 70 324 C33 269 2 211 -19 148 C-30 113 -40 78 -43 41 C-44 28 -45 14 -42 0 C-40 -9 -37 -17 -30 -24 C-19 -33 -6 -35 7 -33 C18 -32 28 -27 37 -20 C51 -10 62 3 72 17 C104 62 127 110 133 164 C134 179 134 193 129 207 C124 219 117 228 104 231 C87 236 70 234 54 224 C51 222 48 220 44 218 L44 218 Z M1 -17 C-3 -11 -5 -5 -6 1 C-9 13 -9 25 -8 37 C-5 73 2 109 14 143 C16 150 19 157 21 164 C21 164 22 166 22 166 C25 167 25 169 25 171 C25 175 26 178 29 181 C33 185 36 189 41 192 C51 199 61 206 71 212 C76 215 83 216 88 218 C91 219 93 218 95 215 C100 206 102 196 102 185 C102 167 98 150 93 132 C83 99 70 66 51 36 C40 20 28 5 13 -8 C9 -11 5 -14 1 -17 L1 -17 Z " />
<glyph glyph-name="seven" unicode="7" horiz-adv-x="200" d="M217 435 C216 433 216 433 216 432 C209 421 202 410 195 399 C177 372 159 345 141 317 C119 282 97 247 75 212 C73 209 71 208 68 207 C56 206 44 205 31 203 C25 203 20 201 14 201 C13 202 11 200 9 200 C10 196 13 194 15 192 C20 190 24 189 29 189 C38 189 47 189 56 190 C57 190 58 189 60 189 C55 181 50 173 46 166 C24 130 1 96 -20 60 C-40 26 -59 -8 -79 -43 C-79 -43 -79 -43 -80 -44 C-81 -46 -80 -48 -78 -50 C-71 -55 -59 -54 -54 -47 C-39 -25 -23 -5 -9 17 C27 73 62 130 97 187 C99 190 101 191 105 191 C124 192 142 193 160 194 C176 196 193 197 209 199 C212 199 214 199 215 201 C216 205 214 206 212 208 C212 209 211 210 210 210 C206 213 201 214 196 214 C171 213 145 212 120 211 C118 211 116 211 113 211 C114 212 114 213 115 214 C121 224 128 234 134 245 C175 307 215 369 255 431 C256 433 256 434 257 435 C260 440 259 444 256 448 C254 450 252 452 250 453 C243 457 236 459 227 458 C214 457 201 456 187 455 C167 453 147 450 127 448 C112 446 97 444 83 442 C66 440 50 438 35 433 C33 432 30 432 30 429 C30 426 32 426 34 424 C36 424 37 423 38 423 C43 423 48 422 53 422 C65 422 77 423 90 424 C98 424 106 424 114 425 C140 427 166 430 192 433 C200 433 208 434 217 435 L217 435 Z " />
<glyph glyph-name="eight" unicode="8" horiz-adv-x="165" d="M196 433 C189 436 181 438 173 439 C156 442 140 441 123 438 C94 433 69 420 50 397 C32 377 21 353 15 326 C12 312 10 296 11 281 C13 261 18 243 26 225 C27 222 27 220 25 218 C3 194 -15 166 -32 138 C-47 112 -59 84 -67 55 C-71 43 -73 29 -71 16 C-69 5 -64 -4 -55 -11 C-46 -17 -35 -20 -24 -21 C-2 -22 19 -17 38 -7 C59 4 74 22 86 42 C107 76 110 112 96 149 C94 156 91 162 88 169 C91 173 95 177 98 182 C107 194 116 206 125 219 C144 245 163 271 182 297 C194 312 205 328 214 344 C215 347 217 349 219 352 C220 356 222 360 224 364 C242 410 198 432 196 433 L196 433 Z M37 21 C26 9 12 0 -4 -4 C-9 -5 -15 -5 -21 -6 C-27 -6 -32 -3 -35 2 C-39 8 -40 15 -41 22 C-41 33 -39 44 -35 54 C-28 82 -16 107 -2 133 C9 153 21 173 35 192 C36 193 37 195 39 198 C40 197 40 196 40 196 C49 178 58 160 64 141 C77 96 67 56 37 21 L37 21 Z M81 211 C79 208 76 204 73 199 C68 208 64 217 59 226 C60 231 56 234 54 239 C40 274 41 308 55 343 C64 366 77 385 97 399 C112 410 129 416 147 419 C152 419 157 420 162 420 C174 420 205 416 186 373 C175 355 165 338 154 321 C132 283 105 248 81 211 L81 211 Z " />
<glyph glyph-name="nine" unicode="9" horiz-adv-x="181" d="M128 341 C128 342 128 342 128 343 C128 344 129 345 129 346 C134 362 142 376 151 390 C163 405 176 418 192 427 C204 433 217 437 230 435 C232 435 233 435 234 435 C235 436 238 436 238 437 C238 439 238 441 237 442 C234 444 231 447 227 448 C218 452 209 452 199 451 C182 449 167 442 154 432 C132 415 117 393 106 368 C103 359 100 350 99 342 C98 333 100 325 107 320 C116 314 124 312 134 317 C139 320 143 322 146 326 C152 330 157 336 163 341 C164 342 165 343 166 343 C166 340 165 337 163 334 C146 277 127 221 107 166 C96 136 86 106 71 77 C59 52 45 28 28 6 C19 -5 9 -15 -4 -23 C-11 -28 -18 -31 -27 -32 C-35 -33 -39 -31 -41 -24 C-42 -19 -44 -15 -44 -10 C-45 8 -41 26 -37 44 C-35 50 -34 55 -31 60 C-28 60 -26 59 -24 59 C-18 59 -15 63 -17 69 C-18 71 -19 73 -21 74 C-29 80 -44 78 -50 68 C-53 65 -55 61 -56 56 C-62 43 -65 28 -67 13 C-69 4 -70 -6 -70 -15 C-70 -27 -64 -36 -53 -41 C-50 -43 -47 -44 -44 -45 C-19 -50 4 -45 26 -29 C42 -18 55 -3 66 13 C88 45 106 79 119 115 C132 149 144 183 156 217 C172 264 188 311 204 358 C206 365 207 373 209 380 C210 385 208 390 204 392 C200 394 196 396 192 397 C187 398 182 397 178 392 C173 387 168 381 163 375 C154 364 144 354 134 345 C132 344 130 343 128 341 L128 341 Z " />
<glyph glyph-name="colon" unicode="&#x3a;" horiz-adv-x="93" d="M29 151 C27 151 24 150 21 149 C18 148 17 144 18 141 C19 134 29 127 36 127 C41 127 44 130 44 135 C45 143 37 151 29 151 L29 151 Z M59 229 C56 229 48 222 48 218 C48 218 48 217 49 217 C50 212 57 206 62 205 C65 205 67 205 69 208 C70 211 71 214 71 215 C71 222 65 229 59 229 L59 229 Z " />
<glyph glyph-name="semicolon" unicode="&#x3b;" horiz-adv-x="54" d="M-8 146 C-16 146 -20 139 -17 131 C-16 130 -16 129 -15 128 C-16 126 -17 124 -18 121 C-21 113 -24 105 -27 97 C-28 95 -29 92 -29 89 C-30 83 -26 76 -20 73 C-17 72 -16 73 -14 76 C-6 89 2 103 9 117 C11 119 12 122 13 124 C15 128 15 133 11 137 C7 143 0 146 -8 146 L-8 146 Z M38 211 C37 220 31 224 22 222 C16 221 12 214 15 208 C17 205 28 197 32 197 C33 197 34 197 35 197 C39 198 40 200 40 204 C40 206 39 208 38 211 L38 211 Z " />
<glyph glyph-name="less" unicode="&#x3c;" horiz-adv-x="270" d="M63 183 C67 185 71 187 74 188 C104 202 134 214 164 224 C188 233 212 240 236 251 C247 255 257 260 267 268 C270 270 271 272 269 276 C266 282 260 285 253 282 C249 281 244 279 240 277 C219 268 198 259 176 251 C142 239 108 227 75 214 C65 210 56 206 46 203 C40 200 39 198 40 192 C40 187 42 182 46 178 C55 168 65 158 74 148 C86 137 98 127 109 116 C128 97 146 77 164 57 C168 54 172 50 177 47 C180 45 184 44 188 45 C191 46 192 47 191 50 C191 52 190 54 189 55 C184 63 179 71 173 79 C165 89 157 98 148 107 C126 131 101 150 76 171 C72 175 68 179 63 183 L63 183 Z " />
<glyph glyph-name="equal" unicode="&#x3d;" horiz-adv-x="242" d="M178 167 C167 170 155 172 144 173 C126 174 108 174 89 173 C78 173 67 172 56 171 C47 170 39 169 30 168 C24 167 23 164 27 158 C30 154 34 150 40 149 C46 148 53 147 60 147 C76 147 93 147 110 147 C110 147 110 147 110 147 C118 147 126 146 135 147 C152 147 169 147 187 148 C192 148 194 150 191 156 C189 161 184 166 178 167 L178 167 Z M213 216 C212 217 212 219 211 220 C208 226 203 229 197 230 C186 232 175 234 164 235 C164 235 164 235 164 235 C162 235 160 235 157 236 C155 236 153 236 151 236 C141 236 130 236 130 236 C106 234 83 233 60 231 C57 231 55 231 52 230 C47 229 46 227 48 223 C51 218 56 214 62 214 C72 212 83 211 93 211 C112 211 131 211 150 211 C160 211 170 210 180 211 C189 211 198 212 208 211 C212 211 213 212 213 216 L213 216 Z " />
<glyph glyph-name="greater" unicode="&#x3e;" horiz-adv-x="270" d="M186 183 C185 182 184 181 183 181 C148 166 114 150 81 131 C55 116 31 100 7 83 C-1 78 -8 74 -16 68 C-21 65 -26 61 -31 57 C-34 55 -34 53 -33 50 C-31 45 -28 42 -24 40 C-21 39 -19 39 -16 41 C8 54 31 67 54 81 C109 112 164 141 223 162 C227 163 228 166 228 170 C227 177 223 182 218 185 C211 190 204 194 196 199 C175 211 154 224 133 236 C122 242 110 247 99 253 C84 262 69 271 54 280 C52 281 49 283 47 283 C44 284 43 282 43 280 C44 277 45 275 46 273 C49 270 52 266 56 263 C74 247 94 234 115 223 C139 209 162 196 186 183 L186 183 Z " />
<glyph glyph-name="question" unicode="&#x3f;" horiz-adv-x="238" d="M292 489 C292 509 286 526 276 539 C260 562 238 572 210 573 C206 572 200 572 193 570 C168 565 145 550 125 526 C114 514 104 501 97 485 C91 473 88 462 88 449 C87 441 93 434 98 435 C102 436 102 437 101 441 C101 442 101 443 102 444 C104 454 108 463 113 471 C134 507 159 532 190 545 C209 553 228 553 245 544 C255 539 263 528 265 512 C267 500 265 487 262 473 C257 457 251 442 244 427 C228 394 209 363 190 333 C167 299 144 266 121 232 C90 187 59 141 31 92 C24 79 16 66 10 51 C8 45 5 40 3 35 C0 29 -2 24 -5 19 C-11 6 -17 -7 -20 -22 C-21 -25 -21 -27 -19 -29 C-14 -32 -9 -34 -4 -24 C-3 -23 -2 -21 -2 -20 C1 -14 4 -7 8 -1 C15 12 22 25 31 37 C41 50 50 64 59 79 C83 118 106 156 132 192 C152 222 173 250 193 279 C215 311 237 343 256 378 C266 398 276 418 284 440 C289 456 293 472 292 489 L292 489 Z M-36 -118 C-37 -117 -38 -116 -38 -113 C-38 -112 -39 -110 -40 -110 C-42 -108 -44 -107 -47 -106 C-54 -107 -58 -112 -60 -121 C-62 -127 -63 -134 -59 -138 C-54 -143 -48 -144 -41 -141 C-37 -139 -35 -136 -34 -131 C-33 -126 -33 -121 -36 -118 L-36 -118 Z " />
<glyph glyph-name="at" unicode="&#x40;" horiz-adv-x="303" d="M261 364 C253 368 246 370 239 371 C186 383 136 360 96 332 C92 329 6 265 -19 142 C-21 130 -23 117 -24 105 C-25 84 -25 63 -21 42 C-17 27 -12 12 -3 -2 C4 -14 15 -22 27 -28 C28 -28 29 -28 30 -29 C30 -29 30 -29 30 -29 C33 -30 36 -31 39 -31 C73 -39 110 -6 118 1 C131 13 144 26 156 39 C161 44 165 49 170 54 C170 54 171 55 171 56 C175 60 179 65 183 69 C196 87 203 102 203 102 C205 107 203 109 199 112 C190 116 185 115 179 107 C179 107 178 107 178 106 C152 71 121 40 88 12 C80 5 47 -21 33 -3 C28 3 25 11 22 20 C14 42 13 66 14 90 C14 107 16 124 20 141 C24 164 30 186 37 207 C45 226 83 315 173 345 C180 347 187 349 194 351 C201 352 262 361 276 317 L276 317 C278 312 279 305 279 297 C279 296 279 295 279 294 C279 294 279 294 278 294 C278 285 277 276 275 267 C269 241 260 217 244 196 C235 185 225 175 214 168 C209 165 204 162 197 161 C197 163 197 165 197 166 C197 170 197 175 197 179 C197 185 198 191 198 197 C198 203 195 208 190 211 C187 212 183 213 180 214 C173 217 166 215 161 209 C156 204 151 200 146 196 C146 196 145 196 145 196 C145 197 145 198 146 198 C152 211 160 223 171 233 C177 238 183 243 191 245 C193 246 196 247 196 248 C196 250 194 252 193 254 C192 255 190 255 189 256 C183 259 176 259 170 257 C158 255 148 249 139 240 C127 229 118 215 112 199 C110 195 110 190 109 185 C108 181 110 177 113 173 C121 165 135 162 145 168 C150 171 154 174 159 178 C160 179 162 180 163 181 C164 178 164 175 164 172 C165 164 169 157 176 152 C185 145 195 141 206 142 C220 143 232 149 242 156 C260 169 274 185 284 203 C298 227 307 251 309 277 C313 335 275 358 261 364 L261 364 Z " />
<glyph glyph-name="A" unicode="A" horiz-adv-x="330" d="M324 347 C336 381 348 415 355 450 C361 484 367 518 367 552 C367 554 367 555 368 556 C367 567 367 579 367 590 C366 591 366 593 365 595 C364 610 358 623 347 633 C336 644 324 650 310 648 C302 646 295 643 288 638 C277 631 268 621 259 611 C239 587 221 563 205 536 C171 480 141 421 114 361 C84 294 54 228 25 162 C23 158 20 156 16 154 C-12 142 -41 129 -68 113 C-104 92 -138 69 -167 39 C-188 19 -206 -4 -219 -31 C-224 -42 -229 -52 -230 -64 C-234 -90 -224 -115 -196 -126 C-186 -130 -176 -132 -165 -132 C-145 -131 -126 -125 -109 -114 C-87 -100 -70 -81 -54 -60 C-33 -30 -14 1 3 33 C18 63 33 94 48 124 C50 127 52 130 55 131 C62 133 69 135 75 138 C123 155 173 166 222 179 C223 179 224 179 225 179 C224 176 224 174 223 172 C211 137 198 103 186 68 C177 43 170 18 163 -8 C161 -12 161 -18 160 -23 C160 -27 162 -29 165 -31 C171 -33 178 -33 181 -25 C182 -23 183 -21 184 -19 C189 -8 194 3 197 14 C218 74 244 130 268 188 C269 191 270 192 273 193 C282 194 291 196 300 197 C313 199 326 200 339 201 C343 202 346 201 348 199 C350 197 352 196 354 196 C359 194 362 197 360 202 C359 206 356 209 354 212 C347 219 339 223 331 223 C322 224 312 224 303 224 C296 224 289 223 281 222 C282 224 282 225 282 226 C296 266 310 306 324 347 L324 347 Z M-4 102 C-27 55 -52 10 -80 -34 C-92 -51 -105 -68 -120 -82 C-135 -96 -151 -107 -170 -111 C-173 -112 -175 -112 -178 -112 C-186 -113 -191 -110 -195 -102 C-200 -91 -201 -80 -198 -69 C-196 -60 -193 -52 -188 -44 C-180 -28 -169 -15 -158 -2 C-133 26 -104 49 -73 67 C-52 80 -30 92 -9 103 C-7 104 -5 105 -3 106 C-3 104 -3 103 -4 102 L-4 102 Z M241 223 C239 218 237 216 233 216 C211 214 190 209 169 204 C139 197 109 188 79 178 C77 177 76 177 73 176 C74 178 74 179 75 181 C105 247 135 314 165 380 C188 430 215 478 244 524 C257 546 273 567 289 587 C297 596 306 605 316 612 C320 615 325 618 332 619 C333 612 334 607 334 601 C335 581 333 561 331 540 C324 487 312 435 295 385 C277 331 259 277 241 223 L241 223 Z " />
<glyph glyph-name="B" unicode="B" horiz-adv-x="380" d="M48 227 C48 230 48 233 48 236 C49 249 53 262 56 275 C68 318 85 358 105 398 C132 454 165 504 210 549 C248 587 292 617 343 635 C363 641 382 646 403 644 C416 643 429 639 441 633 C450 628 455 620 457 610 C459 601 460 592 458 583 C456 563 449 545 440 527 C426 503 411 482 392 462 C359 425 319 396 277 371 C256 360 235 350 215 339 C207 335 199 331 191 325 C183 320 182 314 189 306 C193 301 198 297 203 293 C215 283 228 273 241 262 C266 242 282 215 287 183 C291 153 290 124 283 95 C268 34 240 -20 198 -67 C175 -93 150 -115 117 -129 C89 -142 59 -150 27 -147 C4 -145 -12 -134 -18 -111 C-20 -107 -21 -102 -22 -98 C-26 -73 -25 -47 -17 -22 C4 52 52 104 123 133 C135 138 149 141 162 140 C163 139 166 140 168 141 C172 142 172 145 169 147 C166 150 162 152 159 153 C150 156 142 156 133 156 C121 154 109 152 97 148 C54 133 19 108 -9 74 C-50 26 -69 -29 -64 -91 C-61 -125 -43 -148 -12 -160 C-8 -162 -5 -163 -2 -164 C24 -171 51 -171 78 -167 C129 -160 175 -138 213 -102 C259 -60 291 -9 312 49 C325 86 331 124 325 163 C319 204 301 238 270 265 C255 278 240 289 224 300 C222 302 220 303 217 306 C220 308 223 310 226 312 C236 317 245 322 256 327 C294 345 331 365 365 390 C399 414 428 442 452 476 C464 493 475 511 480 531 C487 551 489 571 486 591 C481 618 467 638 444 652 C415 670 382 674 348 667 C308 658 272 642 238 620 C209 600 182 576 159 550 C130 517 104 481 87 441 C78 422 71 403 62 384 C48 348 35 312 26 275 C24 262 20 249 22 236 C24 221 32 211 46 208 C51 208 55 208 59 210 C62 212 66 214 66 217 C66 221 63 223 60 224 C56 226 52 226 48 227 L48 227 Z " />
<glyph glyph-name="C" unicode="C" horiz-adv-x="308" d="M278 605 C278 604 278 604 279 604 C278 601 278 599 277 596 C269 568 261 539 253 510 C250 499 246 488 243 477 C237 455 231 434 228 412 C226 398 237 385 249 382 C251 381 253 381 255 381 C258 382 260 384 258 387 C256 393 257 398 259 404 C263 417 267 430 271 443 C283 475 293 507 309 538 C312 544 314 550 316 557 C320 567 323 577 325 588 C327 604 324 618 310 628 C290 642 270 646 249 633 C241 628 234 622 227 616 C187 582 155 542 129 497 C104 455 83 410 63 365 C36 307 14 246 -6 184 C-18 146 -31 107 -42 68 C-51 37 -57 4 -57 -29 C-57 -45 -55 -60 -49 -76 C-44 -89 -35 -99 -22 -106 C-10 -112 3 -114 17 -114 C31 -113 44 -109 56 -103 C75 -94 91 -83 107 -70 C150 -36 184 5 214 50 C241 91 259 135 268 183 C272 198 274 213 272 229 C270 243 265 254 252 261 C236 270 220 271 204 261 C196 256 189 250 182 243 C166 224 153 203 144 180 C142 174 140 169 139 163 C138 159 138 154 139 150 C140 145 145 142 150 142 C155 141 157 143 159 148 C167 172 180 194 195 214 C201 222 208 229 214 236 C218 239 222 242 226 245 C227 245 228 246 230 246 C230 243 231 240 231 237 C230 227 230 217 229 207 C223 169 210 134 193 101 C166 49 132 3 91 -39 C73 -57 54 -72 31 -84 C24 -88 16 -90 8 -93 C2 -96 -3 -93 -6 -88 C-9 -83 -11 -77 -13 -71 C-18 -54 -18 -37 -18 -20 C-16 7 -11 34 -3 60 C8 98 20 135 32 172 C61 262 96 349 140 432 C158 466 177 500 201 530 C220 555 241 577 265 596 C269 599 274 602 278 605 L278 605 Z " />
<glyph glyph-name="D" unicode="D" horiz-adv-x="350" d="M-44 32 C-45 30 -45 28 -46 25 C-56 -5 -67 -36 -77 -67 C-82 -80 -86 -94 -90 -108 C-93 -115 -92 -117 -85 -120 C-80 -123 -75 -123 -69 -123 C-61 -123 -55 -120 -53 -112 C-50 -104 -47 -97 -44 -89 C-30 -46 -15 -3 -1 39 C0 43 2 46 5 47 C40 65 75 83 110 101 C134 113 156 126 178 140 C217 167 251 199 284 233 C316 268 346 305 370 346 C382 367 393 388 400 410 C406 430 410 450 407 471 C404 489 396 505 381 516 C363 529 343 533 322 530 C304 528 288 521 272 512 C251 500 232 486 214 470 C172 434 136 392 104 345 C103 343 102 342 100 340 C100 342 101 344 101 346 C108 365 115 385 122 404 C140 456 158 507 179 557 C191 587 202 616 214 646 C215 650 216 654 218 658 C219 662 217 665 214 667 C208 672 201 671 197 664 C192 656 187 648 182 640 C158 594 136 546 118 498 C77 391 39 283 4 174 C-8 136 -22 97 -34 58 C-36 54 -38 51 -42 50 C-45 48 -48 47 -51 45 C-55 43 -56 41 -53 38 C-50 36 -47 34 -44 32 L-44 32 Z M14 80 C14 83 15 85 15 87 C23 110 30 132 38 155 C43 169 49 183 56 197 C82 254 114 309 153 359 C185 400 221 438 264 469 C281 481 298 492 318 499 C327 503 337 506 348 507 C353 507 356 505 358 500 C363 490 364 479 364 469 C363 451 359 435 353 419 C344 395 332 372 318 350 C283 295 241 244 193 199 C167 174 138 154 108 135 C79 117 50 100 20 84 C19 83 17 82 14 80 L14 80 Z " />
<glyph glyph-name="E" unicode="E" horiz-adv-x="363" d="M64 246 C64 274 67 301 75 326 C94 387 128 438 175 480 C206 508 240 531 276 552 C302 567 330 579 358 589 C381 596 405 600 429 598 C449 596 465 589 477 572 C484 562 489 551 492 540 C494 533 498 530 505 529 C511 529 516 532 519 537 C520 540 521 544 522 548 C522 556 519 564 515 571 C504 589 488 601 469 609 C435 622 400 626 363 620 C331 614 300 603 271 587 C226 564 184 537 146 505 C88 456 48 395 27 322 C15 281 11 240 20 198 C28 160 40 125 64 94 C66 91 67 89 69 87 C72 81 71 79 67 74 C62 70 56 65 51 61 C31 45 13 26 1 3 C-10 -18 -19 -40 -22 -64 C-24 -90 -12 -109 12 -119 C15 -120 18 -121 22 -122 C38 -126 54 -125 70 -120 C115 -105 150 -76 178 -38 C184 -30 189 -22 195 -14 C210 7 225 27 240 48 C244 54 247 62 250 69 C253 74 251 78 244 79 C236 80 229 79 223 72 C218 65 212 58 206 51 C179 19 153 -14 121 -42 C108 -55 95 -67 81 -79 C71 -87 60 -93 49 -98 C43 -100 39 -99 35 -95 C29 -90 27 -83 26 -76 C25 -65 26 -54 29 -43 C39 -8 60 20 89 42 C95 47 102 52 109 57 C113 60 117 63 120 67 C126 73 127 80 123 88 C120 92 117 97 114 101 C100 120 89 141 81 164 C71 192 63 220 64 246 L64 246 Z " />
<glyph glyph-name="F" unicode="F" horiz-adv-x="215" d="M240 627 C241 631 242 636 243 640 C243 644 243 648 240 651 C230 660 216 659 209 648 C205 641 201 634 198 627 C197 624 194 623 191 622 C171 620 151 618 132 616 C123 615 114 613 105 611 C100 610 99 607 101 602 C104 597 108 593 114 593 C118 592 123 591 127 591 C143 591 159 591 175 590 C177 590 179 590 182 590 C156 520 131 450 106 380 C97 378 88 377 79 376 C52 372 26 367 0 361 C-5 360 -10 358 -14 356 C-18 355 -18 353 -17 349 C-16 344 -11 339 -6 339 C-1 339 4 339 9 339 C32 342 55 344 78 347 C83 347 89 348 95 348 C94 345 93 343 92 340 C77 295 61 250 46 205 C22 134 3 61 -17 -12 C-33 -71 -51 -129 -60 -190 C-62 -201 -63 -213 -65 -224 C-66 -230 -64 -232 -59 -233 C-52 -235 -46 -234 -41 -231 C-37 -229 -36 -226 -35 -223 C-34 -218 -33 -214 -31 -209 C-26 -191 -20 -173 -14 -155 C1 -104 16 -52 31 0 C63 109 98 216 136 323 C139 333 143 343 147 353 C149 354 151 354 154 354 C171 356 188 357 205 358 C221 360 238 361 254 363 C268 364 282 367 296 368 C314 371 333 373 352 375 C357 376 359 378 357 384 C355 393 348 399 338 398 C317 397 296 396 275 395 C245 394 215 392 186 388 C177 388 168 387 158 386 C182 455 206 523 230 592 C234 592 237 592 241 592 C267 593 293 594 319 595 C358 598 396 601 435 603 C466 606 496 609 526 613 C548 617 571 618 593 621 C601 622 608 623 616 624 C619 624 623 625 624 628 C628 636 622 647 614 646 C601 646 588 646 574 645 C555 644 535 643 516 642 C496 642 476 641 457 640 C417 638 377 635 336 632 C310 631 284 629 258 627 C252 627 246 627 240 627 L240 627 Z " />
<glyph glyph-name="G" unicode="G" horiz-adv-x="407" d="M335 129 C336 132 337 134 338 136 C343 150 348 164 353 178 C366 214 379 250 392 286 C402 317 413 348 423 379 C427 390 429 403 431 415 C433 424 428 431 419 435 C409 439 405 438 398 431 C387 419 377 408 366 397 C352 382 337 367 323 351 C300 326 277 300 253 275 C228 249 203 224 175 201 C155 184 134 170 111 159 C102 155 92 152 82 150 C78 149 76 150 74 153 C69 160 67 167 65 174 C59 199 59 223 62 248 C68 288 81 327 100 363 C126 412 158 457 195 498 C217 523 243 545 272 563 C291 575 312 585 335 589 C347 592 359 593 371 590 C378 588 384 584 388 577 C390 573 392 570 393 566 C395 562 398 559 403 557 C412 553 420 559 419 569 C419 575 416 581 412 585 C406 591 401 597 394 601 C372 615 348 621 323 619 C314 618 305 617 297 615 C274 609 253 599 234 587 C206 569 180 547 158 522 C114 474 77 420 48 362 C29 323 16 282 13 238 C11 219 11 199 17 181 C23 159 34 142 54 132 C68 124 84 121 100 122 C119 122 136 128 153 136 C177 148 198 163 218 181 C255 214 291 248 324 286 C333 296 343 307 352 317 C353 318 355 320 356 321 C356 319 356 318 356 318 C351 305 346 292 342 280 C322 225 304 170 281 117 C279 112 275 108 271 105 C246 90 222 75 198 58 C175 41 155 20 136 -1 C119 -21 103 -42 92 -66 C82 -87 76 -110 78 -133 C79 -163 99 -181 128 -182 C151 -183 170 -176 187 -160 C196 -152 205 -143 211 -132 C221 -117 231 -102 240 -86 C262 -47 280 -6 297 35 C306 59 316 82 325 106 C328 113 331 114 338 111 C342 110 346 109 349 109 C353 109 355 112 354 116 C352 121 348 124 344 126 C341 127 338 128 335 129 L335 129 Z M260 68 C260 66 259 65 259 65 C245 31 232 -4 217 -37 C206 -62 193 -86 181 -110 C174 -123 165 -136 155 -146 C151 -152 145 -157 139 -161 C134 -165 131 -165 125 -160 C119 -156 116 -149 113 -142 C110 -129 110 -117 113 -104 C117 -88 124 -74 132 -60 C143 -42 157 -26 171 -10 C190 10 211 29 232 47 C240 53 247 59 255 65 C256 66 258 67 260 68 L260 68 Z " />
<glyph glyph-name="H" unicode="H" horiz-adv-x="325" d="M25 236 C24 234 23 232 23 230 C18 218 14 206 10 194 C-12 138 -27 81 -35 23 C-36 14 -36 6 -36 -3 C-35 -10 -30 -14 -20 -13 C-14 -13 -13 -12 -12 -7 C-7 15 -3 38 3 60 C7 74 13 87 18 101 C33 144 48 188 63 232 C65 236 67 238 72 238 C104 239 137 240 169 242 C192 243 216 245 239 247 C241 247 243 247 245 247 C244 245 244 243 243 242 C229 201 215 160 201 119 C165 18 140 -85 121 -190 C119 -198 118 -207 117 -215 C117 -218 117 -220 121 -222 C132 -227 147 -223 150 -214 C151 -212 151 -210 152 -208 C159 -180 166 -153 172 -126 C201 0 241 122 285 244 C286 246 287 248 287 251 C292 251 296 251 301 252 C309 252 318 253 327 254 C334 255 335 256 335 261 C334 267 330 271 326 275 C321 280 315 282 307 282 C305 282 302 282 299 282 C302 291 305 299 308 307 C326 353 344 399 361 446 C381 502 399 558 419 614 C422 622 425 631 427 639 C429 645 426 650 418 654 C405 659 395 656 390 646 C375 613 362 578 351 544 C323 458 294 373 260 289 C259 286 258 283 257 281 C197 279 139 277 79 275 C80 277 81 279 81 282 C96 323 111 365 126 406 C149 472 172 538 196 604 C197 609 199 614 201 619 C201 621 201 623 200 625 C197 630 179 634 174 627 C172 624 170 621 168 618 C158 601 151 584 145 567 C110 470 75 374 40 278 C39 276 39 274 38 272 C36 272 35 271 34 271 C11 270 -12 268 -35 267 C-46 266 -57 264 -68 262 C-76 261 -77 258 -74 252 C-73 251 -73 250 -72 248 C-65 240 -56 236 -43 236 C-24 236 -5 236 14 236 C17 236 21 236 25 236 L25 236 Z " />
<glyph glyph-name="I" unicode="I" horiz-adv-x="143" d="M183 581 C183 580 183 580 182 579 C168 544 153 509 140 473 C110 392 82 312 54 231 C36 176 19 121 1 67 C-11 28 -22 -11 -30 -50 C-32 -55 -33 -57 -38 -57 C-40 -57 -42 -58 -43 -58 C-62 -61 -80 -65 -98 -71 C-103 -72 -107 -74 -112 -76 C-116 -78 -116 -81 -114 -84 C-111 -90 -106 -93 -100 -94 C-90 -96 -81 -95 -71 -93 C-56 -91 -40 -89 -24 -86 C-11 -84 2 -82 15 -80 C25 -78 35 -75 46 -72 C50 -71 54 -70 58 -69 C62 -68 63 -66 62 -62 C59 -54 48 -47 40 -47 C36 -48 33 -48 29 -49 C19 -50 10 -51 0 -52 C0 -50 1 -49 1 -48 C3 -43 5 -39 6 -35 C26 28 46 90 68 152 C88 212 110 272 131 332 C160 416 192 500 218 585 C218 586 219 587 220 587 C234 590 248 593 261 597 C283 602 304 607 326 612 C331 613 332 615 329 620 C329 621 328 621 327 622 C322 628 315 631 307 630 C298 630 289 629 281 628 C267 626 253 624 239 622 C228 620 217 619 207 617 C183 612 159 606 135 600 C124 598 114 595 103 592 C96 589 96 585 101 580 C102 580 102 580 103 579 C107 576 111 575 116 575 C132 576 147 577 162 579 C169 579 176 580 183 581 L183 581 Z " />
<glyph glyph-name="J" unicode="J" horiz-adv-x="224" d="M276 610 C276 609 275 608 275 608 C263 573 249 540 237 505 C216 443 195 381 173 318 C161 283 148 248 136 213 C135 211 134 210 133 209 C111 202 89 193 66 186 C4 168 -52 138 -99 94 C-128 68 -154 40 -172 6 C-195 -35 -207 -79 -204 -126 C-202 -147 -197 -166 -185 -183 C-170 -202 -151 -212 -125 -212 C-107 -211 -90 -206 -74 -200 C-39 -186 -12 -163 10 -134 C36 -102 56 -66 75 -29 C93 6 107 43 123 79 C138 117 153 155 168 193 C169 195 170 196 172 197 C179 200 187 203 194 206 C197 207 200 208 200 212 C200 216 197 217 193 219 C193 219 193 219 192 219 C188 220 184 221 179 222 C181 226 183 231 184 235 C209 305 234 374 258 443 C268 470 275 497 284 524 C292 546 299 568 303 591 C305 598 306 606 307 613 C308 613 308 613 309 613 C317 615 326 615 334 617 C351 619 369 623 386 626 C390 626 395 627 399 627 C404 627 407 629 405 634 C405 635 405 637 404 638 C398 645 391 651 380 650 C371 650 363 649 354 648 C333 647 313 646 292 644 C266 641 240 638 215 632 C204 630 194 627 184 622 C178 619 178 616 182 611 C188 605 196 602 205 603 C222 604 239 606 256 608 C262 608 269 609 276 610 L276 610 Z M122 178 C119 169 116 162 114 154 C92 96 70 38 43 -18 C24 -58 3 -97 -23 -132 C-38 -153 -57 -169 -79 -181 C-88 -186 -97 -189 -107 -191 C-115 -192 -122 -190 -128 -186 C-143 -176 -152 -162 -157 -145 C-163 -128 -163 -111 -162 -93 C-156 -33 -128 18 -84 61 C-49 95 -8 121 37 141 C64 153 92 165 119 177 C120 177 121 177 122 178 L122 178 Z " />
<glyph glyph-name="K" unicode="K" horiz-adv-x="293" d="M58 235 C61 243 64 251 67 258 C68 261 70 263 73 264 C107 279 139 296 170 317 C243 366 307 425 365 491 C386 516 406 542 426 568 C450 599 475 630 500 661 C504 666 504 668 500 673 C497 678 492 681 486 683 C482 684 478 683 475 680 C472 677 469 674 466 670 C443 643 419 615 395 587 C379 570 363 553 347 535 C301 484 254 434 203 388 C168 356 131 327 91 303 C89 301 87 300 83 298 C84 300 84 302 84 303 C88 312 91 321 95 330 C117 386 139 443 161 499 C176 539 189 580 199 622 C200 628 201 634 201 639 C202 644 200 646 196 648 C190 650 186 649 183 643 C178 633 173 623 169 612 C154 575 141 539 126 502 C97 427 64 353 38 276 C37 274 36 273 35 272 C30 269 24 267 19 265 C14 267 10 269 6 271 C5 272 3 272 1 272 C-8 269 -11 259 -5 252 C2 243 10 235 18 227 C19 226 20 224 22 223 C18 211 14 200 11 189 C0 155 -10 121 -20 87 C-21 83 -22 79 -23 75 C-23 72 -23 68 -21 66 C-17 62 -7 60 -2 62 C0 63 1 65 1 66 C-1 73 3 78 5 84 C17 122 30 159 43 196 C44 197 44 198 45 199 C46 198 48 197 49 196 C67 178 85 160 103 142 C157 87 210 32 266 -21 C305 -58 344 -94 382 -131 C418 -165 454 -199 490 -233 C494 -237 497 -240 501 -243 C505 -246 506 -246 509 -243 C514 -239 516 -233 517 -227 C517 -222 514 -219 511 -216 C497 -202 483 -188 468 -174 C429 -135 389 -96 350 -56 C288 8 227 72 165 136 C131 170 97 204 60 234 C60 234 59 235 58 235 L58 235 Z " />
<glyph glyph-name="L" unicode="L" horiz-adv-x="168" d="M-28 -113 C-28 -112 -27 -111 -27 -110 C-19 -90 -10 -70 -3 -50 C21 18 45 86 65 155 C92 245 121 334 151 423 C170 480 189 537 208 594 C213 610 217 626 221 642 C223 650 219 655 211 658 C206 660 204 659 202 655 C196 643 189 631 184 618 C161 562 138 507 118 450 C88 365 60 279 32 194 C8 119 -15 43 -40 -31 C-46 -48 -52 -64 -55 -82 C-57 -93 -61 -105 -64 -116 C-64 -119 -65 -120 -68 -120 C-86 -124 -103 -128 -121 -133 C-129 -135 -136 -139 -144 -142 C-145 -143 -146 -145 -147 -146 C-148 -152 -142 -159 -136 -159 C-130 -159 -124 -158 -119 -157 C-98 -154 -77 -150 -56 -147 C-35 -144 -13 -141 9 -138 C35 -134 61 -130 88 -127 C120 -124 152 -120 184 -117 C217 -114 250 -111 283 -107 C313 -105 344 -102 374 -96 C395 -93 416 -90 437 -88 C446 -87 455 -86 464 -85 C467 -85 469 -84 469 -81 C471 -71 465 -62 455 -62 C444 -63 433 -63 422 -64 C405 -66 387 -67 370 -69 C359 -70 347 -70 336 -71 C321 -73 305 -74 289 -76 C271 -78 253 -80 234 -82 C213 -84 193 -86 172 -89 C152 -91 132 -93 111 -96 C93 -98 75 -100 57 -102 C39 -104 21 -107 3 -109 C-7 -110 -17 -112 -28 -113 L-28 -113 Z " />
<glyph glyph-name="M" unicode="M" horiz-adv-x="625" d="M165 415 C170 409 172 403 173 397 C175 383 174 369 172 356 C169 334 166 313 163 291 C161 282 160 273 159 263 C159 259 160 256 164 254 C168 252 172 251 176 250 C185 248 190 251 194 259 C195 262 196 264 197 267 C209 292 221 317 233 342 C253 386 276 429 304 468 C334 512 369 552 412 585 C436 604 462 621 490 633 C508 640 526 644 546 644 C568 644 585 635 595 615 C597 611 599 607 601 603 C607 588 610 573 611 558 C615 526 614 494 610 462 C604 414 593 367 580 320 C565 269 547 220 529 170 C510 116 491 62 472 8 C462 -24 453 -56 443 -88 C436 -108 429 -129 423 -149 C422 -153 421 -158 421 -162 C421 -165 422 -168 423 -169 C429 -176 444 -177 450 -173 C453 -171 454 -169 452 -166 C451 -164 451 -161 452 -158 C453 -153 454 -148 456 -143 C473 -98 490 -54 508 -10 C541 68 569 147 597 227 C618 290 636 354 647 420 C653 461 656 502 651 543 C649 561 645 578 639 594 C620 641 576 669 525 667 C510 666 495 663 480 658 C452 647 427 632 404 614 C364 584 330 548 300 508 C265 461 236 411 210 358 C209 356 208 353 207 351 C206 353 206 355 206 356 C207 369 208 381 205 394 C197 433 156 439 134 422 C129 418 124 414 119 409 C85 376 60 337 42 292 C38 281 35 269 32 257 C30 249 33 247 41 247 C45 247 47 249 48 252 C49 255 50 257 51 259 C58 283 69 304 82 325 C96 350 113 373 134 393 C141 400 148 405 156 411 C159 413 162 414 165 415 L165 415 Z " />
<glyph glyph-name="N" unicode="N" horiz-adv-x="500" d="M93 347 C93 347 93 347 92 348 C93 350 93 352 94 354 C106 391 119 429 131 466 C142 499 154 532 165 565 C169 577 171 590 174 603 C176 608 174 611 169 613 C162 616 157 614 153 608 C151 605 149 602 148 600 C145 593 142 586 139 579 C118 526 100 473 82 419 C62 360 42 302 27 242 C26 237 25 232 24 227 C23 224 24 221 27 220 C33 216 39 215 46 216 C52 217 54 221 56 226 C56 227 57 229 58 230 C71 259 86 287 102 315 C135 373 173 429 218 479 C247 513 279 544 316 570 C339 586 364 601 392 610 C405 614 419 617 432 616 C445 616 455 611 462 600 C465 596 468 591 470 586 C479 566 483 545 485 524 C487 492 484 461 479 430 C472 389 462 349 448 310 C422 232 391 156 360 80 C345 42 328 4 314 -35 C307 -56 301 -77 293 -98 C284 -123 274 -148 265 -172 C263 -178 262 -183 261 -189 C260 -198 264 -201 273 -202 C274 -202 275 -202 277 -202 C282 -201 285 -199 287 -194 C288 -190 290 -187 291 -183 C310 -142 329 -100 349 -59 C370 -13 388 33 407 79 C433 141 459 204 482 267 C497 312 512 356 521 403 C529 443 533 483 527 524 C524 545 519 565 509 584 C486 626 441 647 394 638 C374 634 356 626 338 616 C304 598 275 574 248 548 C190 490 141 425 98 355 C96 352 95 350 93 347 L93 347 Z " />
<glyph glyph-name="O" unicode="O" horiz-adv-x="435" d="M453 434 C452 450 449 467 443 482 C435 501 424 514 409 524 C408 524 408 525 407 525 C402 528 397 530 392 532 C348 548 301 518 288 509 C282 504 277 500 271 496 C256 483 245 467 237 449 C234 443 235 440 241 437 C247 434 250 435 254 440 C256 443 258 447 260 450 C269 464 281 475 294 484 C297 487 300 489 303 491 C314 498 385 542 407 493 C407 493 407 493 407 493 C409 486 412 479 414 472 C420 446 419 420 416 393 C412 362 404 332 393 302 C366 228 332 157 294 89 C272 50 249 13 223 -23 C201 -54 176 -82 147 -108 C134 -120 119 -132 102 -140 C95 -144 88 -146 81 -149 C71 -152 61 -150 52 -144 C49 -142 46 -139 43 -136 C33 -126 26 -113 21 -100 C14 -79 11 -58 10 -37 C7 17 13 70 23 123 C39 217 70 305 115 389 C160 473 218 547 289 611 C302 622 316 633 330 643 C333 644 336 646 339 647 C341 647 344 648 344 651 C345 654 343 656 341 657 C335 662 328 663 321 661 C315 659 310 657 305 654 C293 646 281 639 271 630 C222 588 178 542 141 491 C73 396 26 292 -1 179 C-10 143 -16 106 -21 70 C-24 43 -27 17 -28 -17 C-28 -34 -27 -58 -22 -82 C-19 -102 -12 -121 1 -137 C19 -159 42 -171 71 -170 C90 -170 108 -165 126 -157 C145 -147 162 -135 179 -121 C210 -95 236 -64 260 -31 C311 41 354 117 390 197 C407 236 424 274 436 314 C449 353 456 393 453 434 L453 434 Z " />
<glyph glyph-name="P" unicode="P" horiz-adv-x="433" d="M550 532 C549 566 519 609 467 599 C453 597 440 593 427 587 C393 573 363 554 334 533 C280 492 230 447 184 397 C182 395 180 393 178 390 C177 390 177 391 177 391 C177 393 178 395 179 397 C198 447 216 498 235 548 C242 566 249 585 255 604 C257 607 257 609 256 612 C250 620 240 622 234 614 C231 611 229 607 227 603 C222 594 218 586 214 577 C174 489 140 399 108 309 C106 306 105 302 102 298 C77 265 54 231 31 197 C-12 131 -49 62 -77 -13 C-89 -46 -100 -80 -106 -115 C-108 -128 -109 -140 -108 -153 C-106 -167 -98 -176 -84 -179 C-72 -182 -60 -181 -49 -173 C-44 -169 -39 -165 -36 -160 C-29 -153 -24 -144 -19 -136 C2 -99 21 -60 37 -20 C59 35 78 92 96 149 C112 201 129 253 146 305 C147 308 149 312 151 315 C202 378 259 435 322 486 C353 510 386 533 422 550 C438 558 455 565 473 568 C484 571 496 572 508 569 C512 568 514 566 515 562 C515 555 516 548 516 542 C515 529 511 517 506 505 C494 474 478 446 461 418 C420 352 372 292 316 238 C292 216 267 196 239 178 C232 174 225 170 218 166 C171 145 152 169 148 175 C147 179 145 182 143 186 C141 191 141 195 143 200 C145 205 144 207 140 210 C133 215 126 213 124 205 C123 201 123 197 123 193 C124 188 126 183 129 178 C130 175 132 172 134 169 C140 159 165 125 211 133 C213 133 214 134 216 134 C216 134 217 134 217 134 C221 135 225 136 228 137 C239 141 249 145 259 150 C288 165 315 184 339 206 C408 268 465 339 512 418 C524 439 534 460 542 483 C548 499 551 515 550 532 L550 532 Z M63 176 C48 130 34 84 18 38 C0 -14 -19 -65 -44 -114 C-50 -126 -58 -139 -65 -151 C-68 -155 -71 -159 -75 -163 C-78 -159 -78 -154 -78 -150 C-79 -135 -77 -121 -74 -106 C-67 -73 -55 -41 -43 -9 C-17 61 19 125 59 187 C63 194 68 201 73 208 C73 208 74 208 74 208 C70 197 67 187 63 176 L63 176 Z " />
<glyph glyph-name="Q" unicode="Q" horiz-adv-x="465" d="M263 -44 C264 -42 265 -40 267 -38 C322 46 374 131 420 220 C452 280 477 343 488 410 C492 433 495 455 493 478 C492 491 489 503 483 515 C470 541 437 558 406 549 C389 544 374 535 359 525 C337 508 318 488 301 466 C277 434 257 400 240 365 C201 289 182 209 177 125 C176 95 177 65 182 36 C187 7 194 -21 207 -48 C207 -49 208 -50 208 -50 C207 -51 207 -52 207 -52 C188 -80 169 -107 147 -131 C132 -149 115 -164 95 -175 C85 -180 76 -181 66 -176 C61 -173 55 -170 51 -165 C45 -160 40 -153 36 -147 C27 -134 21 -119 16 -104 C4 -69 2 -33 5 3 C9 45 17 85 28 125 C62 245 118 355 195 454 C229 497 267 537 310 572 C330 588 350 603 373 614 C382 619 391 624 402 624 C407 624 409 627 406 632 C404 633 403 635 401 636 C393 641 385 644 376 642 C369 641 362 640 356 637 C335 631 317 620 299 608 C261 582 227 552 196 518 C143 462 99 399 62 331 C9 231 -29 126 -42 13 C-44 -6 -46 -26 -44 -46 C-42 -70 -38 -93 -30 -116 C-24 -133 -17 -148 -7 -163 C5 -182 23 -195 46 -201 C76 -208 106 -204 133 -189 C154 -177 171 -162 187 -144 C201 -127 214 -110 228 -93 C229 -91 230 -90 232 -88 C233 -89 234 -90 235 -91 C251 -110 270 -125 291 -138 C318 -154 347 -162 379 -160 C395 -159 410 -158 426 -156 C447 -153 468 -149 487 -141 C497 -137 506 -133 513 -126 C518 -121 522 -114 524 -107 C525 -101 523 -99 518 -98 C516 -98 514 -98 513 -98 C506 -100 500 -102 495 -108 C488 -119 477 -125 464 -127 C442 -132 419 -133 396 -133 C392 -133 387 -132 383 -131 C338 -121 302 -98 274 -61 C270 -55 266 -50 263 -44 L263 -44 Z M242 4 C240 13 237 22 235 31 C228 65 225 100 228 136 C234 248 272 349 337 440 C351 461 368 480 387 496 C399 506 411 515 425 521 C430 523 436 524 441 525 C445 526 448 525 449 521 C451 516 454 510 456 504 C459 489 459 474 457 460 C450 396 431 336 403 278 C379 228 351 179 323 131 C298 90 272 49 246 8 C245 6 244 5 244 4 C243 4 243 4 242 4 L242 4 Z " />
<glyph glyph-name="R" unicode="R" horiz-adv-x="378" d="M115 399 C115 399 115 399 115 399 C115 401 116 404 117 406 C137 465 158 524 178 583 C183 597 186 610 190 623 C191 626 191 628 190 630 C186 636 176 636 172 630 C168 626 165 621 163 616 C157 603 151 590 146 577 C116 505 89 432 63 358 C44 306 26 253 14 200 C11 188 8 177 6 166 C5 160 6 157 11 155 C15 154 18 153 22 153 C31 152 35 154 38 163 C48 189 58 216 69 242 C99 315 135 385 178 451 C206 496 240 535 280 569 C297 583 314 595 334 604 C349 610 363 613 379 611 C386 611 391 608 395 603 C401 594 406 585 408 575 C413 556 412 537 407 519 C399 482 381 452 355 425 C337 406 315 393 292 382 C266 371 240 359 214 348 C201 343 194 334 193 320 C193 320 193 319 193 319 C188 288 186 257 186 226 C185 188 186 150 186 112 C187 85 189 58 193 32 C200 -10 210 -50 223 -90 C232 -120 244 -149 260 -177 C272 -199 289 -216 309 -230 C316 -235 324 -238 332 -241 C364 -249 392 -235 407 -214 C421 -194 426 -170 428 -145 C428 -142 426 -140 422 -141 C416 -142 412 -147 411 -153 C407 -167 404 -181 400 -194 C397 -203 392 -211 386 -218 C382 -222 378 -225 372 -225 C360 -226 348 -224 339 -215 C322 -197 308 -177 297 -154 C281 -122 270 -87 260 -53 C245 2 234 58 230 115 C226 170 226 224 226 279 C227 290 228 302 228 313 C229 321 232 326 240 329 C270 341 299 354 329 367 C344 374 358 382 372 392 C414 421 445 477 449 519 C451 551 444 579 423 604 C406 623 385 634 360 635 C341 635 324 631 307 623 C293 616 279 607 267 597 C230 568 200 533 172 494 C152 466 136 436 119 406 C118 404 117 401 115 399 L115 399 Z " />
<glyph glyph-name="S" unicode="S" horiz-adv-x="365" d="M244 25 C244 -13 234 -45 214 -74 C184 -118 142 -147 91 -165 C70 -172 48 -175 26 -172 C-1 -168 -17 -150 -17 -123 C-17 -109 -13 -95 -8 -83 C2 -60 15 -40 29 -20 C53 13 81 44 110 73 C115 78 120 84 125 89 C128 93 128 96 124 99 C118 106 108 108 100 102 C95 99 91 95 86 91 C62 70 40 46 19 21 C0 -2 -17 -25 -32 -51 C-39 -64 -46 -77 -49 -91 C-58 -122 -50 -148 -25 -169 C-17 -175 -9 -180 0 -184 C32 -198 64 -200 97 -192 C153 -178 200 -150 240 -108 C272 -74 287 -33 285 13 C284 50 273 85 254 117 C242 135 230 153 217 170 C200 192 182 212 164 233 C149 250 136 269 125 289 C108 321 99 356 100 392 C101 421 110 447 128 470 C140 484 155 496 170 507 C194 523 220 535 246 546 C292 566 340 581 388 595 C442 610 496 624 551 638 C580 646 609 653 638 660 C642 661 645 661 648 660 C653 658 654 659 655 664 C656 678 643 690 630 688 C620 687 610 685 600 683 C558 674 516 664 473 654 C426 643 378 632 331 621 C290 611 251 598 213 581 C182 567 152 550 126 528 C96 503 77 471 69 432 C64 403 66 373 73 344 C82 307 99 275 122 245 C132 231 143 217 155 204 C177 178 198 151 215 122 C234 91 243 58 244 25 L244 25 Z " />
<glyph glyph-name="T" unicode="T" horiz-adv-x="148" d="M221 561 C222 561 225 562 227 562 C247 565 267 567 287 570 C319 574 350 578 381 582 C403 585 426 587 448 590 C474 594 500 598 526 602 C535 603 544 605 553 607 C557 607 559 608 560 612 C561 618 561 623 557 628 C556 631 553 632 550 632 C544 631 538 631 531 631 C511 629 492 628 472 626 C447 624 422 623 397 620 C355 615 313 610 271 604 C218 597 166 589 114 582 C81 577 48 570 17 561 C11 559 6 557 0 555 C-3 553 -4 551 -3 548 C-1 541 4 536 11 536 C16 536 20 536 25 537 C41 538 57 540 73 542 C103 546 133 550 163 554 C170 555 176 556 183 556 C182 554 182 553 182 552 C171 525 160 498 150 471 C129 422 109 372 89 323 C63 261 41 198 18 135 C-14 46 -44 -43 -65 -135 C-70 -157 -76 -180 -82 -202 C-83 -207 -84 -213 -85 -218 C-86 -222 -85 -224 -81 -225 C-77 -227 -72 -227 -67 -226 C-62 -225 -59 -223 -57 -218 C-56 -215 -55 -212 -54 -209 C-42 -175 -31 -140 -19 -106 C-4 -60 10 -14 26 31 C64 140 106 249 147 356 C167 408 189 460 206 512 C211 529 215 545 221 561 L221 561 Z " />
<glyph glyph-name="U" unicode="U" horiz-adv-x="315" d="M17 -49 C16 -44 14 -40 13 -36 C10 -22 10 -8 10 6 C10 40 14 72 20 105 C29 151 42 195 58 238 C77 287 97 337 115 386 C118 393 121 401 123 408 C125 414 123 418 117 421 C111 424 105 424 101 420 C98 417 95 413 93 409 C86 396 78 383 72 369 C59 340 46 311 34 282 C9 223 -12 163 -23 100 C-30 64 -34 27 -32 -10 C-32 -20 -31 -30 -28 -39 C-25 -54 -16 -64 -2 -68 C22 -75 44 -72 63 -58 C73 -50 83 -41 90 -31 C102 -15 114 1 125 19 C146 54 167 91 188 127 C190 130 191 133 193 136 C191 127 189 120 186 112 C174 74 161 36 150 -3 C144 -25 141 -48 136 -70 C130 -100 123 -130 117 -159 C113 -178 109 -197 108 -217 C108 -219 108 -221 110 -223 C115 -227 126 -225 129 -219 C131 -214 132 -209 133 -205 C147 -149 162 -93 183 -39 C200 7 215 54 230 100 C259 186 290 272 327 354 C374 458 422 561 477 661 C482 670 486 680 491 689 C495 696 493 701 489 706 C485 710 481 713 477 715 C469 719 465 717 460 710 C453 696 445 683 438 669 C412 616 383 564 355 512 C335 476 314 441 295 405 C258 337 222 270 184 204 C155 154 127 103 99 53 C85 29 70 5 53 -16 C46 -26 38 -35 28 -42 C25 -44 22 -46 17 -49 L17 -49 Z " />
<glyph glyph-name="V" unicode="V" horiz-adv-x="343" d="M63 -84 C62 -83 61 -83 61 -83 C61 -76 60 -69 61 -62 C63 -30 65 3 68 35 C71 74 75 113 82 151 C93 218 105 285 117 352 C126 407 136 462 145 517 C147 530 147 542 147 554 C147 563 142 568 134 568 C129 568 126 567 125 562 C123 557 122 552 121 547 C111 501 102 455 93 408 C77 328 59 248 47 167 C43 138 39 110 36 81 C32 51 30 21 27 -10 C26 -27 25 -45 25 -63 C25 -73 25 -83 28 -93 C31 -102 37 -108 46 -110 C58 -113 70 -112 79 -104 C84 -100 89 -95 93 -91 C97 -85 101 -79 105 -73 C115 -56 125 -38 134 -20 C163 33 191 87 221 139 C268 223 322 304 378 382 C409 425 440 468 471 510 C491 537 512 564 532 590 C537 596 535 599 530 602 C522 605 516 604 510 599 C505 594 501 589 497 584 C467 548 437 511 407 475 C373 433 341 389 310 345 C262 277 217 208 178 134 C152 84 126 33 100 -18 C89 -38 78 -57 67 -76 C66 -79 64 -81 63 -84 L63 -84 Z " />
<glyph glyph-name="W" unicode="W" horiz-adv-x="753" d="M765 414 C763 439 757 463 745 485 C726 517 703 545 672 567 C643 588 612 598 579 598 C528 598 481 562 479 560 C467 550 456 539 446 528 C429 508 418 485 413 459 C412 454 413 450 418 447 C420 445 423 444 426 443 C430 442 432 443 434 447 C436 450 437 453 439 457 C446 474 456 491 468 506 C477 516 487 525 497 534 C505 540 527 556 560 564 C570 566 579 567 589 568 C591 568 592 568 594 569 C618 570 640 564 658 546 C663 542 667 538 671 534 C689 515 705 493 713 467 C721 439 723 410 719 381 C714 345 703 311 688 279 C659 218 622 164 578 114 C547 79 513 47 474 21 C444 0 413 -19 379 -32 C363 -39 346 -45 329 -47 C310 -51 293 -45 281 -30 C277 -24 273 -18 270 -12 C266 -3 263 6 261 15 C255 42 256 70 259 98 C265 146 276 192 294 237 C302 255 310 273 317 292 C319 296 320 299 322 303 C323 308 322 311 317 313 C315 314 313 315 311 315 C306 315 302 315 297 315 C293 315 290 313 288 310 C280 296 271 283 264 269 C218 179 167 92 114 6 C91 -33 64 -69 33 -102 C21 -116 8 -128 -7 -138 C-11 -141 -16 -144 -20 -146 C-25 -142 -26 -137 -27 -131 C-30 -120 -30 -110 -30 -98 C-26 -53 -18 -8 -7 36 C6 84 22 131 40 178 C69 252 104 324 142 395 C175 456 207 519 239 581 C241 585 243 588 244 592 C245 594 245 596 243 599 C238 605 227 606 221 600 C219 598 216 595 215 592 C206 579 197 565 189 551 C157 494 125 436 93 378 C40 281 -2 180 -34 74 C-51 20 -62 -36 -66 -93 C-68 -109 -67 -125 -62 -140 C-59 -152 -51 -159 -40 -163 C-32 -165 -24 -166 -16 -165 C-2 -164 10 -158 21 -150 C38 -139 53 -125 67 -110 C99 -76 127 -40 151 -1 C173 34 194 71 216 106 C217 108 218 110 219 112 C217 90 215 69 215 48 C216 27 219 6 228 -13 C238 -38 255 -54 280 -63 C302 -71 325 -72 348 -69 C370 -65 391 -58 412 -50 C453 -33 490 -11 526 15 C577 50 620 94 658 142 C692 182 719 227 740 275 C759 319 769 366 765 414 L765 414 Z " />
<glyph glyph-name="X" unicode="X" horiz-adv-x="348" d="M218 402 C218 404 217 406 217 407 C211 442 205 477 199 512 C195 540 190 568 182 595 C180 601 178 607 176 613 C174 617 171 619 166 619 C161 618 155 617 153 612 C153 611 152 609 153 607 C153 604 153 600 153 597 C155 574 158 551 161 529 C167 475 175 421 185 368 C186 365 185 362 183 360 C177 352 170 343 164 335 C109 265 60 191 14 115 C-28 46 -66 -25 -99 -99 C-114 -134 -127 -169 -139 -205 C-140 -208 -141 -212 -142 -215 C-143 -219 -142 -220 -138 -221 C-133 -222 -129 -221 -125 -216 C-124 -214 -123 -213 -122 -211 C-114 -194 -106 -177 -98 -160 C-57 -70 -9 16 45 100 C90 171 138 241 190 308 C192 310 193 311 195 314 C196 312 197 311 197 309 C200 297 202 285 205 272 C218 219 231 166 243 114 C252 78 260 42 269 6 C270 0 273 -7 275 -14 C277 -19 280 -20 285 -20 C291 -19 297 -16 302 -11 C305 -9 305 -6 304 -2 C300 11 297 24 294 37 C282 91 270 145 259 198 C248 248 239 297 228 346 C227 351 228 355 231 359 C267 400 304 441 343 479 C403 536 465 591 533 638 C547 647 561 657 574 667 C593 684 614 698 635 713 C638 715 642 717 646 719 C649 720 649 722 649 725 C649 727 648 728 647 729 C641 739 630 743 619 738 C617 737 615 736 613 734 C604 729 594 722 584 716 C573 710 563 703 552 697 C545 693 538 689 532 685 C493 661 456 633 421 603 C350 544 284 477 223 408 C221 406 220 404 218 402 L218 402 Z " />
<glyph glyph-name="Y" unicode="Y" horiz-adv-x="517" d="M506 439 C506 438 507 438 507 438 C506 436 505 434 505 432 C483 380 464 326 447 273 C434 231 420 190 405 149 C391 107 374 67 356 27 C355 24 353 22 350 21 C320 11 290 -2 261 -15 C231 -29 204 -47 179 -69 C168 -79 158 -90 149 -102 C136 -121 129 -142 129 -164 C129 -189 141 -205 164 -210 C168 -211 173 -212 178 -212 C198 -212 217 -206 235 -196 C255 -186 272 -172 287 -156 C314 -129 337 -98 356 -65 C369 -44 380 -22 393 0 C394 3 395 5 399 6 C403 7 405 10 403 14 C402 18 402 20 404 23 C432 81 455 139 474 200 C487 241 499 283 512 325 C528 372 545 418 561 464 C578 515 595 567 612 619 C617 631 619 645 628 656 C630 659 630 662 627 663 C623 667 618 671 612 673 C608 675 606 674 603 669 C600 664 597 658 593 652 C591 646 589 641 585 636 C545 569 504 503 463 436 C424 371 382 308 336 248 C298 198 258 149 214 104 C183 72 149 43 111 20 C101 14 92 9 82 4 C75 1 68 -1 61 -2 C50 -5 42 -2 35 6 C29 12 25 19 22 27 C18 39 17 51 17 63 C16 89 18 114 23 139 C33 195 49 248 71 300 C94 354 121 406 151 456 C177 500 207 543 236 586 C252 609 267 633 282 657 C289 668 295 679 300 691 C302 698 301 702 294 705 C288 708 284 707 278 702 C273 696 269 691 265 685 C232 639 200 594 167 548 C130 496 98 440 69 383 C38 320 11 255 -4 186 C-12 151 -18 116 -20 80 C-20 65 -19 51 -16 36 C-10 14 2 -3 22 -13 C33 -19 46 -22 59 -23 C77 -23 95 -20 112 -12 C125 -5 138 2 151 10 C190 36 225 66 257 99 C316 159 367 225 415 293 C446 338 474 384 502 431 C503 434 505 436 506 439 L506 439 Z M342 -4 C339 -10 336 -17 332 -23 C313 -62 291 -100 263 -133 C252 -147 240 -161 225 -172 C215 -181 204 -188 191 -193 C177 -197 170 -194 164 -181 C159 -168 160 -154 164 -139 C168 -127 175 -115 183 -105 C195 -89 209 -77 225 -65 C243 -51 262 -39 282 -29 C300 -20 319 -13 337 -4 C338 -4 340 -3 341 -3 C341 -3 342 -3 342 -4 L342 -4 Z " />
<glyph glyph-name="Z" unicode="Z" horiz-adv-x="367" d="M543 653 C543 653 543 652 543 652 C542 651 541 650 540 649 C496 618 452 585 408 551 C321 483 239 408 166 324 C96 244 35 157 -14 63 C-28 36 -41 9 -50 -19 C-57 -39 -62 -59 -61 -80 C-60 -98 -54 -115 -42 -127 C-17 -150 12 -157 45 -147 C61 -142 74 -134 88 -124 C105 -113 121 -99 136 -84 C185 -35 234 13 283 62 C289 67 294 73 299 79 C302 83 302 86 297 89 C291 93 283 94 277 89 C268 82 259 74 250 66 C217 34 183 2 149 -30 C131 -47 112 -64 93 -80 C76 -94 58 -107 39 -117 C31 -121 23 -124 15 -127 C4 -131 -5 -127 -11 -119 C-16 -113 -19 -106 -21 -98 C-24 -83 -23 -69 -20 -55 C-17 -35 -10 -16 -2 3 C17 50 42 96 70 140 C143 256 233 357 336 447 C413 515 496 576 581 633 C591 640 601 646 612 653 C618 656 619 660 618 667 C616 672 613 677 609 681 C605 685 601 687 595 686 C591 686 586 685 582 685 C542 684 502 682 462 678 C429 674 395 671 362 666 C323 660 283 654 244 647 C182 636 120 621 59 603 C30 595 3 585 -24 571 C-27 570 -30 568 -33 566 C-36 564 -36 562 -35 559 C-33 554 -27 552 -22 553 C-18 554 -14 554 -10 556 C5 561 21 566 36 571 C108 592 180 606 253 618 C286 624 320 629 354 634 C378 637 403 640 428 643 C453 646 477 648 502 650 C516 651 529 652 543 653 L543 653 Z " />
<glyph glyph-name="bracketleft" unicode="&#x5b;" horiz-adv-x="144" d="M223 643 C215 643 207 635 203 628 C200 624 199 619 197 615 C195 610 193 606 192 601 L-51 -106 L-51 -106 L-74 -172 C-74 -172 -82 -192 -68 -192 C-62 -192 -56 -192 -50 -192 C-45 -192 -41 -192 -36 -192 C-31 -192 -27 -192 -22 -192 C-12 -192 -2 -177 -11 -177 C-22 -177 -32 -177 -43 -177 L-43 -177 L231 628 C240 628 249 628 258 628 C268 628 278 643 269 643 C253 643 238 643 223 643 L223 643 Z " />
<glyph glyph-name="backslash" unicode="&#x5c;" horiz-adv-x="282" d="M224 -177 C220 -158 218 -138 214 -119 C201 -53 185 12 169 77 C153 144 135 211 119 279 C107 327 95 375 85 424 C73 484 62 546 51 606 C49 617 47 627 45 637 C43 643 41 644 35 643 C31 641 30 640 30 635 C31 625 31 616 32 606 C40 542 50 478 64 415 C81 330 101 245 122 161 C141 85 159 10 176 -66 C184 -106 194 -147 205 -187 C207 -193 209 -194 214 -192 C215 -192 216 -191 217 -191 C222 -188 225 -184 224 -177 L224 -177 Z " />
<glyph glyph-name="bracketright" unicode="&#x5d;" horiz-adv-x="124" d="M200 643 C184 643 169 643 154 643 C144 643 144 628 154 628 C163 628 172 628 181 628 L-94 -177 L-95 -177 C-105 -177 -116 -177 -126 -177 C-136 -177 -136 -192 -126 -192 C-121 -192 -117 -192 -112 -192 C-107 -192 -103 -192 -98 -192 C-92 -192 -86 -192 -80 -192 C-66 -192 -61 -172 -61 -172 L-39 -106 L-39 -106 L202 601 C204 606 205 610 206 615 C207 619 209 624 209 628 C209 635 208 643 200 643 L200 643 Z " />
<glyph glyph-name="asciicircum" unicode="&#x5e;" horiz-adv-x="155" d="M146 560 C147 559 147 558 147 558 C146 545 146 533 145 521 C145 511 144 500 144 490 C144 486 145 483 147 482 C150 481 152 480 154 480 C159 480 161 483 162 488 C163 492 163 496 163 500 C165 520 168 540 170 560 C170 566 170 571 170 576 C168 587 158 594 148 590 C146 589 144 587 143 586 C141 584 139 581 138 579 C121 553 104 527 87 501 C85 498 86 497 88 495 C92 492 97 493 101 497 C106 502 110 508 114 513 C124 527 133 542 143 556 C144 557 145 559 146 560 L146 560 Z " />
<glyph glyph-name="underscore" unicode="&#x5f;" horiz-adv-x="273" d="M169 154 C169 154 169 153 169 153 C157 154 146 155 134 155 C108 154 83 153 57 152 C44 152 32 151 19 149 C12 149 11 146 15 140 C15 139 16 138 17 137 C21 132 27 129 34 129 C41 128 48 127 55 127 C79 127 103 127 128 127 C138 127 149 127 160 127 C175 128 191 129 206 129 C209 129 212 129 215 128 C217 128 220 126 222 129 C225 131 223 134 222 137 C222 137 222 138 221 139 C217 146 210 150 201 151 C190 152 179 153 169 154 L169 154 Z " />
<glyph glyph-name="grave" unicode="&#x60;" horiz-adv-x="161" d="M151 499 C152 499 152 499 152 499 C160 499 162 503 158 510 C155 517 151 524 147 532 C141 546 132 559 123 572 C120 577 116 581 111 584 C107 588 101 589 95 588 C91 587 89 585 90 581 C91 578 92 575 94 573 C103 549 118 530 131 509 C136 502 143 500 151 499 L151 499 Z " />
<glyph glyph-name="a" unicode="a" horiz-adv-x="124" d="M70 153 C70 153 69 153 69 154 C69 157 69 160 70 163 C75 186 83 209 91 232 C91 234 92 237 93 239 C93 242 93 244 91 246 C85 250 79 251 73 250 C67 250 65 246 63 242 C61 238 58 233 56 229 C54 230 53 230 52 230 C34 234 20 230 8 216 C-1 204 -8 189 -6 173 C-6 167 -3 163 1 160 C11 153 25 153 35 160 C36 161 38 162 40 163 C40 161 40 160 40 158 C40 145 45 139 57 136 C69 133 80 135 90 142 C109 155 123 173 138 190 C140 192 143 196 140 199 C138 202 134 202 131 202 C128 202 126 201 124 199 C110 183 93 170 76 157 C74 155 72 154 70 153 L70 153 Z M21 179 C21 180 21 180 21 181 C23 191 27 201 34 210 C36 213 40 215 43 217 C44 219 45 218 48 217 C45 210 27 184 21 179 L21 179 Z " />
<glyph glyph-name="b" unicode="b" horiz-adv-x="144" d="M29 190 C29 192 30 193 30 194 C52 257 74 320 96 383 C116 436 135 490 153 544 C155 549 156 555 158 561 C159 564 158 566 157 568 C151 575 140 575 135 568 C132 563 129 558 126 553 C118 535 110 516 103 498 C64 400 30 300 -2 200 C-13 168 -22 136 -31 104 C-36 88 -37 71 -42 56 C-44 49 -45 43 -47 37 C-38 29 -27 31 -24 42 C-17 63 -9 83 0 104 C0 105 1 106 1 107 C10 100 19 97 29 100 C41 103 52 106 64 111 C89 121 110 137 131 154 C143 165 155 176 162 191 C165 195 165 198 160 200 C154 203 148 204 143 199 C137 193 131 188 124 183 C119 178 113 173 108 169 C107 172 108 174 108 177 C111 187 107 195 99 202 C93 206 87 208 80 209 C66 211 54 207 43 200 C38 197 34 193 29 190 L29 190 Z M3 115 C7 125 9 135 16 144 C27 158 38 171 52 181 C58 186 64 189 71 192 C73 194 76 194 79 195 C80 190 80 186 79 182 C73 161 61 146 43 135 C35 130 27 126 19 121 C14 119 9 116 4 114 C4 114 4 115 3 115 L3 115 Z " />
<glyph glyph-name="c" unicode="c" horiz-adv-x="99" d="M45 214 C45 210 43 207 42 204 C41 202 40 201 42 199 C45 194 54 193 59 196 C65 201 69 208 72 216 C73 220 72 223 69 226 C67 228 65 230 62 232 C54 236 45 236 36 233 C27 229 19 224 13 217 C-6 199 -17 177 -21 152 C-23 139 -19 130 -7 124 C2 119 12 117 23 119 C35 120 46 124 55 131 C74 142 90 156 104 173 C109 179 113 186 117 193 C119 196 119 198 115 200 C111 203 104 203 99 200 C97 198 96 197 94 195 C78 181 62 166 45 154 C36 148 27 142 18 138 C15 137 12 137 10 136 C4 156 26 203 45 214 L45 214 Z " />
<glyph glyph-name="d" unicode="d" horiz-adv-x="117" d="M28 134 C27 131 27 130 26 128 C15 91 5 53 -4 15 C-16 -32 -30 -80 -42 -128 C-45 -137 -47 -146 -49 -155 C-50 -158 -50 -161 -47 -162 C-39 -167 -27 -162 -24 -154 C-21 -145 -18 -136 -16 -127 C1 -73 16 -18 33 37 C53 100 73 164 94 227 C112 281 131 335 151 388 C167 432 185 476 202 519 C205 527 204 531 197 535 C193 537 188 538 183 539 C176 541 171 538 168 532 C165 525 161 518 158 510 C136 456 117 401 98 346 C92 328 86 310 79 293 C70 271 60 250 51 229 C50 227 49 226 49 225 C42 225 36 225 31 224 C19 222 10 214 2 205 C-6 195 -13 184 -18 172 C-21 165 -23 159 -25 152 C-28 141 -24 133 -14 129 C-2 124 10 124 22 130 C24 131 25 132 28 134 L28 134 Z M40 207 C32 188 22 170 9 154 C9 166 28 199 40 207 L40 207 Z " />
<glyph glyph-name="e" unicode="e" horiz-adv-x="102" d="M111 199 C106 203 105 203 100 199 C91 192 79 183 71 176 C61 168 47 158 36 152 C10 139 19 181 25 192 C47 182 98 223 68 243 C51 253 32 246 20 232 C7 219 -2 202 -6 184 C-10 169 -8 153 4 141 C19 130 32 129 48 137 C59 142 73 153 82 162 C85 166 117 195 111 199 L111 199 Z M57 233 C58 224 43 207 30 203 C37 215 45 226 57 233 L57 233 Z " />
<glyph glyph-name="f" unicode="f" horiz-adv-x="107" d="M74 306 C88 343 101 381 115 418 C123 438 130 458 136 479 C136 481 137 484 136 485 C133 494 120 495 114 487 C111 484 109 479 107 475 C97 454 87 432 78 411 C66 381 54 351 43 321 C22 263 0 205 -20 147 C-41 88 -57 28 -73 -32 C-77 -48 -81 -63 -84 -79 C-85 -89 -87 -108 -74 -111 C-58 -114 -39 -100 -24 -75 C-24 -75 -24 -75 -24 -74 C-24 -74 -23 -73 -23 -72 C16 -2 6 99 6 99 L111 181 C111 181 127 193 120 200 C113 206 106 199 106 199 L13 132 L13 132 C14 135 15 138 15 140 C33 196 54 251 74 306 L74 306 Z M-48 -73 L-42 -52 C-37 -30 -30 -9 -24 13 C-23 18 -21 23 -20 28 C-20 28 -20 28 -20 28 L-15 45 C-15 45 -14 -13 -48 -73 L-48 -73 Z " />
<glyph glyph-name="g" unicode="g" horiz-adv-x="147" d="M157 201 C153 203 149 203 145 200 L107 172 L90 159 C93 170 97 180 99 190 C102 202 106 214 108 226 C109 232 108 235 102 237 C97 240 91 240 85 235 C83 237 82 238 80 240 C62 256 34 253 17 232 C5 218 -2 201 -4 183 C-5 161 11 153 24 152 C29 151 33 153 37 156 C40 159 43 162 46 165 C52 171 57 178 63 184 C64 186 65 187 67 189 C67 187 67 186 67 186 C59 163 52 141 44 119 C43 116 41 114 39 112 C26 99 13 86 0 73 C-29 45 -56 15 -81 -17 C-96 -36 -109 -56 -118 -78 C-125 -94 -130 -111 -130 -128 C-130 -143 -120 -155 -106 -158 C-91 -162 -76 -158 -62 -151 C-43 -141 -29 -127 -17 -111 C-5 -95 3 -79 11 -62 C26 -30 37 2 48 34 C57 62 66 89 75 116 C76 119 78 122 80 124 C81 125 83 127 84 128 L84 128 L98 140 L98 140 L158 192 L158 192 C162 196 162 198 157 201 L157 201 Z M32 178 C30 193 48 225 62 230 C63 225 65 220 67 214 C61 203 41 184 32 178 L32 178 Z M24 61 C12 24 0 -13 -16 -48 C-23 -64 -32 -80 -40 -95 C-46 -105 -53 -113 -60 -122 C-68 -131 -78 -138 -89 -143 C-95 -146 -97 -145 -100 -138 C-102 -133 -102 -126 -102 -120 C-101 -107 -98 -94 -93 -81 C-85 -62 -73 -44 -61 -26 C-42 -1 -22 22 0 45 C8 53 15 62 23 70 C25 71 26 73 29 75 C27 70 26 65 24 61 L24 61 Z " />
<glyph glyph-name="h" unicode="h" horiz-adv-x="144" d="M28 180 C28 183 29 184 29 186 C48 243 67 301 86 359 C98 394 110 429 119 465 C120 471 121 477 121 482 C121 489 111 496 105 493 C103 492 102 490 101 489 C99 486 98 482 96 479 C90 461 83 443 77 425 C53 364 31 302 11 240 C0 204 -12 169 -20 133 C-22 127 -23 120 -24 114 C-25 111 -24 107 -22 105 C-17 100 -11 99 -4 100 C1 100 3 105 6 109 C13 122 20 135 28 148 C37 163 48 178 60 190 C61 192 63 193 64 194 C65 194 65 194 65 194 C63 186 61 179 59 171 C56 158 52 146 49 133 C48 125 50 121 57 117 C66 113 76 112 85 116 C89 118 93 120 96 123 C103 130 110 136 117 143 C131 156 143 171 155 186 C156 188 159 190 160 193 C163 196 162 199 159 201 C155 203 148 204 144 200 C142 197 139 195 137 193 C124 180 111 166 97 153 C93 149 89 145 84 141 C83 140 82 140 80 139 C83 149 85 158 87 167 C89 177 92 188 93 198 C94 209 88 216 78 217 C71 218 65 217 59 212 C56 210 53 207 51 205 C43 197 36 189 28 180 L28 180 Z " />
<glyph glyph-name="i" unicode="i" horiz-adv-x="83" d="M99 199 C95 203 87 204 82 200 C80 199 78 197 76 196 C64 185 51 174 38 162 C32 158 27 153 19 149 C19 153 18 155 19 157 C21 168 22 178 25 189 C28 202 32 216 36 230 C38 238 36 242 27 244 C21 245 17 244 15 238 C10 229 6 220 3 211 C-3 196 -7 181 -9 166 C-10 154 -8 144 2 137 C9 133 16 131 24 132 C35 133 45 138 53 146 C69 161 84 177 99 193 C102 195 101 197 99 199 L99 199 Z M82 300 C78 303 73 303 68 302 C56 297 43 294 30 289 C28 289 25 287 23 286 C19 284 19 282 22 279 C25 276 30 275 34 276 C43 276 51 279 58 283 C64 285 69 287 74 289 C74 289 76 289 77 290 C77 290 77 290 77 289 C78 289 78 289 79 289 C82 289 86 292 86 294 C86 297 84 299 82 300 L82 300 Z " />
<glyph glyph-name="j" unicode="j" horiz-adv-x="80" d="M73 292 C73 293 72 295 71 295 C67 298 63 299 59 297 C54 296 50 294 45 292 C38 289 30 286 22 282 C19 281 19 280 21 278 C24 275 27 274 31 274 C32 274 33 274 34 274 C43 276 52 279 60 284 C64 286 67 288 72 289 C73 289 74 290 73 292 L73 292 Z M94 201 C89 204 83 202 79 198 C77 195 74 192 72 189 C57 173 42 157 28 141 L28 141 L27 139 C25 136 22 133 20 130 L8 116 L-6 98 L4 126 C14 155 23 183 31 213 C33 219 34 227 36 234 C36 237 36 239 33 241 C27 246 19 245 15 238 C14 236 13 235 12 233 C7 220 1 208 -4 195 C-22 145 -41 96 -59 46 C-61 43 -62 40 -64 38 C-80 17 -97 -3 -113 -24 C-127 -42 -140 -62 -151 -83 C-157 -93 -162 -104 -165 -115 C-167 -125 -169 -134 -167 -143 C-165 -154 -158 -161 -147 -162 C-131 -165 -117 -160 -106 -148 C-100 -142 -96 -135 -92 -128 C-83 -113 -77 -97 -71 -80 C-59 -47 -47 -14 -35 19 L-12 51 L5 73 L37 117 C42 123 47 129 51 135 C65 153 79 170 93 188 C95 190 96 192 97 195 C98 198 97 200 94 201 L94 201 Z M-98 -61 C-105 -80 -113 -99 -120 -117 C-124 -125 -128 -131 -133 -138 C-134 -141 -136 -142 -138 -145 C-142 -141 -144 -135 -142 -128 C-141 -121 -140 -113 -137 -107 C-133 -93 -126 -81 -118 -70 C-109 -54 -98 -39 -85 -24 C-89 -37 -93 -49 -98 -61 L-98 -61 Z " />
<glyph glyph-name="k" unicode="k" horiz-adv-x="158" d="M47 167 C54 169 60 172 65 174 C77 179 90 184 101 190 C113 196 123 205 130 216 C137 227 134 237 123 244 C114 250 103 252 92 250 C76 247 62 240 48 231 C46 230 44 229 41 227 C43 233 44 237 45 241 C66 310 87 378 111 445 C131 500 150 555 171 610 C183 643 196 675 206 709 C207 713 208 718 209 723 C211 731 206 736 199 738 C196 739 194 738 192 736 C191 733 189 730 188 727 C183 717 178 706 174 695 C124 583 84 468 46 352 C32 307 19 262 4 217 C-9 174 -24 132 -37 90 C-51 46 -64 1 -77 -43 C-78 -46 -79 -49 -80 -52 C-81 -56 -80 -58 -76 -60 C-66 -64 -59 -61 -55 -52 C-45 -25 -34 1 -25 28 C-10 71 4 115 18 158 C19 160 20 163 21 166 C29 159 35 151 38 143 C42 135 45 127 48 120 C50 116 51 112 54 108 C65 91 88 88 103 102 C108 106 112 111 116 116 C135 139 154 162 173 185 C174 187 176 188 177 190 C181 193 181 195 177 198 C171 204 162 204 156 198 C143 184 130 171 117 158 C106 146 95 135 84 123 C83 122 81 121 79 119 C72 138 62 154 47 167 L47 167 Z M31 185 C46 207 82 232 102 232 C100 230 99 227 98 226 C92 218 85 212 78 207 C70 202 42 189 31 185 L31 185 Z " />
<glyph glyph-name="l" unicode="l" horiz-adv-x="102" d="M186 700 C180 703 177 703 174 697 C168 685 163 674 159 662 C145 624 131 584 117 546 C99 495 80 444 61 393 C40 336 21 278 4 220 C1 210 -2 199 -5 189 C-5 188 -5 187 -6 186 C-6 185 -6 184 -6 183 C-7 183 -7 182 -7 182 C-10 164 -14 146 -18 128 C-20 116 -20 103 -18 91 C-16 80 -9 74 2 72 C14 70 24 72 33 80 C40 86 46 91 52 98 C77 128 101 160 122 194 C125 199 124 201 119 202 C110 204 105 200 100 194 C84 173 68 153 52 133 C41 119 30 105 17 93 C15 92 13 90 12 89 C11 90 10 90 10 91 C10 92 10 94 9 95 C8 109 9 123 12 137 C17 168 26 198 35 228 C54 291 76 354 98 417 C111 452 125 487 137 522 C155 576 172 630 189 684 C190 687 190 689 191 691 C191 696 190 698 186 700 L186 700 Z " />
<glyph glyph-name="m" unicode="m" horiz-adv-x="217" d="M158 232 C159 232 159 231 159 231 C157 224 155 216 152 208 C140 174 128 140 116 105 C112 93 108 81 106 68 C105 60 108 55 116 52 C130 48 139 50 148 60 C152 65 156 70 160 75 C183 109 206 144 229 179 C232 184 234 188 237 193 C239 195 239 197 237 199 C232 204 221 203 216 197 C210 188 204 178 198 169 C185 147 170 127 155 106 C154 105 153 104 152 103 C156 116 160 129 166 142 C175 166 184 190 191 215 C193 222 195 230 196 238 C197 250 191 258 180 261 C171 263 163 262 155 256 C138 243 122 229 107 214 C106 212 105 210 102 210 C103 215 104 220 104 225 C104 232 103 239 96 243 C87 249 72 252 60 240 C51 231 43 223 34 214 C33 213 32 213 31 211 C32 216 34 221 35 225 C35 228 35 231 35 232 C31 239 20 239 15 233 C13 230 11 226 9 222 C1 208 -5 193 -11 178 C-12 173 -14 169 -15 164 C-16 160 -16 157 -13 154 C-5 146 8 147 16 156 C22 164 28 173 35 181 C44 193 54 204 64 215 C66 216 68 218 70 219 C70 218 70 217 70 216 C64 196 57 176 52 156 C49 148 51 143 59 140 C61 139 63 138 66 138 C74 136 79 137 84 145 C90 154 96 162 102 171 C117 192 133 211 153 228 C155 229 156 230 158 232 L158 232 Z " />
<glyph glyph-name="n" unicode="n" horiz-adv-x="117" d="M128 201 C123 204 119 203 114 198 C106 190 97 181 89 173 C88 172 87 171 85 170 C88 179 91 187 94 195 C97 206 101 216 103 227 C105 238 101 245 91 249 C89 251 86 252 83 252 L83 252 C81 252 78 252 75 251 C74 250 73 250 71 249 C52 238 28 204 28 204 C28 207 29 208 29 210 C30 216 32 223 34 229 C34 231 33 234 32 236 C28 241 19 241 15 235 C13 233 12 231 11 229 C1 207 -7 184 -13 161 C-13 159 -13 156 -12 155 C-9 148 -3 145 3 144 C9 143 13 146 16 151 C22 159 28 168 34 177 C44 192 56 206 68 219 C69 220 71 222 73 223 C73 223 67 203 62 190 C62 190 62 190 62 190 C60 185 58 179 56 173 C54 167 52 160 50 153 C48 146 50 140 57 137 C66 131 73 131 82 139 C89 146 95 153 102 160 C111 171 120 181 130 192 C133 196 132 198 128 201 L128 201 Z " />
<glyph glyph-name="o" unicode="o" horiz-adv-x="117" d="M127 199 C123 202 120 203 115 202 C103 199 92 195 80 192 C80 192 80 192 80 192 C80 192 78 203 71 211 C64 218 55 222 43 223 C48 227 51 231 55 234 C60 239 60 242 54 245 C47 248 40 248 33 244 C27 240 21 235 17 229 C5 214 -4 197 -11 179 C-12 176 -13 173 -14 169 C-18 149 -5 137 8 132 C21 128 33 130 45 136 C60 145 70 158 77 174 C86 176 110 182 123 188 C124 189 126 190 127 190 C131 193 131 196 127 199 L127 199 Z M15 145 C12 149 12 154 13 159 C14 170 19 181 24 192 C27 185 39 181 51 178 C47 164 30 148 15 145 L15 145 Z M56 192 C53 193 51 193 49 193 C35 195 51 208 51 208 C55 203 56 198 56 192 L56 192 Z " />
<glyph glyph-name="p" unicode="p" horiz-adv-x="134" d="M30 202 C31 204 31 205 31 207 C35 220 39 233 42 246 C43 249 44 252 44 256 C45 261 42 264 36 266 C30 268 27 267 24 262 C22 258 19 253 17 248 C10 229 2 211 -4 192 C-25 131 -46 70 -67 10 C-85 -41 -101 -92 -115 -144 C-119 -160 -122 -177 -124 -193 C-125 -200 -126 -206 -127 -213 C-127 -221 -119 -226 -112 -224 C-109 -224 -108 -223 -107 -220 C-106 -214 -106 -209 -104 -203 C-101 -192 -98 -181 -94 -170 C-91 -162 -87 -154 -85 -146 C-76 -119 -68 -92 -59 -65 C-36 3 -13 72 10 140 C15 157 15 157 27 169 C39 181 51 193 66 202 C68 203 70 204 72 205 C72 201 71 197 69 194 C63 180 57 166 51 152 C48 145 45 137 43 130 C41 126 41 122 43 118 C50 106 65 103 75 112 C80 116 85 121 89 126 C109 148 130 170 150 192 C153 195 153 197 149 200 C144 204 138 203 134 199 C120 186 107 173 93 160 C92 159 91 158 89 157 C92 165 95 172 98 180 C100 186 102 192 103 198 C104 206 101 212 95 217 C85 226 73 229 61 222 C53 219 46 213 39 209 C36 207 34 205 30 202 L30 202 Z " />
<glyph glyph-name="q" unicode="q" horiz-adv-x="170" d="M188 201 C184 203 176 203 173 200 C167 194 161 189 156 183 C150 177 145 170 140 163 C104 121 71 76 43 28 C34 13 24 -2 14 -16 C19 -5 23 7 27 19 C47 76 68 134 88 191 C95 213 103 234 110 256 C112 262 110 266 104 269 C100 271 95 272 90 272 C85 272 82 270 80 266 C79 263 78 260 77 257 C74 257 72 258 70 259 C63 261 55 262 48 261 C39 259 31 255 24 248 C11 236 3 220 -1 201 C-1 196 -2 191 -1 186 C0 172 10 160 24 157 C28 155 32 155 38 154 C37 152 37 150 36 149 C10 74 -17 -1 -39 -77 C-49 -108 -59 -139 -66 -170 C-69 -184 -71 -198 -73 -213 C-75 -228 -67 -236 -54 -240 C-47 -242 -41 -241 -34 -240 C-21 -237 -11 -229 -4 -218 C13 -194 24 -167 29 -138 C33 -114 30 -91 19 -68 C18 -65 16 -62 15 -59 C14 -56 13 -55 13 -54 C13 -53 13 -53 13 -53 C17 -48 22 -42 26 -36 C37 -21 47 -5 57 11 C93 72 136 128 182 182 C185 185 187 189 190 192 C192 196 192 199 188 201 L188 201 Z M34 181 C34 180 33 180 32 179 C32 179 31 180 31 180 C31 185 31 190 32 195 C35 211 41 226 54 238 C56 241 60 243 63 245 C65 246 67 245 68 243 C69 242 70 240 70 239 C60 219 50 198 34 181 L34 181 Z M0 -153 C-8 -174 -18 -193 -31 -210 C-33 -212 -34 -214 -36 -215 C-36 -215 -37 -215 -37 -215 C-37 -208 -36 -201 -35 -194 C-32 -173 -26 -153 -20 -133 C-15 -114 -10 -96 -4 -77 C-4 -75 -3 -74 -2 -71 C2 -80 5 -88 7 -97 C10 -117 6 -135 0 -153 L0 -153 Z " />
<glyph glyph-name="r" unicode="r" horiz-adv-x="82" d="M96 200 C89 204 84 202 79 196 C71 186 61 175 53 165 C51 162 49 160 47 157 C48 171 54 186 62 199 C66 205 65 208 58 210 C46 214 39 207 28 207 C28 210 29 212 29 215 C31 224 31 233 28 241 C18 263 -21 262 -18 233 C-17 218 -12 207 1 199 C-16 154 -34 110 -52 66 C-56 57 -59 48 -63 40 C-64 37 -64 35 -62 33 C-58 27 -48 30 -45 38 C-41 46 -37 54 -34 63 C-15 106 3 150 22 193 C24 193 26 193 29 192 C29 192 29 192 29 192 C28 190 28 189 27 187 C21 174 17 160 16 145 C15 135 19 129 28 127 C51 120 94 191 94 191 C96 194 99 198 96 200 L96 200 Z M6 229 C6 229 5 229 5 229 C4 233 4 237 3 242 C7 237 7 235 6 229 L6 229 Z " />
<glyph glyph-name="s" unicode="s" horiz-adv-x="92" d="M15 151 C13 150 11 149 9 148 C2 142 -5 137 -12 132 C-20 125 -26 117 -30 108 C-35 94 -29 81 -15 78 C0 74 14 75 25 85 C43 100 51 118 48 141 C48 143 48 145 48 148 C50 149 52 150 55 151 C75 161 92 176 107 194 C110 197 109 200 105 201 C101 203 96 203 92 200 C85 196 79 191 72 186 C63 179 53 172 42 166 C38 177 34 187 30 197 C32 198 33 200 34 201 C43 208 49 217 52 228 C56 242 51 252 38 257 C35 258 33 258 30 259 C15 261 2 253 -2 238 C-3 234 -3 230 -4 226 C-5 214 -1 203 3 192 C6 182 10 172 13 162 C14 159 15 155 15 151 L15 151 Z M17 128 C13 112 8 99 -5 89 C-8 92 -9 96 -8 99 C-7 102 -6 105 -5 107 C0 115 7 121 14 127 C14 127 15 127 17 128 L17 128 Z M24 220 C23 229 23 237 30 244 C33 235 29 227 24 220 L24 220 Z " />
<glyph glyph-name="t" unicode="t" horiz-adv-x="65" d="M398 350 C396 361 381 361 375 360 C365 359 354 358 344 358 C324 356 304 354 285 352 C277 352 269 351 261 351 L261 351 L106 337 C98 336 89 335 80 334 C79 333 78 334 76 334 C79 344 83 354 86 364 C89 373 91 383 93 392 C94 398 91 401 85 402 C81 402 77 401 75 397 C71 391 68 385 65 378 C58 363 52 347 45 330 C44 330 44 330 43 330 C26 328 8 326 -9 325 C-41 322 -72 318 -104 311 C-109 311 -113 309 -118 308 C-120 308 -133 304 -132 293 C-131 281 -109 284 -109 284 L-109 284 C-97 285 -85 287 -73 288 C-41 292 -10 295 22 298 C26 298 30 299 34 299 C32 291 29 283 26 276 C-3 197 -33 118 -59 38 C-83 -35 -105 -109 -126 -182 C-129 -190 -132 -199 -134 -207 C-135 -210 -135 -213 -132 -214 C-125 -218 -116 -215 -113 -208 C-111 -202 -108 -197 -106 -191 C-98 -171 -89 -150 -82 -129 C-68 -88 -56 -47 -42 -6 C-9 96 28 197 64 298 C65 301 67 302 70 303 C84 304 98 306 112 307 L112 307 L113 307 C117 308 120 308 124 309 C126 309 127 309 129 309 L129 309 L159 312 L159 313 C166 313 173 314 181 315 C185 315 189 316 193 316 L196 317 L196 317 C211 318 227 320 242 321 C262 323 281 325 301 326 C320 328 338 329 357 331 C364 332 371 332 379 333 C380 333 399 337 398 350 L398 350 Z " />
<glyph glyph-name="u" unicode="u" horiz-adv-x="123" d="M49 160 C49 157 50 156 50 155 C51 149 54 145 60 142 C69 138 79 137 88 144 C90 145 92 146 94 148 C107 159 119 172 131 185 C134 188 137 192 140 196 C135 203 127 205 121 199 C114 193 107 187 100 180 C94 174 88 168 82 162 C80 160 78 158 75 156 C75 159 75 162 75 164 C77 171 78 178 79 185 C80 190 81 194 82 198 C83 203 81 206 77 208 C69 213 60 211 55 202 C54 200 52 198 51 196 C43 184 35 173 25 163 C23 160 20 158 17 156 C15 160 15 163 16 166 C18 175 20 184 22 192 C26 205 31 218 35 231 C37 236 35 238 31 240 C25 243 18 244 13 235 C6 222 1 208 -3 195 C-5 186 -7 178 -9 170 C-10 159 -6 149 4 144 C14 138 24 138 34 145 C37 148 40 151 43 153 C45 155 46 157 49 160 L49 160 Z " />
<glyph glyph-name="v" unicode="v" horiz-adv-x="137" d="M12 85 C11 85 11 85 11 86 C11 89 10 92 11 95 C12 110 14 124 16 138 C20 172 25 204 29 238 C30 247 30 256 30 265 C29 271 22 276 15 273 C13 273 12 271 11 269 C10 266 9 263 8 260 C3 226 -3 191 -8 157 C-11 142 -13 126 -15 110 C-16 100 -16 91 -14 81 C-13 73 -8 68 0 67 C9 65 18 65 25 72 C31 79 37 85 42 93 C54 109 66 126 77 144 C97 177 118 210 138 243 C151 264 163 286 176 308 C181 317 179 321 169 321 C165 321 162 320 160 318 C159 316 157 314 156 313 C142 291 127 269 113 247 C96 219 81 191 64 163 C51 139 36 116 20 94 C17 91 14 88 12 85 L12 85 Z " />
<glyph glyph-name="w" unicode="w" horiz-adv-x="157" d="M44 152 C45 151 45 150 46 150 C52 135 70 131 81 143 C85 148 89 153 92 158 C96 163 99 169 102 174 C104 178 107 180 111 180 C121 182 131 184 140 186 C148 187 156 189 164 191 C166 192 169 193 169 196 C168 197 166 199 164 200 C160 203 155 203 149 202 C135 200 121 196 107 193 C84 189 84 184 75 171 C74 169 73 168 71 166 C72 171 72 176 72 180 C72 182 71 185 70 187 C64 194 50 194 44 186 C32 171 20 155 8 140 C7 139 6 138 4 136 C5 147 8 157 12 166 C19 183 26 200 33 217 C36 226 40 234 43 243 C45 248 43 251 38 253 C31 255 26 254 22 247 C7 220 -7 192 -16 163 C-19 151 -22 139 -22 127 C-22 119 -19 114 -11 112 C-3 109 5 110 13 115 C16 118 19 120 21 123 C26 129 30 134 35 140 C38 144 41 148 44 152 L44 152 Z " />
<glyph glyph-name="x" unicode="x" horiz-adv-x="97" d="M0 131 C1 129 1 128 2 127 C9 114 23 107 38 109 C45 110 51 114 56 118 C67 128 76 139 85 150 C96 163 106 177 115 192 C117 196 117 198 113 200 C107 204 101 203 96 197 C86 185 76 173 66 161 C56 150 47 139 35 129 C33 128 30 126 27 124 C24 130 20 147 21 153 C22 154 22 156 23 157 C36 171 50 186 63 201 C71 210 79 218 87 227 C91 233 90 236 83 239 C80 240 77 240 74 238 C71 236 69 234 66 232 C53 222 41 210 29 197 C28 196 26 194 24 192 C24 194 24 196 24 197 C25 203 25 209 26 215 C26 226 27 236 26 247 C26 255 22 259 14 260 C9 260 7 259 6 254 C5 247 4 240 3 233 C1 210 -2 187 -4 165 C-4 162 -5 159 -7 157 C-26 134 -46 111 -65 88 C-72 79 -78 71 -84 62 C-88 56 -87 52 -80 50 C-78 49 -76 48 -74 48 C-71 48 -69 48 -68 51 C-67 55 -64 58 -62 61 C-45 81 -28 100 -12 119 C-8 123 -4 127 0 131 L0 131 Z " />
<glyph glyph-name="y" unicode="y" horiz-adv-x="104" d="M121 200 C115 203 109 203 104 200 L62 157 L75 193 C77 198 78 203 80 208 C82 213 83 217 84 222 C85 225 85 228 82 229 C78 233 73 235 67 234 C62 234 60 230 59 226 C47 201 32 178 16 156 C15 154 14 153 12 151 C12 155 13 157 13 159 C15 174 19 187 23 201 C25 208 28 215 30 223 C32 228 31 231 25 233 C19 235 15 234 11 228 C11 227 10 226 9 224 C1 208 -5 190 -9 172 C-11 163 -10 155 -9 146 C-7 130 14 125 23 133 C24 134 25 135 27 136 C27 136 27 136 27 136 C26 130 24 125 22 119 C20 114 18 110 14 106 C-6 81 -26 56 -46 31 C-65 6 -84 -19 -102 -45 C-111 -57 -118 -70 -123 -84 C-125 -91 -126 -98 -127 -105 C-128 -116 -122 -123 -112 -126 C-105 -128 -98 -128 -91 -126 C-74 -122 -61 -113 -48 -101 C-37 -90 -28 -77 -21 -62 C-13 -46 -5 -29 2 -12 C16 27 30 65 44 104 C45 107 46 109 48 112 C64 129 80 147 96 164 C101 170 106 175 111 181 C112 182 113 182 113 183 L113 183 C113 183 113 183 114 183 C114 184 115 184 115 185 C119 188 126 197 121 200 L121 200 Z M-6 43 C-16 14 -27 -15 -39 -44 C-45 -61 -54 -77 -66 -91 C-76 -102 -87 -110 -100 -115 C-101 -115 -102 -115 -103 -116 C-105 -111 -105 -107 -105 -103 C-104 -91 -99 -80 -93 -70 C-86 -54 -76 -40 -65 -27 C-46 -3 -28 20 -9 43 C-8 45 -6 46 -4 47 C-5 46 -5 44 -6 43 L-6 43 Z " />
<glyph glyph-name="z" unicode="z" horiz-adv-x="106" d="M50 143 C54 148 58 153 62 158 C75 172 88 186 100 201 C103 205 106 209 108 214 C111 219 110 224 105 228 C102 230 99 232 95 233 C88 236 81 234 75 231 C60 226 45 221 31 216 C19 211 8 206 -4 201 C-6 200 -8 198 -10 196 C-6 189 -1 186 6 188 C9 189 11 190 13 191 C32 197 50 204 69 211 C70 211 72 212 74 212 C73 209 71 206 69 204 C57 190 44 175 32 161 C29 158 27 155 25 151 C22 147 22 144 26 140 C28 138 31 136 34 134 C37 133 41 132 45 130 C59 126 67 115 65 100 C64 93 62 87 59 81 C50 62 38 46 23 32 C9 20 -7 10 -25 6 C-30 5 -34 3 -39 5 C-41 8 -40 11 -39 14 C-37 18 -35 23 -33 27 C-27 36 -20 43 -12 49 C3 61 18 73 34 85 C36 86 39 88 42 88 C44 88 46 89 47 91 C47 94 46 96 44 97 C39 101 33 102 27 99 C22 97 18 95 14 92 C2 85 -10 77 -22 69 C-34 61 -44 52 -52 41 C-57 35 -61 29 -63 22 C-66 11 -63 4 -55 -2 C-51 -5 -47 -6 -43 -8 C-31 -12 -18 -10 -6 -7 C33 2 62 26 82 60 C86 67 88 73 91 80 C95 95 92 109 82 121 C75 130 66 136 56 141 C54 141 52 142 50 143 L50 143 Z " />
<glyph glyph-name="braceleft" unicode="&#x7b;" horiz-adv-x="170" d="M58 194 C62 197 64 200 67 203 C77 213 86 222 95 231 C125 260 151 293 172 329 C189 358 203 388 215 419 C234 464 252 509 274 552 C284 571 293 590 305 606 C312 616 318 625 329 630 C331 631 331 633 330 634 C329 636 328 637 327 638 C321 642 314 643 308 640 C303 637 298 633 294 629 C288 623 284 617 279 611 C267 594 257 576 247 557 C228 520 211 480 195 441 C182 409 169 377 153 347 C132 308 106 275 76 244 C66 234 56 225 46 215 C42 210 37 205 34 201 C30 196 30 192 34 189 C37 186 40 184 43 183 C45 182 48 181 51 180 C56 179 61 178 65 177 C69 176 70 175 70 171 C70 167 69 163 68 160 C63 140 58 120 51 101 C31 41 14 -20 2 -83 C-1 -100 -3 -118 -1 -136 C-1 -144 0 -153 5 -160 C11 -169 19 -178 26 -186 C28 -189 32 -191 35 -191 C41 -193 46 -193 51 -190 C55 -187 55 -184 51 -181 C50 -180 49 -179 48 -178 C41 -168 35 -158 33 -145 C32 -138 31 -131 31 -124 C30 -107 32 -90 35 -74 C43 -36 52 2 63 39 C71 65 79 91 87 118 C91 130 94 143 97 157 C99 169 95 178 84 184 C83 185 81 186 79 187 C74 188 68 190 63 192 C62 192 60 193 58 194 L58 194 Z " />
<glyph glyph-name="bar" unicode="&#x7c;" horiz-adv-x="158" d="M-45 -193 C-39 -192 -34 -190 -31 -184 C-24 -165 -15 -146 -8 -127 C16 -62 37 4 58 70 C79 139 100 207 121 276 C136 325 152 374 169 422 C191 483 215 543 238 603 C242 613 245 623 248 633 C250 639 249 641 243 643 C238 644 236 644 234 639 C229 630 225 621 220 612 C193 551 167 489 145 426 C114 341 87 255 60 170 C36 93 12 16 -15 -60 C-29 -100 -42 -141 -54 -182 C-55 -189 -54 -191 -48 -192 C-47 -192 -46 -193 -45 -193 L-45 -193 Z " />
<glyph glyph-name="braceright" unicode="&#x7d;" horiz-adv-x="144" d="M211 610 C210 630 197 644 178 644 C173 643 168 642 164 637 C162 635 161 633 163 630 C166 625 170 623 176 626 C178 627 179 628 182 629 C184 621 183 614 182 607 C180 590 176 573 170 557 C158 523 145 489 132 454 C114 408 95 362 77 315 C70 295 63 275 57 255 C52 240 54 226 63 215 C65 213 66 211 67 210 C68 209 69 207 70 206 C67 203 65 201 63 198 C44 182 32 161 24 137 C21 125 17 114 15 102 C5 61 -4 19 -14 -22 C-18 -44 -25 -66 -33 -86 C-33 -86 -33 -87 -33 -87 C-33 -87 -33 -87 -33 -87 C-34 -91 -36 -96 -38 -100 C-65 -168 -92 -175 -92 -175 C-92 -173 -92 -172 -92 -171 C-92 -165 -95 -163 -99 -163 C-108 -164 -114 -167 -116 -177 C-118 -185 -116 -188 -109 -191 C-104 -192 -98 -192 -92 -191 C-88 -190 -84 -189 -79 -188 C-71 -185 -43 -174 -22 -135 C-19 -130 -16 -124 -13 -118 C-12 -115 -11 -112 -10 -110 C-2 -92 5 -73 10 -53 C24 -7 33 40 44 88 C48 108 52 128 60 147 C64 160 71 171 81 180 C86 185 91 190 95 194 C102 201 102 205 96 212 C94 215 91 217 89 219 C83 227 80 236 82 246 C84 251 85 256 86 260 C96 291 108 321 121 351 C138 392 156 434 173 476 C185 505 196 536 205 567 C208 581 211 595 211 610 L211 610 Z " />
<glyph glyph-name="asciitilde" unicode="&#x7e;" horiz-adv-x="226" d="M94 209 C95 207 95 206 95 205 C95 196 95 188 95 180 C95 174 97 168 101 164 C108 156 124 149 139 155 C165 166 187 182 208 200 C211 202 211 204 208 207 C204 211 195 212 189 209 C178 204 166 198 155 191 C147 185 137 181 129 176 C128 175 127 175 126 175 C126 181 125 187 125 193 C124 203 120 212 111 217 C100 224 87 226 75 219 C65 214 54 208 46 199 C41 195 37 189 33 183 C30 180 31 178 34 176 C39 173 42 173 46 177 C56 187 67 196 79 202 C84 204 89 206 94 209 L94 209 Z " />
<glyph glyph-name="quoteleft" unicode="&#x2018;" horiz-adv-x="209" d="M193 584 C187 584 182 577 184 571 C184 570 185 568 184 566 C178 550 175 533 171 517 C170 511 168 506 168 500 C166 492 173 485 181 485 C183 484 185 485 185 487 C190 506 196 524 203 541 C206 549 208 558 211 567 C212 570 212 573 209 576 C204 581 198 583 193 584 L193 584 Z " />
<glyph glyph-name="quoteright" unicode="&#x2019;" horiz-adv-x="211" d="M193 584 C187 584 182 577 184 571 C184 570 185 568 184 566 C178 550 175 533 171 517 C170 511 168 506 168 500 C166 492 173 485 181 485 C183 484 185 485 185 487 C190 506 196 524 203 541 C206 549 208 558 211 567 C212 570 212 573 209 576 C204 581 198 583 193 584 L193 584 Z " />
<glyph glyph-name="quotedblleft" unicode="&#x201c;" horiz-adv-x="202" d="M202 574 C198 579 192 581 186 582 C180 582 176 575 177 569 C178 568 178 566 178 564 C171 548 168 531 164 515 L161 498 C160 490 166 483 174 483 C177 482 178 483 179 485 C183 504 189 522 196 539 C199 547 202 556 204 565 C205 568 205 571 202 574 L202 574 L202 574 Z M143 582 C136 582 132 575 133 569 C134 568 134 566 134 564 C128 548 125 531 121 515 C119 509 118 504 117 498 C116 490 122 483 130 483 C133 482 134 483 135 485 C139 504 146 522 152 539 C155 547 158 556 160 565 C161 568 161 571 158 574 C154 579 148 581 143 582 L143 582 Z " />
<glyph glyph-name="quotedblright" unicode="&#x201d;" horiz-adv-x="202" d="M202 574 C198 579 192 581 186 582 C180 582 176 575 177 569 C178 568 178 566 178 564 C171 548 168 531 164 515 L161 498 C160 490 166 483 174 483 C177 482 178 483 179 485 C183 504 189 522 196 539 C199 547 202 556 204 565 C205 568 205 571 202 574 L202 574 L202 574 Z M143 582 C136 582 132 575 133 569 C134 568 134 566 134 564 C128 548 125 531 121 515 C119 509 118 504 117 498 C116 490 122 483 130 483 C133 482 134 483 135 485 C139 504 146 522 152 539 C155 547 158 556 160 565 C161 568 161 571 158 574 C154 579 148 581 143 582 L143 582 Z " />
</font>
</svg>
