<?xml version="1.0" encoding="UTF-8"?>
<svg xmlns="http://www.w3.org/2000/svg" xmlns:xlink="http://www.w3.org/1999/xlink" version="1.2" >
<font id="Fturism">
<font-face  font-family="Fturism" units-per-em="1000" ascent="750" descent="-250" font-style="normal" font-weight="400" font-stretch="normal" cap-height="700" x-height="500" underline-position="-75" underline-thickness="50" />
<missing-glyph  horiz-adv-x="178" d="" />
<glyph glyph-name="NULL" d="" />
<glyph glyph-name="nonmarkingreturn" unicode="&#xd;" horiz-adv-x="178" d="" />
<glyph glyph-name="space" unicode="&#x20;" horiz-adv-x="178" d="" />
<glyph glyph-name="E" unicode="E" horiz-adv-x="409" d="M259 338 Q242 336 226 335 Q210 334 194 332 Q183 331 171 330.5 Q159 330 148 330 Q131 329 114.5 330.5 Q98 332 81 337 Q72 341 63 345.5 Q54 350 47 357 Q23 380 27 414 Q32 443 46 467 Q58 490 74 511 Q90 532 109 552 Q164 607 231 640 Q264 657 302 665 Q340 671 370 660 Q416 640 426 593 Q438 543 418 489 Q413 475 404 465 Q398 459 391 462 Q385 465 388 471 Q393 479 395.5 487.5 Q398 496 400 504 Q408 543 405 578 Q403 597 398 610 Q393 623 385 632 Q373 646 354 647 Q338 650 322 647 Q306 644 290 638 Q246 623 208 594 Q143 549 101 491 Q90 476 80.5 460 Q71 444 65 427 Q62 419 60 410 Q58 401 59 393 Q59 360 90 353 Q99 351 108 350 Q117 349 126 349 Q139 349 151 349.5 Q163 350 176 351 Q187 352 198 352.5 Q209 353 220 355 Q230 356 239.5 356.5 Q249 357 259 359 Q281 362 301 365 Q303 365 305 365.5 Q307 366 309 366 Q316 368 321.5 366 Q327 364 332 360 Q332 358 334 358 Q338 351 330 347 Q330 347 328 345 Q281 322 239.5 292 Q198 262 160 227 Q79 152 20 57 Q10 41 2 25 Q-6 9 -11 -8 Q-21 -34 -18 -58 Q-16 -68 -14 -72 Q-9 -83 -2 -85.5 Q5 -88 16 -86 Q35 -83 58 -70 Q71 -63 83 -54.5 Q95 -46 106 -37 Q125 -22 142 -6.5 Q159 9 176 25 Q210 57 243 89.5 Q276 122 308 155 Q318 166 327 177 Q336 188 345 199 Q349 202 351 207 Q352 212 360 212 Q366 212 370 208 Q374 204 372 201 Q370 199 370.5 197.5 Q371 196 370 194 Q369 192 367.5 192 Q366 192 364 190 Q362 188 361 186 Q360 184 358 182 Q341 162 324 143.5 Q307 125 289 106 Q253 68 216.5 32 Q180 -4 142 -40 Q128 -53 113 -64.5 Q98 -76 82 -86 Q56 -101 30 -105 Q-4 -111 -31 -93 Q-44 -84 -49 -71 Q-54 -58 -55 -42 Q-54 -25 -49.5 -9.5 Q-45 6 -38 22 Q-18 64 10 104 Q86 212 189 291 Q205 303 220.5 313.5 Q236 324 252 334 Q254 335 255 335.5 Q256 336 259 338 Z " />
<glyph glyph-name="F" unicode="F" horiz-adv-x="423" d="M294 642 Q315 650 336.5 656.5 Q358 663 379 669 Q405 677 429.5 682 Q454 687 478 691 Q497 694 515 695.5 Q533 697 552 695 Q566 694 579 692.5 Q592 691 604 686 Q618 681 627 671 Q629 666 631 661.5 Q633 657 632 651 Q632 638 626 625 Q622 619 620 619 Q617 618 616.5 619.5 Q616 621 615 623 Q614 626 614.5 629 Q615 632 614 635 Q614 638 618 638 Q621 643 621.5 647.5 Q622 652 622 657 Q623 659 618 664 Q608 671 601 673 Q584 678 565 680 Q554 681 544 681 Q534 681 523 681 Q497 679 472 675 Q428 668 385.5 656 Q343 644 300 629 Q296 627 296 627 Q274 561 253.5 497 Q233 433 213 368 L216 368 Q232 373 247 376.5 Q262 380 278 382 Q299 385 318.5 387 Q338 389 358 388 Q370 387 381.5 386 Q393 385 403 381 Q408 379 413 376.5 Q418 374 420 369 Q428 359 421.5 348.5 Q415 338 404 333 Q392 326 392 340 Q394 342 396 342 Q404 348 410 356 Q413 366 407 368 Q402 370 397.5 371 Q393 372 388 373 Q373 376 356.5 376 Q340 376 323 374 Q305 372 287.5 369.5 Q270 367 251 363 Q241 361 231 357.5 Q221 354 210 350 Q206 349 205 345 Q203 339 201 333 Q199 327 197 321 Q182 268 161 216 Q154 199 147.5 182.5 Q141 166 134 149 L116 104 Q111 89 105.5 74 Q100 59 95 45 Q89 28 82 12 Q75 -4 70 -20 Q66 -31 62 -41 Q58 -51 53 -62 L53 -65 L56 -68 Q61 -73 54 -73 Q46 -75 46 -81 Q45 -85 40 -85 Q32 -85 28 -81 Q23 -79 26 -74 Q30 -63 33.5 -51.5 Q37 -40 40 -29 Q48 -12 53.5 6 Q59 24 65 41 Q72 59 77.5 77 Q83 95 91 113 L106 167 Q118 205 129.5 242.5 Q141 280 152 318 Q152 320 154 324 Q152 324 151.5 323.5 Q151 323 150 323 Q95 295 44 255 Q42 253 40 250.5 Q38 248 35 246 Q28 242 28 237 Q17 233 17 243 Q17 246 20 248 Q24 254 27 257 Q41 271 56 282 Q71 293 87 304 Q123 328 160 345 Q182 412 204.5 478.5 Q227 545 256 612 Q252 610 249 609 Q232 603 215 596.5 Q198 590 181 583 Q167 578 154.5 575 Q142 572 129 570 Q113 567 99 570 Q85 574 78.5 585 Q72 596 76 611 Q77 633 95 652 Q96 654 97.5 655 Q99 656 101 658 Q107 663 113 660 Q119 656 119 651 Q119 650 118 649 Q117 648 117 647 L113 647 L110 650 Q107 648 106 647 Q85 625 84 601 Q83 583 103 580 Q114 579 125 581 Q136 583 147 586 Q163 591 178.5 597 Q194 603 210 609 Q223 614 235 619 Q247 624 260 629 Q264 630 266 635 Q267 637 269 639.5 Q271 642 273 644 Q274 648 280 648 Q283 648 285.5 647 Q288 646 291 644 Q292 644 294 642 Z " />
<glyph glyph-name="G" unicode="G" horiz-adv-x="415" d="M391 523 L394 526 Q414 543 425 568 Q431 580 435 592 Q439 604 440 616 Q442 633 435 644 Q430 652 421.5 655 Q413 658 402 657 Q387 655 372.5 649.5 Q358 644 344 636 Q300 612 263 576 Q233 547 206.5 514.5 Q180 482 156 447 Q139 422 125 396.5 Q111 371 100 344 Q80 299 72 249 Q72 241 71.5 232.5 Q71 224 73 216 Q74 214 74.5 211 Q75 208 76 206 Q80 194 95 194 Q107 193 118.5 196 Q130 199 143 204 Q160 211 175.5 220.5 Q191 230 206 241 Q224 254 241.5 267.5 Q259 281 277 295 Q289 305 300.5 314.5 Q312 324 325 335 Q328 337 331.5 339 Q335 341 337 343 Q346 349 352 346 Q361 344 366.5 339 Q372 334 370 323 Q371 314 370.5 304.5 Q370 295 369 285 Q367 270 365 255.5 Q363 241 361 227 Q359 210 354 192.5 Q349 175 342 158 Q334 138 325 118.5 Q316 99 305 79 Q305 78 303 74 L308 74 Q325 75 343 75 Q361 75 380 76 Q390 78 395 78 Q402 79 408 85 Q411 89 416 88.5 Q421 88 422 84 Q423 83 420 80 Q415 71 408 70 Q400 67 393 67 Q385 66 378 65.5 Q371 65 363 65 Q348 64 333 63.5 Q318 63 302 62 L300 62 Q296 63 291 57 Q274 28 253.5 1.5 Q233 -25 208 -50 Q188 -70 166 -87 Q144 -104 119 -117 Q106 -123 94 -127.5 Q82 -132 68 -134 Q41 -139 23 -128 Q-1 -115 4 -80 Q11 -56 27 -32 Q50 2 80 24 Q110 46 146 59 Q171 67 200 69 Q215 71 230 71 Q245 71 260 72 Q261 73 264 73 Q264 74 267 77 Q288 114 304 151.5 Q320 189 328 227 Q333 249 336.5 270 Q340 291 342 313 Q342 314 341 315 Q340 313 339 312.5 Q338 312 337 311 Q310 290 283 269 Q256 248 229 228 Q215 217 200 207.5 Q185 198 168 190 Q156 184 144.5 180 Q133 176 120 174 Q97 170 78 176 Q59 182 46 200 Q40 209 38 220 Q36 231 36 244 Q36 258 39 273 Q42 288 46 303 Q64 361 97 417 Q123 462 155 503.5 Q187 545 226 582 Q250 605 275 623 Q300 641 329 655 Q356 668 381 672 Q401 675 416 671.5 Q431 668 442 655 Q458 635 455 603 Q447 567 424 538 Q416 528 404 519 Q393 512 391 523 Z M256 60 L241 60 Q209 58 183 53 Q128 42 81 0 Q45 -32 30 -71 Q21 -91 28 -107 Q32 -119 45 -120 Q48 -120 51 -119.5 Q54 -119 57 -119 Q71 -116 83.5 -110.5 Q96 -105 108 -97 Q125 -86 140.5 -73.5 Q156 -61 172 -47 Q195 -23 215.5 3 Q236 29 253 56 Q254 57 254 58 Q254 59 256 60 Z " />
<glyph glyph-name="H" unicode="H" horiz-adv-x="500" d="M-85 21 Q-84 23 -82.5 26 Q-81 29 -80 31 Q-71 54 -58 76.5 Q-45 99 -29 120 Q10 170 61 211 Q86 233 112.5 250.5 Q139 268 168 285 Q195 302 224 318 Q253 334 282 349 Q284 350 285.5 351 Q287 352 289 353 Q291 358 292 361.5 Q293 365 293 369 Q301 403 305 436 Q309 469 314 501 Q318 546 321 589.5 Q324 633 328 677 Q329 682 329 687 Q329 692 331 697 L331 701 Q331 707 336 707 Q347 709 349 701 Q351 698 351 692 Q353 675 353 658.5 Q353 642 352 625 Q352 593 352 560 Q352 527 350 494 Q347 468 344.5 441 Q342 414 337 386 Q336 384 336 379 Q337 379 338 379.5 Q339 380 340 380 Q360 391 379 402 Q398 413 418 425 Q420 427 421 429 Q422 431 424 433 Q438 478 455 523 Q472 568 494 613 Q503 631 512 649.5 Q521 668 532 685 Q537 693 542.5 699.5 Q548 706 553 713 Q558 718 562.5 722.5 Q567 727 572 732 Q587 743 600 741.5 Q613 740 618 732 Q621 728 622 723.5 Q623 719 624 714 Q626 702 625 688.5 Q624 675 621 661 Q619 651 617.5 641.5 Q616 632 613 622 Q596 580 568 541 Q526 490 477 453 Q471 450 468 443 Q460 417 453 391.5 Q446 366 440 340 Q430 290 416 234 Q410 205 404.5 175.5 Q399 146 394 117 Q388 82 383 48.5 Q378 15 372 -19 Q369 -41 366 -62 Q363 -83 361 -104 Q360 -108 362 -114 Q364 -118 361.5 -122 Q359 -126 354 -128 Q338 -135 330 -128 Q328 -126 328 -120 Q328 -111 328.5 -102.5 Q329 -94 329 -86 Q334 -54 337.5 -22.5 Q341 9 346 41 Q352 83 358 123.5 Q364 164 369 206 Q377 256 387.5 305.5 Q398 355 415 406 Q415 408 415.5 409 Q416 410 417 412 Q396 400 375 388.5 Q354 377 334 365 Q332 359 331 353 Q330 347 328 341 Q314 280 287.5 221.5 Q261 163 220 106 Q150 11 54 -53 Q38 -63 23.5 -71 Q9 -79 -8 -84 Q-28 -90 -44.5 -88.5 Q-61 -87 -74 -76 Q-83 -68 -86.5 -56 Q-90 -44 -91 -30 Q-94 -18 -89 0 Q-89 3 -88.5 5.5 Q-88 8 -87 11 Q-87 13 -86 16 Q-85 19 -85 21 Z M286 339 Q284 338 283 338 Q282 338 280 337 Q259 325 237 313 Q215 301 192 287 Q161 270 132 250.5 Q103 231 75 208 Q49 187 26 164 Q3 141 -17 115 Q-36 90 -49.5 64 Q-63 38 -69 11 Q-74 -6 -73.5 -20.5 Q-73 -35 -68 -48 Q-62 -65 -48 -72 Q-43 -74 -37.5 -75 Q-32 -76 -24 -74 Q-20 -72 -15.5 -70.5 Q-11 -69 -6 -67 Q8 -61 22 -52 Q36 -43 48 -33 Q143 38 202 140 Q231 189 251 237.5 Q271 286 285 336 Q285 338 286 339 Z M478 468 Q480 469 480 469.5 Q480 470 482 471 Q502 487 520 505 Q538 523 555 544 Q582 578 596 613 Q604 632 607 650 Q610 668 611 686 Q614 705 608 721 Q606 728 603 728 Q600 728 592 721 Q588 716 583.5 711 Q579 706 576 701 Q569 692 564 682.5 Q559 673 554 663 Q539 634 527 604.5 Q515 575 504 545 L483 488 Q482 483 480.5 478 Q479 473 478 468 Z " />
<glyph glyph-name="I" unicode="I" horiz-adv-x="239" d="M246 669 Q244 667 242.5 666 Q241 665 239 664 Q224 651 209.5 638.5 Q195 626 179 612 Q177 610 174 607 Q171 604 168 602 Q166 600 165 598 Q164 596 162 593 Q156 591 155 594 Q149 597 154 603 Q157 606 159.5 609 Q162 612 166 614 Q177 625 188.5 634.5 Q200 644 211 655 Q216 660 221.5 664.5 Q227 669 233 674 Q234 675 235 675.5 Q236 676 237 678 Q245 685 251 684 Q257 683 261 678 Q264 673 264 667 Q266 659 265 651.5 Q264 644 262 636 Q259 610 253 585 Q247 560 242 534 Q228 477 213.5 419.5 Q199 362 182 305 Q177 284 171 263 Q165 242 158 221 Q156 212 152.5 203 Q149 194 147 185 L147 181 L149 183 Q155 187 159 186 Q167 184 161 178 Q156 174 152.5 170.5 Q149 167 145 164 Q143 162 140.5 160 Q138 158 137 154 Q125 121 111 88.5 Q97 56 78 24 Q70 9 60 -5.5 Q50 -20 38 -34 Q17 -60 -8 -75 Q-36 -92 -62 -91 Q-67 -91 -75 -89 Q-101 -80 -96 -49 Q-94 -36 -88.5 -24 Q-83 -12 -75 -1 Q-65 14 -52 27.5 Q-39 41 -25 53 Q1 74 27 94 Q53 114 81 134 Q88 138 88 144 Q94 158 99.5 173 Q105 188 110 203 Q114 217 119 231 Q124 245 128 259 Q140 295 149 331 Q157 354 164.5 377.5 Q172 401 178 424 Q183 440 187.5 455 Q192 470 197 485 Q202 501 206.5 516.5 Q211 532 216 548 Q224 577 232 605 Q240 633 245 662 Q245 664 247 668 L246 669 Z M76 115 Q74 113 72 112 Q58 102 46.5 93 Q35 84 22 74 Q14 66 4.5 58.5 Q-5 51 -14 43 Q-28 30 -39.5 16 Q-51 2 -60 -14 Q-72 -33 -72 -55 Q-72 -64 -68 -71 Q-63 -78 -53 -74 Q-40 -70 -29 -60 Q-18 -51 -10 -41 Q-2 -31 6 -20 Q29 12 45.5 46 Q62 80 76 115 Z " />
<glyph glyph-name="J" unicode="J" horiz-adv-x="349" d="M611 684 Q614 681 611 676 Q607 672 601 672 Q591 672 593 683 Q591 683 590 683.5 Q589 684 587 684 L557 684 Q547 683 537.5 682.5 Q528 682 517 681 Q505 679 493 678.5 Q481 678 469 676 Q458 674 446 673 Q434 672 423 670 Q407 668 392.5 665.5 Q378 663 362 661 Q360 661 358 660 Q358 655 357.5 649.5 Q357 644 357 638 Q355 610 352 582 Q349 554 347 526 Q344 492 339 458.5 Q334 425 327 391 Q320 358 311 325 Q302 292 289 258 Q289 257 288.5 256 Q288 255 288 254 L297 254 Q305 252 298 247 Q297 245 295 243.5 Q293 242 291 240 Q287 238 284 237 Q282 235 281 234 Q280 233 278 231 Q270 212 262 193.5 Q254 175 243 157 Q228 128 209 99.5 Q190 71 166 45 Q92 -35 -5 -66 Q-17 -70 -30 -72 Q-43 -74 -56 -73 Q-85 -72 -99.5 -55 Q-114 -38 -109 -9 Q-107 8 -99 23.5 Q-91 39 -79 54 Q-64 72 -46 86.5 Q-28 101 -8 113 Q9 123 26 131 Q43 139 60 147 Q102 166 143 184 Q184 202 226 220 Q232 222 235 230 Q254 277 268 328 Q280 365 288 401.5 Q296 438 302 475 Q308 511 313.5 547 Q319 583 325 620 Q325 628 326.5 635 Q328 642 329 650 L329 655 L326 655 Q271 644 216.5 626 Q162 608 107 581 Q96 575 84 568.5 Q72 562 61 554 Q57 552 54 549 Q51 546 47 543 L41 537 Q42 535 42 534 Q42 533 43 531 Q41 529 40 529 Q39 529 37 529 Q30 531 30 537 Q29 539 30 540.5 Q31 542 32 544 Q36 548 39.5 551 Q43 554 46 557 Q53 562 60 566.5 Q67 571 74 576 Q102 592 129 604 Q156 616 185 627 Q220 640 259 651 Q285 658 343 669 Q401 680 504 691 Q509 691 515 691.5 Q521 692 527 692 Q535 693 543 693.5 Q551 694 559 694 Q570 694 580.5 693.5 Q591 693 601 691 Q608 689 611 684 Z M221 195 Q222 200 227 210 Q225 209 224 208.5 Q223 208 221 207 Q183 190 144 172.5 Q105 155 67 138 Q53 131 38.5 124 Q24 117 10 109 Q-8 98 -24.5 85 Q-41 72 -55 56 Q-69 41 -77.5 26 Q-86 11 -88 -6 Q-90 -18 -88.5 -28.5 Q-87 -39 -81 -48 Q-68 -62 -49 -61 Q-43 -61 -37 -60 Q-31 -59 -26 -57 Q4 -48 31 -32.5 Q58 -17 84 4 Q106 22 123.5 42 Q141 62 157 84 Q177 111 192 138.5 Q207 166 221 195 Z " />
<glyph glyph-name="K" unicode="K" horiz-adv-x="423" d="M546 697 Q553 693 550 686 Q547 683 548 683 Q547 682 546.5 680.5 Q546 679 544 677 Q540 663 535.5 649.5 Q531 636 526 622 Q511 584 485.5 533.5 Q460 483 426 434 Q392 385 349.5 345 Q307 305 258 290 Q247 287 239.5 286 Q232 285 227 285 Q224 285 220.5 285 Q217 285 214 286 L212 286 Q217 269 221.5 252.5 Q226 236 230 219 Q235 200 240 181.5 Q245 163 250 144 Q260 106 274 70.5 Q288 35 304 1 Q313 -16 321 -32.5 Q329 -49 337 -66 Q339 -71 342 -75.5 Q345 -80 347 -85 Q354 -83 360 -87 Q360 -88 361.5 -89 Q363 -90 363 -92 Q365 -97 363 -100 Q361 -103 356 -104 Q348 -104 342 -98 Q339 -94 336 -90.5 Q333 -87 331 -83 Q320 -67 311.5 -50 Q303 -33 294 -15 Q286 2 277.5 20 Q269 38 261 56 Q246 88 236 122.5 Q226 157 217 192 Q212 213 207.5 234 Q203 255 198 275 Q198 278 196 282 Q196 279 195 276.5 Q194 274 193 272 Q187 254 175 221.5 Q163 189 148 150.5 Q133 112 115 71.5 Q97 31 79 -3 Q71 -17 62.5 -30.5 Q54 -44 45 -57 Q43 -60 40 -63 Q37 -66 35 -69 Q34 -71 30 -77 Q27 -80 24 -82.5 Q21 -85 18 -88 Q10 -96 -3 -91 Q-10 -89 -10 -83 Q-10 -77 -9.5 -71.5 Q-9 -66 -7 -60 Q-4 -56 -1 -54 Q-3 -66 -2 -72 Q-2 -77 0.5 -77.5 Q3 -78 10 -66 Q12 -64 12.5 -63 Q13 -62 15 -60 Q18 -56 22 -48 Q30 -35 54 15.5 Q78 66 113 170 Q121 193 127.5 216.5 Q134 240 142 263 Q153 295 162.5 326 Q172 357 183 388 Q204 450 224.5 511 Q245 572 267 633 Q272 648 277 663 Q282 678 287 692 Q287 692 289 697 Q284 695 283 694 Q270 687 258 680 Q246 673 232 666 Q209 654 187.5 642.5 Q166 631 143 619 Q131 613 119 606.5 Q107 600 96 592 Q91 587 86 583 Q81 579 77 574 Q72 566 68.5 557.5 Q65 549 67 540 Q68 537 68.5 533.5 Q69 530 71 527 Q74 520 84 518 Q86 518 92 516 Q96 516 94 512 Q93 510 89 510 Q69 512 59 527 Q51 539 52.5 554.5 Q54 570 64 584 Q75 598 87 605 Q95 611 103.5 616 Q112 621 121 626 Q135 634 148.5 640.5 Q162 647 175 655 Q204 670 232.5 687.5 Q261 705 288 724 L289 724 Q300 733 312 729 Q319 725 322.5 720.5 Q326 716 328 708 Q329 697 324 681 Q319 662 313.5 643 Q308 624 302 604 Q285 550 266.5 496.5 Q248 443 231 389 Q226 374 221.5 359 Q217 344 211 329 L211 327 L203 301 Q210 297 221 297 Q230 297 242.5 299.5 Q255 302 272 311 Q273 312 273.5 312 Q274 312 275 313 Q298 324 317.5 339 Q337 354 355 373 Q375 392 390 412.5 Q405 433 419 456 Q448 500 471 545.5 Q494 591 513 640 Q517 651 520.5 662.5 Q524 674 529 685 Q531 687 532.5 690 Q534 693 536 695 Q539 700 546 697 Z " />
<glyph glyph-name="L" unicode="L" horiz-adv-x="339" d="M579 -118 Q582 -120 582 -126 Q583 -132 575 -138 Q573 -139 567 -141 Q559 -144 552 -144 Q535 -146 517.5 -143.5 Q500 -141 483 -136 Q465 -131 446 -125.5 Q427 -120 409 -112 Q374 -97 341.5 -78.5 Q309 -60 277 -40 Q275 -39 266 -33 Q257 -27 244 -18.5 Q231 -10 216 -1 Q201 8 188.5 16 Q176 24 167 28.5 Q158 33 158 32 Q156 28 154 27 Q140 -3 118 -27 Q111 -34 104 -39.5 Q97 -45 88 -50 Q84 -52 80 -53.5 Q76 -55 72 -55 Q59 -55 52 -50 Q43 -46 43 -34 Q44 -31 44 -27.5 Q44 -24 46 -20 Q65 36 118 46 Q120 46 121 47 L124 47 Q126 54 127.5 60 Q129 66 131 73 Q139 99 145.5 125 Q152 151 158 178 Q169 228 179.5 277.5 Q190 327 203 377 L203 381 Q199 380 195 380 Q191 380 187 379 Q168 378 150 381 Q132 384 115 393 Q86 409 76 440 Q71 459 73 479 Q75 502 81 523.5 Q87 545 95 566 Q96 569 100 575 Q103 581 109 577 Q116 575 116 570 Q117 564 116.5 558 Q116 552 116 546 Q116 543 112 543 Q108 545 105 545 Q104 538 102.5 531.5 Q101 525 99 517 Q97 505 95.5 493 Q94 481 92 468 Q91 460 92 453.5 Q93 447 95 439 Q104 406 137 396 Q159 390 184 395 Q189 395 193.5 396 Q198 397 203 398 Q209 399 209 404 Q216 426 222 447.5 Q228 469 234 491 Q244 523 254.5 554.5 Q265 586 279 616 Q295 656 321 691 Q326 696 329.5 700 Q333 704 338 708 Q351 719 365 716 Q379 713 390 698 Q392 693 394.5 687.5 Q397 682 398 676 Q401 664 401.5 652 Q402 640 401 628 Q399 595 389 565.5 Q379 536 364 507 Q355 490 345 474 Q335 458 321 444 Q291 413 254 397 Q249 394 248 389 Q238 344 228 300.5 Q218 257 208 212 Q201 180 194 149.5 Q187 119 177 88 Q174 78 170.5 68.5 Q167 59 164 49 Q164 48 162 44 Q168 41 179 35 Q188 30 203.5 21.5 Q219 13 242 -1 Q243 -2 243.5 -2 Q244 -2 245 -3 Q265 -15 284 -27.5 Q303 -40 323 -52 L324 -52 Q331 -57 339 -61.5 Q347 -66 355 -71 Q395 -94 437.5 -110.5 Q480 -127 526 -134 Q537 -136 549 -134.5 Q561 -133 566 -122 Q566 -121 569 -118 Q573 -114 579 -118 Z M261 438 Q260 433 259 428.5 Q258 424 256 419 Q258 421 259 421 Q260 421 261 422 Q284 437 299 453 Q357 519 375 607 Q381 632 379 662 Q378 670 377 676.5 Q376 683 373 690 Q371 694 371 697 Q367 694 363 690 Q359 685 355 679.5 Q351 674 347 668 Q333 648 323 625 Q313 602 305 579 Q291 544 281.5 509 Q272 474 261 438 Z M66 -36 Q72 -33 80.5 -24.5 Q89 -16 96.5 -6.5 Q104 3 109.5 13 Q115 23 116 30 Q112 28 111 28 Q104 25 99 21.5 Q94 18 89 13 Q71 -5 67 -28 Q69 -32 66 -36 Z " />
<glyph glyph-name="M" unicode="M" horiz-adv-x="629" d="M471 -154 Q467 -152 464 -152 Q454 -149 453 -140 Q448 -129 451 -117 Q449 -100 450.5 -82.5 Q452 -65 453 -48 Q458 3 464 54 Q470 105 478 157 Q482 181 487 205.5 Q492 230 498 254 Q518 330 547 402 Q576 474 613 545 Q630 577 647.5 607.5 Q665 638 683 669 Q685 673 686 676 Q684 676 682 674 Q653 650 631 625 Q596 587 567.5 547 Q539 507 514 464 Q491 424 471.5 384 Q452 344 434 302 Q416 261 400 221.5 Q384 182 367 141 Q359 118 351 95.5 Q343 73 332 51 Q328 45 325.5 39.5 Q323 34 320 28 Q318 24 316 22 Q313 17 307 14.5 Q301 12 295 11 Q284 11 279 15 Q272 19 266 30 Q264 38 263.5 45.5 Q263 53 262 61 Q262 87 264.5 114 Q267 141 271 167 Q279 216 291 263.5 Q303 311 320 359 Q339 413 362 465.5 Q385 518 411 569 Q416 583 422.5 596 Q429 609 434 623 Q435 623 435 624 Q435 625 436 626 Q434 625 432.5 624 Q431 623 429 622 Q421 615 414.5 607.5 Q408 600 400 592 Q380 570 362.5 547 Q345 524 328 501 Q305 468 284 435 Q263 402 242 367 Q222 329 203.5 289.5 Q185 250 169 209 Q157 176 144.5 143 Q132 110 119 76 Q118 73 117.5 70 Q117 67 115 64 Q110 55 103 55 Q90 54 79 59 Q70 63 69 73 Q70 80 69 86.5 Q68 93 69 100 Q72 139 76 177.5 Q80 216 88 255 Q93 281 99.5 306 Q106 331 114 357 Q126 402 139.5 446.5 Q153 491 169 536 Q176 556 182 575 Q188 594 195 614 Q199 625 200.5 636.5 Q202 648 203 659 Q202 662 203 663 Q203 665 202 667 Q200 665 198.5 664.5 Q197 664 195 663 Q190 658 185.5 654.5 Q181 651 177 646 Q165 635 155.5 622.5 Q146 610 137 596 Q129 584 121 571.5 Q113 559 105 545 Q103 542 101.5 538.5 Q100 535 98 531 Q98 527 97 523.5 Q96 520 99 517 Q94 514 89 516 Q84 518 82 523 Q82 531 85 539 Q89 548 92.5 556 Q96 564 101 572 Q113 592 125.5 612 Q138 632 154 651 Q162 662 176 674 Q187 682 195 683 Q213 686 223 670 Q228 665 229 658 Q230 651 229 644 Q229 617 222 592 Q216 563 207.5 533.5 Q199 504 190 475 Q183 446 175.5 418.5 Q168 391 160 362 Q154 340 149.5 318 Q145 296 140 273 Q133 248 129 223.5 Q125 199 122 174 L122 172 Q124 174 124 176 Q139 208 153 240 Q167 272 184 304 Q206 348 231.5 389 Q257 430 285 471 Q305 502 327 531 Q349 560 372 589 Q382 599 390.5 609 Q399 619 409 628 Q414 632 418 635.5 Q422 639 426 642 Q439 650 449 645 Q459 640 460 627 Q460 616 457 604 Q452 589 446 574 Q440 559 433 544 Q419 506 404 468 Q389 430 375 392 Q366 363 357 335 Q348 307 340 278 Q319 201 310 125 Q308 110 307 95.5 Q306 81 305 66 Q305 64 306 62 Q308 65 310 69 Q322 93 332.5 117.5 Q343 142 354 167 Q376 219 398.5 270.5 Q421 322 445 373 Q465 413 485.5 451 Q506 489 532 527 Q559 567 589 604 Q619 641 653 675 Q661 683 669 689.5 Q677 696 685 703 Q687 705 689.5 706.5 Q692 708 695 710 Q705 714 711 711 Q713 709 716 708 Q719 707 721 705 Q727 697 727 690 Q726 685 724 680 Q722 675 720 670 Q713 654 706 639 Q699 624 691 608 Q668 565 647 522 Q626 479 607 434 Q574 356 550 278 Q542 253 535.5 228.5 Q529 204 523 178 Q512 131 505.5 85 Q499 39 492 -9 Q490 -26 487.5 -43 Q485 -60 483 -77 Q483 -85 483 -93 Q483 -101 481 -109 Q481 -111 482 -112 Q490 -114 491.5 -119 Q493 -124 493 -131 Q493 -140 489 -145 Q486 -151 481 -152 Q479 -153 478.5 -153 Q478 -153 476 -154 L471 -154 Z " />
<glyph glyph-name="N" unicode="N" horiz-adv-x="524" d="M198 161 Q199 162 199 163 Q199 164 201 166 Q221 214 243.5 260.5 Q266 307 290 353 Q320 410 354.5 462.5 Q389 515 427 566 Q442 585 458 603 Q474 621 493 638 Q498 643 505.5 648 Q513 653 519 658 Q522 660 525 661.5 Q528 663 533 665 Q544 670 557.5 661.5 Q571 653 572 639 Q572 622 568 609 Q563 592 557.5 575.5 Q552 559 546 542 Q528 493 512 444.5 Q496 396 483 345 Q473 306 464.5 266.5 Q456 227 448 187 L436 109 Q434 97 432.5 85 Q431 73 429 61 Q428 57 428 53 Q428 49 428 45 Q427 20 426 -5 Q425 -30 427 -55 Q426 -67 426.5 -78.5 Q427 -90 428 -101 Q430 -107 431 -109 L431 -113 Q433 -116 431.5 -118 Q430 -120 427 -120 Q422 -122 414.5 -119.5 Q407 -117 405 -109 Q403 -104 402 -98 Q401 -92 399 -85 Q396 -67 394.5 -48.5 Q393 -30 392 -12 L392 76 Q391 99 393 121.5 Q395 144 398 167 Q409 234 424 298.5 Q439 363 460 427 Q474 470 490.5 511 Q507 552 525 594 Q530 604 534 614 Q538 624 542 634 Q544 642 544 647 Q534 642 530 639 Q519 633 511 625.5 Q503 618 494 610 Q477 593 462 575 Q447 557 433 538 Q362 447 310 348 Q239 213 190 69 Q183 44 176 19.5 Q169 -5 162 -30 Q162 -32 161 -33.5 Q160 -35 160 -37 Q159 -47 150 -48 Q144 -49 137.5 -48.5 Q131 -48 126 -44 Q118 -40 118 -33 Q120 -23 120.5 -13 Q121 -3 123 7 Q126 32 130 56.5 Q134 81 139 105 Q145 142 153 178.5 Q161 215 170 251 Q183 314 202 374 Q221 434 242 494 Q251 521 260 548 Q269 575 279 602 Q282 613 284.5 625 Q287 637 289 650 Q290 656 290 662 Q290 668 288 673 Q286 688 273 691 Q258 695 243 692 Q218 689 197.5 678.5 Q177 668 160 651 Q143 637 131.5 620 Q120 603 110 585 Q92 556 86 524 Q84 514 82.5 504.5 Q81 495 83 484 Q84 476 93 465 Q101 457 112 460 Q116 463 124 466 Q130 469 136 466 Q140 465 137 460 Q116 445 96 452 Q76 459 69 479 Q63 496 65 515 Q71 553 92 589 Q103 611 116 630.5 Q129 650 147 667 Q164 681 181 691.5 Q198 702 218 707 Q235 712 250.5 711.5 Q266 711 283 704 Q320 686 322 644 Q324 627 322 612 Q320 597 315 581 Q307 550 298 519.5 Q289 489 278 459 Q255 393 236.5 325.5 Q218 258 203 189 Q201 182 200 175.5 Q199 169 197 161 L198 161 Z " />
<glyph glyph-name="O" unicode="O" horiz-adv-x="538" d="M216 628 Q214 625 211 622 Q200 611 191 598.5 Q182 586 173 572 Q153 541 137 509 Q121 477 105 444 Q70 365 50 278 Q45 253 40.5 228 Q36 203 34 177 Q32 154 32 131 Q32 108 33 85 Q35 58 39 32 Q43 6 51 -20 Q57 -43 72 -61 Q82 -73 95 -76 Q101 -77 106.5 -76.5 Q112 -76 117 -75 Q133 -73 148.5 -67.5 Q164 -62 178 -54 Q202 -41 224 -25 Q246 -9 267 8 Q347 78 400 173 Q430 230 454.5 288 Q479 346 497 407 Q505 433 510 459 Q515 485 519 512 Q521 532 522 552.5 Q523 573 521 593 Q519 622 508 645 Q506 649 504 652.5 Q502 656 500 660 Q491 673 472 676 Q460 678 448 676 Q436 674 425 669 Q390 656 358 631 Q326 603 297.5 572.5 Q269 542 243 507 Q236 496 230 486 Q224 476 219 464 Q215 454 215 449 Q214 439 222 432 Q227 429 227 425 Q228 424 228 421 Q226 419 223 419 Q221 420 220 420 Q219 420 217 421 Q203 429 194 444 Q189 452 189 460 Q189 468 191 476 Q196 491 203 502 Q214 519 225.5 535.5 Q237 552 249 567 Q269 593 292 616 Q315 639 339 661 Q356 676 373.5 686.5 Q391 697 413 703 Q441 709 464 704 Q479 700 490 691.5 Q501 683 511 672 Q522 659 527.5 645 Q533 631 538 615 Q541 601 543 588.5 Q545 576 545 562 Q547 529 542 497.5 Q537 466 530 434 Q519 382 501.5 333 Q484 284 463 236 Q451 210 438.5 185 Q426 160 412 135 Q389 99 363 66 Q337 33 305 4 Q266 -32 226 -59 Q211 -68 195.5 -76 Q180 -84 163 -90 Q136 -99 109 -98 Q68 -95 38 -65 Q19 -43 10 -16 Q5 1 0.5 17.5 Q-4 34 -6 52 Q-11 81 -11 110 Q-11 139 -9 168 Q-5 257 24 343 Q44 407 71.5 466 Q99 525 136 581 Q150 603 171 626 Q176 631 181 635 Q186 639 191 644 L200 650 Q209 655 216 653 Q223 651 231 645 Q238 639 235 630 Q232 616 226 603 L224 601 Q221 599 217.5 602.5 Q214 606 215 609 Q215 613 217 623 Q217 625 216 628 Z " />
<glyph glyph-name="P" unicode="P" horiz-adv-x="385" d="M58 200 Q58 203 59 204 Q84 248 108 290.5 Q132 333 158 375 Q186 417 216 456 Q246 495 281 533 Q305 561 335 587 Q345 594 353.5 600.5 Q362 607 372 613 Q378 617 387 620 Q396 623 404 624 Q422 627 434.5 620 Q447 613 456 598 Q466 577 461 547 Q456 530 449 514 Q442 498 432 482 Q416 453 396 427.5 Q376 402 353 378 Q351 376 349.5 374 Q348 372 348 370 Q347 369 347.5 368 Q348 367 347 367 Q343 366 337 362 Q324 348 308.5 336 Q293 324 276 313 Q265 308 256.5 303 Q248 298 237 295 Q219 288 203 294 Q197 298 195 300 Q188 307 193 314 Q196 318 198.5 321.5 Q201 325 204 328 Q219 345 238 355 Q254 363 268.5 370 Q283 377 300 382 Q304 384 307.5 384.5 Q311 385 313 386 Q316 386 318 389 Q347 420 371 453 Q395 486 412 523 Q419 535 423.5 547.5 Q428 560 431 572 Q430 580 429.5 586.5 Q429 593 427 599 Q424 611 410 608 Q404 606 397 604 Q390 602 384 599 Q362 588 347 573 Q329 558 312.5 541.5 Q296 525 279 508 Q243 467 212 424 Q181 381 152 335 Q121 285 93.5 235 Q66 185 42 133 Q38 127 35.5 121 Q33 115 30 109 Q28 104 26 96 Q18 70 10.5 44 Q3 18 -5 -8 Q-10 -20 -14 -32.5 Q-18 -45 -21 -57 Q-22 -59 -23 -60.5 Q-24 -62 -25 -64 Q-25 -73 -37 -76 Q-42 -77 -46.5 -77 Q-51 -77 -56 -75 Q-58 -73 -58 -68 Q-54 -55 -52 -43 Q-50 -31 -47 -19 Q-30 47 -13 111 Q4 175 21 241 Q32 282 43.5 321.5 Q55 361 68 402 Q87 471 107 538 Q127 605 149 673 Q152 685 155 697 Q158 709 161 722 Q165 730 174 730 Q191 730 191 711 Q193 703 191.5 696.5 Q190 690 188 682 Q182 648 173 614.5 Q164 581 156 547 Q139 487 121 428 Q103 369 85 309 Q79 283 72 257 Q65 231 56 205 Q56 200 56 200 L58 200 Z M299 368 L297 369 Q295 369 295 367 Q287 364 279.5 360.5 Q272 357 265 353 Q254 348 247 341.5 Q240 335 232 327 Q228 323 224 317 Q224 315 221 312 Q246 323 264 337 Q282 351 299 368 Z " />
<glyph glyph-name="Q" unicode="Q" horiz-adv-x="487" d="M224 41 Q227 36 230 31 Q233 26 237 22 Q251 4 266 -12.5 Q281 -29 298 -45 Q299 -46 300 -46.5 Q301 -47 302 -48 Q303 -49 307 -49 Q313 -47 316 -47 Q322 -48 320 -56 Q317 -63 310 -64 Q299 -67 290 -63 Q286 -61 282.5 -59 Q279 -57 275 -55 Q261 -44 249.5 -32.5 Q238 -21 224 -9 Q216 -1 207.5 8.5 Q199 18 191 26 Q175 21 163 18 Q118 6 77 17 Q20 33 6 95 Q-3 127 5 160 Q10 186 25 207 Q46 235 77 232 Q88 232 98 227.5 Q108 223 116 215 Q138 196 152 169 Q163 151 173 132 Q183 113 194 94 Q197 87 200.5 80.5 Q204 74 209 68 Q209 65 210 64 Q212 66 214 66.5 Q216 67 218 69 Q240 85 258.5 104 Q277 123 295 145 Q323 180 345 216.5 Q367 253 384 292 Q400 325 411 358.5 Q422 392 432 427 Q445 473 449 516 Q451 540 451 564 Q451 588 446 611 Q440 632 429 651 Q407 685 365 691 Q342 695 318 690 Q294 685 270 674 Q227 654 192 619 Q155 585 129 545 Q103 505 84 459 Q79 444 74 428 Q69 412 67 396 Q63 382 62 367.5 Q61 353 62 339 Q63 335 64 332 Q65 329 67 325 Q68 321 73 321 Q79 323 80 319 Q80 317 74 315 Q58 308 51 322 Q48 326 46.5 330.5 Q45 335 43 340 Q41 354 41 369.5 Q41 385 45 400 Q56 461 81.5 515.5 Q107 570 151 618 Q170 638 190.5 656 Q211 674 236 687 Q277 713 321 716 Q351 719 379.5 712.5 Q408 706 431 689.5 Q454 673 470 647 Q486 621 492 585 Q495 568 495.5 550 Q496 532 494 514 Q484 429 455.5 351 Q427 273 380 199 Q360 167 335 138 Q310 109 282 84 Q259 63 228 44 Q226 43 224 41 Z M177 44 Q177 45 176.5 45 Q176 45 176 46 Q167 59 159.5 72.5 Q152 86 145 100 Q137 115 129.5 130 Q122 145 114 161 Q109 171 103.5 180 Q98 189 91 198 Q83 205 77 212 Q74 213 70 212 Q62 206 59 203 Q55 198 52 192 Q49 186 46 180 Q29 141 37 102 Q42 74 58 55 Q68 42 81.5 37 Q95 32 113 30 Q129 28 143 31.5 Q157 35 173 42 Q177 44 177 44 Z " />
<glyph glyph-name="R" unicode="R" horiz-adv-x="405" d="M50 564 Q49 562 44 562 Q35 563 35 573 Q34 578 35 581.5 Q36 585 37 590 Q41 602 47.5 612.5 Q54 623 60 634 Q70 649 81 663.5 Q92 678 105 691 Q112 697 118.5 702.5 Q125 708 131 713 Q152 727 171.5 720.5 Q191 714 199 697 Q201 689 202 680 Q203 671 205 662 Q206 642 202.5 623 Q199 604 195 584 Q189 560 181.5 536 Q174 512 167 488 Q149 434 131 381 Q113 328 95 274 Q95 271 94.5 268.5 Q94 266 93 263 L94 263 Q95 265 96 266 Q97 267 97 269 Q118 306 140.5 343 Q163 380 186 416 Q210 452 236.5 486.5 Q263 521 294 553 Q315 576 337 596 Q359 616 385 634 Q411 653 437 663 Q457 671 475 670 Q491 668 501 661 Q521 647 514 619 Q509 608 504.5 598.5 Q500 589 494 579 Q473 543 445 512 Q422 485 398.5 459.5 Q375 434 350 409 L230 292 Q222 285 215 277.5 Q208 270 201 262 Q199 259 196.5 256 Q194 253 194 249 Q194 248 198 246 Q227 233 250 207 Q261 195 271 182 Q281 169 292 155 Q309 131 326.5 107 Q344 83 363 59 Q369 51 375 43.5 Q381 36 386 28 Q390 23 393 19.5 Q396 16 400 12 Q404 8 408 7 Q410 6 411.5 5.5 Q413 5 413 3 Q413 -2 407 -2 Q392 -7 379 2 Q376 5 373 8 Q370 11 367 15 Q358 27 347.5 39 Q337 51 327 64 L234 181 Q228 189 222 196 Q216 203 209 210 Q203 218 195 223 Q187 228 178 233 Q176 234 173 235 Q170 236 168 237 Q166 239 164 241 Q162 243 160 245 Q153 254 159 262 Q162 267 164.5 271 Q167 275 171 279 Q179 288 187 296 Q195 304 203 312 Q229 338 255 363.5 Q281 389 307 415 Q340 448 371 481.5 Q402 515 432 551 Q443 566 454 581.5 Q465 597 475 614 Q481 626 484 639 Q484 641 484.5 644 Q485 647 484 649 Q484 654 478 654 Q469 655 453 650 Q442 647 431 641.5 Q420 636 409 629 Q387 616 368 600.5 Q349 585 332 568 Q297 535 266.5 498 Q236 461 209 421 Q185 384 162 346 Q139 308 118 269 Q103 243 90 216.5 Q77 190 63 163 Q60 156 58 149 Q56 142 54 135 Q45 112 37.5 88.5 Q30 65 22 42 Q20 37 17 31.5 Q14 26 12 21 Q7 9 -6 9 Q-14 8 -20 11 Q-25 14 -24 20 Q-19 35 -15.5 50 Q-12 65 -8 80 Q-3 100 2.5 119 Q8 138 14 158 Q19 179 26 200 Q33 221 40 242 Q51 277 61.5 310.5 Q72 344 83 379 Q93 409 103 439 Q113 469 123 499 Q132 524 139.5 548.5 Q147 573 154 599 Q167 637 168 673 Q169 686 168 700 Q166 706 164.5 707 Q163 708 156 706 Q145 701 135 695 Q127 690 120 683 Q113 676 106 668 Q91 651 78.5 633 Q66 615 56 595 Q53 591 52 586.5 Q51 582 49 577 Q46 570 51 566 Q51 565 50 564 Z " />
<glyph glyph-name="S" unicode="S" horiz-adv-x="497" d="M328 197 Q324 193 320.5 190 Q317 187 313 183 Q298 167 284 150.5 Q270 134 256 117 Q239 94 222.5 71.5 Q206 49 190 26 Q174 3 163 -27 Q161 -32 160.5 -36 Q160 -40 159 -45 L159 -49 Q161 -48 162.5 -48 Q164 -48 166 -47 Q176 -43 185 -37.5 Q194 -32 202 -26 Q238 2 271 39 Q344 121 395 217 Q403 232 409.5 247 Q416 262 421 277 Q425 291 427.5 304 Q430 317 429 331 Q428 360 404 375 Q394 381 383 384.5 Q372 388 361 391 Q334 398 306.5 400.5 Q279 403 250 405 Q212 408 175 414 Q159 417 143.5 421 Q128 425 114 432 Q103 438 94 445 Q85 452 78 462 Q58 492 70 529 Q75 544 81.5 557 Q88 570 97 583 Q115 608 136.5 627.5 Q158 647 183 664 Q210 682 239 693.5 Q268 705 299 712 Q352 724 402 723 Q438 723 474 714 Q502 707 526 694 Q550 681 568 658 Q604 615 602 550 Q602 538 599.5 526 Q597 514 593 502 Q591 496 586 497 Q578 499 579 506 L582 536 Q585 579 574 613 Q557 666 505 688 Q491 693 477.5 695.5 Q464 698 450 700 Q368 709 284 682 Q213 658 156 604 Q142 590 129.5 574 Q117 558 107 540 Q96 519 93 500 Q89 466 115 451 Q132 442 153 438 Q177 433 202 430.5 Q227 428 253 426 Q273 424 292 422.5 Q311 421 330 418 Q349 416 366.5 411 Q384 406 401 398 Q423 387 440 368 Q463 340 460 302 Q459 282 454 263.5 Q449 245 441 227 Q430 201 416.5 177.5 Q403 154 387 131 Q364 95 337.5 62 Q311 29 280 0 Q266 -14 250 -27 Q234 -40 217 -51 Q208 -56 199 -60.5 Q190 -65 180 -67 Q160 -72 146 -64 Q139 -61 135 -55 Q132 -49 132 -41 Q133 -34 135 -28 Q137 -22 139 -16 Q148 4 161 22 Q187 60 215 96 Q243 132 274 167 Q281 175 288 182 Q295 189 303 197 Q306 201 310 204 Q314 207 318 209 Q331 217 340 209 Q342 207 343 207 Q346 201 343 196 Q339 191 333 194 Q332 195 328 197 Z " />
<glyph glyph-name="T" unicode="T" horiz-adv-x="202" d="M233 640 Q224 638 214 637.5 Q204 637 195 635 Q125 623 55 605.5 Q-15 588 -84 566 Q-96 562 -108 559 Q-120 556 -131 552 Q-137 550 -142.5 548 Q-148 546 -155 544 Q-155 543 -154.5 542.5 Q-154 542 -154 541 Q-154 538 -157 538 Q-162 537 -166.5 540 Q-171 543 -170 548 Q-170 550 -168.5 551.5 Q-167 553 -166 555 Q-163 557 -155 561 Q-143 568 -130 573.5 Q-117 579 -103 584 Q16 628 139 655 Q168 661 197 665.5 Q226 670 254 672 Q274 674 292 674 Q310 674 327 673 Q349 672 370 671.5 Q391 671 413 670 Q440 668 465 665.5 Q490 663 516 658 Q529 656 542 652.5 Q555 649 567 644 Q572 642 577 639.5 Q582 637 585 632 Q587 630 588.5 627.5 Q590 625 590 622 Q592 615 586.5 609.5 Q581 604 573 605 Q568 606 566 608 Q564 610 561 613 Q559 619 562 622 Q562 623 562.5 623.5 Q563 624 563 625 Q563 624 560 627 Q550 630 541 631.5 Q532 633 521 635 Q498 639 475 640.5 Q452 642 429 644 Q373 649 317 647 Q308 647 298.5 646.5 Q289 646 280 645 L275 645 Q269 625 259 606.5 Q249 588 240 570 Q222 530 205 490.5 Q188 451 173 410 Q163 383 154.5 356.5 Q146 330 136 303 Q134 291 130.5 279 Q127 267 123 255 Q113 215 105 175.5 Q97 136 89 96 Q86 76 82 57 Q78 38 74 18 Q70 -5 66.5 -28 Q63 -51 60 -74 Q59 -81 59 -88 Q59 -95 58 -102 Q60 -108 61 -109 Q64 -111 63 -114 Q62 -117 58 -119 Q48 -124 40 -121 Q32 -118 32 -110 Q32 -103 31.5 -97 Q31 -91 31 -84 Q32 -66 34.5 -47 Q37 -28 39 -9 Q44 13 46.5 35 Q49 57 53 79 Q58 108 63 136.5 Q68 165 74 194 Q78 217 82 239 Q86 261 91 284 Q102 338 119.5 390.5 Q137 443 160 496 Q174 528 189 558.5 Q204 589 221 619 L233 640 Z " />
<glyph glyph-name="U" unicode="U" horiz-adv-x="460" d="M409 478 Q407 473 404.5 468.5 Q402 464 400 459 Q365 393 334 326.5 Q303 260 273 192 Q259 160 244.5 127.5 Q230 95 213 63 Q203 45 190 25 Q178 7 163 -8 Q142 -26 117 -21 Q98 -16 94 -1 Q91 7 90 14.5 Q89 22 88 30 Q86 50 87 71 Q88 92 90 113 Q94 168 102 224 Q105 241 108 259 Q111 277 115 294 Q120 319 125.5 343.5 Q131 368 138 393 Q150 438 165 483 Q171 504 177 525 Q183 546 190 567 Q192 575 193 583.5 Q194 592 195 600 Q195 602 194.5 604.5 Q194 607 195 609 Q191 608 189 607.5 Q187 607 185 606 Q180 603 175.5 600 Q171 597 166 593 Q150 581 137 567 Q124 553 113 537 Q105 527 102 517 Q102 514 100 514 Q96 512 92 514.5 Q88 517 89 521 Q89 526 91 532 Q94 537 96.5 542.5 Q99 548 102 553 Q113 569 125.5 582.5 Q138 596 152 608 Q162 617 171 621 Q188 632 206.5 625 Q225 618 230 599 Q234 590 232 576 Q231 562 228.5 548 Q226 534 222 520 Q214 493 206 466 Q198 439 191 412 Q185 391 179 369.5 Q173 348 168 326 Q165 309 161 291 Q157 273 153 256 Q151 239 148.5 223.5 Q146 208 143 191 Q138 163 135 135.5 Q132 108 130 81 Q129 64 128.5 48 Q128 32 130 15 Q130 10 134 0 Q140 4 144 8 Q150 14 155.5 20.5 Q161 27 166 34 Q178 51 188.5 69 Q199 87 209 106 Q227 140 243.5 173.5 Q260 207 276 242 Q319 334 364 424 Q409 514 456 605 Q466 624 476 642 Q486 660 496 679 Q498 681 498.5 683 Q499 685 501 687 Q503 692 509 692 Q519 693 526 687 Q532 682 531 675 Q529 669 527.5 663 Q526 657 524 651 Q516 631 508 610 Q500 589 492 569 Q474 524 458 478.5 Q442 433 428 387 Q420 359 413 331.5 Q406 304 398 275 Q393 260 389 245 Q385 230 381 215 L369 164 Q366 148 363 133 Q360 118 356 102 Q353 89 350.5 76 Q348 63 346 49 Q343 35 341 20.5 Q339 6 337 -8 Q337 -12 337 -15.5 Q337 -19 339 -22 Q340 -25 338 -29 Q336 -30 335 -31 Q334 -32 332 -32 Q323 -36 313 -33 Q306 -30 306 -23 L306 -5 Q308 16 311 37 Q314 58 317 78 Q319 91 321 103 Q323 115 325 127 Q327 142 329.5 156.5 Q332 171 335 185 Q337 198 339 210 Q341 222 343 235 Q346 250 349 265 Q352 280 356 295 Q364 333 375.5 370.5 Q387 408 399 446 Q402 454 405 462 Q408 470 410 478 L409 478 Z " />
<glyph glyph-name="V" unicode="V" horiz-adv-x="468" d="M642 696 Q638 695 635 690 Q630 681 623.5 671.5 Q617 662 612 653 Q577 593 543 533 Q509 473 474 412 Q426 329 380.5 246.5 Q335 164 290 80 Q278 57 266 35.5 Q254 14 241 -8 Q228 -30 209 -53 Q201 -63 193 -68 Q181 -78 166 -75 Q150 -71 140 -53 Q133 -39 133 -19 Q131 -2 130.5 13.5 Q130 29 132 46 Q132 65 133.5 83.5 Q135 102 137 120 Q138 136 140 151.5 Q142 167 144 183 Q149 215 154 246 Q159 277 166 309 Q174 347 181.5 383.5 Q189 420 196 458 Q202 487 207 517 Q212 547 215 576 Q217 591 217.5 606 Q218 621 216 635 Q216 640 212 650 L203 647 Q196 645 189.5 641 Q183 637 178 632 Q167 624 157 615 Q147 606 139 596 Q100 552 72 504 Q71 501 69.5 498.5 Q68 496 67 493 Q66 491 65 488.5 Q64 486 63 484 Q58 481 54.5 483.5 Q51 486 53 492 Q55 501 61 511 Q70 530 82 547 Q94 564 105 581 Q118 597 131 611 Q144 625 159 639 Q168 648 179 656 Q199 670 217 665 Q235 660 243 648 Q248 641 249.5 633.5 Q251 626 253 618 Q255 607 255.5 595.5 Q256 584 255 572 Q253 536 248 500 Q243 464 236 428 Q226 377 215.5 327.5 Q205 278 196 228 Q191 194 186.5 160.5 Q182 127 179 94 Q177 74 175 55 Q173 36 171 16 Q170 1 169.5 -14.5 Q169 -30 171 -45 Q171 -48 172 -51 Q173 -54 173 -58 Q182 -54 186 -48 Q201 -35 213 -18 Q224 -2 234 14 Q244 30 254 47 Q280 94 305 139.5 Q330 185 355 231 Q412 337 471.5 440 Q531 543 592 646 Q599 657 605.5 668 Q612 679 619 690 Q621 692 622 694 Q623 696 625 698 Q634 709 642 700 L642 696 Z " />
<glyph glyph-name="W" unicode="W" horiz-adv-x="908" d="M68 365 Q69 366 69 370 Q72 388 77.5 405 Q83 422 90 439 Q105 473 123.5 504.5 Q142 536 164 567 Q172 579 180.5 591 Q189 603 200 614 Q208 625 221 633 Q238 644 256 636 Q270 630 272 616 Q273 603 270 586 Q266 565 260.5 544.5 Q255 524 249 503 Q235 457 221.5 411 Q208 365 195 318 Q184 282 175 245.5 Q166 209 158 172 Q154 155 152 138 Q150 121 148 104 Q146 87 150 73 Q153 74 154 77 Q170 92 184 110 Q198 131 213 152 Q228 173 242 194 Q277 248 312 300.5 Q347 353 382 407 Q419 462 457 514.5 Q495 567 535 619 Q543 629 550.5 638 Q558 647 566 656 L569 659 Q575 666 583 666 Q591 666 598 661 Q605 656 602 650 Q600 645 598.5 640 Q597 635 595 630 Q577 588 561 547 Q545 506 530 463 Q512 410 497.5 357 Q483 304 472 249 Q467 226 463.5 203.5 Q460 181 458 158 Q456 136 454.5 114 Q453 92 455 70 Q456 37 467 7 Q473 -8 482 -20 Q505 -47 541 -40 Q564 -36 585 -21 Q604 -10 621 3.5 Q638 17 654 31 Q777 144 842 297 Q856 330 867.5 364.5 Q879 399 887 434 Q892 457 894.5 478.5 Q897 500 896 523 Q896 560 885 589 Q881 600 875 608.5 Q869 617 862 625 Q861 625 861 625.5 Q861 626 860 626 L859 627 Q857 623 855 622 Q853 618 848.5 617.5 Q844 617 842 621 L843 623 Q846 640 862 636 Q870 633 876 627 Q887 614 895 600.5 Q903 587 908 570 Q912 557 913 544 Q914 531 914 518 Q915 492 911.5 467 Q908 442 903 417 Q889 357 866 301.5 Q843 246 811 192 Q776 134 733 85 Q690 36 638 -6 Q607 -32 572 -47 Q557 -54 541.5 -58 Q526 -62 509 -61 Q470 -61 446 -33 Q438 -25 433.5 -14.5 Q429 -4 425 7 Q421 19 419.5 31.5 Q418 44 416 57 Q414 86 415 115 Q416 144 420 173 Q425 218 435.5 261 Q446 304 457 347 Q473 405 492.5 461 Q512 517 534 573 Q535 575 535 579 Q534 577 531 574 Q497 529 464.5 484.5 Q432 440 402 392 Q370 344 339.5 296 Q309 248 277 200 Q263 177 248 155 Q233 133 218 110 Q204 89 183 68 Q178 63 172.5 59 Q167 55 161 53 Q146 47 131 50 Q114 53 111 69 Q109 74 108.5 79.5 Q108 85 107 90 Q106 101 107 113 Q108 125 110 136 Q115 177 124.5 216.5 Q134 256 145 296 Q161 354 178.5 411.5 Q196 469 214 526 Q219 544 224 562 Q229 580 234 597 Q235 602 236 606 Q237 610 237 614 Q237 615 236 615 Q234 613 233 612.5 Q232 612 231 610 Q213 595 197 574 Q172 542 150.5 509 Q129 476 112 440 Q104 423 98 406 Q92 389 88 372 Q86 359 85.5 347 Q85 335 88 323 Q89 318 85 318 Q77 318 75 323 Q73 327 72.5 330.5 Q72 334 70 339 Q68 343 68 346 L68 365 Z " />
<glyph glyph-name="X" unicode="X" horiz-adv-x="445" d="M211 758 Q214 758 220 756 Q231 754 239.5 747.5 Q248 741 256 732 Q268 715 274 696 Q281 676 285 654.5 Q289 633 293 611 Q299 557 299 502 Q301 473 301.5 445.5 Q302 418 304 390 L304 385 Q306 387 307 388 Q308 389 309 391 Q360 455 411 517 Q462 579 516 639 Q530 653 543 667 Q556 681 570 695 Q573 698 576.5 700.5 Q580 703 583 705 Q591 711 600 705 Q603 702 601 697 L601 696 Q599 690 597.5 689.5 Q596 689 591 691 Q587 687 585 686 Q568 666 551 647 Q534 628 517 608 Q466 548 416.5 489 Q367 430 319 369 Q315 365 312.5 361.5 Q310 358 307 354 Q304 351 305 348 Q307 290 311 233 Q315 176 325 120 Q329 100 333.5 80.5 Q338 61 345 43 Q355 15 370 -3 Q387 -24 412 -30 Q436 -35 456 -19 Q474 -7 488 14 Q494 22 499 29.5 Q504 37 509 45 Q511 49 511 49 Q511 51 510 51.5 Q509 52 509 53 Q510 55 511 55.5 Q512 56 513 57 Q515 59 517 59 Q522 61 525 57 Q528 54 524 49 Q522 45 520.5 42 Q519 39 517 35 Q513 29 509 23 Q505 17 502 11 Q483 -17 456 -33 Q418 -56 378 -44 Q352 -36 333 -14 Q321 0 313 16 Q305 32 299 50 Q291 73 285.5 97.5 Q280 122 276 148 Q266 216 261 290 Q261 291 261.5 292 Q262 293 261 295 L258 292 Q213 233 168.5 174.5 Q124 116 82 56 Q70 39 57 19 Q55 14 53 10 Q51 6 49 1 Q48 0 48 -3 Q51 -4 55 -6 Q58 -9 58 -10 Q55 -13 53 -13 Q42 -17 35 -9.5 Q28 -2 32 9 Q34 17 38 23.5 Q42 30 46 37 Q60 59 75 80.5 Q90 102 105 123 Q143 174 180 223.5 Q217 273 255 322 Q260 327 260 335 Q258 382 258.5 428.5 Q259 475 259 522 Q259 554 258.5 584.5 Q258 615 256 646 Q254 660 252 674 Q250 688 246 702 Q244 710 241.5 716 Q239 722 234 728 Q232 730 231.5 732 Q231 734 229 736 Q216 751 196 745 Q185 743 175.5 737.5 Q166 732 156 725 Q136 708 122 690 Q81 640 60 580 Q57 570 55 560.5 Q53 551 53 541 Q53 524 60 513 Q61 512 61 512 Q54 505 49 511 Q45 514 44 519 Q41 526 40.5 534 Q40 542 41 550 Q42 566 46.5 581 Q51 596 59 611 Q82 668 123 713 Q139 731 160 744 Q170 749 180 753 Q190 757 201 758 Q203 758 204 759 Q206 758 211 758 Z " />
<glyph glyph-name="Y" unicode="Y" horiz-adv-x="542" d="M466 218 Q472 220 477.5 221.5 Q483 223 488 225 Q499 228 509.5 231.5 Q520 235 531 239 Q540 241 545 246 Q551 252 558 245 Q557 239 550 236 Q548 234 545 233.5 Q542 233 539 231 Q521 225 503 219.5 Q485 214 467 208 Q461 206 461 201 Q450 172 439.5 144 Q429 116 416 88 Q393 37 359 -4 Q345 -22 328.5 -37.5 Q312 -53 292 -64 Q279 -72 266 -77 Q253 -82 239 -84 Q228 -86 217 -85.5 Q206 -85 195 -80 Q164 -68 155 -32 Q150 -14 152 4 Q154 22 159 39 Q175 83 211 116 Q231 133 253 145.5 Q275 158 299 166 Q322 174 344.5 180.5 Q367 187 389 194 Q395 196 400.5 197.5 Q406 199 412 201 Q416 202 418 207 Q424 225 430.5 243.5 Q437 262 442 280 Q457 327 471.5 372.5 Q486 418 501 464 Q509 488 517.5 512 Q526 536 534 559 Q534 561 536 565 Q532 563 531 561 Q502 532 473.5 502.5 Q445 473 416 444 Q390 417 363.5 390 Q337 363 310 336 Q292 318 272 301 Q252 284 230 270 Q214 259 197.5 250.5 Q181 242 163 236 Q153 233 142.5 231 Q132 229 121 229 Q92 230 74 244.5 Q56 259 49 284 Q47 292 46.5 299 Q46 306 45 314 Q44 339 47.5 363.5 Q51 388 57 412 Q69 461 88 507.5 Q107 554 131 599 Q140 614 148 629 Q156 644 167 658 Q171 663 174.5 668 Q178 673 183 678 Q188 684 194.5 684 Q201 684 206 680 Q206 680 208 678 Q212 675 209 671 Q206 666 202.5 660 Q199 654 197 649 Q171 601 149 553 Q127 505 110 453 Q102 430 96.5 407 Q91 384 87 360 Q85 344 84 328.5 Q83 313 84 297 Q86 289 87 282 Q88 275 91 268 Q93 265 94 262 Q95 259 97 257 Q104 245 119 247 Q130 248 141 250.5 Q152 253 163 257 Q186 266 207 278.5 Q228 291 248 306 Q287 336 322 371 Q355 405 388 439 Q421 473 455 507 Q475 528 495 549 Q515 570 535 591 Q537 593 539.5 595.5 Q542 598 544 600 Q549 604 553.5 603 Q558 602 563 600 Q573 596 571 586 Q570 580 569.5 574.5 Q569 569 568 564 Q562 543 555.5 522 Q549 501 544 481 Q533 446 524 411.5 Q515 377 504 342 Q496 313 486.5 283.5 Q477 254 468 225 Q468 224 466 218 Z M411 190 L409 190 Q387 182 366 176 Q345 170 323 162 Q305 156 287 148 Q269 140 253 129 Q234 116 218.5 99.5 Q203 83 192 63 Q181 43 176.5 21.5 Q172 0 177 -23 Q179 -34 183 -43 Q187 -52 195 -60 Q210 -73 229 -69 Q236 -67 242.5 -64.5 Q249 -62 255 -59 Q271 -50 283.5 -39 Q296 -28 307 -15 Q323 2 335.5 21.5 Q348 41 359 62 Q374 92 386.5 123.5 Q399 155 411 187 L411 190 Z " />
<glyph glyph-name="Z" unicode="Z" horiz-adv-x="467" d="M369 658 Q365 659 360.5 658.5 Q356 658 352 657 Q328 652 304 642 Q258 622 216 595 Q174 568 136 532 Q129 526 123.5 519.5 Q118 513 112 507 Q106 499 104 495 Q98 488 102 483 Q100 481 97 481 Q92 483 88.5 487 Q85 491 88 498 Q89 502 91 506 Q93 510 95 514 Q109 535 128 554 Q168 592 211 621 Q254 650 302 670 Q324 681 348 684 Q358 685 366.5 683.5 Q375 682 382 676 Q385 674 389 670 Q402 654 391 631 Q384 617 373 603 Q359 585 344.5 568.5 Q330 552 314 536 Q286 507 257.5 481.5 Q229 456 199 430 Q197 428 193.5 425 Q190 422 188 419 L200 422 Q221 426 242 428.5 Q263 431 283 432 Q295 433 306.5 433 Q318 433 330 431 Q366 426 394 406 Q438 371 433 306 Q433 295 430.5 285.5 Q428 276 425 266 Q418 238 405.5 212.5 Q393 187 377 162 Q342 111 301 67.5 Q260 24 212 -11 Q166 -45 117 -66 Q68 -87 17 -96 Q-1 -99 -17 -99 Q-33 -99 -50 -97 Q-59 -95 -68 -91.5 Q-77 -88 -85 -82 Q-93 -76 -95 -72 Q-111 -52 -97 -22 Q-89 -6 -72 11 Q-47 36 -14 55 Q59 101 139 107 Q156 109 172 110 Q188 111 205 112 Q211 113 217.5 113 Q224 113 231 111 Q235 110 239 107 Q240 105 240 104 Q240 103 241 101 Q241 97 239 95 Q236 92 233 94 Q229 95 226 101 Q220 101 213.5 101 Q207 101 200 100 Q179 98 157.5 95.5 Q136 93 114 88 Q36 71 -30 23 Q-41 15 -50 6.5 Q-59 -2 -67 -13 Q-78 -25 -82 -38 Q-93 -63 -73 -75 Q-66 -80 -55 -82 Q-37 -85 -18 -83.5 Q1 -82 20 -77 Q128 -50 217 29 Q298 100 359 194 Q370 213 379.5 232.5 Q389 252 397 272 Q403 289 406.5 305 Q410 321 409 338 Q408 344 407.5 349.5 Q407 355 406 360 Q398 389 367 400 Q359 404 349 405.5 Q339 407 329 408 Q295 410 261.5 405.5 Q228 401 194 392 Q183 390 174 387 Q165 384 155 381 Q150 380 146 379.5 Q142 379 138 381 Q126 386 123 398 Q120 403 126 409 Q128 412 131.5 415 Q135 418 138 421 L210 484 Q240 510 269 538 Q298 566 325 597 Q333 606 340.5 615 Q348 624 355 634 Q363 643 368 655 Q368 657 369 658 Z " />
<glyph glyph-name="a" unicode="a" horiz-adv-x="189" d="M205 267 Q201 262 197.5 257 Q194 252 191 247 L152 192 L110 134 Q107 131 104.5 127.5 Q102 124 99 121 Q84 108 65 118 Q60 121 57 127 Q56 131 56 134.5 Q56 138 55 141 Q55 152 56 162 Q57 172 59 182 Q61 195 64 207 Q67 219 70 232 L75 242 Q71 239 65 231 Q62 227 58.5 223.5 Q55 220 51 216 Q49 214 46.5 212 Q44 210 41 208 Q32 200 20 203 Q7 204 1 215 Q-2 220 -3 225.5 Q-4 231 -5 237 Q-7 284 22 322 Q27 328 33 333.5 Q39 339 46 343 Q62 352 78 351 L79 351 Q81 351 82 350 Q93 348 96.5 342.5 Q100 337 100 331 Q100 325 97.5 320 Q95 315 93 315 Q90 314 90 318 L90 321 Q93 333 89.5 336.5 Q86 340 84 340 L77 340 Q71 339 63 334 Q55 329 47 319 Q29 298 23 270 Q17 249 20 230 Q21 226 21.5 222.5 Q22 219 24 215 Q28 216 32 220 Q37 224 41 227 Q45 230 49 235 L88 277 L97 301 L113 344 L114 347 Q115 349 117 352 Q121 358 124 360 L124 361 L125 361 Q126 361 126 361.5 Q126 362 127 362 Q133 364 136 363 L142 360 Q145 357 144 354 Q144 350 142 344 Q137 333 133.5 322 Q130 311 125 300 Q103 239 89 175 Q87 167 86.5 159 Q86 151 85 143 L85 139 Q86 138 89 141 Q94 146 96 149 L172 244 Q175 248 177.5 252 Q180 256 183 260 Q185 262 186 263.5 Q187 265 189 267 Q192 270 194 270 Q194 270 199 270 L205 267 Z " />
<glyph glyph-name="b" unicode="b" horiz-adv-x="207" d="M22 56 Q30 60 38 68 Q52 80 61 97 Q72 115 79 134 Q86 153 88 173 Q90 185 88.5 196 Q87 207 81 217 Q71 219 66 219 Q58 220 48 225 Q43 227 44 231 Q44 235 50 237 Q66 241 79 237 Q84 235 89 232 Q92 229 102 229 Q125 232 147 242 Q158 247 169 252.5 Q180 258 191 264 Q193 265 195.5 266 Q198 267 200 268 Q203 269 205.5 269.5 Q208 270 211 270 Q218 270 218 266 Q217 264 212 261 Q200 255 188 248.5 Q176 242 164 236 Q137 222 111 219 Q108 219 104 217 L104 214 Q110 199 110.5 183 Q111 167 107 150 Q102 130 94.5 111.5 Q87 93 73 75 Q65 64 52 53 Q27 34 2 39 Q-15 41 -21 55 Q-23 60 -24 64 Q-25 68 -26 73 Q-28 83 -28 92.5 Q-28 102 -28 112 Q-24 178 -5 248 Q-3 259 -0.5 270 Q2 281 5 292 Q10 318 17.5 343.5 Q25 369 33 395 Q44 426 55 456 Q66 486 78 516 Q89 545 103 572 Q117 599 134 626 Q147 646 163 667 Q176 682 188 691 Q213 709 235 695 Q243 689 246 678 Q249 664 249 651 Q251 625 247 597.5 Q243 570 236 543 Q233 529 229.5 516.5 Q226 504 222 490 Q214 465 204 441.5 Q194 418 181 394 Q174 381 167 368.5 Q160 356 151 343 Q141 328 130 314 Q119 300 105 287 Q101 283 97.5 280 Q94 277 89 273 Q78 263 65.5 255 Q53 247 37 243 Q37 241 36 239.5 Q35 238 35 236 Q29 211 24.5 186.5 Q20 162 16 138 Q14 125 13 112 Q12 99 13 86 Q13 81 14 76 Q15 71 16 66 Q16 58 22 56 Z M221 679 Q219 677 215 675 Q212 670 208 665.5 Q204 661 200 656 Q188 639 177.5 621.5 Q167 604 157 586 Q134 542 116.5 497.5 Q99 453 84 408 Q77 388 71 368.5 Q65 349 59 329 Q54 312 50 295 Q46 278 41 261 Q41 257 40 254 L42 254 Q46 256 49 257.5 Q52 259 54 261 Q71 272 84.5 285.5 Q98 299 110 313 Q134 343 152 376 Q166 404 179 431.5 Q192 459 202 488 Q221 547 227 611 Q228 625 227.5 639 Q227 653 225 667 Q224 670 223.5 673 Q223 676 221 679 Z " />
<glyph glyph-name="c" unicode="c" horiz-adv-x="194" d="M205 269 Q206 269 208 267 Q185 248 162.5 230 Q140 212 120 192 Q109 183 98.5 173.5 Q88 164 77 156 Q71 152 65.5 148 Q60 144 54 141 Q37 131 20.5 133.5 Q4 136 -5 147 Q-10 152 -12 157.5 Q-14 163 -16 169 Q-23 189 -18 214 Q-9 277 35 330 Q41 337 47.5 343 Q54 349 61 355 Q73 363 84 369 Q107 378 128 372 Q150 365 152 340 Q152 313 131 296 Q123 290 116 291 Q113 292 113 294 Q114 296 115.5 297.5 Q117 299 118 301 Q136 325 128 349 Q127 350 127 351 Q127 352 126 353 Q122 360 114 357 Q104 355 94 346 Q82 335 73 325 Q56 307 44.5 287.5 Q33 268 24 246 Q19 232 15.5 217.5 Q12 203 11 188 Q11 183 11 177 Q11 171 12 166 Q14 158 16 152 Q18 152 18 150 Q23 142 38 148 Q53 154 68 165 Q86 177 106 196 Q124 213 143 228.5 Q162 244 182 260 Q184 262 187 263.5 Q190 265 192 267 Q200 272 205 269 Z " />
<glyph glyph-name="d" unicode="d" horiz-adv-x="224" d="M48 -83 Q51 -81 53 -80 Q55 -79 57 -77 Q61 -71 65.5 -65 Q70 -59 75 -52 Q95 -22 111 15 Q124 43 136 71 Q148 99 162 127 Q175 157 188.5 186.5 Q202 216 216 246 Q219 251 220.5 255 Q222 259 225 264 Q230 270 235 269 Q236 269 236 267 Q237 266 236 265 Q219 232 204.5 198.5 Q190 165 175 131 Q161 100 148 69 Q135 38 121 6 Q113 -11 105.5 -26.5 Q98 -42 88 -58 Q83 -65 79.5 -71.5 Q76 -78 70 -84 Q58 -98 44 -98 Q36 -98 30 -94 Q24 -90 22 -82 Q16 -71 18 -55 Q18 -37 20 -19 Q22 -1 24 16 Q28 42 33 67 Q38 92 43 117 Q45 125 46.5 131.5 Q48 138 50 146 Q48 148 51 152 Q48 150 45.5 149 Q43 148 41 147 Q26 138 10 138 Q-5 138 -14.5 147.5 Q-24 157 -23 177 Q-23 189 -22.5 201 Q-22 213 -18 224 Q-11 245 -4 265 Q3 285 14 303 Q19 310 23.5 316.5 Q28 323 34 328 Q43 338 55 341 Q77 345 89 326 Q91 324 91.5 322.5 Q92 321 94 320 Q96 324 97 327 Q98 330 98 333 Q110 375 124 416 Q138 457 153 498 Q162 520 171 541.5 Q180 563 191 584 Q197 595 203.5 605.5 Q210 616 218 626 Q221 631 225.5 635 Q230 639 234 643 Q241 650 248 650 Q267 653 272 634 Q276 624 274 609 Q275 595 272 582.5 Q269 570 265 557 Q258 531 249 505.5 Q240 480 230 455 Q209 404 185 355.5 Q161 307 131 259 Q125 247 117.5 235.5 Q110 224 104 212 Q96 204 96 196 Q91 179 86.5 161.5 Q82 144 80 127 Q74 106 70 85.5 Q66 65 62 44 Q57 21 52.5 -2.5 Q48 -26 47 -50 L47 -71 Q48 -74 48 -83 Z M114 271 Q115 271 115 271.5 Q115 272 116 272 L117 272 L123 281 Q154 329 178.5 379 Q203 429 223 482 Q233 505 240 528 Q247 551 254 574 Q257 586 258 597.5 Q259 609 259 621 Q259 630 255 635 Q253 633 251.5 632 Q250 631 248 629 Q246 624 242.5 620.5 Q239 617 237 612 Q230 601 224.5 590.5 Q219 580 215 569 Q201 543 191 517 Q181 491 171 465 Q156 420 143.5 374.5 Q131 329 118 284 Q117 281 116 277.5 Q115 274 114 271 Z M85 283 L85 286 Q83 289 83.5 292 Q84 295 82 298 Q82 311 77 320 Q77 322 75.5 324.5 Q74 327 72 329 Q67 332 65 329 Q59 325 57 323 Q53 318 50.5 314.5 Q48 311 45 306 Q25 271 17 235 Q14 224 11.5 212.5 Q9 201 8 190 Q8 178 11 166 Q13 158 15.5 157 Q18 156 26 161 Q42 170 53 185 Q63 195 64 205 Q67 216 69 225.5 Q71 235 74 246 Q76 255 79 264 Q82 273 85 283 Z " />
<glyph glyph-name="e" unicode="e" horiz-adv-x="164" d="M28 254 Q24 249 23 243 Q22 237 21 232 Q18 221 16 211 Q14 201 14 190 Q15 185 16 181 Q17 177 19 172 Q22 167 24.5 166 Q27 165 33 167 Q38 169 42.5 171.5 Q47 174 51 176 L72 191 L153 257 Q157 259 160 262 Q163 265 165 267 Q171 272 181 269 Q182 269 185 266 Q184 264 184 263 Q170 254 158.5 244 Q147 234 135 223 Q122 212 109.5 201 Q97 190 85 179 Q80 174 74.5 170.5 Q69 167 64 163 Q59 160 54 157 Q49 154 44 152 Q22 145 4 154 Q-10 162 -15 182 Q-17 192 -17 202 Q-17 212 -15 223 Q-11 243 -4.5 261.5 Q2 280 10 298 Q15 308 21.5 316.5 Q28 325 36 333 Q50 347 64 353 Q83 360 100 354 Q114 349 117.5 338.5 Q121 328 116 314 Q103 290 86 273 Q72 261 58.5 256.5 Q45 252 28 254 Z M31 266 Q38 260 45 264 L60 273 Q84 293 93 319 Q94 321 94 324 Q94 327 95 329 Q95 336 93 339 Q93 345 87 341 Q82 339 74 333 Q69 328 64.5 322.5 Q60 317 55 311 Q47 300 41.5 289 Q36 278 31 266 Z " />
<glyph glyph-name="f" unicode="f" horiz-adv-x="148" d="M13 189 Q30 196 45.5 203 Q61 210 76 220 Q84 225 91.5 230 Q99 235 106 240 Q117 247 127 253.5 Q137 260 147 268 Q154 272 160 267 Q159 265 156 262 Q139 250 123 238 Q107 226 90 215 Q76 206 62.5 199.5 Q49 193 35 187 Q33 185 30 184 Q27 183 25 181 Q20 178 22 173 Q24 170 26 162 Q33 151 37 140 Q41 129 44 117 Q51 77 42 34 Q40 16 33.5 -0.5 Q27 -17 19 -34 Q13 -48 4 -61 Q-7 -77 -25 -80 Q-53 -85 -62 -61 Q-65 -53 -66 -45.5 Q-67 -38 -67 -30 Q-68 -10 -65.5 11 Q-63 32 -59 52 Q-49 105 -35 156.5 Q-21 208 -4 260 Q7 305 21 348.5 Q35 392 52 436 Q67 474 83.5 511.5 Q100 549 120 585 Q126 596 132 606.5 Q138 617 146 628 Q150 634 155 639.5 Q160 645 165 651 Q168 654 171.5 656.5 Q175 659 178 661 Q195 672 209 662 Q218 657 219 648 Q219 643 219.5 636.5 Q220 630 219 624 Q216 601 209 582 Q176 465 116 358 Q110 346 102 334.5 Q94 323 87 312 Q80 303 73.5 294.5 Q67 286 58 278 Q50 270 38 263 Q30 246 24 226.5 Q18 207 13 189 Z M42 281 Q44 282 43.5 281.5 Q43 281 45 282 L52 289 Q62 300 70.5 311.5 Q79 323 87 336 Q96 353 106 370.5 Q116 388 124 406 Q146 450 163.5 494 Q181 538 194 585 Q196 598 199 611 Q202 624 200 638 Q200 639 199.5 640 Q199 641 199 643 Q193 639 189 632 Q183 622 177 613 Q171 604 165 593 Q153 570 142 547 Q131 524 121 501 Q98 447 79.5 393.5 Q61 340 43 286 Q42 284 42.5 283.5 Q43 283 42 281 Z M-23 -64 Q-22 -63 -21 -63 Q-20 -63 -18 -62 Q-16 -60 -14.5 -58 Q-13 -56 -11 -54 Q-9 -49 -6 -44 Q-3 -39 -1 -34 Q28 18 28 80 Q28 121 11 158 Q9 160 8 161 Q7 162 4 162 Q5 158 3 150 Q-1 128 -6 106.5 Q-11 85 -16 63 Q-21 44 -23.5 25.5 Q-26 7 -28 -12 Q-30 -21 -30.5 -30 Q-31 -39 -29 -48 Q-29 -58 -23 -64 Z " />
<glyph glyph-name="g" unicode="g" horiz-adv-x="237" d="M127 235 Q123 233 121 231 Q119 229 117 227 Q106 217 96.5 207.5 Q87 198 76 189 Q71 184 64.5 180.5 Q58 177 53 173 Q43 167 32.5 165 Q22 163 13 165 Q-7 169 -12 188 Q-17 204 -14 226 Q-9 257 4 285 Q17 308 31 326 Q36 332 41.5 337.5 Q47 343 55 348 Q83 369 114 362 Q133 358 137 342 Q141 326 130 309 Q130 308 127 305 Q122 303 118 306 Q118 309 120 313 Q122 318 123 324 Q124 330 122 335 Q122 340 121 342 Q113 359 94 352 Q82 348 70 336 Q65 331 61.5 326 Q58 321 54 316 Q40 294 30.5 271 Q21 248 18 224 Q16 207 19 194 Q21 189 22 187 Q23 185 27 181 Q34 181 39 186 Q45 189 50 192.5 Q55 196 60 200 Q92 226 117 252 Q119 254 121.5 257 Q124 260 128 262 Q139 272 153 267 Q162 263 159 258 Q161 250 159 242 Q157 233 155 224 Q153 215 151 206 Q147 192 143.5 177 Q140 162 135 148 Q135 146 134.5 145 Q134 144 134 142 Q136 141 138 144 Q149 156 159 167.5 Q169 179 180 192 Q193 208 205.5 223.5 Q218 239 230 256 Q232 259 234.5 262 Q237 265 240 269 Q241 269 242 269.5 Q243 270 245 270 Q253 270 250 262 Q248 260 246.5 258.5 Q245 257 244 255 Q229 235 214 215.5 Q199 196 183 177 Q171 160 157.5 145 Q144 130 130 115 Q125 109 122 100 Q113 73 103.5 45.5 Q94 18 83 -9 Q72 -35 59 -61 Q46 -87 31 -113 Q18 -133 4 -152 Q-10 -171 -27 -188 Q-38 -201 -50 -210 Q-70 -225 -88 -229 Q-111 -234 -125 -217 Q-128 -213 -129.5 -209 Q-131 -205 -133 -200 Q-141 -167 -127 -132 Q-120 -118 -112 -106 Q-104 -94 -96 -83 Q-81 -65 -64.5 -49 Q-48 -33 -32 -18 Q-22 -10 -13.5 -2.5 Q-5 5 4 13 Q24 30 44 48 Q64 66 84 85 Q88 90 91 94.5 Q94 99 96 105 Q101 125 106 144.5 Q111 164 116 184 Q119 195 121.5 206 Q124 217 127 228 Q127 233 129 235 L127 235 Z M82 63 Q79 60 75 58 Q58 41 39 25 Q20 9 1 -7 Q-10 -18 -21 -27.5 Q-32 -37 -43 -48 Q-53 -58 -62.5 -68 Q-72 -78 -80 -89 Q-98 -110 -107 -134 Q-115 -151 -115.5 -167 Q-116 -183 -111 -199 Q-109 -203 -107 -207 Q-105 -211 -103 -214 Q-92 -222 -82 -215 Q-71 -209 -63 -202 Q-48 -190 -35 -172 Q-17 -151 -3 -128.5 Q11 -106 24 -82 Q38 -52 50.5 -22 Q63 8 73 38 Q75 44 77.5 49.5 Q80 55 82 63 Z " />
<glyph glyph-name="h" unicode="h" horiz-adv-x="201" d="M164 722 Q165 722 165 721.5 Q165 721 166 721 Q173 718 175 716 Q177 714 175 706 Q170 682 163 658 Q148 613 133 568.5 Q118 524 103 479 Q86 431 69.5 382.5 Q53 334 36 286 Q36 284 35.5 282 Q35 280 35 278 Q38 280 39 282 Q40 284 42 286 Q52 299 62 311.5 Q72 324 84 335 Q93 344 107 355 Q118 363 133 362 Q148 360 148 346 Q149 340 146 330 Q145 319 142 307 Q139 295 137 283 Q132 263 127 244 Q122 225 117 205 Q116 200 115.5 194.5 Q115 189 115 184 Q114 183 116 179 Q117 180 118 180.5 Q119 181 120 182 Q125 187 129.5 190.5 Q134 194 139 199 Q150 213 161.5 225.5 Q173 238 185 252 Q191 260 197 266 Q204 271 210 270 Q211 270 211.5 269 Q212 268 214 268 Q201 253 189 238.5 Q177 224 165 210 Q160 203 155 197 Q150 191 144 185 Q137 178 128 172 Q118 164 102 166 Q89 168 89 179 Q86 184 88 191 Q90 215 95 234 Q100 253 105 271.5 Q110 290 115 309 L121 336 Q121 338 121.5 341 Q122 344 121 346 Q116 345 111 340 Q103 333 96 326.5 Q89 320 83 312 Q61 289 45 263 Q29 237 16 209 Q11 198 6.5 188 Q2 178 -3 167 Q-7 158 -12 157 Q-22 154 -29 158 Q-33 161 -31 166 Q-29 171 -28.5 175 Q-28 179 -27 183 Q-19 207 -12.5 231 Q-6 255 2 279 Q11 309 21 339 Q31 369 41 399 Q55 441 70.5 483.5 Q86 526 100 569 Q111 602 123 634.5 Q135 667 147 700 Q149 705 151 711 Q154 719 162 722 L164 722 Z " />
<glyph glyph-name="i" unicode="i" horiz-adv-x="94" d="M107 269 Q111 265 107 263 Q101 261 97.5 257 Q94 253 90 249 Q79 238 69.5 227 Q60 216 50 204 Q45 199 40.5 193 Q36 187 30 182 Q28 180 26 178 Q24 176 22 174 Q11 164 -2 167.5 Q-15 171 -18 185 Q-20 191 -19 196 Q-19 215 -13 233 Q-6 255 1 276 Q8 297 16 318 Q19 326 24 334 Q28 341 37 339 Q44 338 43 329 Q41 321 39 315 Q34 297 28.5 279.5 Q23 262 18 245 Q14 234 11 223.5 Q8 213 6 202 Q4 192 4 187 Q4 182 5 179 Q10 181 13 184 Q16 187 19 190 Q24 195 28.5 200.5 Q33 206 39 211 Q49 222 60 233.5 Q71 245 82 256 Q87 263 94 267 Q99 272 107 269 Z M59 402 Q51 402 48 408 Q46 410 48 414 Q48 414 54 416 Q56 414 58.5 413.5 Q61 413 64 411 Q66 409 65 406 Q62 403 59 402 Z " />
<glyph glyph-name="j" unicode="j" horiz-adv-x="87" d="M87 268 Q91 270 96 269.5 Q101 269 96 264 Q74 246 53 227.5 Q32 209 11 190 Q4 183 3 178 Q1 173 -0.5 167.5 Q-2 162 -4 156 Q-12 130 -20 104.5 Q-28 79 -38 53 Q-50 23 -64 -6.5 Q-78 -36 -95 -65 Q-115 -98 -141 -125 Q-158 -144 -178 -158 Q-203 -175 -230 -181 Q-245 -184 -261 -182 Q-287 -176 -290 -152 Q-292 -129 -282 -104 Q-267 -63 -237 -25 Q-224 -8 -209.5 7.5 Q-195 23 -179 38 Q-153 61 -127.5 84.5 Q-102 108 -76 131 Q-67 139 -58 147 Q-49 155 -40 163 Q-35 168 -32 172.5 Q-29 177 -27 182 Q-18 211 -9.5 241 Q-1 271 7 300 Q10 311 13.5 321 Q17 331 20 342 Q22 347 25 352 Q26 358 33 358 Q45 358 43 348 Q42 343 41.5 337.5 Q41 332 39 327 Q33 298 26.5 270.5 Q20 243 13 214 L13 208 Q19 213 23.5 217 Q28 221 32 225 Q46 236 59.5 247 Q73 258 87 268 Z M-106 -24 Q-86 16 -71 56 Q-56 96 -42 137 L-42 141 Q-44 140 -46 138 Q-73 114 -100.5 89.5 Q-128 65 -154 40 Q-170 26 -183.5 11.5 Q-197 -3 -211 -19 Q-222 -33 -232 -48 Q-242 -63 -250 -79 Q-256 -91 -260 -103 Q-264 -115 -266 -128 Q-269 -144 -265 -156 Q-258 -175 -233 -169 Q-222 -165 -210 -158 Q-201 -153 -193.5 -146.5 Q-186 -140 -179 -133 Q-161 -115 -145 -91 Q-122 -57 -106 -24 Z M57 432 Q53 432 49 436 Q48 438 50 443 Q53 447 57 447 Q61 447 64 444.5 Q67 442 65 438 Q63 432 57 432 Z " />
<glyph glyph-name="k" unicode="k" horiz-adv-x="164" d="M40 302 Q43 305 44 307 Q51 315 56.5 322.5 Q62 330 70 337 Q73 341 77.5 344 Q82 347 85 349 Q97 356 109 352 Q117 349 116 339 Q116 334 114 328.5 Q112 323 110 318 Q91 281 54 261 L56 259 Q64 249 64 238 Q67 227 70 216 Q73 205 75 194 Q79 183 80 175 Q80 173 82 169 L87 174 Q93 182 99.5 190 Q106 198 113 206 Q121 217 130 229 Q139 241 149 252 Q151 255 153.5 258 Q156 261 159 264 Q163 268 170 270 Q174 271 178 268 Q177 266 177 266 Q170 262 164 253 Q151 236 139 219 Q127 202 114 185 Q110 180 106.5 175 Q103 170 98 165 Q89 154 76 154.5 Q63 155 59 165 Q57 171 56.5 176.5 Q56 182 54 188 Q51 199 49 209.5 Q47 220 45 231 Q43 236 42.5 241 Q42 246 40 251 Q38 257 32 257 L28 257 Q25 252 22.5 246.5 Q20 241 17 235 Q8 208 2 186 Q1 181 -4 175 Q-6 172 -9 170 Q-14 167 -22 167 Q-30 167 -32 171 Q-33 171 -33 176 Q-32 178 -31 180 Q-30 182 -29 184 Q-21 204 -16 225 Q-8 246 -2 267 Q4 288 9 309 Q18 337 27 364.5 Q36 392 44 419 Q55 446 64 473 Q73 500 84 527 L114 611 Q122 631 130 651 Q138 671 146 691 Q147 693 148.5 696 Q150 699 151 701 Q154 706 160 706 Q162 705 163 705 Q164 705 166 704 Q172 702 169 695 Q165 684 162 673.5 Q159 663 156 652 Q139 608 126 565 Q118 544 111 522.5 Q104 501 96 480 Q91 462 85.5 443.5 Q80 425 73 407 Q68 390 62.5 373 Q57 356 51 339 Q48 330 45 321 Q42 312 39 302 L40 302 Z M36 268 Q42 267 47 270 Q54 276 62 281 Q81 299 94 324 Q96 332 98 337 Q98 338 97.5 339 Q97 340 97 341 Q92 338 83 329.5 Q74 321 65 310 Q56 299 48 287.5 Q40 276 36 268 Z " />
<glyph glyph-name="l" unicode="l" horiz-adv-x="128" d="M6 119 Q9 123 11 125 Q13 127 15 129 Q20 135 23.5 141 Q27 147 32 153 Q50 178 69 202 Q88 226 108 250 Q111 253 113.5 256 Q116 259 119 262 Q126 269 131 270 Q135 271 138 267 Q130 261 124 253 Q118 245 111 237 Q94 215 77 192 Q60 169 45 146 L27 122 Q25 119 23 116 Q21 113 20 111 Q12 103 -2 102 Q-16 101 -21 114 Q-24 121 -24 129 Q-26 140 -25.5 151.5 Q-25 163 -23 175 Q-19 211 -8 247 Q-2 268 4 289 Q10 310 16 332 Q23 356 31 380 Q39 404 47 428 Q61 469 76.5 509 Q92 549 109 590 Q114 602 120 614 Q126 626 132 638 Q140 655 154 670 Q156 674 159 677 Q162 680 165 683 Q176 692 187 688 Q198 684 200 676 Q200 671 200.5 666 Q201 661 200 656 Q200 645 197.5 633.5 Q195 622 192 611 Q182 572 167 535 Q152 498 135 461 Q119 426 101 392 Q83 358 61 326 Q56 319 51 312 Q46 305 40 298 Q36 292 35 288 Q29 266 24 244.5 Q19 223 14 201 Q9 185 7 169 Q5 153 4 136 Q4 132 4 128 Q4 124 6 119 Z M49 332 L51 332 Q52 334 53.5 336.5 Q55 339 56 341 Q77 373 94.5 407 Q112 441 128 476 Q144 511 157.5 546.5 Q171 582 179 619 Q181 630 183 640 Q185 650 185 661 Q185 665 183 670 Q179 667 178 665 Q175 660 171 654.5 Q167 649 164 644 Q156 628 148.5 612.5 Q141 597 136 581 Q125 554 114.5 527 Q104 500 94 473 Q82 440 71.5 406.5 Q61 373 50 339 Q50 337 49.5 335.5 Q49 334 49 332 Z " />
<glyph glyph-name="m" unicode="m" horiz-adv-x="301" d="M310 269 Q314 269 311 264 Q308 261 305 258 Q302 255 299 251 Q279 228 260 204.5 Q241 181 224 157 Q221 154 217 148 L216 148 Q211 143 207 137.5 Q203 132 198 127 Q196 122 189 119 Q179 116 174 118.5 Q169 121 167 126.5 Q165 132 165.5 137.5 Q166 143 166 145 Q167 150 168.5 155.5 Q170 161 172 166 L175 175 L225 303 L244 353 Q239 351 236.5 347.5 Q234 344 231 341 Q196 311 171 275 Q157 256 145.5 237.5 Q134 219 123 199 Q115 186 108 173.5 Q101 161 94 148 Q92 144 89.5 140.5 Q87 137 84 134 Q80 125 69.5 123 Q59 121 54 125 Q49 127 49 135 Q48 142 49.5 148.5 Q51 155 53 162 Q55 172 58 181.5 Q61 191 64 201 Q75 227 87.5 253 Q100 279 113 305 Q117 316 124 328 Q126 331 127 333.5 Q128 336 129 338 Q126 340 124 338 Q118 333 111.5 327.5 Q105 322 99 317 Q93 309 86.5 302 Q80 295 75 287 Q58 264 43.5 240.5 Q29 217 16 192 Q12 185 9.5 179 Q7 173 5 166 Q4 152 -13 152 Q-22 152 -22 162 Q-23 165 -22.5 167.5 Q-22 170 -22 172 Q-17 203 -11 233.5 Q-5 264 5 295 L14 319 Q15 321 15.5 322.5 Q16 324 18 326 Q20 330 27 332 L33 332 Q39 331 39 324 Q39 322 37 314 L28 269 Q21 249 20 232 Q19 230 19 229 Q19 228 18 226 Q20 225 21 226.5 Q22 228 23 229 Q31 245 41.5 259.5 Q52 274 63 289 Q73 302 83.5 314.5 Q94 327 108 338 Q112 341 116 344 Q120 347 123 350 Q131 354 140 354 Q154 350 153 340 Q153 327 149 316 Q141 292 131 272 Q120 250 110.5 228.5 Q101 207 93 185 Q91 180 89 174.5 Q87 169 86 163 Q89 165 90 167.5 Q91 170 93 173 Q101 186 108.5 198.5 Q116 211 124 224 Q141 251 160 277 Q179 303 202 327 L225 350 Q231 356 241 361 Q248 367 257 365 L259 365 Q263 365 265 361 Q269 357 269 345 Q268 342 264 332 Q256 310 248 288 Q240 266 231 244 Q224 222 217.5 201 Q211 180 204 158 Q204 156 202 152 Q210 160 214 168 Q231 189 249.5 210 Q268 231 285 251 Q292 260 300 266 Q306 272 310 269 Z " />
<glyph glyph-name="n" unicode="n" horiz-adv-x="194" d="M203 270 Q204 269 205 267.5 Q206 266 204 264 Q201 261 198 258 Q195 255 192 251 Q187 244 181.5 237.5 Q176 231 169 223 L168 222 Q162 214 155.5 206 Q149 198 143 190 L97 130 Q90 124 82.5 119.5 Q75 115 70 116 Q64 117 62 122.5 Q60 128 60 133.5 Q60 139 61.5 143.5 Q63 148 63 149 L132 338 Q127 334 122.5 330 Q118 326 114 321 Q93 302 74 276 Q46 242 25 208 Q19 200 15 190.5 Q11 181 7 172 Q4 164 -3 163 Q-14 161 -20 166 Q-24 169 -22 174 Q-21 179 -21 182.5 Q-21 186 -20 190 Q-15 219 -7.5 248 Q0 277 11 307 Q13 312 15.5 317.5 Q18 323 20 329 Q23 334 24.5 336.5 Q26 339 30 339 Q42 341 42 331 Q41 328 41 325 Q41 322 40 318 Q38 310 36 301 Q34 292 32 284 Q29 272 26 260 Q23 248 21 236 Q20 234 20 233 Q20 232 19 230 L21 230 Q23 232 25.5 235 Q28 238 30 240 Q54 273 81 306 Q90 315 99 324.5 Q108 334 117 342 Q120 344 122.5 346.5 Q125 349 128 351 Q129 352 133.5 355 Q138 358 143 359.5 Q148 361 153 360 Q158 359 161 352 Q161 348 160 343 Q159 338 156 330 Q148 307 140.5 285.5 Q133 264 126 241 Q118 220 111.5 198.5 Q105 177 98 155 L95 149 Q99 154 102 157.5 Q105 161 108 165 Q142 207 179 251 Q182 255 185.5 258.5 Q189 262 193 266 Q198 271 203 270 Z " />
<glyph glyph-name="o" unicode="o" horiz-adv-x="161" d="M106 242 Q109 242 110 243 Q121 247 131.5 252 Q142 257 151 262 Q155 264 157 266 Q159 268 163 270 Q170 270 170 265 Q171 260 165 256 Q154 248 135.5 240 Q117 232 100 227 Q98 225 98 222.5 Q98 220 96 218 Q87 192 68 168 Q64 163 60 157.5 Q56 152 50 148 Q46 145 42 142 Q38 139 33 137 Q15 128 -2.5 134.5 Q-20 141 -27 160 Q-29 165 -29 170.5 Q-29 176 -29 181 Q-30 193 -27.5 204.5 Q-25 216 -21 227 Q-9 258 8 286 Q14 294 17 297 Q21 301 25.5 304 Q30 307 35 308 Q36 312 37.5 315 Q39 318 41 322 Q58 345 83 335 Q94 331 101 319 Q112 304 110 281 Q109 274 108 267.5 Q107 261 106 254 Q106 251 105 248 Q104 245 106 242 Z M33 278 L32 278 Q30 276 30 276 Q21 261 13.5 246 Q6 231 1 214 Q-1 204 -3 194.5 Q-5 185 -4 174 Q-4 159 1 150 Q5 145 11 146 Q20 147 28 153 Q33 157 38.5 162 Q44 167 49 173 Q57 184 65 195.5 Q73 207 78 221 Q79 223 78 227 Q59 232 48 245.5 Q37 259 33 278 Z M84 238 Q94 264 94 293 Q93 298 92.5 303 Q92 308 89 313 Q88 315 86.5 318 Q85 321 84 323 Q77 332 68 325 Q65 323 60 318 Q52 308 50 295 Q48 283 50 272 Q52 261 60 251 Q63 244 68 242 Q75 235 84 238 Z " />
<glyph glyph-name="p" unicode="p" horiz-adv-x="211" d="M213 269 Q216 273 219.5 269.5 Q223 266 220 262 Q213 254 204.5 247.5 Q196 241 188 235 Q178 229 169 223.5 Q160 218 149 213 Q128 202 107 198 Q104 198 103 197 Q95 196 85.5 196 Q76 196 68 199 Q68 199 66 200 Q62 202 66 206 Q68 208 70 210 Q72 212 74 214 Q84 222 90 231 Q95 239 99.5 246 Q104 253 108 261 Q115 272 120 282.5 Q125 293 130 304 Q135 313 137 325 Q139 330 139.5 335 Q140 340 137 345 Q131 344 124 338 Q119 333 114 328.5 Q109 324 105 319 Q94 308 86.5 296.5 Q79 285 71 273 Q58 252 47.5 231 Q37 210 26 188 Q10 153 -4 118.5 Q-18 84 -29 48 Q-33 39 -35 30 Q-37 21 -40 12 Q-45 -11 -51 -35 Q-57 -59 -62 -82 Q-66 -98 -69.5 -113 Q-73 -128 -76 -144 Q-78 -152 -80.5 -159 Q-83 -166 -88 -174 Q-95 -188 -110 -185 Q-116 -184 -115 -177 Q-114 -161 -109 -142 Q-104 -116 -97.5 -90.5 Q-91 -65 -85 -39 Q-80 -16 -74 6.5 Q-68 29 -63 52 Q-59 69 -55 85.5 Q-51 102 -46 119 Q-38 146 -31 173 Q-24 200 -16 226 Q-10 246 -4 264.5 Q2 283 8 302 L23 353 Q25 358 26.5 361.5 Q28 365 30 369 Q34 375 40 375 Q49 373 50 368 Q52 362 51 359 Q49 349 47.5 339.5 Q46 330 44 321 Q39 303 33.5 285 Q28 267 23 250 Q18 232 13 214 Q8 196 3 178 L3 177 Q3 176 3.5 176 Q4 176 4 175 Q6 179 7.5 182 Q9 185 11 188 Q25 224 46 262 Q64 294 83 319 Q88 326 93.5 332 Q99 338 105 343 Q109 346 113 349 Q117 352 122 354 Q133 360 147 356 Q161 352 164 335 Q166 318 160 304 Q158 297 155 290.5 Q152 284 150 278 Q148 274 135.5 254 Q123 234 104 214 Q101 213 100 210 Q99 210 99 209.5 Q99 209 98 209 Q96 207 95 207 Q100 207 104 208 Q108 209 113 210 Q131 214 149 224 Q166 232 184 245 Q192 250 199.5 255.5 Q207 261 213 269 Z " />
<glyph glyph-name="q" unicode="q" horiz-adv-x="191" d="M204 267 Q200 259 193 252 Q173 229 153.5 208 Q134 187 110 169 Q102 164 95.5 158.5 Q89 153 83 148 L74 139 Q65 132 70 124 Q74 114 75 109 Q80 97 84 85 Q88 73 90 60 Q93 41 91 20 Q83 -60 49 -132 Q47 -137 44 -141.5 Q41 -146 38 -151 Q33 -160 23 -170 Q14 -179 0 -181 Q-9 -182 -16.5 -178 Q-24 -174 -27 -165 Q-29 -161 -30 -157 Q-31 -153 -32 -148 Q-33 -139 -33 -129.5 Q-33 -120 -33 -111 Q-30 -85 -25 -60 Q-20 -35 -14 -9 Q-3 43 10.5 94 Q24 145 42 196 Q42 200 43 202 Q40 204 38 202 Q27 197 16 200 Q2 203 -3 218 Q-7 231 -6 244 Q-4 267 4 287.5 Q12 308 24 327 Q28 332 32.5 337 Q37 342 43 346 Q59 358 78 352 Q83 350 91 344 Q93 342 93.5 341 Q94 340 96 338 Q99 341 100 344 Q101 347 103 350 Q105 353 106 355.5 Q107 358 111 358 Q122 358 127 353 Q130 350 129 346 Q129 343 128 340.5 Q127 338 126 335 Q121 322 115.5 310 Q110 298 105 285 Q91 252 80.5 218.5 Q70 185 59 151 Q57 149 57 144 Q59 145 61 147 Q71 155 80.5 163 Q90 171 100 179 Q124 197 144.5 217.5 Q165 238 184 260 Q186 262 188 264 Q190 266 192 268 Q197 272 204 267 Z M3 -166 Q8 -164 10 -161.5 Q12 -159 15 -156 Q21 -148 25.5 -139.5 Q30 -131 35 -121 Q44 -99 52 -76 Q60 -53 65 -29 Q69 -9 71 11.5 Q73 32 72 53 Q71 72 65.5 90 Q60 108 51 125 Q50 122 48 118 Q37 83 28.5 48.5 Q20 14 13 -21 Q9 -41 5 -61.5 Q1 -82 -1 -102 Q-2 -113 -2 -122.5 Q-2 -132 -2 -143 Q-2 -157 3 -166 Z M26 216 Q28 218 29 218.5 Q30 219 32 221 Q36 226 39.5 230.5 Q43 235 47 240 Q59 256 67.5 273 Q76 290 83 308 Q89 322 82 333 Q78 342 73.5 343.5 Q69 345 61 338 Q56 333 52.5 328.5 Q49 324 46 319 Q38 306 33 292.5 Q28 279 24 265 Q21 247 22 232 Q20 223 26 216 Z " />
<glyph glyph-name="r" unicode="r" horiz-adv-x="151" d="M165 270 Q149 237 133 207 Q119 181 103 153.5 Q87 126 73 108 Q61 94 53 90.5 Q45 87 40 89.5 Q35 92 32.5 96.5 Q30 101 30 102 Q29 102 29 104 Q27 111 27 117.5 Q27 124 27 131 Q29 149 33.5 166.5 Q38 184 43 201 Q52 226 62 248 Q65 251 70 263 Q73 269 76 276 L55 264 Q51 262 50 261 Q42 256 36 255 Q13 250 2 256.5 Q-9 263 -13 270 Q-18 279 -18 296 Q-15 334 4 366 Q6 370 12 376 Q20 385 33 383.5 Q46 382 49 368 Q52 359 50 346 Q48 330 43 315 Q38 300 31 285 Q31 282 28 278 L25 270 Q27 270 31 273 Q37 275 59 288 Q70 293 82 301 Q89 304 97 304 Q101 304 105 302 Q112 299 110 291 Q109 288 108 284.5 Q107 281 106 278 Q102 270 98.5 261.5 Q95 253 92 245 Q81 220 73 194.5 Q65 169 60 143 Q56 124 59 110 Q61 111 64.5 115.5 Q68 120 71.5 125.5 Q75 131 78 135.5 Q81 140 82 142 Q93 160 102.5 178 Q112 196 123 214 Q128 225 134 234.5 Q140 244 145 255 Q147 257 148.5 260 Q150 263 152 265 Q157 270 161 270 L165 270 Z M19 290 Q23 301 26.5 310.5 Q30 320 33 331 Q36 347 35 360 Q35 362 33 368 Q28 363 26.5 360.5 Q25 358 23 350 Q12 323 14 296 Q14 294 14 291.5 Q14 289 16 287 L19 290 Z " />
<glyph glyph-name="s" unicode="s" horiz-adv-x="129" d="M36 182 Q36 205 24 225 Q21 230 18.5 234 Q16 238 13 243 Q9 251 4.5 259 Q0 267 -3 275 Q-5 280 -5 285 Q-5 290 -6 296 Q-7 309 0 325 Q13 345 34 354 Q51 362 69 356 Q76 355 84 347 Q92 338 88 325 Q81 312 68 309 Q60 306 57 313 Q59 317 63 315 Q68 314 72 320 Q79 328 77.5 335.5 Q76 343 67 348 Q58 353 49 348 Q31 339 25 319 Q17 303 24 284 Q27 274 32 268 Q41 253 48 239 Q52 232 55.5 224 Q59 216 61 208 Q61 208 63 206 Q64 206 65 207 Q93 229 118 254 Q121 257 124 260.5 Q127 264 129 267 Q133 272 139 268 Q140 266 138 261 L128 251 Q117 239 104.5 227 Q92 215 79 204 Q75 201 66 192 Q65 190 65 188 Q65 186 64 183 Q65 150 47 116 Q45 110 40.5 104.5 Q36 99 31 94 Q27 91 23.5 88.5 Q20 86 15 85 Q13 85 10.5 84.5 Q8 84 6 84 Q-8 86 -8 101 Q-10 116 -3 128 Q2 145 12 156 Q17 161 21 165.5 Q25 170 30 175 Q35 180 36 182 Z M7 96 Q11 98 13.5 101.5 Q16 105 18 109 Q29 130 34 156 Q34 157 34.5 158 Q35 159 33 160 Q19 148 13 132 Q10 127 8.5 123 Q7 119 5 114 Q3 103 7 96 Z " />
<glyph glyph-name="t" unicode="t" horiz-adv-x="114" d="M343 553 Q356 548 363 541.5 Q370 535 377 524 Q375 514 375 509 Q373 507 371 505 Q369 503 367 501 Q361 501 358 508 Q359 510 360 512 Q361 514 362 516 Q364 522 361 529 Q356 535 349 538 Q342 542 335 543.5 Q328 545 320 547 Q298 550 276.5 550 Q255 550 232 548 Q205 546 178 541 Q151 536 124 530 Q121 529 113 527 Q111 524 110.5 521 Q110 518 108 515 Q73 425 45 330 Q38 304 31.5 278.5 Q25 253 20 227 Q17 210 15 194.5 Q13 179 12 162 Q11 155 11.5 149 Q12 143 13 136 Q13 134 15 130 L21 136 Q26 144 31 150.5 Q36 157 41 165 L80 219 L81 222 Q84 226 87 230 Q90 234 93 238 Q94 239 94 239.5 Q94 240 95 241 L108 259 L115 269 Q118 271 119 270 Q123 266 121 260 Q120 256 119 253 L116 248 L110 240 Q110 239 109 239 L103 230 Q103 229 102 229 L102 228 Q94 217 85 203 Q78 193 72.5 183.5 Q67 174 61 163 Q56 156 52 149 Q48 142 43 135 Q38 127 32 121 Q20 109 4.5 111 Q-11 113 -16 128 Q-19 138 -19 151 Q-19 158 -19 164.5 Q-19 171 -18 177 Q-16 202 -11.5 226 Q-7 250 -1 274 Q14 334 33 392.5 Q52 451 75 509 Q76 511 76.5 513 Q77 515 78 517 Q76 519 73.5 518 Q71 517 69 517 Q53 512 37 508 Q21 504 5 499 Q-7 496 -19.5 493 Q-32 490 -44 487 Q-50 485 -55.5 485 Q-61 485 -67 485 Q-77 486 -85 493 Q-94 500 -94 513 Q-92 530 -82 545 Q-78 554 -70 549 Q-66 546 -68 540 Q-70 535 -71.5 531 Q-73 527 -75 522 Q-77 516 -77.5 510.5 Q-78 505 -75 499 Q-70 497 -65.5 497.5 Q-61 498 -56 499 Q-44 502 -32.5 505 Q-21 508 -9 511 Q13 517 34 523 Q55 529 77 535 L86 538 Q88 540 88.5 543 Q89 546 91 549 Q101 572 110.5 594.5 Q120 617 130 640 Q132 645 134 648.5 Q136 652 138 657 Q143 665 152 662 Q161 659 158 649 Q154 638 151 627.5 Q148 617 144 606 Q139 592 133.5 579.5 Q128 567 123 553 Q122 551 122 550 Q122 549 121 547 Q124 546 126.5 546.5 Q129 547 132 548 Q152 553 173 556 Q194 559 214 561 Q253 566 293 564 Q303 563 313 561.5 Q323 560 333 557 Q335 556 338 555.5 Q341 555 343 553 Z " />
<glyph glyph-name="u" unicode="u" horiz-adv-x="187" d="M186 266 Q194 274 199 268 Q187 251 172 227.5 Q157 204 143 179 Q134 163 125.5 147 Q117 131 108 114 Q105 109 101.5 104 Q98 99 95 94 Q91 87 86 84 Q78 76 68 76.5 Q58 77 55 85 Q51 94 53 107 Q54 122 56.5 137.5 Q59 153 63 168 Q75 211 93 255 Q93 257 94 258 L93 258 Q92 257 91.5 256 Q91 255 89 253 Q81 241 72 229 Q63 217 54 205 Q50 200 46.5 195 Q43 190 38 185 Q37 183 35.5 182 Q34 181 32 179 Q21 166 5 167 Q-11 168 -13 182 Q-16 194 -14 211 Q-11 246 3 285 Q6 294 9.5 303 Q13 312 16 321 Q19 326 21 331 Q24 336 29 336 L36 336 Q43 334 41 328 Q39 323 38 318 Q37 313 35 308 Q30 290 25.5 272.5 Q21 255 18 237 Q16 226 14.5 214.5 Q13 203 14 192 Q14 188 15 185 Q16 187 16.5 187 Q17 187 18 188 Q23 193 27 196.5 Q31 200 34 205 Q46 219 57.5 234 Q69 249 80 263 Q91 278 103 293.5 Q115 309 126 324 Q132 331 140 331 Q144 331 147 328 Q152 323 147 311 Q144 304 134.5 279 Q125 254 114.5 222.5 Q104 191 96 159.5 Q88 128 88 107 Q93 112 96 118 Q104 130 110.5 142.5 Q117 155 124 167 Q137 190 150.5 212 Q164 234 179 257 Q183 263 186 266 Z " />
<glyph glyph-name="v" unicode="v" horiz-adv-x="138" d="M158 363 Q150 352 143.5 341 Q137 330 129 319 Q111 291 95 263 Q79 235 64 206 Q60 198 55.5 189 Q51 180 46 172 Q43 168 39 160 Q22 140 2 146 Q-2 148 -6 151.5 Q-10 155 -10 161 Q-14 170 -12 183 Q-14 200 -11.5 217 Q-9 234 -5 251 Q2 302 25 353 Q28 357 28 363 Q31 369 37 369 Q42 369 44 368 Q51 366 51 359 Q49 353 47.5 347 Q46 341 45 335 Q40 319 35 303 Q30 287 27 271 Q14 226 14 180 Q14 175 14.5 171 Q15 167 15 162 Q20 166 20 168 Q31 180 41 197 Q52 215 62.5 233.5 Q73 252 85 271 Q98 293 112 314.5 Q126 336 142 357 Q145 360 145 362 Q149 367 153 367 Q157 367 158 363 Z " />
<glyph glyph-name="w" unicode="w" horiz-adv-x="217" d="M21 217 Q23 218 23.5 219 Q24 220 25 221 Q30 230 36 239.5 Q42 249 47 258 Q49 261 51.5 264.5 Q54 268 56 271 Q64 279 74 275 Q88 270 88 255 Q89 249 89 242.5 Q89 236 89 230 Q89 219 88.5 208 Q88 197 89 186 Q89 181 89.5 177 Q90 173 91 168 Q91 165 94 159 Q96 161 97 161.5 Q98 162 100 164 Q103 168 106 171 Q109 174 111 179 Q122 197 132 220 Q144 246 154.5 273 Q165 300 175 328 Q179 338 179 344 Q178 347 182 347 Q187 347 190 344 Q193 341 192 336 Q192 329 191 325 Q186 311 180.5 296 Q175 281 170 267 Q164 250 157.5 232.5 Q151 215 143 198 Q140 190 136 183 Q132 176 128 168 Q126 164 123 161 Q120 158 117 155 Q107 145 97 147 Q87 149 80 156 Q74 162 72 172 Q69 184 69 195 Q68 208 68 220.5 Q68 233 68 245 L68 251 L67 251 Q66 250 65.5 249 Q65 248 64 247 Q58 236 52 226 Q46 216 39 205 Q36 200 33 195.5 Q30 191 27 186 Q20 175 8 180 Q-9 187 -9 203 Q-11 214 -9 226 Q-6 251 -0.5 275.5 Q5 300 13 324 Q14 326 15 328.5 Q16 331 17 333 Q18 336 23 336 Q30 336 35 330.5 Q40 325 39 317 Q37 305 34.5 293.5 Q32 282 30 270 Q28 257 25.5 245 Q23 233 21 221 L21 217 Z " />
<glyph glyph-name="x" unicode="x" horiz-adv-x="107" d="M44 109 Q44 110 44.5 110.5 Q45 111 45 112 Q46 116 52 116 Q61 117 61 112 Q61 107 57 102.5 Q53 98 48 96 Q36 94 31 98 Q29 99 27.5 100 Q26 101 24 103 Q22 105 20.5 108 Q19 111 17 113 Q9 129 4.5 145.5 Q0 162 -1 182 Q-2 187 -2 192 Q-2 197 -3 203 Q-4 200 -7 197 Q-48 152 -82 104 L-88 98 Q-90 95 -94 95 Q-96 96 -97.5 96.5 Q-99 97 -100 99 Q-99 100 -98.5 101 Q-98 102 -96 104 Q-80 129 -57 156 Q-45 171 -32 186 Q-19 201 -6 216 Q-3 220 -4 226 Q-2 247 -1 268.5 Q0 290 -1 312 Q0 317 0 321.5 Q0 326 0 331 L0 332 Q-1 331 -1.5 330 Q-2 329 -3 328 Q-9 323 -14 317 Q-23 310 -28 316 Q-28 316 -28 319 Q-28 320 -25 323 Q-20 328 -17 333 Q-14 338 -9 343 Q-2 351 7 351 Q23 353 26 339 Q28 334 28 328.5 Q28 323 28 318 Q28 304 28.5 291.5 Q29 279 29 265 Q28 263 28 258 Q32 262 33 264 Q49 280 63.5 296 Q78 312 93 329 Q95 331 96.5 332.5 Q98 334 100 336 Q104 339 108 339 Q112 339 113 335 Q114 333 112 331 Q110 328 105 323 Q85 303 67.5 283 Q50 263 31 243 Q27 237 27 234 Q28 214 27.5 193 Q27 172 29 152 Q29 141 32.5 131 Q36 121 41 111 Q42 111 44 109 Z " />
<glyph glyph-name="y" unicode="y" horiz-adv-x="222" d="M132 167 Q133 170 136 171 Q158 194 178.5 216.5 Q199 239 220 262 Q221 264 221.5 264.5 Q222 265 223 267 Q225 270 230 270 Q237 270 232 263 Q227 258 223 252.5 Q219 247 214 242 Q193 219 171 195 Q149 171 127 147 Q125 143 122 140 Q119 126 115 113 Q111 100 106 86 Q97 56 87 25.5 Q77 -5 63 -34 Q41 -84 6 -122 Q-6 -136 -19.5 -148 Q-33 -160 -50 -168 Q-62 -174 -74.5 -178 Q-87 -182 -100 -181 Q-127 -181 -135 -154 Q-137 -145 -135.5 -135.5 Q-134 -126 -132 -116 Q-117 -65 -75 -21 Q-62 -7 -48.5 5.5 Q-35 18 -21 30 Q-5 44 13 58.5 Q31 73 48 88 Q56 95 64 101.5 Q72 108 80 115 Q84 119 84 122 Q95 156 104.5 189 Q114 222 124 256 Q129 269 132.5 281 Q136 293 140 305 L140 308 Q137 305 137 303 Q126 289 117 276.5 Q108 264 98 251 Q93 243 87 236 Q81 229 76 222 Q71 216 66 211 Q61 206 56 201 Q32 184 8 194 Q-5 199 -7 215 Q-9 224 -8.5 234 Q-8 244 -6 254 Q-2 274 6 292.5 Q14 311 24 329 Q26 332 28.5 335.5 Q31 339 33 342 Q42 351 53 347 Q58 346 55 339 Q54 334 53 330.5 Q52 327 50 322 Q44 308 38 293.5 Q32 279 27 264 Q24 253 22 243 Q20 233 21 222 Q21 214 24 208 Q26 202 32 206 Q41 211 48 216 Q59 224 67 233 Q75 242 83 252 Q100 272 116.5 293 Q133 314 147 336 Q151 344 156 342 Q165 342 169 334 Q168 327 169 318 Q166 304 163.5 289 Q161 274 157 260 Q151 237 144.5 215 Q138 193 131 170 L131 168 L132 167 Z M75 95 Q75 96 74.5 96 Q74 96 74 97 Q72 93 72 93 Q65 86 56 79 Q47 72 39 65 Q23 52 8.5 39.5 Q-6 27 -20 14 Q-36 0 -50.5 -15.5 Q-65 -31 -77 -49 Q-89 -67 -97.5 -85.5 Q-106 -104 -109 -124 Q-114 -141 -106 -155 Q-101 -166 -94 -167 Q-87 -168 -79 -164 Q-71 -160 -63.5 -155 Q-56 -150 -48 -145 Q-16 -119 2 -86 Q27 -46 42 -3 Q50 16 56 34 Q62 52 70 71 Q72 77 72.5 83 Q73 89 75 95 Z " />
<glyph glyph-name="z" unicode="z" horiz-adv-x="207" d="M92 150 Q89 164 80.5 173 Q72 182 57 184 Q51 185 45.5 185.5 Q40 186 33 187 Q25 189 19 193 Q12 198 15 207 Q17 212 18.5 218 Q20 224 22 229 Q34 254 45.5 278 Q57 302 70 326 Q75 335 80 344 Q85 353 87 363 Q88 365 88 366.5 Q88 368 89 370 Q87 370 86 369.5 Q85 369 84 369 Q81 366 77 363.5 Q73 361 69 358 Q33 327 19 282 Q12 264 17 244 L17 241 Q14 238 9.5 238.5 Q5 239 3 243 Q1 246 -1 254 Q-3 263 -2.5 273 Q-2 283 3 293 Q20 343 63 376 Q66 378 68.5 379.5 Q71 381 75 383 Q91 390 105 384 Q120 379 117 363 Q117 352 110 338 L89 293 Q71 259 55 225 Q52 220 50.5 216 Q49 212 47 207 Q45 203 45 201 Q47 200 50 200 Q58 198 65 197 Q72 196 80 193 Q100 186 112 173 Q112 173 114 171 Q117 175 121 178 Q125 181 127 185 Q144 202 160 219.5 Q176 237 192 254 Q198 259 202 264 Q206 269 214 270 Q215 270 221 268 Q198 245 176 220.5 Q154 196 133 173 Q127 166 120 160 Q120 159 120 159 Q130 137 123 108 Q118 85 109.5 62.5 Q101 40 90 18 Q68 -32 35 -71 Q18 -93 -2 -111 Q-22 -129 -47 -141 Q-62 -149 -77.5 -153.5 Q-93 -158 -110 -159 Q-126 -161 -138 -156 Q-158 -147 -158 -123 Q-157 -107 -149 -92 Q-139 -73 -127 -59 Q-118 -47 -107.5 -36.5 Q-97 -26 -86 -15 Q-55 12 -26 39 Q3 66 32 93 Q47 107 61 120 Q75 133 89 147 Q92 150 92 150 Z M93 131 L92 132 Q90 130 88 129 Q70 111 51.5 92.5 Q33 74 13 56 Q-7 36 -28 16.5 Q-49 -3 -69 -23 Q-80 -34 -91 -45.5 Q-102 -57 -111 -71 Q-116 -78 -120 -84.5 Q-124 -91 -127 -99 Q-129 -107 -130.5 -114 Q-132 -121 -130 -129 Q-123 -145 -109 -144 Q-103 -144 -99 -143 Q-85 -140 -72 -133.5 Q-59 -127 -47 -119 Q-27 -105 -11.5 -88.5 Q4 -72 16 -53 Q36 -24 51.5 7 Q67 38 78 70 Q90 97 93 125 Q94 127 93 128 Q92 129 93 131 Z " />
<glyph glyph-name="D" unicode="D" horiz-adv-x="470" d="M366 231 Q351 204 333.5 177.5 Q316 151 296 125 Q295 123 291 119 Q301 120 312 124 Q317 125 321 125.5 Q325 126 330 126 Q345 128 353 118 Q357 115 359 106 Q359 100 354 101 Q348 102 347 108 Q346 115 337 114 Q324 113 310 109 Q302 107 294.5 104 Q287 101 279 99 Q276 98 271 93 Q249 65 225.5 39 Q202 13 176 -12 Q150 -38 121.5 -62 Q93 -86 63 -106 Q48 -116 33.5 -124.5 Q19 -133 2 -140 Q-6 -143 -14.5 -145.5 Q-23 -148 -31 -148 Q-46 -148 -55 -140 Q-67 -131 -61 -115 Q-56 -104 -48 -91 Q-37 -74 -24.5 -60 Q-12 -46 2 -32 Q51 15 107 42 Q135 55 161.5 67.5 Q188 80 216 91 Q218 92 220 93 Q222 94 224 96 Q272 157 312.5 221.5 Q353 286 385 355 Q393 375 400.5 393.5 Q408 412 415 432 Q420 452 424 472.5 Q428 493 428 513 Q427 587 362 617 Q351 623 340 626.5 Q329 630 316 632 Q288 636 260.5 634 Q233 632 204 625 Q115 605 33 559 Q8 546 -7 532 Q-16 524 -24 515 Q-25 513 -29 513 Q-34 514 -35.5 517 Q-37 520 -34 525 Q-32 529 -28 535 Q-21 543 -14 549.5 Q-7 556 2 562 Q16 573 32.5 582.5 Q49 592 65 600 Q102 617 138.5 630 Q175 643 213 650 Q257 659 298 656 Q391 647 436 574 Q458 533 457 484 Q458 462 454 441 Q450 420 443 398 Q429 354 409 313 Q389 272 366 231 Z M195 61 Q195 63 196 65 Q192 63 192 63 Q176 55 161 48 Q146 41 130 33 Q60 -2 4 -64 Q-4 -75 -13 -86 Q-22 -97 -29 -110 Q-31 -114 -33 -118.5 Q-35 -123 -35 -128 Q-33 -127 -32.5 -127 Q-32 -127 -30 -126 Q-21 -123 -12.5 -118.5 Q-4 -114 4 -109 Q21 -99 37 -87.5 Q53 -76 70 -63 Q104 -35 135 -3.5 Q166 28 195 61 Z M247 579 Q241 564 234 550 L234 549 Q233 541 229.5 534.5 Q226 528 223 521 Q218 508 213 492 Q209 484 206.5 477 Q204 470 202 463 Q199 455 196.5 448 Q194 441 192 434 Q184 409 176 384.5 Q168 360 161 336 Q153 312 147 288.5 Q141 265 134 241 Q128 221 122.5 202.5 Q117 184 111 164 Q109 155 106 146.5 Q103 138 101 130 Q101 127 100 126 Q107 126 111 125 Q119 124 114 116 Q110 106 107 97 Q104 88 99 78 Q99 77 98.5 76.5 Q98 76 98 74 Q93 67 89.5 65 Q86 63 78 64 Q64 67 64 80 Q66 94 64 109 Q66 135 71 160.5 Q76 186 83 212 Q96 267 110 319 Q122 361 137 403 Q152 448 170 493 Q178 513 187 532 Q196 551 207 569 Q210 574 213 578 Q216 582 218 587 Q227 596 237 593 Q245 591 246 587 Q250 583 247 579 Z " />
<glyph glyph-name="braceright" unicode="&#x7d;" horiz-adv-x="123" d="M163 588 Q161 584 161 583 Q155 555 143 530 Q133 505 122.5 481.5 Q112 458 102 433 Q97 424 94 414.5 Q91 405 87 396 Q85 392 85 384 Q85 374 93 368 Q95 367 97 366 Q99 365 101 364 Q103 363 103.5 362.5 Q104 362 106 361 Q115 353 103 347 Q100 345 97.5 344 Q95 343 93 342 Q81 336 78 324 Q76 319 75 315 Q74 311 73 306 Q69 289 66 271.5 Q63 254 59 236 Q53 209 44 178 Q41 167 38 157 Q35 147 32 137 Q30 131 27 125.5 Q24 120 22 115 Q17 104 9.5 96 Q2 88 -7 80 Q-13 74 -22 74 Q-27 74 -30 75 Q-33 76 -33 81 Q-32 84 -27 86 Q-20 86 -15 95 Q-8 103 -3.5 112 Q1 121 5 130 Q10 143 13.5 155.5 Q17 168 21 182 Q29 206 33 230.5 Q37 255 42 279 Q44 289 46.5 298.5 Q49 308 52 317 L55 326 Q60 338 73 346 Q76 348 79.5 350 Q83 352 87 354 Q85 355 84.5 355.5 Q84 356 82 357 Q76 361 73 364 Q61 373 64 389 Q67 405 75 425 Q85 447 94.5 468.5 Q104 490 113 512 Q121 528 127 544 Q133 560 138 577 Q142 588 144.5 600 Q147 612 146 623 Q146 632 143 640 Q141 645 139.5 646 Q138 647 133 646 Q130 645 125 645 Q118 645 117 650 Q118 651 119 651.5 Q120 652 121 653 Q135 658 145.5 654.5 Q156 651 161 640 Q168 627 166 608 Q165 605 165 598 Q163 592 163 588 Z " />
<glyph glyph-name="braceleft" unicode="&#x7b;" horiz-adv-x="153" d="M71 360 Q76 359 81 358.5 Q86 358 91 357 Q94 357 97 356.5 Q100 356 104 355 Q106 355 110 353 Q116 348 115 341 L109 323 Q98 297 89 270 Q80 243 72 216 Q67 196 62 177 Q57 158 52 138 Q47 118 49 99 Q49 95 51 87 Q54 80 60 80 L79 80 Q88 82 93 88 Q97 93 105 93 Q112 93 108 87 Q104 80 99 77 Q95 75 91.5 74 Q88 73 83 71 Q73 69 63 68.5 Q53 68 43 69 Q25 70 22 89 Q20 101 22 115 Q24 129 26.5 142 Q29 155 33 169 Q37 183 40.5 197 Q44 211 48 225 Q55 249 63.5 272.5 Q72 296 83 319 Q85 324 87 328.5 Q89 333 91 338 Q92 340 94 346 Q92 347 89.5 347 Q87 347 85 348 L64 351 Q58 353 54 355 Q49 358 53 365 L56 368 L68 380 Q83 395 93.5 412 Q104 429 112 449 Q117 462 121 475 Q125 488 129 502 Q134 522 139.5 540.5 Q145 559 152 579 Q158 593 164.5 606.5 Q171 620 181 633 Q194 651 210 661 Q227 669 238 668 Q246 668 251 663 Q254 660 253 657 Q252 654 246 656 Q244 656 243 657 Q240 660 233 657 Q221 653 211 641 Q203 633 197.5 624 Q192 615 187 606 Q173 579 166 552 Q161 535 157 519 Q153 503 148 486 Q143 471 138.5 456 Q134 441 126 427 Q111 400 89 378 L71 360 Z " />
<glyph glyph-name="underscore" unicode="&#x5f;" horiz-adv-x="243" d="M151 136 Q150 137 149 137 Q148 137 147 138 Q144 140 139 140 L79 137 Q65 137 52.5 136.5 Q40 136 27 136 Q23 136 15 138 L13 138 Q11 140 9 141 Q7 142 9 144 Q10 147 12.5 147 Q15 147 17 147 Q37 149 56 149.5 Q75 150 95 151 Q106 152 117.5 152 Q129 152 140 152 Q148 152 153 147 Q155 146 157 141 Q159 136 151 136 Z " />
<glyph glyph-name="parenright" unicode="&#x29;" horiz-adv-x="177" d="M158 658 Q165 661 169 657 Q175 652 178 647 Q182 641 184 634 Q186 627 188 619 Q193 598 195 576 Q197 554 197 532 Q196 512 193.5 492 Q191 472 186 452 Q182 438 178 424 Q174 410 169 396 Q161 372 151.5 348.5 Q142 325 131 302 Q119 278 106 255.5 Q93 233 78 211 Q70 200 61 188.5 Q52 177 43 166 Q31 151 19 135.5 Q7 120 -6 105 Q-10 100 -14.5 95.5 Q-19 91 -24 87 Q-38 75 -48 87 Q-49 89 -50 90.5 Q-51 92 -49 94 Q-47 98 -42 98 Q-40 97 -36 101 Q-30 109 -23.5 116.5 Q-17 124 -11 132 Q11 161 30 188 Q45 210 58 232 Q71 254 83 277 Q121 344 143 413 Q163 468 169 524 Q172 550 172.5 575.5 Q173 601 168 626 Q166 634 164 640.5 Q162 647 160 654 Q159 655 159 656 Q159 657 158 658 Z " />
<glyph glyph-name="parenleft" unicode="&#x28;" horiz-adv-x="163" d="M84 90 Q72 90 71 99 Q70 104 69 110 Q68 116 67 121 Q63 149 61.5 176.5 Q60 204 59 233 Q58 253 61 273.5 Q64 294 69 315 Q95 421 148 520 Q185 588 237 640 Q245 648 256 656 Q258 658 261.5 659.5 Q265 661 268 663 Q274 667 282 661 Q287 658 281 653 Q273 646 265.5 637.5 Q258 629 250 621 Q185 544 147 452 Q126 403 111 355 Q94 302 87 250 Q85 233 84.5 216 Q84 199 84 182 Q85 163 86 145 Q87 127 89 109 Q91 101 92 96 Q93 93 88 90 L84 90 Z " />
<glyph glyph-name="equal" unicode="&#x3d;" horiz-adv-x="206" d="M146 249 Q157 248 159 239 Q159 236 158 234 Q156 232 154 235 Q151 237 145 237 Q127 235 109 234 Q91 233 72 231 Q67 231 62 231 Q57 231 52 232 Q45 232 42 239 Q38 246 47 246 Q52 247 57 247 Q62 247 67 247 Q82 248 96.5 248 Q111 248 126 249 L146 249 Z M167 280 Q163 278 163 278 Q160 278 159 281 Q157 283 152 283 Q137 284 122.5 282.5 Q108 281 93 279 Q88 278 82 278 Q76 278 71 278 Q64 278 60 283 Q58 285 58 287 Q56 289 60 291 L66 291 Q80 293 93 293.5 Q106 294 119 295 L143 295 Q147 295 150 294.5 Q153 294 157 293 Q165 289 166 283 Q167 282 166.5 281.5 Q166 281 167 280 Z " />
<glyph glyph-name="plus" unicode="&#x2b;" horiz-adv-x="243" d="M149 273 L166 273 L196 273 Q204 273 209 267 Q215 261 205 258 Q198 256 194 259 Q190 262 186 261 Q176 261 167 260.5 Q158 260 148 259 Q145 259 144 258 L138 240 Q134 226 130.5 213 Q127 200 122 186 L119 177 Q114 169 105 169 Q94 169 94 180 L95 180 Q102 183 104 190 Q106 198 107.5 204.5 Q109 211 111 218 Q113 226 115 234.5 Q117 243 119 251 Q120 253 120 256 L116 256 Q101 254 86.5 253 Q72 252 57 250 Q53 248 50 248 Q44 245 40 253 Q38 258 44 261 Q47 262 50 263 Q53 264 56 264 Q70 266 84 267 Q98 268 112 270 Q116 271 124 271 Q126 277 126 278 Q128 286 129 292.5 Q130 299 132 306 Q134 313 136.5 319 Q139 325 141 331 Q145 343 156 336 Q162 332 162 321 Q161 314 159 307 Q157 300 155 293 Q153 288 152 283 Q151 278 149 273 Z " />
<glyph glyph-name="ampersand" unicode="&#x26;" horiz-adv-x="336" d="M220 259 Q219 261 215 265 Q210 263 206 261 Q202 259 197 257 Q174 247 157 233 Q135 217 124 192 Q118 179 119 169 Q119 166 120 163 Q121 160 122 156 Q121 154 116 154 Q104 154 101 164 Q98 170 100 180 Q104 203 123 225 Q131 233 139 239.5 Q147 246 156 252 Q165 258 174 262.5 Q183 267 193 272 Q204 278 215 283.5 Q226 289 237 295 Q247 300 256 306 Q265 312 273 320 Q292 338 303 362 Q308 374 310 390 Q310 393 309 394 Q309 400 313 401 Q327 405 329 392 L329 382 Q328 377 327 371.5 Q326 366 325 361 Q322 340 305 323 Q298 315 290 308.5 Q282 302 274 296 Q261 290 252 283 L246 280 Q250 272 248 262 Q246 247 242 231.5 Q238 216 232 201 Q227 191 221 182 Q179 120 108 108 Q76 103 51 115 Q29 125 20.5 144.5 Q12 164 18 190 Q21 205 28 218.5 Q35 232 44 246 Q79 295 132 317 Q131 317 137 319 Q135 320 134.5 320 Q134 320 132 321 Q127 323 122.5 325.5 Q118 328 113 331 Q105 336 98 345 Q88 361 98 380 Q105 394 114 402 Q126 415 139.5 424 Q153 433 170 437 Q203 444 226 426 Q244 411 242 383 Q240 366 235 351 Q232 345 227 340 Q225 336 220 336 Q215 336 212 338 Q212 338 212 342 Q225 367 223 395 Q222 400 221 404 Q220 408 218 412 Q209 428 188 424 Q176 421 166 414 Q149 404 135 387 Q132 382 129 378 Q126 374 124 369 Q118 352 129 343 Q139 334 153 331 Q157 330 161 329.5 Q165 329 169 328 Q176 328 182 325 Q185 324 189 320 Q192 315 186 312 Q181 309 178 309 Q145 298 117 278 Q69 241 56 189 Q50 163 61 143 Q72 123 97 124 Q113 125 130 133 Q161 146 183 176 Q194 190 201.5 204.5 Q209 219 214 234 Q216 241 217.5 247 Q219 253 221 259 L220 259 Z " />
<glyph glyph-name="asciicircum" unicode="&#x5e;" horiz-adv-x="223" d="M200 667 L191 655 Q183 644 175 632.5 Q167 621 159 610 Q156 605 152.5 599.5 Q149 594 145 588 Q145 586 142 586 Q136 584 135 584 Q125 584 132 594 Q145 613 157.5 632 Q170 651 183 671 Q191 681 197 691 Q201 696 205 699.5 Q209 703 214 704 Q221 705 226 704 Q231 703 232 697 Q233 689 232 682 Q230 674 228.5 666.5 Q227 659 225 651 Q221 634 217.5 618 Q214 602 211 585 Q209 582 211 579 Q211 574 206 573 Q201 570 195.5 571.5 Q190 573 190 577 Q188 581 190 586 Q192 602 194.5 618 Q197 634 199 651 Q201 661 201 667 L200 667 Z " />
<glyph glyph-name="percent" unicode="&#x25;" horiz-adv-x="242" d="M-18 6 Q-16 12 -14 16 Q-9 29 -4.5 41.5 Q0 54 6 67 Q27 114 50 159 Q73 204 98 250 Q109 272 120.5 293.5 Q132 315 145 337 Q161 364 179 389.5 Q197 415 214 440 Q217 443 218.5 446 Q220 449 223 451 Q226 455 232 454 Q239 451 240 446 Q240 442 239 441 Q236 435 233 429 Q230 423 226 418 Q210 394 195 370 Q180 346 166 321 Q147 292 131.5 263 Q116 234 100 204 Q77 163 56 122 Q35 81 15 39 Q10 31 7 22 Q4 13 -1 5 Q-3 1 -1 -7 Q3 -11 -4 -11 Q-5 -11 -5.5 -10.5 Q-6 -10 -7 -10 Q-16 -7 -18 6 Z M122 141 Q124 142 126 142.5 Q128 143 130 144 Q134 146 141 145 Q151 142 150 130 Q149 124 147 118 Q145 112 143 107 Q136 93 122 90.5 Q108 88 97 97 Q87 106 90 120 Q92 125 94 129 Q96 133 99 137 Q108 146 120 142 Q122 141 122 141 Z M119 125 Q117 120 114.5 115 Q112 110 113 105 Q120 107 126.5 116 Q133 125 133 133 Q129 131 126.5 127.5 Q124 124 119 125 Z M114 363 Q101 363 93 370 Q80 379 88 395 Q96 410 113 407 L118 407 Q126 409 134 404 Q142 399 146 390 Q148 382 142 376 Q133 363 114 363 Z M106 376 L107 376 Q109 375 109 375 Q120 378 126 389 Q129 392 125 397 Q117 394 114 388 Q111 382 106 376 Z " />
<glyph glyph-name="dollar" unicode="&#x24;" horiz-adv-x="240" d="M158 367 Q162 370 166 381 Q168 392 171 404 Q174 416 176 428 Q177 431 179 439 Q180 440 180.5 441 Q181 442 182 443 Q186 445 193 443 Q198 441 196 435 Q194 430 193.5 426.5 Q193 423 191 418 Q189 409 186.5 400 Q184 391 181 382 Q179 374 177.5 372 Q176 370 171 364 L177 361 Q189 356 193 346 Q196 338 192 330 Q188 324 184 324 Q176 324 175 330 Q175 334 174 336 Q172 347 166.5 350 Q161 353 149 349 Q145 347 142 346.5 Q139 346 136 344 Q108 328 89 305 L80 290 Q79 289 79 285 Q77 278 83 277 Q86 276 89.5 275 Q93 274 97 274 Q107 272 116.5 270 Q126 268 136 266 Q150 263 163 255 Q184 239 181 212 Q178 199 172 183 Q148 132 96 108 Q93 106 91 103 Q83 80 75.5 58.5 Q68 37 62 15 Q60 7 57.5 -0.5 Q55 -8 51 -16 Q49 -22 45 -22 Q37 -22 35 -17 Q35 -16 36 -15 Q39 -3 42.5 8.5 Q46 20 49 32 Q58 65 70 98 Q70 99 71 100 L67 100 Q50 98 38 104 Q36 106 34 106.5 Q32 107 30 109 Q21 117 25 130 Q30 144 37 157 Q44 170 55 181 Q63 192 75 198 Q92 207 108 199 Q112 197 113 195 Q115 191 110 191 Q108 190 106.5 190.5 Q105 191 103 191 Q98 194 93 191 Q90 189 86.5 186.5 Q83 184 80 181 Q61 162 52 136 Q49 130 49 125 Q47 122 49 119 Q49 114 54 116 Q58 116 66 118 Q77 122 91 132 Q130 161 147 202 Q152 214 152 224 Q152 243 136 250 Q130 253 123 254 Q116 255 109 257 Q89 259 73 263 Q62 264 53 273 Q41 285 51 302 Q52 304 52.5 305.5 Q53 307 55 309 Q88 350 133 363 Q139 365 145.5 365 Q152 365 158 367 Z " />
<glyph glyph-name="numbersign" unicode="&#x23;" horiz-adv-x="260" d="M182 285 L189 285 L209 285 Q211 285 214 284 Q217 283 219 282 Q223 281 223 275 Q221 270 217 270 Q210 270 209 277 Q201 277 194 276.5 Q187 276 179 275 Q175 265 172 256 Q169 247 165 237 Q168 237 171 237.5 Q174 238 176 238 Q187 238 191 236 Q195 234 197 230 Q199 225 193 225 Q189 225 185 227 Q183 229 178 229 Q174 228 170 227.5 Q166 227 161 227 Q160 222 159 219 Q158 216 156 212 Q151 195 145 179 Q139 163 134 146 Q133 143 133 135 Q132 131 129 130 Q118 128 118 136 Q116 141 118 146 Q121 156 124 166 Q127 176 130 186 Q132 195 135 203.5 Q138 212 141 220 L141 222 L138 222 L96 213 Q91 212 90 207 Q88 200 85.5 193.5 Q83 187 80 180 Q79 177 75 171 Q73 168 68.5 167.5 Q64 167 62 169 Q62 169 62 174 Q64 182 66.5 190 Q69 198 72 207 Q65 204 60 203 Q58 203 55.5 202 Q53 201 51 201 Q47 201 43 203 Q38 206 44 209 Q47 211 49.5 212 Q52 213 55 214 Q60 216 65 217 Q70 218 76 220 Q79 230 82 239.5 Q85 249 88 260 Q86 259 84 259 Q82 259 80 258 Q76 257 72.5 256.5 Q69 256 64 255 Q59 254 52 257 Q51 258 51 261 Q51 263 54 263 Q62 265 70.5 267 Q79 269 87 271 Q88 271 89 271.5 Q90 272 92 272 Q93 274 93 275 Q93 276 94 277 Q98 291 102 303.5 Q106 316 111 329 Q112 332 112.5 335.5 Q113 339 115 342 Q117 347 123 348 Q128 348 130 347 Q137 345 136 338 Q134 331 131.5 325 Q129 319 127 312 L115 279 Q114 278 114 276 L162 282 Q162 284 164 288 Q169 302 173.5 316 Q178 330 183 344 Q185 348 186.5 351.5 Q188 355 190 360 Q193 367 200 366 Q211 364 207 354 Q204 343 200.5 333 Q197 323 193 312 Q190 306 187.5 299.5 Q185 293 182 285 Z M96 225 L99 225 Q110 227 120.5 229 Q131 231 142 233 Q145 233 147 237 Q148 242 152 252 Q154 257 155 262 Q156 267 158 272 Q146 270 134 268.5 Q122 267 110 265 Q106 254 103 244.5 Q100 235 96 225 Z " />
<glyph glyph-name="at" unicode="&#x40;" horiz-adv-x="266" d="M112 216 Q108 212 100 206 Q95 201 88 199 Q75 196 66 203 Q57 210 57 224 Q57 237 61 248 Q70 275 91 291 Q112 309 135 300 Q149 294 150 278.5 Q151 263 140 250 Q130 240 124 249 Q125 255 129 260 Q132 272 131 280 Q131 283 129 287 Q127 291 123 289 Q120 288 114 284 Q84 258 81 220 Q81 218 82 217 L82 213 Q84 215 85 215 Q86 215 87 217 Q92 221 97.5 225 Q103 229 108 234 Q116 241 125 238 Q134 234 134 226 Q134 216 135 211 Q135 202 139 197 Q145 197 151 203 Q160 211 168 220 Q201 261 206 315 Q208 332 203 347 Q195 382 161 382 Q116 384 79 348 Q46 317 29 271 Q20 246 16 221.5 Q12 197 15 173 Q16 143 31 119 Q33 117 34.5 114.5 Q36 112 38 110 Q54 91 79 105 Q93 114 104 122 Q127 140 142 159 Q144 162 148 162.5 Q152 163 154 162 Q158 160 155 157 Q153 152 147 144 Q142 138 136 132.5 Q130 127 125 122 L107 104 Q85 84 54 86 Q24 86 7 113 Q-3 127 -7.5 143 Q-12 159 -14 177 Q-18 250 23 319 Q42 350 68 369 Q100 395 140 397 Q151 398 161.5 397 Q172 396 182 393 Q228 378 228 322 Q229 296 220 272 Q211 248 195 225 Q183 207 164 193 Q149 182 133 185 Q118 189 113 206 Q113 208 112.5 210.5 Q112 213 112 216 Z " />
<glyph glyph-name="exclam" unicode="&#x21;" horiz-adv-x="163" d="M193 627 Q199 629 203 625 Q207 621 207 616 Q206 612 205.5 608 Q205 604 204 599 Q199 582 193.5 564.5 Q188 547 182 529 Q174 506 165 483 Q156 460 147 437 Q132 399 118.5 360 Q105 321 91 282 L46 156 Q44 148 42 145 Q39 139 33 137 Q27 135 22 138 Q20 139 21 142 Q26 157 30.5 172.5 Q35 188 40 203 Q45 220 50 235.5 Q55 251 60 267 L81 330 Q88 351 95 371.5 Q102 392 108 413 Q122 453 137 493 Q152 533 168 573 Q173 585 177 596.5 Q181 608 185 620 Q187 622 187 623 Q188 627 193 627 Z M18 74 Q21 73 21 67 Q20 65 15 62 L11 62 Q9 63 6.5 63.5 Q4 64 2 65 Q-2 67 2 69 Q5 72 10 74 Q15 76 18 74 Z " />
<glyph glyph-name="grave" unicode="&#x60;" horiz-adv-x="163" d="M140 683 Q153 683 156 672 Q161 660 164.5 648.5 Q168 637 173 626 Q175 622 175 619 Q176 615 172 614 Q164 612 158 618 Q155 621 151 629 Q148 635 145.5 641.5 Q143 648 140 654 Q138 659 136.5 663.5 Q135 668 133 673 Q129 683 140 683 Z " />
<glyph glyph-name="asciitilde" unicode="&#x7e;" horiz-adv-x="206" d="M111 241 Q114 243 116.5 243.5 Q119 244 121 246 Q129 251 137.5 256.5 Q146 262 155 268 L158 271 Q167 278 174 271 Q177 267 174 264 Q172 262 171.5 261 Q171 260 169 259 Q160 251 151 244.5 Q142 238 133 231 Q120 221 101 228 Q87 232 83 246 Q82 251 79 258 Q78 256 77.5 256 Q77 256 76 254 Q71 249 66 243 Q61 237 56 232 Q47 221 37 229 Q33 232 36 235 Q37 237 37 238 Q37 239 39 241 Q44 248 49.5 254.5 Q55 261 60 267 Q71 280 86 276 Q101 272 104 261 Q106 253 107 250 Q108 248 109 245.5 Q110 243 111 241 Z " />
<glyph glyph-name="nine" unicode="9" horiz-adv-x="180" d="M130 326 Q129 325 128.5 324 Q128 323 127 322 Q110 298 91 277 Q89 274 86 271 Q83 268 81 266 Q68 255 55 255 Q42 255 33 265 Q26 273 26 288 Q29 331 63 360 Q85 379 110 370 Q127 365 126 346 L126 344 L129 347 Q133 354 137 360 Q141 366 145 373 Q149 380 155 379 Q158 379 162 377 Q168 374 168 368 Q168 363 167.5 359.5 Q167 356 166 352 Q161 326 153.5 302 Q146 278 135 253 Q122 224 106 199 Q94 181 82 167 Q61 146 36 139 Q22 135 13 138 Q2 141 -1.5 153 Q-5 165 3 176 Q5 178 7 180.5 Q9 183 11 185 Q17 191 24 184 Q22 182 21 180 Q20 178 18 176 Q9 162 16 150 Q17 147 21 149 Q25 151 29 153 Q33 155 37 157 Q44 162 49.5 167.5 Q55 173 60 179 Q77 200 91 227 Q114 273 131 324 L131 326 L130 326 Z M102 358 Q92 355 84 346 Q68 329 59 307 Q54 290 54 279 Q54 276 56 270 Q61 272 69 278.5 Q77 285 85 292.5 Q93 300 99.5 307 Q106 314 108 319 Q106 320 104 320 Q99 323 101 328 Q102 331 103 334 Q104 337 104 341 Q106 352 102 358 Z " />
<glyph glyph-name="eight" unicode="8" horiz-adv-x="172" d="M55 276 Q54 290 58 301 Q62 312 67 324 Q74 335 82 346 Q90 357 99 365 Q107 373 111 376 Q126 383 137 374 Q143 371 143 363 Q144 357 143 353 Q142 334 139.5 315 Q137 296 130 279 Q127 272 124.5 267.5 Q122 263 117 259 Q107 251 102 263 Q102 264 103 264 Q108 269 110 275 Q112 281 113 287 Q118 304 120.5 322 Q123 340 124 357 Q124 358 123 360 L121 358 Q107 345 96.5 329.5 Q86 314 81 296 Q72 271 89 258 Q94 252 104 245 Q108 243 111 241 Q114 239 117 237 Q119 234 122 231.5 Q125 229 127 226 Q134 214 126 202 Q123 194 115 188 Q111 184 106 180.5 Q101 177 96 173 Q85 165 73 159 Q61 153 47 150 Q39 148 30.5 148.5 Q22 149 15 153 L14 153 Q-6 164 0 190 Q2 196 4 201.5 Q6 207 8 212 Q20 240 42 264 Q45 268 47.5 271 Q50 274 55 276 Z M64 257 Q53 242 44.5 226.5 Q36 211 31 193 Q29 188 28 182.5 Q27 177 27 171 Q28 167 32 167 Q62 173 93 199 Q95 201 97 203.5 Q99 206 101 209 Q103 211 105 215 Q107 223 103 227 Q102 228 100 229 Q98 230 97 231 Q88 237 80.5 243 Q73 249 65 257 L64 257 Z " />
<glyph glyph-name="seven" unicode="7" horiz-adv-x="166" d="M67 254 Q59 252 56 252 Q49 248 43 253 Q41 255 41 257 L42 258 Q43 258 43.5 258.5 Q44 259 45 259 L66 265 Q68 265 69.5 265.5 Q71 266 73 266 Q84 291 99 314 Q114 337 129 360 L125 360 Q117 360 108.5 359.5 Q100 359 92 359 Q86 359 80.5 359.5 Q75 360 70 363 Q65 365 62 369 Q60 373 64 377 Q72 383 78 380 Q82 378 79 372 L88 372 Q98 374 107 374.5 Q116 375 126 377 Q134 378 140.5 377.5 Q147 377 152 373 Q164 364 157 351 Q152 341 146 332 L113 278 L110 272 Q112 272 114 272.5 Q116 273 118 272 Q123 272 131 270 Q138 267 139 261 Q140 255 134 255 Q127 255 126 260 Q125 264 120 264 Q116 263 113 262.5 Q110 262 107 262 Q103 262 101 258 Q83 228 71 198 L53 153 Q51 147 52 144 Q53 139 49 133 Q46 129 42 129 Q36 128 30 132 Q25 135 27 140 Q28 151 33 162 Q39 180 45.5 198 Q52 216 59 234 Q61 239 63 243.5 Q65 248 67 254 Z " />
<glyph glyph-name="six" unicode="6" horiz-adv-x="164" d="M115 343 Q113 341 110.5 338 Q108 335 106 333 Q89 309 76 284 Q63 259 55 233 Q47 212 49 190 L49 182 L53 186 Q60 194 68 201.5 Q76 209 84 217 Q92 223 101.5 223.5 Q111 224 118 219 Q123 214 122 207 Q122 202 120 198.5 Q118 195 116 191 Q105 175 90 165.5 Q75 156 56 154 L53 154 Q50 143 46 134 L46 133 Q45 131 44.5 129 Q44 127 41 126 Q34 123 31 128 Q29 130 30 133 Q31 138 32 144 Q33 150 35 156 Q35 157 35.5 157.5 Q36 158 36 159 L35 160 Q25 166 21.5 175 Q18 184 18 195 Q17 209 19.5 222 Q22 235 27 248 Q35 269 45.5 289 Q56 309 70 329 Q75 336 80.5 342.5 Q86 349 93 355 Q99 361 111 368 Q123 374 133 368 Q142 364 136 354 Q132 348 129 345 Q124 339 117 342 Q116 343 115 343 Z M71 180 L71 179 Q77 183 82.5 188.5 Q88 194 90 199 Q85 194 80.5 189.5 Q76 185 71 180 Z " />
<glyph glyph-name="five" unicode="5" horiz-adv-x="203" d="M46 160 Q50 155 56.5 153.5 Q63 152 69 156 Q78 160 84 168 Q118 204 134 245 Q139 261 138 272 Q137 275 136 277.5 Q135 280 134 283 Q132 288 126 286 Q121 284 117 282.5 Q113 281 108 279 Q101 275 95 271 Q89 267 83 262 Q79 259 75.5 255.5 Q72 252 68 249 Q63 244 54 244 Q45 246 41 249 Q32 254 36 265 Q40 278 47 293 Q51 304 56 313.5 Q61 323 67 333 Q80 357 106 363 Q134 371 161 375 Q169 376 176 375.5 Q183 375 190 372 Q193 370 195 367 Q198 364 192 362 Q191 361 188 361 Q181 362 174.5 361 Q168 360 161 358 L125 349 Q109 345 101 330 Q94 319 89 308 Q84 297 79 285 Q81 287 82 287 Q83 287 85 288 Q100 296 114 299 Q138 304 152.5 290.5 Q167 277 164 254 Q163 246 160.5 238 Q158 230 154 222 Q147 208 139 195 Q131 182 120 171 Q115 166 110.5 161.5 Q106 157 101 153 Q81 138 59 142 Q46 144 38 149 Q32 153 30 156 Q25 162 32 167 Q36 169 39.5 171.5 Q43 174 48 176 Q51 178 58 176 Q62 173 58 170 Q55 168 51 164 Q49 163 46 160 Z " />
<glyph glyph-name="four" unicode="4" horiz-adv-x="189" d="M142 295 Q144 294 150 294 Q152 292 154.5 291.5 Q157 291 159 289 Q163 285 159 280 Q155 274 150 276 Q147 276 146 277 Q144 279 141.5 278 Q139 277 137 276 Q134 275 133 273.5 Q132 272 131 270 Q123 249 115.5 228.5 Q108 208 101 187 Q96 173 92.5 160.5 Q89 148 84 135 Q83 128 77 128 Q72 128 68 130 Q60 131 63 140 Q67 157 71.5 172.5 Q76 188 81 205 Q84 216 87 227.5 Q90 239 94 250 Q94 252 95 254 Q93 254 92.5 253.5 Q92 253 91 253 Q85 251 79.5 249.5 Q74 248 69 246 Q55 243 41 250 Q28 258 31 274 Q34 289 41 301 Q58 335 83 363 L92 372 Q100 378 110 374 Q114 371 110 366 Q96 348 85 329.5 Q74 311 66 291 Q61 280 59 265 Q61 265 62 266 Q71 269 80.5 272.5 Q90 276 99 279 Q102 280 105 285 Q113 307 121.5 329 Q130 351 141 372 Q143 376 145 379 Q147 382 149 386 Q153 392 160 392 Q163 392 167 390 Q173 387 172 380 Q169 372 166.5 364.5 Q164 357 162 349 Q157 335 152 322 Q147 309 142 295 Z " />
<glyph glyph-name="three" unicode="3" horiz-adv-x="174" d="M114 378 Q106 374 102 371 Q74 349 54 318 Q49 309 40 312 Q36 315 37 319 Q38 321 38 323 Q38 325 40 327 Q42 329 43 332 Q44 335 46 337 Q62 361 85 379 Q94 385 102 389 Q109 393 115 393.5 Q121 394 128 392 Q142 387 139 371 Q137 363 133 356 Q127 342 118.5 330 Q110 318 100 307 Q99 305 96 302 Q100 300 100 300 Q114 292 121 280 Q135 245 127 210 Q118 176 90 152 Q72 135 49 137 Q33 137 21 146 Q12 153 11 162 Q5 188 12 215 Q14 220 16 224.5 Q18 229 22 234 Q28 242 35.5 245.5 Q43 249 52 250 Q52 249 53 249 Q55 249 57 248.5 Q59 248 58 246 Q58 244 56 243.5 Q54 243 52 242 Q43 241 38 232 Q36 228 34.5 225 Q33 222 32 219 Q24 190 32 165 Q36 153 49 150 Q55 148 60 153 Q63 155 66.5 157.5 Q70 160 72 163 Q107 202 102 250 Q101 257 99.5 264 Q98 271 95 277 Q90 288 80 291 Q72 292 68 297 Q64 303 69 308 Q70 310 71 310.5 Q72 311 74 313 Q84 324 92.5 335 Q101 346 108 360 Q110 364 112 368.5 Q114 373 115 378 L114 378 Z " />
<glyph glyph-name="two" unicode="2" horiz-adv-x="201" d="M117 358 Q114 356 111.5 355.5 Q109 355 107 353 Q82 339 69 314 Q63 305 66 297 L66 295 Q62 291 57 294 Q52 296 49 301 Q46 306 47 312 Q49 321 54 328 Q67 349 89 365 Q98 371 108.5 372.5 Q119 374 128 371 Q137 368 143 360 Q149 352 149 340 Q149 321 139 298 Q131 278 119.5 260 Q108 242 94 225 Q79 206 58 185 Q57 185 55 183 Q57 182 60 182 Q72 179 83.5 176.5 Q95 174 107 172 Q115 170 122.5 168.5 Q130 167 138 165 Q144 164 149 160 Q153 157 151 153 Q149 151 144 151 Q142 151 141 152 Q135 155 128.5 156 Q122 157 116 158 Q102 160 87.5 162.5 Q73 165 59 168 Q48 169 35 166 Q25 163 18 167 Q16 167 14 169 Q9 172 9.5 174 Q10 176 15 181 Q29 192 39.5 204 Q50 216 61 229 Q75 247 87 265.5 Q99 284 108 304 Q118 326 119 346 Q119 349 118.5 351.5 Q118 354 117 358 Z " />
<glyph glyph-name="one" unicode="1" horiz-adv-x="131" d="M37 216 Q41 233 44 249 Q47 265 52 282 Q65 340 94 396 Q96 399 98 402.5 Q100 406 102 409 Q107 415 114.5 416.5 Q122 418 126 413 Q127 412 127 405 L115 369 Q108 349 101.5 329 Q95 309 88 289 Q84 278 80.5 267.5 Q77 257 74 246 Q70 235 66.5 223 Q63 211 59 199 Q56 187 52.5 174.5 Q49 162 46 150 Q44 144 42 136 Q42 132 43 130 Q43 124 39 123 Q34 121 28.5 122 Q23 123 21 126 Q20 128 20 132 Q20 139 21 143 Q25 161 28.5 179 Q32 197 36 216 L37 216 Z " />
<glyph glyph-name="zero" unicode="0" horiz-adv-x="223" d="M103 349 Q99 346 96.5 343 Q94 340 92 337 Q87 329 83 320.5 Q79 312 75 303 Q68 289 63 274 Q58 259 56 244 Q53 219 57 199 Q59 194 60 190 Q61 186 64 182 Q68 178 70.5 178 Q73 178 79 180 Q89 185 98 191 Q107 197 115 205 Q154 244 173 289 Q182 316 181 338 Q181 339 180.5 339.5 Q180 340 180 341 Q180 348 175.5 351 Q171 354 165 355 Q158 356 151 349 Q148 346 145.5 342.5 Q143 339 141 335 Q139 333 139 332 Q139 331 137 329 Q136 325 132 325 L127 325 Q118 326 122 335 Q123 339 127 347 Q136 364 155 366 Q179 370 199 355 Q204 351 206 346 Q208 341 209 335 Q211 324 209.5 313.5 Q208 303 205 292 Q199 274 188 256 Q177 237 163 220.5 Q149 204 132 190 Q116 177 95 167 Q73 159 55 162 Q38 165 29 180 Q23 189 21 200 Q19 211 19 222 Q20 246 27 269 Q34 292 46 315 Q50 321 54 327.5 Q58 334 62 340 Q71 350 79 356 Q93 366 109 363 Q114 362 119 357 Q121 355 120.5 351.5 Q120 348 118 346 Q116 344 112 344 Q108 344 106 346 Q106 346 103 349 Z " />
<glyph glyph-name="slash" unicode="&#x2f;" horiz-adv-x="173" d="M-20 63 Q-22 63 -22.5 63.5 Q-23 64 -24 64 Q-30 66 -26 72 Q-21 80 -17.5 88.5 Q-14 97 -10 105 Q-2 125 6.5 145 Q15 165 25 185 Q46 231 67.5 276 Q89 321 110 367 Q138 427 168 485 Q198 543 231 602 Q234 607 237.5 613 Q241 619 245 625 Q247 627 248.5 628.5 Q250 630 253 630 Q260 630 261 626 Q263 623 260 619 Q259 618 258.5 617 Q258 616 257 615 Q237 577 218 538 Q199 499 179 461 Q150 404 122.5 348.5 Q95 293 69 236 Q55 207 42.5 178.5 Q30 150 16 121 Q12 113 8.5 104 Q5 95 1 87 Q-3 78 -12 67 Q-15 63 -20 63 Z " />
<glyph glyph-name="bar" unicode="&#x7c;" horiz-adv-x="146" d="M8 65 Q7 65 6 65.5 Q5 66 4 66 Q-2 68 1 74 Q6 82 8 90.5 Q10 99 12 107 Q18 127 23.5 147 Q29 167 35 187 Q50 233 65 278 Q80 323 95 369 Q114 429 135.5 487 Q157 545 181 604 Q183 609 186 615 Q189 621 192 627 Q194 632 199 632 Q205 632 208 628 Q210 624 208 621 Q206 619 206 617 Q192 579 178 540 Q164 501 150 463 Q130 406 110.5 350.5 Q91 295 73 238 Q63 209 54 180.5 Q45 152 36 123 Q33 115 30.5 106 Q28 97 26 89 Q23 80 16 69 Q13 65 8 65 Z " />
<glyph glyph-name="question" unicode="&#x3f;" horiz-adv-x="214" d="M244 595 Q254 581 249 563 Q246 544 237 527 Q229 510 220 494 Q211 478 203 462 Q190 437 177 413 Q164 389 151 365 Q128 317 106 270.5 Q84 224 64 176 Q61 168 58 161 Q55 154 52 147 Q50 140 46 140 Q39 138 35 143 Q33 145 35 149 Q36 161 41 173 Q51 200 62.5 226.5 Q74 253 85 279 Q99 311 112 341.5 Q125 372 139 404 Q151 431 165.5 457.5 Q180 484 194 511 Q201 523 207 535 Q213 547 218 561 Q220 565 220.5 569 Q221 573 223 577 L223 585 Q222 593 220 593.5 Q218 594 213 593 Q203 591 198 587 Q193 584 188 581 Q183 578 178 573 Q135 533 109 478 Q102 462 102 451 Q101 448 101.5 445.5 Q102 443 102 440 Q103 435 98 434 Q91 434 88 439 Q82 446 84 460 Q85 473 92 490 Q117 545 161 587 Q172 598 188 606 Q207 615 221.5 610 Q236 605 244 595 Z M31 69 Q35 68 33 64 Q31 57 27 56 Q20 56 18 60 Q18 61 17 62 Q22 73 31 69 Z " />
<glyph glyph-name="period" unicode="&#x2e;" horiz-adv-x="94" d="M22 179 Q18 179 16 180 Q11 183 14 187 Q16 189 17 191 Q18 193 20 195 Q27 202 36 196 Q39 193 39 190 Q39 188 35 186 L29 183 Q26 181 22 179 Z " />
<glyph glyph-name="comma" unicode="&#x2c;" horiz-adv-x="133" d="M25 142 Q21 144 19 144 Q17 146 18 149 Q23 159 26.5 168 Q30 177 35 186 Q37 190 38.5 194 Q40 198 42 202 Q45 209 51 209 Q53 209 54.5 208.5 Q56 208 58 208 Q64 205 60 199 Q55 188 50 178 Q45 168 40 157 Q38 154 36.5 151.5 Q35 149 33 147 Q30 142 25 142 Z " />
<glyph glyph-name="greater" unicode="&#x3e;" horiz-adv-x="164" d="M125 242 Q123 234 116 228 Q112 224 108 221 Q104 218 99 214 Q87 204 74.5 195 Q62 186 50 176 Q38 167 26.5 157 Q15 147 4 137 L-8 128 Q-13 124 -19 126.5 Q-25 129 -26 133 Q-26 134 -24 138 Q-18 146 -13 151 Q-6 158 1 164 Q8 170 15 176 Q32 190 47.5 203.5 Q63 217 80 231 L92 243 Q97 248 97 251 Q97 254 94 259 Q81 283 63 301 Q58 306 53 310.5 Q48 315 43 320 Q42 322 41 323 Q40 324 39 326 Q37 329 42 331 Q44 332 49 332 Q58 330 63 325 Q68 321 72.5 317.5 Q77 314 81 310 Q92 300 100 289 Q108 278 116 266 Q118 264 119.5 261 Q121 258 123 255 Q126 248 125 242 Z " />
<glyph glyph-name="less" unicode="&#x3c;" horiz-adv-x="214" d="M172 332 Q181 331 183 326 Q185 323 181 319 Q179 316 173 312 Q157 300 141.5 287.5 Q126 275 109 263 Q101 257 93.5 251 Q86 245 78 238 Q76 236 73 233.5 Q70 231 68 229 Q59 220 62 212 Q63 206 67 201 Q71 196 75 192 Q79 188 84 183 Q91 177 98 171.5 Q105 166 112 160 Q114 158 116.5 155 Q119 152 121 150 Q124 145 122 140 Q119 131 112 133 Q102 135 105 143 Q106 144 104 147 Q102 149 100.5 150 Q99 151 97 153 L61 180 Q45 191 38 207 Q37 209 36 212 Q35 215 35 218 Q32 229 45 242 Q48 244 50.5 246.5 Q53 249 56 251 Q81 269 105.5 287 Q130 305 154 322 Q156 324 159 325.5 Q162 327 164 329 Q170 331 172 332 Z " />
<glyph glyph-name="quotedbl" unicode="&#x22;" horiz-adv-x="186" d="M189 660 Q189 659 190 659 L193 659 Q200 656 197 649 L191 634 Q188 625 184.5 615.5 Q181 606 178 597 Q175 589 171 584 Q168 580 163.5 580 Q159 580 157 585 Q155 586 157 588 Q160 593 161 598 Q162 603 164 608 Q168 620 171.5 631.5 Q175 643 179 654 Q181 660 189 660 Z M160 660 Q161 660 162 659.5 Q163 659 164 659 Q172 656 169 649 L163 634 Q159 625 156 615.5 Q153 606 150 597 Q147 589 143 584 Q140 580 135 580 Q130 580 128 585 Q128 587 129 588 Q132 593 133 598 Q134 603 136 608 Q140 620 143.5 631.5 Q147 643 151 654 Q153 660 160 660 Z " />
<glyph glyph-name="quotesingle" unicode="&#x27;" horiz-adv-x="173" d="M172 660 Q173 660 174 659.5 Q175 659 176 659 Q184 656 181 649 L175 634 Q171 625 168 615.5 Q165 606 162 597 Q159 589 155 584 Q152 580 147 580 Q142 580 140 585 Q140 587 141 588 Q144 593 145 598 Q146 603 148 608 L163 654 Q165 660 172 660 Z " />
<glyph glyph-name="backslash" unicode="&#x5c;" horiz-adv-x="297" d="M247 64 Q246 64 245 64.5 Q244 65 242 65 Q235 68 235 73 Q235 81 232 89.5 Q229 98 227 106 Q222 126 216 146 Q210 166 205 186 Q194 232 183 277 Q172 322 161 368 Q147 428 135 486 Q123 544 114 603 Q113 608 112.5 614 Q112 620 112 626 Q112 631 115 631 Q122 631 127 627 Q131 623 130 620 Q130 617 131 616 Q139 578 146.5 539 Q154 500 162 462 Q174 405 186.5 349.5 Q199 294 213 237 Q221 208 227.5 179.5 Q234 151 242 122 Q244 114 246.5 105 Q249 96 251 88 Q253 83 253 78 Q253 73 253 68 Q252 64 247 64 Z " />
<glyph glyph-name="bracketleft" unicode="&#x5b;" horiz-adv-x="120" d="M255 641 Q256 640 256 637 Q254 634 251 634 Q250 633 247 633 Q243 635 239 634.5 Q235 634 231 633 Q226 632 221 631 Q216 630 211 629 Q203 627 198 618 Q187 601 180 584 Q169 559 159.5 535 Q150 511 141 486 Q122 434 105 382.5 Q88 331 71 279 Q59 242 46.5 205.5 Q34 169 22 133 Q20 125 18 118.5 Q16 112 14 104 Q13 100 13 92 Q13 91 17 88 L62 87 Q71 87 70 81 Q69 78 65 78 L64 78 L19 77 L10 77 Q0 77 -5 80 Q-10 83 -12 87 Q-14 91 -13.5 95 Q-13 99 -13 101 L-13 102 Q-11 110 -9 118.5 Q-7 127 -4 136 Q8 174 20.5 213 Q33 252 46 290 Q48 296 48 299 Q62 339 75 378.5 Q88 418 102 458 Q112 485 122 512.5 Q132 540 144 567 Q149 578 154 589 Q159 600 164 611 Q168 617 169 619 Q181 639 199 642 Q221 647 237 647 Q241 647 244.5 646 Q248 645 251 644 Q253 644 255 641 Z " />
<glyph glyph-name="bracketright" unicode="&#x5d;" horiz-adv-x="134" d="M176 640 Q192 634 189 612 Q187 603 185 594 Q183 585 181 576 Q175 549 166.5 522 Q158 495 149 467 Q144 454 140 441 Q136 428 131 415 Q124 397 117.5 378.5 Q111 360 104 341 Q96 322 89 303 Q82 284 74 265 Q66 246 59.5 227.5 Q53 209 45 189 Q38 171 31.5 152.5 Q25 134 18 116 Q16 112 15 108 Q14 104 12 100 L9 94 Q8 90 5 86 Q-1 78 -6 77 L-7 77 L-11 77 Q-16 77 -22 76.5 Q-28 76 -29 76 Q-30 76 -34.5 76 Q-39 76 -44.5 76.5 Q-50 77 -55 77.5 Q-60 78 -60 78 Q-62 80 -60.5 82 Q-59 84 -58 85 L-57 85 Q-55 87 -48 87 L-14 87 Q-12 89 -10.5 92 Q-9 95 -8 98 Q-3 109 0.5 119.5 Q4 130 8 141 Q17 164 25.5 188 Q34 212 42 235 Q50 257 57.5 278 Q65 299 73 320 L112 431 Q119 451 125 470.5 Q131 490 137 510 Q143 529 148.5 547.5 Q154 566 159 586 Q161 594 162 601.5 Q163 609 165 617 Q166 618 166 620 Q167 628 165.5 629.5 Q164 631 158 632 L126 632 Q124 633 120 633 Q115 635 115 639 L121 642 Q129 644 133 644 Q142 644 150.5 643.5 Q159 643 167 643 Q169 643 171.5 642 Q174 641 176 640 Z " />
<glyph glyph-name="semicolon" unicode="&#x3b;" horiz-adv-x="94" d="M18 197 Q18 200 19 202 Q21 208 26 207 Q32 207 37 204 Q41 198 39 194 Q35 182 30.5 170 Q26 158 20 147 Q17 141 12 136 Q9 133 4 133.5 Q-1 134 -3 138 Q-3 140 -1 142 Q6 155 10 168 Q14 181 18 194 L18 197 Z M58 289 Q61 289 67 287 Q71 286 71 281 Q71 276 67 276 Q57 275 50 282 Q47 285 50 287 Q56 289 58 289 Z " />
<glyph glyph-name="colon" unicode="&#x3a;" horiz-adv-x="119" d="M67 288 Q70 288 76 286 Q80 285 80 280 Q80 275 76 275 Q66 274 59 281 Q56 284 59 286 Q65 288 67 288 Z M49 235 L58 232 Q62 230 62 227 Q62 222 58 221 Q48 220 41 228 Q37 230 41 232 Q43 234 45 234 Q47 234 49 235 Z " />
<glyph glyph-name="hyphen" unicode="&#x2d;" horiz-adv-x="206" d="M162 259 Q160 257 158 257 Q157 258 156 258.5 Q155 259 154 260 Q151 263 147 263 Q132 263 117.5 262 Q103 261 88 259 Q83 258 77.5 257.5 Q72 257 66 257 Q60 257 55 262 Q53 264 53 266 Q53 269 55 270 Q57 270 58 270.5 Q59 271 61 271 L115 274 L138 274 Q142 274 145 273.5 Q148 273 152 272 Q159 270 161 263 Q162 262 162 259 Z " />
<glyph glyph-name="asterisk" unicode="&#x2a;" horiz-adv-x="206" d="M225 601 Q224 601 223 600.5 Q222 600 221 600 Q218 600 217 603 Q215 605 213.5 605 Q212 605 210 606 L181 606 L198 574 Q199 571 199 569 Q199 564 197 563 L197 562 L196 562 L195 562 Q193 562 191 566 L172 598 L161 565 Q160 563 158 561 Q154 557 151 558 L150 558 Q150 559 149 559 Q148 560 148.5 561.5 Q149 563 149 565 L157 590 Q154 588 151.5 586.5 Q149 585 146 583 Q141 579 133 581 Q132 581 131 581.5 Q130 582 129 582 Q126 585 129 586 Q130 589 133 590 Q141 596 145 598 L153 605 Q152 605 152 604.5 Q152 604 151 604 L129 604 Q122 604 118 610 Q118 611 117.5 611.5 Q117 612 117 614 Q115 617 119 617 Q121 618 124 618 Q133 618 142 618 Q151 618 160 619 L156 625 L147 643 Q144 648 146 655 Q147 656 147 657 Q147 658 148 659 Q149 660 152 658 Q153 656 153.5 655.5 Q154 655 155 653 Q159 645 162 641 L168 628 L169 631 Q171 636 172.5 641 Q174 646 176 651 Q180 659 186 660 Q187 661 190 661 Q193 661 193 658 Q192 656 192 655.5 Q192 655 191 653 Q190 649 189 646 Q188 643 186 639 L182 626 L207 645 Q209 645 212 646 Q214 646 215.5 646.5 Q217 647 219 645 L220 645 L220 643 Q221 642 217 638 L192 618 L202 618 Q206 617 209 616.5 Q212 616 216 615 Q222 612 225 605 L225 601 Z " />
<glyph glyph-name="B" unicode="B" horiz-adv-x="537" d="M518 631 Q508 629 504 628 Q488 623 472 615.5 Q456 608 441 600 Q365 554 307 491 Q213 389 149 272 Q143 262 138 252.5 Q133 243 128 232 Q125 226 118 223 L112 223 Q96 223 88 234 Q81 239 83 248 Q85 259 87 270.5 Q89 282 92 293 Q97 315 102.5 337 Q108 359 114 381 Q128 429 145 476 Q162 523 183 568 Q196 601 219 632 Q219 633 221 635 Q219 635 218 634 Q181 614 147.5 591 Q114 568 82 539 Q74 531 66 523 Q58 515 52 507 Q44 501 42 493 Q39 488 43 484 Q44 483 44 479 Q43 479 42 478.5 Q41 478 39 478 Q31 479 26 489 Q24 494 27 499 Q28 502 29.5 505.5 Q31 509 33 512 Q38 520 45 527.5 Q52 535 59 542 Q81 565 107 584 Q133 603 160 620 Q183 634 203.5 646 Q224 658 246 671 Q254 675 257 677 Q263 682 270 677 Q275 675 276 673 Q282 665 277 659 Q276 657 276 656 Q276 655 274 653 Q251 621 235.5 587 Q220 553 206 518 Q193 482 181.5 446 Q170 410 160 374 L151 344 Q152 343 151.5 342 Q151 341 152 339 Q153 341 154 341.5 Q155 342 155 344 Q175 373 197 401 Q219 429 242 456 Q268 487 296 515 Q324 543 357 568 Q380 586 405 602 Q430 618 457 630 Q479 640 502 645 Q517 648 526 643 Q530 641 534 638 Q538 628 536 621 Q531 614 527 605 Q516 593 506 582 Q496 571 485 560 Q463 537 441.5 514 Q420 491 398 466 Q385 450 372 434 Q359 418 348 401 Q343 394 338.5 387 Q334 380 331 372 Q330 369 330 364 Q330 355 335 351 Q339 349 342.5 346 Q346 343 351 341 Q362 335 373.5 329 Q385 323 396 316 Q413 305 428 293 Q443 281 456 265 Q471 248 479 231 Q504 174 476 113 Q459 77 435 49 Q394 1 348 -37 Q302 -75 246 -102 Q225 -112 204.5 -119 Q184 -126 162 -130 Q139 -133 121 -132 Q111 -130 104 -128.5 Q97 -127 90 -123 Q49 -105 54 -56 Q56 -39 63 -23 Q70 -7 81 7 Q90 20 99.5 30.5 Q109 41 122 50 Q145 66 169 81 Q193 96 217 109 Q234 117 251 124 Q268 131 285 135 Q303 140 317 137 Q332 134 339 121 Q341 117 341 113 Q341 109 342 104 Q339 98 335 100 Q327 101 326 110 Q327 113 325 119 Q325 126 316 126 Q307 127 295 124 Q280 120 266 114 Q252 108 239 101 Q215 88 192 74 Q169 60 148 44 Q130 30 116 14 Q102 -2 93 -23 Q82 -48 82 -72 Q84 -82 86 -87 Q89 -100 98.5 -106.5 Q108 -113 121 -113 Q137 -113 152 -109 Q167 -105 184 -99 Q210 -88 235.5 -73.5 Q261 -59 285 -42 Q320 -16 350.5 15 Q381 46 407 82 Q418 97 427 113 Q436 129 441 146 Q461 199 439 245 Q433 257 424 267 Q415 277 406 285 Q383 303 359 316 Q343 323 330 332 Q323 337 313 345 Q306 351 303 357 Q294 372 302 390 Q307 403 316 412 Q326 424 336 436.5 Q346 449 356 460 Q411 518 465 572 Q476 582 485.5 592 Q495 602 506 613 Q512 621 514 625 Q514 625 518 631 Z " />
<glyph glyph-name="C" unicode="C" horiz-adv-x="476" d="M122 -234 Q117 -233 111 -232.5 Q105 -232 100 -230 Q81 -225 66.5 -215.5 Q52 -206 40 -192 Q16 -165 3 -125 Q-13 -78 -14 -30 Q-16 7 -13 43.5 Q-10 80 -4 117 Q7 179 27 237.5 Q47 296 73 354 Q95 399 121 442 Q147 485 179 525 Q219 578 267 618 Q285 632 303 644.5 Q321 657 341 666 Q354 673 367 677 Q380 681 393 683 Q415 685 434 679.5 Q453 674 468 662 Q483 650 492 632 Q501 614 502 592 Q502 575 498.5 560 Q495 545 488 529 Q466 482 430 453 Q418 444 405.5 437.5 Q393 431 379 429 Q340 421 319 454 Q317 459 315 464 Q313 469 314 474 Q312 478 314 483 Q317 497 326 488 Q328 486 327 483 Q326 481 326 476 Q328 454 341 443 Q353 435 369 440 Q383 443 395.5 450 Q408 457 419 467 Q435 481 446.5 498.5 Q458 516 467 536 Q480 566 481 593 Q481 625 464 646 Q450 662 431 663 Q417 665 404 662 Q391 659 378 654 Q345 639 314 615 Q288 595 265 571 Q242 547 221 521 Q189 482 163.5 440 Q138 398 116 353 Q99 318 85 282.5 Q71 247 59 210 Q48 175 41 141 Q37 119 33.5 97 Q30 75 28 53 Q25 15 26 -23 Q27 -61 35 -97 Q43 -139 63 -171 Q70 -181 77.5 -189.5 Q85 -198 96 -204 Q104 -209 111.5 -212 Q119 -215 129 -214 Q134 -214 138 -213 Q142 -212 147 -210 Q157 -206 164.5 -201 Q172 -196 180 -191 Q208 -168 228 -142 Q249 -117 267.5 -90.5 Q286 -64 303 -36 Q320 -10 334.5 15.5 Q349 41 364 67 Q391 114 416.5 160.5 Q442 207 468 254 Q470 257 472 260 Q474 263 476 266 Q479 270 484 270 Q489 270 491 266 Q491 262 490 260 Q486 253 483.5 246.5 Q481 240 477 233 Q451 184 425 136 Q399 88 373 40 Q357 11 341.5 -16.5 Q326 -44 310 -72 Q296 -98 279.5 -121.5 Q263 -145 243 -167 Q235 -177 226.5 -186 Q218 -195 208 -203 Q193 -215 176.5 -223 Q160 -231 141 -233 Q140 -234 139 -234 Q138 -234 136 -235 Q132 -235 128.5 -234.5 Q125 -234 122 -234 Z " />
<glyph glyph-name="A" unicode="A" horiz-adv-x="442" d="M81 201 Q77 196 72 198 Q67 199 59 203 Q51 207 46 208 Q41 210 35 208.5 Q29 207 23 205 Q-1 197 -20.5 182 Q-40 167 -56 145 Q-65 131 -71.5 117.5 Q-78 104 -84 89 Q-89 75 -93.5 61.5 Q-98 48 -100 34 Q-105 6 -98 -13 Q-96 -19 -93 -24 Q-90 -29 -85 -33 Q-72 -44 -56 -35 Q-45 -31 -34 -23 Q-23 -15 -13 -5 Q-3 5 7 16 Q25 36 40.5 57.5 Q56 79 72 101 Q99 140 125 180 Q151 220 177 261 Q204 307 234 354 Q234 356 235 357 Q236 358 237 360 L217 360 Q209 360 202 359.5 Q195 359 187 358 Q170 357 153.5 356 Q137 355 120 353 Q103 351 86 349.5 Q69 348 52 346 Q38 344 23 343 Q8 342 -7 340 Q-24 338 -42.5 337 Q-61 336 -78 337 Q-92 338 -105.5 339.5 Q-119 341 -132 346 Q-148 351 -157 363 Q-167 375 -165 397 Q-165 399 -164.5 401.5 Q-164 404 -164 406 Q-162 413 -157 410 Q-153 406 -154 401 Q-154 391 -155 386 Q-157 377 -150 370 Q-145 363 -136 359 Q-128 355 -119 354 Q-110 353 -101 351 Q-85 349 -69 349.5 Q-53 350 -36 352 Q-23 353 -10.5 354 Q2 355 15 357 Q27 358 37 359 Q47 360 58 362 Q70 363 82.5 364 Q95 365 106 367 Q117 368 128.5 368.5 Q140 369 152 370 Q172 372 190.5 372.5 Q209 373 229 375 L246 375 Q249 380 252 383.5 Q255 387 257 392 Q283 434 308 475 Q333 516 359 558 Q370 575 380.5 592 Q391 609 402 626 Q408 637 415 645 Q424 658 433.5 661.5 Q443 665 454 662 Q476 656 476 631 Q477 623 476 614 Q475 605 473 597 Q468 580 463.5 563.5 Q459 547 453 530 Q446 510 439.5 489 Q433 468 427 447 Q421 430 415 412.5 Q409 395 404 377 Q402 376 402 372 Q407 371 411 370.5 Q415 370 419 369 Q431 367 443.5 365 Q456 363 467 359 Q472 357 476.5 354.5 Q481 352 485 348 Q488 345 490.5 341 Q493 337 494 332 Q495 323 487 315 Q483 310 477 307.5 Q471 305 467 307 Q461 310 464 319 L468 319 Q477 319 482 328 Q486 333 482 337 Q481 339 476 341 Q470 345 463 347 Q456 349 449 351 Q438 353 426 354.5 Q414 356 403 358 L398 358 Q395 353 394 347 Q383 315 374 283 Q365 251 356 219 Q345 178 335 138.5 Q325 99 314 58 Q306 31 299.5 3.5 Q293 -24 287 -51 Q285 -57 283 -67 Q283 -73 276 -75 Q264 -81 255 -75 Q251 -74 251 -67 Q252 -62 252 -57.5 Q252 -53 254 -48 Q259 -24 263.5 0 Q268 24 274 49 Q287 100 299 150 Q311 200 324 251 Q327 263 330 275 Q333 287 335 299 L350 356 Q352 358 352 361 Q329 362 306.5 362 Q284 362 261 362 Q259 358 257 356 Q228 311 200.5 266.5 Q173 222 144 177 Q108 119 65 61 Q51 44 38 27 Q25 10 9 -6 Q0 -14 -9.5 -22 Q-19 -30 -29 -36 Q-49 -49 -69 -49 Q-101 -49 -113 -21 Q-122 -1 -119 23 Q-110 89 -71 147 Q-36 199 21 214 Q49 223 71 208 L77 205 Q79 204 79 203.5 Q79 203 81 201 Z M433 616 L428 611 Q421 602 415 593.5 Q409 585 402 577 Q367 529 335.5 479.5 Q304 430 272 379 Q272 377 270 376 Q292 376 313.5 375.5 Q335 375 356 375 Q358 377 358 380 Q363 394 367.5 408.5 Q372 423 377 437 Q386 466 395.5 494.5 Q405 523 415 552 Q420 566 423.5 580.5 Q427 595 431 609 Q432 611 432 612.5 Q432 614 433 616 Z " />
<glyph glyph-name="quotedblleft" unicode="&#x201c;" horiz-adv-x="188" d="M189 660 Q189 659 190 659 L193 659 Q200 656 197 649 L191 634 L178 597 Q175 589 171 584 Q168 580 163.5 580 Q159 580 157 585 Q155 586 157 588 Q160 593 161 598 Q162 603 164 608 L179 654 Q181 660 189 660 Z M160 660 Q161 660 162 659.5 Q163 659 164 659 Q172 656 169 649 L163 634 Q159 625 156 615.5 Q153 606 150 597 Q147 589 143 584 Q140 580 135 580 Q130 580 128 585 Q128 587 129 588 Q132 593 133 598 Q134 603 136 608 L151 654 Q153 660 160 660 Z " />
<glyph glyph-name="quotedblright" unicode="&#x201d;" horiz-adv-x="188" d="M189 660 Q189 659 190 659 L193 659 Q200 656 197 649 L191 634 L178 597 Q175 589 171 584 Q168 580 163.5 580 Q159 580 157 585 Q155 586 157 588 Q160 593 161 598 Q162 603 164 608 L179 654 Q181 660 189 660 Z M160 660 Q161 660 162 659.5 Q163 659 164 659 Q172 656 169 649 L163 634 Q159 625 156 615.5 Q153 606 150 597 Q147 589 143 584 Q140 580 135 580 Q130 580 128 585 Q128 587 129 588 Q132 593 133 598 Q134 603 136 608 L151 654 Q153 660 160 660 Z " />
<glyph glyph-name="quoteright" unicode="&#x2019;" horiz-adv-x="172" d="M172 660 Q173 660 174 659.5 Q175 659 176 659 Q184 656 181 649 L175 634 Q171 625 168 615.5 Q165 606 162 597 Q159 589 155 584 Q152 580 147 580 Q142 580 140 585 Q140 587 141 588 Q144 593 145 598 Q146 603 148 608 L163 654 Q165 660 172 660 Z " />
<glyph glyph-name="quoteleft" unicode="&#x2018;" horiz-adv-x="175" d="M172 660 Q173 660 174 659.5 Q175 659 176 659 Q184 656 181 649 L175 634 Q171 625 168 615.5 Q165 606 162 597 Q159 589 155 584 Q152 580 147 580 Q142 580 140 585 Q140 587 141 588 Q144 593 145 598 Q146 603 148 608 L163 654 Q165 660 172 660 Z " />
</font>
</svg>
