<?xml version="1.0" encoding="UTF-8"?>
<svg xmlns="http://www.w3.org/2000/svg" xmlns:xlink="http://www.w3.org/1999/xlink" version="1.2" >
<font id="Santashoes">
<font-face  font-family="Santashoes" units-per-em="1000" ascent="750" descent="-250" font-style="normal" font-weight="400" font-stretch="normal" cap-height="700" x-height="500" underline-position="-75" underline-thickness="50" />
<missing-glyph  horiz-adv-x="167" d="" />
<glyph glyph-name="NULL" d="" />
<glyph glyph-name="nonmarkingreturn" unicode="&#xd;" horiz-adv-x="167" d="" />
<glyph glyph-name="space" unicode="&#x20;" horiz-adv-x="167" d="" />
<glyph glyph-name="E" unicode="E" horiz-adv-x="426" d="M290 393 Q328 420 358 464 Q379 493 397.5 524.5 Q416 556 431 588 Q440 606 447 623.5 Q454 641 457 658 Q469 721 439 731 Q423 739 394 731 Q371 725 345 710.5 Q319 696 293 677 Q253 647 213 609.5 Q173 572 135 526 Q121 507 107.5 488.5 Q94 470 81 448 Q74 435 67 422.5 Q60 410 54 396 Q32 333 51 305 Q62 294 77 288 Q97 283 120 283 Q138 281 156 280.5 Q174 280 192 278 Q199 278 199 274 Q199 270 199 270 Q203 266 196 263 Q196 261 193 261 Q163 246 132 225.5 Q101 205 69 179 Q24 141 -21 95.5 Q-66 50 -111 -4 Q-145 -46 -171 -89 Q-178 -100 -184.5 -111 Q-191 -122 -196 -134 Q-213 -169 -213 -194 Q-213 -219 -196 -227 Q-180 -232 -156 -223 Q-141 -217 -125.5 -206.5 Q-110 -196 -96 -183 Q-76 -167 -57 -148.5 Q-38 -130 -18 -111 Q11 -82 40 -50 Q69 -18 98 14 Q134 52 170 91 Q206 130 242 169 Q250 180 264 192 Q271 201 284 207 Q285 208 288 205 Q287 204 286 203.5 Q285 203 284 202 Q272 195 259 179 Q240 160 223.5 141.5 Q207 123 190 103 Q155 64 119.5 25.5 Q84 -13 49 -51 Q26 -77 2.5 -102.5 Q-21 -128 -46 -152 Q-64 -169 -81.5 -184.5 Q-99 -200 -117 -213 Q-145 -233 -170 -241 Q-187 -244 -199 -240.5 Q-211 -237 -219 -223 Q-224 -213 -225 -202 Q-226 -191 -224 -175 Q-222 -162 -217 -149 Q-212 -136 -204 -122 Q-193 -99 -180 -78.5 Q-167 -58 -152 -38 Q-129 -6 -105 22.5 Q-81 51 -55 79 Q-6 133 43 175 Q92 217 143 248 Q148 253 153.5 255.5 Q159 258 165 262 Q167 263 167.5 263.5 Q168 264 170 265 Q168 266 165 266 Q151 267 137.5 267.5 Q124 268 111 270 Q84 272 64 280 Q56 284 50 290 Q44 296 39 304 Q27 330 37 375 Q42 392 49 409 Q56 426 65 443 Q78 465 91 484.5 Q104 504 119 522 Q144 554 169.5 581 Q195 608 221 633 Q253 661 283 683 Q313 705 345 722 Q360 730 376.5 736 Q393 742 407 744 Q420 746 432 744 Q444 742 452 734 Q481 708 458 637 Q451 619 443.5 601.5 Q436 584 428 565 Q413 537 396 510 Q379 483 360 459 Q333 423 302 398 Q300 396 298 395.5 Q296 395 294 393 Q291 392 290 393 Z " />
<glyph glyph-name="F" unicode="F" horiz-adv-x="600" d="M1006 739 Q991 723 972 708 Q955 694 931 679.5 Q907 665 875 653 Q866 648 857 645 Q836 637 812 632.5 Q788 628 764 626 Q726 624 687.5 627.5 Q649 631 618 636 Q581 642 548 651 Q544 643 541.5 635.5 Q539 628 535 620 Q525 597 513.5 573.5 Q502 550 490 527 Q461 470 430.5 415 Q400 360 371 304 Q363 290 356 277.5 Q349 265 341 252 L320 217 Q342 221 359 223 Q376 225 384 227 Q413 232 421.5 229.5 Q430 227 432 225 Q435 217 429 207 Q425 202 422 206 Q422 206 422 210 Q423 214 425 220 Q425 225 421 225 L399 225 Q387 223 374.5 221 Q362 219 350 217 Q342 215 335.5 214 Q329 213 321 212 Q318 210 313 205 Q310 198 306 192 Q302 186 298 180 L297 179 Q282 156 266.5 132 Q251 108 234 85 Q183 13 124 -52 Q92 -86 56.5 -116 Q21 -146 -17 -170 Q-36 -182 -55.5 -192.5 Q-75 -203 -95 -210 Q-136 -222 -158.5 -214.5 Q-181 -207 -191 -193 Q-201 -179 -202.5 -164 Q-204 -149 -204 -144 Q-202 -116 -188 -86.5 Q-174 -57 -158 -32.5 Q-142 -8 -128 8.5 Q-114 25 -112 27 Q-89 51 -66 69 Q-43 87 -23 101 Q-18 103 -14 106 Q-10 109 -5 112 Q18 124 64.5 145.5 Q111 167 180 187 Q212 195 242.5 201.5 Q273 208 299 213 L318 244 Q341 282 362 319.5 Q383 357 403 395 Q428 440 452.5 485.5 Q477 531 501 578 Q510 595 518.5 613.5 Q527 632 536 649 Q536 649 538 653 Q472 668 402 670.5 Q332 673 267.5 660.5 Q203 648 149 620 Q95 592 61 546 Q41 519 33 497.5 Q25 476 24.5 458.5 Q24 441 29.5 427.5 Q35 414 43 405 Q57 385 80 378 Q82 377 85.5 375.5 Q89 374 93 374 Q115 370 144 381 Q153 385 162 388.5 Q171 392 179 397 Q199 408 218.5 420 Q238 432 257 444 Q267 451 277.5 458 Q288 465 298 471 Q302 473 306.5 475.5 Q311 478 315 480 Q322 483 327 482 Q334 478 330 469 Q329 466 325 460 Q319 452 315 460 Q319 464 320 466 Q321 468 322 471 Q324 477 323 478 Q321 479 316 475 Q311 471 310 470 Q283 452 256.5 434.5 Q230 417 202 401 Q174 384 140.5 372.5 Q107 361 75 372 Q71 374 68 376 Q51 384 38 401 Q22 421 19 442.5 Q16 464 21.5 484 Q27 504 37.5 522 Q48 540 59 554 Q70 568 79 576.5 Q88 585 90 586 Q92 588 94.5 590 Q97 592 99 594 Q125 615 152 629 Q179 643 207 653 Q227 659 246.5 663.5 Q266 668 286 670 Q310 674 333 675.5 Q356 677 379 677 Q398 678 416.5 677.5 Q435 677 453 675 Q470 673 485.5 670.5 Q501 668 518 666 Q523 665 528 664.5 Q533 664 538 663 L542 663 Q546 667 548 663 L548 662 L549 660 Q590 650 630 644 Q665 639 705 635 Q745 631 780 636 Q857 645 935 690 Q971 712 998 739 Q1000 740 1002 742 Q1004 744 1006 743 L1006 739 Z M294 205 L292 205 Q281 203 271 201 Q261 199 250 197 Q218 191 187.5 183.5 Q157 176 125 165 Q93 154 62 140.5 Q31 127 1 109 Q-73 67 -131 -4 Q-174 -56 -190 -114 Q-191 -118 -193.5 -132.5 Q-196 -147 -194.5 -163 Q-193 -179 -183.5 -193 Q-174 -207 -151 -210 Q-137 -212 -124 -209 Q-110 -206 -96.5 -200 Q-83 -194 -69 -187 Q-41 -173 -15.5 -155.5 Q10 -138 35 -118 Q96 -64 146 -3 Q184 43 218 90 Q252 137 284 187 L294 204 L294 205 Z " />
<glyph glyph-name="G" unicode="G" horiz-adv-x="533" d="M416 242 Q417 239 414.5 235.5 Q412 232 409 230 Q393 217 377 205 Q361 193 345 182 Q341 180 339 177.5 Q337 175 335 171 Q254 52 162 -49 Q67 -153 -37 -209 Q-53 -218 -67.5 -224.5 Q-82 -231 -96 -235 Q-100 -237 -103.5 -237 Q-107 -237 -111 -238 Q-111 -238 -113 -239 L-120 -239 Q-122 -238 -124.5 -238 Q-127 -238 -129 -237 Q-131 -236 -132.5 -235.5 Q-134 -235 -136 -233 Q-149 -221 -134 -192 Q-132 -187 -129.5 -182 Q-127 -177 -123 -172 Q-118 -164 -111.5 -156 Q-105 -148 -100 -141 Q-85 -126 -71 -112.5 Q-57 -99 -43 -85 Q-14 -60 13.5 -37.5 Q41 -15 69 5 Q107 34 145 59.5 Q183 85 221 111 Q245 127 268.5 142.5 Q292 158 315 173 Q319 175 321.5 178 Q324 181 327 185 Q347 216 366.5 248 Q386 280 403 312 Q410 324 416 336.5 Q422 349 429 361 Q431 366 434 372.5 Q437 379 439 384 Q440 386 440.5 389 Q441 392 443 395 Q441 394 439.5 394 Q438 394 436 393 Q432 390 427.5 387.5 Q423 385 420 382 Q412 377 404.5 370.5 Q397 364 389 359 Q359 335 330 309 Q301 283 272 258 Q244 234 217.5 211.5 Q191 189 165 168 Q144 152 124.5 138.5 Q105 125 85 114 Q70 106 55.5 101.5 Q41 97 28 96 Q-33 91 -34 166 Q-33 183 -29 202 Q-25 221 -18 241 Q-8 270 5.5 298 Q19 326 36 353 Q59 391 83 425.5 Q107 460 133 492 Q221 598 318 671 Q344 690 370 706 Q396 722 421 732 Q457 746 483 746 Q506 746 524 737 Q554 719 554 666 Q556 648 552.5 629 Q549 610 544 590 Q539 578 534 566 Q529 554 522 543 Q518 541 520 546 Q522 548 522.5 551 Q523 554 525 556 Q532 570 536 583.5 Q540 597 542 611 Q550 641 548 670 Q546 725 511 735 Q493 740 472.5 737.5 Q452 735 429 727 Q407 717 383.5 703.5 Q360 690 336 673 Q288 638 243 594.5 Q198 551 154 499 Q124 464 97.5 426.5 Q71 389 45 347 Q32 325 21 302 Q10 279 2 256 Q-8 233 -13.5 211.5 Q-19 190 -21 170 Q-20 154 -17.5 140.5 Q-15 127 -8 118 Q1 106 18 106 Q32 105 47.5 110 Q63 115 80 123 Q120 145 160 176 Q185 196 210 217 Q235 238 261 260 Q291 286 322 313.5 Q353 341 384 367 Q401 382 416 392 Q421 396 425.5 398.5 Q430 401 435 404 Q439 406 447 406 Q459 403 453 382 L438 349 Q400 274 355 204 Q354 203 354 202 Q354 201 352 199 Q354 201 355 201 Q356 201 357 202 Q371 211 383 220.5 Q395 230 408 240 Q410 241 412 242.5 Q414 244 416 242 Z M304 152 Q306 154 307 156 L306 156 Q306 155 305 155 Q304 155 304 154 Q293 147 281.5 139.5 Q270 132 259 125 Q221 99 181.5 73 Q142 47 102 18 Q71 -4 41 -26.5 Q11 -49 -18 -75 Q-35 -90 -51.5 -105.5 Q-68 -121 -85 -138 Q-93 -147 -101 -156.5 Q-109 -166 -117 -177 Q-120 -183 -123.5 -189 Q-127 -195 -129 -201 Q-134 -212 -132 -219.5 Q-130 -227 -125 -229 Q-124 -230 -118 -230 Q-108 -230 -97 -226 Q-84 -222 -71 -215.5 Q-58 -209 -44 -201 Q4 -175 49.5 -138 Q95 -101 139 -54 Q184 -6 224.5 45 Q265 96 304 152 Z " />
<glyph glyph-name="H" unicode="H" horiz-adv-x="606" d="M204 -227 Q206 -224 209 -224 Q213 -225 210 -235 Q205 -240 202 -241 Q192 -245 192 -232 Q193 -229 193 -225.5 Q193 -222 195 -217 Q198 -205 203 -192.5 Q208 -180 213 -168 Q227 -125 247 -78 Q257 -54 267.5 -29.5 Q278 -5 288 20 Q296 37 303.5 55.5 Q311 74 319 92 Q331 120 344 147.5 Q357 175 371 202 Q380 220 389 237 Q398 254 406 272 Q408 274 409 276 Q405 274 405 274 Q370 242 336 213 Q302 184 267 157 Q262 154 257.5 150 Q253 146 249 142 Q243 138 241 134 Q229 109 215.5 84.5 Q202 60 188 36 Q170 4 151 -26 Q132 -56 110 -84 Q91 -110 71 -132.5 Q51 -155 28 -173 Q11 -188 -5 -193 Q-15 -199 -22 -194 Q-38 -188 -31 -157 Q-27 -141 -20 -125.5 Q-13 -110 -5 -96 Q6 -79 16.5 -63.5 Q27 -48 40 -34 Q58 -14 76 4.5 Q94 23 114 40 Q140 65 167 87 Q194 109 222 131 Q224 133 225.5 135 Q227 137 229 140 Q291 263 350 388 Q361 412 371.5 436 Q382 460 392 483 Q415 539 431 589 Q439 615 442 636 Q445 667 429 676 Q424 680 417 681.5 Q410 683 403 684 Q377 684 345 671 Q318 660 291.5 644 Q265 628 239 609 Q206 584 173.5 555.5 Q141 527 109 492 Q88 468 68 441.5 Q48 415 29 386 Q15 366 4.5 344.5 Q-6 323 -15 302 Q-22 285 -25.5 270 Q-29 255 -32 239 Q-35 216 -35 195.5 Q-35 175 -30 158 Q-22 124 7 124 Q24 124 42 129 Q48 129 53 134 Q55 134 55 134 Q52 130 48 128 Q44 125 35 123 Q30 122 24 121.5 Q18 121 13 120 Q-26 117 -36 158 Q-47 207 -31 269 Q-25 289 -17.5 310 Q-10 331 1 351 Q15 377 30 400 Q45 423 62 444 Q114 512 170 561 Q240 628 314 666 Q332 676 348.5 683 Q365 690 381 693 Q397 696 411 695.5 Q425 695 436 687 Q446 679 450.5 664 Q455 649 451 626 Q450 618 449 610.5 Q448 603 446 594 Q439 571 432 548.5 Q425 526 414 503 Q394 450 371 399.5 Q348 349 322 298 Q306 264 289.5 230.5 Q273 197 256 162 Q256 161 254 157 Q256 158 257 159 Q290 185 322.5 211.5 Q355 238 388 268 Q395 273 401 279 Q407 285 414 291 Q420 295 424 304 Q453 358 483.5 411 Q514 464 546 516 Q567 553 590 588 Q613 623 636 657 Q653 683 674 710 L694 730 Q696 732 699.5 735 Q703 738 705 739 Q719 748 719 728 Q720 724 719 719 Q718 714 717 709 Q709 685 701 665 Q689 636 674 608.5 Q659 581 643 555 Q610 503 575 457.5 Q540 412 502 370 Q488 356 474.5 341 Q461 326 447 312 Q445 310 443.5 308 Q442 306 440 304 Q410 248 382 192 Q354 136 327 79 Q318 59 309.5 39 Q301 19 292 0 Q283 -23 273.5 -45 Q264 -67 254 -90 Q244 -116 233 -142.5 Q222 -169 213 -195 Q211 -203 208.5 -210.5 Q206 -218 204 -226 L204 -227 Z M215 115 Q214 115 213 114 Q184 91 156 67 Q128 43 99 15 Q83 0 67.5 -16 Q52 -32 38 -50 Q13 -80 -4 -112 Q-9 -123 -13 -133.5 Q-17 -144 -21 -155 Q-22 -161 -23 -167 Q-24 -173 -23 -178 Q-20 -187 -13 -186 Q-1 -181 9 -173 Q20 -165 29.5 -156.5 Q39 -148 49 -138 Q70 -116 90 -90.5 Q110 -65 128 -37 Q151 -2 172 36 Q193 74 213 112 Q215 114 215 115 Z M454 330 Q457 332 460 336 Q476 352 492 369 Q508 386 524 405 Q559 443 589 484.5 Q619 526 648 573 Q665 600 678.5 627 Q692 654 703 683 Q707 694 709.5 703 Q712 712 714 723 Q716 739 704 727 Q700 724 696.5 720 Q693 716 689 711 Q679 700 670 687.5 Q661 675 652 661 Q634 635 617 607.5 Q600 580 583 551 Q551 498 520 446 Q489 394 459 340 Q458 338 457 335.5 Q456 333 454 330 Z " />
<glyph glyph-name="I" unicode="I" horiz-adv-x="470" d="M238 118 Q236 117 235 115.5 Q234 114 233 113 Q219 97 205 81.5 Q191 66 177 49 Q173 44 170 39 Q167 34 162 29 Q128 -22 92.5 -72 Q57 -122 22 -172 Q11 -186 0 -200.5 Q-11 -215 -22 -229 Q-28 -237 -31 -240 Q-35 -244 -38 -242 Q-41 -241 -36 -230.5 Q-31 -220 -24 -207.5 Q-17 -195 -10 -184.5 Q-3 -174 -2 -172 Q24 -134 49.5 -100.5 Q75 -67 101 -36 Q112 -22 123 -8.5 Q134 5 143 20 Q185 80 224.5 142 Q264 204 303 268 Q329 313 356.5 358.5 Q384 404 408 452 Q420 476 432 500.5 Q444 525 455 551 Q462 568 467 584.5 Q472 601 477 618 Q479 629 481.5 640.5 Q484 652 484 663 Q487 707 467 717 Q461 722 453 723.5 Q445 725 437 725 Q421 725 403 719 Q385 713 368 703 Q311 674 257 626 Q191 573 133 504 Q112 481 92.5 453.5 Q73 426 54 395 Q43 378 32.5 359 Q22 340 15 319 Q8 302 3.5 287 Q-1 272 -3 256 Q-12 198 16 187 Q25 184 36 185 Q47 186 58 191 Q76 197 94.5 209.5 Q113 222 130 236 Q180 278 230 344 Q232 347 235.5 350.5 Q239 354 241 358 Q244 363 247 361 L247 360 Q247 359 246.5 359 Q246 359 246 358 Q227 332 210 310 Q193 288 173 268 Q147 242 122 221.5 Q97 201 71 189 Q57 181 45.5 178.5 Q34 176 22 177 Q16 178 10.5 179 Q5 180 1 184 Q-9 192 -12.5 207.5 Q-16 223 -15 241.5 Q-14 260 -9 279 Q-4 298 2 312 Q11 336 22 358.5 Q33 381 45 401 Q73 447 108 489 Q168 565 233 620 Q290 672 349 707 Q364 716 379.5 723.5 Q395 731 410 735 Q425 740 438 741 Q451 742 462 737 Q473 732 481 722 Q489 712 493 696 Q502 664 490 622 Q485 596 476.5 571.5 Q468 547 457 523 Q442 490 426 458.5 Q410 427 393 396 Q364 342 333.5 292.5 Q303 243 272 193 Q252 163 232.5 133.5 Q213 104 193 75 Q191 73 190 71 Q189 69 187 66 Q190 66 192 70 Q203 82 214 95 Q225 108 236 120 Q236 121 237 122 Q238 123 239 121 L239 119 Q239 118 238 118 Z M-24 -220 Q-22 -217 -12 -203.5 Q-2 -190 11.5 -171.5 Q25 -153 40 -131.5 Q55 -110 68 -91.5 Q81 -73 90 -59.5 Q99 -46 100 -43 Q97 -46 97 -46 Q79 -68 61.5 -90.5 Q44 -113 27 -139 Q13 -158 0 -178 Q-13 -198 -24 -220 Z " />
<glyph glyph-name="J" unicode="J" horiz-adv-x="343" d="M161 136 Q160 133 157 130 Q126 112 93 96 Q91 94 88.5 92 Q86 90 82 85 Q59 50 35 16 Q11 -18 -15 -50 Q-69 -119 -121 -164 Q-172 -208 -225 -231 Q-237 -235 -247 -237.5 Q-257 -240 -268 -239 Q-280 -237 -287 -228 Q-307 -207 -298 -160 Q-284 -104 -254 -63 Q-243 -49 -232.5 -38 Q-222 -27 -211 -19 Q-194 -8 -180 -0.5 Q-166 7 -151 13 Q-130 21 -110 28 Q-90 35 -70 41 Q-37 52 -4 62.5 Q29 73 62 87 Q67 90 70 93 Q73 96 77 103 Q134 188 187 276.5 Q240 365 292 461 Q307 491 322 522.5 Q337 554 351 586 Q357 599 362.5 612 Q368 625 372 639 Q381 666 384 692 Q387 723 370 728 Q363 729 355.5 726.5 Q348 724 340 720 Q326 713 312 702.5 Q298 692 285 681 Q237 640 192 591 Q147 542 103 482 Q86 459 70 434.5 Q54 410 40 384 Q28 364 17 341.5 Q6 319 -2 295 Q-7 278 -11 259.5 Q-15 241 -17 224 Q-17 215 -15 206.5 Q-13 198 -9.5 192.5 Q-6 187 0.5 185.5 Q7 184 16 189 Q25 194 34 202.5 Q43 211 51 221 Q54 224 56 223 L56 222 Q56 222 54 221 Q45 209 32.5 197 Q20 185 8 181 Q-4 177 -12.5 184 Q-21 191 -22 216 Q-24 248 -13 280 Q-6 303 2.5 324.5 Q11 346 22 366 Q38 395 54.5 422 Q71 449 88 474 Q120 520 154 559.5 Q188 599 224 634 Q244 656 265 675 Q286 694 307 711 Q318 719 330 726.5 Q342 734 353 738 Q361 740 367.5 740 Q374 740 380 735 Q389 729 391.5 713.5 Q394 698 393 677 Q390 661 386 646 Q382 631 376 614 Q365 585 353 557 Q341 529 327 501 Q307 457 283.5 415 Q260 373 237 332 Q203 274 169.5 219 Q136 164 101 110 Q100 109 99.5 108 Q99 107 97 106 Q98 106 98 105 Q103 107 107.5 109 Q112 111 117 113 Q127 120 136.5 125.5 Q146 131 157 137 L159 137 Q160 137 161 136 Z M61 77 Q61 78 63 80 Q62 80 61 79.5 Q60 79 59 79 Q43 73 27.5 66 Q12 59 -2 54 Q-31 45 -58 36.5 Q-85 28 -111 19 Q-127 13 -142 7.5 Q-157 2 -173 -6 Q-187 -13 -199 -21 Q-211 -29 -224 -41 Q-233 -49 -241 -58.5 Q-249 -68 -259 -80 Q-270 -100 -278 -121 Q-286 -142 -289 -164 Q-293 -188 -290 -204 Q-287 -220 -275 -226 Q-264 -230 -249 -227 Q-237 -224 -226 -219 Q-215 -214 -203 -207 Q-126 -165 -51 -72 Q-22 -39 5.5 -2 Q33 35 60 76 L61 77 Z " />
<glyph glyph-name="K" unicode="K" horiz-adv-x="473" d="M642 680 Q643 678 641 676 Q639 673 635 670 Q631 667 629 672 Q624 667 620 664 Q616 661 612 657 Q596 643 581.5 629.5 Q567 616 553 603 Q521 572 489 541 Q457 510 425 478 Q399 452 373.5 425.5 Q348 399 322 371 Q257 303 194 231 Q207 169 216 105.5 Q225 42 236 -22 Q244 -69 251.5 -116 Q259 -163 267 -211 Q268 -218 269 -224.5 Q270 -231 271 -237 Q274 -241 270 -243 L269 -243 Q267 -232 264.5 -219.5 Q262 -207 260 -196 Q250 -140 240.5 -83.5 Q231 -27 222 30 Q217 62 212.5 94 Q208 126 200 157 Q198 169 196.5 181 Q195 193 193 203 Q191 214 190 225 Q179 215 171 203 Q120 145 71 86 Q22 27 -25 -36 Q-45 -62 -63.5 -88 Q-82 -114 -102 -140 Q-106 -145 -109 -150 Q-112 -155 -117 -160 Q-120 -166 -126 -163 Q-128 -161 -125 -158 Q-125 -155 -124 -154 Q-76 -72 -29.5 7.5 Q17 87 68 166 Q113 235 157 303 Q201 371 246 439 Q270 475 294.5 511 Q319 547 343 583 Q353 599 362.5 615.5 Q372 632 383 648 Q389 659 394.5 670 Q400 681 403 694 Q406 702 408 711 Q409 725 402 729 Q396 732 390 732 Q365 733 339 721 Q317 711 296 697.5 Q275 684 254 667 Q225 644 198.5 618.5 Q172 593 146 562 Q126 540 109 516 Q92 492 78 464 Q60 436 50 399 Q45 382 44 366 Q44 363 43 361 Q46 326 74 338 Q77 341 80 338 Q78 337 77 337 Q64 328 52 333 Q43 336 40 345.5 Q37 355 38 369 Q39 394 49 419 Q59 444 70.5 466 Q82 488 96 510 Q113 536 132 558 Q151 580 171 601 Q231 664 298 708 Q314 718 329 725.5 Q344 733 360 738 Q370 741 379 742.5 Q388 744 396 742 Q398 741 400.5 740 Q403 739 405 738 Q416 732 417.5 718.5 Q419 705 414 688 Q410 676 404.5 664 Q399 652 393 641 Q379 616 365 592.5 Q351 569 336 546 Q303 496 270.5 447.5 Q238 399 205 349 Q69 143 -60 -68 Q-62 -71 -63 -73 Q-64 -75 -66 -78 Q-62 -77 -61 -73 Q-26 -28 8.5 16 Q43 60 79 102 Q114 144 150 185 Q186 226 222 266 Q246 294 271.5 321 Q297 348 322 376 Q370 427 418.5 476.5 Q467 526 517 573 Q541 596 565.5 619.5 Q590 643 614 664 Q619 669 624.5 672.5 Q630 676 635 680 Q638 683 640 683 Q643 683 642 680 Z M630 673 Q635 672 640 679 Q636 677 630 673 Z " />
<glyph glyph-name="L" unicode="L" horiz-adv-x="400" d="M386 -204 Q388 -202 389.5 -203.5 Q391 -205 389 -208 Q381 -224 371.5 -229 Q362 -234 352 -236 Q338 -239 325 -240 Q312 -241 298 -241 Q202 -241 119 -189 Q98 -176 78 -160 Q58 -144 39 -126 Q25 -111 9.5 -95 Q-6 -79 -23 -68 Q-24 -68 -26.5 -70.5 Q-29 -73 -30 -73 Q-56 -96 -79 -100 Q-95 -105 -104 -99 Q-111 -95 -114 -87 Q-120 -71 -108 -53 Q-99 -42 -87 -39 Q-70 -34 -58 -40 Q-46 -46 -33 -54 Q-30 -56 -26 -52 Q-11 -38 2 -21 Q15 -4 28 13 Q51 43 72 75.5 Q93 108 114 142 Q170 231 223 322.5 Q276 414 328 510 Q330 514 340 532.5 Q350 551 362 576 Q374 601 385.5 629 Q397 657 403.5 680.5 Q410 704 408 719.5 Q406 735 391 735 Q375 736 358 728.5 Q341 721 324 709.5 Q307 698 291.5 684.5 Q276 671 264 660 Q238 637 215 610 Q192 583 169 551 Q150 525 132.5 496.5 Q115 468 100 436 Q89 416 81 395 Q73 374 68 351 Q63 334 60 318.5 Q57 303 58 287 Q58 251 74 241 Q80 238 85.5 239 Q91 240 97 242 Q102 245 107.5 249 Q113 253 117 258 Q118 259 119 259.5 Q120 260 122 262 Q125 263 125 260 Q123 258 121 256.5 Q119 255 118 253 Q112 248 107 244 Q102 240 97 237 Q80 228 67 239 Q54 250 52 276 Q49 305 57 339 Q67 377 81 410 Q95 443 112 475 Q144 535 185 585 Q208 615 232.5 641 Q257 667 282 689 Q292 697 307.5 709 Q323 721 340.5 731 Q358 741 375 745.5 Q392 750 404 742 Q415 736 419.5 719 Q424 702 418 676 Q413 660 409 646.5 Q405 633 399 619 Q389 593 376.5 568 Q364 543 351 518 Q328 474 304.5 432.5 Q281 391 258 350 Q224 291 190 234 Q156 177 121 122 Q101 92 81 62.5 Q61 33 40 6 Q27 -12 13 -29 Q-1 -46 -16 -60 Q-17 -62 -17 -63 Q-1 -76 15 -93 Q31 -110 48 -125 Q85 -160 125.5 -185 Q166 -210 211 -221 Q254 -234 303 -234 Q314 -234 326.5 -233 Q339 -232 351 -230 Q360 -228 369.5 -223.5 Q379 -219 386 -204 Z M-35 -61 L-35 -59 Q-48 -50 -63.5 -44.5 Q-79 -39 -93 -50 Q-103 -54 -107 -66 Q-111 -78 -106 -86 Q-103 -92 -96 -92.5 Q-89 -93 -83 -92 Q-71 -88 -59 -80.5 Q-47 -73 -35 -62 L-35 -61 Z " />
<glyph glyph-name="M" unicode="M" horiz-adv-x="896" d="M130 160 Q126 153 116 149 Q108 145 100 144 Q92 143 83 143 Q60 146 41 156.5 Q22 167 7 189 Q-18 223 -16 272 Q-16 298 -9.5 321.5 Q-3 345 6 368 Q16 396 29 420.5 Q42 445 58 467 Q82 502 108.5 531 Q135 560 164 586 Q230 649 299 690 Q315 699 330.5 706 Q346 713 362 718 Q382 724 404 720 Q417 715 425.5 704 Q434 693 435 676 Q435 667 434 658.5 Q433 650 431 642 Q426 623 419.5 605.5 Q413 588 405 571 Q388 536 370 502 Q352 468 332 434 Q295 370 258 307.5 Q221 245 183 181 Q157 136 130.5 92 Q104 48 78 3 Q75 0 75 -3 L78 0 Q96 23 113.5 46 Q131 69 148 90 Q171 119 194 146.5 Q217 174 240 201 Q260 224 280.5 247 Q301 270 322 293 Q368 344 414.5 392.5 Q461 441 510 489 Q553 531 597 572 Q641 613 686 654 Q707 673 728.5 690.5 Q750 708 773 723 Q779 727 783.5 730 Q788 733 793 736 Q795 736 796 736.5 Q797 737 799 737 Q804 737 806.5 731.5 Q809 726 806 721 Q804 716 801.5 712 Q799 708 795 703 Q783 686 771 671 Q759 656 747 641 Q699 584 653.5 527 Q608 470 562 412 Q500 331 441.5 250.5 Q383 170 325 85 Q308 63 294.5 40 Q281 17 265 -6 Q263 -8 263 -11 L263 -12 Q265 -11 267 -7 Q284 14 300.5 35 Q317 56 334 76 Q359 107 383 137 Q407 167 433 195 Q458 224 483.5 252 Q509 280 535 309 Q564 338 593.5 368.5 Q623 399 652 428 Q700 476 748.5 521 Q797 566 848 611 Q877 636 906.5 659.5 Q936 683 967 703 Q978 710 988 715.5 Q998 721 1009 726 Q1014 728 1018 729 Q1022 730 1026 732 Q1034 732 1039 726 Q1044 718 1042 710 Q1040 705 1038 700.5 Q1036 696 1033 692 Q1025 681 1018 669.5 Q1011 658 1003 647 Q977 612 949 576 Q921 540 894 505 Q825 413 760.5 319 Q696 225 636 122 Q609 76 585 29 Q561 -18 541 -69 Q515 -131 500 -197 Q499 -202 498.5 -207 Q498 -212 498 -218 Q498 -219 497.5 -221 Q497 -223 497 -225 Q499 -223 501 -222.5 Q503 -222 505 -220 Q510 -215 515.5 -209 Q521 -203 525 -195 Q527 -191 528.5 -191 Q530 -191 534 -193 Q533 -195 533 -197 Q522 -220 506 -231 Q499 -235 494 -232 Q492 -229 490 -227 Q488 -225 488 -222 Q489 -217 488.5 -211.5 Q488 -206 490 -201 Q493 -180 498.5 -159 Q504 -138 509 -117 Q524 -69 543.5 -24 Q563 21 586 65 Q616 125 649.5 180 Q683 235 718 289 Q766 362 816 430.5 Q866 499 919 566 Q936 589 955 612 Q974 635 992 658 Q1000 668 1007.5 679 Q1015 690 1022 701 Q1024 703 1026 707 Q1028 711 1030 714 Q1031 715 1031 716.5 Q1031 718 1032 720 Q1024 721 1018 718 Q1007 714 995 708 Q983 702 972 695 Q946 681 921.5 663 Q897 645 874 626 Q827 587 783 546 Q739 505 694 463 Q662 431 629.5 399 Q597 367 565 332 Q547 315 530 296 Q513 277 495 258 Q466 226 438 193.5 Q410 161 383 126 Q363 102 343.5 77.5 Q324 53 304 27 Q292 10 279.5 -5 Q267 -20 253 -37 Q251 -40 248.5 -43 Q246 -46 244 -48 Q241 -54 236 -49 Q230 -46 233 -40 Q235 -34 238 -29 Q241 -24 244 -19 Q258 7 274 32 Q290 57 305 81 Q340 135 377 185.5 Q414 236 452 287 Q503 357 554 423.5 Q605 490 659 556 Q688 589 715 622 Q742 655 770 689 Q781 702 791 717 Q794 721 795 726 Q795 725 790 723 Q780 715 769.5 709 Q759 703 749 695 Q720 674 692.5 650 Q665 626 636 602 Q584 554 534 505.5 Q484 457 434 405 Q410 381 388 357 Q366 333 344 309 Q307 268 271.5 228 Q236 188 201 146 Q166 104 133.5 62 Q101 20 70 -24 Q53 -50 36.5 -75 Q20 -100 3 -126 Q-3 -135 -10 -130 Q-12 -125 -10 -123 Q-9 -116 -5 -109 Q15 -72 37 -34 Q59 4 79 42 Q133 136 187.5 227.5 Q242 319 296 413 Q339 483 379 558 Q389 578 398 597 Q407 616 413 638 Q418 653 421 668 Q422 673 422 683 Q420 700 411 705 Q398 711 379 708 Q364 706 349.5 700.5 Q335 695 321 688 Q291 673 263.5 654 Q236 635 208 612 Q184 592 161 571 Q138 550 116 525 Q93 499 71 469.5 Q49 440 32 407 Q8 363 -3 311 Q-7 293 -8 275 Q-9 257 -6 240 Q-4 220 4 204.5 Q12 189 23 178 Q40 163 58 155.5 Q76 148 97 151 Q113 151 125 160 Q127 161 130 160 Z " />
<glyph glyph-name="N" unicode="N" horiz-adv-x="623" d="M152 32 Q157 41 163.5 50 Q170 59 175 67 Q197 101 219.5 134 Q242 167 265 202 Q285 232 306 262.5 Q327 293 349 322 Q373 357 397.5 389 Q422 421 446 453 Q457 468 467.5 482 Q478 496 489 510 Q523 552 558.5 594 Q594 636 632 674 Q649 690 665 704.5 Q681 719 700 730 Q711 738 721 742.5 Q731 747 742 745 Q760 738 752 716 Q747 696 735 678.5 Q723 661 713 644 Q687 609 662 573 Q637 537 613 501 Q554 418 499 331.5 Q444 245 391 151 Q358 91 328.5 29 Q299 -33 272 -99 Q260 -127 248.5 -154.5 Q237 -182 226 -211 Q224 -215 223 -218 Q222 -221 223 -226 Q224 -232 219 -241 Q215 -247 209 -242 Q205 -240 207 -232 Q209 -222 212.5 -214 Q216 -206 219 -197 Q234 -160 249.5 -123.5 Q265 -87 279 -50 Q296 -11 313 26.5 Q330 64 349 101 Q378 161 411 216.5 Q444 272 477 328 Q519 394 562.5 457 Q606 520 651 583 Q668 606 683.5 628.5 Q699 651 716 674 Q721 682 727 691.5 Q733 701 738 711 Q741 717 744.5 727 Q748 737 737 738 Q723 735 711 727.5 Q699 720 685 710 Q664 695 645 677.5 Q626 660 607 641 Q586 617 565 593 Q544 569 523 543 Q487 498 451.5 453 Q416 408 382 360 Q365 337 348 312.5 Q331 288 313 262 Q270 201 229.5 137.5 Q189 74 147 9 Q135 -11 122.5 -30 Q110 -49 99 -68 Q90 -82 82.5 -97.5 Q75 -113 68 -127 Q60 -140 52 -152.5 Q44 -165 36 -177 Q36 -180 33 -183 Q26 -195 18 -181 Q18 -178 19 -177 Q42 -139 62 -100.5 Q82 -62 102 -24 Q137 45 170.5 113 Q204 181 238 253 Q254 290 270 326.5 Q286 363 300 401 Q309 425 317 448 Q325 471 330 497 Q332 511 334 524.5 Q336 538 335 552 Q334 557 334.5 561.5 Q335 566 334 571 Q328 605 302 611 Q280 615 255 607 Q200 589 152 544 Q122 517 96.5 482.5 Q71 448 51 408 Q28 367 11 323.5 Q-6 280 -19 232 Q-34 187 -37 136 Q-38 121 -37.5 106 Q-37 91 -33 75 Q-31 70 -29 64.5 Q-27 59 -25 54 Q-18 40 -8 35.5 Q2 31 13 31 Q34 32 55 47 Q64 52 71.5 57.5 Q79 63 87 68 Q89 73 92 68 L92 67 Q81 57 69 48.5 Q57 40 45 34 Q38 31 31 28.5 Q24 26 16 25 Q3 23 -8 30 Q-33 41 -39 74 Q-42 84 -43 93.5 Q-44 103 -44 113 Q-45 136 -42 158.5 Q-39 181 -34 204 Q-28 233 -19 259.5 Q-10 286 -1 313 Q13 350 29 384 Q45 418 65 449 Q127 549 209 598 Q240 614 268 620 Q288 625 307 619 Q325 613 335.5 594 Q346 575 348 549 Q350 531 348 513.5 Q346 496 341 479 Q335 452 327 427 Q319 402 309 377 Q291 329 271 283.5 Q251 238 229 193 Q212 154 192.5 116 Q173 78 154 39 Q152 35 152 33 L152 32 Z " />
<glyph glyph-name="O" unicode="O" horiz-adv-x="563" d="M541 565 Q536 531 525.5 498.5 Q515 466 501 434 Q487 402 470.5 371 Q454 340 437 310 Q411 263 383 221.5 Q355 180 325 138 Q283 82 240.5 30.5 Q198 -21 152 -69 Q123 -101 92.5 -128.5 Q62 -156 30 -179 Q7 -196 -17.5 -210 Q-42 -224 -66 -233 Q-92 -243 -118 -243 Q-149 -243 -174 -227 Q-219 -193 -207 -103 Q-204 -72 -195.5 -43 Q-187 -14 -175 15 Q-160 47 -143 76.5 Q-126 106 -107 133 Q-84 166 -58.5 194 Q-33 222 -7 245 Q-4 247 0 250 Q3 252 7 255.5 Q11 259 16 264 Q17 265 19 270 Q31 305 45.5 338 Q60 371 77 402 Q94 434 113 462 Q132 490 152 518 Q197 578 250 626 Q314 684 376 715 Q392 723 406.5 729 Q421 735 438 737 Q473 745 497 735 Q540 717 546 645 Q548 626 546 605.5 Q544 585 541 565 Z M525 548 Q532 571 536 595 Q540 619 538 642 Q537 668 530.5 687 Q524 706 510 717 Q504 722 495.5 725 Q487 728 478 730 Q461 733 443.5 729.5 Q426 726 408 720 Q384 711 360 698 Q336 685 313 668 Q274 640 236 604 Q198 568 162 521 Q137 490 115.5 456 Q94 422 74 385 Q62 362 51.5 338.5 Q41 315 30 289 Q28 281 25 272 L23 271 L23 270 Q40 283 61.5 298 Q83 313 102 323 Q121 333 135 333.5 Q149 334 152 318 L152 317 Q147 327 131 326 Q117 325 92 312.5 Q67 300 22 264 L22 262 Q21 259 19.5 251 Q18 243 16 238 Q14 233 13 227.5 Q12 222 11 217 Q9 204 7.5 191.5 Q6 179 7 168 Q8 149 12 135.5 Q16 122 27 114 Q29 112 32 111.5 Q35 111 37 110 Q48 107 59.5 110 Q71 113 82.5 120 Q94 127 104.5 136.5 Q115 146 124 155 Q130 162 136.5 169 Q143 176 149 185 Q149 185 150 186 L151 187 L152 188 Q144 175 134 163 Q126 152 114 140 Q102 128 88 119 Q86 115 77 112 Q72 108 66 107 Q62 105 57 105 Q53 104 50.5 103.5 Q48 103 43 104 Q9 105 0 157 Q-1 172 0.5 187 Q2 202 5 219 Q7 228 9.5 237.5 Q12 247 14 255 L13 255 Q12 254 11.5 254 Q11 254 10 253 Q5 249 1.5 246 Q-2 243 -7 238 Q-33 215 -58 186.5 Q-83 158 -106 125 Q-123 101 -138.5 74 Q-154 47 -167 17 Q-180 -12 -188.5 -42 Q-197 -72 -201 -104 Q-203 -121 -203 -136 Q-203 -151 -201 -165 Q-197 -188 -187.5 -202.5 Q-178 -217 -164 -224 Q-128 -241 -86 -227 Q-68 -222 -49 -212.5 Q-30 -203 -11 -191 Q21 -171 52 -144.5 Q83 -118 112 -88 Q146 -54 179 -17 Q212 20 243 60 Q279 105 313.5 151.5 Q348 198 382 249 Q428 318 467 400 Q485 435 500.5 471 Q516 507 525 548 Z " />
<glyph glyph-name="P" unicode="P" horiz-adv-x="820" d="M816 577 Q814 552 807.5 529 Q801 506 791 483 Q772 434 742 390 Q717 352 689.5 319.5 Q662 287 635 258 Q565 183 490 134 Q461 116 433.5 102.5 Q406 89 377 80 Q372 79 367.5 77.5 Q363 76 359 75 Q323 69 302 75 Q280 80 266 91.5 Q252 103 244 115 Q234 129 228 145 Q208 119 188.5 93.5 Q169 68 151 41 Q138 24 124.5 5.5 Q111 -13 99 -32 Q88 -48 79 -64 Q70 -80 59 -97 Q43 -127 24.5 -156.5 Q6 -186 -12 -216 Q-17 -223 -22 -232 Q-30 -241 -35 -229 Q-32 -227 -31 -224.5 Q-30 -222 -28 -220 Q35 -113 98 -6.5 Q161 100 225 207 Q260 265 293 324 Q326 383 357 445 Q374 476 390.5 507 Q407 538 422 570 Q426 583 432 597 Q438 611 443 626 Q448 641 451.5 655.5 Q455 670 454 684 Q455 708 444 719 Q438 726 429.5 729 Q421 732 411 732 Q401 732 391.5 729.5 Q382 727 375 725 Q286 698 200 609 Q165 572 133 524.5 Q101 477 75.5 424.5 Q50 372 31.5 316.5 Q13 261 5 209 Q-2 174 1 137 Q4 100 19 90.5 Q34 81 54 87.5 Q74 94 95 110.5 Q116 127 131 142 Q135 144 134 142 Q132 137 128 133 Q124 129 120 125 Q106 111 89.5 98 Q73 85 56.5 79.5 Q40 74 25 79.5 Q10 85 -1 108 Q-9 153 -4 203.5 Q1 254 17 305.5 Q33 357 57.5 407.5 Q82 458 112 504 Q142 550 175 588.5 Q208 627 241 655 Q307 712 373 734 Q390 740 409 742 Q440 742 452.5 721 Q465 700 460 664 Q459 646 453.5 627.5 Q448 609 442 591 Q433 566 423 544 Q413 522 402 499 Q359 411 313 330 Q270 255 227 182 Q184 109 141 37 Q198 114 257.5 192 Q317 270 380.5 345 Q444 420 512 490 Q580 560 655 622 Q660 625 664 628 Q668 631 673 635 Q687 645 707 656 Q727 667 747.5 670.5 Q768 674 785.5 667 Q803 660 812 635 Q817 618 817 602 Q817 586 816 578 L816 577 Z M787 502 Q796 523 801.5 546 Q807 569 810 592 Q812 608 808.5 622.5 Q805 637 799 648 Q788 662 771.5 665 Q755 668 735 662 Q723 657 709 649 Q695 641 679 632 Q656 615 633 596 Q610 577 586 555 Q535 509 487.5 457 Q440 405 392 349 Q378 330 361.5 311.5 Q345 293 331 274 Q320 262 306.5 245 Q293 228 279 210.5 Q265 193 252.5 176.5 Q240 160 231 149 Q239 132 250 119 Q260 108 273.5 97.5 Q287 87 305 84 Q308 84 310 83.5 Q312 83 314 83 L318 83 Q330 83 344 84.5 Q358 86 370 90 Q399 99 429 114.5 Q459 130 489 150 Q560 197 627 269 Q647 292 667.5 316 Q688 340 707 366 Q712 372 715.5 376.5 Q719 381 721 386 Q741 412 757.5 440 Q774 468 785 498 Q785 500 787 502 Z " />
<glyph glyph-name="Q" unicode="Q" horiz-adv-x="596" d="M168 -92 Q169 -93 169 -93.5 Q169 -94 171 -95 Q194 -118 217.5 -139.5 Q241 -161 267 -180 Q272 -183 276.5 -185.5 Q281 -188 286 -189 Q293 -191 297 -182 Q300 -180 301 -181 Q302 -182 302 -186 Q297 -195 292 -195 Q290 -197 287 -196 Q284 -195 282 -194 Q274 -191 266 -186 Q258 -181 250 -176 Q228 -158 206.5 -138.5 Q185 -119 164 -98 Q164 -97 162 -96 Q162 -97 160.5 -98.5 Q159 -100 159 -101 Q136 -123 112.5 -143.5 Q89 -164 64 -181 Q41 -198 17.5 -209 Q-6 -220 -30 -228 Q-67 -239 -98 -233 Q-118 -228 -133.5 -216 Q-149 -204 -159 -181 Q-168 -164 -170.5 -143.5 Q-173 -123 -171 -100 Q-169 -81 -163 -64.5 Q-157 -48 -149 -32 Q-110 38 -52 53 Q-34 58 -16.5 56.5 Q1 55 18 48 Q57 32 91 -5 Q105 -20 119 -36 Q133 -52 147 -68 Q150 -70 152 -73 Q154 -76 157 -80 Q158 -78 159 -77.5 Q160 -77 162 -75 Q200 -35 236 8 Q272 51 308 96 Q343 140 375.5 185.5 Q408 231 439 280 Q460 315 480 350 Q500 385 517 423 Q528 447 537.5 471 Q547 495 554 520 Q559 545 563.5 569 Q568 593 568 616 Q567 698 517 722 Q506 729 494.5 731 Q483 733 472 733 Q451 733 430 727 Q409 721 388 712 Q354 697 321.5 674.5 Q289 652 258 624 Q234 603 211.5 578.5 Q189 554 168 528 Q142 494 119 458.5 Q96 423 77 384 Q62 356 50 326 Q38 296 29 266 Q23 241 19.5 217.5 Q16 194 16 170 Q18 153 21 137.5 Q24 122 30 110 Q35 103 39 98.5 Q43 94 50 91 Q54 89 63 93 Q64 94 66 93 Q62 89 57 88 Q49 87 41 93 Q35 97 31 103.5 Q27 110 23 118 Q10 147 13 186 Q13 216 20 244 Q27 272 35 299 Q45 326 55.5 351 Q66 376 80 400 Q114 465 156 522 Q241 632 341 695 Q384 723 427 736 Q460 745 490 742 Q512 738 529.5 725.5 Q547 713 559 689 Q570 669 574 646 Q578 623 578 596 Q577 567 571.5 538 Q566 509 557 481 Q548 452 536.5 426 Q525 400 512 374 Q491 331 467.5 292 Q444 253 418 216 Q361 132 299 56 Q237 -20 170 -89 Q170 -91 168 -92 Z M153 -85 Q149 -80 145 -76 Q141 -72 138 -68 Q124 -53 111 -37.5 Q98 -22 84 -7 Q59 21 27 37 Q10 45 -6.5 48 Q-23 51 -42 48 Q-97 36 -136 -27 Q-156 -59 -163 -94 Q-170 -149 -147 -188 Q-138 -205 -124 -213.5 Q-110 -222 -94 -224 Q-64 -227 -35 -216 Q-14 -211 7 -200 Q28 -189 48 -175 Q74 -157 99.5 -134.5 Q125 -112 150 -88 Q151 -86 153 -85 Z " />
<glyph glyph-name="R" unicode="R" horiz-adv-x="733" d="M-33 204 Q-16 281 19 352.5 Q54 424 96 487 Q160 582 238 654 Q275 686 312.5 712 Q350 738 397 741 Q412 739 423 730 Q442 712 439 669 Q438 652 433.5 636.5 Q429 621 422 605 Q413 580 401.5 556 Q390 532 379 509 Q342 440 304 374 Q266 308 227 242 Q194 189 162.5 138 Q131 87 99 35 Q98 34 94 28 Q95 30 96 30.5 Q97 31 98 32 Q149 102 200.5 169 Q252 236 306 301 Q347 352 389.5 399.5 Q432 447 477 492 Q505 521 534 547.5 Q563 574 594 598 Q617 615 641 630 Q665 645 690 656 Q717 670 746 670 Q752 669 758 667.5 Q764 666 770 661 Q794 647 784 604 Q776 573 766 552 Q755 532 744 514.5 Q733 497 719 480 Q698 451 674 426.5 Q650 402 626 381 Q596 356 566.5 335.5 Q537 315 507 296 Q465 269 423.5 246.5 Q382 224 340 202 Q326 195 312 188.5 Q298 182 285 174 Q281 172 277 170 Q273 168 271 165 Q258 155 258 140 Q259 135 259 130 Q259 125 259 120 Q261 109 263 99 Q265 89 267 78 Q281 13 297 -49.5 Q313 -112 331 -173 Q336 -184 339 -193.5 Q342 -203 346 -214 Q348 -217 348.5 -220 Q349 -223 351 -226 Q354 -236 362 -236 Q363 -236 363 -237 Q363 -239 364 -240 Q362 -241 362 -241 Q353 -241 348 -233 Q346 -229 344 -225.5 Q342 -222 340 -218 Q332 -198 325.5 -176.5 Q319 -155 313 -134 Q296 -81 282 -26 Q268 29 257 87 Q255 97 253 107 Q251 117 250 128 Q251 133 250.5 138.5 Q250 144 250 148 Q252 156 254 160.5 Q256 165 259 169 Q263 172 266 174.5 Q269 177 274 179 Q286 186 299 193 Q312 200 325 206 Q362 226 397.5 244.5 Q433 263 470 286 Q505 307 538.5 330 Q572 353 607 382 Q633 403 657 428 Q681 453 704 482 Q718 499 730 516.5 Q742 534 754 553 Q759 565 764 577 Q769 589 774 602 Q776 610 777 616 Q778 622 778 629 Q778 645 771 653 Q767 655 763 657 Q759 659 754 660 Q739 663 720 658 Q697 653 674.5 641 Q652 629 628 614 Q599 594 571.5 571 Q544 548 516 521 Q480 488 446 451.5 Q412 415 379 377 Q344 339 310.5 298.5 Q277 258 245 215 Q213 176 183 135.5 Q153 95 122 53 Q94 15 66 -25 Q38 -65 11 -107 Q4 -118 -2.5 -128.5 Q-9 -139 -16 -150 Q-18 -154 -21.5 -155 Q-25 -156 -27 -152 Q-29 -149 -27 -145 Q-25 -143 -24 -141.5 Q-23 -140 -22 -138 Q-1 -103 19 -69.5 Q39 -36 60 -3 Q107 75 154 152 Q201 229 248 307 Q277 355 306 404 Q335 453 362 504 Q373 527 385.5 550.5 Q398 574 409 600 Q414 612 419 625.5 Q424 639 426 653 Q429 660 430 668 Q431 676 432 684 Q433 720 412 729 Q406 734 397.5 734.5 Q389 735 380 733 Q359 729 339.5 720 Q320 711 299 697 Q270 678 242.5 653.5 Q215 629 189 599 Q151 556 115.5 507 Q80 458 50.5 405 Q21 352 -0.5 295 Q-22 238 -33 180 Q-36 160 -32.5 137.5 Q-29 115 -15 101 Q-13 99 -10.5 99 Q-8 99 -6 97 Q-2 94 -5 94.5 Q-8 95 -11 95 Q-22 100 -27.5 111 Q-33 122 -35 135 Q-37 148 -37 161.5 Q-37 175 -36 186 Q-35 191 -34.5 195.5 Q-34 200 -33 204 Z " />
<glyph glyph-name="S" unicode="S" horiz-adv-x="743" d="M95 -60 Q92 -60 93 -56 Q93 -54 93.5 -51.5 Q94 -49 94 -46 Q95 -40 89 -42 Q82 -42 78 -45 Q68 -50 59.5 -55.5 Q51 -61 42 -68 Q-14 -110 -60 -170 Q-72 -185 -78 -202 Q-78 -204 -79 -206 Q-80 -208 -80 -210 Q-83 -225 -73 -232 Q-67 -234 -61.5 -234.5 Q-56 -235 -50 -237 Q-39 -237 -28.5 -235.5 Q-18 -234 -7 -232 Q40 -224 84.5 -210.5 Q129 -197 175 -182 Q213 -170 250.5 -156 Q288 -142 325 -125 Q339 -117 353.5 -109.5 Q368 -102 382 -92 Q387 -87 392.5 -83.5 Q398 -80 403 -75 Q407 -71 410 -67 Q413 -63 414 -60 Q424 -45 417 -32 Q412 -23 405 -19 Q398 -14 391 -9 Q384 -4 377 -1 Q342 15 303 26 Q274 33 245.5 40 Q217 47 188 54 Q160 62 133 70 Q106 78 80 89 Q55 99 31 117 Q15 128 2 147 Q-33 194 -10 265 Q-3 285 7 304 Q17 323 30 341 Q43 360 56.5 377 Q70 394 86 411 Q121 448 159.5 479.5 Q198 511 240 540 Q328 601 419.5 645.5 Q511 690 607 719 Q630 726 653 731 Q676 736 700 739 Q719 741 738 740 Q757 739 775 734 Q786 730 796 724 Q806 718 814 708 Q833 676 821 634 Q816 617 808 600.5 Q800 584 790 568 Q767 531 744 494.5 Q721 458 697 422 Q680 394 662 368 Q644 342 627 314 Q624 310 620.5 306 Q617 302 614 298 Q612 296 611 295 Q610 294 607 292 Q606 288 603 293 Q603 296 604 297 Q612 310 620 321.5 Q628 333 636 345 Q671 399 704.5 453 Q738 507 770 562 Q781 579 790.5 596.5 Q800 614 806 632 Q808 640 810 648 Q812 656 813 665 Q816 689 803 701 Q795 709 787 713.5 Q779 718 769 720 Q754 723 737 723.5 Q720 724 703 723 Q660 719 617.5 706.5 Q575 694 531 678 Q462 651 395 616 Q328 581 262 537 Q230 517 200 493.5 Q170 470 141 444 Q115 420 89.5 393.5 Q64 367 44 336 Q31 318 20 298.5 Q9 279 2 256 Q-6 233 -7 211 Q-8 189 1 168 Q6 158 12.5 149.5 Q19 141 26 133 Q38 122 51 114.5 Q64 107 78 100 Q100 91 121.5 84 Q143 77 166 72 Q195 64 224.5 56.5 Q254 49 284 41 Q307 35 330.5 27.5 Q354 20 376 9 Q396 1 411 -13 Q418 -18 425 -31 Q437 -50 420 -71 Q411 -83 400 -91 Q386 -102 371.5 -110 Q357 -118 341 -126 Q313 -139 286.5 -149.5 Q260 -160 232 -170 Q187 -187 141.5 -200.5 Q96 -214 50 -225 Q31 -230 13 -234 Q-5 -238 -25 -240 Q-35 -241 -44.5 -241 Q-54 -241 -64 -239 Q-73 -237 -78 -232 Q-90 -222 -84 -204 Q-82 -199 -80 -193 Q-78 -187 -73 -180 Q-64 -164 -48 -146 Q-5 -95 44 -61 Q60 -50 73 -42 Q80 -39 89 -39 Q94 -37 96.5 -41 Q99 -45 97 -50 Q96 -52 96 -54.5 Q96 -57 95 -60 Z " />
<glyph glyph-name="T" unicode="T" horiz-adv-x="386" d="M496 611 L493 611 Q440 612 387.5 612.5 Q335 613 282 614 Q255 614 227 613.5 Q199 613 171 612 Q143 610 114.5 606.5 Q86 603 58 595 Q30 588 1.5 574.5 Q-27 561 -57 543 Q-112 509 -159 453 Q-183 423 -201.5 389.5 Q-220 356 -232 318 Q-239 298 -243 278.5 Q-247 259 -246 239 Q-246 206 -234 184 Q-222 162 -202 148 Q-188 139 -171 135.5 Q-154 132 -136 134 Q-107 136 -79 147.5 Q-51 159 -24 173 Q-7 184 8.5 194 Q24 204 41 217 Q60 233 74 251 Q74 259 78 252 Q75 248 72 243.5 Q69 239 64 235 Q53 221 40.5 211 Q28 201 14 192 Q-13 172 -42 157.5 Q-71 143 -100 135 Q-127 129 -151 129 Q-175 129 -197 140 Q-209 146 -219.5 156 Q-230 166 -238 181 Q-248 198 -250.5 218 Q-253 238 -251 263 Q-248 289 -239.5 315.5 Q-231 342 -219 368 Q-202 406 -177.5 438.5 Q-153 471 -124 500 Q-88 533 -50 556.5 Q-12 580 27 595 Q69 610 112 616 Q135 621 157 622.5 Q179 624 200 625 Q244 627 286 627 Q328 627 371 627 Q409 627 446 627 Q483 627 520 628 Q582 628 644 634 Q666 636 687 638 Q708 640 729 642 Q760 646 790.5 650 Q821 654 853 661 Q871 664 888 669 Q905 674 924 682 Q932 685 940 689.5 Q948 694 955 698 Q960 701 964.5 705 Q969 709 973 712 Q975 714 976.5 716 Q978 718 980 720 Q983 724 982 731 Q977 737 966 734 Q962 732 958 728.5 Q954 725 952 722 Q947 719 944.5 716 Q942 713 938 710 Q935 712 938 715 Q944 722 949.5 728 Q955 734 963 738 Q974 744 979.5 740 Q985 736 986 725 Q988 723 987 720.5 Q986 718 985 714 Q977 702 968 695 Q957 685 946.5 678 Q936 671 926 666 Q907 659 890 653.5 Q873 648 856 645 Q832 639 807.5 635.5 Q783 632 760 628 Q732 625 704 621.5 Q676 618 650 616 Q615 614 580 612.5 Q545 611 511 611 L506 611 Q474 543 441 480 Q408 417 367 354 Q319 275 269.5 197.5 Q220 120 167 44 Q152 22 138 1.5 Q124 -19 109 -40 Q108 -41 107.5 -42.5 Q107 -44 105 -46 Q110 -45 118 -45 Q135 -41 152.5 -38 Q170 -35 188 -32 Q197 -30 205.5 -27 Q214 -24 222 -22 Q229 -21 235 -16 Q247 -11 252 0 Q253 1 252 1.5 Q251 2 252 2 Q254 3 254 3 L254 2 Q255 1 256 1 Q254 -1 254 -2 Q251 -9 246 -12.5 Q241 -16 236 -20 Q230 -23 223 -25.5 Q216 -28 208 -31 Q191 -35 174.5 -38.5 Q158 -42 141 -45 Q132 -47 123 -47.5 Q114 -48 105 -49 Q100 -51 97 -55 Q81 -79 63 -102 Q45 -125 25 -145 Q9 -163 -8 -179.5 Q-25 -196 -43 -208 Q-57 -218 -72.5 -226 Q-88 -234 -102 -238 Q-115 -240 -126 -239.5 Q-137 -239 -148 -234 Q-151 -232 -155.5 -229 Q-160 -226 -162 -221 Q-171 -210 -171.5 -194.5 Q-172 -179 -167 -162 Q-148 -116 -110 -90 Q-98 -79 -85.5 -73.5 Q-73 -68 -59 -63 Q-46 -60 -33.5 -58.5 Q-21 -57 -9 -56 Q6 -54 20 -53.5 Q34 -53 48 -51 Q55 -51 62 -50.5 Q69 -50 77 -49 Q80 -49 85 -44 Q110 -9 134.5 26 Q159 61 182 96 Q233 174 282.5 251 Q332 328 380 407 Q403 445 425 485 Q447 525 470 563 Q478 577 484.5 588.5 Q491 600 496 611 Z M78 -53 L73 -53 Q65 -55 57.5 -55.5 Q50 -56 42 -57 Q27 -58 12 -58.5 Q-3 -59 -18 -61 Q-32 -63 -45.5 -66 Q-59 -69 -73 -74 Q-87 -82 -101 -91.5 Q-115 -101 -128 -116 Q-140 -128 -149 -143.5 Q-158 -159 -161 -177 Q-167 -214 -145 -227 Q-138 -230 -130 -230.5 Q-122 -231 -114 -230 Q-101 -228 -88.5 -221.5 Q-76 -215 -63 -207 Q-49 -198 -36 -186.5 Q-23 -175 -12 -162 Q12 -139 33.5 -112.5 Q55 -86 75 -57 Q75 -56 78 -53 Z " />
<glyph glyph-name="U" unicode="U" horiz-adv-x="886" d="M996 704 Q993 699 990.5 695 Q988 691 984 687 Q967 666 951 645 Q935 624 919 601 Q874 539 829.5 478.5 Q785 418 738 356 Q699 299 659 242.5 Q619 186 578 129 Q555 96 531 63.5 Q507 31 482 -1 Q459 -30 436 -57.5 Q413 -85 387 -111 Q377 -122 367 -130.5 Q357 -139 347 -147 Q336 -154 328 -158.5 Q320 -163 310 -166 Q305 -168 299 -168 Q293 -168 288 -164 Q272 -158 272 -135 Q271 -122 272 -110 Q276 -91 281.5 -73.5 Q287 -56 294 -39 Q305 -10 319 18.5 Q333 47 347 74 Q405 185 471 292 Q498 339 525.5 385 Q553 431 581 478 Q594 501 606.5 524 Q619 547 630 572 Q636 585 641.5 599 Q647 613 652 629 Q654 638 655 645.5 Q656 653 657 662 Q657 683 646 697 Q634 710 616 715 Q603 719 589 719.5 Q575 720 560 718 Q512 713 464 693.5 Q416 674 367 646 Q328 622 289 592.5 Q250 563 213 528 Q153 471 101 396 Q78 361 58 324 Q38 287 21 247 Q13 224 7 201.5 Q1 179 -4 155 Q-7 132 -7 110.5 Q-7 89 -2 69 Q9 29 39 10 Q57 -3 78.5 -6.5 Q100 -10 123 -8 Q176 0 230 37 Q251 51 271.5 66.5 Q292 82 312 102 Q315 104 317 106.5 Q319 109 321 111 Q324 114 326 111 Q324 109 324 107 Q322 105 320 104 Q318 103 316 101 Q293 77 269 58.5 Q245 40 221 25 Q201 14 183.5 5.5 Q166 -3 149 -8 Q116 -16 88 -13 Q60 -10 35 6 Q17 18 5 37 Q-7 56 -10 85 Q-15 118 -10 154 Q-5 189 7 223.5 Q19 258 33 290 Q54 334 79 373 Q104 412 132 447 Q210 548 301 611 Q396 682 499 716 Q519 723 539.5 727 Q560 731 580 731 Q596 732 609.5 729.5 Q623 727 637 719 Q650 709 658 695 Q666 681 668 664.5 Q670 648 666 627 Q664 608 657 590.5 Q650 573 642 556 Q632 535 621.5 515.5 Q611 496 600 476 Q575 432 550 389.5 Q525 347 499 304 Q466 248 433 192.5 Q400 137 369 80 Q339 23 312 -34 Q307 -50 300.5 -64.5 Q294 -79 289 -96 Q287 -104 285 -113.5 Q283 -123 283 -132 Q283 -139 285 -145 Q286 -158 298 -159 Q306 -160 320 -155 Q334 -148 345 -139.5 Q356 -131 368 -120 Q408 -85 443 -39 Q472 -4 499.5 31.5 Q527 67 556 105 Q610 180 662.5 254 Q715 328 770 403 Q815 466 860.5 528.5 Q906 591 951 654 Q962 669 974 683.5 Q986 698 997 713 Q999 717 1002 718 Q1005 721 1009 720 Q1012 717 1011 711 Q1010 708 1009 705 Q1008 702 1007 699 Q1002 687 995.5 674.5 Q989 662 982 650 Q968 627 954.5 604.5 Q941 582 928 560 Q850 438 772.5 315 Q695 192 623 65 Q584 -3 544.5 -70.5 Q505 -138 466 -205 Q461 -214 456.5 -223 Q452 -232 448 -240 Q443 -246 438 -243 Q436 -241 437 -234 Q441 -226 445 -219.5 Q449 -213 452 -205 Q483 -151 513.5 -97 Q544 -43 576 11 Q602 59 629.5 107.5 Q657 156 685 204 Q729 279 775 351.5 Q821 424 867 496 Q889 531 911.5 564.5 Q934 598 956 633 Q978 666 994 695 Q995 697 996 699 Q997 701 997 703 L996 704 Z " />
<glyph glyph-name="V" unicode="V" horiz-adv-x="916" d="M181 -7 Q179 -8 179 -8 Q178 -8 178 -9 Q162 -15 147 -21.5 Q132 -28 116 -34 Q82 -48 50 -52 Q29 -54 9 -52 Q-11 -50 -30 -40 Q-76 -16 -88 44 Q-92 62 -93 82 Q-94 102 -92 122 Q-90 130 -90 137 Q-90 144 -88 152 Q-83 175 -76 198 Q-69 221 -60 244 Q-27 326 27 397 Q65 448 108 488.5 Q151 529 200 564 Q232 587 266 607 Q300 627 335 641 Q358 652 380 658.5 Q402 665 426 668 Q442 670 456.5 670 Q471 670 486 665 Q539 650 542 586 Q543 557 537 528 Q529 495 518.5 463 Q508 431 495 399 Q476 352 455.5 306.5 Q435 261 413 216 Q382 149 352 83 Q322 17 291 -51 Q277 -77 266.5 -102.5 Q256 -128 246 -156 Q242 -167 239 -178.5 Q236 -190 234 -202 Q233 -206 232.5 -210 Q232 -214 231 -219 L231 -223 Q233 -231 239 -228 Q243 -227 246.5 -225 Q250 -223 254 -221 Q262 -216 269 -211 Q276 -206 284 -198 Q301 -185 315 -169.5 Q329 -154 345 -137 Q377 -102 408 -67 Q439 -32 470 3 Q530 72 589 140.5 Q648 209 707 278 Q755 335 802 390.5 Q849 446 897 503 Q943 559 989.5 614 Q1036 669 1083 725 L1095 740 Q1096 739 1096.5 739 Q1097 739 1098 738 L1098 736 Q1093 731 1088.5 725 Q1084 719 1080 714 Q1035 659 990.5 606 Q946 553 901 499 Q829 412 757 328 Q685 244 613 157 Q578 116 543 75.5 Q508 35 472 -7 Q441 -42 410.5 -78 Q380 -114 348 -149 Q318 -182 287 -210 Q280 -215 273 -220 Q266 -225 259 -230 Q246 -239 234 -237 Q218 -237 216 -216 Q216 -208 218 -198.5 Q220 -189 222 -181 Q230 -155 238.5 -130.5 Q247 -106 257 -82 Q279 -29 302 22 Q325 73 348 124 Q374 181 400.5 237 Q427 293 453 350 Q467 380 480.5 410.5 Q494 441 505 473 Q513 496 519 517.5 Q525 539 528 562 Q530 573 530.5 583.5 Q531 594 530 605 Q524 639 498 653 Q482 661 460 661 Q435 663 410 657.5 Q385 652 359 644 Q324 631 291.5 614 Q259 597 226 576 Q154 528 91 465 Q62 435 36 401.5 Q10 368 -13 331 Q-29 302 -42.5 273 Q-56 244 -66 213 Q-76 188 -81 163 Q-90 120 -89 82 Q-88 59 -83 37 Q-78 15 -67 -2 Q-54 -22 -37 -32 Q-20 -42 2 -47 Q25 -52 48.5 -49 Q72 -46 96 -38 Q110 -33 123.5 -27.5 Q137 -22 151 -15 Q157 -13 163 -11 Q169 -9 175 -7 Q179 -5 181 -7 Z " />
<glyph glyph-name="W" unicode="W" horiz-adv-x="1240" d="M862 543 L850 528 Q826 503 803 477.5 Q780 452 756 428 Q721 389 686 351 Q651 313 616 275 Q554 208 493.5 142 Q433 76 370 8 Q341 -25 310 -57 Q279 -89 247 -120 Q227 -140 205 -160 Q183 -180 160 -197 Q133 -221 103 -233 Q83 -242 64 -241 Q62 -241 52 -239 Q30 -228 32 -196 Q32 -182 35 -170 Q38 -158 43 -144 Q51 -121 61 -99 Q71 -77 82 -55 Q105 -11 127.5 30 Q150 71 176 113 Q262 253 357 391 Q386 432 414 471.5 Q442 511 469 553 Q497 591 519 631 Q524 641 529.5 652.5 Q535 664 537 676 Q539 680 540 685 Q541 690 541 695 Q544 714 529 720 Q518 727 507 727 Q490 728 473.5 724.5 Q457 721 441 716 Q412 705 384.5 691.5 Q357 678 330 662 Q286 634 243.5 601.5 Q201 569 161 531 Q126 498 95 463 Q64 428 35 387 Q21 367 7 345 Q-7 323 -18 300 Q-29 278 -38 255 Q-47 232 -55 207 Q-59 191 -61.5 175.5 Q-64 160 -64 144 Q-64 103 -46.5 84 Q-29 65 -6 62 Q8 60 22 63.5 Q36 67 50 72 Q51 73 52.5 74 Q54 75 56 72 Q55 72 55 71 Q55 70 54 70 Q34 61 14 58 Q-6 55 -26 65 Q-67 84 -69 143 Q-69 165 -65 185.5 Q-61 206 -54 226 Q-45 252 -34.5 276.5 Q-24 301 -11 324 Q9 359 30 389.5 Q51 420 74 449 Q112 493 152 530.5 Q192 568 235 603 Q269 630 305.5 654 Q342 678 380 699 Q400 709 420.5 717.5 Q441 726 463 731 Q486 740 512 737 Q522 736 536 727 Q554 712 552 683 Q551 668 544 652 Q531 620 512 589 Q498 563 481 538.5 Q464 514 447 490 Q406 430 365 371.5 Q324 313 285 253 Q246 193 207 130.5 Q168 68 131 4 Q115 -25 100 -54 Q85 -83 71 -115 Q63 -129 58 -144.5 Q53 -160 49 -176 Q47 -183 46 -190.5 Q45 -198 46 -206 Q46 -232 67 -232 Q81 -232 95 -226 Q110 -219 123.5 -210.5 Q137 -202 150 -192 Q176 -174 198.5 -153.5 Q221 -133 243 -110 Q280 -76 315.5 -38 Q351 0 386 38 Q422 76 456 112.5 Q490 149 524 187 Q570 236 614.5 285 Q659 334 704 382 Q749 431 794 480.5 Q839 530 884 580 Q901 597 916.5 616 Q932 635 950 653 Q959 664 969.5 675.5 Q980 687 991 699 L997 705 Q1003 708 1006 703 Q1010 700 1006 693 Q1001 688 997.5 682 Q994 676 989 669 Q966 642 943 615 Q920 588 897 562 Q806 453 721.5 339 Q637 225 559 104 Q540 75 521.5 45.5 Q503 16 486 -16 Q475 -35 465.5 -54.5 Q456 -74 448 -94 Q443 -106 439.5 -118.5 Q436 -131 434 -145 L434 -162 Q436 -188 456 -195 Q462 -199 469.5 -199.5 Q477 -200 485 -200 Q527 -194 568 -177 Q603 -162 637 -142 Q671 -122 704 -99 Q749 -70 789.5 -34.5 Q830 1 871 40 Q901 69 930 100.5 Q959 132 987 166 Q1021 207 1051.5 249 Q1082 291 1110 338 Q1129 370 1145 402.5 Q1161 435 1173 470 Q1179 488 1183 506 Q1187 524 1189 543 Q1192 560 1193.5 577.5 Q1195 595 1196 612 Q1196 621 1196 631 Q1196 641 1195 650 Q1194 652 1193 655 Q1192 658 1192 661 Q1189 666 1186 663 Q1184 661 1183 660 Q1182 659 1180 657 Q1170 643 1164 626 Q1162 620 1160 613 Q1158 606 1156 600 Q1156 599 1155.5 597.5 Q1155 596 1155 595 Q1151 599 1152 603 Q1154 614 1157.5 625 Q1161 636 1166 648 Q1168 652 1171 656.5 Q1174 661 1176 664 Q1187 679 1195 666 Q1197 662 1198.5 657.5 Q1200 653 1201 650 Q1204 628 1203 608 Q1203 583 1200.5 558.5 Q1198 534 1194 508 Q1187 475 1175 441 Q1151 377 1113 319 Q1091 281 1066 245.5 Q1041 210 1014 176 Q958 108 898.5 47 Q839 -14 773 -67 Q732 -99 689.5 -127 Q647 -155 601 -177 Q581 -187 561.5 -194 Q542 -201 522 -205 Q508 -208 494.5 -209.5 Q481 -211 467 -209 Q462 -207 456 -205.5 Q450 -204 444 -201 Q416 -186 421 -143 Q423 -131 425 -120 Q427 -109 432 -97 Q440 -75 450 -55 Q460 -35 471 -16 Q492 25 515 62 Q538 99 564 136 Q626 231 693 321 Q760 411 830 499 Q838 510 845 518.5 Q852 527 860 536 Q861 538 861.5 539.5 Q862 541 863 542 Q862 542 862 543 Z " />
<glyph glyph-name="X" unicode="X" horiz-adv-x="720" d="M289 241 Q287 239 287 238 Q287 237 286 235 Q268 221 249.5 210 Q231 199 212 189 Q190 178 168 170 Q146 162 123 158 Q100 153 78 154 Q56 155 37 165 Q-29 197 -20 277 Q-20 302 -12.5 326 Q-5 350 7 374 Q20 405 37.5 432 Q55 459 76 485 Q94 510 114.5 531.5 Q135 553 157 573 Q198 609 239.5 639 Q281 669 327 694 Q352 707 377 717 Q402 727 429 734 Q458 742 490 740 Q514 738 532.5 726.5 Q551 715 562 693 Q570 678 573 660 Q576 642 575 623 Q574 606 573 591.5 Q572 577 568 561 Q565 535 557.5 509.5 Q550 484 542 460 Q533 422 521 386 Q509 350 496 314 Q496 313 495 311 Q497 313 498 313.5 Q499 314 500 315 Q522 335 544.5 357 Q567 379 589 399 Q637 445 686.5 489 Q736 533 787 575 Q819 601 849 626 Q879 651 910 677 Q919 685 928.5 692 Q938 699 949 705 Q952 709 957 711.5 Q962 714 967 717 Q973 720 974 716 L974 714 Q963 709 953 702.5 Q943 696 934 689 Q914 672 891.5 654 Q869 636 849 619 Q736 526 630 427 Q595 396 561.5 364.5 Q528 333 494 301 Q488 297 489 292 Q475 257 463 222.5 Q451 188 438 152 Q425 117 412.5 81.5 Q400 46 388 11 Q377 -20 366.5 -51 Q356 -82 345 -113 Q341 -123 338 -132 Q335 -141 331 -150 Q330 -155 325 -155 Q319 -155 319 -149 Q320 -146 321.5 -142 Q323 -138 323 -135 Q334 -106 343 -79 Q352 -52 362 -23 Q371 3 379 28 Q387 53 396 79 Q404 102 411 124.5 Q418 147 426 170 Q434 193 441 214 Q448 235 456 257 Q458 259 458 262.5 Q458 266 459 270 Q457 268 456 267.5 Q455 267 454 266 Q403 218 353 169.5 Q303 121 251 73 Q204 27 157 -19 Q110 -65 64 -111 Q41 -134 19 -156.5 Q-3 -179 -26 -201 Q-31 -207 -36.5 -213.5 Q-42 -220 -48 -226 Q-54 -230 -51 -236 L-44 -236 Q-51 -241 -54 -238 Q-58 -234 -56 -231 Q-53 -225 -50 -222 Q-45 -215 -40 -208.5 Q-35 -202 -28 -197 Q35 -131 98 -71 Q152 -17 206 35 Q260 87 315 139 Q349 174 385 207.5 Q421 241 459 276 Q461 279 463.5 282.5 Q466 286 468 290 Q473 308 478.5 326 Q484 344 492 362 Q498 381 504 400 Q510 419 515 437 Q526 472 535.5 506 Q545 540 553 575 Q556 596 558.5 616 Q561 636 557 655 Q559 663 557.5 669.5 Q556 676 554 681 Q543 720 501 728 Q483 733 463.5 730.5 Q444 728 425 723 Q399 716 375 706.5 Q351 697 328 685 Q283 662 243 634.5 Q203 607 165 573 Q139 550 117 526 Q95 502 74 476 Q54 450 36.5 422 Q19 394 6 365 Q-2 346 -7 328 Q-12 310 -15 290 Q-20 261 -15 238.5 Q-10 216 1 200 Q12 184 27.5 174.5 Q43 165 60 161 Q83 155 113 160 Q197 174 270 230 Q278 234 283 241 Q285 242 286 242.5 Q287 243 289 241 Z " />
<glyph glyph-name="Y" unicode="Y" horiz-adv-x="840" d="M556 2 Q556 -6 552 -6 Q538 -12 525 -17.5 Q512 -23 499 -28 Q494 -30 490 -31.5 Q486 -33 481 -35 Q476 -37 472 -41 Q455 -62 436 -82 Q417 -102 399 -121 Q367 -152 333.5 -176.5 Q300 -201 262 -218 Q248 -225 234 -229 Q220 -233 206 -237 Q195 -239 185 -239 Q175 -239 164 -236 Q161 -233 157 -231 Q153 -229 151 -225 Q142 -216 147 -198 Q149 -192 152 -187 Q155 -182 158 -177 Q171 -162 186 -149 Q201 -138 216 -130 Q231 -122 247 -114 Q270 -103 293.5 -94.5 Q317 -86 342 -77 Q371 -66 400 -55.5 Q429 -45 458 -33 Q465 -32 469 -25 Q497 10 523.5 46 Q550 82 576 120 Q619 186 660.5 251.5 Q702 317 741 387 Q768 436 792.5 487 Q817 538 839 592 Q849 615 853 636 Q853 637 853.5 640.5 Q854 644 854 647 Q854 650 853 652 Q852 654 849 651 Q822 624 798 594.5 Q774 565 751 535 Q720 496 690.5 458.5 Q661 421 631 383 Q591 332 551.5 281 Q512 230 472 179 Q430 118 378 57 Q366 43 352 28 Q338 13 323 0 Q306 -17 283 -26 Q267 -31 257 -26 Q241 -22 235 2 Q233 19 235 36 Q241 80 254 117 Q266 148 278.5 176.5 Q291 205 305 234 Q328 279 351.5 323.5 Q375 368 399 412 Q418 448 436.5 483.5 Q455 519 472 556 Q482 576 491 594.5 Q500 613 506 633 Q509 644 511.5 653.5 Q514 663 515 674 Q515 679 515.5 684.5 Q516 690 515 696 Q514 706 510.5 713.5 Q507 721 498 726 Q493 728 488 730 Q483 732 477 732 Q460 734 443 730 Q426 726 411 721 Q383 710 359 696 Q335 682 312 665 Q256 623 209 572 Q162 521 122 456 Q98 418 78.5 377 Q59 336 45 291 Q38 264 33 238 Q28 212 27 184 Q26 156 30.5 132.5 Q35 109 48 88 Q62 65 87 52 Q89 51 92.5 50.5 Q96 50 99 48 L102 48 L102 46 Q96 46 93 47 Q79 51 66.5 61 Q54 71 44 88 Q34 104 29.5 123 Q25 142 23 163 Q21 175 22 187.5 Q23 200 24 212 Q26 229 29.5 245.5 Q33 262 37 279 Q49 323 66.5 363 Q84 403 107 441 Q155 526 215.5 589.5 Q276 653 348 699 Q387 724 430 736 Q454 745 479 742 Q500 739 514 725 Q529 708 531 679 Q531 666 528.5 654 Q526 642 522 629 Q516 607 507 586 Q498 565 489 544 Q472 511 455 478 Q438 445 421 413 Q393 362 365.5 311.5 Q338 261 312 207 Q299 181 287.5 154.5 Q276 128 267 100 Q262 84 257 67.5 Q252 51 250 35 Q249 28 248.5 21 Q248 14 249 8 Q248 5 249 3 Q250 1 251 -2 Q255 -22 272 -19 Q285 -16 295 -10 Q306 -3 314.5 5 Q323 13 333 23 Q350 40 367 59 Q384 78 401 98 Q430 135 460 172.5 Q490 210 519 248 Q551 289 582.5 329 Q614 369 645 411 Q676 449 705.5 487 Q735 525 765 562 Q785 586 804 612.5 Q823 639 849 659 Q860 664 863.5 658 Q867 652 866 640.5 Q865 629 860.5 614 Q856 599 851.5 586 Q847 573 843.5 564 Q840 555 840 555 Q812 486 779 422.5 Q746 359 709 299 Q666 229 621 162 Q576 95 528 29 Q519 18 510 6 Q501 -6 492 -17 Q491 -19 489 -21 L493 -21 Q507 -16 521 -10 Q535 -4 549 2 L550 2 Q555 4 556 2 Z M451 -48 Q451 -47 451.5 -46.5 Q452 -46 452 -45 Q443 -50 433.5 -52.5 Q424 -55 416 -59 Q380 -73 344.5 -85.5 Q309 -98 274 -111 Q257 -117 240.5 -125 Q224 -133 208 -144 Q186 -157 170 -175 Q166 -180 162.5 -184.5 Q159 -189 157 -196 Q150 -217 161 -227 Q169 -231 180 -231 Q200 -232 225 -224 Q257 -214 285 -197 Q313 -180 342 -158 Q371 -134 397.5 -106.5 Q424 -79 451 -49 L451 -48 Z " />
<glyph glyph-name="Z" unicode="Z" horiz-adv-x="833" d="M975 699 Q974 698 972.5 697.5 Q971 697 971 696 Q892 651 816 625 Q787 615 758.5 607.5 Q730 600 701 594 Q677 589 653 584.5 Q629 580 604 577 Q588 575 572 573.5 Q556 572 539 570 Q503 567 464 561 Q446 559 426 556.5 Q406 554 389 551 Q351 544 315.5 535.5 Q280 527 244 513 Q223 505 201 495 Q179 485 157 471 Q126 451 97 425 Q68 399 44 367 Q11 327 -14.5 285 Q-40 243 -60 197 Q-71 177 -79 157 Q-87 137 -92 117 Q-98 94 -101.5 72.5 Q-105 51 -105 31 Q-104 -7 -90.5 -31.5 Q-77 -56 -48 -67 Q13 -88 91 -48 Q105 -40 118.5 -31.5 Q132 -23 146 -12 L151 -7 Q154 -5 156 -7 Q153 -10 150 -12.5 Q147 -15 145 -17 Q136 -25 127 -31.5 Q118 -38 108 -45 Q87 -56 66 -64.5 Q45 -73 23 -76 Q-6 -81 -31.5 -76.5 Q-57 -72 -77 -57 Q-95 -43 -102.5 -22 Q-110 -1 -111 27 Q-112 45 -110 64 Q-108 83 -101 104 Q-99 118 -94.5 132 Q-90 146 -85 160 Q-77 182 -67.5 202 Q-58 222 -47 242 Q-29 275 -9 306 Q11 337 34 366 Q102 456 192 500 Q218 512 243.5 521 Q269 530 292 538 Q318 546 342 551 Q366 556 392 560 Q418 564 442.5 567.5 Q467 571 491 574 Q508 576 525.5 577.5 Q543 579 560 581 Q610 588 660 597 Q710 606 762 620 Q824 637 884 665 Q944 693 1005 730 Q1010 735 1016 738 Q1021 740 1024.5 737 Q1028 734 1027 729 Q1027 727 1023 723 Q1018 718 1013.5 713 Q1009 708 1005 704 Q985 684 964.5 663 Q944 642 924 621 Q887 585 853 547.5 Q819 510 784 472 Q715 400 647 330 Q579 260 510 191 Q465 146 421.5 102.5 Q378 59 332 17 Q300 -12 268.5 -41 Q237 -70 203 -96 Q189 -107 174.5 -116.5 Q160 -126 146 -137 Q144 -139 141 -141 Q143 -141 146 -141.5 Q149 -142 151 -142 Q173 -144 193 -149.5 Q213 -155 233 -160 Q273 -173 311 -186 Q349 -199 389 -210 Q410 -217 430.5 -223 Q451 -229 471 -236 Q474 -236 476 -236.5 Q478 -237 481 -237 Q490 -239 493 -230 Q495 -229 496 -228 Q497 -227 498 -227 Q501 -227 501 -229 Q500 -229 500 -232 Q495 -243 485 -243 Q476 -243 468 -241 Q435 -233 404.5 -223.5 Q374 -214 342 -204 Q307 -193 272 -182 Q237 -171 201 -160 Q184 -155 167.5 -152 Q151 -149 133 -147 Q130 -147 124 -151 Q107 -162 89.5 -172 Q72 -182 55 -188 Q37 -196 25 -196 Q22 -196 19 -196 Q16 -196 14 -194 Q7 -187 16 -178 Q18 -175 21.5 -172 Q25 -169 27 -166 Q37 -160 47 -156 Q57 -152 67 -149 Q81 -144 93.5 -142.5 Q106 -141 120 -140 Q122 -140 128 -137 Q151 -120 175.5 -102 Q200 -84 226 -63 Q261 -31 296 2 Q331 35 366 69 Q438 138 506.5 209 Q575 280 646 352 Q693 403 739 453 Q785 503 833 554 Q866 589 901 624 Q936 659 971 694 Q973 695 973.5 696 Q974 697 975 698 L975 699 Z M108 -149 L105 -149 Q100 -149 95.5 -149.5 Q91 -150 86 -151 Q77 -153 65.5 -156.5 Q54 -160 44 -165 Q40 -167 36 -171 Q32 -175 27 -179 Q23 -181 21 -186 Q23 -188 24.5 -188 Q26 -188 28 -188 Q36 -186 42 -184 Q59 -179 74.5 -169.5 Q90 -160 107 -151 Q107 -150 107.5 -150 Q108 -150 108 -149 Z " />
<glyph glyph-name="a" unicode="a" horiz-adv-x="143" d="M144 352 Q146 354 147.5 351.5 Q149 349 147 347 Q125 332 102 309 Q83 292 65 273.5 Q47 255 28 238 Q23 233 17.5 228 Q12 223 7 218 Q-1 212 -8.5 207 Q-16 202 -25 200 Q-27 199 -30.5 199 Q-34 199 -36 201 Q-39 202 -39 206 Q-40 209 -38 216 Q-37 223 -33 232 Q-22 261 -3 290 Q3 301 10 312 Q17 323 24 334 Q26 338 26 339 Q22 337 18 333.5 Q14 330 9 328 Q1 324 -3.5 327.5 Q-8 331 -6 339 Q-4 343 -2.5 346.5 Q-1 350 1 354 Q8 366 17.5 376 Q27 386 38 395 Q43 398 47.5 400.5 Q52 403 57 405 Q67 408 76 405 Q86 402 81 390 Q80 386 77 382 Q75 379 73 379 Q73 379 70 376 L49 349 Q38 333 27.5 317 Q17 301 7 284 Q-3 267 -12 250 Q-21 233 -27 215 Q-27 213 -28 210.5 Q-29 208 -27 206 L-25 206 Q-23 206 -20.5 207 Q-18 208 -16 209 Q-13 212 -11 213 L-2 219 Q2 222 5.5 225 Q9 228 12 230 Q46 261 77 293 Q108 325 144 352 Z M32 355 Q40 363 47 370.5 Q54 378 61 386 Q68 393 74 392 Q74 404 63 399 Q60 398 54 394 Q38 383 25 368.5 Q12 354 6 335 L32 355 Z " />
<glyph glyph-name="b" unicode="b" horiz-adv-x="126" d="M234 645 Q245 652 251 650 Q257 648 256 639 Q255 634 254 630.5 Q253 627 252 622 Q247 608 239.5 594.5 Q232 581 224 567 Q198 525 166.5 485.5 Q135 446 97 410 Q64 377 26 355 Q24 354 21.5 353 Q19 352 17 351 Q11 349 8 342 Q3 335 -1.5 328 Q-6 321 -11 314 L-11 313 Q24 323 58.5 332.5 Q93 342 127 352 Q130 353 130.5 350.5 Q131 348 129 347 Q93 336 58 326.5 Q23 317 -14 307 Q-13 306 -11 302 Q-11 302 -11 301 L-11 300 Q-9 298 -9 295.5 Q-9 293 -8 290 Q-8 274 -12 263 Q-14 255 -17.5 248.5 Q-21 242 -25 236 Q-26 234 -31 227.5 Q-36 221 -42.5 214.5 Q-49 208 -57 204 Q-65 200 -72 203 Q-77 205 -77 211 Q-76 215 -74 225 Q-70 237 -64 249 Q-58 261 -50 272 Q-21 322 11.5 369.5 Q44 417 79 465 Q102 497 126 527.5 Q150 558 176 589 Q187 600 196.5 610.5 Q206 621 217 631 Q222 635 225.5 638.5 Q229 642 234 645 Z M-19 260 Q-15 269 -13 282 Q-11 295 -18 303 Q-25 292 -31 282 Q-37 272 -43 261 Q-48 252 -53 242.5 Q-58 233 -61 224 Q-63 221 -63 218.5 Q-63 216 -65 213 Q-65 211 -64.5 210 Q-64 209 -64 207 Q-58 207 -49 216 Q-45 220 -40 225 Q-32 233 -27.5 241.5 Q-23 250 -19 260 Z M247 634 Q249 640 247 643 Q245 641 242.5 639.5 Q240 638 238 636 Q224 625 212 613 Q201 600 190 587.5 Q179 575 168 562 Q130 515 95 467.5 Q60 420 26 371 Q24 367 21.5 364 Q19 361 17 357 L19 357 Q20 358 21 358.5 Q22 359 23 360 Q33 366 43 373 Q53 380 62 388 Q107 425 143 469 Q169 501 192.5 532.5 Q216 564 233 598 Q238 607 241.5 616 Q245 625 247 634 Z " />
<glyph glyph-name="c" unicode="c" horiz-adv-x="139" d="M140 352 Q142 354 143.5 351.5 Q145 349 143 347 Q129 338 115.5 329 Q102 320 88 309 Q67 293 46 275.5 Q25 258 -1 250 Q-5 248 -7 248 Q-23 245 -28.5 252.5 Q-34 260 -34.5 270 Q-35 280 -32.5 289.5 Q-30 299 -30 300 Q-28 304 -28 306 Q-13 342 17 372 Q22 377 28 382 Q34 387 41 391 Q51 396 57 395 Q64 393 64 388 Q66 374 55 362 Q51 358 45 358 Q63 376 55 390 Q50 388 47 385 Q42 381 37.5 377.5 Q33 374 29 369 Q16 355 5.5 340 Q-5 325 -13 308 Q-14 306 -16 300 Q-16 299 -18.5 290 Q-21 281 -20.5 272 Q-20 263 -14 257.5 Q-8 252 7 258 Q11 260 14 261.5 Q17 263 20 265 Q31 271 40.5 278 Q50 285 59 293 Q79 309 99 323.5 Q119 338 140 352 Z " />
<glyph glyph-name="d" unicode="d" horiz-adv-x="137" d="M144 351 Q136 344 128.5 336.5 Q121 329 113 322 Q91 300 70 278 Q49 256 28 233 Q10 213 -6.5 192 Q-23 171 -40 150 Q-45 144 -49.5 138 Q-54 132 -59 126 Q-65 120 -69 117 Q-74 112 -82 112 Q-90 112 -90 118 Q-90 123 -88 133 Q-83 145 -77.5 157 Q-72 169 -66 181 Q-51 210 -34.5 238 Q-18 266 -1 294 Q0 295 0 296.5 Q0 298 2 300 Q0 298 -1.5 297 Q-3 296 -5 294 Q-10 292 -14 289.5 Q-18 287 -23 288 Q-33 288 -32 299 Q-30 303 -28.5 307 Q-27 311 -25 316 Q-10 345 15 367 Q24 376 33 380 Q47 389 61 388 Q62 390 65 393 Q92 431 118.5 468.5 Q145 506 172 544 Q181 556 190.5 568.5 Q200 581 211 593 Q215 596 217.5 599 Q220 602 224 605 Q229 610 234 607 Q239 605 235 599 Q230 591 225.5 584.5 Q221 578 216 570 Q182 525 149 480 Q116 435 82 390 Q80 386 77 383 Q74 380 71 376 Q56 359 44.5 340.5 Q33 322 21 303 Q1 271 -18 239.5 Q-37 208 -54 176 Q-59 167 -63 157.5 Q-67 148 -72 138 Q-74 133 -75 129 Q-76 125 -77 120 Q-74 123 -74 122 Q-69 126 -66 129.5 Q-63 133 -60 137 Q-52 146 -45.5 155 Q-39 164 -32 173 Q-12 198 9 222 Q30 246 53 269 Q71 287 89 305 Q107 323 126 341 Q132 347 136 350 Q140 354 144 351 Z M57 382 Q54 381 51.5 380.5 Q49 380 46 379 Q36 374 29 367 Q-1 339 -15 309 Q-17 306 -18.5 302.5 Q-20 299 -19 296 Q-17 296 -16 297 Q-5 304 3.5 312 Q12 320 21 328 Q22 330 22.5 330.5 Q23 331 24 333 Q32 344 39 354.5 Q46 365 53 376 Q54 378 55 379 Q56 380 57 382 Z M199 558 L198 558 Q190 548 183 538.5 Q176 529 170 519 L171 519 Q178 529 184.5 538.5 Q191 548 199 558 Z " />
<glyph glyph-name="e" unicode="e" horiz-adv-x="129" d="M130 352 Q132 354 133.5 351.5 Q135 349 133 347 Q111 333 90.5 317 Q70 301 49 286 Q40 280 31 274 Q22 268 12 263 Q5 260 -1 259 Q-6 258 -11.5 258.5 Q-17 259 -22 264 Q-29 271 -28.5 282 Q-28 293 -25 304 Q-22 315 -17.5 323.5 Q-13 332 -12 334 Q-10 338 -7.5 341.5 Q-5 345 -2 350 Q3 358 9 365.5 Q15 373 21 380 Q26 385 32 390 Q38 395 45 399 Q55 403 59 398 Q61 396 61 392 Q61 388 59 385 Q47 361 21 351 Q19 350 17 350 Q15 350 13 348 Q11 346 10 345 Q9 344 7 342 Q6 339 4 336 Q2 333 0 330 Q-2 327 -4 323 Q-12 304 -15 290 Q-17 278 -14 269.5 Q-11 261 3 266 Q6 267 10 269 L24 276 Q41 287 55 298 Q74 312 92.5 325.5 Q111 339 130 352 Z M52 394 Q45 390 32.5 376.5 Q20 363 17 355 L19 355 Q41 366 51 388 Q52 389 52 394 Z " />
<glyph glyph-name="f" unicode="f" horiz-adv-x="183" d="M16 352 Q14 350 13.5 348 Q13 346 11 344 L10 344 Q2 333 -5 322 Q-12 311 -19 300 Q-32 281 -44.5 263 Q-57 245 -68 226 L-94 188 Q-88 194 -82 198 Q-77 202 -71.5 206 Q-66 210 -61 214 L-43 226 Q63 299 184 352 Q187 354 188 351.5 Q189 349 187 348 Q170 340 153 332 Q136 324 119 316 Q4 257 -98 179 Q-102 173 -104 169 L-119 127 Q-120 124 -121 121 Q-122 118 -123 115 Q-131 95 -139 76 Q-147 57 -155 38 Q-162 18 -175 -7 Q-183 -25 -192.5 -43.5 Q-202 -62 -212 -80 Q-220 -94 -227.5 -107 Q-235 -120 -244 -133 Q-253 -148 -265 -163 Q-267 -166 -270 -169 Q-273 -172 -275 -175 Q-279 -178 -287 -182 Q-300 -185 -301 -176 Q-301 -166 -298 -157 Q-295 -149 -292.5 -140.5 Q-290 -132 -286 -124 Q-276 -101 -264.5 -77.5 Q-253 -54 -240 -31 Q-209 27 -174 86 Q-151 122 -128 158 Q-105 194 -82 230 Q-31 310 24 388 Q79 466 137 544 Q154 567 171 588.5 Q188 610 207 632 Q209 634 210 636 Q211 638 213 640 Q215 643 221 648.5 Q227 654 234.5 660 Q242 666 249.5 670 Q257 674 263 673 Q267 671 267.5 666 Q268 661 266.5 655 Q265 649 262.5 642.5 Q260 636 259 633 Q251 619 243 604.5 Q235 590 227 576 Q186 510 133.5 453.5 Q81 397 17 353 L16 352 Z M25 366 Q39 376 52.5 387 Q66 398 80 409 Q184 501 251 629 L254 635 Q257 643 260 650.5 Q263 658 263 663 Q263 669 257 666 Q251 663 244 656.5 Q237 650 231 643.5 Q225 637 224 636 Q215 624 205.5 612 Q196 600 186 588 Q144 534 105 479.5 Q66 425 28 370 L25 366 Z M-136 105 Q-133 113 -130 122 Q-127 131 -124 139 Q-127 137 -127 134 Q-144 108 -159.5 82 Q-175 56 -191 30 Q-202 9 -213.5 -12 Q-225 -33 -236 -53 Q-244 -66 -250 -78.5 Q-256 -91 -261 -104 Q-267 -116 -272.5 -127.5 Q-278 -139 -281 -151 Q-283 -156 -284.5 -162 Q-286 -168 -285 -174 L-277 -166 Q-262 -149 -254 -135 Q-236 -109 -222 -82.5 Q-208 -56 -195 -29 Q-188 -15 -181.5 -0.5 Q-175 14 -169 28 Q-160 48 -152 66.5 Q-144 85 -136 105 Z " />
<glyph glyph-name="g" unicode="g" horiz-adv-x="161" d="M162 352 Q164 354 165 351.5 Q166 349 164 347 Q153 339 141 330.5 Q129 322 118 314 Q98 300 78 285 Q58 270 38 256 Q27 248 17 240 Q7 232 -3 224 Q-9 219 -14.5 215.5 Q-20 212 -25 207 L-27 204 Q-27 204 -28 203 Q-30 200 -33 195.5 Q-36 191 -43.5 179.5 Q-51 168 -65 146 Q-79 124 -103 86 Q-124 54 -146 22 Q-168 -10 -191 -42 Q-201 -55 -211 -67.5 Q-221 -80 -232 -92 Q-247 -108 -262 -118 Q-266 -121 -270 -123.5 Q-274 -126 -279 -128 Q-300 -136 -302 -117 Q-302 -105 -297 -92 Q-292 -77 -285 -62.5 Q-278 -48 -269 -34 Q-255 -11 -237.5 9.5 Q-220 30 -201 50 Q-146 105 -87 158 Q-80 165 -73.5 171 Q-67 177 -60 183 Q-58 185 -57 186.5 Q-56 188 -54 190 Q-30 228 -5.5 264.5 Q19 301 43 339 Q44 339 44 341 Q42 339 39.5 337 Q37 335 34 333 Q29 329 24 325.5 Q19 322 14 318 Q5 313 -2 314 Q-10 317 -10 326 Q-9 336 -2 349 Q10 370 27 385 Q32 390 38 393 Q47 398 56 398 Q65 398 70 392 Q72 388 74 382 Q75 384 76 384.5 Q77 385 78 387 Q83 394 89 400 Q95 406 100 413 Q106 419 112 416 Q114 413 112 410 Q100 395 88.5 379 Q77 363 63.5 343 Q50 323 33.5 297.5 Q17 272 -5 238 Q-6 237 -6 236.5 Q-6 236 -7 235 L-16 222 Q-12 224 -8.5 227 Q-5 230 -1 233 Q39 264 79.5 293.5 Q120 323 162 352 Z M18 328 Q42 344 61 365 L64 368 Q63 371 64.5 373.5 Q66 376 66 379 Q68 388 61.5 391.5 Q55 395 45 389 Q43 387 40 385.5 Q37 384 35 382 Q29 376 23.5 369.5 Q18 363 13 356 Q8 349 5 342 Q2 335 1 327 Q0 325 0.5 323 Q1 321 1 319 Q10 322 18 328 Z M-89 134 Q-84 142 -79.5 149.5 Q-75 157 -70 165 Q-72 165 -72 164 Q-101 138 -129 111.5 Q-157 85 -185 58 Q-201 41 -215.5 24.5 Q-230 8 -244 -10 Q-258 -30 -270 -50 Q-282 -70 -289 -91 Q-291 -96 -291.5 -101 Q-292 -106 -293 -111 Q-293 -118 -290 -122 Q-289 -126 -281 -123 Q-278 -121 -274.5 -119 Q-271 -117 -268 -114 Q-260 -109 -254 -102 Q-248 -95 -241 -88 Q-227 -73 -215.5 -57 Q-204 -41 -192 -24 Q-165 15 -140 54.5 Q-115 94 -89 134 Z " />
<glyph glyph-name="h" unicode="h" horiz-adv-x="151" d="M266 673 Q270 671 270.5 666 Q271 661 269.5 655 Q268 649 265.5 642.5 Q263 636 261 633 Q253 619 245 604.5 Q237 590 229 576 Q199 529 163.5 487 Q128 445 86 408 Q85 407 84 406.5 Q83 406 82 405 Q74 398 65 391 Q56 384 47 377 Q39 370 32 365.5 Q25 361 20 358 Q6 335 -4.5 318.5 Q-15 302 -17 300 Q-20 295 -23 289.5 Q-26 284 -30 279 Q-28 280 -25 283 Q-14 294 -2 304.5 Q10 315 21 326 Q26 331 32 335 Q38 339 43 343 Q50 348 56 348 Q65 348 61 339 Q59 334 56.5 330 Q54 326 51 321 Q49 318 47.5 315.5 Q46 313 44 310 Q33 293 22.5 275.5 Q12 258 1 240 Q73 300 151 351 Q154 354 156 351 Q157 350 154 347 Q150 344 146.5 341.5 Q143 339 139 337 Q122 325 106 313.5 Q90 302 74 290 Q57 279 41.5 266.5 Q26 254 11 241 Q8 239 5 236 Q2 233 -1 231 Q-3 229 -5.5 226 Q-8 223 -12 225 Q-17 227 -16 233 Q-15 239 -13 242 Q-3 260 8 276.5 Q19 293 30 310 Q34 316 38 322 Q42 328 46 334 Q47 335 49 339 Q45 337 42.5 335.5 Q40 334 38 332 Q30 324 21.5 317 Q13 310 5 302 L4 301 L-9 288 Q-9 288 -11 286 L-25 274 Q-30 269 -35.5 266 Q-41 263 -44 264 L-45 264 L-45 265 Q-46 265 -46 266 Q-47 267 -47 269 Q-46 273 -44.5 277 Q-43 281 -41 284 Q-39 288 -37 291.5 Q-35 295 -33 298 Q-30 304 -26.5 310 Q-23 316 -19 322 Q-7 342 8.5 366 Q24 390 43 417 Q63 443 82 469 Q101 495 121 521 Q123 523 124.5 526 Q126 529 128 531 Q131 534 133.5 537.5 Q136 541 138 544 Q155 567 172.5 588.5 Q190 610 209 632 Q211 634 213 636 Q215 638 217 640 Q219 643 224.5 648.5 Q230 654 237.5 660 Q245 666 252.5 670 Q260 674 266 673 Z M256 635 Q260 643 263 650.5 Q266 658 266 663 Q266 669 260 666 Q254 663 247.5 656.5 Q241 650 235 643.5 Q229 637 228 636 Q217 624 207.5 612 Q198 600 188 588 Q132 518 79 443 Q78 442 77.5 441 Q77 440 75 438 Q74 436 70 432 Q60 418 49.5 401.5 Q39 385 28 369 Q41 379 53.5 388.5 Q66 398 78 409 Q132 455 176 510.5 Q220 566 253 629 L256 635 Z " />
<glyph glyph-name="i" unicode="i" horiz-adv-x="105" d="M73 466 Q68 463 62 459 Q61 460 60.5 460 Q60 460 59 461 Q61 463 61 463 Q63 464 66 466 Q69 468 73 466 Z M106 352 Q109 354 110 351.5 Q111 349 109 347 Q72 328 39 306 Q28 298 16.5 291 Q5 284 -7 277 Q-8 276 -8.5 276 Q-9 276 -10 275 Q-14 273 -17 271 Q-25 267 -29 267 Q-33 267 -34.5 269 Q-36 271 -36.5 273.5 Q-37 276 -37 277 Q-36 288 -29 303 Q-9 344 25 386 Q26 388 27 388.5 Q28 389 29 391 Q35 395 39 394 Q43 393 40 388 Q38 383 32 375 Q10 345 -6 316 Q-12 306 -16 296 Q-21 287 -22 281 Q-23 279 -22.5 277 Q-22 275 -17 277 L-11 280 Q-9 281 -8 282 Q3 289 14 296 Q25 303 36 311 Q53 322 70.5 332.5 Q88 343 106 352 Z " />
<glyph glyph-name="j" unicode="j" horiz-adv-x="107" d="M69 461 Q69 462 68.5 463 Q68 464 68 466 Q78 470 76 464 Q76 459 72 459 Q68 457 69 461 Z M109 352 Q111 354 112 351.5 Q113 349 111 347 Q100 339 87.5 330.5 Q75 322 64 314 Q44 300 24 285 Q4 270 -16 256 Q-27 248 -36.5 240 Q-46 232 -57 224 Q-63 219 -68.5 215.5 Q-74 212 -79 207 L-81 204 L-82 203 Q-86 197 -89.5 191 Q-93 185 -96 180 L-98 177 Q-113 154 -127.5 131.5 Q-142 109 -157 86 Q-179 54 -200.5 22 Q-222 -10 -245 -42 Q-256 -55 -266 -67.5 Q-276 -80 -287 -92 Q-294 -100 -301.5 -106.5 Q-309 -113 -317 -118 Q-326 -124 -334 -128 Q-355 -136 -357 -117 Q-357 -105 -352 -92 Q-347 -77 -339.5 -62.5 Q-332 -48 -324 -34 Q-310 -11 -292.5 9.5 Q-275 30 -255 50 Q-228 78 -199 105 Q-170 132 -141 158 Q-134 165 -127.5 171 Q-121 177 -114 183 Q-112 185 -111 186.5 Q-110 188 -108 190 Q-99 204 -89.5 218 Q-80 232 -71 246 L-49 279 L5 361 L30 400 Q32 402 35 404 Q40 407 45 405 L46 405 Q47 404 47 401 Q46 400 46 399.5 Q46 399 45 398 Q41 390 38 386 Q31 375 24.5 365 Q18 355 11 345 L-50 251 Q-52 248 -54.5 245 Q-57 242 -59 238 Q-59 237 -59.5 236.5 Q-60 236 -60 235 L-70 222 Q-65 224 -62 227 Q-59 230 -55 233 Q26 296 109 352 Z M-144 134 Q-139 142 -134 149.5 Q-129 157 -124 165 L-125 165 Q-126 165 -127 164 Q-155 138 -183.5 111.5 Q-212 85 -239 58 Q-256 41 -270.5 24.5 Q-285 8 -299 -10 Q-313 -30 -325.5 -50 Q-338 -70 -344 -91 Q-346 -96 -346.5 -101 Q-347 -106 -348 -111 Q-348 -116 -346 -122 Q-343 -126 -337 -123 Q-333 -121 -330 -119 Q-327 -117 -324 -114 Q-316 -109 -309 -102 Q-302 -95 -296 -88 Q-282 -73 -270 -57 Q-258 -41 -247 -24 Q-220 15 -194.5 54.5 Q-169 94 -144 134 Z " />
<glyph glyph-name="k" unicode="k" horiz-adv-x="234" d="M295 704 Q295 694 288 684 Q284 675 279 666 Q274 657 269 649 Q252 622 233 596.5 Q214 571 192 545 Q163 507 131.5 472 Q100 437 65 403 Q57 395 48 386.5 Q39 378 29 371 Q27 370 26.5 369.5 Q26 369 24 368 Q11 346 -0.5 324.5 Q-12 303 -21 286 Q-32 266 -42 247 L-36 253 Q-21 267 -6.5 281 Q8 295 24 309 L38 322 Q41 325 49 331 Q70 349 90 366.5 Q110 384 131 402 Q140 410 149 416.5 Q158 423 166 431 Q170 433 174 433 Q174 433 174 431 L173 430 Q173 429 172 429 L171 429 L79 350 L56 329 L34 309 Q32 295 31 281 Q30 267 28 253 Q29 245 30 237.5 Q31 230 38 225 Q45 220 52 222.5 Q59 225 66 230 Q82 241 96 250.5 Q110 260 125 271 Q152 291 180 311.5 Q208 332 236 352 Q240 354 240.5 351.5 Q241 349 239 347 Q222 334 204.5 322 Q187 310 169 297 Q154 286 139 275 Q124 264 108 253 Q100 248 91.5 242 Q83 236 75 230 Q69 226 63.5 222 Q58 218 50 217 Q36 215 28 227 Q24 233 23.5 240 Q23 247 23 255 Q24 268 25 280 Q26 292 28 304 L18 296 Q13 291 8.5 286 Q4 281 -1 276 Q-15 263 -28 250 Q-41 237 -54 223 Q-61 216 -67 219 Q-70 222 -69 225 L-69 226 Q-69 227 -68 230 Q-67 233 -62 242 Q-58 247 -55.5 252 Q-53 257 -51 262 Q-35 293 -16 325.5 Q3 358 19 384.5 Q35 411 46 428.5 Q57 446 57 446 Q64 457 72 467.5 Q80 478 87 489 Q139 562 198 633 Q217 656 241 682 Q248 688 254 693.5 Q260 699 268 704 L277 710 Q292 717 295 704 Z M287 698 Q289 705 287 706 Q280 705 275 700 Q269 695 262.5 690 Q256 685 251 680 Q234 663 220 645 Q206 627 192 608 Q159 566 128.5 524 Q98 482 69 439 Q64 432 60 427 Q56 422 52 414 Q46 406 40 395.5 Q34 385 28 374 Q29 375 30.5 375.5 Q32 376 33 378 Q39 383 44 388 Q49 393 54 398 Q135 478 203 565 Q223 591 241.5 616.5 Q260 642 274 668 Q278 676 281.5 683 Q285 690 287 698 Z " />
<glyph glyph-name="l" unicode="l" horiz-adv-x="132" d="M310 704 Q310 694 304 685 Q299 675 293 666 Q287 657 282 648 Q265 622 244.5 596.5 Q224 571 204 545 Q172 507 139 472 Q106 437 70 403 Q62 396 55 390 Q48 384 41 378 Q39 376 36 374.5 Q33 373 31 371 Q22 367 19 358 Q7 340 -4.5 321.5 Q-16 303 -27 285 Q-33 274 -37.5 264 Q-42 254 -46 244 Q-47 241 -48 238 Q-49 235 -47 233 Q-46 233 -45 234 Q-41 237 -33 241 Q-27 245 -21.5 248.5 Q-16 252 -9 256 Q3 264 14 271.5 Q25 279 37 287 Q61 303 85 319 Q109 335 133 352 Q135 354 136 351.5 Q137 349 135 347 Q108 329 81 310.5 Q54 292 27 274 Q14 265 1 256.5 Q-12 248 -25 240 Q-29 238 -32 236 Q-35 234 -37 232 Q-40 232 -42 230 Q-45 228 -49 227 Q-53 226 -56 227 Q-56 228 -57 228 Q-60 231 -60 236 Q-59 240 -58.5 244 Q-58 248 -56 253 Q-51 264 -45.5 275.5 Q-40 287 -34 298 Q-6 347 27.5 394 Q61 441 96 489 Q123 526 152 562 Q181 598 212 633 Q223 645 233.5 657.5 Q244 670 256 682 Q264 688 269.5 693.5 Q275 699 283 704 Q289 708 293 710 Q310 716 310 704 Z M302 698 Q306 704 302 706 Q295 705 289 700 Q284 695 278 690 Q272 685 267 680 Q249 663 234 645 Q219 627 204 608 Q160 555 120 502 Q80 449 43 394 Q39 389 36 384 Q33 379 29 374 Q34 376 35 378 Q41 383 46.5 388 Q52 393 58 398 Q142 476 214 565 Q234 591 252.5 616.5 Q271 642 288 668 Q293 676 297 683 Q301 690 302 698 Z " />
<glyph glyph-name="m" unicode="m" horiz-adv-x="221" d="M222 352 Q224 354 225.5 351.5 Q227 349 224 347 Q186 327 150 302.5 Q114 278 78 253 Q76 252 70.5 249 Q65 246 61 247 Q61 247 60 248 Q56 250 59 257 Q61 261 63 264.5 Q65 268 67 272 Q84 300 102.5 326 Q121 352 141 378 Q143 380 145 385 Q143 384 142.5 383 Q142 382 140 381 Q122 367 106 351.5 Q90 336 75 319 Q64 306 52.5 293 Q41 280 30 267 Q27 264 24 261 Q21 258 17 255 Q10 250 5 252 Q-2 254 3 263 Q6 269 9 275 Q12 281 16 287 Q28 308 42.5 328.5 Q57 349 73 369 Q76 372 77 375 Q71 371 69 369 Q49 353 31.5 336.5 Q14 320 -3 303 Q-10 295 -16.5 288 Q-23 281 -31 273 Q-32 271 -36 267 Q-40 263 -46 265 Q-50 268 -48 272 Q-46 277 -43.5 281.5 Q-41 286 -39 291 Q-25 316 -9 340 Q7 364 25 387 Q26 388 26 388.5 Q26 389 27 390 Q31 394 34 393 Q38 392 36 387 Q34 382 31 379 Q21 363 11.5 347.5 Q2 332 -9 315 Q-12 310 -15.5 304 Q-19 298 -22 292 Q-20 294 -19 294.5 Q-18 295 -17 297 Q-3 311 11 323.5 Q25 336 39 350 Q48 358 57 365 Q66 372 75 380 Q77 382 80 383.5 Q83 385 85 387 Q89 390 93 386 Q96 384 92 380 Q88 371 81 363 Q66 343 52 322.5 Q38 302 24 280 Q22 275 19 271 Q16 267 14 262 Q14 262 16 261 Q19 265 22.5 268 Q26 271 30 275 Q40 286 50.5 297.5 Q61 309 71 320 Q88 338 106 355 Q124 372 143 389 Q145 391 146.5 392 Q148 393 150 395 Q155 398 159 396 Q162 394 160 388 Q158 386 156.5 383 Q155 380 153 377 Q142 361 131 346 Q120 331 109 316 Q100 303 91.5 290.5 Q83 278 75 265 Q73 262 72 259.5 Q71 257 69 254 Q107 280 144 305.5 Q181 331 222 352 Z " />
<glyph glyph-name="n" unicode="n" horiz-adv-x="158" d="M159 352 Q161 354 162.5 351.5 Q164 349 162 347 Q138 336 117 319.5 Q96 303 76 286 Q65 278 55.5 269.5 Q46 261 35 253 Q30 249 25 245.5 Q20 242 15 238 Q14 238 14 237.5 Q14 237 13 237 Q9 235 1.5 231 Q-6 227 -10 232 Q-10 233 -11 233 L-11 235 Q-13 237 -11 240 Q-9 249 -5 256 Q3 273 13.5 289 Q24 305 35 321 Q44 334 54 347 Q64 360 73 373 Q79 379 82 385 Q82 385 78 383 Q70 376 62 369.5 Q54 363 46 356 Q31 342 17.5 328 Q4 314 -10 299 Q-14 295 -17.5 291 Q-21 287 -25 283 Q-29 279 -35 280 Q-41 281 -38 288 L-29 306 Q-16 328 -2.5 349.5 Q11 371 27 392 Q28 394 28.5 394.5 Q29 395 30 397 Q34 401 37 399 Q42 399 40 394 L37 388 Q32 380 27.5 372 Q23 364 18 356 Q11 345 4.5 334 Q-2 323 -9 312 Q-7 313 -4 316 Q24 345 55 372 Q60 377 65.5 380.5 Q71 384 76 389 Q79 391 87 395 Q90 397 96 395 Q98 393 96 387 Q94 385 93 382 Q92 379 90 377 Q82 366 74 355 Q66 344 58 333 Q50 322 43 311.5 Q36 301 28 290 Q26 287 22.5 281 Q19 275 15 267.5 Q11 260 7 252 Q3 244 2 238 Q9 241 16.5 246 Q24 251 26 253 L38 262 L77 295 Q97 311 116.5 326 Q136 341 159 352 Z " />
<glyph glyph-name="o" unicode="o" horiz-adv-x="147" d="M150 352 Q153 352 153.5 349.5 Q154 347 152 346 Q135 344 120 339.5 Q105 335 90 329 Q77 324 65 320 Q53 316 40 312 L37 306 L36 305 Q26 291 14 278 Q2 265 -12 254 Q-22 245 -38 238 Q-48 235 -54 236 Q-65 239 -65 251 Q-65 260 -58 274 Q-50 291 -39 306 Q-28 321 -15 335 Q-13 338 -10 341 Q-7 344 -5 347 Q0 352 1 356 Q7 377 22 390 Q25 393 28.5 395.5 Q32 398 36 400 Q57 411 66 394 Q70 385 68 373 Q66 362 61.5 351.5 Q57 341 52 330 Q49 327 45 319 Q56 322 66.5 326 Q77 330 88 335 Q104 340 119 344.5 Q134 349 150 352 Z M-24 254 Q-1 271 15 291 Q17 293 19.5 296.5 Q22 300 24 303 Q26 307 28 309 Q14 306 6 313 Q2 316 0.5 321 Q-1 326 -3 332 Q-15 317 -26.5 302.5 Q-38 288 -46 271 Q-51 261 -54 252 Q-57 240 -44 244 Q-39 246 -34 248.5 Q-29 251 -24 254 Z M39 325 Q55 351 61 375 Q63 381 61 388 Q59 404 42 396 Q38 394 30 388 Q20 379 12 365 Q12 363 11 361 Q15 364 21 368 Q29 373 32 364 Q30 363 27 360 Q22 358 22 357 L6 341 Q4 339 4 337 Q2 324 9 316 Q15 310 29 314 Q34 315 35 318 Q36 321 38 323 Q39 324 39 325 Z " />
<glyph glyph-name="p" unicode="p" horiz-adv-x="185" d="M186 352 Q189 354 189 351 Q189 348 187 347 Q160 336 132 325 Q104 314 77 303 Q63 298 49.5 292 Q36 286 22 281 Q12 277 2.5 273 Q-7 269 -17 266 Q-23 264 -26 264 Q-28 263 -28.5 263 Q-29 263 -31 262 Q-35 262 -36 261 L-37 261 Q-40 261 -43 264 Q-41 265 -39 267 Q-28 271 -18.5 276.5 Q-9 282 2 289 Q44 317 78 351 Q83 356 86.5 360 Q90 364 94 369 Q94 369 96 373 Q93 373 90.5 372 Q88 371 86 370 Q79 365 72 361 Q65 357 57 352 Q35 337 14.5 319.5 Q-6 302 -26 285 Q-39 275 -49 258 Q-93 192 -137 126.5 Q-181 61 -228 -4 Q-244 -26 -260.5 -47 Q-277 -68 -295 -88 Q-305 -99 -316 -109.5 Q-327 -120 -338 -130 Q-343 -134 -347 -137 Q-351 -140 -356 -143 Q-364 -148 -371 -148 Q-383 -150 -386 -139 Q-388 -134 -387 -128 Q-386 -122 -384 -115 Q-377 -97 -367.5 -80 Q-358 -63 -347 -46 Q-331 -22 -313 1 Q-295 24 -275 46 Q-226 100 -174.5 151.5 Q-123 203 -69 253 Q-62 260 -57 268 L54 433 Q57 438 60 441.5 Q63 445 65 450 Q69 454 71 454 Q74 452 72 448 Q68 438 62.5 428.5 Q57 419 50 409 Q33 382 15 355 Q-3 328 -20 302 Q-22 299 -24 295 L-23 295 Q-17 300 -11 305 Q-5 310 1 315 Q16 328 31.5 340 Q47 352 64 363 Q72 370 84 375 Q92 379 96 379 Q110 379 103 365 Q100 360 95.5 355.5 Q91 351 86 346 Q49 306 -1 278 Q-3 278 -5 276 Q2 278 8 281 Q14 284 22 286 Q36 292 49 297.5 Q62 303 76 308 Q104 319 131 330 Q158 341 186 352 Z M-80 233 Q-80 234 -78 236 L-79 236 Q-83 232 -85 231 Q-103 213 -121 195.5 Q-139 178 -156 161 Q-191 126 -224.5 91 Q-258 56 -288 19 Q-311 -7 -330 -33 Q-349 -59 -363 -87 Q-374 -108 -377 -125 Q-378 -132 -377 -139 Q-374 -147 -364 -141 Q-359 -139 -355.5 -136 Q-352 -133 -348 -130 Q-337 -120 -326.5 -109.5 Q-316 -99 -305 -88 Q-272 -49 -242 -7 Q-200 53 -159.5 113 Q-119 173 -80 233 Z " />
<glyph glyph-name="q" unicode="q" horiz-adv-x="189" d="M191 352 Q194 354 195 351.5 Q196 349 194 347 Q180 339 167 330 Q154 321 141 311 Q117 294 94 277 Q71 260 49 242 Q27 225 7 206.5 Q-13 188 -37 174 Q-38 172 -39 169 Q-40 166 -41 164 Q-42 160 -42.5 157 Q-43 154 -44 150 Q-60 99 -89 47 Q-108 13 -129.5 -19 Q-151 -51 -177 -82 Q-188 -96 -200 -108 Q-203 -111 -207 -114 Q-211 -117 -215 -120 Q-220 -123 -226 -125 Q-231 -125 -234 -123 Q-237 -121 -236 -117 Q-234 -112 -233 -108 Q-232 -104 -230 -100 Q-222 -80 -212.5 -61.5 Q-203 -43 -192 -24 Q-162 30 -128.5 82.5 Q-95 135 -60 187 Q-38 217 -16 247 Q6 277 25 306 Q15 298 5 289 Q-5 280 -16 273 Q-24 268 -31 270 Q-39 273 -39 281 Q-37 286 -35.5 291 Q-34 296 -32 301 Q-12 342 24 380 Q28 384 32.5 387.5 Q37 391 42 394 Q54 402 63.5 398.5 Q73 395 74 384 Q75 380 75 376 Q75 372 75 367 L77 369 Q82 372 85 371 Q90 370 87 364 Q86 364 86 363.5 Q86 363 85 363 Q55 325 27.5 286.5 Q0 248 -28 209 Q-57 168 -84.5 127.5 Q-112 87 -138 45 Q-155 16 -171.5 -12.5 Q-188 -41 -204 -71 Q-209 -79 -212.5 -88 Q-216 -97 -221 -106 Q-222 -108 -222.5 -111 Q-223 -114 -225 -118 Q-219 -115 -217 -113 Q-210 -108 -204 -102.5 Q-198 -97 -193 -91 Q-179 -76 -166.5 -59.5 Q-154 -43 -142 -26 Q-122 3 -105 33 Q-88 63 -72 94 Q-68 105 -63.5 117 Q-59 129 -54 140 Q-52 146 -50.5 151.5 Q-49 157 -47 163 Q-46 166 -45 170 Q-43 177 -39 180 L-21 191 Q-3 204 10 217 Q33 235 55 253 Q77 271 100 288 Q123 305 145 321 Q167 337 191 352 Z M20 310 Q30 320 39 329.5 Q48 339 59 349 Q63 353 65 358 Q65 362 65.5 365.5 Q66 369 66 373 Q68 380 66 385 Q64 397 55 393.5 Q46 390 34.5 377 Q23 364 11 346 Q-1 328 -10.5 312 Q-20 296 -25 285 Q-30 274 -26 276 Q-12 281 -1.5 290.5 Q9 300 20 310 Z " />
<glyph glyph-name="r" unicode="r" horiz-adv-x="156" d="M157 352 Q159 354 160.5 351.5 Q162 349 160 347 Q136 335 115 317 Q84 291 54 264.5 Q24 238 -5 211 Q-10 206 -17.5 199.5 Q-25 193 -30 188 Q-30 187 -31 187 Q-33 185 -38 181 Q-43 177 -47 178 Q-48 178 -48 178.5 Q-48 179 -49 179 Q-51 183 -49 188 L-49 190 L-49 191 L-48 193 Q-47 196 -46 198.5 Q-45 201 -44 204 Q-22 249 8 288 Q16 299 24 309 Q32 319 40 330 Q42 334 45 337 Q48 340 50 344 Q52 348 54 351 Q49 351 47 350 Q42 348 37 347 Q32 346 27 344 Q24 343 21 342 Q18 341 15 341 Q9 341 7 342 Q2 344 -0.5 347.5 Q-3 351 -3 354 Q-5 364 -2 375 Q1 386 6 397 Q13 410 21 422.5 Q29 435 40 447 Q43 450 46.5 453.5 Q50 457 54 460 Q60 464 66 466 Q74 469 78 466 Q82 463 80 456 Q79 448 76 441 Q73 434 69 427 Q57 407 42.5 388 Q28 369 11 352 Q10 352 10 351.5 Q10 351 9 351 Q10 346 16 347 Q26 349 31 351 Q36 352 40 353 Q44 354 49 356 L58 356 Q67 354 62 345 Q61 342 59.5 339 Q58 336 56 334 Q51 328 47.5 322 Q44 316 39 310 Q30 298 21.5 286.5 Q13 275 5 263 Q5 262 4.5 262 Q4 262 4 261 Q3 259 2.5 258.5 Q2 258 1 256 Q-4 248 -11 237 Q-18 226 -23 215 Q-30 203 -36 190 L-6 218 Q-3 220 3 226 L6 229 L7 229 Q25 246 43 262 Q61 278 80 294 Q98 310 116.5 325.5 Q135 341 157 352 Z M8 368 Q8 361 7 357 Q10 359 13 362 Q19 369 25 375.5 Q31 382 36 390 Q44 401 51.5 411.5 Q59 422 65 433 Q68 439 70.5 445 Q73 451 73 457 Q73 464 66 460 Q62 456 58 453 Q54 450 50 446 Q39 434 31.5 421 Q24 408 17 395 Q11 380 8 368 Z " />
<glyph glyph-name="s" unicode="s" horiz-adv-x="166" d="M166 352 Q169 353 169.5 350.5 Q170 348 167 347 Q134 338 99 321 Q72 308 47 292 Q22 276 -3 259 L-3 258 Q-5 253 -6 249 Q-7 245 -9 241 Q-30 177 -81 119 Q-87 113 -93 107.5 Q-99 102 -107 97 Q-119 88 -131 87 Q-138 86 -143 89 Q-149 92 -149 98 Q-149 108 -142 120 Q-125 155 -95 186 Q-79 204 -61.5 220 Q-44 236 -25 251 Q-20 256 -19 261 Q-15 274 -13 286.5 Q-11 299 -9 311 Q-7 320 -5.5 328.5 Q-4 337 -2 345 Q3 364 6 374 Q9 384 9 385 Q10 387 10.5 388.5 Q11 390 12 392 Q18 407 32 416 Q40 421 46 421 Q58 421 51 410 Q43 397 30 388 Q25 383 22 381 Q17 378 17 373 Q12 358 10 342.5 Q8 327 6 312 Q5 304 4 297.5 Q3 291 1 283 Q1 280 0.5 276 Q0 272 -1 267 Q11 275 23 283 Q35 291 47 299 Q75 316 104.5 330 Q134 344 166 352 Z M48 416 Q38 414 29.5 404 Q21 394 21 385 Q26 389 34 396.5 Q42 404 45 409 Q48 412 48 416 Z M-29 231 Q-27 234 -26.5 237.5 Q-26 241 -24 244 L-25 245 Q-27 243 -28 243 Q-42 230 -56 217 Q-70 204 -82 190 Q-96 175 -108.5 158 Q-121 141 -130 123 Q-133 117 -135.5 111 Q-138 105 -138 99 Q-138 93 -131 95 Q-121 99 -113 107 Q-105 113 -98.5 120 Q-92 127 -86 135 Q-68 158 -54 181.5 Q-40 205 -29 231 Z " />
<glyph glyph-name="t" unicode="t" horiz-adv-x="186" d="M614 675 Q623 673 615 665 Q613 662 608 657 Q584 639 559 626 Q534 613 506 605 Q483 598 455 595 Q426 592 397.5 592 Q369 592 340 593 Q325 593 309.5 593.5 Q294 594 279 595 Q258 596 237.5 596.5 Q217 597 196 598 Q194 598 192 596 L108 482 Q84 449 61 416 Q38 383 16 348 Q-3 320 -20 292 Q-37 264 -53 235 Q-67 212 -79.5 189 Q-92 166 -103 143 Q-108 130 -113 117.5 Q-118 105 -120 93 Q-122 82 -121 72.5 Q-120 63 -104 69 Q-99 71 -93 76 Q-74 90 -60 107 Q-46 122 -32.5 138 Q-19 154 -4 169 Q10 185 25 200.5 Q40 216 56 231 Q88 263 120.5 292.5 Q153 322 187 352 Q189 354 190.5 352 Q192 350 190 348 Q170 330 150.5 312 Q131 294 111 276 Q76 244 43 210.5 Q10 177 -22 142 Q-36 126 -49.5 110 Q-63 94 -80 80 Q-81 78 -84 76 Q-86 74 -89 72 Q-92 70 -95 68 Q-100 66 -104 64 Q-108 62 -113 61 Q-115 61 -117.5 60.5 Q-120 60 -122 61 Q-128 62 -133 66 Q-134 70 -135 74 Q-136 78 -136 82 Q-136 87 -135 91 Q-134 95 -134 98 Q-133 98 -133 100 Q-129 117 -122.5 132.5 Q-116 148 -108 165 Q-93 198 -75 229.5 Q-57 261 -38 293 Q-9 339 21 383.5 Q51 428 83 473 Q106 504 129 534.5 Q152 565 175 596 Q175 597 176 598 Q172 599 168 599 Q164 599 159 599 Q133 601 106.5 602.5 Q80 604 53 605 Q38 606 22.5 606 Q7 606 -9 606 Q-25 605 -40.5 603 Q-56 601 -73 596 Q-88 591 -103 584 Q-118 577 -132 566 Q-146 556 -151 544 Q-155 534 -151 531 Q-150 531 -150 529 Q-152 530 -154 530 Q-160 534 -156 545 Q-151 556 -142 563.5 Q-133 571 -124 578 Q-107 590 -88.5 596.5 Q-70 603 -52 607 Q-12 614 24 613 Q45 612 65.5 611.5 Q86 611 106 610 Q124 609 142 608 Q160 607 179 606 Q181 606 184 609 Q204 636 224.5 663.5 Q245 691 264 720 Q266 723 268.5 726.5 Q271 730 273 734 Q275 735 275 735.5 Q275 736 276 737 Q273 736 270.5 735.5 Q268 735 264 734 Q257 731 251 727.5 Q245 724 239 721 Q238 721 236 719 Q235 719 234 718 Q233 719 233 721 Q234 722 235 722.5 Q236 723 237 724 Q245 729 254 733 Q263 737 271 741 Q273 742 275 742 Q277 742 279 742 Q289 740 281 730 Q279 725 276.5 720 Q274 715 270 710 Q249 672 222 638 Q216 630 210.5 621.5 Q205 613 199 605 L202 605 Q235 604 267.5 603 Q300 602 333 601 Q352 601 371 600.5 Q390 600 410 601 Q454 601 504 613 Q520 618 535 624.5 Q550 631 566 639 Q575 644 585 649.5 Q595 655 603 662 L609 668 Q609 668 608 669 Q605 667 597 663 Q593 660 589 657 Q585 654 580 651 Q577 651 577 651 Q578 652 578 654 Q579 655 579.5 656 Q580 657 581 658 Q587 663 594 667.5 Q601 672 609 674 Q612 677 614 675 Z " />
<glyph glyph-name="u" unicode="u" horiz-adv-x="162" d="M163 352 Q165 353 166 351 Q167 349 165 347 Q143 336 123 321 Q103 306 83 292 Q74 285 65 278.5 Q56 272 45 265 Q43 264 39.5 262.5 Q36 261 32 260 L28 260 Q20 261 20 270 Q20 274 22 279 Q22 281 23 282 Q23 284 25 286 Q30 297 36 308 Q42 319 49 330 L61 349 Q63 353 65.5 356.5 Q68 360 70 365 L41 337 L29 326 Q24 321 19.5 316.5 Q15 312 10 307 L2 299 Q1 298 -2.5 295 Q-6 292 -10.5 288.5 Q-15 285 -20 283 Q-25 281 -28 282 Q-28 282 -29 283 L-30 283 Q-31 284 -31 287 Q-31 295 -27.5 301.5 Q-24 308 -21 315 Q-17 323 -13.5 329.5 Q-10 336 -6 343 Q2 357 11 371 Q20 385 28 399 Q31 404 36 401 Q41 398 38 393 Q30 380 22 367 Q14 354 6 340 Q-2 328 -9 313 Q-11 310 -12 306.5 Q-13 303 -15 300 Q-16 298 -17 295.5 Q-18 293 -19 291 Q-17 293 -14.5 294.5 Q-12 296 -10 297 Q-4 303 2 308.5 Q8 314 14 319 Q19 324 25 329.5 Q31 335 36 340 L85 386 Q86 387 88 388 Q91 389 95 388 Q100 386 97 381 Q92 373 87.5 366 Q83 359 78 351 Q67 334 56.5 316 Q46 298 36 280 L36 279 Q35 275 35 272 Q35 266 43 271 Q45 271 45 272 Q49 274 49 274 L58 280 Q77 292 92 305 Q109 318 126 330 Q143 342 163 352 Z " />
<glyph glyph-name="v" unicode="v" horiz-adv-x="211" d="M214 352 Q216 352 216 349 Q216 346 214 346 Q188 344 164.5 336.5 Q141 329 118 321 Q110 318 103 315.5 Q96 313 89 311 Q87 310 86.5 310 Q86 310 84 309 Q82 309 78 307 Q64 303 58 306 Q52 309 50 311 L50 312 Q50 312 49 314 Q45 311 42.5 308 Q40 305 37 302 Q26 291 15 281 Q4 271 -8 261 Q-12 258 -15.5 255 Q-19 252 -24 250 Q-27 248 -33 246 Q-48 243 -48 258 Q-49 263 -47 269 Q-45 275 -43 280 Q-38 293 -31.5 305 Q-25 317 -17 329 Q1 356 20 377 Q22 379 23 381 Q22 382 22 382.5 Q22 383 21 384 Q25 387 29 390 Q33 393 37 396 Q41 398 44 395 Q46 394 44 389 Q42 387 40 384 Q38 381 36 379 Q22 360 8.5 341.5 Q-5 323 -16 303 Q-27 285 -33 267 Q-35 259 -36 254 Q-34 255 -33 255 Q-32 255 -31 256 L-13 268 Q3 280 18 294 Q33 308 47 322 Q48 323 51 328 Q56 342 64.5 355 Q73 368 83 381 L94 392 Q96 394 97 394.5 Q98 395 99 396 Q104 398 107 396 Q110 394 108 389 Q106 386 104.5 382.5 Q103 379 101 376 Q96 366 89 357.5 Q82 349 74 341 L64 330 Q63 329 63 328 L56 321 Q56 317 58 314 Q60 312 64 311 Q68 310 78 313 Q82 314 85 315 Q88 316 92 317 Q102 321 112 324.5 Q122 328 132 332 Q152 339 172 344.5 Q192 350 214 352 Z M99 386 Q96 383 91.5 378 Q87 373 83 367 Q79 361 75.5 355.5 Q72 350 72 348 Q80 356 87.5 367 Q95 378 99 386 Z " />
<glyph glyph-name="w" unicode="w" horiz-adv-x="264" d="M266 352 Q269 352 269 349 Q269 346 266 346 Q240 344 216.5 332.5 Q193 321 170 308 Q165 305 159.5 301.5 Q154 298 148 295 Q143 293 139 291.5 Q135 290 130 292 Q122 294 120 300 L99 276 Q89 265 78.5 253.5 Q68 242 57 231 Q52 226 46 222 Q40 218 34 213 Q30 210 22 206 Q14 203 8 206 Q1 209 1 217 Q1 228 8 240 Q13 253 19.5 265 Q26 277 34 289 Q55 324 81 360 Q82 362 82.5 363 Q83 364 84 366 Q82 364 80.5 362.5 Q79 361 77 359 L23 305 Q13 295 1 286 Q-2 284 -4.5 282 Q-7 280 -10 278 Q-18 274 -26 277 Q-34 280 -32 291 Q-29 301 -24 313 Q-5 351 21 380 Q23 384 26.5 387 Q30 390 33 393 Q41 399 46 392 Q40 386 38 383 Q9 347 -10 308 Q-12 303 -14 297.5 Q-16 292 -17 286 Q-9 290 -6 293 Q3 301 12 307.5 Q21 314 29 322 Q50 342 71.5 362.5 Q93 383 114 403 Q117 405 121 409 Q124 413 128 411 Q132 409 129 405 Q127 403 125.5 400.5 Q124 398 122 396 Q68 328 29 255 Q25 247 21.5 238.5 Q18 230 16 222 Q15 220 15 217.5 Q15 215 14 213 Q19 214 23 217 Q31 221 37.5 226.5 Q44 232 51 237 Q68 253 83.5 270 Q99 287 114 304 Q115 305 115 306 Q115 307 116 309 Q116 323 124 337 Q132 351 147 368 Q148 370 154 374 Q160 378 165 379 Q170 380 171.5 376 Q173 372 165 359 Q160 351 154.5 344 Q149 337 144 330 Q142 328 140.5 325.5 Q139 323 137 321 L124 305 Q124 300 128 299 Q133 295 139 297.5 Q145 300 150 302 Q159 307 168.5 313 Q178 319 187 324 Q206 334 225.5 342 Q245 350 266 352 Z M163 371 Q151 364 143.5 354.5 Q136 345 131 337 Q126 326 123 316 L163 371 Z " />
<glyph glyph-name="x" unicode="x" horiz-adv-x="224" d="M226 352 Q228 354 229.5 351.5 Q231 349 229 347 Q213 339 197.5 331 Q182 323 167 315 Q140 301 113 285 Q100 277 87.5 269 Q75 261 62 254 Q55 250 48.5 247 Q42 244 35 241 Q29 239 26 239 Q21 239 15 241 Q6 247 8 261 Q8 268 11 276 L-14 242 Q-19 235 -25 228 Q-31 221 -38 215 Q-51 200 -66 192 Q-78 185 -89 185 L-92 185 L-93 185 Q-95 185 -95.5 185.5 Q-96 186 -97 186 Q-100 189 -97 196 Q-95 200 -90.5 204 Q-86 208 -82 210 Q-77 214 -72.5 217 Q-68 220 -63 224 Q-53 232 -43 238.5 Q-33 245 -22 252 Q-20 254 -19 254.5 Q-18 255 -17 257 Q-5 274 6 290 Q17 306 27 323 Q31 328 37 339 Q45 353 51 365 Q54 369 58 379 Q65 395 67 406 Q68 411 68 415 Q56 405 42.5 390.5 Q29 376 18 362 Q5 345 -7 328 Q-7 327 -7.5 327.5 Q-8 328 -8 329 L-8 330 Q-10 335 -7.5 339.5 Q-5 344 -3 348 Q1 353 4 358 Q7 363 11 368 Q19 379 28 390 Q37 401 48 410 Q53 414 57 417 Q61 420 66 421 Q75 423 77 412 Q78 402 73 388 L67 373 Q67 372 66 371 Q64 368 63.5 365 Q63 362 61 360 Q59 355 57.5 351 Q56 347 54 344 Q52 340 50 337 Q51 338 51.5 339 Q52 340 54 341 Q62 349 69.5 355 Q77 361 87 366 Q91 369 95 370.5 Q99 372 103 374 Q110 378 115 373 Q117 372 115 368 Q113 371 109 370 Q105 369 102 367 Q98 365 94.5 362.5 Q91 360 88 358 Q71 344 56 328 Q41 312 30 294 Q30 295 26 285 Q26 284 22.5 276.5 Q19 269 18 261.5 Q17 254 20 248.5 Q23 243 35 247 Q36 247 36.5 247.5 Q37 248 38 248 Q61 258 85 274 Q96 282 107.5 288.5 Q119 295 130 302 Q154 316 178 328 Q202 340 226 352 Z M-68 201 Q-56 210 -46.5 220.5 Q-37 231 -29 243 Q-31 241 -32 241 Q-43 233 -54 224.5 Q-65 216 -76 208 Q-78 207 -85 201 Q-92 195 -94 190 Q-89 190 -86 191 Q-75 194 -68 201 Z " />
<glyph glyph-name="y" unicode="y" horiz-adv-x="220" d="M222 352 Q224 354 226 352 Q228 350 226 348 Q212 336 198 324 Q184 312 170 301 Q146 281 121 261.5 Q96 242 70 223 Q50 209 30.5 196 Q11 183 -9 169 Q-12 165 -14.5 161 Q-17 157 -19 154 Q-81 57 -162 -35 Q-185 -61 -210.5 -85 Q-236 -109 -264 -130 Q-275 -138 -285.5 -145.5 Q-296 -153 -308 -160 Q-323 -168 -337 -171 Q-363 -174 -361 -150 Q-360 -134 -352 -117 Q-341 -90 -323 -66.5 Q-305 -43 -282 -22 Q-265 -6 -246.5 8 Q-228 22 -208 36 Q-180 56 -152.5 74.5 Q-125 93 -97 113 Q-80 125 -64.5 137 Q-49 149 -33 161 Q-31 163 -29 165 Q-27 167 -25 170 Q-1 208 21.5 247 Q44 286 66 325 L81 352 Q81 353 81.5 353.5 Q82 354 82 356 Q80 355 79.5 354 Q79 353 77 352 Q64 340 51.5 328 Q39 316 25 305 Q18 298 11 292 Q4 286 -4 280 Q-7 278 -10 276.5 Q-13 275 -16 273 Q-23 269 -29.5 272.5 Q-36 276 -34 285 Q-32 292 -29.5 298.5 Q-27 305 -24 313 Q-16 328 -6.5 343 Q3 358 14 372 Q20 379 27 385 Q33 391 38 385 Q29 373 20 360.5 Q11 348 3 334 Q-5 320 -11.5 307 Q-18 294 -22 280 Q-20 280 -19.5 280.5 Q-19 281 -18 281 Q-13 284 -8.5 287 Q-4 290 0 293 Q19 307 36 322.5 Q53 338 70 355 Q74 359 78 362.5 Q82 366 86 371 Q92 375 95 374 Q102 372 99 366 Q97 361 95 355.5 Q93 350 91 345 Q77 320 64 296 Q51 272 37 247 Q32 239 27.5 230 Q23 221 18 213 L-2 181 Q3 185 9 188.5 Q15 192 20 196 Q47 214 73 232.5 Q99 251 125 271 Q150 291 174 311 Q198 331 222 352 Z M-42 144 Q-41 145 -41 145.5 Q-41 146 -40 147 Q-40 147 -41 148 L-45 144 L-66 129 L-180 48 Q-200 34 -218.5 20.5 Q-237 7 -255 -8 Q-272 -22 -287.5 -37.5 Q-303 -53 -316 -70 Q-327 -86 -335.5 -102.5 Q-344 -119 -349 -137 Q-353 -149 -350 -157 Q-347 -167 -335 -164 Q-330 -162 -326 -160 Q-322 -158 -317 -156 Q-308 -151 -299.5 -145 Q-291 -139 -282 -132 Q-259 -114 -237.5 -94 Q-216 -74 -196 -52 Q-111 40 -42 144 Z " />
<glyph glyph-name="z" unicode="z" horiz-adv-x="212" d="M214 352 Q216 354 218 352 Q220 350 218 348 Q206 338 193.5 328 Q181 318 169 308 Q130 277 91 247 Q52 217 13 187 Q9 179 8 176 Q-32 96 -92 24 Q-145 -42 -210 -93 Q-234 -112 -258 -125 Q-273 -133 -285 -136 Q-294 -139 -306 -137 Q-324 -134 -319 -115 Q-316 -102 -309 -89 Q-301 -75 -291 -62 Q-281 -49 -269 -36 Q-255 -21 -239.5 -7.5 Q-224 6 -207 19 Q-181 40 -154.5 61 Q-128 82 -101 103 Q-78 122 -55 141 Q-32 160 -9 180 Q-5 184 -4 186 Q4 202 11 217.5 Q18 233 23 250 Q25 256 25.5 261.5 Q26 267 27 273 Q28 278 27 284 Q26 291 17 290 Q13 289 9.5 288.5 Q6 288 1 288 Q-6 286 -11 289 Q-16 292 -12 298 Q-10 301 -8 303.5 Q-6 306 -4 309 Q4 317 10.5 326 Q17 335 25 343 Q36 357 46 372 Q56 387 61 395 Q38 380 25 367.5 Q12 355 6 345 Q-2 334 -3 325 Q-9 325 -9 330 Q-9 337 -5 344 Q-1 352 6 359 Q13 366 16 370 L19 373 Q23 376 29 382 Q32 385 38.5 389.5 Q45 394 51.5 398.5 Q58 403 63.5 405 Q69 407 72 405 Q76 403 73 396 Q72 391 69.5 386.5 Q67 382 64 377 Q57 366 48.5 356 Q40 346 32 335 L5 302 Q3 301 0 296 Q4 296 6 297 Q10 297 13.5 297.5 Q17 298 20 297 Q37 297 40 281 Q42 269 39 258 Q36 240 28 221 Q27 219 24 212 Q21 205 18 197 Q24 202 29.5 206 Q35 210 41 215 Q86 249 128.5 283 Q171 317 214 352 Z M-13 167 Q-40 144 -63 125 Q-83 108 -102.5 92.5 Q-122 77 -132 69 L-147 57 Q-168 40 -189 24 Q-210 8 -230 -10 Q-245 -24 -259 -38 Q-273 -52 -285 -69 Q-297 -83 -305 -102 Q-310 -114 -309 -121 Q-309 -134 -294 -131 Q-287 -131 -281 -128 L-254 -113 Q-243 -105 -232 -97 Q-221 -89 -211 -80 Q-152 -29 -106 28.5 Q-60 86 -23 150 L-13 167 Z " />
<glyph glyph-name="D" unicode="D" horiz-adv-x="603" d="M-2 399 Q-6 397 -8 402 Q-14 412 -10 428 Q-5 448 3 466 Q14 493 28.5 516.5 Q43 540 57 562 Q83 598 109 626 Q135 654 161 677 Q182 694 201.5 709 Q221 724 241 733 Q256 741 269 744.5 Q282 748 295 748 Q320 748 332 733 Q353 708 339 647 Q331 628 324 609 Q317 590 309 571 Q293 536 275.5 501.5 Q258 467 241 433 Q219 393 197 354.5 Q175 316 153 277 Q151 275 148 268 Q150 271 151 272 Q152 273 152 274 Q181 312 210.5 348.5 Q240 385 269 420 Q307 465 345.5 506.5 Q384 548 423 583 Q446 602 466.5 618 Q487 634 509 647 Q528 661 553 664 Q576 669 588.5 652.5 Q601 636 601 604 Q601 590 598 575.5 Q595 561 591 545 Q580 509 567 474.5 Q554 440 536 405 Q493 317 441 243 Q390 168 335.5 103 Q281 38 225 -19 Q103 -135 -14 -206 Q-31 -216 -47 -223.5 Q-63 -231 -80 -236 Q-101 -244 -119 -243 Q-139 -241 -148 -224 Q-149 -223 -149 -223 Q-150 -226 -154 -230 Q-162 -237 -168 -232 Q-170 -229 -166 -222 Q-164 -217 -161.5 -212.5 Q-159 -208 -157 -203 Q-156 -200 -155.5 -198.5 Q-155 -197 -155 -195 Q-153 -160 -132 -125 Q-126 -111 -117.5 -99 Q-109 -87 -99 -76 Q-76 -45 -52 -24 Q-48 -22 -47 -20 Q-46 -18 -44 -15 Q-21 21 1 56 Q23 91 46 126 Q50 131 52 135 Q54 139 59 142 Q96 208 134.5 274 Q173 340 209 409 Q228 443 246.5 478 Q265 513 282 548 Q291 568 300.5 587 Q310 606 315 626 Q321 638 324 649 Q327 660 330 671 Q339 718 317 731 Q309 735 299 736 Q289 737 279 735 Q259 732 237.5 720 Q216 708 192 692 Q171 677 150.5 658.5 Q130 640 110 617 Q55 557 14 477 Q11 468 6.5 458.5 Q2 449 -1.5 439.5 Q-5 430 -6 420.5 Q-7 411 -4 402 Q-4 401 -2 399 Z M-143 -213 Q-141 -215 -141.5 -216 Q-142 -217 -140 -218 Q-137 -226 -131 -228.5 Q-125 -231 -119 -232 Q-111 -233 -102.5 -231.5 Q-94 -230 -86 -228 Q-70 -223 -55.5 -215.5 Q-41 -208 -25 -198 Q57 -150 136.5 -82 Q216 -14 296 78 Q339 126 377.5 178.5 Q416 231 453 288 Q477 325 497.5 362.5 Q518 400 538 440 Q552 468 563 497 Q574 526 581 555 Q586 570 589 584.5 Q592 599 592 611 Q590 627 587.5 637 Q585 647 575 650 Q567 654 561 654 Q551 656 540 651.5 Q529 647 518 641 Q498 631 479.5 617 Q461 603 442 586 Q411 560 379.5 529.5 Q348 499 319 465 Q265 407 214.5 344 Q164 281 116 213 Q115 211 113.5 208 Q112 205 111 203 Q85 159 57.5 115.5 Q30 72 4 27 Q4 27 2 21 L3 21 Q3 22 6 24 Q41 45 74 61 Q106 73 137.5 83 Q169 93 200 100 Q208 102 213.5 102 Q219 102 227 102 Q233 102 237 95 Q239 90 238 80 Q238 79 237.5 79 Q237 79 237 78 L237 77 Q235 75 233 77 Q233 78 233.5 78.5 Q234 79 234 80 Q234 95 228 95 Q226 96 224 96 Q222 96 220 96 Q210 96 199 93.5 Q188 91 177 88 Q158 82 138.5 76.5 Q119 71 99 63 Q49 43 -4 6 Q-9 0 -13 -7 Q-27 -29 -40 -50.5 Q-53 -72 -66 -94 Q-84 -123 -102.5 -152.5 Q-121 -182 -141 -210 Q-141 -213 -143 -213 Z M-70 -56 Q-72 -56 -72 -57 Q-96 -83 -118 -116 Q-125 -127 -131 -139.5 Q-137 -152 -140 -166 Q-141 -168 -141.5 -170.5 Q-142 -173 -145 -178 Q-125 -147 -107 -116.5 Q-89 -86 -70 -56 Z " />
<glyph glyph-name="zero" unicode="0" horiz-adv-x="203" d="M157 431 Q155 432 155 435 Q159 447 145 443 Q140 441 136 438.5 Q132 436 127 433 Q103 415 83 392 Q37 341 6 283 Q-8 258 -16 227 Q-18 220 -19 213 Q-20 206 -19 199 Q-19 191 -15 186 Q-12 182 -5 183 Q5 185 12 189 Q22 194 30.5 199.5 Q39 205 47 212 Q57 220 65.5 229 Q74 238 82 248 Q99 268 114.5 290 Q130 312 142 335 Q149 348 153.5 361 Q158 374 160 388 Q160 394 159.5 399.5 Q159 405 155 409 Q154 410 154 411 Q154 412 153 413 Q156 416 162 416 Q168 416 172 409 Q170 407 168.5 408 Q167 409 165 409 Q165 408 166 408 Q171 402 171 388 Q171 369 160 345 Q129 280 73 224 Q49 200 24 186 Q11 179 -2 176 Q-22 174 -28 188 Q-31 194 -31.5 201 Q-32 208 -31 216 Q-27 241 -14 268 Q3 305 27 338.5 Q51 372 81 404 Q89 412 97.5 420 Q106 428 116 434 Q124 441 136 446 Q145 450 154 449 Q167 446 157 431 Z " />
<glyph glyph-name="one" unicode="1" horiz-adv-x="147" d="M-27 180 Q-35 178 -32 185 Q-30 191 -27 197 Q-24 203 -21 209 Q-4 238 12 266 Q28 294 45 323 Q67 358 90.5 391 Q114 424 141 456 Q143 458 144 460 L145 461 Q143 459 141.5 458.5 Q140 458 138 456 Q128 448 117 440.5 Q106 433 95 426 Q90 424 85 421.5 Q80 419 75 417 Q68 413 62 415 Q60 415 59 416 Q61 417 61 417 Q71 417 85 424 Q118 443 145 467 Q151 473 157 478.5 Q163 484 169 490 Q172 493 174 493 Q181 493 176 486 Q171 479 166 472.5 Q161 466 156 459 Q135 433 115.5 406.5 Q96 380 77 352 Q52 314 28.5 276 Q5 238 -18 199 Q-20 194 -23 189.5 Q-26 185 -27 180 Z " />
<glyph glyph-name="two" unicode="2" horiz-adv-x="227" d="M137 186 Q135 186 133.5 185.5 Q132 185 130 185 Q115 184 100 183 Q85 182 70 181 Q58 180 47.5 182.5 Q37 185 26 188 Q19 190 13 193 Q7 196 0 198 Q-6 199 -11 202 Q-15 203 -18.5 203 Q-22 203 -27 201 Q-35 196 -42 201 Q-44 203 -44 205 Q-43 206 -42 207.5 Q-41 209 -39 209 Q-33 211 -29 211 Q-26 211 -20 215 Q-15 219 -10 222.5 Q-5 226 0 230 Q19 246 36 262.5 Q53 279 70 296 Q93 320 115 345.5 Q137 371 158 397 Q174 416 184 436 Q191 446 192 456 Q194 467 183 464 Q180 463 176.5 462.5 Q173 462 169 460 Q161 456 152.5 451 Q144 446 136 441 Q114 424 94 406 Q74 388 57 367 Q52 361 48 354.5 Q44 348 41 342 Q39 337 37 329 Q33 329 33 333 Q34 338 36 342.5 Q38 347 40 352 Q45 362 51.5 370.5 Q58 379 66 387 Q99 423 136 450 Q144 455 152 460 Q160 465 168 468 Q177 472 187 472 Q208 472 205 451 Q202 437 193 423 Q179 399 158 375 Q131 342 102 311 Q73 280 41 251 Q30 240 18 230 Q6 220 -7 211 Q-8 211 -8 210.5 Q-8 210 -9 210 Q-8 209 -7.5 209 Q-7 209 -6 208 Q3 205 11.5 202 Q20 199 28 196 Q42 191 57 189.5 Q72 188 88 189 Q99 190 109 190 Q119 190 129 191 Q136 191 137 186 Z " />
<glyph glyph-name="three" unicode="3" horiz-adv-x="197" d="M-63 236 Q-65 234 -66.5 233.5 Q-68 233 -70 232 Q-75 229 -77 224 Q-79 216 -79 212 L-79 190 Q-78 179 -67 178 Q-50 176 -33.5 180 Q-17 184 0 196 Q24 214 44 239 Q72 271 85 307 Q87 313 89 319 Q91 325 91 331 Q92 350 77 356 Q73 358 67 360 Q62 364 60 366 Q55 370 62 377 Q65 379 67.5 381 Q70 383 72 385 Q104 407 135.5 427.5 Q167 448 199 467 Q207 471 210 473 L211 474 Q205 474 202 473 Q178 469 154.5 467 Q131 465 108 465 Q98 466 88.5 466 Q79 466 68 466 Q63 465 56.5 464 Q50 463 44 461 Q28 456 18 445 Q14 447 18 451 Q21 453 24 455.5 Q27 458 31 460 Q43 468 59 470 Q64 471 68.5 471 Q73 471 78 471 Q86 472 94 472 Q102 472 110 472 Q136 473 162.5 475.5 Q189 478 216 484 Q223 486 227 483 Q235 480 226 472 Q223 470 219.5 467.5 Q216 465 213 463 Q180 443 148.5 422.5 Q117 402 86 381 Q84 379 81 377.5 Q78 376 76 374 Q74 373 73 371.5 Q72 370 70 368 Q71 367 71.5 367 Q72 367 73 366 Q76 365 78.5 364 Q81 363 84 362 Q105 351 102 322 Q100 310 95.5 298 Q91 286 84 274 Q63 236 32 206 L17 194 Q-6 177 -27.5 171.5 Q-49 166 -70 171 Q-74 172 -82 176 Q-87 180 -88 188 Q-91 201 -87 220 Q-82 236 -67 238 Q-66 238 -65 237.5 Q-64 237 -63 237 L-63 236 Z " />
<glyph glyph-name="four" unicode="4" horiz-adv-x="260" d="M171 362 Q183 364 190 366 Q194 366 197 367 Q200 368 204 368 Q212 368 216 367 Q222 365 221 358 Q221 355 218 354 Q216 352 214 354 Q214 354 211 357 L211 361 Q206 360 198 358 Q190 356 183 354.5 Q176 353 168 351 Q163 350 160 345 Q140 315 120.5 284.5 Q101 254 82 223 Q77 214 71.5 204.5 Q66 195 61 186 Q60 184 60 181 Q61 179 59 177 Q57 175 55 176 Q48 176 49 183 Q51 187 52.5 191 Q54 195 56 199 Q66 219 77.5 238 Q89 257 100 276 Q110 293 119.5 308 Q129 323 140 339 Q140 340 142 344 Q140 344 139 343.5 Q138 343 137 343 Q115 337 93.5 331.5 Q72 326 50 320 Q45 318 41 317.5 Q37 317 32 316 Q27 315 19 319 Q14 323 20 329 Q28 337 32 340 Q58 364 83.5 387.5 Q109 411 135 436 Q150 451 164 466 Q178 481 191 498 Q192 499 192.5 500 Q193 501 194 502 Q196 504 200 503 Q196 495 193 491 Q188 481 180.5 472 Q173 463 165 455 Q150 438 134 422.5 Q118 407 102 392 Q87 378 72 364 Q57 350 42 336 Q38 332 35 328 Q38 329 40 329.5 Q42 330 44 331 Q63 336 81.5 341 Q100 346 119 350 Q126 352 132 353 Q138 354 145 356 Q151 356 154 362 Q180 402 209 438 Q213 443 217 447 Q221 451 226 456 Q230 462 237 460 Q240 458 237 453 Q226 439 216.5 425 Q207 411 196 397 Q191 389 185.5 382 Q180 375 175 368 Q173 364 171 362 Z " />
<glyph glyph-name="five" unicode="5" horiz-adv-x="267" d="M54 261 Q50 260 50 264 Q49 272 39 267 Q34 265 30.5 262 Q27 259 23 256 Q4 238 -9 220 Q-16 209 -14 202 Q-12 195 -4 193 Q9 189 26 194 Q47 200 68 214 Q90 229 111 250 Q129 267 144.5 284.5 Q160 302 174 322 Q181 332 186.5 342 Q192 352 194 363 Q195 365 195 368 Q195 371 196 373 Q196 388 180 391 Q172 392 164 391 Q156 390 148 388 Q129 383 110.5 376.5 Q92 370 73 362 Q66 359 60 356 Q54 353 48 351 Q38 346 31 353 Q28 356 31 362 Q33 366 35 368 Q46 383 57 398.5 Q68 414 80 429 Q85 434 89 438.5 Q93 443 98 448 Q106 456 110 459 Q123 467 136 466 Q143 464 150 462.5 Q157 461 165 459 Q176 457 187 455.5 Q198 454 211 455 Q262 460 307 497 Q311 500 317 506 Q322 505 319 501 Q314 493 302 484 Q285 470 266.5 462.5 Q248 455 228 451 Q214 448 200.5 449 Q187 450 174 452 Q165 454 156.5 455 Q148 456 139 458 Q129 461 117 451 Q113 447 109.5 443.5 Q106 440 103 435 Q89 419 77 402.5 Q65 386 53 369 Q53 370 51 366 Q53 367 54.5 367 Q56 367 58 368 Q78 376 98 383 Q118 390 138 395 Q146 397 152.5 398 Q159 399 166 400 Q179 401 191 397 Q220 385 204 345 Q199 334 193 324.5 Q187 315 180 304 Q144 258 99 221 Q73 200 46 190 Q18 179 -6 185 Q-16 188 -20 194 Q-29 205 -19 219 Q-2 244 22 262 Q31 269 39 272 Q52 275 55 267 Q55 265 54 261 Z " />
<glyph glyph-name="six" unicode="6" horiz-adv-x="200" d="M191 466 Q190 468 190 468.5 Q190 469 189 471 Q186 469 182.5 467.5 Q179 466 176 464 Q169 459 162 454 Q155 449 148 443 Q128 428 111 410.5 Q94 393 77 374 Q58 352 41.5 329.5 Q25 307 11 283 Q5 272 0 260.5 Q-5 249 -9 237 Q-10 234 -10 230.5 Q-10 227 -11 224 Q-11 220 -10 219 Q-9 221 -8 222 Q-7 223 -6 225 Q1 239 10.5 250.5 Q20 262 31 273 Q41 282 51 291 Q61 300 71 309 Q89 325 108 334 Q118 340 129 338 Q144 336 141 320 Q139 312 136 305.5 Q133 299 129 291 Q112 264 89.5 243 Q67 222 38 207 Q23 199 9 196 Q-6 194 -15.5 200.5 Q-25 207 -25 221 Q-25 237 -17 255 Q-8 277 4.5 297.5 Q17 318 32 338 Q53 367 77 393 Q101 419 130 443 Q138 449 146.5 455 Q155 461 163 466 Q167 469 171.5 471 Q176 473 181 475 Q187 478 193 476 Q200 473 191 466 Z M-10 210 Q-7 201 6 204 Q14 206 21 209 Q28 212 35 216 Q89 249 117 298 Q125 311 128 322 Q131 335 118 328 Q103 321 92 313 Q76 303 63 291 Q50 279 36 267 Q26 257 17.5 247 Q9 237 2 226 Q0 222 -3.5 218.5 Q-7 215 -10 210 Z " />
<glyph glyph-name="seven" unicode="7" horiz-adv-x="240" d="M265 508 Q259 506 252.5 503.5 Q246 501 240 499 Q234 497 228 495 Q222 493 216 491 Q209 489 203 487.5 Q197 486 191 484 Q185 483 179 482 Q173 481 167 480 Q161 479 154.5 478.5 Q148 478 142 477 Q137 476 131 476 Q125 476 119 476 Q113 475 107 475 Q101 475 95 475 Q90 476 84 476 Q78 476 73 477 Q68 478 62 477.5 Q56 477 51 479 L51 481 Q53 481 54.5 481.5 Q56 482 58 482 L71 482 Q99 479 129 482 Q142 483 155 484.5 Q168 486 182 489 Q192 491 201.5 493.5 Q211 496 221 499 Q237 504 253 510.5 Q269 517 286 525 Q293 527 295 525 Q299 522 295 518 Q293 516 292 515.5 Q291 515 289 513 Q256 483 223.5 452.5 Q191 422 161 389 Q150 378 140.5 366 Q131 354 121 343 L116 338 Q120 338 123 338.5 Q126 339 129 339 Q136 340 143 340.5 Q150 341 157 342 Q160 342 166 340 Q171 338 169 332 Q166 329 165 329 Q162 329 161 330 L161 331 Q160 335 160 336 Q160 337 155 336 Q144 334 134 333 Q124 332 114 331 Q109 329 107 327 Q75 289 45 251 Q15 213 -11 172 Q-13 168 -13 165 Q-14 161 -17 157 Q-21 151 -26 153 Q-31 154 -29 159 Q-26 166 -21 173 Q-8 194 5.5 214.5 Q19 235 33 255 Q45 272 57.5 288.5 Q70 305 84 322 Q85 324 88 327 Q82 326 77 325.5 Q72 325 67 324 Q57 322 47.5 321.5 Q38 321 28 319 Q26 318 24.5 318 Q23 318 21 317 Q17 315 15 319 Q18 323 22 323 Q28 325 33.5 326 Q39 327 44 328 L89 334 Q93 334 98 339 Q125 371 153.5 401.5 Q182 432 214 461 Q225 472 237 482 Q249 492 260 502 L265 507 L265 508 Z " />
<glyph glyph-name="eight" unicode="8" horiz-adv-x="173" d="M61 348 Q60 351 60 353.5 Q60 356 59 359 Q56 381 73 407 Q100 448 146 467 Q152 469 158 470 Q164 471 169 469 Q184 464 173 445 Q165 434 156.5 424 Q148 414 139 404 Q126 392 113 380.5 Q100 369 86 358 Q82 355 76 349 Q75 347 75 343 Q75 343 75 339 Q77 333 78 327 Q79 321 81 316 Q86 302 85 290 Q85 281 80 269 Q73 257 59 246 Q33 228 8 218 Q0 215 -8 212.5 Q-16 210 -24 208 Q-37 206 -44 209 Q-64 215 -51 240 Q-43 253 -30 268 Q3 304 39 330 Q45 335 50.5 339 Q56 343 61 348 Z M64 338 Q57 333 51 328.5 Q45 324 40 319 Q35 315 30.5 311 Q26 307 21 303 Q13 297 6.5 290.5 Q0 284 -7 277 Q-15 269 -23 260 Q-31 251 -37 241 Q-39 237 -40.5 233.5 Q-42 230 -44 226 Q-47 216 -37 215 Q-35 215 -32.5 215.5 Q-30 216 -28 216 Q-13 219 1.5 225.5 Q16 232 31 241 Q36 244 42 248 Q48 252 53 256 Q65 265 70 278 Q75 292 73 301 Q71 310 68.5 319 Q66 328 64 338 Z M72 358 Q74 359 76 361 L115 397 Q127 408 137.5 419.5 Q148 431 157 444 Q159 447 160.5 450 Q162 453 164 455 Q165 457 165 458 Q165 459 166 460 Q161 461 158 460.5 Q155 460 150 458 Q135 451 124 443 Q107 430 94 415 Q81 400 74 382 Q69 368 72 358 Z " />
<glyph glyph-name="nine" unicode="9" horiz-adv-x="193" d="M39 297 Q36 295 32 293 Q26 288 19.5 283.5 Q13 279 8 274 Q-3 263 -13 252.5 Q-23 242 -32 231 Q-38 224 -41 214 Q-46 200 -32 199 Q-25 199 -15 203 Q-2 208 12 219 Q32 234 51 257 Q97 311 136 374 Q144 386 150.5 398.5 Q157 411 165 424 L164 424 L152 409 Q141 397 130.5 385 Q120 373 109 362 Q95 350 84 346 Q66 338 54 349 Q45 357 48 374 Q52 390 63 405 Q73 418 83.5 428 Q94 438 108 446 Q125 457 141 457 Q154 455 160 449 Q164 445 162 440 Q161 439 160 437.5 Q159 436 158 436 Q153 436 155 440 Q157 446 150 448 Q146 450 137 448 Q132 446 127.5 444.5 Q123 443 118 440 Q80 415 63 378 Q58 368 58 360 Q58 350 68 350 Q75 350 83 353 Q96 358 108 370 Q129 389 148 415 Q172 445 192 474 Q195 479 199 478 Q204 476 203 472 Q203 469 202 466 Q201 463 200 460 Q185 428 168.5 396 Q152 364 132 333 Q118 312 103 292 Q88 272 71 252 Q61 241 51 231 Q41 221 30 212 Q13 200 -3 193 Q-25 185 -41 192 Q-48 195 -52 200 Q-57 210 -52 219 Q-50 221 -49 223.5 Q-48 226 -46 228 Q-16 264 17 290 Q21 293 24.5 295 Q28 297 32 299 Q38 303 42 300 Q44 299 44 297.5 Q44 296 45 295 Q45 292 43 292 Q42 292 42 292 L41 292 Q40 293 40 294 Q40 295 39 297 Z " />
<glyph glyph-name="braceleft" unicode="&#x7b;" horiz-adv-x="155" d="M324 713 Q334 716 337 712 Q335 709 334 709 Q327 709 318 702 Q315 700 312.5 696.5 Q310 693 308 690 Q300 681 293 671.5 Q286 662 280 652 Q263 626 246 599.5 Q229 573 212 547 Q210 543 207 540 Q207 539 203 534 Q199 529 193.5 522.5 Q188 516 182.5 509 Q177 502 174 498 Q168 491 162 485 Q156 479 149 472 Q138 459 126 446.5 Q114 434 101 422 Q99 419 96.5 416.5 Q94 414 92 411 Q94 410 94.5 410 Q95 410 97 409 Q99 408 101.5 408 Q104 408 106 407 Q116 403 109 391 Q106 386 103.5 382 Q101 378 97 373 L97 372 Q95 367 92 364 Q91 363 91 362.5 Q91 362 89 361 L89 360 L89 361 L69 333 L45 295 Q35 281 26.5 267 Q18 253 8 238 Q-3 219 -14 201 Q-25 183 -36 164 Q-43 153 -49.5 141.5 Q-56 130 -62 119 Q-69 108 -75 96 Q-81 84 -87 73 Q-92 65 -95 56 Q-98 47 -100 39 Q-102 28 -99 18 Q-99 17 -96 14 Q-93 18 -90 20 Q-87 23 -87 21 Q-84 21 -87 18 Q-90 10 -98 10 Q-105 10 -107 14 Q-113 23 -112 35 Q-110 42 -107.5 49.5 Q-105 57 -102 65 Q-97 75 -92 85 Q-87 95 -81 105 Q-70 123 -60.5 140.5 Q-51 158 -40 176 Q-26 199 -12.5 222 Q1 245 15 267 Q22 278 28.5 289 Q35 300 43 311 L44 314 L72 352 L83 369 Q87 375 87 375 Q90 380 93 384.5 Q96 389 98 394 Q101 401 97 402 Q92 402 89 403 Q88 404 86.5 404 Q85 404 84 405 Q78 409 85 416 Q91 424 94 427 Q107 440 119.5 453 Q132 466 144 480 L147 483 Q148 484 155 492.5 Q162 501 172 513.5 Q182 526 192.5 540 Q203 554 211 565 Q211 566 211.5 566 Q212 566 212 567 Q227 590 242 612.5 Q257 635 272 658 Q277 666 282.5 673 Q288 680 294 688 Q300 697 309 703 Q314 710 324 713 Z " />
<glyph glyph-name="braceright" unicode="&#x7d;" horiz-adv-x="150" d="M-168 16 Q-157 22 -148 30.5 Q-139 39 -131 47 Q-123 58 -117 67 Q-111 76 -104 86 Q-90 111 -76 135 Q-62 159 -48 184 Q-40 198 -32.5 211.5 Q-25 225 -17 239 Q-9 251 -2 263 Q5 275 12 287 Q23 305 34.5 322 Q46 339 59 356 Q61 359 63.5 361 Q66 363 68 365 Q75 375 87 382 Q92 384 95.5 386 Q99 388 102 390 Q106 392 108.5 394.5 Q111 397 114 400 Q112 401 112 401.5 Q112 402 111 403 Q109 405 108.5 406 Q108 407 107 408 Q102 414 109 426 Q114 434 119 442.5 Q124 451 129 459 Q145 482 160.5 504 Q176 526 191 549 Q206 572 220 593 Q234 614 248 637 Q263 658 272 679 Q274 683 275 687 Q276 691 278 696 Q282 705 278 711 Q277 711 277 713 Q277 714 278 714 Q279 715 280 714 Q288 711 287 702 Q287 695 284 688 Q279 677 274 667 Q269 657 264 646 Q251 624 237.5 603 Q224 582 210 560 Q191 533 172.5 505.5 Q154 478 135 452 Q130 446 127 440 Q124 434 121 429 Q111 415 119 407 Q120 406 121 405.5 Q122 405 123 404 Q125 400 121 396 Q115 390 112 388 Q108 386 104 383.5 Q100 381 96 379 Q83 372 75 362 Q68 354 61.5 345 Q55 336 50 328 Q39 314 29.5 299 Q20 284 11 267 Q3 253 -5 239 Q-13 225 -21 211 Q-29 197 -37 183.5 Q-45 170 -53 156 Q-65 136 -77 114.5 Q-89 93 -102 73 Q-105 68 -108.5 63.5 Q-112 59 -116 54 Q-132 32 -159 16 Q-167 10 -171 10 L-177 10 Q-179 12 -178 15 L-174 19 Q-171 21 -169 17 Q-169 16 -168 16 Z " />
<glyph glyph-name="bracketleft" unicode="&#x5b;" horiz-adv-x="158" d="M365 716 Q367 716 367 714 Q367 712 365 712 L329 712 L315 694 L314 693 Q310 689 309 686 Q304 681 299.5 675 Q295 669 290 663 Q279 648 268 633 Q257 618 246 603 Q237 591 230 580 Q223 569 215 558 Q204 540 192 523 Q180 506 169 489 Q160 474 150 459 Q140 444 132 429 Q117 407 103 385.5 Q89 364 75 341 Q56 311 37 281 Q18 251 -2 219 Q-20 192 -37.5 164 Q-55 136 -72 108 Q-83 94 -92.5 79 Q-102 64 -111 49 Q-116 42 -120.5 35 Q-125 28 -130 21 L-131 21 Q-132 19 -132 16 Q-132 13 -127 13 L-102 13 Q-100 13 -100 11 Q-100 9 -102 9 L-136 9 Q-145 9 -144.5 14 Q-144 19 -143 20 Q-143 19 -141 23 Q-136 30 -132 37 Q-128 44 -123 50 Q-91 96 -65 139 Q-50 163 -34.5 187.5 Q-19 212 -3 237 Q12 260 27.5 284 Q43 308 59 332 Q78 361 96 391 Q114 421 132 450 Q149 476 165.5 501.5 Q182 527 199 553 Q219 583 240 612.5 Q261 642 284 672 Q286 675 288 677.5 Q290 680 292 682 Q295 685 298 688.5 Q301 692 303 695 L321 716 L322 716 L323 716 L365 716 L365 716 Z " />
<glyph glyph-name="bracketright" unicode="&#x5d;" horiz-adv-x="157" d="M296 709 Q296 702 291 691 Q289 686 286.5 681.5 Q284 677 282 672 Q272 655 261.5 638 Q251 621 240 603 Q230 589 221 576 Q212 563 204 549 Q194 535 184.5 520 Q175 505 165 490 Q156 477 147 463.5 Q138 450 130 436 Q121 422 111.5 409 Q102 396 93 382 Q82 365 71.5 349 Q61 333 50 316 Q32 290 15 265 Q5 251 -4 236 Q-13 221 -23 207 Q-34 189 -46 171 Q-58 153 -69 135 Q-81 117 -92.5 99 Q-104 81 -116 63 L-150 8 L-155 8 L-163 8 L-200 8 Q-202 8 -202 10 Q-202 12 -200 12 L-161 12 L-143 39 L-137 48 L-136 50 L-129 59 Q-123 68 -117.5 77 Q-112 86 -106 94 Q-97 108 -88 122 Q-79 136 -69 150 Q-64 160 -58 169 Q-52 178 -46 187 Q-35 204 -24.5 221 Q-14 238 -3 255 Q5 268 14.5 281.5 Q24 295 33 309 Q42 322 50.5 334.5 Q59 347 67 360 Q75 373 83.5 385.5 Q92 398 101 411 Q111 426 120.5 441 Q130 456 141 471 Q151 488 161 503 Q171 518 182 535 Q191 549 200 562.5 Q209 576 218 590 Q223 599 228.5 607 Q234 615 240 624 Q251 641 261 657 Q271 673 279 689 Q280 691 280 693 Q281 695 282.5 699 Q284 703 284 707 Q285 712 281 712 L250 712 Q248 712 248 714 Q248 716 250 716 L289 716 Q290 716 292.5 715 Q295 714 296 711 L296 709 L296 709 Z " />
<glyph glyph-name="bar" unicode="&#x7c;" horiz-adv-x="145" d="M307 714 Q312 716 310 712 Q308 709 307 706 Q306 703 304 701 Q297 687 289 674.5 Q281 662 273 649 Q265 637 258 625.5 Q251 614 243 603 Q234 589 225.5 576 Q217 563 207 551 Q202 542 196 533.5 Q190 525 185 517 Q171 497 158.5 476.5 Q146 456 132 436 Q112 406 93.5 376 Q75 346 55 314 Q37 288 19.5 261 Q2 234 -15 207 Q-28 186 -41 165 Q-54 144 -68 124 Q-79 107 -90 91.5 Q-101 76 -113 59 Q-121 47 -129 35 Q-137 23 -145 10 Q-154 9 -150 15 Q-145 23 -140.5 31 Q-136 39 -131 47 Q-127 53 -123 59 Q-119 65 -116 71 Q-101 92 -87.5 113 Q-74 134 -60 155 Q-54 164 -47.5 173 Q-41 182 -36 192 Q-27 206 -18.5 219 Q-10 232 -1 246 Q17 274 36 303 Q47 320 56.5 335.5 Q66 351 77 367 Q94 394 111 420.5 Q128 447 145 473 L190 542 Q198 554 207.5 567 Q217 580 225 592 L267 655 Q276 669 285.5 683 Q295 697 304 711 Q304 714 307 714 Z " />
<glyph glyph-name="less" unicode="&#x3c;" horiz-adv-x="203" d="M172 395 Q169 393 166.5 392.5 Q164 392 161 390 Q141 382 120 373 Q99 364 78 355 Q73 353 67 349 Q68 348 72 346 Q81 342 88.5 337 Q96 332 103 327 Q106 323 114 317 L117 314 Q117 311 115 310 Q114 307 110 309 L108 310 Q102 315 96 318.5 Q90 322 84 327 Q79 330 75 332.5 Q71 335 67 338 Q65 340 63.5 340.5 Q62 341 60 343 Q58 345 58 346 Q55 350 65 354 Q70 356 74 357.5 Q78 359 82 361 Q96 367 110 373 Q124 379 138 384 Q146 388 153 391 Q160 394 168 397 Q172 398 172 395 Z " />
<glyph glyph-name="greater" unicode="&#x3e;" horiz-adv-x="185" d="M74 396 Q78 399 78.5 399.5 Q79 400 81 399 Q88 392 97 386 Q104 379 110.5 373 Q117 367 124 360 Q126 358 128.5 356 Q131 354 132 352 Q134 350 131.5 347 Q129 344 124.5 341.5 Q120 339 115 337 Q110 335 108 335 Q86 326 66 319.5 Q46 313 23 305 Q22 305 21.5 304 Q21 303 19 303 Q15 302 15 305 Q15 306 16.5 306.5 Q18 307 19 309 Q21 309 22.5 310.5 Q24 312 27 312 Q48 320 69.5 328.5 Q91 337 113 344 Q115 344 118 345 Q121 346 124 347 Q113 358 102.5 370 Q92 382 80 392 Q78 393 76.5 394.5 Q75 396 74 396 Z " />
<glyph glyph-name="colon" unicode="&#x3a;" horiz-adv-x="127" d="M53 338 Q54 339 55 338 Q56 337 55 336 Q54 334 53 331 Q52 328 50 325 Q46 318 41 323 Q43 326 44.5 329 Q46 332 48 336 Q50 338 53 338 Z M89 392 Q95 392 91 388 Q88 380 78 376 Q79 379 79 381.5 Q79 384 80 387 Q82 392 89 392 Z " />
<glyph glyph-name="semicolon" unicode="&#x3b;" horiz-adv-x="133" d="M47 332 Q48 332 49 331 Q50 330 49 329 Q44 320 38 311 Q32 302 22 294 Q20 293 19 293 Q18 293 16 292 Q22 301 27.5 309 Q33 317 38 325 L43 330 Q45 332 47 332 Z M81 382 Q84 382 84 380 Q82 375 77 370 Q72 368 71 369 Q70 369 69 370 Q72 376 76 379 Q78 381 79 381 Q80 381 81 382 Z " />
<glyph glyph-name="comma" unicode="&#x2c;" horiz-adv-x="133" d="M52 306 Q60 308 62 303 Q64 300 58 294 Q56 291 52 287 Q41 276 31 266.5 Q21 257 10 246 Q5 243 4 244 Q0 244 5 249 Q8 253 11.5 256.5 Q15 260 18 264 Q26 272 33 279.5 Q40 287 47 295 Q51 299 51.5 300 Q52 301 52 306 Z " />
<glyph glyph-name="period" unicode="&#x2e;" horiz-adv-x="126" d="M37 283 Q33 283 35 287 Q37 293 41 295 Q43 297 45.5 298 Q48 299 50 301 Q54 303 54 299 Q53 297 53 296.5 Q53 296 52 294 Q50 291 47 289 Q44 288 41.5 286.5 Q39 285 37 283 Z " />
<glyph glyph-name="quotedbl" unicode="&#x22;" horiz-adv-x="207" d="M196 712 Q191 704 185.5 696 Q180 688 175 680 Q172 676 169.5 673 Q167 670 163 667 Q161 667 159 665 Q154 665 157 668 Q157 668 158 669 Q164 674 167.5 679.5 Q171 685 175 691 Q179 697 182.5 703.5 Q186 710 191 716 Q193 722 196 719 Q199 719 198 717 Q198 715 197 714 Q196 713 196 712 Z M215 719 Q218 719 216 717 Q216 714 214 712 Q209 704 203.5 696 Q198 688 193 680 Q191 676 188 673 Q185 670 182 667 Q181 667 177 665 Q175 665 175 668 Q176 668 176 669 Q182 674 185.5 679.5 Q189 685 193 691 Q197 697 201 703.5 Q205 710 209 716 Q213 721 215 719 Z " />
<glyph glyph-name="quotesingle" unicode="&#x27;" horiz-adv-x="230" d="M242 711 Q237 703 231.5 695.5 Q226 688 221 680 Q217 674 210 668 Q208 666 206 666 Q201 664 204 669 Q214 678 221 692 Q226 697 229.5 703.5 Q233 710 237 716 Q241 721 243 719 Q246 719 245 716 Q244 714 243.5 713.5 Q243 713 242 711 Z " />
<glyph glyph-name="question" unicode="&#x3f;" horiz-adv-x="265" d="M306 710 Q338 715 355.5 699 Q373 683 365 654 Q363 644 358.5 635.5 Q354 627 349 619 Q339 604 329 590 Q319 576 306 563 Q287 543 269 523 Q251 503 233 483 Q199 448 166.5 413.5 Q134 379 103 343 Q63 298 27 252.5 Q-9 207 -43 161 Q-58 140 -73 119.5 Q-88 99 -103 79 Q-107 74 -110 74 Q-112 74 -112.5 75.5 Q-113 77 -111 79 Q-110 81 -109 83 Q-108 85 -107 87 Q-100 97 -93.5 106 Q-87 115 -81 124 Q-65 148 -48 171 Q-31 194 -15 216 Q8 248 32.5 278.5 Q57 309 81 338 Q117 380 154.5 420.5 Q192 461 230 502 Q248 522 266 541 Q284 560 301 580 Q320 600 333 621 Q340 631 344.5 640.5 Q349 650 353 660 Q357 674 352 686 Q347 698 327 701 Q310 704 286 696 Q273 693 258 685 Q234 674 212 659.5 Q190 645 169 627 Q155 617 145 606 Q135 595 127 583 Q122 575 118 568 Q114 561 113 553 Q107 531 124 523 Q125 523 125 521 Q121 520 116 523 Q109 525 106 537 Q103 550 109 566 Q114 578 122 588 Q130 598 139 609 Q152 624 165 634 Q188 653 212 669 Q236 685 262 696 Q273 701 284 704.5 Q295 708 306 710 Z M-154 9 Q-149 12 -144 10 Q-143 8 -144.5 6 Q-146 4 -147 1 L-152 1 Q-154 3 -155 4 Q-156 5 -154 9 Z " />
<glyph glyph-name="slash" unicode="&#x2f;" horiz-adv-x="218" d="M-206 8 Q-206 9 -206.5 9.5 Q-207 10 -206 12 Q-204 16 -200 20 Q-189 34 -178.5 47 Q-168 60 -157 74 Q-101 138 -46 201.5 Q9 265 66 328 Q140 412 213.5 495 Q287 578 362 662 Q370 672 379 682.5 Q388 693 397 704 Q401 710 404 712 Q408 718 412 716 Q413 715 410 710 Q405 705 401.5 699.5 Q398 694 393 688 Q374 665 354.5 642.5 Q335 620 315 598 Q250 524 186 452 Q122 380 57 307 Q8 251 -40.5 196.5 Q-89 142 -137 86 Q-152 69 -166.5 52 Q-181 35 -195 18 Q-197 15 -201 11 Q-202 10 -206 8 Z " />
<glyph glyph-name="exclam" unicode="&#x21;" horiz-adv-x="153" d="M308 709 Q313 709 310 703 L310 702 Q310 701 309.5 700.5 Q309 700 309 699 Q307 696 305 692 Q303 688 299 683 Q285 660 271 637.5 Q257 615 243 592 Q189 507 133 423 Q77 339 20 254 Q-9 213 -36 172 Q-63 131 -89 89 Q-91 86 -93.5 82.5 Q-96 79 -98 77 Q-100 71 -105 73 Q-108 75 -106 78 Q-106 80 -105 81.5 Q-104 83 -103 85 Q-89 107 -76 128.5 Q-63 150 -49 172 Q-27 206 -5.5 240 Q16 274 39 309 Q62 344 85.5 379 Q109 414 132 449 Q159 491 185.5 531.5 Q212 572 239 613 Q252 633 265.5 654 Q279 675 293 695 Q298 700 301 706 Q305 710 308 709 Z M-141 12 Q-136 12 -135 7 Q-143 5 -146 1 Q-149 -2 -151 2 Q-150 4 -149.5 5.5 Q-149 7 -148 9 Q-147 12 -141 12 Z " />
<glyph glyph-name="asciitilde" unicode="&#x7e;" horiz-adv-x="207" d="M88 355 Q83 355 80 353.5 Q77 352 75 350 Q70 346 65 342 Q60 338 55 334 Q48 329 41.5 323 Q35 317 28 312 Q24 308 20 307 Q19 307 19 308 Q18 308 18 309 L21 312 Q33 323 45.5 333.5 Q58 344 71 355 Q73 357 75.5 357.5 Q78 358 80 360 Q88 365 95 362.5 Q102 360 101 353 L98 341 Q96 336 94.5 331.5 Q93 327 91 322 Q89 314 90 310 Q93 310 95 312 Q100 315 103.5 318 Q107 321 112 324 Q120 331 129 338 Q138 345 147 352 Q150 355 158 359 Q165 364 170 360 Q155 350 141 338 Q133 332 126 326 Q119 320 112 314 Q109 311 101 305 Q92 299 82.5 301 Q73 303 75 312 Q75 318 77 324 Q79 330 81 337 Q83 342 84.5 346 Q86 350 88 355 Z " />
<glyph glyph-name="grave" unicode="&#x60;" horiz-adv-x="147" d="M107 728 Q115 731 118 724 Q121 721 121 718 Q125 707 128 696.5 Q131 686 135 675 Q135 674 135.5 673.5 Q136 673 136 671 Q136 669 136.5 667 Q137 665 134 663 Q131 661 128 669 Q123 680 119 690.5 Q115 701 110 712 L107 724 L107 728 Z " />
<glyph glyph-name="at" unicode="&#x40;" horiz-adv-x="285" d="M130 333 Q127 331 125.5 329 Q124 327 122 326 Q115 320 108.5 314.5 Q102 309 95 303 Q91 300 87.5 297.5 Q84 295 80 293 Q76 290 68 290 Q60 292 63 300 Q64 303 66 311 Q72 322 79.5 334 Q87 346 97 357 Q105 367 116 373 Q130 382 142 379 Q148 378 153 371 Q153 372 155 366 Q158 369 160 369 Q163 371 168 371 Q171 370 170 365 Q168 361 166 358.5 Q164 356 162 353 Q142 328 127 299 Q123 292 120 285 Q119 282 119 274 Q121 272 124 273.5 Q127 275 129 276 Q138 281 146.5 285 Q155 289 163 294 Q182 309 200 328 Q214 344 226 360.5 Q238 377 246 395 Q258 423 257 447 Q256 450 255.5 453.5 Q255 457 254 459 Q251 473 240.5 479 Q230 485 215 486 Q205 487 195 484.5 Q185 482 174 479 Q139 464 109 442 Q28 382 -15 299 Q-24 283 -30 266.5 Q-36 250 -41 233 Q-43 222 -44.5 211.5 Q-46 201 -44 190 Q-44 177 -39 168 Q-38 163 -33 158 Q-20 142 4 149 Q17 151 27.5 157 Q38 163 49 171 Q68 182 85 195 Q102 208 119 222 Q126 227 132 232.5 Q138 238 145 244 Q151 249 158 255.5 Q165 262 171 269 Q172 271 173 271.5 Q174 272 175 273 Q176 274 179 274 Q180 272 180 272 Q178 270 177 268 Q176 266 174 264 Q167 257 160 250.5 Q153 244 146 238 Q127 221 108 206 Q89 191 69 177 Q59 169 49 162 Q37 154 26.5 149 Q16 144 5 142 Q-22 136 -41 150 Q-55 162 -56 177 Q-61 193 -58 216 Q-53 251 -39 282 Q-19 330 14 370.5 Q47 411 92 445 Q106 456 121.5 465.5 Q137 475 154 482 Q167 487 179.5 490 Q192 493 204 493 Q227 495 245 484.5 Q263 474 266 448 Q267 424 257 397 Q244 367 223 341 Q202 315 174 292 Q157 278 139 271 Q129 267 125 266 Q118 264 109 267 Q106 269 104 271.5 Q102 274 103 280 Q104 283 105 286.5 Q106 290 109 293 Q111 301 115.5 308.5 Q120 316 124 324 Q128 328 130 333 Z M147 358 Q147 363 146.5 365 Q146 367 145 369 Q140 375 132 371 Q124 369 117 361 Q89 336 76 304 L76 300 Q79 302 81 303 Q83 304 85 306 Q102 318 117 331 Q132 344 147 358 Z " />
<glyph glyph-name="numbersign" unicode="&#x23;" horiz-adv-x="260" d="M81 314 Q76 316 72.5 315 Q69 314 64 314 Q60 314 56.5 313.5 Q53 313 48 313 Q41 313 38 314 Q33 316 34 318 Q38 320 40.5 319 Q43 318 46 318 L59 318 Q62 319 65.5 319 Q69 319 72 319 Q76 320 85 320 Q90 328 95.5 336 Q101 344 106 352 L102 352 Q86 352 71 350.5 Q56 349 42 347 Q38 346 32 346 Q31 346 30.5 346.5 Q30 347 28 347 Q31 350 33 350 Q44 352 55.5 353 Q67 354 79 356 Q85 356 91 356 Q97 356 103 357 Q105 357 106.5 357.5 Q108 358 110 358 Q113 363 115.5 366.5 Q118 370 121 374 Q129 386 138 398.5 Q147 411 155 423 Q157 426 158 428 Q159 430 161 432 Q162 433 165 433 Q167 434 168.5 433.5 Q170 433 169 431 Q167 427 166 426 Q158 414 149.5 402 Q141 390 132 377 Q129 372 126 368 Q123 364 120 359 Q127 358 133 358.5 Q139 359 146 360 Q154 371 159 380 Q164 387 169.5 394 Q175 401 180 408 Q181 409 182 410.5 Q183 412 185 414 Q189 416 191 416 Q196 416 194 412 Q193 409 189 405 Q183 397 177 388 Q171 379 164 371 Q162 369 160.5 366.5 Q159 364 157 360 L166 360 Q174 360 183 360.5 Q192 361 200 360 Q206 358 210 356 Q214 355 214 348 Q211 345 211 349 Q207 356 199 356 L159 356 Q157 356 156 355.5 Q155 355 153 355 Q148 347 143.5 339.5 Q139 332 134 324 L138 324 Q146 324 155 324.5 Q164 325 172 325 Q174 325 175 324.5 Q176 324 178 324 Q175 322 172.5 321.5 Q170 321 162 321 Q158 321 154 320.5 Q150 320 147 320 Q142 320 138 319.5 Q134 319 129 319 Q125 311 122 307 Q113 293 104.5 279 Q96 265 88 251 Q87 249 85 247 Q80 239 79.5 236.5 Q79 234 80 226 Q76 222 76 226 Q71 231 74 239 Q76 243 80 253 Q88 267 97 281 Q106 295 114 309 Q115 311 116 313 Q117 315 119 318 L114 318 Q109 318 105.5 317.5 Q102 317 97 317 Q91 317 88 311 Q83 303 78.5 296 Q74 289 69 281 Q62 270 55.5 258.5 Q49 247 42 235 Q42 234 40 232 Q37 226 37 223 Q37 220 42 215 Q37 215 37 215 Q28 218 31 228 Q33 233 35.5 237.5 Q38 242 40 246 Q49 261 57.5 276 Q66 291 75 305 L81 314 Z M116 354 Q111 346 106 338.5 Q101 331 96 323 Q103 321 123 324 L132 339 Q135 343 137.5 346.5 Q140 350 142 354 Q136 355 129.5 354.5 Q123 354 116 354 Z " />
<glyph glyph-name="dollar" unicode="&#x24;" horiz-adv-x="235" d="M245 480 Q256 507 257.5 518.5 Q259 530 254 538 Q250 533 241 520 Q232 507 220 488.5 Q208 470 194 447.5 Q180 425 166 403 Q161 395 156.5 389.5 Q152 384 150 376 Q151 371 151 366 Q160 347 151 314 Q147 300 140.5 286.5 Q134 273 123 259 Q118 248 110 238 Q102 228 93 217 Q56 168 6 132 Q2 129 -1.5 125.5 Q-5 122 -7 117 Q-15 105 -22 92.5 Q-29 80 -36 69 Q-41 54 -48 44 Q-52 44 -50 49 Q-46 58 -42 66 Q-38 74 -35 82 Q-30 90 -25 98 Q-20 106 -16 114 Q-15 114 -15 115.5 Q-15 117 -14 118 Q-15 118 -19 116 Q-25 113 -30 109.5 Q-35 106 -40 104 Q-47 103 -51 95 Q-56 81 -63 68 Q-70 55 -78 40 Q-81 37 -81.5 35 Q-82 33 -82 30 Q-82 25 -84.5 20 Q-87 15 -91 10 Q-93 8 -94 7.5 Q-95 7 -97 6 Q-99 4 -102 5 Q-105 6 -101 12 Q-99 19 -96 24 Q-93 29 -90 35 Q-83 49 -75.5 62 Q-68 75 -63 86 Q-61 90 -60 92 Q-59 94 -57 97 Q-60 97 -62.5 96.5 Q-65 96 -67 96 Q-85 92 -94 101 Q-107 109 -98 138 Q-93 149 -85 161 Q-81 166 -77 171.5 Q-73 177 -68 182 Q-48 208 -25 233.5 Q-2 259 22 280 Q38 297 48.5 305 Q59 313 74 322 Q78 327 84 337.5 Q90 348 97 358.5 Q104 369 109.5 378.5 Q115 388 117 392 Q116 393 115 395 Q114 397 113 397 Q108 400 102.5 402 Q97 404 92 409 Q87 411 83 417 Q76 423 77 432 Q78 441 83 450.5 Q88 460 95 469 Q102 478 108 484 Q132 508 155.5 525 Q179 542 203 550 Q208 552 211 552.5 Q214 553 218 555 Q225 565 229.5 573 Q234 581 239 589 Q256 615 272 640 Q288 665 306 690 Q307 695 309.5 698.5 Q312 702 314 706 L318 710 Q320 710 321 709 L321 707 Q321 706 320 705 Q319 704 317 701 Q306 681 292.5 659 Q279 637 268 617 Q259 604 251.5 592 Q244 580 236 568 L231 558 Q233 556 240.5 554.5 Q248 553 253 553 Q255 555 257 558 Q259 561 261 564 Q268 575 275 585 Q282 595 291 606 Q293 609 295.5 613 Q298 617 301 621 Q303 622 305 624 Q307 626 309 628 Q309 630 310 630 Q311 630 312 628 Q313 627 312 625 Q311 623 309 622 Q295 603 283.5 584 Q272 565 259 547 Q259 543 262 539 Q269 518 253 485 Q251 484 249 480 L247 480 Q246 478 246 479 Q246 480 245 480 Z M67 310 Q56 303 49.5 297 Q43 291 35 284 Q-14 238 -57 181 Q-67 171 -74 161 Q-82 151 -87 135 Q-95 109 -81 107 Q-72 106 -64.5 107.5 Q-57 109 -48 114 Q-20 161 7.5 208 Q35 255 64 303 Q64 307 67 310 Z M124 403 Q127 406 128 409 Q148 441 168 474 Q188 507 208 540 Q209 540 209 541.5 Q209 543 211 545 L207 545 Q184 534 160.5 516.5 Q137 499 115 475 Q112 470 106 464 Q100 458 95.5 451.5 Q91 445 89 438 Q87 431 91 425 Q92 423 93.5 421.5 Q95 420 96 418 Q103 414 109.5 411 Q116 408 124 403 Z M-34 121 Q-26 124 -19.5 129 Q-13 134 -5 139 Q-2 141 0.5 145 Q3 149 7 153 Q12 162 16.5 170 Q21 178 26 186 Q52 230 78.5 273 Q105 316 132 357 Q133 360 134 363.5 Q135 367 138 370 Q136 376 132 379.5 Q128 383 124 387 Q122 383 116.5 375 Q111 367 105.5 358 Q100 349 95 340 Q90 331 88 327 Q92 325 92 324 Q94 321 92 316.5 Q90 312 87 310 Q86 309 84 308.5 Q82 308 83 310 Q83 311 84 312 Q85 314 86 315.5 Q87 317 86 320 Q83 320 81 316 Q79 314 78 312 Q77 310 75 309 Q52 271 30 233.5 Q8 196 -14 159 Q-19 148 -24 139 Q-29 130 -34 121 Z M140 359 Q138 356 138 356 Q107 308 77.5 259.5 Q48 211 19 163 L18 161 L21 161 Q23 163 25.5 164.5 Q28 166 30 168 Q62 198 90 236 Q97 244 102.5 252 Q108 260 113 268 Q130 297 139 325 Q142 336 142.5 345 Q143 354 140 359 Z M131 399 Q136 394 139 391 Q142 388 144 383 Q170 425 195 465 Q220 505 246 545 Q243 547 236 547.5 Q229 548 223 545 Q199 509 176.5 473 Q154 437 131 399 Z " />
<glyph glyph-name="percent" unicode="&#x25;" horiz-adv-x="198" d="M290 633 Q294 633 291 629 Q290 628 290 627 Q290 626 289.5 625 Q289 624 289 623 Q284 617 280.5 609.5 Q277 602 272 595 Q257 575 242 554.5 Q227 534 211 515 Q142 421 75 326 Q8 231 -58 134 Q-66 120 -75.5 107 Q-85 94 -95 80 Q-97 78 -99 74.5 Q-101 71 -103 66 Q-108 59 -108 49 L-114 49 Q-119 49 -117 54 Q-115 61 -113 63 Q-108 71 -105 76.5 Q-102 82 -97 90 Q-76 123 -54 155.5 Q-32 188 -9 221 Q31 278 69.5 335.5 Q108 393 149 450 Q174 485 198.5 517.5 Q223 550 249 585 Q265 602 281 625 Q283 632 286 633 Q289 634 290 633 Z M-15 125 Q-11 125 -13 120 Q-17 110 -21.5 100.5 Q-26 91 -34 84 Q-42 77 -50 79 Q-57 81 -56 89 Q-56 90 -54 98 Q-48 115 -34 129 Q-33 131 -32 131.5 Q-31 132 -30 134 L-24 134 Q-22 134 -21 133 Q-21 131 -22.5 128.5 Q-24 126 -25 126 Q-29 126 -31 125 Q-34 118 -38 112 Q-42 106 -45 101 Q-47 96 -48 92.5 Q-49 89 -47 86 Q-39 89 -35.5 94.5 Q-32 100 -27 107 Q-27 109 -28 110.5 Q-29 112 -29 114 Q-25 117 -23 123 Q-19 127 -15 125 Z M198 577 Q198 579 198.5 579.5 Q199 580 199 581 Q200 582 200 586 Q201 590 203 592.5 Q205 595 207 599 Q211 610 218 604 Q224 596 221 589 Q220 587 220 584.5 Q220 582 218 581 Q216 577 213 574 Q209 568 205 568 Q201 568 199 571 Q197 574 198 577 Z M211 587 Q207 584 207 579 Q209 581 210 582 Q211 583 211 587 Z " />
<glyph glyph-name="asciicircum" unicode="&#x5e;" horiz-adv-x="262" d="M248 569 Q237 571 240 582 L249 612 Q251 619 253 629 Q251 630 247 626 Q237 617 227 608.5 Q217 600 207 592 Q204 590 201.5 588 Q199 586 196 584 Q195 582 191 582 Q189 581 188 582.5 Q187 584 189 586 Q191 588 192 588.5 Q193 589 194 591 Q206 602 218.5 614 Q231 626 244 638 Q246 640 247.5 641 Q249 642 251 644 Q257 647 262 646 Q271 645 269 634 Q268 633 268 631 Q258 606 251 585 Q246 576 248 570 Q248 570 248 569 Z " />
<glyph glyph-name="ampersand" unicode="&#x26;" horiz-adv-x="360" d="M170 350 Q173 352 174.5 352.5 Q176 353 178 354 Q195 359 207 359 Q226 360 239 350 Q263 333 263 298 Q263 286 259.5 273.5 Q256 261 251 249 Q240 223 223 200 Q206 177 185 155 Q173 144 160 133.5 Q147 123 134 113 Q128 111 128 111 Q127 109 127.5 106.5 Q128 104 128 102 Q127 94 126 85.5 Q125 77 123 69 Q122 66 122.5 62 Q123 58 125 56 Q122 53 120 53 Q115 53 115 58 Q114 61 114 64.5 Q114 68 114 71 Q115 78 115.5 85.5 Q116 93 117 101 Q114 102 110 100 Q94 91 78 84.5 Q62 78 45 73 Q35 71 26 70 Q17 69 6 69 Q0 69 -7 70 Q-14 71 -22 73 Q-44 83 -54 106 Q-60 127 -57 153 Q-55 171 -47.5 189 Q-40 207 -30 226 Q-17 245 -2.5 262.5 Q12 280 29 296 Q47 316 66.5 333.5 Q86 351 106 367 Q120 377 133 386.5 Q146 396 160 406 Q162 409 166 411 Q170 413 173 417 L180 424 Q183 435 187 445 Q191 455 195 464 Q205 487 216 508.5 Q227 530 241 551 Q252 567 264.5 581 Q277 595 292 607 Q303 617 316 623 Q326 627 330 627 Q344 631 352 621 Q360 613 358 601 Q356 586 350 573 Q345 564 340 555 Q335 546 327 538 Q318 526 307.5 515.5 Q297 505 286 496 Q271 480 254.5 467 Q238 454 221 441 Q215 436 208.5 431.5 Q202 427 195 421 Q192 420 190 414 Q184 398 179 383 Q174 368 170 353 L170 350 Z M117 115 Q119 127 120.5 136.5 Q122 146 122 157 Q126 178 128.5 198.5 Q131 219 134 240 Q137 263 141.5 285.5 Q146 308 151 331 L151 335 Q149 333 147.5 332 Q146 331 145 330 Q137 325 131 320 Q125 315 117 309 Q114 305 110.5 302 Q107 299 105 295 Q99 289 98 283 Q93 272 104 271 Q104 270 105 269 Q100 268 99 268.5 Q98 269 96 271 Q90 273 92 281 Q92 284 96 292 Q98 295 101 299 Q104 303 106 306 Q124 322 145 336 Q147 338 148.5 339 Q150 340 152 341 Q157 357 161.5 371.5 Q166 386 170 401 L170 402 Q169 401 167 400 Q144 383 121.5 366.5 Q99 350 78 330 Q62 316 47.5 302.5 Q33 289 20 273 Q9 261 -2 248 Q-13 235 -21 221 Q-41 185 -47 153 Q-49 139 -48.5 128 Q-48 117 -43 107 Q-36 81 -7 77 Q9 73 29 78 Q72 87 111 111 Q114 112 117 115 Z M130 124 Q132 126 134 126 Q164 149 187.5 175 Q211 201 229 233 Q237 247 243.5 262 Q250 277 252 293 Q257 323 239 341 Q233 348 224.5 352 Q216 356 204 354 Q195 353 188 351 Q181 349 173 346 Q171 345 170.5 344 Q170 343 169 342 Q167 340 167 338 Q165 330 163 321.5 Q161 313 159 304 Q154 287 151 267.5 Q148 248 145 229 Q141 206 138 183 Q135 160 131 137 Q129 129 130 124 Z M198 436 Q200 436 204 440 Q218 450 232 461.5 Q246 473 260 485 Q288 506 311 533 Q319 541 326 550 Q333 559 339 569 Q344 577 347 584.5 Q350 592 351 601 Q353 608 350 615 Q348 619 344 621 Q340 623 332 620 Q331 620 321 616 Q319 614 315.5 611.5 Q312 609 308 606 Q294 595 282.5 584 Q271 573 261 560 Q249 544 240.5 528.5 Q232 513 224 497 Q219 487 215 477.5 Q211 468 206 457 Q204 452 202 446.5 Q200 441 198 436 Z " />
<glyph glyph-name="asterisk" unicode="&#x2a;" horiz-adv-x="240" d="M194 571 Q190 569 188 568.5 Q186 568 184 566 Q173 559 165 552 Q160 550 155 547 Q153 546 150 550 Q159 557 168.5 562.5 Q178 568 188 575 Q183 577 177.5 576 Q172 575 167 575 Q163 575 160 574.5 Q157 574 153 574 Q150 574 150 577 Q154 579 157.5 579 Q161 579 164 580 Q168 581 172 581 Q176 581 180 582 Q183 583 187 583 Q191 583 195 583 Q196 586 194.5 588.5 Q193 591 192 593 Q191 595 190.5 597 Q190 599 189 602 Q188 604 187 606 Q186 608 188 613 L192 613 Q194 611 194 608 Q196 603 197.5 599 Q199 595 201 590 Q201 590 203 586 Q206 591 208.5 594 Q211 597 213 600 Q220 612 227 622 Q228 623 229 623.5 Q230 624 231 626 Q233 628 235 628 Q237 628 237 626 Q237 626 237 621 Q235 618 232.5 615 Q230 612 228 608 Q226 606 224 603 Q222 600 219 595 Q222 597 223 597.5 Q224 598 226 599 Q241 607 258 618 Q262 620 265.5 622 Q269 624 273 626 Q280 629 286 629 Q287 629 291 627 Q287 625 287 625 Q279 624 271 619 Q256 611 242 602.5 Q228 594 214 585 Q214 583 218 583 Q227 583 235 583 Q243 583 250 581 Q253 579 255.5 578.5 Q258 578 260 576 Q264 574 260 568 Q260 566 257 566 Q256 566 256 566.5 Q256 567 255 567 L255 568 Q258 575 249 575 Q240 577 230.5 577 Q221 577 211 577 Q211 577 207 577 L207 573 Q209 568 213 560 Q215 557 216.5 554 Q218 551 223 550 Q225 550 223 548 Q223 546 221 546 Q216 546 215 547 Q213 548 212 549.5 Q211 551 210 552 Q208 555 207 558 Q206 561 204 564 Q202 567 201 568 Q194 559 192 554 Q189 550 186 546 Q183 542 180 538 Q178 536 176 533.5 Q174 531 171 529 Q170 528 168 528 L167 528 Q165 530 167 532 Q171 535 173.5 538.5 Q176 542 178 545 Q180 550 182.5 553.5 Q185 557 187 560 Q189 563 190 565 Q191 567 194 571 Z " />
<glyph glyph-name="parenright" unicode="&#x29;" horiz-adv-x="160" d="M215 710 Q213 709 208 709 Q209 709 209 711 Q214 715 217 714.5 Q220 714 222 711 Q226 707 226 702 Q226 697 226.5 691.5 Q227 686 226 680 Q226 663 223.5 646.5 Q221 630 216 613 Q210 587 200.5 562 Q191 537 179 511 Q171 496 163.5 481 Q156 466 147 451 Q132 425 115 398.5 Q98 372 79 345 Q37 285 -11.5 229 Q-60 173 -116 119 Q-140 96 -163 74.5 Q-186 53 -209 31 Q-214 26 -219.5 22 Q-225 18 -231 13 Q-236 6 -247 8 Q-247 9 -248 10 Q-242 13 -238 17 Q-236 19 -233.5 20.5 Q-231 22 -229 24 Q-173 78 -120.5 131 Q-68 184 -19 241 Q15 282 45 322.5 Q75 363 101 405 Q114 426 126 446.5 Q138 467 149 488 Q159 506 167.5 525 Q176 544 184 562 Q198 598 206 632.5 Q214 667 215 700 L215 710 Z " />
<glyph glyph-name="parenleft" unicode="&#x28;" horiz-adv-x="167" d="M389 712 Q387 711 383 707 Q348 683 316 655 Q284 627 254 595 Q206 547 165 495 Q124 443 87 388 Q74 370 63 351.5 Q52 333 41 314 Q29 292 18 270.5 Q7 249 -1 227 Q-9 207 -15.5 187 Q-22 167 -29 148 Q-44 101 -56 58 Q-58 51 -59 45 Q-60 39 -62 32 Q-64 22 -64 19.5 Q-64 17 -62 11 Q-64 10 -65 10.5 Q-66 11 -68 11 Q-70 13 -71.5 14 Q-73 15 -73 17 L-73 29 Q-70 39 -68 48.5 Q-66 58 -63 68 Q-58 89 -52 109.5 Q-46 130 -39 151 Q-32 174 -24.5 196 Q-17 218 -8 241 Q-3 251 1 260 Q5 269 10 279 Q20 302 35 326 Q47 348 60 368.5 Q73 389 88 409 Q122 460 160.5 507 Q199 554 244 600 Q268 624 293 647 Q318 670 345 690 Q352 695 358.5 699.5 Q365 704 372 709 Q374 711 377 712 Q380 713 382 715 Q388 718 389 712 Z " />
<glyph glyph-name="underscore" unicode="&#x5f;" horiz-adv-x="226" d="M5 266 Q6 268 9 270 Q24 275 42.5 276.5 Q61 278 81 277.5 Q101 277 121 276 Q141 275 158 276 Q160 275 159.5 272.5 Q159 270 157 270 Q153 268 149 268 L140 268 Q123 268 105.5 268 Q88 268 71 269 Q57 269 45 268 Q33 267 21 265 Q17 264 9 264 Q7 264 7 265 Q7 266 5 266 Z " />
<glyph glyph-name="hyphen" unicode="&#x2d;" horiz-adv-x="177" d="M131 348 Q134 345 128 343 L119 343 L89 343 Q79 344 70 343.5 Q61 343 51 342 Q49 341 42 341 Q40 341 38 343 L38 344 Q40 346 43 346 Q58 352 77 350 L131 348 Z " />
<glyph glyph-name="plus" unicode="&#x2b;" horiz-adv-x="217" d="M116 354 Q124 354 133 354 Q142 354 150 355 Q155 355 161.5 354.5 Q168 354 175 354 Q177 354 178.5 353.5 Q180 353 182 353 Q183 351 183.5 350 Q184 349 182 347 Q169 350 151.5 349 Q134 348 117 347 Q111 347 109 345 Q103 337 97.5 329 Q92 321 87 312 Q76 297 66.5 282 Q57 267 46 252 Q44 249 41.5 246 Q39 243 37 241 Q34 236 30 235 Q24 235 24 239 Q26 241 28.5 242.5 Q31 244 33 246 Q37 252 38 255 Q52 275 64.5 294.5 Q77 314 90 334 Q92 336 93 338.5 Q94 341 96 344 Q94 345 90 345 Q73 344 59 344.5 Q45 345 30 344 Q29 345 28 345 Q28 350 33 350 Q38 351 43 351 Q48 351 53 351 Q64 353 74.5 353 Q85 353 96 353 Q97 353 99 353.5 Q101 354 103 354 Q106 359 109 364.5 Q112 370 117 375 Q127 392 137 408 Q147 424 159 440 Q162 443 163 446 Q165 447 166.5 448 Q168 449 170 447 Q172 447 173.5 446 Q175 445 173 443 Q171 437 167 436 Q161 424 154 413 Q147 402 139 390 Q134 383 129 376 Q124 369 119 361 Q119 360 118 358 Q117 356 116 354 Z " />
<glyph glyph-name="equal" unicode="&#x3d;" horiz-adv-x="217" d="M161 357 L138 357 Q118 357 99 356 Q80 355 62 353 Q59 352 52 352 Q50 352 47 355 Q44 358 47 358 Q49 360 54 362 Q59 362 63 363 Q67 364 71 364 Q90 364 108 364 Q126 364 145 362 Q148 362 151 361.5 Q154 361 158 361 L161 358 L161 357 Z M157 335 Q157 334 157.5 333.5 Q158 333 158 332 L158 331 Q155 330 153 329 Q151 328 148 328 Q141 328 134.5 327.5 Q128 327 121 327 Q103 328 86 328 Q69 328 51 328 Q48 328 44.5 328.5 Q41 329 37 329 Q33 329 32 333 Q35 336 42 336 L77 336 Q94 335 110.5 334.5 Q127 334 143 334 Q147 334 150 334.5 Q153 335 157 335 Z " />
<glyph glyph-name="backslash" unicode="&#x5c;" horiz-adv-x="270" d="M167 8 Q164 11 164 12 Q162 14 162 16 Q162 18 161 20 L152 74 Q143 138 136 201.5 Q129 265 123 329 Q114 412 105 494.5 Q96 577 88 661 Q86 671 85 681.5 Q84 692 82 703 Q82 709 81 711 Q81 716 85 715 Q89 714 89 709 Q91 704 91.5 698.5 Q92 693 94 687 Q98 664 100.5 641.5 Q103 619 105 597 L135 306 Q140 251 146.5 196.5 Q153 142 159 86 Q161 69 163.5 52 Q166 35 168 18 Q169 16 169 11 Q169 12 167 8 Z " />
<glyph glyph-name="B" unicode="B" horiz-adv-x="576" d="M656 633 Q664 617 655 594 Q647 571 630.5 552.5 Q614 534 600 518 Q568 483 535 454.5 Q502 426 469 400 Q439 378 409 358.5 Q379 339 350 320 Q324 304 298.5 287.5 Q273 271 248 255 Q246 254 244 252.5 Q242 251 240 249 L241 249 Q246 249 252 249.5 Q258 250 265 250 Q287 251 306 249 Q325 247 344 239 Q358 231 369 219.5 Q380 208 388 190 Q390 188 389.5 186 Q389 184 390 181 Q391 179 391.5 176.5 Q392 174 394 170 Q400 173 406.5 175.5 Q413 178 420 180 Q421 180 422 181 Q424 183 426 184 Q428 185 431 189 Q436 191 434 186 Q432 180 430 178 Q428 177 427 176 Q426 175 424 174 Q416 172 409 168.5 Q402 165 394 163 Q394 159 395 158 Q395 157 394 156 Q396 137 393.5 117.5 Q391 98 385 77 Q374 48 360.5 22 Q347 -4 332 -29 Q292 -84 244 -126 Q192 -171 136 -201 Q117 -212 98 -220.5 Q79 -229 60 -234 Q47 -238 34.5 -240 Q22 -242 11 -240 Q3 -238 -2.5 -235 Q-8 -232 -14 -226 Q-30 -208 -26 -176 Q-25 -164 -21.5 -152 Q-18 -140 -13 -127 Q4 -87 29 -53 Q47 -30 66.5 -12 Q86 6 108 23 Q130 42 154 57 Q178 72 202 86 Q247 110 290.5 130 Q334 150 380 165 Q381 166 381.5 166 Q382 166 383 167 L384 167 Q383 169 383.5 170.5 Q384 172 383 173 Q375 208 353 221 Q345 228 335.5 231.5 Q326 235 315 237 Q297 241 278.5 241 Q260 241 242 239 L230 239 Q225 239 222 243 Q219 248 226 254 Q229 257 237 261 Q250 271 264 280 Q278 289 292 298 Q325 318 358 338.5 Q391 359 421 382 Q456 405 489.5 431.5 Q523 458 555 488 Q571 505 587 521 Q603 537 619 555 Q623 560 630.5 570.5 Q638 581 644 593 Q650 605 652 615.5 Q654 626 646 632 Q641 635 634.5 635.5 Q628 636 620 635 Q600 633 580.5 624.5 Q561 616 540 604 Q511 587 483.5 566 Q456 545 430 521 Q350 451 276 362 Q238 317 201.5 270 Q165 223 129 174 Q103 136 76.5 98 Q50 60 25 20 Q11 0 0 -20 Q-11 -40 -25 -60 Q-30 -71 -38 -82 Q-46 -93 -53 -104 Q-55 -106 -56 -109.5 Q-57 -113 -59 -115 Q-65 -120 -69 -119 Q-73 -116 -69 -108 Q-61 -94 -52 -81.5 Q-43 -69 -35 -56 Q16 32 69.5 117 Q123 202 177 289 Q207 336 235 381 Q263 426 289 474 Q303 500 316.5 524.5 Q330 549 342 575 Q350 592 357.5 609.5 Q365 627 370 646 Q373 656 374.5 665 Q376 674 378 682 Q379 710 364 724 Q358 730 350.5 732 Q343 734 334 734 Q308 735 273 718 Q251 707 229.5 690 Q208 673 188 653 Q147 612 112.5 564 Q78 516 50 459 Q26 412 11 362 Q5 345 2 328.5 Q-1 312 -2 296 Q-2 286 -2 276.5 Q-2 267 -1 258 Q-1 243 6 237 L6 235 Q4 234 1 236 Q0 239 -1 241 Q-2 243 -3 246 Q-5 254 -6 263.5 Q-7 273 -8 283 Q-6 301 -3 321 Q0 341 5 361 Q13 387 22 411.5 Q31 436 45 462 Q84 544 142 612 Q164 641 188 664 Q212 687 237 705 Q255 717 273 726.5 Q291 736 308 741 Q323 744 337 744 Q351 744 363 736 Q366 734 369.5 731.5 Q373 729 375 726 Q394 699 384 655 Q380 638 374 621 Q368 604 362 587 Q351 561 339 538 Q327 515 314 492 Q291 450 266.5 410.5 Q242 371 218 332 Q195 294 170 254.5 Q145 215 121 176 L118 170 Q120 172 121 174 Q122 176 124 178 Q149 211 173.5 245 Q198 279 224 311 Q256 352 290 390 Q324 428 359 465 Q426 533 495 584 Q518 601 540 613.5 Q562 626 586 635 Q595 639 604.5 641.5 Q614 644 623 645 Q629 645 635.5 644.5 Q642 644 648 640 Q650 638 652 636.5 Q654 635 656 633 Z M383 158 Q345 143 307 127 Q269 111 232 91 Q209 79 185.5 65.5 Q162 52 137 35 Q115 19 94 1.5 Q73 -16 52 -39 Q38 -56 24.5 -73.5 Q11 -91 2 -112 Q-5 -126 -9.5 -140.5 Q-14 -155 -16 -170 Q-21 -188 -18 -201 Q-15 -214 -7 -222 Q-1 -230 14 -231 Q28 -232 41.5 -229.5 Q55 -227 70 -222 Q142 -193 214 -134 Q234 -120 251.5 -102.5 Q269 -85 286 -65 Q326 -21 354 37 Q365 59 372.5 79.5 Q380 100 385 122 Q385 131 385.5 140 Q386 149 385 158 L383 158 Z " />
<glyph glyph-name="C" unicode="C" horiz-adv-x="436" d="M256 153 L223 114 Q185 67 147 20 Q109 -27 71 -75 Q49 -101 29 -124.5 Q9 -148 -11 -170 Q-35 -194 -54 -209 Q-73 -227 -95 -233 Q-130 -244 -139 -206 Q-143 -194 -144 -179.5 Q-145 -165 -143 -150 Q-142 -130 -139.5 -109.5 Q-137 -89 -131 -68 Q-124 -36 -114.5 -4 Q-105 28 -94 60 Q-56 162 -7 260 Q49 382 126 485 Q206 596 295 671 Q318 691 341 706 Q364 721 387 732 Q401 739 413.5 743 Q426 747 438 745 Q446 743 453 739.5 Q460 736 464 728 Q473 714 470.5 690.5 Q468 667 456 642 Q453 636 449 630 Q445 624 440 619 Q425 605 415 609 Q406 617 410 636 Q410 638 410.5 639.5 Q411 641 411 642 Q411 644 413 646 Q415 646 417 643 Q417 642 416 640.5 Q415 639 415 637 Q414 632 414 628 Q414 624 414 619 Q420 612 424 615 Q430 616 438 627 Q444 634 447.5 641.5 Q451 649 456 658 Q458 666 459 673 Q460 680 462 687 Q466 727 444 733 Q434 736 424 734 Q414 732 401 728 Q381 719 361.5 707 Q342 695 322 678 Q289 653 259 623 Q229 593 199 558 Q148 498 103.5 430.5 Q59 363 19 288 Q-1 246 -20 204.5 Q-39 163 -56 120 Q-70 88 -81.5 56.5 Q-93 25 -101 -7 Q-111 -38 -118 -67.5 Q-125 -97 -127 -126 Q-129 -142 -130 -157 Q-131 -172 -129 -186 Q-129 -197 -126 -207 Q-117 -231 -93 -222 Q-78 -217 -61 -204 Q-48 -193 -35 -180.5 Q-22 -168 -10 -154 Q10 -132 30.5 -108.5 Q51 -85 71 -60 Q109 -17 144 26 Q179 69 214 112 Q224 123 232 133 Q240 143 250 152 Q251 157 257 159 Q261 161 264 161 Q266 159 262 155 Q261 149 257 151 Q257 152 256 153 Z " />
<glyph glyph-name="A" unicode="A" horiz-adv-x="443" d="M485 641 Q498 639 491 619 Q489 611 486 603.5 Q483 596 480 588 Q470 568 459.5 549 Q449 530 439 510 Q418 470 396.5 430.5 Q375 391 353 350 Q341 327 328.5 303 Q316 279 303 256 L302 255 L300 249 Q310 249 315 250 L317 250 L318 250 L320 250 Q323 250 326.5 250 Q330 250 333 249 L335 247 L336 246 Q339 243 336 237 L336 235 Q333 233 333 236 L333 237 L333 239 Q333 244 329.5 244.5 Q326 245 324 245 Q321 246 318 245.5 Q315 245 312 245 Q307 244 298 244 L293 234 Q288 227 285.5 220.5 Q283 214 279 206 Q228 103 176 -1 Q124 -105 70 -208 L70 -209 L70 -210 L70 -211 L69 -212 Q67 -216 64 -219 Q61 -224 59 -228 Q57 -232 55 -236 Q55 -240 50 -240 Q47 -242 46 -239 Q45 -236 48 -231 Q49 -226 55 -218 Q58 -215 61 -209 Q73 -185 85 -161 Q97 -137 109 -114 Q124 -84 138.5 -54.5 Q153 -25 168 6 Q194 64 221.5 121.5 Q249 179 278 236 Q278 236 281 242 Q259 238 238.5 235.5 Q218 233 197 229 Q195 227 194.5 225.5 Q194 224 192 222 Q160 168 127.5 115.5 Q95 63 63 10 Q51 -12 39 -34 Q27 -56 13 -77 Q6 -88 -0.5 -97.5 Q-7 -107 -14 -118 Q-21 -125 -23 -129 Q-26 -132 -27 -132 Q-32 -132 -29 -123 Q-28 -121 -27 -120 Q-26 -119 -25 -117 Q-9 -93 5.5 -67 Q20 -41 34 -15 Q69 44 104 103 Q139 162 174 220 Q176 222 177 224 Q175 224 175 224 Q154 218 131 209.5 Q108 201 83 187 Q74 182 64 175.5 Q54 169 46 161 Q42 159 39.5 156.5 Q37 154 33 151 Q33 148 31 147 Q29 143 30 139 Q30 139 32 138 Q27 136 28 140 Q27 144 29 150 Q31 153 32.5 155.5 Q34 158 37 160 Q51 174 66 182 Q83 194 100.5 202 Q118 210 135 218 Q146 222 157.5 225.5 Q169 229 180 231 Q184 233 185 236 Q199 260 212.5 282 Q226 304 240 326 Q267 370 294.5 413.5 Q322 457 350 501 Q364 525 379 550.5 Q394 576 408 601 Q414 613 420 624 Q426 635 430 648 Q437 661 442 677 Q448 702 440 719 Q435 729 420 734 Q410 739 400 738 Q390 737 377 733 Q356 728 334 715.5 Q312 703 290 686 Q261 662 233.5 634.5 Q206 607 180 575 Q151 539 123.5 500 Q96 461 73 419 Q61 397 50.5 375.5 Q40 354 32 332 Q18 294 11 257 Q9 253 11 250 Q10 246 10 242 Q10 238 14 238 Q14 237 13 237 Q12 237 11 236 Q6 239 7 244 Q7 247 6.5 251 Q6 255 7 259 Q9 267 11 275.5 Q13 284 15 292 Q21 315 29 336.5 Q37 358 48 380 Q67 422 90 459.5 Q113 497 140 532 Q203 619 273 681 Q293 698 314 712 Q335 726 355 734 Q384 748 409 746 Q419 745 427.5 741.5 Q436 738 443 730 Q450 721 453 707 Q456 687 449 661 Q444 646 437.5 631 Q431 616 423 602 Q412 582 402 563 Q392 544 380 524 Q379 524 377 519 Q378 521 379 521.5 Q380 522 381 524 Q395 543 407.5 561 Q420 579 435 596 Q447 613 464 628 Q467 630 469.5 633 Q472 636 477 638 Q480 641 485 641 Z M483 625 Q483 627 483.5 628 Q484 629 484 631 Q479 630 469 623 Q461 616 453.5 607.5 Q446 599 439 591 Q423 574 410 556 Q397 538 383 518 Q364 492 345.5 466 Q327 440 310 411 Q284 369 257.5 327 Q231 285 206 243 Q205 241 204 239.5 Q203 238 202 236 Q224 240 244.5 242.5 Q265 245 285 248 Q285 250 285.5 251 Q286 252 286 254 Q298 276 309.5 297.5 Q321 319 332 342 Q357 388 381.5 432.5 Q406 477 430 523 Q441 542 451 560.5 Q461 579 471 598 L483 625 Z " />
</font>
</svg>
