<?xml version="1.0" encoding="UTF-8"?>
<svg xmlns="http://www.w3.org/2000/svg" xmlns:xlink="http://www.w3.org/1999/xlink" version="1.2" >
<font id="Aerials Stylistic Two">
<font-face  font-family="Aerials Stylistic Two" units-per-em="1000" ascent="750" descent="-250" font-style="normal" font-weight="400" font-stretch="normal" cap-height="700" x-height="500" underline-position="-75" underline-thickness="50" />
<missing-glyph  horiz-adv-x="167" d="" />
<glyph glyph-name="NULL" d="" />
<glyph glyph-name="nonmarkingreturn" unicode="&#xd;" horiz-adv-x="167" d="" />
<glyph glyph-name="space" unicode="&#x20;" horiz-adv-x="167" d="" />
<glyph glyph-name="e" unicode="e" horiz-adv-x="314" d="M1000 388 Q1004 393 1008 388.5 Q1012 384 1008 380 Q999 371 987 364 Q963 349 935 345 Q907 341 880 344 Q846 347 813.5 355.5 Q781 364 747 369 Q683 379 619 356 Q628 345 628 333 Q627 318 617 306 Q607 294 594 286 Q581 278 565 275.5 Q549 273 538 287 Q533 294 533.5 301 Q534 308 538 314.5 Q542 321 547.5 327 Q553 333 558 337 Q566 344 576 349.5 Q586 355 596 360 Q595 360 594.5 360.5 Q594 361 593 361 Q578 368 561.5 370 Q545 372 529 372 Q512 372 496 370 Q480 368 463 365 Q397 353 337.5 323.5 Q278 294 224 256 Q195 236 168 216 Q141 196 114 175 Q111 173 108 170.5 Q105 168 101 166 L86 154 Q82 152 78.5 149 Q75 146 71 144 Q56 133 37 127.5 Q18 122 0 124 Q-25 127 -37 145 Q-47 161 -45.5 180 Q-44 199 -41 212 Q-35 232 -25.5 250.5 Q-16 269 -1 284 Q11 298 27 301 Q40 303 51 297 Q59 293 61.5 286.5 Q64 280 59 273 Q54 262 43 258.5 Q32 255 21 260 Q20 261 19.5 261 Q19 261 18 262 Q18 261 16 259 Q0 226 -7 193 Q-9 185 -10 176.5 Q-11 168 -9 160 Q-7 155 -6 151 Q-5 147 -2 144 Q4 138 12 137 Q22 135 32.5 138 Q43 141 52 146 Q63 152 72 158.5 Q81 165 91 172 Q105 183 119 193.5 Q133 204 147 215 Q176 237 205.5 258 Q235 279 266 297 Q325 333 390.5 357.5 Q456 382 526 383 Q543 384 560.5 382 Q578 380 595 373 Q602 370 609 365 Q613 367 616 368 Q683 392 753 380 Q788 375 822 366 Q856 357 891 355 Q920 353 949 360 Q978 367 1000 388 Z M41 290 Q31 285 24 273 Q25 272 25 271.5 Q25 271 26 270 Q31 264 36 268 Q43 272 45 282 Q45 287 41 290 Z M612 319 Q615 325 616 331.5 Q617 338 613 345 Q611 349 607 352 Q595 347 583.5 340.5 Q572 334 563 326 Q558 321 552 315 Q546 309 545 301 Q545 294 551.5 290.5 Q558 287 564 287 Q572 288 579 291 Q586 294 592 299 Q604 307 612 319 Z " />
<glyph glyph-name="f" unicode="f" horiz-adv-x="408" d="M902 311 Q907 314 911 310 Q915 306 911 302 Q906 297 900 293.5 Q894 290 888 286 Q864 272 836.5 268 Q809 264 782 265 Q750 267 719 273.5 Q688 280 656 285 Q636 289 614.5 291 Q593 293 573 291 Q581 277 579 262 Q577 247 570 234 Q557 209 529 196 Q518 191 502 188.5 Q486 186 475 195 Q470 200 468.5 207.5 Q467 215 467 222 Q468 230 469.5 237 Q471 244 475 251 Q483 265 495.5 275 Q508 285 522 291 Q529 294 535 295.5 Q541 297 548 299 Q543 302 538.5 303.5 Q534 305 529 307 Q512 310 495.5 309 Q479 308 463 305 Q401 293 346 264 Q291 235 235 208 Q207 194 179 182.5 Q151 171 122 163 Q96 156 69.5 152.5 Q43 149 17 147 L23 143 Q23 143 25 141 Q26 141 27 140 Q33 135 43 127 Q53 119 62 108 Q66 103 72 94.5 Q78 86 83 73.5 Q88 61 91 45 Q94 29 92 10 L89 -14 Q85 -34 78.5 -53.5 Q72 -73 64 -92 Q51 -122 28 -150 Q6 -175 -23 -182 Q-60 -190 -76 -159 Q-84 -144 -86 -123 Q-89 -103 -88 -83.5 Q-87 -64 -85 -44 Q-79 2 -69.5 46.5 Q-60 91 -47 136 L-47 137 Q-45 140 -44 146 Q-43 152 -42 155 L-27 203 Q-4 273 20 342 Q44 411 71 480 Q88 522 108 562.5 Q128 603 154 641 Q155 643 156 644 Q157 645 158 647 Q170 664 184.5 681.5 Q199 699 216 711 Q227 719 240 723.5 Q253 728 266 724 Q276 721 280.5 711.5 Q285 702 285 693 Q286 679 282.5 665.5 Q279 652 274 640 Q266 617 254 595 Q242 573 229 551 Q215 528 201 506.5 Q187 485 173 463 Q144 422 113 384 Q82 346 49 309 Q47 305 46 301 Q45 297 43 293 Q42 291 41.5 288 Q41 285 40 283 Q38 277 38 277 Q27 248 17.5 218 Q8 188 -1 158 Q4 158 9.5 158.5 Q15 159 21 159 Q56 162 90 168.5 Q124 175 158 187 Q188 198 217 212 Q246 226 275 241 Q304 256 333 270.5 Q362 285 393 296 Q425 308 459 316 Q493 324 527 319 Q538 317 547.5 313 Q557 309 564 302 Q588 305 613 302.5 Q638 300 661 296 Q694 290 726.5 283.5 Q759 277 794 276 Q823 276 851 283.5 Q879 291 902 311 Z M63 351 Q62 347 60 341 Q71 354 82.5 367 Q94 380 105 394 Q165 469 216 555 Q228 575 239.5 595.5 Q251 616 260 638 Q264 648 267 659 Q270 670 272 681 Q272 686 272 692 Q272 698 270 703 Q267 711 260.5 708 Q254 705 250 703 Q245 699 241 695.5 Q237 692 232 687 Q220 676 210 663 Q200 650 191 636 Q171 606 154.5 575 Q138 544 124 512 Q109 477 96 442.5 Q83 408 71 373 Q69 367 67 361.5 Q65 356 63 351 Z M0 144 Q0 144 -4 146 Q-5 144 -5 143.5 Q-5 143 -6 141 Q-19 95 -30 48.5 Q-41 2 -48 -46 Q-50 -64 -51.5 -82.5 Q-53 -101 -52 -119 Q-50 -136 -45 -150 Q-42 -158 -34 -164 Q-26 -170 -15 -165 Q-7 -160 -1 -155.5 Q5 -151 10 -144 Q32 -119 48 -84 Q70 -35 76 14 Q77 32 76 50 Q73 69 64 84 Q55 99 42 112 Q33 122 22 129 Q11 136 0 144 Z M566 276 Q564 284 560 290 Q550 288 540.5 285.5 Q531 283 522 279 Q509 272 498 262 Q487 252 482 238 Q480 231 479 224 Q478 217 480 210 Q482 202 488.5 201 Q495 200 502 201 Q530 204 548 224 Q558 234 563.5 248 Q569 262 566 276 Z " />
<glyph glyph-name="g" unicode="g" horiz-adv-x="302" d="M1057 411 Q1059 406 1053.5 404.5 Q1048 403 1046 408 Q1044 416 1037.5 419 Q1031 422 1024 423 Q1015 425 1006 424 Q997 423 988 421 Q977 419 966 416.5 Q955 414 944 411 Q921 405 899.5 397.5 Q878 390 857 380 Q815 362 776.5 339 Q738 316 700 289 Q664 263 627 237.5 Q590 212 546 198 Q511 187 471.5 188.5 Q432 190 400 211 Q376 227 362.5 251 Q349 275 344 303 Q284 246 218 198 Q183 173 147.5 150 Q112 127 75 107 Q73 102 72 97 Q71 92 70 89 Q58 41 43.5 -6.5 Q29 -54 13 -101 Q7 -120 -0.5 -138 Q-8 -156 -18 -173 Q-31 -201 -56 -221 Q-84 -243 -119 -246 Q-156 -248 -176 -220 Q-190 -197 -198 -169 Q-200 -159 -202 -149.5 Q-204 -140 -204 -129 Q-204 -68 -164 -22 Q-142 3 -113 23 Q-88 40 -62.5 54 Q-37 68 -11 81 Q2 87 14.5 93.5 Q27 100 41 107 Q44 108 46 113 Q51 132 55 150.5 Q59 169 64 187 Q65 188 65 190 Q65 190 64 191 Q62 189 61 186 Q60 183 58 181 Q53 172 46 163.5 Q39 155 31 148 Q18 137 4 134 Q-22 132 -40 146 Q-47 151 -49.5 157.5 Q-52 164 -54 172 Q-58 192 -52 212 Q-49 229 -40 244 Q-40 246 -39 247 Q-37 251 -34 254.5 Q-31 258 -28 262 L-25 265 Q-15 276 0 284.5 Q15 293 35 285 L36 285 Q37 285 37 284 Q49 279 55 269 Q63 257 55 243 Q51 236 43 238 Q37 239 40 244 Q44 254 44 259 Q43 270 33 276 Q33 276 32 277 Q24 281 14 272 Q0 259 -6.5 241.5 Q-13 224 -15 216 L-15 214 Q-19 196 -18 179 Q-18 174 -17 169 Q-16 164 -14 159 Q-12 155 -10 153 Q-6 146 2 149 Q7 151 11.5 154 Q16 157 20 161 Q28 168 34 176 Q40 184 45 192 Q56 209 67 227 Q78 245 88 264 Q89 265 89 265.5 Q89 266 90 267 Q92 273 101 273 Q111 272 111 261 L108 249 Q102 222 95.5 195 Q89 168 83 141 Q83 139 82 136 Q81 134 80 130.5 Q79 127 78 123 Q83 125 87 127.5 Q91 130 96 133 Q134 155 170 179.5 Q206 204 241 230 Q295 272 343 317 Q342 327 342.5 336 Q343 345 344 354 Q348 377 356.5 398 Q365 419 376 439 Q386 458 398.5 474.5 Q411 491 427 505 Q433 509 442.5 515.5 Q452 522 462.5 526 Q473 530 482.5 529 Q492 528 497 518 Q501 510 500 502 Q499 494 496 486 Q492 475 486.5 465.5 Q481 456 475 447 Q463 428 448 411 Q433 394 418 377 Q403 360 387.5 344 Q372 328 355 313 L355 312 Q355 307 356 301.5 Q357 296 358 290 Q363 271 373.5 254.5 Q384 238 400 226 Q428 204 466 201 Q507 196 544.5 209.5 Q582 223 616 244 Q653 268 688 295 Q706 308 724 320.5 Q742 333 761 344 Q799 367 839 385.5 Q879 404 921 417 Q942 423 963 428 Q984 433 1005 435 Q1020 437 1036 432.5 Q1052 428 1057 411 Z M39 86 Q40 88 40 91 Q36 89 35 89 Q24 84 14.5 79 Q5 74 -5 69 Q-22 61 -39 52 Q-56 43 -73 33 Q-87 24 -101 14.5 Q-115 5 -127 -6 Q-147 -23 -163 -47 Q-195 -97 -183 -156 Q-181 -167 -178 -177 Q-175 -187 -170 -197 Q-166 -204 -161.5 -211 Q-157 -218 -151 -223 Q-136 -238 -115 -233 Q-104 -231 -94.5 -226 Q-85 -221 -77 -213 Q-58 -194 -46 -170 Q-32 -142 -23 -115 Q-5 -64 10 -14.5 Q25 35 39 86 Z M397 452 Q379 424 366.5 392.5 Q354 361 354 328 L372 346 Q387 361 402 376.5 Q417 392 431 409 Q445 426 458.5 443.5 Q472 461 482 481 Q485 488 487.5 496 Q490 504 487 512 Q485 516 480.5 517 Q476 518 470.5 516.5 Q465 515 460.5 512.5 Q456 510 453 508 Q435 498 421.5 483.5 Q408 469 397 452 Z " />
<glyph glyph-name="h" unicode="h" horiz-adv-x="357" d="M922 355 Q923 350 917 350 Q911 350 911 355 Q910 370 894 380 Q886 385 876.5 386.5 Q867 388 858 389 Q848 389 838 389 Q828 389 818 388 Q798 387 779 384 Q760 381 740 376 Q701 366 664 351 Q627 336 591 317 Q556 297 521.5 276 Q487 255 453 233 Q444 228 435.5 222.5 Q427 217 419 212 Q410 206 402 201 Q394 196 384 193 Q366 185 350 192 Q336 197 326 213 Q324 217 322.5 221 Q321 225 319 229 Q309 216 299 203.5 Q289 191 279 179 L279 178 L240 133 Q230 122 220.5 110.5 Q211 99 200 88 Q190 77 180 66 Q170 55 160 44 Q149 33 139 22.5 Q129 12 118 1 Q108 -10 98.5 -20 Q89 -30 78 -40 Q73 -44 68.5 -47.5 Q64 -51 59 -53 Q56 -54 52 -54.5 Q48 -55 46 -51 Q43 -47 43 -40 L43 -35 L43 -32 Q46 -13 52 9 Q60 38 71 66 Q82 94 93 123 Q107 157 121.5 190.5 Q136 224 152 257 Q157 268 161 282 Q164 288 161 294 Q159 295 157 294 Q155 293 153 292 Q141 289 131 281 Q121 273 112.5 264.5 Q104 256 96 247 Q41 183 3 111 Q-5 95 -14 80 Q-18 74 -22 74 Q-23 74 -24 73 Q-40 70 -41 84 Q-41 89 -41 92.5 Q-41 96 -40 101 Q-38 114 -36 126.5 Q-34 139 -32 152 Q-30 161 -29 169.5 Q-28 178 -26 187 Q-18 217 -10.5 247.5 Q-3 278 6 308 Q19 348 31 388 Q43 428 56 468 Q69 506 84 542.5 Q99 579 118 614 Q129 634 140 652.5 Q151 671 165 689 Q173 700 181 709.5 Q189 719 199 727 L199 728 Q210 737 222.5 743 Q235 749 249 749 Q263 747 270 738 Q276 729 278 713 Q278 698 274 683.5 Q270 669 265 655 Q248 605 222.5 560 Q197 515 168 472 Q107 385 40 299 Q38 295 38 294 L33 275 Q28 258 23.5 242 Q19 226 14 209 Q9 195 5.5 181 Q2 167 -2 153 Q-5 143 -7.5 133.5 Q-10 124 -12 114 L-11 114 Q-9 116 -8 118 Q33 198 99 269 Q116 288 136 299 Q152 307 167 303 Q184 297 185 280 Q186 274 185 267.5 Q184 261 182 255 Q177 240 171.5 225 Q166 210 160 196 Q144 158 128.5 121 Q113 84 98 46 Q96 43 94 37 L94 36 Q89 23 84.5 11 Q80 -1 77 -11 Q73 -22 71 -32 L123 23 Q166 68 207 113 Q248 158 286 207 Q294 216 300.5 225 Q307 234 314 243 Q309 271 315 300.5 Q321 330 332 354 Q345 387 369 415 Q374 421 380 427.5 Q386 434 393 438 Q399 441 406.5 442 Q414 443 419 438 Q425 433 424 424 Q423 415 421 408 Q417 390 409 371 Q401 354 391 337.5 Q381 321 371 304 Q360 288 349.5 272.5 Q339 257 327 241 Q329 237 330 233.5 Q331 230 333 227 Q336 219 340.5 213 Q345 207 353 203 Q361 199 370 200.5 Q379 202 387 207 Q395 211 403 216 Q411 221 419 226 Q427 231 435.5 236.5 Q444 242 452 247 Q469 258 485.5 268 Q502 278 519 289 Q552 309 586.5 327.5 Q621 346 657 360 Q693 375 730 385 Q767 395 805 399 Q815 400 824.5 400.5 Q834 401 844 401 Q853 401 862 400.5 Q871 400 880 398 Q896 394 908.5 383 Q921 372 922 355 Z M49 333 Q73 363 98 397 Q128 438 157 479.5 Q186 521 211 566 Q223 588 233 610.5 Q243 633 251 656 Q256 668 259 680 Q262 692 264 704 Q264 709 264 713 Q264 717 263 721 Q262 725 260.5 728.5 Q259 732 255 734 Q250 736 245 734.5 Q240 733 235 731 Q230 727 225 723.5 Q220 720 216 715 L195 691 Q183 676 173.5 660 Q164 644 155 627 Q135 587 119 547 Q103 507 89 465 Q81 439 73 412.5 Q65 386 57 359 Q56 354 52 344 L51 338 Q51 337 50.5 336.5 Q50 336 50 335 L49 333 Z M324 257 Q350 292 373 330 Q383 347 392 363 Q401 379 406 397 Q408 402 409 406.5 Q410 411 411 416 Q412 418 413 423 Q414 428 411 430 Q409 432 405.5 431 Q402 430 400 428 Q396 426 390 420 Q365 395 349 363.5 Q333 332 327 297 Q322 277 324 257 Z " />
<glyph glyph-name="i" unicode="i" horiz-adv-x="160" d="M293 326 Q289 330 290 333 Q291 334 291 337 Q289 350 302 348 Q309 348 316 343 Q323 338 323.5 331 Q324 324 317 320 Q315 319 314 319 Q313 319 311 318 Q299 320 293 326 Z M1087 417 Q1092 414 1087.5 410 Q1083 406 1079 409 Q1073 414 1066.5 418 Q1060 422 1053 426 Q1000 458 936 456 Q908 454 883 447 Q884 445 885 443 Q886 441 888 438 Q894 422 888 406 Q882 390 873 376 Q857 351 830 332 Q817 324 801 316.5 Q785 309 769 314 Q755 317 748 331 Q744 339 746 347 Q748 355 752 363 Q760 377 770.5 388.5 Q781 400 793 411 Q816 431 844 445 Q849 447 852.5 448.5 Q856 450 860 452 Q846 459 826 459 Q810 458 793.5 454.5 Q777 451 762 446 Q746 441 731 435.5 Q716 430 701 423 Q639 396 585 356.5 Q531 317 480 274 Q452 251 425.5 229 Q399 207 371 184 Q357 174 344 163.5 Q331 153 317 145 Q309 141 301.5 138 Q294 135 286 133 Q282 132 273 132 Q259 132 250 140 Q242 147 240 160 Q237 173 240 186 Q248 238 273 281 Q273 282 275 284 Q279 289 285 289 Q291 289 296 284 Q299 281 299 277 Q300 272 298 266 Q295 256 292 247 Q289 238 286 228 Q281 214 277 198.5 Q273 183 270 168 Q268 160 268 156 Q268 151 271.5 146.5 Q275 142 286 145 L287 145 Q288 145 288 146 L292 146 Q309 152 323.5 162.5 Q338 173 352 184 Q367 196 381.5 208 Q396 220 411 232 Q440 256 468.5 280.5 Q497 305 527 328 Q582 371 641.5 406.5 Q701 442 769 460 Q786 465 804 468.5 Q822 472 839 470 Q859 468 873 456 Q922 472 968 466 Q1000 462 1030.5 450 Q1061 438 1087 417 Z M859 377 Q867 388 875 404.5 Q883 421 876 435 Q874 439 871 443 Q859 439 848 433.5 Q837 428 826 421 Q802 405 781 383 Q776 377 771.5 371.5 Q767 366 763 359 Q759 353 757.5 345.5 Q756 338 761 331 Q767 325 774.5 324 Q782 323 789.5 325 Q797 327 804.5 331 Q812 335 818 338 Q830 346 840.5 356 Q851 366 859 377 Z " />
<glyph glyph-name="j" unicode="j" horiz-adv-x="229" d="M29 322 Q19 322 13 331 Q7 338 15 344 Q17 346 19 347.5 Q21 349 24 348 Q31 346 38 340 Q42 334 40 328 Q36 321 29 322 Z M854 455 Q858 460 862 456 Q866 452 863 447 Q858 441 852 436.5 Q846 432 840 427 Q809 409 774 411.5 Q739 414 707 425 Q670 438 633.5 452.5 Q597 467 556 462 Q550 462 540 460 Q548 449 549.5 436 Q551 423 548 411 Q543 394 531.5 379 Q520 364 506 352 Q492 340 474.5 330.5 Q457 321 438 319 Q422 318 407 328.5 Q392 339 393 357 Q394 375 408 388 Q422 401 435 412 Q453 428 473 442 Q493 456 516 464 Q506 469 494.5 467.5 Q483 466 473 464 Q440 455 406 440 Q340 411 282.5 366.5 Q225 322 171 273 Q117 224 65 175 Q13 126 -47 83 L-72 12 L-105 -87 Q-111 -107 -118 -126 Q-125 -145 -133 -164 Q-138 -174 -143 -183 Q-148 -192 -154 -201 Q-158 -206 -164.5 -213 Q-171 -220 -180.5 -226 Q-190 -232 -201.5 -235 Q-213 -238 -226 -235 Q-246 -229 -254.5 -213.5 Q-263 -198 -265.5 -180.5 Q-268 -163 -267 -148 Q-266 -133 -265 -128 Q-261 -105 -252 -85.5 Q-243 -66 -229 -49 Q-218 -35 -206 -23.5 Q-194 -12 -180 -1 Q-165 12 -149 23 Q-133 34 -117 46 Q-110 51 -103 56 Q-96 61 -89 66 Q-84 68 -82 75 Q-68 113 -54.5 149.5 Q-41 186 -27 223 Q-22 236 -16.5 248 Q-11 260 -6 273 Q-4 278 -1 283 Q3 289 10 286 Q14 284 14 284 Q22 278 20 270 Q17 261 14 252.5 Q11 244 8 235 Q1 216 -6 197.5 Q-13 179 -20 160 L-40 103 Q-38 104 -37.5 104.5 Q-37 105 -35 106 Q29 154 86.5 210 Q144 266 205 319 Q262 369 326 410.5 Q390 452 464 473 Q479 478 497 479.5 Q515 481 529 471 L531 469 Q548 474 565 475 Q586 476 606 471.5 Q626 467 645.5 460.5 Q665 454 684.5 446 Q704 438 724 432 Q740 427 758 424.5 Q776 422 793.5 424 Q811 426 826.5 433 Q842 440 854 455 Z M-104 10 Q-102 18 -99 25.5 Q-96 33 -94 41 L-94 42 Q-97 40 -99.5 38.5 Q-102 37 -104 35 Q-123 22 -141.5 8.5 Q-160 -5 -177 -20 Q-190 -31 -201.5 -43.5 Q-213 -56 -222 -70 Q-255 -118 -249 -174 Q-247 -197 -236 -214 Q-224 -236 -204 -222 Q-199 -219 -194.5 -214.5 Q-190 -210 -186 -205 Q-176 -193 -169 -179.5 Q-162 -166 -157 -152 Q-144 -118 -133 -83 Q-125 -60 -118.5 -36.5 Q-112 -13 -104 10 Z M525 390 Q534 404 537.5 420.5 Q541 437 532 451 Q531 453 528 456 Q502 448 478 431.5 Q454 415 434 396 Q429 391 422 385 Q415 379 410.5 372 Q406 365 404.5 357.5 Q403 350 409 342 Q415 334 423 332 Q431 330 440 331 Q449 332 457.5 335.5 Q466 339 473 343 Q488 352 501.5 364 Q515 376 525 390 Z " />
<glyph glyph-name="k" unicode="k" horiz-adv-x="324" d="M863 390 Q864 396 869.5 396 Q875 396 875 390 Q875 379 866 368 Q855 357 840.5 353 Q826 349 812 348 Q793 346 774.5 348 Q756 350 738 354 Q718 358 697.5 362.5 Q677 367 656 369 Q651 358 643.5 348 Q636 338 630 331 Q611 307 582 293 Q568 285 551 284 Q534 283 523 298 Q514 312 523 327 Q532 342 542 352 Q566 372 597 378 Q621 384 648 382 Q654 394 654.5 407 Q655 420 642 428 Q628 437 609.5 434 Q591 431 576 427 Q542 417 510.5 403 Q479 389 450 372 Q387 336 330.5 291 Q274 246 216 202 Q202 191 187.5 180.5 Q173 170 158 160 Q145 152 129.5 146.5 Q114 141 98 146 Q84 150 77 159 Q70 168 65.5 179.5 Q61 191 56.5 203.5 Q52 216 45 225 Q42 222 41 220 Q30 205 20.5 189 Q11 173 2 156 Q0 151 -2.5 147.5 Q-5 144 -7 139 L-16 127 Q-20 121 -27 124 Q-34 127 -35.5 129 Q-37 131 -35 138 Q-33 146 -31.5 153 Q-30 160 -28 167 Q-19 213 -7.5 258 Q4 303 16 348 Q28 393 41 436 Q54 479 69 522 Q80 553 92.5 582 Q105 611 122 639 Q130 653 138 666 Q146 679 157 690 Q163 697 170 702.5 Q177 708 185 712 Q193 717 203 719 Q217 721 228 712 Q244 702 249 681 Q255 660 252 638 Q243 579 216 524 Q203 500 188.5 477.5 Q174 455 158 433 Q155 429 152 425 Q149 421 145 417 L139 408 Q136 404 129.5 396.5 Q123 389 116.5 381.5 Q110 374 105 368 Q100 362 100 362 Q72 330 50.5 307.5 Q29 285 25 281 L18 251 Q14 237 11 224 Q8 211 4 197 L4 194 Q8 200 8 200 Q20 220 33.5 238.5 Q47 257 63 273 Q72 283 81.5 291 Q91 299 102 306 Q110 313 123 316 Q135 319 145 312 Q154 305 152 294 L146 279 Q137 264 125 254 Q113 244 98 236 Q86 230 73 227 L72 227 Q71 226 70 226 Q67 226 59 224 Q61 222 62 219 Q63 216 65 214 Q70 202 73.5 189 Q77 176 86 167 Q97 154 112.5 156 Q128 158 142 165 Q159 173 174 184 Q189 195 203 206 Q219 218 234 230 Q249 242 264 254 Q322 299 381 342.5 Q440 386 509 415 Q526 422 542.5 428 Q559 434 576 439 Q593 443 610.5 445.5 Q628 448 644 440 Q663 431 665.5 414.5 Q668 398 661 380 Q682 378 703 373.5 Q724 369 744 365 Q764 361 783.5 359 Q803 357 823 361 Q835 363 849 369.5 Q863 376 863 390 Z M32 307 Q50 325 69 347 Q88 369 103.5 388.5 Q119 408 129.5 421.5 Q140 435 142 437 Q156 456 168.5 475.5 Q181 495 193 516 Q226 570 238 635 Q240 645 241 655 Q242 665 240 676 Q239 686 234 695 Q226 709 213 706 Q203 704 199 701 Q192 698 186 693 Q180 688 175 683 Q162 668 152 651.5 Q142 635 133 618 Q120 592 109 564.5 Q98 537 88 509 Q80 481 72 454 Q64 427 56 399 L32 307 Z M135 304 Q128 303 116.5 296 Q105 289 93 279 Q81 269 70.5 258 Q60 247 55 238 L59 238 Q93 246 118 275 Q128 286 133 297 Q134 299 134 300.5 Q134 302 135 304 Z M607 324 Q629 343 643 370 Q617 372 595 366 Q581 362 568 355 Q555 348 544 337 Q539 332 534.5 325 Q530 318 531 311 Q531 304 537.5 300 Q544 296 550 296 Q559 295 567 298.5 Q575 302 582 307 Q597 315 607 324 Z " />
<glyph glyph-name="l" unicode="l" horiz-adv-x="368" d="M902 430 Q903 436 908.5 434 Q914 432 913 427 Q912 414 904 402 Q887 376 857 365 Q827 354 798 351 Q758 348 720 357 Q701 361 683 366.5 Q665 372 646 376 Q639 378 632 378.5 Q625 379 617 380 Q617 378 618 377 Q620 360 613 343 Q606 326 596 312 Q587 300 574.5 290.5 Q562 281 545 281 Q529 281 517.5 290.5 Q506 300 505 317 Q504 332 512.5 346 Q521 360 533 369 Q547 381 564.5 386 Q582 391 601 392 Q593 405 581 410 Q569 417 555 418.5 Q541 420 527 419 Q510 417 493 414 Q476 411 459 406 Q389 384 329 339.5 Q269 295 215 247 Q201 234 186 221 Q171 208 157 194 Q145 183 132.5 171.5 Q120 160 106 150 Q89 137 67.5 127.5 Q46 118 24 121 Q10 123 0 130 Q-10 137 -14 150 Q-18 165 -18 183 Q-18 197 -15.5 212 Q-13 227 -11 241 Q-3 282 10 320.5 Q23 359 37 397 Q50 432 64 467 Q78 502 95 537 Q106 559 117 580 Q128 601 142 621 Q157 643 176 661 Q193 677 212 682 Q229 688 243 681 Q257 674 262 661 Q263 659 263.5 656 Q264 653 265 651 Q267 639 264.5 624 Q262 609 257 594 Q252 579 246 564.5 Q240 550 234 540 Q231 534 227.5 528.5 Q224 523 221 518 Q192 468 164.5 434 Q137 400 127 389 Q107 367 82 343 Q57 319 27 293 Q24 284 21 274 Q16 255 13 232 L13 231 Q11 220 10 210 Q9 200 9 189 Q7 172 12 156 L12 154 Q14 149 18 143.5 Q22 138 30.5 135.5 Q39 133 51.5 135.5 Q64 138 83 149 Q101 159 116.5 172.5 Q132 186 146 200 Q176 228 205.5 254.5 Q235 281 267 307 Q295 329 325.5 350.5 Q356 372 388.5 389 Q421 406 455.5 417 Q490 428 527 431 Q552 433 578 424.5 Q604 416 614 392 Q635 390 654 386 Q673 381 691.5 376 Q710 371 730 367 Q751 362 772 362 Q793 362 813 365 Q827 367 841.5 372 Q856 377 869 384.5 Q882 392 891 403.5 Q900 415 902 430 Z M58 391 Q56 385 52.5 373.5 Q49 362 45 349.5 Q41 337 37.5 327 Q34 317 33 314 Q40 321 48.5 328.5 Q57 336 64 343 Q71 350 76 355 Q81 360 82 361 Q111 390 140.5 424 Q170 458 193 493 Q197 500 200.5 506 Q204 512 208 519 Q229 556 244 597 Q248 607 250.5 617.5 Q253 628 253 639 Q254 650 249 664 Q244 674 234 673 Q226 673 222 671 Q210 667 200 660 Q190 653 181 644 Q173 635 165.5 625 Q158 615 152 605 Q138 585 128 564 Q118 543 109 521 Q80 455 58 391 Z M606 363 Q607 370 605 380 Q585 380 566 374.5 Q547 369 533 354 Q524 345 518 328.5 Q512 312 523 301 Q534 290 549 293 Q564 296 574 305 Q586 316 595 331.5 Q604 347 606 363 Z " />
<glyph glyph-name="m" unicode="m" horiz-adv-x="395" d="M1037 379 Q1038 384 1044 384 Q1050 384 1049 379 Q1048 366 1043 352 Q1032 326 1010 307.5 Q988 289 962 281 Q929 270 894.5 274.5 Q860 279 828 290 Q799 301 771 316 Q743 331 712 334 Q713 329 713.5 325 Q714 321 714 316 Q712 299 701 287 Q690 275 676 267 Q663 259 647.5 254.5 Q632 250 616 252 Q610 254 604 256.5 Q598 259 594 264 Q585 276 592 291 Q595 298 601 303.5 Q607 309 612 314 Q619 319 625 323.5 Q631 328 639 331 Q663 344 692 346 Q688 350 685 352 Q672 363 655.5 365.5 Q639 368 622 366 Q589 363 556.5 355.5 Q524 348 492 337 Q431 317 372 281 Q343 263 316 241.5 Q289 220 263 197 Q249 185 235.5 173 Q222 161 208 150 Q204 146 199 142 Q194 138 189 136 Q186 134 180.5 133.5 Q175 133 169 135 Q168 136 167.5 136 Q167 136 166 137 Q156 142 157 154 Q158 157 158.5 160.5 Q159 164 161 168 Q165 180 170.5 191.5 Q176 203 182 214 Q187 225 193 236.5 Q199 248 204 259 Q205 261 206 263 Q207 265 207 268 Q205 267 202 264 Q187 255 174.5 243.5 Q162 232 150 220 Q136 206 123 191.5 Q110 177 97 162 Q90 153 81 146 Q71 136 59 143 Q49 146 52 157 Q54 162 55 167 Q56 172 58 177 Q65 193 72 208.5 Q79 224 86 240 Q92 250 96 263 L92 259 Q80 249 70 237.5 Q60 226 50 214 Q38 199 25.5 183.5 Q13 168 1 153 Q-3 148 -6.5 144.5 Q-10 141 -14 137 Q-17 131 -23 133 Q-26 133 -27 132 Q-31 131 -37 133 Q-47 137 -44 147 Q-39 167 -33 186.5 Q-27 206 -19 226 L-1 274 Q-1 275 -0.5 276 Q0 277 -1 279 Q-3 281 -2 284 Q1 289 6 290 Q14 291 20 286 Q26 281 26 273 Q25 268 24.5 263.5 Q24 259 23 254 Q16 234 9 214.5 Q2 195 -5 175 Q-7 169 -10 162 L-9 162 Q-4 167 0 173 Q4 179 9 184 Q20 198 31.5 211.5 Q43 225 54 239 Q72 262 95 280 Q108 288 119 280 Q126 275 124 263 Q122 258 121 253 Q120 248 118 243 Q113 230 107 217.5 Q101 205 95 191 Q90 183 87 175 L87 174 L92 179 Q108 195 123 211 Q138 227 154 242 Q165 253 177 263 Q189 273 202 281 Q212 288 223 281 Q231 275 230 265 Q228 260 227.5 254.5 Q227 249 225 244 Q220 231 214 218.5 Q208 206 202 193 Q197 184 193 175 Q189 166 185 157 Q183 154 182.5 151.5 Q182 149 180 146 Q184 148 187 149.5 Q190 151 191 151 Q193 153 195.5 155 Q198 157 201 159 L202 159 Q202 159 204 161 Q230 182 255.5 205.5 Q281 229 307 250 Q362 293 424 322 Q488 351 553 366 Q570 370 587 372.5 Q604 375 621 377 Q638 379 655.5 377 Q673 375 688 365 Q693 361 697.5 356 Q702 351 706 346 Q723 345 739 340.5 Q755 336 770 329 Q785 322 800.5 315 Q816 308 831 302 Q863 290 898.5 286 Q934 282 967 295 Q993 306 1013.5 328 Q1034 350 1037 379 Z M696 301 Q706 317 699 334 Q668 334 642 320 Q627 312 617 303 Q612 298 606 291.5 Q600 285 601 277 Q601 271 606.5 268 Q612 265 617 264 Q624 262 631 263 Q638 264 645 266 Q660 270 674 278.5 Q688 287 696 301 Z " />
<glyph glyph-name="n" unicode="n" horiz-adv-x="295" d="M963 388 Q963 375 958 362 Q946 333 919 319 Q892 305 863 301 Q828 296 793 297 Q758 298 723 303 Q700 307 676.5 312.5 Q653 318 630 321 Q630 308 624 296 Q618 284 608 276 Q585 255 558 252 Q547 251 534.5 254.5 Q522 258 514 268 Q506 279 509.5 292 Q513 305 523 314 Q535 325 550.5 329 Q566 333 582 335 Q591 336 599.5 335.5 Q608 335 617 334 Q615 343 607 352 Q596 363 582 368 Q568 373 553 374 Q522 375 487 369 Q470 366 454.5 361.5 Q439 357 423 352 Q391 341 362 326 Q333 311 304 293 Q275 275 248 254.5 Q221 234 195 212 Q182 201 169.5 190.5 Q157 180 144 169 Q134 161 124 154.5 Q114 148 103 143 Q99 141 91.5 139.5 Q84 138 78 140 Q77 140 76.5 140.5 Q76 141 75 141 Q73 143 72 143.5 Q71 144 70 146 Q67 150 67 156 Q68 163 70 170 Q72 177 74 184 Q79 199 85 213.5 Q91 228 97 243 Q99 249 101 255 Q103 261 105 268 Q106 269 106 273 Q102 271 101 271 Q95 266 88.5 260.5 Q82 255 76 250 Q61 236 48.5 221 Q36 206 25 190 Q17 181 10 172 Q3 163 -4 153 Q-10 145 -17 145 Q-25 143 -31.5 148 Q-38 153 -37 162 Q-37 170 -35 177 Q-33 184 -31 192 Q-26 209 -19.5 226.5 Q-13 244 -7 261 Q-5 266 -3.5 272 Q-2 278 0 284 Q1 288 7 288 Q23 286 23 271 Q22 255 15 235 Q10 221 4.5 207 Q-1 193 -6 179 L-6 176 L6 191 Q18 206 30 220.5 Q42 235 56 249 Q64 257 72 264 Q80 271 89 277 Q93 281 101 283 Q109 285 115.5 281.5 Q122 278 124 270 Q127 259 124 247 Q122 235 118.5 224 Q115 213 111 202 Q108 194 105.5 186 Q103 178 100 170 L100 169 Q98 165 96 159 L93 151 Q98 152 102 155 Q106 157 110.5 160 Q115 163 120 166 Q134 175 145.5 185 Q157 195 169 206 Q183 217 197 228.5 Q211 240 225 251 Q253 273 282 292.5 Q311 312 342 329 Q406 363 472 378 Q507 386 539 386 Q556 386 572 383 Q588 380 602 371 Q612 364 619.5 354.5 Q627 345 629 333 Q652 330 674 324.5 Q696 319 719 315 Q738 313 756.5 311 Q775 309 794 309 Q812 309 830 309.5 Q848 310 866 313 Q883 316 898.5 321 Q914 326 926 337 Q937 347 944.5 360 Q952 373 951 388 Q951 394 957 393.5 Q963 393 963 388 Z M615 304 Q617 309 618 313 Q619 317 619 322 Q611 323 604.5 323.5 Q598 324 591 324 Q576 323 560 319.5 Q544 316 532 307 Q527 303 523.5 297.5 Q520 292 520 286 Q520 274 531 269 Q541 263 553 263.5 Q565 264 576 268 Q588 273 598.5 282.5 Q609 292 615 304 Z " />
<glyph glyph-name="o" unicode="o" horiz-adv-x="203" d="M776 352 Q778 357 784 355.5 Q790 354 788 349 Q785 342 781.5 335.5 Q778 329 775 322 Q745 270 693.5 235 Q642 200 582 194 Q548 189 516 200 Q486 211 466 238 Q447 263 438.5 294.5 Q430 326 428 358 Q428 367 428 376.5 Q428 386 429 395 Q408 375 385 358 Q362 341 338 325 Q279 287 215 262 Q183 250 148.5 242.5 Q114 235 79 242 Q79 242 78 241 Q61 207 40 179 Q28 164 13 152 Q3 145 -6 144 Q-18 143 -29 150 Q-40 157 -42 174 Q-44 185 -41.5 196 Q-39 207 -35 218 Q-32 229 -28 238 Q-24 248 -18 258 Q-15 263 -12 268.5 Q-9 274 -5 279 Q-3 282 1 286.5 Q5 291 9 290 Q10 290 10.5 289.5 Q11 289 13 289 Q10 296 9 304 Q6 327 19 345 Q32 364 55 372 Q72 377 86.5 369 Q101 361 106 344 Q111 322 103 301 Q100 292 96.5 283 Q93 274 90 265 Q89 265 89 264 Q89 263 88.5 262.5 Q88 262 88 261 Q86 257 84 254 L85 254 L84 253 Q90 251 96 251 Q102 251 108 250 Q142 250 175 260.5 Q208 271 239 285 Q298 311 350 347 Q392 376 432 413 Q438 447 453 481 Q460 497 468 509 Q473 516 477.5 522.5 Q482 529 487 534 Q492 539 499 542 Q506 545 514 541 Q519 537 521 531 Q523 525 522 519 Q521 511 517.5 504 Q514 497 510 491 Q502 475 492 462 Q481 448 469.5 435.5 Q458 423 446 411 L443 408 Q437 364 444 325 Q449 297 461.5 268 Q474 239 498 222 Q523 205 554 204.5 Q585 204 614 211 Q668 225 711.5 262.5 Q755 300 776 352 Z M58 250 Q49 252 42 256.5 Q35 261 30 266 Q24 271 20 276 Q10 259 2 241.5 Q-6 224 -12 204 Q-15 195 -17 185.5 Q-19 176 -18 166 Q-17 164 -17 162 Q-17 160 -16 157 Q-14 159 -12 159.5 Q-10 160 -8 161 Q0 166 6 172 Q12 178 17 185 Q29 200 39 216 Q49 232 58 249 L58 250 Z M61 259 Q63 259 63 258 L73 277 Q75 281 76.5 284.5 Q78 288 80 292 Q84 301 87.5 310.5 Q91 320 92 331 Q94 345 88 355 Q86 361 80 361 Q78 361 75.5 361.5 Q73 362 70 361 Q57 358 44 347 Q24 329 24 306 Q24 301 25 299 Q25 292 28 288 Q30 284 35.5 276 Q41 268 55 262 Q56 261 57.5 260.5 Q59 260 61 259 Z M474 496 Q459 468 450 441 Q449 438 448.5 434.5 Q448 431 447 428 L448 429 Q459 441 470 453 Q481 465 490 479 Q498 491 506 507 Q508 512 510 518 Q512 524 510 529 Q507 534 501.5 530.5 Q496 527 490 520 Q484 513 479.5 505.5 Q475 498 474 496 Z " />
<glyph glyph-name="p" unicode="p" horiz-adv-x="247" d="M744 234 Q746 239 751 236 Q756 233 754 228 L742 204 Q713 157 665.5 127 Q618 97 564 89 Q535 85 506 88 Q477 91 450 102 Q392 125 363 180 Q349 206 343 234 Q337 262 336 291 Q336 299 336.5 305.5 Q337 312 338 319 Q333 316 329.5 313 Q326 310 321 308 Q270 273 215 245.5 Q160 218 100 200 Q100 199 98 197 Q95 191 92 188 L92 187 Q77 166 54 145 Q49 141 43 138 Q37 135 30 133 Q19 130 8 135 Q-7 142 -2 159 Q4 175 17 185 Q37 198 62 204 Q72 206 77 208 Q79 208 80 209 Q86 219 91 229.5 Q96 240 99 252 Q100 254 100 256 Q100 258 100 260 Q100 276 84 276 Q72 276 60 269 Q33 254 14 229 Q10 224 6 219 Q2 214 0 209 Q-2 204 -3.5 199.5 Q-5 195 -7 190 Q-13 173 -19.5 155.5 Q-26 138 -32 121 Q-46 81 -60.5 41 Q-75 1 -89 -40 Q-102 -75 -114.5 -109.5 Q-127 -144 -141 -179 Q-143 -186 -146 -192.5 Q-149 -199 -151 -206 Q-153 -211 -159 -212.5 Q-165 -214 -169 -210 Q-171 -208 -169 -205 Q-167 -198 -165 -191.5 Q-163 -185 -161 -178 Q-148 -140 -135.5 -101 Q-123 -62 -109 -24 Q-98 10 -86 43 Q-74 76 -63 110 L-61 115 Q-54 132 -50 146 Q-49 148 -48 151 Q-47 154 -46 156 Q-45 159 -43 163 Q-42 168 -38 178 Q-36 183 -34.5 188.5 Q-33 194 -31 199 Q-26 212 -23 222 Q-21 228 -18.5 233.5 Q-16 239 -14 245 Q-12 250 -10.5 255.5 Q-9 261 -7 266 Q-6 268 -5.5 270 Q-5 272 -4 274 Q-3 276 -2.5 278 Q-2 280 -1 282 Q0 284 0 285.5 Q0 287 2 288 Q4 290 5 290 Q8 290 11 289 Q14 288 16 287 Q20 285 23 283 Q27 279 25 276 L23 268 L20 259 Q19 256 18 254 Q23 259 29 263 Q35 267 40 272 Q53 282 69 285 Q81 287 93 283 Q105 279 112 269 Q121 255 116 238 L113 226 Q113 225 112 223 Q111 221 110 219 Q109 217 108 215 Q110 215 110 216 Q169 235 223.5 263 Q278 291 328 326 Q331 329 334 331.5 Q337 334 340 336 Q343 354 349 371 Q355 388 366 403 Q374 413 384 422.5 Q394 432 408 432 Q421 432 425 422 Q427 414 424 406.5 Q421 399 418 392 Q410 378 397.5 368 Q385 358 373 347 Q368 342 362 338 Q356 334 351 329 Q345 291 351 254 Q356 228 365.5 202.5 Q375 177 392 157 Q410 135 434 122 Q458 109 484.5 103 Q511 97 539 98.5 Q567 100 593 107 Q643 121 683 154 Q723 187 744 234 Z M18 145 Q34 153 45 165.5 Q56 178 67 192 Q58 189 50 185.5 Q42 182 34 176 Q22 167 18 154 Q17 151 17 146 Q17 145 18 145 Z M358 362 Q357 358 356 354.5 Q355 351 354 347 Q359 352 365 356 Q371 360 376 365 Q387 374 397.5 384.5 Q408 395 412 409 Q413 411 413.5 414.5 Q414 418 412 420 Q408 422 404 420 Q393 417 386 408 Q368 390 358 362 Z " />
<glyph glyph-name="q" unicode="q" horiz-adv-x="254" d="M602 118 Q607 121 610 116 Q613 111 608 108 Q579 93 548 82.5 Q517 72 484 70 Q460 68 435 73 Q410 78 388 88.5 Q366 99 348 116 Q330 133 320 156 Q303 194 308 234 Q278 207 245 182.5 Q212 158 177 137 Q158 126 139 116 Q120 106 100 97 Q83 89 64.5 82.5 Q46 76 27 74 Q29 71 32 67.5 Q35 64 37 60 Q44 47 46 36 Q55 1 54 -32 Q49 -111 9 -178 Q-7 -205 -30 -221 Q-42 -230 -54 -231 Q-76 -234 -81 -214 Q-84 -198 -82 -179 Q-80 -156 -74.5 -133.5 Q-69 -111 -62 -88 Q-51 -48 -38.5 -9 Q-26 30 -12 68 Q1 103 15 137 Q29 171 43 205 Q43 206 43.5 207 Q44 208 44 209 Q42 207 41.5 205.5 Q41 204 39 202 Q20 175 -1 154 Q-7 147 -15 142 Q-24 136 -33.5 137.5 Q-43 139 -51 144 Q-62 152 -62 168 Q-63 198 -49 228 L-49 229 L-49 230 Q-44 240 -40 247 Q-36 254 -34 256 Q-21 272 -12 278 Q-8 281 -1 284 Q6 287 14 287 Q25 287 38 279 Q51 269 51 255 Q51 249 48 245 Q46 243 44 241 Q42 239 40 237 Q38 235 34 235.5 Q30 236 28 238 Q28 241 29 242 Q31 245 32.5 247.5 Q34 250 35 253 Q40 264 30 274 Q26 278 18 276 Q13 275 10 272.5 Q7 270 4 267 Q-9 254 -19 234 Q-26 220 -30.5 205.5 Q-35 191 -37 176 Q-37 170 -37 164 Q-37 158 -35 152 Q-31 153 -28 156 Q-23 160 -18 163.5 Q-13 167 -8 172 Q7 187 20 203 Q33 219 46 236 Q52 245 57.5 254.5 Q63 264 69 274 Q74 280 79.5 279 Q85 278 89 273 Q92 268 90 262 Q89 260 89 258 L32 110 Q30 106 29 103 Q28 100 26 96 L22 86 Q45 88 66 96 Q87 104 107 113 Q145 131 180.5 152.5 Q216 174 249 200 Q266 212 281.5 225.5 Q297 239 312 253 Q316 276 329 298 Q334 306 343 317 Q352 328 364 321 Q367 320 367 314 Q363 294 350 277.5 Q337 261 322 247 L319 226 Q317 204 322.5 182.5 Q328 161 340 143 Q353 125 371.5 112 Q390 99 410 91 Q434 83 459 82 Q484 81 508.5 85 Q533 89 556.5 98 Q580 107 602 118 Z M22 -110 Q33 -77 36.5 -44 Q40 -11 35 24 Q33 34 30.5 43 Q28 52 23 61 Q19 67 17 71 Q16 70 16 69 Q2 31 -12 -6.5 Q-26 -44 -37 -83 Q-44 -106 -50 -129 Q-56 -152 -60 -176 Q-61 -184 -61.5 -191.5 Q-62 -199 -60 -207 Q-60 -211 -56 -219 Q-54 -224 -50 -220 Q-47 -219 -41 -215 Q-22 -202 -8 -178 Q2 -162 9 -145 Q16 -128 22 -110 Z M331 274 Q331 274 329 270 Q337 279 344 289 Q351 299 354 311 Q350 309 347 303.5 Q344 298 342 296 Q338 291 335.5 285.5 Q333 280 331 274 Z " />
<glyph glyph-name="r" unicode="r" horiz-adv-x="216" d="M776 213 Q781 211 779.5 205.5 Q778 200 772 202 Q765 204 758 206.5 Q751 209 744 211 Q714 223 687 241 Q660 259 634 277.5 Q608 296 580 313 Q552 330 521 339 Q507 343 492.5 345 Q478 347 463 346 Q464 343 464 337 Q465 322 458 308.5 Q451 295 440 284 Q429 273 414.5 265 Q400 257 385 250 Q374 245 359.5 243 Q345 241 337 253 Q328 267 338 282 Q348 297 357 307 Q368 318 381 327 Q394 336 408 343 Q427 352 448 355 Q442 365 430 373 Q417 381 401.5 382.5 Q386 384 372 382 Q341 379 314 363 Q287 347 264 327 Q241 307 222 285 Q203 263 184 240 Q166 217 147 193.5 Q128 170 107 150 Q93 136 77 122.5 Q61 109 42 101 Q14 90 3 97.5 Q-8 105 -10 111 Q-12 115 -12 118 Q-13 133 -10 152 Q-5 172 2.5 191 Q10 210 19 228 Q26 246 39 264 L39 265 Q36 266 32.5 266.5 Q29 267 26 268 Q9 272 1 276 Q-7 280 -11 284 Q-19 292 -21.5 302.5 Q-24 313 -24 325 Q-23 356 1 380 Q10 389 22 392 Q33 394 42 388 Q51 382 53 371 Q55 362 53 353.5 Q51 345 48 337 Q42 323 33.5 310 Q25 297 15 285 Q14 283 11 280 Q16 279 20 278 Q24 277 28 276 Q33 274 38.5 273.5 Q44 273 49 271 Q52 271 52 270 L61 264 Q67 260 63 255 Q61 249 58 243 Q55 237 53 232 Q42 212 33.5 191.5 Q25 171 18 150 Q16 142 14 134 Q12 126 11 118 Q11 115 12 112 Q13 109 13 106 Q18 107 23 108 Q28 109 33 111 Q49 116 62 126.5 Q75 137 87 148 Q113 171 131 193 Q152 217 171.5 242 Q191 267 212 291 Q233 315 256.5 336.5 Q280 358 309 373 Q337 388 370.5 394 Q404 400 434 384 Q453 375 460 357 Q480 359 499.5 355.5 Q519 352 538 345 Q571 333 599.5 314 Q628 295 657 275 Q685 256 714 238.5 Q743 221 776 213 Z M-2 287 Q-1 287 0 288 Q4 294 8 299.5 Q12 305 16 311 Q31 332 38 355 Q43 368 39 379 Q38 384 32 383 Q25 382 19 377 Q5 366 -3 348 Q-14 327 -9 303 Q-7 292 -2 287 Z M451 325 Q454 335 452 345 Q438 343 425.5 338 Q413 333 402 326 Q377 312 356 288 Q351 283 347 276 Q343 269 346 262 Q348 256 354 255 Q360 254 365 255 Q372 257 378.5 259.5 Q385 262 391 265 Q398 269 404.5 272.5 Q411 276 417 280 Q430 288 439 299.5 Q448 311 451 325 Z " />
<glyph glyph-name="s" unicode="s" horiz-adv-x="196" d="M731 256 Q736 259 739 253.5 Q742 248 737 246 Q723 240 709 232 Q652 204 593 181.5 Q534 159 471 154 Q417 149 363 165.5 Q309 182 275 227 Q261 244 252.5 264 Q244 284 239 305 Q159 224 51 181 Q51 175 50 172 Q49 169 49 166.5 Q49 164 48 161 L47 160 Q42 146 33.5 134 Q25 122 14 111 Q3 101 -11 94 Q-25 87 -40 88 Q-48 89 -54.5 91.5 Q-61 94 -64 101 Q-69 110 -67 120 Q-66 131 -60.5 139.5 Q-55 148 -47 155 Q-45 157 -42 158.5 Q-39 160 -36 162 Q-29 166 -22 169 Q-15 172 -7 175 Q-2 177 5 179.5 Q12 182 20 184 Q21 200 18.5 214.5 Q16 229 14 238 Q12 242 11.5 245.5 Q11 249 9 253 Q4 267 0 281.5 Q-4 296 -7 310 Q-9 322 -6 331 Q-3 340 2 345 Q7 351 15 356 Q17 356 17 357 Q24 359 31.5 357.5 Q39 356 44 351 Q49 344 47 331 Q47 326 43 318 Q40 310 34 303 Q32 299 29 296 Q26 293 24 290 Q23 288 23 286 Q28 275 32.5 264.5 Q37 254 41 243 Q45 233 47.5 223.5 Q50 214 51 203 L51 194 L66 200 Q114 221 157.5 251 Q201 281 236 319 Q236 322 235.5 325 Q235 328 235 330 Q231 356 233 384.5 Q235 413 252 434 Q260 443 272.5 448.5 Q285 454 296 444 Q304 436 304.5 425 Q305 414 303 404 Q300 390 293 377 Q286 364 278 352 Q272 342 264.5 333 Q257 324 249 315 Q250 309 251.5 303 Q253 297 255 291 Q263 266 277 244 Q291 222 312 206 Q354 173 407.5 167.5 Q461 162 512 171 Q571 182 624.5 206 Q678 230 731 256 Z M18 172 Q9 169 2 166.5 Q-5 164 -6 164 Q-14 160 -18 159 Q-26 155 -32.5 150.5 Q-39 146 -44 139 Q-49 133 -53 124.5 Q-57 116 -55 108 Q-54 101 -48.5 98.5 Q-43 96 -37 98 Q-23 100 -13 109.5 Q-3 119 3 130 Q14 149 17 169 Q17 170 18 171 L18 172 Z M20 299 Q29 309 33 318 Q37 326 38 333.5 Q39 341 34 346 Q30 349 26.5 345 Q23 341 23 340 Q22 339 22 338 Q18 330 17.5 322.5 Q17 315 18 307 Q19 306 19 303 L20 299 Z M247 392 Q244 379 244 366.5 Q244 354 245 341 Q245 338 247 330 Q255 341 263 351 Q271 361 277 373 Q283 383 288 394.5 Q293 406 293 418 Q293 429 289 434 Q284 439 279 438 Q274 437 269 434 Q259 426 254 415 Q249 404 247 392 Z " />
<glyph glyph-name="t" unicode="t" horiz-adv-x="256" d="M796 305 Q799 310 804 307 Q809 304 806 299 Q800 287 788 278 Q764 258 733.5 256.5 Q703 255 674 263 Q641 273 611 289 Q581 305 548 315 Q538 295 520 277 Q495 254 465 245 Q453 241 438 240.5 Q423 240 415 253 Q407 266 415 281.5 Q423 297 432 306 Q454 327 483 331.5 Q512 336 540 329 Q544 342 542 354 Q540 366 528 374 Q517 381 502.5 380 Q488 379 476 376 Q448 369 417 355 Q359 329 308.5 291 Q258 253 208 214 Q182 194 156.5 175.5 Q131 157 103 140 Q88 131 72.5 123.5 Q57 116 40 112 Q35 111 28 110 Q21 109 13 110 Q-1 111 -7.5 117 Q-14 123 -17 129 Q-19 133 -20 136 Q-25 153 -23 171 Q-21 192 -17.5 212.5 Q-14 233 -9 254 Q-1 283 8 313 Q17 343 27 372 L90 552 L90 554 Q88 554 86.5 553.5 Q85 553 83 553 Q51 545 20.5 536.5 Q-10 528 -42 520 Q-64 514 -85.5 509 Q-107 504 -129 501 Q-146 498 -161.5 496.5 Q-177 495 -193 497 Q-210 497 -223 503 Q-242 513 -243 530 Q-244 545 -233 560 Q-227 568 -221 562 Q-219 560 -218.5 559 Q-218 558 -217 557 Q-217 553 -220 553 Q-223 553 -224 552 Q-233 539 -232 526 Q-232 516 -223 512 Q-218 510 -213 509 Q-208 508 -203 507 Q-186 505 -169.5 506.5 Q-153 508 -136 510 Q-112 515 -88 521 Q-64 527 -40 534 Q-6 543 27 552 Q60 561 94 569 Q97 570 97 572 Q106 597 115 621 Q124 645 133 670 Q135 674 136.5 678 Q138 682 140 686 Q140 689 145 689 Q150 689 154 685 Q158 681 156 675 Q154 668 152.5 662 Q151 656 149 649 Q143 631 137 613.5 Q131 596 126 578 Q126 578 125 576 Q131 578 132 578 Q156 583 179.5 587 Q203 591 226 596 Q251 600 275.5 602 Q300 604 325 604 Q342 603 358 601 Q374 599 389 594 Q409 587 426 570 Q432 564 435.5 556 Q439 548 442 540 Q444 531 446 522 Q448 513 447 504 L444 495 Q440 488 436 490 Q434 490 432.5 493 Q431 496 431 498 Q431 500 432 501 Q436 503 437 506 Q438 509 438 512 Q437 517 437 522.5 Q437 528 435 533 Q431 549 425 558 Q420 566 412 570.5 Q404 575 396 579 Q372 589 347 590 Q333 591 317.5 591 Q302 591 287 589 Q270 587 253.5 585 Q237 583 220 581 Q196 577 171.5 572 Q147 567 122 562 Q120 561 118 557 Q107 525 95.5 492 Q84 459 73 426 Q62 391 50.5 356.5 Q39 322 28 287 Q22 268 17 249 Q12 230 8 210 Q7 209 7 207 Q2 187 1 167 Q1 159 1 150 Q1 141 5 133 Q6 130 11 127 Q20 121 32 123 Q45 124 60 131 Q64 133 66 133 Q73 137 80 140.5 Q87 144 93 148 Q107 156 121 165.5 Q135 175 149 185 Q176 204 202 224.5 Q228 245 254 265 Q280 285 306.5 304 Q333 323 362 340 Q376 348 390.5 355.5 Q405 363 420 369 Q434 375 449 380.5 Q464 386 480 389 Q494 392 508.5 391.5 Q523 391 535 383 Q549 375 553 360.5 Q557 346 553 331 Q553 329 552.5 328.5 Q552 328 552 326 Q570 321 586.5 313 Q603 305 619.5 297 Q636 289 653.5 282 Q671 275 689 271 Q717 264 748.5 271 Q780 278 796 305 Z M498 274 Q510 283 520 294 Q530 305 536 318 Q509 324 479.5 318.5 Q450 313 433 288 Q429 283 425.5 275 Q422 267 425 260 Q427 255 433 253.5 Q439 252 444 252 Q458 253 472.5 259.5 Q487 266 498 274 Z " />
<glyph glyph-name="u" unicode="u" horiz-adv-x="234" d="M965 366 Q968 371 973 368 Q978 365 975 360 Q966 349 955 340 Q929 322 897 320 Q865 318 836 322 Q817 325 799 330 Q781 335 763 341 Q748 346 733.5 351 Q719 356 704 361 Q698 345 685 330 Q664 306 632 295 Q619 290 603.5 289 Q588 288 577 299 Q565 310 568 325.5 Q571 341 580 352 Q590 365 604 371.5 Q618 378 633.5 380.5 Q649 383 665 381.5 Q681 380 696 376 Q696 382 695 385 Q692 400 679 409 Q666 418 652 421 Q634 425 615 423 Q596 421 579 417 Q561 414 543.5 410 Q526 406 509 401 Q439 381 375 346 Q311 311 253 269 Q223 247 195 223.5 Q167 200 139 176 Q134 171 128.5 166 Q123 161 118 156 L118 157 Q108 146 97 140 Q88 134 78.5 131 Q69 128 63 133 Q56 138 55.5 147 Q55 156 56 161 Q57 171 59 179 Q61 190 64.5 200 Q68 210 72 221 L76 233 L75 230 L70 224 Q66 217 62 211 Q57 204 52 197.5 Q47 191 42 184 Q40 182 35 176 Q30 170 24 164 Q24 162 22 162 Q19 159 14 155.5 Q9 152 3 149.5 Q-3 147 -9.5 147 Q-16 147 -22 152 Q-29 157 -30 164 Q-32 169 -32.5 174 Q-33 179 -33 184 Q-32 204 -27 222.5 Q-22 241 -14 258 Q-14 259 -13 260 Q-11 263 -9.5 267 Q-8 271 -6 275 Q-4 279 -1 283 Q3 288 8.5 287.5 Q14 287 18 281 Q20 278 18 273 Q16 267 14 261 Q12 255 9 248 Q7 241 4 234 Q1 227 -1 219 Q-3 212 -4.5 205 Q-6 198 -7 191 Q-10 179 -10 169 Q-9 166 -8 163 Q-7 160 -4 160 L-3 160 Q-1 161 1 162.5 Q3 164 5 165 Q8 167 10.5 170 Q13 173 15 175 Q20 180 24 185.5 Q28 191 32 196 L92 280 Q94 284 98 290 Q101 293 104 292 Q112 289 115.5 285.5 Q119 282 118 274 Q117 262 114 251.5 Q111 241 107 230 Q102 216 98 202.5 Q94 189 89 175 L89 172 Q88 172 88 170 L85 161 L81 148 Q80 145 90.5 152 Q101 159 111 167 L126 179 L135 188 Q149 200 163.5 212.5 Q178 225 192 236 Q221 260 252 282.5 Q283 305 315 325 Q378 364 446.5 392 Q515 420 589 431 Q607 433 626 434.5 Q645 436 662 431 Q677 426 688.5 416 Q700 406 705 391 Q708 381 707 373 Q724 368 741.5 361 Q759 354 777 349 Q815 336 853 332 Q882 329 914 334.5 Q946 340 965 366 Z M667 329 Q675 336 682.5 344.5 Q690 353 693 364 Q693 364 691 365 Q674 370 658 371 Q642 372 626 367 Q612 363 599 354 Q586 345 581 331 Q579 325 580 318 Q581 311 587 306 Q592 302 598.5 301 Q605 300 612 301 Q627 303 641.5 310.5 Q656 318 667 329 Z " />
<glyph glyph-name="v" unicode="v" horiz-adv-x="266" d="M942 311 Q948 313 949 307.5 Q950 302 945 300 Q938 298 931.5 297 Q925 296 918 295 Q894 293 871 296.5 Q848 300 825 306 Q802 312 779 318.5 Q756 325 733 329 Q728 306 713 289 Q692 266 658 263 Q644 262 628 267.5 Q612 273 610 290 Q608 307 619 317.5 Q630 328 644 334 Q673 345 702 343 Q707 343 712.5 342.5 Q718 342 723 342 Q725 372 704.5 393 Q684 414 657 421 Q624 429 592 419 Q560 409 532 392 Q503 374 476 352.5 Q449 331 423 309 Q396 286 368.5 265.5 Q341 245 311 228 Q281 211 248.5 198.5 Q216 186 182 178 Q165 174 148.5 173.5 Q132 173 115 178 Q90 188 78 209 Q76 207 75 205.5 Q74 204 72 202 L69 199 Q60 187 46 175 Q39 168 32 162 Q25 156 17 150 Q8 142 -4 141 Q-16 139 -26 147 Q-36 155 -37 168 Q-39 179 -37 189 Q-35 199 -32 209 Q-29 222 -24.5 233.5 Q-20 245 -15 256 L1 288 L1 289 Q4 291 10 289 Q22 284 18 272 Q15 263 11.5 254 Q8 245 5 237 Q0 223 -5 209 Q-10 195 -14 181 Q-15 175 -16 169.5 Q-17 164 -16 157 Q-15 153 -11 154 Q-5 156 0.5 159 Q6 162 12 166 Q24 176 34.5 186.5 Q45 197 56 208 Q59 212 62 215 Q65 218 68 222 Q69 223 69 225 Q63 244 66 265 Q69 288 77 308 Q85 328 96 347 Q106 364 124 377 Q135 385 144.5 379 Q154 373 156 362 Q158 354 156.5 345.5 Q155 337 153 329 Q149 315 143 302 Q137 289 129 277 Q115 255 101 237 Q99 234 95 229 Q91 224 86 219 Q92 206 104 197 Q118 187 135 185.5 Q152 184 169 187 Q187 190 204.5 195.5 Q222 201 239 208 Q274 221 305.5 238.5 Q337 256 366 278 Q395 300 422 323 Q449 346 478 369 Q506 390 537 408.5 Q568 427 603 433 Q633 438 663.5 430.5 Q694 423 714 400 Q737 374 735 340 Q758 336 779.5 330 Q801 324 823 319 Q852 311 882.5 307 Q913 303 942 311 Z M83 271 Q79 255 80 236 Q82 238 82 238 Q96 255 107.5 272.5 Q119 290 129 309 Q134 319 138 329.5 Q142 340 144 351 Q145 360 144 369 Q142 372 140 371 Q138 369 136.5 368.5 Q135 368 133 366 Q115 352 104 331 Q97 317 91.5 302 Q86 287 83 271 Z M698 291 Q715 306 722 330 Q714 331 705.5 331.5 Q697 332 689 331 Q675 330 660 326.5 Q645 323 634 315 Q628 311 624 305 Q620 299 622 291 Q623 283 629.5 280 Q636 277 643 275 Q674 272 698 291 Z " />
<glyph glyph-name="w" unicode="w" horiz-adv-x="355" d="M835 79 Q840 82 844 77.5 Q848 73 843 69 Q838 64 832 60.5 Q826 57 820 53 Q794 40 765.5 39.5 Q737 39 709 48 Q681 57 655.5 74.5 Q630 92 611 114 Q585 143 568 180 Q541 170 512 164 Q483 158 454 155 Q411 150 368 154 Q325 158 283 172 Q277 174 273 175 Q262 180 252.5 184.5 Q243 189 233 194 Q226 198 221.5 202 Q217 206 212 210 Q210 208 206 202 L205 202 Q201 194 198 192 Q173 157 138 128 Q120 113 98 104 Q83 98 66 103 Q44 110 41 134 Q39 145 40 154.5 Q41 164 44 175 L47 187 Q46 186 45.5 186 Q45 186 44 185 Q37 176 29.5 167.5 Q22 159 13 152 Q5 145 -3 144 Q-14 142 -21.5 148 Q-29 154 -31 164 Q-33 176 -31.5 187.5 Q-30 199 -28 210 Q-24 227 -18.5 243 Q-13 259 -6 274 Q-4 278 -2.5 281 Q-1 284 1 287 Q4 291 6.5 291.5 Q9 292 14 291 Q24 288 24 280 Q23 275 22.5 271 Q22 267 21 263 L3 209 Q0 198 -2.5 187 Q-5 176 -6 165 L-6 159 Q-2 161 0 163 Q11 171 20 180 Q29 189 37 200 Q52 217 63.5 236.5 Q75 256 84 277 Q85 280 87 284 Q88 287 93 287 Q99 287 105 284 Q110 280 110 273 Q110 262 105 249 Q100 236 95.5 224 Q91 212 86 200 Q81 186 77 172.5 Q73 159 71 144 Q70 139 69.5 133 Q69 127 71 122 Q73 114 81 116 Q98 120 114 132 Q143 152 168 182 Q171 186 174 189.5 Q177 193 179 197 Q181 199 186.5 206.5 Q192 214 199 224 Q188 238 184.5 250 Q181 262 180 270 Q177 297 188 325 Q191 333 195 340 Q199 347 205 353 Q212 362 220 363 Q230 366 238.5 361.5 Q247 357 252 347 Q255 341 255.5 334.5 Q256 328 256 321 Q257 307 253.5 295.5 Q250 284 245 272 Q240 258 233 245 Q226 232 218 220 Q225 213 240 203 Q294 173 354.5 167 Q415 161 472 170 Q520 176 563 191 Q561 198 558.5 205 Q556 212 554 219 Q546 249 545.5 282.5 Q545 316 557 344 Q564 358 575 368.5 Q586 379 600 384 Q614 389 628 385.5 Q642 382 653 372 Q678 352 681 320 Q684 303 680 286.5 Q676 270 668 256 Q654 230 629.5 212.5 Q605 195 578 184 Q589 161 604 140 Q619 119 638 102 Q658 84 683.5 71 Q709 58 736 53.5 Q763 49 788.5 54.5 Q814 60 835 79 Z M198 301 Q193 284 194 266 Q195 248 206 233 Q208 237 210 240 Q212 243 214 247 Q228 270 238 299 Q241 310 242 321.5 Q243 333 240 344 Q238 352 235.5 353.5 Q233 355 225 350 Q220 346 216 340.5 Q212 335 209 329 Q201 314 198 301 Z M559 304 Q555 276 559 248.5 Q563 221 574 195 Q577 197 583 199 Q608 210 630.5 228 Q653 246 664 273 Q669 287 670.5 303 Q672 319 667 334 Q662 347 653 357 Q644 367 631 372 Q618 377 605 373 Q592 369 582 359 Q571 348 566 333.5 Q561 319 559 304 Z " />
<glyph glyph-name="x" unicode="x" horiz-adv-x="220" d="M822 251 Q827 254 830 249 Q833 244 828 241 Q817 233 801 228 Q774 219 747 221.5 Q720 224 693.5 231.5 Q667 239 640.5 247.5 Q614 256 587 260 Q579 249 569 239 Q559 229 548 221 Q537 213 524.5 207.5 Q512 202 498 201 Q487 200 475.5 205.5 Q464 211 466 225 Q467 233 472.5 239 Q478 245 484 250 Q489 255 495.5 258 Q502 261 509 264 Q523 270 537.5 272 Q552 274 567 274 Q571 274 574.5 273.5 Q578 273 581 273 Q593 289 596 311 Q599 341 570 352 Q557 357 543.5 357.5 Q530 358 516 357 Q481 354 448 342 Q387 322 330 291.5 Q273 261 220 224 Q193 206 167.5 186 Q142 166 116 146 Q105 136 92.5 127 Q80 118 65 115 Q60 114 56.5 113.5 Q53 113 48 113 Q35 114 24 120 Q13 126 8 138 Q3 147 2.5 157.5 Q2 168 2 178 Q-20 157 -37 135 Q-39 133 -41.5 130.5 Q-44 128 -47 127 Q-51 126 -54 128.5 Q-57 131 -56 134 Q-56 135 -54 137 Q-43 151 -31 165 Q-19 179 -7 192 Q-1 197 1 203 Q3 206 3 211 Q4 226 4.5 240 Q5 254 7 268 Q7 276 6 279 Q4 285 -2 285 Q-1 289 3 289.5 Q7 290 11 288 Q19 286 23.5 279.5 Q28 273 30 265 Q32 257 32 249 Q32 241 32 233 Q44 246 56.5 258 Q69 270 83 281 Q87 285 92 286 Q99 286 101 283 Q104 280 102 277 Q102 275 100 275 Q82 261 66 245.5 Q50 230 34 213 Q33 211 32 210.5 Q31 210 30 208 Q30 206 29.5 205 Q29 204 29 202 Q26 177 27 156 L27 147 Q29 139 33.5 133.5 Q38 128 46 126 Q52 124 59 126 Q66 128 73 130 Q81 134 88 139 Q95 144 103 150 Q116 161 128.5 171 Q141 181 155 192 Q182 212 210 231.5 Q238 251 267 269 Q326 305 386 331 Q418 345 452 356 Q486 367 521 369 Q535 370 549.5 368.5 Q564 367 577 362 Q605 349 608 320 Q609 307 604.5 294.5 Q600 282 594 271 Q621 266 647 257.5 Q673 249 699 242 Q729 234 761.5 233.5 Q794 233 822 251 Z M572 259 Q572 260 574 262 L557 262 Q543 262 529 259 Q515 256 503 248 Q500 246 493.5 242 Q487 238 482.5 233 Q478 228 477 222.5 Q476 217 484 214 Q495 209 508 214 Q521 219 531 224 Q554 238 572 259 Z " />
<glyph glyph-name="y" unicode="y" horiz-adv-x="290" d="M822 126 Q830 118 833 106 Q836 94 828 85 Q825 80 820 83 Q815 86 818 91 Q825 100 819 111 Q812 124 797 126.5 Q782 129 769 131 Q752 133 736 133 Q720 133 703 132 Q670 130 637 126 Q604 122 571 118 Q539 113 506 110.5 Q473 108 440 111 Q411 113 383.5 122 Q356 131 333 151 Q312 170 303 195.5 Q294 221 296 249 Q210 179 108 129 L101 109 Q89 76 77.5 43 Q66 10 53 -22 Q43 -48 31.5 -73.5 Q20 -99 6 -123 Q-5 -140 -16 -157 Q-27 -174 -41 -188 Q-52 -199 -63.5 -208 Q-75 -217 -89 -223 Q-109 -231 -129.5 -227 Q-150 -223 -164 -205 Q-188 -174 -185 -133 Q-182 -99 -168 -71 Q-154 -43 -132 -18 Q-119 -4 -105 8 Q-91 20 -76 31 Q-53 48 -28.5 63 Q-4 78 21 92 Q33 100 45.5 107 Q58 114 71 122 Q73 122 73 124 Q84 151 94 178 Q104 205 114 232 Q118 239 121 251 Q121 251 122 253 Q119 250 116 247.5 Q113 245 111 242 Q97 226 82 210.5 Q67 195 53 179 Q51 176 47 172 L45 170 Q42 167 34 158.5 Q26 150 16 142.5 Q6 135 -4.5 129.5 Q-15 124 -23 127 Q-24 127 -24.5 127.5 Q-25 128 -26 128 Q-28 130 -28 130 Q-34 133 -37 138 Q-41 145 -41 154 Q-41 174 -35 192 Q-30 211 -23 228.5 Q-16 246 -8 263 Q-7 264 -5 268 Q-4 269 -1.5 276 Q1 283 -1 287 Q7 290 13 290 Q26 290 29 277 Q29 273 28 270 Q28 265 27 262 Q24 251 20.5 241 Q17 231 13 221 Q7 204 1.5 187.5 Q-4 171 -9 154 Q-9 150 -11 144 L-11 143 Q-7 145 -6 146 Q3 151 10.5 157.5 Q18 164 26 172 Q40 188 54.5 203.5 Q69 219 84 234 Q94 245 104 255 Q114 265 124 276 Q128 279 131 279 Q133 279 134 278 Q137 277 140.5 275 Q144 273 146 268 Q147 266 147 264 L147 263 Q147 262 147.5 261.5 Q148 261 147 259 Q147 250 145 241.5 Q143 233 140 225 Q135 210 130.5 195.5 Q126 181 121 166 L114 145 Q116 146 118 147 Q120 148 122 149 Q216 198 298 265 Q301 286 309 309 Q314 320 320 331.5 Q326 343 335 352 Q343 360 354 366 Q365 372 377 371 Q390 369 395 361 Q399 356 398 349.5 Q397 343 393 338 Q388 332 383 327 Q378 322 373 317 Q368 312 362.5 307 Q357 302 352 297 Q341 287 330.5 277.5 Q320 268 309 259 Q307 242 308 226 Q309 210 316 195 Q327 170 348 154.5 Q369 139 394 131 Q423 122 454.5 122 Q486 122 517 124 Q549 126 581 130.5 Q613 135 645 139 Q676 143 707.5 144 Q739 145 771 142 Q784 140 798 137.5 Q812 135 822 126 Z M65 102 Q65 102 66 104 Q65 104 63 102 Q25 81 -12 57 Q-33 44 -53.5 30 Q-74 16 -93 -1 Q-113 -18 -128 -38 Q-143 -58 -154 -81 Q-162 -100 -165 -118.5 Q-168 -137 -166 -157 Q-166 -162 -165 -165.5 Q-164 -169 -163 -173 Q-161 -181 -157 -187.5 Q-153 -194 -148 -200 L-145 -203 Q-138 -211 -124 -215.5 Q-110 -220 -90 -206 Q-86 -203 -82.5 -200 Q-79 -197 -76 -194 Q-66 -185 -58 -174 Q-50 -163 -43 -152 Q-9 -98 14 -38 Q28 -3 40 32 Q52 67 65 102 Z M320 305 Q318 298 316 291.5 Q314 285 312 277 Q314 279 315 279 Q326 289 336.5 298.5 Q347 308 358 319 Q363 324 368 329 Q373 334 378 339 Q382 342 385.5 347.5 Q389 353 383 357 Q374 363 362.5 357.5 Q351 352 345 345 Q330 330 320 305 Z " />
<glyph glyph-name="z" unicode="z" horiz-adv-x="308" d="M914 181 Q919 183 921.5 178 Q924 173 919 171 Q913 167 906 165 Q899 163 891 161 Q875 159 859 161 Q843 163 827 166 Q810 169 793 173 Q776 177 759 182 Q729 190 698.5 196.5 Q668 203 636 205 Q636 180 620 156 Q604 131 577 115 Q563 107 546.5 101.5 Q530 96 514 101 Q500 105 489.5 116.5 Q479 128 480 142 Q481 158 492.5 170 Q504 182 516 190 Q539 207 567 213 Q595 219 624 218 Q620 238 606 254.5 Q592 271 573 281 Q546 296 514.5 299.5 Q483 303 452 299 Q419 295 387.5 284 Q356 273 326 259 Q266 230 212 193 Q158 156 104 118 Q107 107 107 93 Q107 69 101 47 Q90 6 71 -30 Q52 -65 29 -96.5 Q6 -128 -21 -157 Q-61 -198 -111 -219 Q-131 -226 -148 -227 Q-164 -227 -177 -221 Q-204 -210 -202 -178 Q-199 -156 -190 -135 Q-181 -117 -170 -101 Q-159 -85 -146 -70 Q-126 -47 -103.5 -26.5 Q-81 -6 -57 13 Q-34 32 -11 50 Q12 68 35 86 Q47 96 59.5 104.5 Q72 113 85 122 Q88 124 87 127 Q86 130 86 137 Q83 154 73 158 Q63 162 58 162 L20 162 Q12 162 8 167 Q0 174 5 182 Q6 184 6.5 184.5 Q7 185 8 187 Q10 191 13.5 193.5 Q17 196 20 199 Q35 215 49.5 232 Q64 249 73 269 Q75 273 76 278 Q77 283 75 287 Q72 291 66 293 Q61 294 56.5 293 Q52 292 48 291 Q43 289 39 287 Q35 285 30 283 Q25 281 21 278 Q17 275 12 273 Q6 269 3 270 Q-2 270 -2 277 Q-3 277 -3 278 Q-4 283 -2.5 284.5 Q-1 286 0 287 Q3 289 6 290 Q9 291 11 293 Q13 294 15.5 294 Q18 294 20 295 Q35 302 48 303 Q55 304 61 303.5 Q67 303 73 300 Q85 294 90 280 Q92 274 92 267.5 Q92 261 90 255 Q87 246 82.5 239 Q78 232 72 224 Q62 212 51.5 200.5 Q41 189 30 178 Q29 177 28.5 177 Q28 177 27 176 L27 175 L46 175 Q51 174 56 173.5 Q61 173 66 172 Q84 167 95 147 Q96 146 96 145 Q96 144 97 143 Q97 143 102 130 Q105 132 108.5 135 Q112 138 115 140 Q145 161 175.5 182 Q206 203 238 223 Q270 243 301.5 259.5 Q333 276 367 289 Q399 302 433 308.5 Q467 315 502 312 Q533 310 563 299 Q593 288 614 264 Q622 254 628 242.5 Q634 231 636 217 Q671 215 706 206.5 Q741 198 776 190 Q794 185 812 181 Q830 177 849 174 Q865 172 882 172.5 Q899 173 914 181 Z M81 79 Q85 92 86 101 L85 102 Q85 101 84 101 Q28 62 -24 20 Q-46 3 -67 -15.5 Q-88 -34 -108 -54 Q-122 -68 -135 -84 Q-148 -100 -159 -118 Q-175 -142 -178 -168 Q-181 -185 -176 -198 Q-171 -211 -158 -210 Q-150 -210 -143 -207.5 Q-136 -205 -128 -202 Q-84 -181 -49 -142 Q7 -77 49 1 Q59 20 67.5 39 Q76 58 81 79 Z M623 193 Q624 197 624.5 200 Q625 203 625 206 L624 206 Q596 207 568 200.5 Q540 194 517 177 Q512 173 506.5 167.5 Q501 162 497 156 Q493 150 492 143 Q491 136 495 129 Q503 115 517.5 112 Q532 109 546 114 Q573 122 595 143.5 Q617 165 623 193 Z " />
<glyph glyph-name="d" unicode="d" horiz-adv-x="418" d="M933 300 Q934 293 929.5 288 Q925 283 920 279 Q913 275 906.5 272 Q900 269 893 266 Q864 255 836 251 Q805 246 774 246.5 Q743 247 713 251 Q697 253 682 256 Q667 259 651 262 Q634 265 617 269 Q600 273 583 275 Q567 277 550.5 275.5 Q534 274 518 269 Q523 258 521.5 246 Q520 234 514 224 Q508 213 497.5 205.5 Q487 198 475 198 Q461 198 457 208 Q455 215 457 222.5 Q459 230 462 236 Q476 261 500 273 Q494 279 481 283 Q466 288 450 287 Q434 286 419 281 Q387 272 360 254 Q333 236 308 216 Q282 196 258 175 Q234 154 211 131 Q187 108 164 86 Q141 64 117 41 Q106 30 94 19 Q82 8 70 -2 L61 -8 Q44 -18 33 -18.5 Q22 -19 15 -14 Q8 -9 5 -1 Q2 7 1 14 L1 16 Q-1 34 0.5 52.5 Q2 71 4 90 Q9 124 16 155 Q17 156 17 159 Q14 156 11 154 Q8 152 5 150 Q-1 145 -8 141.5 Q-15 138 -23 137 Q-38 135 -49 141.5 Q-60 148 -62 165 Q-65 185 -57 207 Q-47 238 -29 262 Q-12 284 15 290 Q28 293 38 289 Q40 288 41.5 287.5 Q43 287 45 285 Q50 280 49 273 Q51 278 52.5 283 Q54 288 56 293 Q87 384 122 469 Q136 503 150 536.5 Q164 570 181 604 Q192 626 204 647.5 Q216 669 230 689 Q238 700 247 709 Q256 718 267 726 Q273 730 279 733 Q285 736 293 736 Q304 737 314 731 Q321 725 323 712 Q324 704 322.5 695.5 Q321 687 319 679 Q310 647 297.5 616 Q285 585 271 555 Q259 529 246.5 504.5 Q234 480 222 454 Q213 437 204.5 419 Q196 401 186 384 Q168 349 147 316.5 Q126 284 101 254 Q93 245 85.5 236 Q78 227 70 217 Q68 215 66 209 Q62 192 58 176 Q54 160 50 143 Q44 119 40 95.5 Q36 72 34 48 Q33 41 33 34.5 Q33 28 33 20 Q33 16 34.5 11 Q36 6 40 3 Q44 0 51.5 2 Q59 4 71 14 Q78 20 84 26 Q90 32 97 37 Q109 49 121 60.5 Q133 72 145 84 Q169 107 192.5 130 Q216 153 242 176 Q266 198 291.5 218.5 Q317 239 345 258 Q371 275 402.5 288.5 Q434 302 467 298 Q479 296 491.5 292 Q504 288 512 278 Q533 287 556 287 Q574 288 592 285.5 Q610 283 628 279 Q644 275 659.5 272 Q675 269 691 266 Q723 261 754.5 258.5 Q786 256 818 260 Q851 263 879 273 Q894 279 908 286 Q916 290 920 294 Q921 296 921.5 299 Q922 302 919 301 Q914 299 912.5 304.5 Q911 310 916 312 Q922 314 927 310 Q932 306 933 300 Z M82 261 Q80 256 79 251.5 Q78 247 76 242 L77 242 Q77 243 78 243 Q94 263 109 282 Q124 301 137 322 Q167 373 192.5 425.5 Q218 478 243 532 Q260 567 274 603.5 Q288 640 299 677 Q304 695 304 711 Q304 719 302 723 Q299 721 295 719 Q280 709 272 698 Q251 670 234 636 Q208 585 186 531 Q157 464 131 397 Q105 330 82 261 Z M24 186 Q29 203 33.5 219 Q38 235 43 252 Q44 257 45.5 261.5 Q47 266 49 271 Q43 268 38 269 Q34 269 35 274 Q35 279 32 280 Q30 282 29 281 Q28 280 26 279 Q20 276 15.5 271 Q11 266 7 261 Q-6 242 -16 219 Q-21 207 -25 194.5 Q-29 182 -30 168 Q-30 163 -30 159 Q-30 155 -28 151 Q-26 149 -24 150 L-12 156 Q-3 161 5.5 167.5 Q14 174 22 182 Q22 182 24 186 Z M510 247 Q511 257 507 264 Q489 254 478 239 Q474 234 471 228 Q468 222 468 215 Q467 209 472.5 209 Q478 209 483 211 Q494 215 501.5 225.5 Q509 236 510 247 Z " />
<glyph glyph-name="A" unicode="A" horiz-adv-x="731" d="M731 283 Q735 288 739 283.5 Q743 279 739 275 Q728 264 716.5 253 Q705 242 693 232 Q671 213 648.5 196.5 Q626 180 603 165 Q583 152 562.5 139.5 Q542 127 522 114 L513 89 Q508 78 503.5 66 Q499 54 494 43 Q489 32 485.5 23 Q482 14 479 6 Q477 1 475.5 -3.5 Q474 -8 472 -11 L469 -17 Q467 -22 465 -26.5 Q463 -31 461 -36 Q457 -45 453 -54 Q449 -63 445 -71 Q445 -74 443 -76 Q439 -86 435 -95.5 Q431 -105 427 -114 Q423 -122 420 -129 Q417 -136 413 -144 Q412 -147 406.5 -158.5 Q401 -170 394 -184.5 Q387 -199 379.5 -212.5 Q372 -226 367 -232 Q366 -233 366 -233.5 Q366 -234 365 -235 L364 -235 Q361 -239 351 -239 Q350 -239 348 -237 Q345 -237 347 -234 L347 -233 Q354 -226 358 -217.5 Q362 -209 366 -200 L372 -185 Q377 -175 381 -165 Q385 -155 390 -145 Q394 -136 397.5 -126.5 Q401 -117 406 -108 Q410 -97 414 -87.5 Q418 -78 422 -68 Q427 -57 432 -45 L466 40 Q468 45 469.5 50 Q471 55 473 60 L488 102 Q446 84 401 72 Q369 63 336.5 56 Q304 49 271 43 L271 42 Q266 37 262 31 Q258 25 254 20 Q251 16 248.5 12.5 Q246 9 243 5 Q242 5 242 4 Q240 2 240 2 L212 -34 Q210 -36 208.5 -38 Q207 -40 205 -42 Q200 -47 196 -53 Q192 -59 187 -64 Q183 -69 179 -73 Q175 -77 171 -82 Q166 -87 161.5 -92 Q157 -97 152 -102 Q148 -107 144 -110.5 Q140 -114 136 -119 Q131 -123 127 -127 Q123 -131 118 -136 L100 -151 Q92 -158 83 -164 Q74 -170 65 -176 Q58 -181 51.5 -185 Q45 -189 37 -191 Q33 -193 25 -195 Q17 -197 7.5 -198 Q-2 -199 -12 -197 Q-22 -195 -29 -188 L-35 -179 Q-35 -179 -36 -178 Q-38 -176 -38.5 -173.5 Q-39 -171 -41 -168 Q-49 -146 -44 -125 Q-39 -104 -27 -85.5 Q-15 -67 1.5 -51 Q18 -35 35 -24 Q74 3 119 17.5 Q164 32 211 42 Q223 44 235.5 46.5 Q248 49 261 51 Q263 54 265.5 57 Q268 60 270 64 Q274 69 278 75 Q282 81 286 86 Q291 93 295 99 Q299 105 304 111 Q309 117 312.5 123 Q316 129 321 134 Q326 141 330 147 Q334 153 339 160 L354 181 Q359 188 363.5 195 Q368 202 373 209 Q377 215 381 221 Q385 227 389 233 L407 260 Q412 266 415.5 272.5 Q419 279 424 286 Q429 293 433 299.5 Q437 306 441 313 Q446 320 449.5 326 Q453 332 458 339 Q466 354 475 367 Q479 374 483 380 Q487 386 491 393 L509 423 Q517 438 526 451 Q534 467 543 482 Q552 498 559 514 Q564 523 568 532 Q572 541 576 550 Q585 569 587 590 Q589 597 586 603 Q583 608 581 612.5 Q579 617 577 622 Q572 629 566.5 636 Q561 643 556 650 Q547 660 537 669 Q528 676 518.5 682 Q509 688 499 693 Q490 698 481 701 Q472 704 463 708 Q433 717 402 720 Q388 722 375 722 Q362 722 348 721 Q320 719 297 714 Q270 706 243 696 Q234 691 225 686.5 Q216 682 208 677 Q203 674 199 671 Q195 668 191 665 Q171 651 155 635 Q150 630 146 625 Q142 620 137 615 Q132 610 128.5 604.5 Q125 599 120 593 Q115 587 111.5 580.5 Q108 574 103 568 Q98 560 94.5 551 Q91 542 86 534 Q81 523 77 510.5 Q73 498 70 486 Q66 474 64.5 461.5 Q63 449 62 436 Q59 389 75 346 Q79 335 83.5 325 Q88 315 95 306 Q105 291 114 282 Q119 277 123 273.5 Q127 270 132 266 Q151 252 170 243 Q206 227 244 219 Q258 216 272.5 215 Q287 214 301 214 Q312 215 321.5 216 Q331 217 341 220 L351 220 Q354 220 354 217 Q354 214 351 214 Q346 212 336 210 Q306 204 277 207 Q265 208 253 209.5 Q241 211 229 214 Q202 220 173 232 Q164 236 154.5 240.5 Q145 245 137 251 Q132 254 127 257.5 Q122 261 117 265 Q112 269 108 273 Q104 277 99 282 Q92 288 87.5 294.5 Q83 301 78 309 Q71 319 67 330 Q63 341 59 352 Q53 368 50.5 384.5 Q48 401 47 418 Q45 448 51 473 Q54 487 57.5 500 Q61 513 66 526 Q70 536 74 545 Q78 554 83 563 Q87 571 91 577.5 Q95 584 100 591 Q104 597 107.5 603 Q111 609 116 615 Q121 620 124.5 624.5 Q128 629 133 634 Q138 639 142 643.5 Q146 648 151 653 Q156 657 159.5 660.5 Q163 664 168 668 Q177 675 185.5 681.5 Q194 688 204 693 Q213 698 222 702.5 Q231 707 240 711 Q275 726 316 732 Q351 737 387 735 Q411 734 439 727 Q453 724 467 719 Q481 714 495 708 Q505 703 514.5 698 Q524 693 532 686 Q537 683 540.5 680 Q544 677 549 674 Q556 669 560.5 663.5 Q565 658 570 653 Q576 647 581 640.5 Q586 634 591 626 Q597 618 601.5 608 Q606 598 611 588 Q630 543 625.5 493.5 Q621 444 611 398 Q604 366 595.5 334.5 Q587 303 577 272 Q570 250 563.5 229 Q557 208 549 187 L529 132 Q540 140 554 148 Q577 163 600.5 178 Q624 193 647 210 Q670 227 690.5 245 Q711 263 731 283 Z M252 40 Q241 38 230.5 35.5 Q220 33 209 31 Q163 22 118.5 7.5 Q74 -7 36 -35 Q18 -48 3 -64 Q-12 -80 -23 -100 Q-30 -112 -33 -126.5 Q-36 -141 -34 -155 Q-34 -158 -33 -161 Q-32 -164 -31 -167 Q-29 -169 -28.5 -171.5 Q-28 -174 -26 -176 Q-17 -188 -3.5 -189 Q10 -190 22.5 -186 Q35 -182 45 -176.5 Q55 -171 58 -169 L59 -168 Q61 -167 62 -166 Q63 -165 65 -164 Q73 -157 82 -150.5 Q91 -144 99 -136 Q104 -132 108 -128.5 Q112 -125 117 -120 Q122 -115 127.5 -110 Q133 -105 138 -100 Q141 -96 144.5 -92.5 Q148 -89 151 -85 Q156 -80 161.5 -74 Q167 -68 172 -62 Q174 -60 176 -57.5 Q178 -55 180 -53 Q180 -52 181 -51 L185 -47 L185 -46 Q190 -40 196.5 -31.5 Q203 -23 209.5 -15 Q216 -7 221 -1 Q226 5 227 7 Q230 10 236 18 Q240 23 243.5 28.5 Q247 34 252 39 L252 40 Z M492 114 Q495 125 498.5 134.5 Q502 144 505 155 Q510 168 513.5 180 Q517 192 521 205 Q526 217 529.5 229.5 Q533 242 537 254 Q542 268 545.5 281 Q549 294 553 308 Q558 321 561.5 334 Q565 347 569 361 L584 421 Q586 430 588 439 Q590 448 592 457 Q594 469 595 480.5 Q596 492 598 504 Q599 508 599 512 Q599 516 599 520 Q600 539 597 562 Q596 561 594 557 Q590 547 586 537 Q582 527 577 517 Q573 509 569.5 501.5 Q566 494 561 486 Q557 478 553 470 Q549 462 544 454 Q539 446 535.5 439 Q532 432 527 424 Q522 417 518.5 410 Q515 403 510 396 Q506 389 502 382.5 Q498 376 493 369 Q489 361 485 354.5 Q481 348 476 341 Q471 334 467.5 327.5 Q464 321 459 314 Q454 307 450.5 300.5 Q447 294 442 288 Q438 281 434 274.5 Q430 268 425 261 Q416 247 408 236 Q403 229 399 222.5 Q395 216 390 210 Q386 204 382.5 198 Q379 192 374 186 Q369 178 364 171.5 Q359 165 354 157 Q350 152 347 147 Q344 142 340 137 Q335 131 331 124.5 Q327 118 322 112 Q318 107 314 101 Q310 95 306 89 L288 65 Q286 63 284 60 Q282 57 280 55 Q312 61 343 67.5 Q374 74 406 83 Q428 90 449.5 97.5 Q471 105 492 114 Z " />
<glyph glyph-name="B" unicode="B" horiz-adv-x="919" d="M926 273 Q923 269 919 265 Q916 262 913 259 Q910 256 908 254 Q898 244 889 235 Q880 226 870 217 Q849 197 827 179.5 Q805 162 782 146 Q780 144 778 143.5 Q776 143 776 141 Q775 139 776 137 Q777 135 777 133 Q782 116 782 100 Q782 84 780 67 Q775 35 763 5.5 Q751 -24 734 -51 Q714 -83 690 -109.5 Q666 -136 637 -159 Q608 -182 577.5 -199.5 Q547 -217 512 -229 Q488 -238 462 -241 Q458 -242 454 -242 Q450 -242 446 -242 L443 -242 Q434 -242 430 -241 Q393 -238 372 -214 Q364 -205 359 -194 Q354 -183 352 -172 Q347 -144 353.5 -119.5 Q360 -95 375 -72 Q389 -49 408.5 -32 Q428 -15 451 -1 Q473 12 495.5 22 Q518 32 541 42 Q564 51 585.5 59.5 Q607 68 630 77 Q662 91 691.5 107.5 Q721 124 750 142 L752 144 Q749 149 746.5 154.5 Q744 160 742 165 Q722 200 685 222 Q671 231 656.5 237.5 Q642 244 627 249 Q619 252 611.5 255 Q604 258 596 262 Q589 265 582 270 Q574 278 579 287 Q583 294 590 301 Q601 310 611 319.5 Q621 329 632 337 Q659 360 686.5 382 Q714 404 741 427 Q760 443 778 459 Q796 475 812 494 Q830 514 845.5 534.5 Q861 555 874 578 Q881 591 886 604 Q891 617 894 631 Q896 639 896 647.5 Q896 656 894 665 Q893 667 892.5 668.5 Q892 670 891 672 Q884 683 869 681 Q858 680 849 677 Q840 674 832 669 Q818 661 805.5 652.5 Q793 644 781 633 Q755 611 732 586 Q709 561 688 535 Q634 466 586 389 Q566 357 547 325 Q528 293 510 261 Q489 223 468 185.5 Q447 148 427 110 Q401 62 376 15.5 Q351 -31 326 -79 Q307 -114 289 -150 Q271 -186 253 -221 Q251 -224 249 -227.5 Q247 -231 245 -234 Q240 -243 229 -239 Q225 -238 228 -234 L284 -94 Q291 -76 298 -58 Q305 -40 312 -22 Q329 20 344.5 60.5 Q360 101 376 143 Q389 178 401.5 211.5 Q414 245 426 280 Q437 314 448 348 Q459 382 468 417 Q473 437 477 457.5 Q481 478 483 498 Q485 518 485 539 Q485 560 480 580 Q473 607 460 630.5 Q447 654 424 672 Q392 697 353 707 Q333 712 313.5 714 Q294 716 274 715 Q223 712 177 695 Q131 678 91 646 Q26 595 -1 514 Q-9 489 -12 467 Q-21 404 3 346 Q34 271 108 233 Q129 222 151 218 Q155 218 159 218 Q163 218 168 217 L174 217 Q177 217 177 215 Q177 212 175 212 Q169 210 166 210 Q146 209 124 215 Q101 223 81.5 235 Q62 247 45 263 Q3 301 -16 359 Q-26 389 -28 421 L-29 422 L-29 447 Q-28 450 -28 457 Q-26 478 -21 497.5 Q-16 517 -8 537 Q10 580 41 616 Q66 645 96 665.5 Q126 686 161 700 Q181 708 202.5 713.5 Q224 719 247 722 Q261 724 276 724.5 Q291 725 306 724 Q342 721 375 709.5 Q408 698 437 676 Q463 657 479.5 631.5 Q496 606 504 574 Q513 535 510 494 Q508 463 502 432.5 Q496 402 488 372 Q477 334 465 296 Q453 258 439 220 Q423 177 407 134.5 Q391 92 374 49 L374 47 Q376 52 378.5 56 Q381 60 384 65 Q416 125 448 183.5 Q480 242 513 301 Q538 345 563.5 386.5 Q589 428 618 470 Q641 502 664.5 533.5 Q688 565 716 594 Q735 614 755.5 632.5 Q776 651 799 667 Q810 674 821 680 Q832 686 845 689 Q870 697 890 687 Q911 677 914 653 Q916 641 914.5 630 Q913 619 909 608 Q903 590 894.5 574 Q886 558 875 542 Q854 511 829 484.5 Q804 458 775 433 Q740 402 704 372 Q668 342 630 313 Q624 308 618.5 302.5 Q613 297 607 292 Q605 290 603 287.5 Q601 285 599 283 Q594 275 602 271 Q612 265 623 262 Q637 256 650 251 Q663 246 677 240 Q713 225 742 196 Q750 187 757.5 177 Q765 167 770 155 L773 158 Q798 175 821 194.5 Q844 214 867 234 Q894 258 918 282 Q920 285 923.5 284 Q927 283 929 281 Q931 278 926 273 Z M735 -13 Q749 16 756 47 Q763 78 759 111 L756 129 Q752 127 753 127 Q716 104 678.5 85 Q641 66 600 51 Q576 42 552 33 Q528 24 505 13 Q486 4 468 -6.5 Q450 -17 433 -31 Q417 -44 404.5 -58.5 Q392 -73 383 -92 Q363 -133 373 -175 Q382 -215 421 -227 Q446 -235 472 -230 Q489 -227 504 -221.5 Q519 -216 534 -209 Q569 -193 599.5 -171 Q630 -149 657 -122 Q681 -98 701 -71 Q721 -44 735 -13 Z " />
<glyph glyph-name="C" unicode="C" horiz-adv-x="920" d="M931 280 Q931 279 931.5 278 Q932 277 930 275 L929 273 L725 11 L724 10 Q716 1 708.5 -8.5 Q701 -18 693 -27 Q668 -57 641.5 -85.5 Q615 -114 586 -140 Q564 -160 540 -176.5 Q516 -193 490 -207 Q461 -222 429 -230.5 Q397 -239 364 -236 L363 -236 Q356 -235 349.5 -234 Q343 -233 337 -231 Q304 -221 281 -196 Q272 -186 266.5 -175.5 Q261 -165 256 -153 Q247 -132 243 -109 Q239 -86 237 -63 L237 -43 Q235 -20 237.5 2 Q240 24 243 47 Q245 55 246 63.5 Q247 72 249 80 Q258 122 268.5 163 Q279 204 295 244 Q303 268 312.5 292 Q322 316 333 339 Q341 357 350 374.5 Q359 392 368 409 Q377 424 386 439 Q395 454 405 469 Q413 481 420.5 492 Q428 503 436 514 Q454 538 472 559 Q480 568 488 577 Q496 586 504 594 Q512 602 520.5 609.5 Q529 617 537 625 Q544 631 551.5 637 Q559 643 566 649 Q567 650 567.5 650 Q568 650 569 651 L542 666 Q537 669 531.5 672.5 Q526 676 520 679 Q506 686 491 693 Q476 700 462 706 Q435 718 405 724 Q371 732 339 732 Q327 731 314.5 729.5 Q302 728 290 725 Q274 722 259 717 Q244 712 229 706 Q214 700 198 692 Q190 687 182.5 683 Q175 679 167 674 Q159 669 151.5 663 Q144 657 136 652 Q127 646 119 639 Q111 632 103 624 Q94 616 86.5 607 Q79 598 71 589 Q61 578 53 566.5 Q45 555 37 543 Q14 506 4 469 Q0 454 -2 439 Q-4 424 -3 409 Q-3 377 7 348 Q8 341 12 334 Q17 323 23 312.5 Q29 302 37 294 Q43 287 49.5 281 Q56 275 64 270 Q70 265 76.5 261.5 Q83 258 90 254 Q114 243 143 238 Q157 236 170.5 234.5 Q184 233 198 234 Q208 234 218 235.5 Q228 237 237 242 Q239 243 241 244 Q243 245 245 247 Q249 251 255 250 Q260 250 257 245 Q255 243 253 241 Q251 239 249 237 Q242 232 235.5 230.5 Q229 229 221 227 Q207 224 195 224 Q183 224 170 224 Q128 226 93 240 Q85 242 78.5 245.5 Q72 249 65 252 Q57 256 50.5 261.5 Q44 267 38 272 Q30 278 24 285.5 Q18 293 12 301 Q4 313 -1.5 326 Q-7 339 -12 353 Q-20 376 -20.5 399.5 Q-21 423 -18 447 Q-15 464 -10 480.5 Q-5 497 3 513 Q10 528 18 542.5 Q26 557 37 571 Q45 582 53 591.5 Q61 601 70 611 Q77 619 84.5 626.5 Q92 634 100 641 Q108 649 117 655.5 Q126 662 134 668 Q142 674 149.5 678.5 Q157 683 165 688 Q173 693 181 697 Q189 701 197 705 Q211 713 225.5 718 Q240 723 256 728 Q284 738 317 741 Q330 742 342.5 742 Q355 742 367 740 Q413 736 460 717 Q472 713 486 706 Q500 699 514 692.5 Q528 686 542 679 L569 664 Q570 663 571 663 Q572 663 573 662 Q578 657 585 663 Q596 671 608 678 Q620 685 631 692 Q639 697 646 700 Q653 703 661 707 Q675 714 690 719 Q705 724 721 726 Q736 729 751.5 729.5 Q767 730 782 726 Q796 723 808 714 Q823 702 823 684 Q823 670 814 658 Q806 647 796 638.5 Q786 630 775 623 Q749 607 717 604 Q697 602 682 605 Q668 607 655 611 Q642 615 629 620 Q621 624 614.5 627.5 Q608 631 600 634 Q600 634 596 636 Q593 638 592 637.5 Q591 637 587 635 Q582 630 578 626.5 Q574 623 569 619 Q561 611 552.5 603.5 Q544 596 536 588 Q528 580 520.5 571.5 Q513 563 505 555 Q496 544 487 534.5 Q478 525 470 514 Q462 503 453.5 491 Q445 479 436 467 Q426 454 418 440 Q410 426 401 412 Q390 395 381.5 378 Q373 361 365 344 Q354 323 344.5 301.5 Q335 280 326 258 Q312 221 299 178 Q290 150 284 123 Q281 112 278 102 Q275 92 273 81 Q269 60 266.5 38.5 Q264 17 262 -4 Q259 -39 262 -70 Q264 -91 268 -111 Q272 -131 280 -150 Q285 -159 290 -167.5 Q295 -176 301 -184 Q319 -205 342.5 -213 Q366 -221 391 -220.5 Q416 -220 441 -211.5 Q466 -203 487 -191 Q517 -174 544 -153 Q571 -132 596 -109 Q636 -71 670 -30 Q704 11 738 54 L918 282 Q919 282 919.5 283.5 Q920 285 922 285 L923 285 L925 285 Q930 283 931 280 Z M602 646 Q603 645 603.5 645 Q604 645 605 644 Q612 641 618.5 637.5 Q625 634 633 630 Q655 619 684 614 Q700 612 715.5 614.5 Q731 617 746 623 Q754 626 761 630.5 Q768 635 774 640 Q781 645 786 651 Q791 657 796 663 Q799 669 801.5 675 Q804 681 803 689 Q801 702 792 708 Q783 714 772 715 Q758 717 745 715 Q732 713 719 709 Q703 704 688 697 Q673 690 658 682 Q649 677 640.5 671.5 Q632 666 623 661 L602 646 Z " />
<glyph glyph-name="D" unicode="D" horiz-adv-x="1046" d="M1058 282 Q1060 280 1058.5 277.5 Q1057 275 1055 273 Q1044 262 1037 254 Q1030 246 1019 235 Q1010 225 1001 215 Q992 205 982 195 Q959 171 934 149 Q909 127 880 109 Q851 91 820 78 Q789 65 757 55 Q753 53 751 51 Q727 18 700.5 -13 Q674 -44 645 -73 Q615 -102 582.5 -126 Q550 -150 513 -168 Q472 -188 432 -197 Q411 -201 390 -203 Q369 -205 348 -203 Q336 -201 324 -199 Q312 -197 300 -193 L298 -193 Q298 -194 297.5 -194.5 Q297 -195 297 -196 Q287 -215 280 -233 L279 -234 Q278 -236 272.5 -241.5 Q267 -247 253 -242 L268 -203 Q271 -194 276 -184 Q274 -182 271.5 -181.5 Q269 -181 267 -179 Q242 -165 224 -144.5 Q206 -124 196 -97 Q191 -85 188.5 -73 Q186 -61 188 -48 Q191 2 232 32 Q247 43 263.5 49 Q280 55 297 60 Q322 65 342 65 Q352 65 362 65.5 Q372 66 383 66 Q384 66 386 68 Q397 96 408 123.5 Q419 151 430 179 Q450 230 469.5 280 Q489 330 508 381 Q522 417 534 453.5 Q546 490 555 527 Q560 547 562.5 566.5 Q565 586 564 606 Q564 647 540 675 Q523 694 496 704 Q485 709 473.5 711 Q462 713 450 715 Q436 717 421.5 717 Q407 717 393 716 Q343 713 293 695 Q214 666 149 604 Q125 581 105 555 Q85 529 69 499 Q46 454 37 407 Q35 397 34.5 387.5 Q34 378 33 368 Q33 350 35 332 Q37 314 43 297 Q51 274 64.5 256.5 Q78 239 98 225 Q111 217 125 212 Q139 207 154 204 Q166 201 179 201 Q188 203 194 206 Q197 208 203 208 Q206 211 206 207 Q207 205 205 203 Q201 199 197 197.5 Q193 196 188 194 Q170 191 153 194 Q123 199 99 210 Q76 221 61 237.5 Q46 254 35 276 Q26 294 22 312.5 Q18 331 17 351 Q16 410 39 469 Q56 511 80.5 546 Q105 581 137 611 Q208 679 302 711 Q340 723 378 726 Q392 728 406.5 728 Q421 728 435 727 Q458 725 479.5 720.5 Q501 716 521 706 Q578 679 593 618 Q599 596 597 570 Q595 539 588.5 509.5 Q582 480 573 451 Q561 412 546.5 373.5 Q532 335 516 297 Q504 266 491.5 235.5 Q479 205 466 173 Q465 172 465 169 Q469 177 472 181 Q486 207 500.5 233 Q515 259 530 285 Q543 308 556 329.5 Q569 351 583 374 Q606 411 629.5 446.5 Q653 482 679 517 Q699 543 720.5 568 Q742 593 767 616 Q781 629 796.5 640.5 Q812 652 829 660 Q851 670 871 670 Q914 668 934 631 Q940 620 942.5 608 Q945 596 947 584 Q950 561 949.5 537 Q949 513 946 490 Q941 451 931.5 414 Q922 377 908 340 Q883 271 850 207.5 Q817 144 775 84 Q771 78 765 70 Q768 70 769 71 Q817 87 858 112.5 Q899 138 936 172 Q956 191 975.5 210.5 Q995 230 1014 251 Q1021 259 1028.5 266 Q1036 273 1043 281 Q1045 283 1047.5 284.5 Q1050 286 1054 285 Q1056 284 1056 283.5 Q1056 283 1058 282 Z M282 -171 Q308 -114 333.5 -58 Q359 -2 381 56 Q374 56 367.5 56.5 Q361 57 354 56 Q327 56 302 50 Q286 46 271.5 40 Q257 34 244 24 Q206 -4 204 -53 Q204 -64 206.5 -74.5 Q209 -85 213 -96 Q234 -144 280 -170 Q280 -170 282 -171 Z M705 28 Q710 35 718 45 Q713 44 708.5 43.5 Q704 43 699 42 Q671 37 646 36 Q637 36 628 36 Q619 36 610 37 Q602 37 594.5 37.5 Q587 38 579 39 Q575 39 572 39.5 Q569 40 565 40 Q560 41 555 41 Q550 41 545 42 Q541 43 533 43 Q528 44 524.5 44.5 Q521 45 516 45 Q512 46 508.5 46.5 Q505 47 500 47 Q495 48 490 48.5 Q485 49 480 50 Q475 50 471 50.5 Q467 51 462 52 Q457 52 452.5 52.5 Q448 53 443 54 Q438 54 433.5 54.5 Q429 55 424 55 Q420 55 419 53 Q408 32 397.5 10.5 Q387 -11 376 -33 Q359 -69 341 -105 Q323 -141 306 -177 Q304 -181 304 -181 Q305 -182 306 -182 Q307 -182 308 -183 Q334 -191 361 -192 Q388 -193 414 -188 Q459 -179 500 -158 Q532 -141 561 -119.5 Q590 -98 616 -73 Q641 -50 663 -24.5 Q685 1 705 28 Z M729 61 Q737 73 745 85 Q753 97 761 109 Q795 161 823.5 215.5 Q852 270 874 328 Q891 373 903 418 Q915 463 921 511 Q923 532 923.5 553 Q924 574 922 596 Q920 606 918 615.5 Q916 625 911 634 Q903 650 893 655 Q883 660 867 658 Q849 655 834 646 Q818 638 804 627 Q790 616 777 604 Q755 584 735.5 561.5 Q716 539 698 516 Q674 484 651.5 452 Q629 420 608 386 Q594 364 581 342.5 Q568 321 555 298 Q539 272 524 245 Q509 218 494 192 Q479 165 464.5 138 Q450 111 435 84 Q433 79 430.5 74 Q428 69 425 64 Q429 64 432.5 63.5 Q436 63 440 63 Q453 61 465.5 60.5 Q478 60 491 58 Q504 56 516 55 Q528 54 541 52 Q555 50 569.5 49 Q584 48 598 47 Q616 46 633.5 46 Q651 46 669 48 Q699 51 725 58 Q727 58 729 61 Z " />
<glyph glyph-name="E" unicode="E" horiz-adv-x="964" d="M961 263 Q928 229 895 197 Q867 169 837 139.5 Q807 110 784 88 Q778 80 770 74 Q741 45 711 17 Q681 -11 651 -38 Q640 -49 629 -58.5 Q618 -68 607 -78 Q554 -127 494 -167 Q464 -187 432.5 -203.5 Q401 -220 366 -231 Q323 -245 275.5 -247 Q228 -249 187 -226 Q149 -204 136 -161 Q128 -132 133 -102 Q138 -69 150 -37.5 Q162 -6 180 24 Q259 153 388 227 Q418 244 449 256.5 Q480 269 512 279 Q519 281 526 283 Q533 285 541 287 L542 287 Q529 289 516.5 290.5 Q504 292 491 294 Q456 300 427 315.5 Q398 331 378 359 Q366 376 359.5 396 Q353 416 354 439 Q355 481 382 523 Q395 543 410.5 560.5 Q426 578 443 594 Q469 617 497.5 636 Q526 655 557 671 Q558 672 558.5 672 Q559 672 560 673 Q557 675 554 675.5 Q551 676 547 678 Q531 684 515 690.5 Q499 697 482 702 Q469 707 456.5 710 Q444 713 431 717 Q416 721 400.5 722.5 Q385 724 369 726 Q337 728 305.5 725 Q274 722 242 711 Q194 696 149 664 Q130 650 113 634 Q96 618 82 600 Q68 583 56.5 565.5 Q45 548 35 529 Q22 503 13 476 Q2 438 0.5 401.5 Q-1 365 10 331 Q29 276 85 254 Q111 243 136.5 246.5 Q162 250 189 263 Q191 265 193 265.5 Q195 266 197 268 Q201 271 205.5 269.5 Q210 268 212 266 Q214 264 211 262 Q169 237 128 237 Q106 237 87.5 243.5 Q69 250 52 260 Q4 289 -8 348 Q-18 389 -10 438 Q3 513 50 581 Q114 676 216 716 Q240 726 264.5 731 Q289 736 313 738 Q365 741 413 732 Q428 729 443 725.5 Q458 722 472 717 Q497 708 522 699 Q547 690 572 680 Q575 680 576 681 Q602 693 629 702.5 Q656 712 683 718 Q705 723 726.5 725 Q748 727 769 725 Q789 723 807.5 717.5 Q826 712 842 699 Q857 689 861 673 Q867 656 854 638 Q844 628 831 623 Q807 613 780 613 Q763 612 747 614.5 Q731 617 714 620 Q688 626 662.5 634.5 Q637 643 612 653 Q607 655 602 656.5 Q597 658 592 660 Q592 660 588 660 Q535 634 490 600 Q471 586 454 570 Q437 554 422 536 Q408 520 398 503 Q388 486 382 466 Q365 410 392 367 Q404 347 421.5 334 Q439 321 461 313 Q471 309 484 306 Q486 305 488.5 305 Q491 305 493 304 L511 301 Q540 299 574 300.5 Q608 302 634 305 Q645 307 656 308 Q667 309 678 311 Q680 311 682.5 311.5 Q685 312 687 312 Q694 313 700 309 L702 307 Q707 301 699 299 Q689 297 679.5 296 Q670 295 660 293 Q618 286 577.5 277 Q537 268 496 254 Q457 240 420 220.5 Q383 201 348 175 Q256 106 199 8 Q174 -35 164 -79 Q159 -97 157.5 -115 Q156 -133 160 -150 Q164 -174 180 -194 Q195 -214 216 -222 Q237 -230 259.5 -231 Q282 -232 305 -227.5 Q328 -223 349 -216 Q373 -209 398 -198 Q421 -188 443 -176.5 Q465 -165 486 -151 Q509 -136 531 -119 Q553 -102 575 -85 Q607 -59 636.5 -32 Q666 -5 695 22 Q717 42 738 62.5 Q759 83 781 104 Q801 124 821 143 Q841 162 861 182 Q876 197 891 212 Q906 227 922 242 L950 270 Q953 273 956 276.5 Q959 280 963 283 Q965 286 970 284 L971 283 L972 283 L974 281 Q976 279 973 276 L961 263 Z M607 668 Q607 668 606 667 Q619 662 631 657.5 Q643 653 656 649 Q679 640 706 634 Q717 632 727 630 Q737 628 748 626 Q774 623 798 627 Q808 629 817.5 632.5 Q827 636 835 643 Q849 653 849 666 Q850 679 839 687 Q831 694 821.5 697.5 Q812 701 801 703 Q784 707 767 707 Q750 707 733 705 Q701 700 669.5 691 Q638 682 607 668 Z " />
<glyph glyph-name="F" unicode="F" horiz-adv-x="748" d="M1073 744 Q1076 746 1080.5 743.5 Q1085 741 1085 738 Q1084 736 1082 734 Q1080 732 1078.5 731.5 Q1077 731 1075 730 Q1071 728 1068 728 Q1063 726 1059 725.5 Q1055 725 1051 724 Q1043 722 1036 720.5 Q1029 719 1021 718 Q992 712 962 709 Q901 702 840 700 Q778 698 717 703 Q686 705 656 708 Q626 711 595 716 Q590 717 585.5 717.5 Q581 718 576 719 Q578 718 581 707.5 Q584 697 585 695 Q587 687 587 678.5 Q587 670 587 662 Q586 639 582.5 616.5 Q579 594 574 571 Q569 546 563 521.5 Q557 497 550 471 Q538 426 524.5 382 Q511 338 495 293 Q493 288 492 284 Q491 280 489 275 L482 256 Q483 257 484 257 Q521 265 557 272.5 Q593 280 630 285 Q645 287 659.5 289 Q674 291 688 289 Q692 289 700 287 Q701 286 705 284 Q705 280 705 280 Q705 281 702 278 L700 278 Q689 280 677 279.5 Q665 279 654 277 Q609 271 565.5 262 Q522 253 477 243 Q463 204 447 165.5 Q431 127 413 89 Q393 47 370 6 Q347 -35 319 -73 Q299 -101 276.5 -127 Q254 -153 228 -176 Q211 -191 192.5 -204 Q174 -217 154 -226 Q145 -230 135.5 -233 Q126 -236 116 -238 Q102 -240 89 -239 Q76 -238 65 -232 Q50 -224 42 -209.5 Q34 -195 32 -177 Q30 -162 32 -147 Q34 -132 39 -117 Q51 -69 74.5 -27 Q98 15 129 54 Q142 70 157 85 Q184 113 214 139 Q260 176 312 198 Q347 215 385 227 Q423 239 449 247 L466 297 Q477 329 487 360 Q497 391 508 423 Q517 450 524.5 477 Q532 504 540 531 Q547 555 552.5 579 Q558 603 563 628 Q566 644 568 659.5 Q570 675 569 691 Q569 702 566 713 Q561 722 553 722 Q542 724 530.5 725 Q519 726 507 728 Q482 731 457 732.5 Q432 734 406 733 Q392 732 377.5 731.5 Q363 731 349 729 Q320 726 292 719.5 Q264 713 235 702 Q178 679 128 633 Q87 593 59 545 Q37 508 25 464 Q16 434 13 403 Q10 381 11 360 Q12 339 18 319 Q36 263 90 248 Q101 245 112.5 246 Q124 247 136 250 Q139 251 145 251 L148 248 Q147 247 146.5 246 Q146 245 145 244 Q139 241 133 240 Q127 239 121 238 Q85 233 51 254 Q17 275 5 318 Q-5 353 -2 393 Q-1 406 1 419 Q3 432 6 446 Q15 489 36 532 Q49 556 64 578.5 Q79 601 97 621 Q133 661 174 686.5 Q215 712 263 726 Q292 734 327 739 Q357 744 387 745 Q417 746 446 744 Q462 743 477.5 742 Q493 741 509 739 Q526 737 543.5 734.5 Q561 732 578 730 Q592 728 605.5 726 Q619 724 633 722 Q722 711 809.5 711 Q897 711 985 725 Q988 725 990.5 725.5 Q993 726 996 727 Q1007 729 1016.5 730.5 Q1026 732 1037 734 Q1042 735 1047 735.5 Q1052 736 1057 738 Q1065 739 1073 744 Z M442 229 Q443 231 443 232 Q443 233 444 235 Q366 213 321.5 190 Q277 167 266 160 Q236 140 209 116.5 Q182 93 156 65 Q132 38 112 8 Q92 -22 77 -55 Q68 -74 61.5 -92.5 Q55 -111 51 -131 Q45 -160 50 -182 Q56 -214 79 -224 Q90 -229 101.5 -228.5 Q113 -228 124 -224 Q140 -219 154 -211 Q168 -203 182 -192 Q207 -174 228 -151.5 Q249 -129 269 -104 Q295 -71 316.5 -35.5 Q338 0 357 37 Q379 79 397.5 121 Q416 163 433 206 Q435 212 437.5 217.5 Q440 223 442 229 Z " />
<glyph glyph-name="G" unicode="G" horiz-adv-x="832" d="M832 284 Q836 287 840.5 283 Q845 279 840 275 L825 263 Q794 238 760.5 217 Q727 196 692 178 Q641 152 590 130 Q590 129 589.5 128.5 Q589 128 589 127 Q584 117 580.5 108 Q577 99 572 90 Q568 82 564 74.5 Q560 67 556 59 Q548 43 539 28 Q534 20 530 12.5 Q526 5 521 -3 Q511 -17 501 -34 Q496 -42 490 -49 Q484 -56 479 -64 Q473 -72 466.5 -79.5 Q460 -87 454 -95 Q449 -100 444.5 -105.5 Q440 -111 435 -116 Q426 -127 414 -137 Q409 -142 403 -147.5 Q397 -153 392 -158 Q379 -169 366 -178.5 Q353 -188 339 -196 Q316 -211 294 -219 Q280 -224 266.5 -227.5 Q253 -231 239 -231 Q223 -232 207.5 -228 Q192 -224 181 -213 Q170 -202 166 -188.5 Q162 -175 162 -161 L162 -152 Q163 -129 172 -110 Q181 -91 195 -74.5 Q209 -58 226.5 -44.5 Q244 -31 261 -19 Q295 4 330.5 23 Q366 42 402 60 Q440 77 477 93 Q514 109 552 126 Q553 126 557 128 Q557 129 557.5 129.5 Q558 130 558 131 Q562 139 565 147 Q568 155 572 163 Q576 173 581 186.5 Q586 200 590.5 212.5 Q595 225 598.5 234.5 Q602 244 603 247 Q604 249 604.5 250.5 Q605 252 606 254 L615 281 Q622 304 629 326 Q636 348 643 371 Q648 388 653 404.5 Q658 421 663 438 Q666 450 669.5 462 Q673 474 676 485 Q677 486 676 487 Q675 485 672 482 Q668 477 664.5 472 Q661 467 657 462 Q651 454 645 446 Q639 438 632 430 Q628 425 624.5 420 Q621 415 616 410 Q612 405 608 399.5 Q604 394 599 389 Q595 384 591.5 380 Q588 376 583 371 L562 347 Q557 342 553 337.5 Q549 333 544 328 L522 306 Q517 301 511.5 296.5 Q506 292 501 287 Q494 281 487.5 275.5 Q481 270 474 265 Q471 263 467.5 260 Q464 257 460 255 Q455 252 451.5 249.5 Q448 247 443 244 Q438 241 433 238.5 Q428 236 423 234 Q413 229 403 226.5 Q393 224 382 223 Q358 221 338 232 Q322 240 312 253 Q303 264 298 277.5 Q293 291 291 306 Q287 326 288 346 Q289 366 293 386 Q299 418 311 448 Q316 459 320.5 469 Q325 479 330 489 Q334 497 338 504.5 Q342 512 347 520 Q352 528 357 535.5 Q362 543 367 551 Q372 559 378 566.5 Q384 574 390 582 Q394 587 398 592.5 Q402 598 407 603 Q412 608 417 613.5 Q422 619 427 624 L430 627 L422 627 Q415 627 409 626.5 Q403 626 396 626 Q385 625 373 624.5 Q361 624 350 623 Q339 623 327.5 622.5 Q316 622 304 621 Q288 620 272.5 619.5 Q257 619 241 617 Q236 617 231.5 616.5 Q227 616 222 615 Q210 613 198 610.5 Q186 608 174 605 Q166 603 159 600 Q152 597 144 595 Q139 593 133.5 590 Q128 587 123 585 Q118 582 113.5 579.5 Q109 577 105 574 Q92 566 78 554 Q62 541 50 523 Q35 503 26 481 Q18 461 14 442 Q8 410 11 379 Q13 365 15.5 352.5 Q18 340 23 327 Q29 310 38 297 Q46 284 54 276 Q65 263 76 255 Q80 252 83.5 249 Q87 246 91 244 Q95 242 99 240 Q103 238 107 236 Q114 232 124 230 Q142 225 157 225 Q162 224 167 224.5 Q172 225 177 225 Q182 226 186.5 226.5 Q191 227 196 229 Q200 230 203.5 230 Q207 230 210 231 Q213 233 216 230 Q219 230 219 228 Q219 225 216 225 Q212 223 209 222 Q206 221 202 221 Q191 219 181.5 217.5 Q172 216 161 216 Q146 217 132 219.5 Q118 222 104 227 Q102 229 99.5 229.5 Q97 230 95 232 Q90 234 86.5 236.5 Q83 239 78 241 Q75 244 73 245 Q69 247 63 253 Q58 258 52.5 263 Q47 268 42 273 Q34 281 27 293 Q5 327 -1 368 Q-2 377 -2.5 386 Q-3 395 -3 404 Q-3 404 -4 405 Q-4 407 -3 408 L-3 410 Q-2 425 0.5 440 Q3 455 8 469 Q14 491 26 510 Q34 525 47 541 Q52 546 57 551.5 Q62 557 68 562 Q82 574 95 582 Q100 585 104 587.5 Q108 590 113 593 Q118 595 123 597.5 Q128 600 133 602 Q141 606 149 608.5 Q157 611 165 614 Q178 618 191 620.5 Q204 623 218 625 Q229 626 239.5 627 Q250 628 261 629 Q269 630 276.5 630.5 Q284 631 292 631 Q313 632 333.5 632.5 Q354 633 375 635 Q392 636 407.5 636.5 Q423 637 440 639 Q443 639 445 641 Q453 647 459.5 653 Q466 659 474 665 Q477 668 480.5 670.5 Q484 673 487 675 Q495 680 503 685.5 Q511 691 519 696 Q524 698 527.5 700.5 Q531 703 535 705 Q541 708 547 711 Q553 714 558 717 Q563 719 569 721.5 Q575 724 580 726 Q589 730 598 732.5 Q607 735 616 738 Q629 741 642 742.5 Q655 744 668 742 Q676 742 685 739 Q689 737 692.5 735 Q696 733 700 731 Q705 727 708 722 Q713 712 705 702 Q702 699 698.5 695.5 Q695 692 691 689 Q686 686 681 683 Q676 680 671 677 Q665 675 659.5 672 Q654 669 648 667 Q635 662 619 657 Q609 654 600 651.5 Q591 649 581 647 Q566 642 551 640 Q536 638 521 636 Q508 634 496 633 Q484 632 471 630 Q469 630 464 625 Q462 625 462 623 Q457 618 452.5 614 Q448 610 443 605 Q438 600 434 595 Q430 590 425 585 Q419 577 412.5 569.5 Q406 562 401 554 Q388 538 380 523 Q371 509 361 492 Q347 466 337 441 Q329 420 323 399 Q317 378 315 355 Q313 338 313.5 321.5 Q314 305 319 288 Q324 267 335 253 Q340 247 345.5 242.5 Q351 238 359 236 Q375 232 395 237 Q399 239 402.5 239.5 Q406 240 409 242 Q420 246 432 253 Q437 255 445 261 Q450 264 454.5 267 Q459 270 463 273 Q470 278 476 283 Q482 288 488 293 L512 314 L532 334 L553 355 L571 376 Q578 384 584.5 391.5 Q591 399 597 407 Q607 419 612 426 Q619 434 625 442 Q631 450 637 458 Q640 463 643.5 468 Q647 473 651 478 Q657 487 663 495.5 Q669 504 675 512 Q678 516 684 522 Q689 527 694 522 L695 522 Q703 518 703.5 512 Q704 506 703 499 L691 442 Q685 418 679 394.5 Q673 371 667 347 Q663 335 659.5 322.5 Q656 310 652 298 Q649 289 646 279.5 Q643 270 640 261 Q640 259 636.5 249 Q633 239 628 225.5 Q623 212 617 196.5 Q611 181 606 168 Q602 158 600 154 L600 153 Q599 151 597 145 Q623 157 648 169 Q673 181 698 195 Q734 214 767.5 236 Q801 258 832 284 Z M498 654 Q494 651 491 648.5 Q488 646 484 643 Q487 643 487 643 Q493 644 499.5 644.5 Q506 645 513 646 Q529 648 544 650 Q559 652 574 657 Q583 659 592 661.5 Q601 664 610 667 Q626 671 643 679 Q651 682 662 688 Q668 691 674.5 694.5 Q681 698 686 703 Q686 703 687 704 Q690 707 693.5 711 Q697 715 697 720 Q697 724 693.5 724.5 Q690 725 688 726 Q679 729 669 729 Q655 729 641 726 Q627 723 613 718 Q600 713 587.5 707.5 Q575 702 563 696 Q558 694 553.5 691 Q549 688 544 685 Q535 680 528 675 L498 654 Z M540 90 Q542 95 545 101 Q548 107 550 112 Q549 112 548.5 111.5 Q548 111 547 111 Q509 95 472.5 79 Q436 63 399 45 Q364 28 329 9 Q294 -10 262 -33 Q244 -46 225.5 -61.5 Q207 -77 193 -96 Q185 -108 178 -128 Q171 -148 177 -174 Q179 -185 185 -195 Q191 -205 203 -212 Q222 -222 247.5 -217 Q273 -212 296 -201.5 Q319 -191 335.5 -180 Q352 -169 354 -167 L366 -158 Q371 -153 377 -147.5 Q383 -142 388 -137 L409 -116 Q414 -111 418 -106 Q422 -101 427 -96 Q433 -88 439 -80.5 Q445 -73 451 -65 Q456 -57 461.5 -49.5 Q467 -42 472 -34 Q477 -26 482 -18.5 Q487 -11 492 -3 Q498 8 503.5 18 Q509 28 515 39 Q521 51 527.5 64 Q534 77 540 90 Z " />
<glyph glyph-name="H" unicode="H" horiz-adv-x="622" d="M657 713 Q667 707 663 697 Q656 677 649 656 Q642 635 634 615 Q608 546 583 477 Q558 408 533 338 Q531 332 529 326 Q527 320 525 314 Q524 311 519.5 299 Q515 287 509.5 271 Q504 255 497.5 237 Q491 219 485 204 Q523 217 558.5 235 Q594 253 621 283 Q626 288 628 283 Q629 283 630.5 280 Q632 277 630 275 Q629 274 620.5 264.5 Q612 255 594 242 Q576 229 548 214.5 Q520 200 480 189 Q477 181 475.5 176 Q474 171 472 168 L421 27 Q408 -8 396.5 -42.5 Q385 -77 373 -112 Q365 -135 358.5 -157.5 Q352 -180 344 -203 Q342 -209 341 -215 Q340 -221 339 -227 Q337 -230 340 -233 Q344 -234 340 -238 Q334 -242 327.5 -237.5 Q321 -233 321 -226 Q322 -217 324 -208.5 Q326 -200 328 -192 Q338 -160 347.5 -128.5 Q357 -97 367 -65 Q384 -13 400.5 38.5 Q417 90 434 143 Q436 147 437 151 Q438 155 440 160 L447 180 Q408 169 379 159 Q350 149 332 141 L323 120 Q310 90 298 60.5 Q286 31 273 2 Q260 -26 247 -53.5 Q234 -81 219 -108 Q208 -126 197.5 -143.5 Q187 -161 173 -177 Q165 -188 155 -197 Q145 -206 133 -213 Q110 -225 90 -222 Q68 -221 54 -200 Q46 -188 42 -174 Q38 -160 37 -145 Q36 -120 42.5 -97 Q49 -74 60 -51 Q74 -25 92 -3 Q110 19 131 39 Q156 60 182 77.5 Q208 95 237 110 Q252 118 267.5 125.5 Q283 133 299 141 Q302 144 303 146 Q328 209 352.5 272 Q377 335 400 398 Q414 436 426 473 Q438 510 449 548 Q454 565 458.5 582 Q463 599 465 616 Q468 638 465 658 Q461 691 431 707 Q411 717 386 720 Q375 722 364.5 722 Q354 722 343 721 Q307 718 274 703 Q249 692 226.5 677.5 Q204 663 183 645 Q169 634 156 621.5 Q143 609 131 595 Q92 549 68 497 Q50 461 41 422 Q36 402 33.5 383 Q31 364 32 344 Q32 294 53 251 Q64 229 82 214 Q106 193 139 205 Q141 206 144 206.5 Q147 207 149 208 Q152 208 153 207 Q156 204 156 204 Q156 201 153 201 Q149 199 145.5 198 Q142 197 137 195 Q113 188 94 196 Q75 204 59 222 Q46 238 38 256 Q30 274 25 294 Q22 307 21 319.5 Q20 332 19 346 Q19 370 22 396 Q25 416 30.5 436 Q36 456 44 476 Q54 502 67 525.5 Q80 549 96 572 Q124 610 156.5 640.5 Q189 671 227 694 Q269 719 314 730 Q345 736 375 733 Q404 732 432 719 Q446 712 457 703 Q468 694 476 680 Q488 659 490 630 Q491 611 488 592 Q485 573 480 554 Q471 515 459 477.5 Q447 440 433 402 Q416 355 398.5 308.5 Q381 262 362 215 L338 156 Q351 161 364 165.5 Q377 170 390 175 Q405 180 420.5 184 Q436 188 451 193 L487 299 Q497 326 506 353 Q515 380 524 407 Q548 477 574.5 545 Q601 613 631 680 Q634 688 637.5 695.5 Q641 703 646 710 Q652 716 657 713 Z M220 -58 Q238 -17 254.5 23.5 Q271 64 287 105 Q289 110 291 115 Q293 120 295 125 Q248 104 206 76 Q170 52 132.5 18 Q95 -16 73 -58 Q56 -90 53 -125 Q50 -149 56 -170 Q63 -193 76 -205 Q91 -219 111 -211 Q122 -206 136 -194 Q149 -183 159 -169.5 Q169 -156 177 -141 Q190 -121 200 -100 Q210 -79 220 -58 Z " />
<glyph glyph-name="I" unicode="I" horiz-adv-x="510" d="M516 282 Q516 281 517 280 Q517 276 517 276 Q516 275 510 268 Q504 261 494 251.5 Q484 242 472 230.5 Q460 219 448 208 Q436 197 416 180.5 Q396 164 375 146.5 Q354 129 334.5 113 Q315 97 303 87 Q289 53 273 19.5 Q257 -14 239 -46 Q224 -72 207.5 -97 Q191 -122 171 -145 Q166 -151 161 -156.5 Q156 -162 151 -167 Q134 -184 112.5 -200 Q91 -216 65 -214 Q53 -213 44.5 -205 Q36 -197 34 -185 Q29 -166 35.5 -148 Q42 -130 53 -115 Q60 -104 68.5 -94 Q77 -84 87 -76 Q99 -65 111.5 -55 Q124 -45 138 -34 Q152 -23 165.5 -11.5 Q179 0 193 11 Q210 25 227.5 39 Q245 53 262 67 Q288 127 311 187.5 Q334 248 356 310 Q370 351 384 390.5 Q398 430 410 472 Q415 492 420 512 Q425 532 430 552 Q432 566 434 580.5 Q436 595 437 609 Q437 622 436 634 Q435 646 431 657 Q421 693 384 701 Q355 707 327 701 Q298 696 271.5 685 Q245 674 220 657 Q172 626 132 582 Q118 567 106.5 551 Q95 535 85 518 Q63 481 50 446 Q45 432 41 418.5 Q37 405 34 391 Q29 361 28 333 Q28 305 32 278.5 Q36 252 47 227 Q54 210 63 201 Q70 192 80 191 Q87 190 95 193 L101 196 Q105 199 110 197 Q116 194 111 191 Q98 182 84 183 Q71 183 61.5 189 Q52 195 45 205 Q37 216 32.5 228 Q28 240 25 253 Q21 269 18.5 284.5 Q16 300 16 317 Q15 326 15.5 334.5 Q16 343 16 351 Q20 413 45 471 Q76 544 130 602 Q179 654 245 688 Q282 707 317 713 Q336 717 354 717 Q372 717 390 712 Q445 696 459 636 Q462 619 462.5 602.5 Q463 586 461 569 Q458 532 449 498 Q436 447 420 399 Q404 351 387 302 Q370 253 351.5 205 Q333 157 313 109 L412 193 Q438 214 462 236 Q486 258 509 283 Q512 288 516 282 Z M197 -65 Q213 -38 226.5 -10 Q240 18 253 47 Q223 23 199 4 Q178 -13 160 -28 Q142 -43 137 -47 Q111 -67 88 -87 Q84 -92 80 -96 Q76 -100 72 -105 Q67 -112 62 -119 Q57 -125 52.5 -133.5 Q48 -142 45 -151 Q43 -155 42 -161.5 Q41 -168 41 -175 Q41 -182 44 -188 Q47 -194 55 -198 Q64 -203 76 -199 Q88 -195 99 -186.5 Q110 -178 120 -168 Q130 -158 136 -152 Q154 -132 168.5 -110 Q183 -88 197 -65 Z " />
<glyph glyph-name="J" unicode="J" horiz-adv-x="553" d="M560 283 Q561 283 562.5 281 Q564 279 563 277 Q559 271 554 264 Q549 258 543.5 250 Q538 242 531 233 Q526 225 520 218 Q514 211 509 204 Q501 193 493.5 183 Q486 173 478 163 Q470 152 462 143 Q454 134 448 127 Q439 116 429.5 105.5 Q420 95 410 84 Q389 62 362 46 Q335 30 304 30 Q302 25 299 21 Q296 17 294 12 Q289 4 284.5 -3 Q280 -10 275 -17 Q275 -18 274.5 -18.5 Q274 -19 274 -20 Q259 -42 243 -60 Q223 -83 202 -102.5 Q181 -122 155 -137 Q141 -145 126 -151.5 Q111 -158 95 -161 Q59 -167 29 -153 Q-5 -136 -9 -100 Q-12 -84 -5 -64 Q8 -27 37 0 Q42 5 47.5 9 Q53 13 59 17 Q82 34 108.5 41 Q135 48 163 50 Q191 52 219.5 50 Q248 48 276 45 Q277 46 277 47 Q301 91 320 139 Q342 193 360 247.5 Q378 302 393 359 Q399 384 404.5 408 Q410 432 414 457 Q416 475 417.5 493 Q419 511 418 529 Q416 572 398 606 Q378 642 335 650 Q313 654 292.5 651.5 Q272 649 251 643 Q225 635 202 622 Q179 609 158 592 Q125 565 99 528 Q66 481 48 428 Q41 406 37 383 Q33 360 34 337 Q34 304 46 276 Q55 256 71 243 Q94 226 122 234 Q130 235 139 239 Q145 241 151 238 Q156 235 150 233 Q120 217 90 225.5 Q60 234 42 263 Q34 274 29.5 287 Q25 300 23 314 Q20 332 20.5 350.5 Q21 369 24 388 Q29 417 38 443 Q47 469 61 495 Q70 512 80 527 Q90 542 102 556 Q139 602 187 630 Q228 653 269 662 Q288 666 306.5 666 Q325 666 344 661 Q367 655 384.5 641 Q402 627 414 607 Q424 591 429.5 574 Q435 557 438 539 Q444 506 441 472 Q439 443 434.5 414.5 Q430 386 423 358 Q412 311 399 266 Q386 221 369 176 Q361 153 352 131 Q343 109 333 87 Q331 84 325 71.5 Q319 59 310 42 Q324 43 336.5 47.5 Q349 52 360 58 Q375 67 388 79 Q401 91 413 104 Q425 118 437 132 Q449 146 461 160 Q485 190 507.5 220 Q530 250 551 282 Q553 285 555 285.5 Q557 286 559 284 L560 283 Z M256 9 Q260 15 263.5 21 Q267 27 271 34 L234 38 Q211 40 187 40.5 Q163 41 139 36 Q69 24 29 -33 Q19 -47 13 -61.5 Q7 -76 6 -93 Q4 -117 22 -135 Q42 -155 72 -150 Q92 -149 112 -137 Q135 -126 154 -111.5 Q173 -97 190 -80 Q227 -40 256 9 Z " />
<glyph glyph-name="K" unicode="K" horiz-adv-x="604" d="M601 282 Q605 287 610 284 Q615 281 612 276 Q590 245 571 213 Q552 181 535 148 Q505 89 477.5 29.5 Q450 -30 421 -90 Q407 -119 391 -147.5 Q375 -176 358 -205 Q354 -212 344.5 -222.5 Q335 -233 324 -231 Q307 -227 301.5 -209.5 Q296 -192 294 -177 Q292 -165 294 -153 Q295 -127 299 -101.5 Q303 -76 308 -50 Q317 -9 328.5 30.5 Q340 70 354 109 Q359 126 364 142 Q369 158 372 175 Q374 188 375.5 201 Q377 214 376 228 Q374 253 361 268 Q353 276 344 279 Q335 282 324 281 Q299 278 278 259 L275 256 Q264 220 250.5 185.5 Q237 151 221 116 Q204 81 185.5 46 Q167 11 144 -21 Q126 -46 105.5 -68.5 Q85 -91 60 -111 Q46 -122 30.5 -131.5 Q15 -141 -2 -146 Q-30 -156 -54 -149 Q-94 -139 -99 -98 Q-101 -84 -99 -71 Q-97 -58 -93 -44 Q-80 2 -44 41 Q-28 58 -10.5 73 Q7 88 26 102 Q45 116 63.5 128.5 Q82 141 101 154 Q137 179 172 204.5 Q207 230 241 258 Q242 259 242 259.5 Q242 260 243 261 Q256 300 266 339.5 Q276 379 283 419 Q288 451 291.5 481.5 Q295 512 295 544 Q296 563 295 582 Q294 601 291 619 Q289 632 286 644.5 Q283 657 277 668 Q274 675 268 683 Q256 697 235 699 Q221 700 207.5 696 Q194 692 181 686 Q165 679 151 669 Q137 659 124 648 Q64 594 30 524 Q13 491 5 452 Q1 437 0 422 Q-1 407 0 392 Q2 372 6.5 352 Q11 332 22 315 Q27 306 33.5 298 Q40 290 49 285 Q58 279 72 277 Q81 276 93 281 Q99 285 104 282 Q105 282 105.5 281 Q106 280 107 280 Q106 278 104 276 Q86 267 69.5 269 Q53 271 38 281 Q26 289 17.5 299.5 Q9 310 3 323 Q-10 350 -13 383 Q-14 391 -14 399 Q-14 407 -14 415 Q-14 429 -11.5 443 Q-9 457 -5 471 Q2 498 13.5 523 Q25 548 41 572 Q75 624 121 663 Q137 677 153.5 687.5 Q170 698 190 704 Q211 713 235 711 Q268 706 289 681 Q306 661 314 632 Q322 604 324 569 Q327 523 323 482 Q319 415 302 349 Q299 337 295.5 325 Q292 313 289 301 L289 299 Q293 302 296 305 Q299 308 302 310 Q324 330 345 349.5 Q366 369 386 391 Q407 414 426.5 438 Q446 462 463 489 Q474 506 483 523.5 Q492 541 500 559 Q511 585 522 610.5 Q533 636 542 662 Q547 676 551 689 Q555 702 559 716 Q561 720 561 728 Q561 729 560.5 729.5 Q560 730 560 731 Q557 732 556 735 Q553 737 558 739 Q565 739 570 734 Q575 729 574 722 Q574 717 573 711.5 Q572 706 570 701 Q564 679 556.5 658 Q549 637 541 617 Q533 598 525 579.5 Q517 561 509 542 Q483 486 447 438 Q408 387 361 343 Q330 314 299 287 Q299 287 297 285 Q301 286 303.5 286.5 Q306 287 309 288 Q332 293 349 285 Q366 277 379 260 Q385 251 388 240.5 Q391 230 393 219 Q396 199 395 178.5 Q394 158 391 138 Q386 112 379.5 86 Q373 60 366 34 Q358 2 350.5 -29 Q343 -60 337 -92 Q328 -139 328 -186 Q328 -192 329 -201 Q330 -210 333 -216 Q338 -211 342.5 -204.5 Q347 -198 351 -192 Q352 -191 352 -190 Q357 -183 361 -176 Q365 -169 370 -161 Q401 -106 427.5 -49.5 Q454 7 480 64 Q507 121 536 176 Q565 231 601 282 Z M231 226 Q232 228 232 229 Q232 230 233 232 L232 232 L217 220 Q182 193 145.5 168 Q109 143 72 119 Q52 105 31.5 90 Q11 75 -8 58 Q-34 35 -53 7 Q-64 -10 -72 -29 Q-80 -48 -83 -69 Q-84 -77 -84 -85.5 Q-84 -94 -82 -102 Q-80 -113 -75 -121.5 Q-70 -130 -61 -135 Q-43 -147 -19 -139 Q-5 -135 6.5 -128.5 Q18 -122 29 -114 Q50 -98 67.5 -79.5 Q85 -61 101 -40 Q124 -11 141.5 21 Q159 53 175 87 Q191 121 204.5 156 Q218 191 231 226 Z " />
<glyph glyph-name="L" unicode="L" horiz-adv-x="428" d="M453 -39 Q456 -42 452 -44 Q450 -46 446.5 -45 Q443 -44 441 -42 Q437 -40 428.5 -40 Q420 -40 419 -40 Q404 -40 376.5 -44.5 Q349 -49 309 -64 Q269 -79 217 -107 Q165 -135 102 -183 Q91 -191 81 -199 Q71 -207 61 -215 Q56 -218 51.5 -220.5 Q47 -223 42 -224 Q34 -226 29 -223 Q22 -220 24 -212 Q26 -207 27.5 -202.5 Q29 -198 31 -193 Q43 -164 54.5 -135.5 Q66 -107 79 -78 L196 183 Q225 249 253.5 314 Q282 379 310 445 Q321 471 331 498 Q341 525 349 551 Q357 574 363 597.5 Q369 621 372 645 Q374 658 374.5 670.5 Q375 683 372 695 Q371 700 367 710 Q360 727 339 725 Q322 724 304 716 Q289 709 275 700 Q261 691 247 680 Q133 590 78 460 Q62 424 53 384 Q48 361 46 339.5 Q44 318 46 296 Q48 283 50.5 271.5 Q53 260 59 250 Q62 245 65 241 Q68 237 72 233 Q80 225 92 226 Q97 226 102 229 Q108 231 111 230 Q115 228 111 225 Q109 223 106.5 221.5 Q104 220 102 219 Q78 213 61 225 Q52 233 46 244 Q38 258 35 272.5 Q32 287 31 304 Q29 322 31.5 340.5 Q34 359 37 377 Q47 428 67 474 Q87 520 114 560.5 Q141 601 173 634.5 Q205 668 238 694 Q253 705 268 714.5 Q283 724 300 731 Q322 740 343 739 Q383 736 396 699 Q401 688 402 676 Q403 664 402 651 Q401 631 397.5 611.5 Q394 592 389 572 Q379 534 366 497 Q353 460 338 423 Q311 354 281.5 287 Q252 220 221 152 Q186 78 151.5 4.5 Q117 -69 82 -143 Q76 -156 70.5 -168 Q65 -180 59 -193 Q57 -197 57 -197 Q61 -195 61 -195 Q85 -178 109 -161 Q133 -144 158 -129 Q162 -126 166 -123.5 Q170 -121 175 -118 Q206 -100 237.5 -84 Q269 -68 301 -56 Q312 -52 323 -48.5 Q334 -45 345 -42 Q359 -38 373.5 -35.5 Q388 -33 402 -32 Q415 -31 429 -32 Q432 -32 435.5 -32 Q439 -32 442 -34 Q450 -36 453 -39 Z " />
<glyph glyph-name="M" unicode="M" horiz-adv-x="1099" d="M971 634 Q968 632 965.5 631 Q963 630 960 628 Q941 617 921 597 Q902 579 885.5 559.5 Q869 540 852 520 Q793 444 739 360 Q723 335 707.5 310 Q692 285 677 259 Q647 208 619 157 Q591 106 562 54 Q546 25 531 -3.5 Q516 -32 499 -61 Q486 -84 472.5 -105.5 Q459 -127 442 -147 Q434 -158 421 -169 Q410 -180 396 -177 Q385 -174 383 -162 Q381 -146 386 -129 Q390 -106 396 -85 Q402 -64 410 -42 Q423 -5 437 31.5 Q451 68 466 104 Q486 152 507 198 Q528 244 551 290 Q574 335 597 379 Q620 423 643 468 Q654 488 664 508.5 Q674 529 683 550 Q686 558 688.5 565 Q691 572 694 580 L694 584 Q690 582 687 580 Q684 578 680 576 Q666 566 654 555 Q642 544 631 532 Q606 506 583 479.5 Q560 453 538 425 Q514 394 491.5 362 Q469 330 446 298 Q424 265 403 231.5 Q382 198 362 164 L284 29 Q260 -13 236.5 -55.5 Q213 -98 189 -140 Q177 -160 166 -177 Q164 -183 159 -184 Q152 -186 146 -183 Q143 -182 143 -177 Q145 -172 146.5 -168 Q148 -164 150 -159 Q183 -81 219 -6 Q242 42 263.5 88.5 Q285 135 307 183 Q353 284 390 385 Q400 414 408.5 442 Q417 470 423 499 Q427 519 429.5 538 Q432 557 431 577 Q431 588 429.5 598.5 Q428 609 424 619 Q417 637 404.5 648 Q392 659 375 665 Q348 674 320 671 Q287 669 257 659 Q227 649 198 633 Q129 596 74 535 Q44 502 19 460 Q6 438 -3.5 414.5 Q-13 391 -18 365 Q-21 351 -22.5 336 Q-24 321 -22 306 Q-20 287 -15 270 Q-10 253 1 238 Q9 229 17.5 222 Q26 215 38 213 Q49 211 58.5 212 Q68 213 77 215 Q87 218 96 224 Q103 228 108 223 Q110 221 109 218 Q102 212 88 207 Q69 202 51 202.5 Q33 203 16 213 Q1 221 -9 233.5 Q-19 246 -26 262 Q-38 289 -36 322 Q-36 345 -32 366.5 Q-28 388 -20 410 Q-13 429 -4.5 446 Q4 463 15 480 Q60 553 131 607 Q161 630 193.5 647 Q226 664 263 675 Q298 686 331 686 Q383 684 419 653 Q448 627 456 585 Q459 569 459.5 553.5 Q460 538 459 522 Q456 490 448.5 458.5 Q441 427 431 396 Q419 359 405 323 Q391 287 375 251 Q355 203 332 157 Q309 111 286 64 Q286 63 285.5 62.5 Q285 62 285 61 Q287 63 287 64 Q301 87 313.5 109 Q326 131 340 153 Q356 179 371.5 204.5 Q387 230 403 256 Q422 285 440.5 313 Q459 341 479 368 Q524 432 573 489 Q591 510 610 530.5 Q629 551 649 571 Q656 577 663 582.5 Q670 588 678 593 Q680 595 681.5 595.5 Q683 596 685 597 Q699 603 710 592 Q718 585 716 572 Q714 561 711 552 Q708 543 704 533 Q694 509 683 485.5 Q672 462 660 439 Q637 394 615 350 Q593 306 571 261 Q552 223 534.5 184.5 Q517 146 500 107 Q479 61 460 15 Q441 -31 424 -79 Q419 -94 414 -109 Q409 -124 406 -140 Q405 -145 405 -149 Q405 -153 404 -158 Q404 -162 405 -165 L411 -159 Q428 -144 442 -123 Q459 -100 473 -76.5 Q487 -53 500 -29 Q517 1 533 31.5 Q549 62 566 91 Q588 131 609.5 170 Q631 209 653 248 Q671 280 689.5 311 Q708 342 728 372 Q758 419 789.5 463 Q821 507 856 549 Q873 569 890.5 588.5 Q908 608 928 625 Q938 635 951 643 Q961 649 972 648 Q992 643 994 622 Q995 611 993 601 Q991 591 988 580 Q983 560 975.5 541 Q968 522 960 503 Q944 467 928 431.5 Q912 396 895 360 Q869 306 844.5 252.5 Q820 199 797 143 Q774 89 753.5 35.5 Q733 -18 716 -74 Q709 -96 703.5 -117 Q698 -138 693 -160 Q688 -183 688 -200 Q688 -210 689 -215 Q690 -222 697 -219 Q705 -216 712.5 -211 Q720 -206 727 -201 Q740 -190 751.5 -178.5 Q763 -167 775 -155 Q797 -131 817 -106 Q837 -81 856 -55 Q879 -23 901.5 9 Q924 41 947 73 Q966 99 984.5 125 Q1003 151 1022 177 L1097 282 Q1099 285 1103.5 284.5 Q1108 284 1110 282 Q1110 279 1109 278 Q1105 272 1101 266 Q1097 260 1093 254 Q1074 228 1056 203 Q1038 178 1020 152 Q1005 131 990 109.5 Q975 88 959 67 Q933 31 907.5 -5 Q882 -41 856 -77 Q811 -138 759 -188 Q750 -196 741 -204 Q732 -212 721 -218 Q709 -227 698 -228 Q693 -229 683 -227 Q670 -224 669 -208 Q668 -195 669 -182.5 Q670 -170 672 -158 Q678 -125 686.5 -92.5 Q695 -60 705 -28 Q719 16 734 58 Q749 100 766 142 Q787 196 810 248 Q833 300 857 353 Q876 393 894.5 433 Q913 473 931 513 Q950 553 964 594 Q966 603 968 611.5 Q970 620 971 629 L971 634 Z " />
<glyph glyph-name="N" unicode="N" horiz-adv-x="735" d="M747 282 Q747 279 746 279 Q742 272 738 266 Q734 260 730 254 Q712 228 693.5 203 Q675 178 657 152 Q642 131 627 109.5 Q612 88 596 67 Q570 31 544.5 -5 Q519 -41 493 -77 Q448 -138 396 -188 Q388 -196 378.5 -204 Q369 -212 358 -218 Q346 -227 335 -228 Q324 -229 318 -223 Q312 -217 309.5 -208 Q307 -199 307 -188.5 Q307 -178 308 -169 Q308 -166 308.5 -163.5 Q309 -161 310 -158 Q317 -113 331 -67 Q332 -65 332 -62.5 Q332 -60 333 -58 Q341 -29 351.5 -1.5 Q362 26 373 53 Q393 102 416.5 148.5 Q440 195 465 242 Q494 296 523.5 347.5 Q553 399 583 451 Q603 485 622 518.5 Q641 552 658 587 Q665 601 671 614.5 Q677 628 681 642 Q683 646 683.5 650 Q684 654 685 658 L685 664 Q682 663 679 662 Q676 661 674 660 Q655 652 635 635 Q618 621 602.5 606.5 Q587 592 572 576 Q554 557 537 538 Q520 519 504 499 Q487 478 471 457 Q455 436 439 414 Q413 381 389.5 346 Q366 311 343 276 Q323 244 303.5 212.5 Q284 181 265 149 Q245 117 226.5 84 Q208 51 190 19 Q165 -24 142 -66.5 Q119 -109 98 -153 Q97 -154 97 -156 Q90 -168 78 -162 Q75 -160 76 -156 Q78 -150 80 -144 Q82 -138 84 -131 Q120 -32 159 67 Q185 130 209.5 193 Q234 256 259 320 Q276 365 291.5 409.5 Q307 454 321 500 Q335 547 342 594 Q344 607 345.5 619 Q347 631 346 644 Q346 654 345 663.5 Q344 673 339 682 Q338 685 334 691 Q330 696 324.5 697.5 Q319 699 313 700 Q301 701 289.5 698.5 Q278 696 267 691 Q250 684 233.5 674 Q217 664 202 653 Q138 604 95 539 Q64 490 47 432 Q41 409 38 387 Q36 370 36 354.5 Q36 339 38 322 Q43 282 61 251 Q71 235 85 225 Q100 214 117 220 Q127 223 139 231 Q143 235 151 235 Q152 234 153 234 Q154 233 155 232.5 Q156 232 157 230 Q155 228 153 228 Q151 226 147 224 Q130 210 109 210 Q88 210 71 224 Q51 241 40 267 Q27 294 24 327 Q21 350 23 378 Q27 431 47 481 Q66 527 94 566 Q122 605 158 638 Q176 654 195 668 Q214 682 234 694 Q246 701 259 706 Q272 711 286 713 Q303 716 319 713 Q335 710 349 699 Q368 684 374 657 Q376 646 376.5 634 Q377 622 377 611 Q375 576 367.5 543 Q360 510 351 477 Q340 442 328 407 Q316 372 302 337 Q282 286 262 236.5 Q242 187 221 137 Q209 108 196.5 78 Q184 48 172 19 Q171 18 171 17 L177 26 Q194 57 212 87 Q230 117 248 147 Q268 182 289 216 Q310 250 333 284 Q354 317 375.5 348.5 Q397 380 420 412 Q442 442 464.5 471 Q487 500 511 529 Q553 578 599 623 Q611 634 623 645 Q635 656 648 665 Q658 672 671 677 Q686 681 697.5 672 Q709 663 707 647 Q707 639 704.5 630 Q702 621 700 613 Q692 591 682 570 Q672 549 661 529 Q639 488 616 448.5 Q593 409 570 369 Q544 323 517.5 277 Q491 231 466 184 Q445 144 425 103.5 Q405 63 387 21 Q383 11 378.5 -2 Q374 -15 369.5 -27.5 Q365 -40 361.5 -49.5 Q358 -59 357 -62 Q356 -65 355 -68 Q354 -71 353 -74 Q348 -91 343.5 -107 Q339 -123 334 -140 Q331 -156 328.5 -171.5 Q326 -187 327 -199 Q328 -201 328 -205 Q329 -210 333 -214 Q337 -218 348 -212 Q350 -211 350.5 -210.5 Q351 -210 353 -209 L356 -206 Q358 -205 360 -204 Q362 -203 364 -201 Q377 -190 388.5 -178.5 Q400 -167 412 -154 Q434 -131 454 -105.5 Q474 -80 493 -54 Q516 -22 538.5 9.5 Q561 41 584 73 Q603 99 621.5 125 Q640 151 659 177 Q678 203 696.5 229.5 Q715 256 734 283 Q736 286 740.5 285 Q745 284 747 282 Z " />
<glyph glyph-name="O" unicode="O" horiz-adv-x="746" d="M745 283 Q749 288 754 283 Q759 278 754 273 Q751 270 747.5 266.5 Q744 263 741 259 Q688 205 619 171 Q612 168 606 165.5 Q600 163 594 160 Q559 56 495 -35 Q472 -68 446 -97 Q420 -126 388 -150 Q327 -199 254 -221 Q202 -235 151 -232 Q103 -229 58 -206 Q-9 -172 -35 -99 Q-37 -94 -38 -89.5 Q-39 -85 -41 -80 L-41 -79 Q-43 -71 -44.5 -63 Q-46 -55 -48 -47 Q-53 -15 -51.5 11 Q-50 37 -48 51 Q-43 86 -30.5 118.5 Q-18 151 0 183 Q26 228 63 268 Q64 269 64 269.5 Q64 270 65 271 Q65 272 64.5 272.5 Q64 273 64 274 Q63 276 62 278.5 Q61 281 60 284 Q56 295 54 304 Q53 308 52 312 L49 342 Q47 413 78 477 Q133 599 246 663 Q292 688 341 695 Q442 710 525 642 Q556 617 576 585.5 Q596 554 609 516 Q626 460 629 406 Q631 377 629 348.5 Q627 320 623 291 Q615 231 599 177 Q613 182 628 191 Q696 227 745 283 Z M523 79 Q531 96 537.5 112.5 Q544 129 551 146 Q515 136 477 131 Q404 122 328 133 Q303 136 275 142 Q274 142 273.5 142.5 Q273 143 271 143 Q253 148 234.5 153 Q216 158 199 165 Q144 186 116.5 210.5 Q89 235 80 248 Q78 250 77 252 Q76 254 74 256 Q66 248 61 242.5 Q56 237 52 232 Q35 211 21.5 188 Q8 165 -3 140 Q-21 99 -29.5 57.5 Q-38 16 -33 -29 Q-31 -48 -27 -66 Q-23 -84 -16 -101 Q-6 -126 9 -146.5 Q24 -167 46 -182 Q120 -231 210 -214 Q236 -209 260.5 -199.5 Q285 -190 308 -176 Q343 -156 372.5 -130 Q402 -104 428 -73 Q457 -38 480 -0.5 Q503 37 523 79 Z M588 283 Q598 332 599 379 Q600 403 599 427 Q598 451 595 475 Q592 496 586.5 517 Q581 538 572 558 Q542 625 482 658 Q422 691 349 681 Q305 674 261 652 Q228 635 200 611.5 Q172 588 148 559 Q116 521 95.5 478 Q75 435 67 385 Q64 365 64 344 Q64 323 69 303 Q71 298 72 292.5 Q73 287 76 282 Q77 282 77 282.5 Q77 283 78 283 Q87 291 95.5 298.5 Q104 306 114 314 Q140 335 166.5 354.5 Q193 374 222 392 Q234 399 246 404.5 Q258 410 271 414 Q278 416 283 413 Q287 411 286 408 Q286 407 282 405 Q281 404 279 404 Q268 399 257 394 Q246 389 235 382 Q214 369 194 355 Q174 341 154 326 Q114 296 88 270 L85 266 Q93 252 106 238 Q117 226 134.5 212.5 Q152 199 178 188 Q185 184 191.5 181.5 Q198 179 206 176 Q241 163 276.5 155.5 Q312 148 349 144 Q385 140 421.5 140.5 Q458 141 493 147 Q510 149 525.5 152.5 Q541 156 556 161 Q567 191 574.5 221 Q582 251 588 283 Z " />
<glyph glyph-name="P" unicode="P" horiz-adv-x="667" d="M665 283 Q670 288 674.5 283 Q679 278 675 273 Q660 256 642.5 242 Q625 228 605 220 Q567 200 525 200 Q503 199 482 204 Q461 209 441 217 Q435 219 428.5 222 Q422 225 415 227 Q413 227 411 226 Q410 225 404 221 Q394 215 382.5 209.5 Q371 204 359 200 Q351 198 341.5 198 Q332 198 323.5 200 Q315 202 309 208 Q303 214 302 224 Q300 237 310 246 Q320 255 332 258 Q337 260 343 260 Q349 260 355 260 Q368 258 382 254 Q390 252 396 250 L402 247 Q403 247 405 246 Q408 243 408 245 Q419 254 429 265 Q439 276 449 287 Q455 292 460 298 Q462 300 463 302 Q471 312 479 324 Q487 336 493.5 346.5 Q500 357 504.5 364.5 Q509 372 510 374 Q512 376 514 381 Q564 470 588 567 Q591 579 593.5 591.5 Q596 604 597 618 Q597 625 597 631.5 Q597 638 595 643 Q592 654 589 655 Q586 656 578 654 Q571 652 565 649 Q559 646 552 641 Q538 632 526.5 621 Q515 610 504 598 Q481 574 461 547.5 Q441 521 422 493 Q399 457 377 420.5 Q355 384 334 347 Q333 345 332.5 343.5 Q332 342 330 340 Q319 323 312 305 Q305 287 297 270 Q259 170 216.5 72.5 Q174 -25 137 -126 Q120 -167 108 -210 Q106 -216 106 -219 Q105 -221 105.5 -223.5 Q106 -226 106 -228 Q107 -233 103 -234 Q91 -237 89 -224 Q87 -218 89 -211 Q92 -197 96 -182.5 Q100 -168 105 -154 Q115 -124 125 -94 Q135 -64 146 -33 Q163 24 184 78 Q205 132 226 187 Q250 247 273.5 306.5 Q297 366 320 426 Q342 482 357 540 Q366 578 369 612 Q371 628 371 643 Q371 658 366 672 Q366 676 364 682 Q352 715 316 723 Q301 726 287.5 725 Q274 724 260 720 Q242 715 227 707.5 Q212 700 197 689 Q83 609 35 478 Q19 433 18 388 Q17 362 22.5 337 Q28 312 41 289 Q53 271 71 256 Q73 254 76 252.5 Q79 251 82 249 Q100 238 121 244 Q129 246 135 249 Q141 252 148 256 Q153 260 157 257 L162 252 Q158 249 154 245 Q131 230 106 233 Q89 234 75 244 Q50 259 33 285 Q21 302 15 322 Q9 342 6 363 Q2 401 8.5 436 Q15 471 29 505 Q43 540 62.5 571.5 Q82 603 105 631 Q126 654 148.5 674 Q171 694 197 711 Q212 720 227 727.5 Q242 735 259 739 Q290 748 318 740 Q355 728 374 695 Q382 682 386.5 668 Q391 654 393 640 Q396 617 394.5 595.5 Q393 574 389 552 Q382 514 371.5 477.5 Q361 441 348 406 Q347 403 346.5 400.5 Q346 398 345 395 Q345 395 345 393 Q347 396 349 400 Q366 430 384.5 460 Q403 490 423 519 Q440 545 458.5 568.5 Q477 592 500 614 Q515 632 536 648 Q549 658 560 662 Q568 665 575 666 Q582 667 590 665 Q605 660 612 648 Q619 636 619 624 Q619 622 619.5 620.5 Q620 619 620 617 L620 603 Q620 602 619.5 601 Q619 600 619 599 Q619 579 614.5 560.5 Q610 542 604 524 Q575 425 519 340 Q518 338 513 330.5 Q508 323 503 315 Q492 301 482 291 Q457 261 427 236 Q431 234 434 233 Q454 225 474.5 219 Q495 213 518 213 Q561 212 599.5 230.5 Q638 249 665 283 Z M397 235 Q389 238 381.5 240.5 Q374 243 366 245 Q350 249 338 246 Q331 244 325 241 Q319 238 317 231 Q314 223 321 216 Q326 211 333 210 Q340 209 346.5 210.5 Q353 212 359.5 214.5 Q366 217 369 219 Q374 221 378.5 224 Q383 227 388 229 L397 235 Z " />
<glyph glyph-name="Q" unicode="Q" horiz-adv-x="620" d="M717 -84 Q716 -86 715 -88 Q714 -90 712 -92 Q707 -99 702.5 -105.5 Q698 -112 693 -118 Q676 -138 657 -156 Q638 -174 618 -191 Q569 -232 505 -241 Q431 -252 366 -226 Q341 -216 320.5 -202 Q300 -188 281 -170 Q265 -156 251.5 -139.5 Q238 -123 225 -106 Q223 -104 222.5 -103 Q222 -102 220 -100 Q216 -102 215 -103 Q195 -113 175 -120 Q155 -127 134 -130 Q114 -133 95 -132.5 Q76 -132 58 -125 Q6 -107 -3 -56 Q-4 -54 -4 -52.5 Q-4 -51 -5 -49 L-5 -35 Q-3 -31 -3 -28 Q3 5 27 27 Q58 54 102 40 Q122 33 140 18 Q153 7 163.5 -4.5 Q174 -16 184 -29 Q192 -40 200.5 -51 Q209 -62 217 -73 Q218 -75 221 -78 Q224 -75 226 -74 Q255 -55 279.5 -33 Q304 -11 327 15 Q359 52 383.5 92.5 Q408 133 428 177 Q468 263 487 353 Q494 387 497.5 421 Q501 455 500 490 Q500 516 497 541.5 Q494 567 486 592 Q474 637 445 670 Q410 711 354 720 Q324 725 295.5 720 Q267 715 240 703 Q211 691 187 673.5 Q163 656 142 634 Q65 551 41 441 Q32 400 35 357 Q37 335 41.5 314.5 Q46 294 57 274 Q64 262 73 251 Q82 240 94 232 Q113 218 135 215 Q150 213 164 218 Q183 225 196 234 Q205 239 210 231 Q210 230 208 228 Q193 218 177 212 Q161 206 141 207 Q107 210 79 232 Q50 255 36 291 Q23 324 20 361 Q17 407 26.5 450 Q36 493 55 535 Q82 597 128 646 Q153 672 181.5 691.5 Q210 711 244 724 Q277 737 308 738 Q310 738 311 738.5 Q312 739 314 739 L323 739 Q328 738 331.5 738 Q335 738 339 737 Q412 728 462 672 Q489 640 504 602 Q514 576 519.5 549.5 Q525 523 527 496 Q533 427 519 356 Q493 207 412 83 Q387 45 357 11.5 Q327 -22 292 -51 Q264 -74 237 -90 Q235 -91 234.5 -91.5 Q234 -92 232 -93 Q233 -94 233 -95 Q263 -137 297 -170 Q309 -181 321.5 -190.5 Q334 -200 348 -208 Q377 -224 408 -230.5 Q439 -237 472 -235 Q490 -233 507.5 -230 Q525 -227 542 -221 Q574 -209 600 -189 Q624 -169 646 -147.5 Q668 -126 688 -102 Q693 -97 696.5 -91 Q700 -85 704 -80 Q705 -78 708 -74 Q711 -70 714 -72 Q718 -74 718 -77.5 Q718 -81 717 -83 L717 -84 Z M207 -86 Q207 -86 209 -85 Q204 -79 200.5 -73 Q197 -67 192 -61 Q181 -47 170.5 -33 Q160 -19 148 -5 Q140 3 132 11 Q124 19 114 25 Q79 46 45 22 Q23 5 15.5 -22 Q8 -49 19 -74 Q36 -111 75 -120 Q97 -123 119 -120 Q143 -115 164.5 -106.5 Q186 -98 207 -86 Z " />
<glyph glyph-name="R" unicode="R" horiz-adv-x="658" d="M656 282 Q659 287 664.5 284 Q670 281 666 276 Q645 245 626 213 Q607 181 590 148 Q559 89 531.5 29.5 Q504 -30 475 -90 Q461 -119 445.5 -147.5 Q430 -176 413 -205 L412 -205 Q408 -212 398.5 -222.5 Q389 -233 378 -231 Q362 -227 356 -209.5 Q350 -192 348 -177 L348 -153 Q349 -127 353 -101.5 Q357 -76 363 -50 Q372 -9 383.5 30.5 Q395 70 408 109 Q413 126 418 142 Q423 158 426 175 Q428 188 430 201 Q432 214 430 228 Q428 253 415 268 Q402 283 378 281 Q376 280 371 280 L382 288 L390 295 L408 310 L420 319 L421 320 Q450 345 477 371 Q504 397 527 427 Q569 477 595 530 Q606 552 613.5 574.5 Q621 597 626 620 Q628 634 629.5 648 Q631 662 629 676 Q627 686 623 697 Q619 708 605 710 Q592 710 581 706 Q572 702 563.5 696.5 Q555 691 547 685 Q532 673 518.5 659 Q505 645 493 631 Q469 603 449 573.5 Q429 544 410 513 Q384 468 361.5 421 Q339 374 319 326 Q296 272 275 218.5 Q254 165 234 111 Q216 64 198 18.5 Q180 -27 162 -74 Q153 -97 144.5 -120.5 Q136 -144 130 -169 Q128 -176 127 -182.5 Q126 -189 124 -196 Q122 -206 113 -204 Q99 -202 101 -190 Q101 -187 101 -183.5 Q101 -180 102 -177 Q109 -154 114.5 -132 Q120 -110 127 -88 L232 254 Q247 304 261 353 Q275 402 287 453 Q292 476 296.5 499.5 Q301 523 304 546 Q306 563 307.5 578.5 Q309 594 308 611 Q307 622 306 632 Q305 642 301 653 Q300 655 299.5 658 Q299 661 298 663 Q287 690 255 695 Q241 697 228.5 695.5 Q216 694 202 689 Q182 683 165 673 Q148 663 132 650 Q77 605 42 543 Q5 476 -7 405 Q-14 365 -11 322 Q-8 294 2 270 Q7 260 13 251 Q32 225 65 231 Q78 233 86 238 Q91 240 98 237 Q102 234 98 231 Q96 229 92 227 Q80 222 67.5 220.5 Q55 219 42 222 Q16 228 -1 252 Q-15 272 -20 299 Q-25 319 -26 338 Q-27 357 -25 377 Q-22 427 -7.5 472.5 Q7 518 32 561 Q75 637 144 682 Q160 692 176.5 699.5 Q193 707 211 711 Q226 714 241 713.5 Q256 713 270 707 Q301 693 318 660 Q328 640 331 613 Q333 590 332.5 567.5 Q332 545 329 522 Q323 474 312.5 428 Q302 382 289 336 Q272 276 252.5 218 Q233 160 212 101 Q209 93 206.5 84 Q204 75 202 67 Q203 69 203 70 Q203 71 204 73 Q222 120 239.5 166.5 Q257 213 275 260 Q295 311 316 361 Q337 411 362 460 Q382 498 404 535 Q426 572 452 607 Q469 629 486.5 649 Q504 669 524 687 Q538 699 556 711 Q562 714 567.5 716.5 Q573 719 580 721 Q614 732 635 703 Q645 689 648 671 Q649 667 649 660 Q650 658 650 654 L650 629 Q650 627 649.5 626.5 Q649 626 649 625 Q649 609 646 594.5 Q643 580 638 565 Q629 536 615 510.5 Q601 485 584 460 Q558 422 528 389 Q498 356 464 326 Q451 314 437.5 303 Q424 292 410 281 Q422 274 433 260 Q440 251 443 240.5 Q446 230 447 219 Q450 199 449 178.5 Q448 158 445 138 Q440 112 433.5 86 Q427 60 420 34 Q412 2 404.5 -29 Q397 -60 391 -92 Q382 -139 382 -186 Q382 -192 383 -201 Q384 -210 387 -216 Q392 -211 397 -204.5 Q402 -198 406 -192 Q406 -191 407 -190 Q412 -183 415.5 -176 Q419 -169 424 -161 Q455 -106 481.5 -49.5 Q508 7 535 64 Q561 121 590.5 176 Q620 231 656 282 Z " />
<glyph glyph-name="S" unicode="S" horiz-adv-x="651" d="M649 283 Q654 288 659 283.5 Q664 279 659 274 Q645 259 629 248.5 Q613 238 596 227 Q579 216 561.5 206 Q544 196 526 186 Q524 185 522.5 184 Q521 183 519 182 Q525 168 530.5 154 Q536 140 541 126 Q548 104 552 82.5 Q556 61 558 38 Q560 -2 551.5 -38.5 Q543 -75 523 -109 Q494 -156 445 -188 Q389 -224 324 -236 Q296 -242 264 -240 Q221 -238 183 -224 Q159 -214 137 -199.5 Q115 -185 101 -163 Q90 -148 85 -127 Q80 -105 85 -84.5 Q90 -64 101 -45.5 Q112 -27 127 -11 Q142 5 159 18 Q213 59 276 85.5 Q339 112 401 139 Q424 150 447.5 161 Q471 172 494 184 Q493 186 492.5 187.5 Q492 189 491 191 Q486 202 480.5 213.5 Q475 225 470 234 Q465 245 459 253 Q448 271 438 289 Q428 307 417 326 Q406 346 396 366 Q386 386 378 408 Q365 444 367 480 Q367 502 371.5 522 Q376 542 384 562 Q387 568 390 574.5 Q393 581 396 587 Q396 588 396.5 588.5 Q397 589 397 590 Q392 590 388 589.5 Q384 589 379 589 Q371 588 362.5 588 Q354 588 346 587 Q332 586 317.5 585.5 Q303 585 289 583 Q273 581 258 579 Q243 577 227 575 Q204 571 181 564.5 Q158 558 136 547 Q97 526 68 491 Q60 480 53.5 469.5 Q47 459 42 448 Q26 417 22 385 Q20 374 19.5 363.5 Q19 353 20 342 Q22 316 31 293 Q40 270 60 252 Q70 244 80 237.5 Q90 231 103 229 Q113 227 122 228 Q131 229 141 232 Q146 234 151 235.5 Q156 237 161 239 Q166 242 172 238 Q177 235 172 233 Q144 218 113 219 Q88 222 70 235 Q19 266 10 324 Q6 342 6.5 360 Q7 378 10 396 Q13 414 19 430.5 Q25 447 33 464 Q76 544 160 572 Q177 578 195 582 Q213 586 232 589 Q246 591 259.5 592.5 Q273 594 287 596 L332 599 Q349 601 367 601.5 Q385 602 403 603 Q405 604 405 604.5 Q405 605 406 606 Q425 639 453 669 Q470 686 488 700 Q506 714 528 724 Q542 730 556.5 734 Q571 738 587 737 Q611 737 628 723 Q646 708 645 688 Q644 673 634 662 Q625 649 613.5 640.5 Q602 632 588 626 Q572 618 555.5 613.5 Q539 609 522 605 Q503 601 484.5 598.5 Q466 596 447 594 Q444 594 441 593.5 Q438 593 435 593 Q432 593 432 591 Q419 569 410 546 Q401 523 396 498 Q394 484 393.5 469 Q393 454 395 440 Q398 416 406.5 393.5 Q415 371 426 350 Q435 332 445 315 Q455 298 466 280 Q471 272 475 264.5 Q479 257 484 249 Q484 249 486.5 244 Q489 239 493 232 Q497 225 501 218 Q505 211 507 207 Q509 204 510 200.5 Q511 197 513 194 Q518 196 522 199 Q526 202 531 204 Q547 213 562.5 222 Q578 231 594 241 Q608 250 623 259.5 Q638 269 649 283 Z M441 607 L443 607 Q456 609 468.5 610.5 Q481 612 494 614 Q511 616 527 620 Q543 624 559 630 Q576 636 590.5 645 Q605 654 616 668 Q627 681 630 696 Q630 700 629.5 704 Q629 708 626 712 Q621 716 614 718 Q606 720 597 720 Q588 720 580 718 Q561 713 544.5 704.5 Q528 696 512 685 Q492 669 475 650.5 Q458 632 444 610 L441 607 Z M525 94 Q520 114 514 133.5 Q508 153 500 172 Q474 158 448.5 146 Q423 134 397 123 Q363 109 329 95 Q295 81 262 64 Q234 50 207 34 Q180 18 155 -2 Q129 -24 110 -52.5 Q91 -81 97 -116 Q101 -142 117.5 -163 Q134 -184 155 -198 Q178 -213 204 -221 Q230 -229 256 -231 Q286 -233 313 -227 Q372 -217 424 -183 Q470 -154 498 -108 Q529 -56 532 6 Q534 28 532 50 Q530 72 525 94 Z " />
<glyph glyph-name="T" unicode="T" horiz-adv-x="669" d="M1085 734 Q1087 732 1088.5 728 Q1090 724 1085 721 L1083 721 Q1082 720 1081 720 Q1080 719 1078 719 Q1053 711 1023 706 Q943 692 863.5 684 Q784 676 703 681 Q697 681 691 681.5 Q685 682 679 682 Q677 683 675.5 682.5 Q674 682 672 682 Q669 673 666 663.5 Q663 654 660 645 Q651 620 641.5 595 Q632 570 623 545 Q611 510 598.5 474.5 Q586 439 574 404 Q557 356 539.5 309 Q522 262 503 215 Q501 211 496 199.5 Q491 188 485 172 Q512 186 542 204 Q568 219 600 239 Q632 259 664 282 L666 283 Q668 285 673 285 Q675 285 677.5 283.5 Q680 282 679 280 Q679 275 675 273 Q665 266 645.5 253 Q626 240 600 223 Q574 206 542 186.5 Q510 167 475 149 Q474 148 474 147.5 Q474 147 473 146 Q454 103 433 61 Q412 19 389 -23 Q372 -53 353.5 -82 Q335 -111 312 -138 Q298 -155 282 -171 Q266 -187 247 -201 Q222 -220 195 -227 Q183 -230 171 -230.5 Q159 -231 148 -226 Q113 -212 110 -172 Q108 -150 114 -129 Q120 -108 132 -88 Q149 -59 176 -34 Q194 -17 214 -1.5 Q234 14 255 28 Q287 48 317.5 68 Q348 88 380 108 Q397 119 413.5 129 Q430 139 447 150 Q453 156 454 159 Q477 213 497.5 266.5 Q518 320 535 374 Q560 449 587 522.5 Q614 596 643 670 Q645 675 650 685 Q648 685 647 685.5 Q646 686 644 686 Q627 688 610.5 690.5 Q594 693 577 695 L511 704 Q475 709 438 710 Q421 711 404 711 Q387 711 369 709 Q337 707 304.5 701 Q272 695 240 684 Q177 662 130 620 Q71 567 46 491 Q31 449 28 405 Q23 347 42 299 Q58 259 90 236 Q112 219 141 218 Q146 218 150 218.5 Q154 219 159 220 Q161 221 162.5 222 Q164 223 166 224 Q168 226 172.5 226.5 Q177 227 179 225 Q181 223 179 220 Q173 214 169 213 Q164 212 158 211 Q152 210 147 210 Q108 209 76 234 Q54 251 41 272.5 Q28 294 20 321 Q15 340 13 359 Q11 378 13 398 Q15 457 35 511 Q81 634 203 688 Q226 699 250 706 Q274 713 299 717 Q336 724 373 726 Q387 726 401 726.5 Q415 727 429 726 Q446 725 464 724 Q482 723 499 721 Q514 719 529 717.5 Q544 716 559 714 Q573 712 586.5 710 Q600 708 614 706 Q625 704 635.5 703.5 Q646 703 657 701 Q669 699 681 698.5 Q693 698 705 697 Q715 696 724 695.5 Q733 695 743 695 Q792 695 840.5 698 Q889 701 938 708 Q970 712 1002 716.5 Q1034 721 1066 730 Q1068 731 1069 731 Q1070 731 1072 732 Q1074 733 1077 734 Q1082 736 1085 734 Z M441 129 Q440 129 440 130 Q438 129 437.5 128.5 Q437 128 435 127 Q403 107 371 86.5 Q339 66 307 46 Q281 29 255.5 12 Q230 -5 206 -25 Q189 -39 174 -55 Q159 -71 148 -91 Q137 -109 131.5 -128 Q126 -147 128 -167 Q130 -199 156 -214 Q161 -217 167.5 -219 Q174 -221 181 -219 Q193 -218 202 -213 Q210 -209 217 -204.5 Q224 -200 231 -195 Q249 -182 264.5 -166.5 Q280 -151 294 -134 Q314 -110 330.5 -84 Q347 -58 362 -31 Q382 5 400 42 Q418 79 435 117 L441 129 Z " />
<glyph glyph-name="U" unicode="U" horiz-adv-x="771" d="M770 282 Q774 287 779.5 283.5 Q785 280 781 275 L679 131 L673 122 L670 119 Q654 96 638 73.5 Q622 51 606 28 L600 21 Q598 18 596 15 Q594 12 592 10 Q584 -1 576.5 -12 Q569 -23 561 -34 Q529 -78 502 -114 Q490 -129 478 -144.5 Q466 -160 455 -172.5 Q444 -185 435.5 -193.5 Q427 -202 422 -205 Q412 -211 405 -208 Q403 -208 401 -206 Q401 -206 400 -205 Q393 -200 392 -189 Q392 -177 395 -165 Q396 -159 398 -153 Q400 -147 402 -142 Q403 -139 404 -136 Q405 -133 406 -130 Q408 -125 409.5 -121 Q411 -117 413 -112 Q415 -106 417 -100.5 Q419 -95 421 -89 Q426 -75 431 -63 Q433 -55 436 -48 Q439 -41 441 -33 L453 -3 Q456 5 459 13 Q462 21 464 29 Q467 37 470 44.5 Q473 52 476 60 Q478 67 481 74 Q484 81 486 89 Q491 101 496 115 Q498 121 500 126.5 Q502 132 504 137 Q506 142 507.5 146 Q509 150 511 155 Q512 161 515 166 Q515 167 515.5 168 Q516 169 516 170 L492 116 Q490 112 489 111 Q461 54 430 -0.5 Q399 -55 363 -108 Q349 -128 333.5 -147.5 Q318 -167 300 -184 Q292 -192 283.5 -199.5 Q275 -207 265 -213 Q246 -226 226 -230 Q223 -231 219.5 -231 Q216 -231 213 -232 L212 -232 L209 -232 Q203 -232 199 -231 Q176 -227 165 -204 Q160 -195 158 -185.5 Q156 -176 154 -166 Q152 -142 153.5 -118 Q155 -94 159 -70 Q167 -27 179 14 Q191 55 205 97 Q222 143 240.5 187 Q259 231 278 276 Q300 325 320.5 373.5 Q341 422 361 472 Q372 498 381.5 525 Q391 552 399 580 Q408 610 411 639 Q412 650 412 660 Q412 670 409 681 L409 683 Q404 698 388 701 Q368 703 353 700 Q330 696 309 688.5 Q288 681 268 670 Q205 639 153 587 Q132 566 114 542 Q96 518 80 492 Q59 454 44 414 Q36 389 32 365 Q29 340 30 320 Q32 304 36 288.5 Q40 273 49 259 Q62 242 79 233 Q111 219 141 241 Q143 242 147 246 Q153 249 160 246 Q163 244 160 241 Q150 230 138.5 225.5 Q127 221 113 219 Q81 217 58.5 234.5 Q36 252 26 275 Q20 290 17.5 305 Q15 320 15 336 Q15 368 26 403 Q37 441 54.5 474.5 Q72 508 95 540 Q108 558 122.5 574.5 Q137 591 153 606 Q176 629 202.5 647.5 Q229 666 258 681 Q275 690 292.5 697 Q310 704 329 709 Q352 717 376 715 Q398 713 415 700.5 Q432 688 437 662 Q440 643 438 621 Q436 590 428 561 Q420 532 410 503 Q397 465 382.5 428 Q368 391 352 355 Q335 317 318.5 278.5 Q302 240 285 202 Q269 164 254 126.5 Q239 89 225 51 Q202 -11 189 -73 Q184 -95 181.5 -116 Q179 -137 180 -159 Q181 -170 182 -179.5 Q183 -189 188 -199 Q192 -207 195 -210 Q207 -225 224 -219 Q234 -216 243 -210 Q261 -199 276.5 -185 Q292 -171 306 -155 Q327 -131 345 -105.5 Q363 -80 380 -53 Q435 31 479 126 Q496 161 511.5 197 Q527 233 541 269 Q558 311 575.5 353.5 Q593 396 610 439 Q624 473 636.5 507 Q649 541 663 575 Q676 607 688 637.5 Q700 668 713 700 Q715 705 717 711 Q719 717 721 722 Q726 732 736 726 Q743 721 741 711 Q739 700 736.5 690 Q734 680 730 670 Q728 662 725.5 655 Q723 648 720 640 L434 -156 L429 -173 Q434 -170 443 -159.5 Q452 -149 463 -135 L495 -93 L502 -85 L531 -47 Q536 -42 540 -36 Q544 -30 549 -24 L762 271 Q764 274 766 276.5 Q768 279 770 282 Z " />
<glyph glyph-name="V" unicode="V" horiz-adv-x="745" d="M744 283 Q747 288 751.5 284 Q756 280 752 275 Q747 269 742.5 263.5 Q738 258 733 252 Q716 232 697.5 213.5 Q679 195 659 178 Q642 163 622 150.5 Q602 138 579 131 Q557 124 534.5 127.5 Q512 131 494 146 Q480 157 471 174 Q466 163 460 152 Q454 141 449 130 Q422 78 394.5 27 Q367 -24 339 -75 Q325 -101 311 -126 Q297 -151 281 -175 Q276 -181 272.5 -186.5 Q269 -192 264 -197 Q251 -212 231 -210 Q218 -207 213 -196 Q209 -189 207.5 -182 Q206 -175 205 -167 Q202 -147 202 -127.5 Q202 -108 204 -88 Q209 -51 216.5 -14.5 Q224 22 234 59 Q248 113 263.5 166 Q279 219 296 273 Q310 319 324 364.5 Q338 410 349 457 Q361 499 367 542 Q371 572 370 601 Q369 615 367 628 Q365 641 359 653 Q358 655 357 657 Q356 659 355 661 Q350 671 341.5 675 Q333 679 322 680 Q308 682 296 679 Q284 676 271 671 Q251 663 233.5 652.5 Q216 642 199 629 Q188 620 178 610.5 Q168 601 158 590 Q130 559 106 523 Q97 509 89 494 Q81 479 74 463 Q63 440 55 416.5 Q47 393 42 368 Q34 333 37 301 Q38 284 42 269 Q46 254 55 240 Q69 217 93.5 209.5 Q118 202 141 213 Q153 219 161 230 Q168 237 174 231 Q177 229 175 227 Q160 204 134 201 Q80 192 46 232 Q38 243 33.5 254.5 Q29 266 26 278 Q23 295 22.5 311 Q22 327 24 343 Q30 394 50 444 Q56 458 62 470.5 Q68 483 74 496 Q94 534 119 567 Q144 600 176 629 Q194 645 213.5 658.5 Q233 672 255 682 Q277 693 299 696 Q323 698 341.5 689.5 Q360 681 374 663 Q382 651 387 637.5 Q392 624 395 610 Q401 577 398 545 Q396 514 390.5 484 Q385 454 378 425 Q367 380 354 335.5 Q341 291 327 246 Q312 195 296.5 144 Q281 93 266 41 Q250 -14 239 -72 Q235 -92 233 -112 Q231 -132 231 -152 Q232 -161 233 -170.5 Q234 -180 237 -189 Q238 -191 238 -192 Q238 -193 239 -195 L247 -187 Q255 -176 262 -164.5 Q269 -153 276 -141 Q291 -112 306.5 -83 Q322 -54 338 -25 L437 158 Q443 169 448.5 180 Q454 191 460 202 Q455 218 454 235 Q451 264 452 293 Q453 322 458 351 Q467 410 489 462 Q510 513 541 559 Q572 605 607 647 Q615 655 622 663.5 Q629 672 637 680 Q645 688 656 697.5 Q667 707 680 713 Q687 717 695 718 Q703 719 711 717 Q718 715 721.5 710 Q725 705 726 698 Q727 691 726 684 Q725 677 724 671 Q722 666 720.5 662 Q719 658 717 653 Q717 651 716 650 Q711 638 707 629.5 Q703 621 702 620 L702 619 Q685 588 669 557 Q653 526 636 494 Q617 459 599 423 Q581 387 562 352 L478 187 Q485 172 496.5 159.5 Q508 147 525 142 Q545 135 565.5 139.5 Q586 144 604 154 Q623 164 639.5 177.5 Q656 191 672 205 Q709 241 744 283 Z M468 217 Q485 248 500.5 278 Q516 308 533 338 Q552 373 570.5 408 Q589 443 608 478 Q617 495 626.5 513 Q636 531 645 548 Q646 548 646 549 Q646 550 647 552 Q649 556 651 559.5 Q653 563 655 567 Q661 578 668 591 Q675 604 682 618 Q684 622 686 625.5 Q688 629 690 633 Q695 643 699.5 653 Q704 663 707 674 Q708 677 709.5 682 Q711 687 712 692 Q713 697 711.5 701 Q710 705 705 706 Q699 708 692.5 706 Q686 704 681 701 Q669 694 663 688 Q652 680 643 670 Q634 660 625 650 Q615 639 605.5 627 Q596 615 586 603 Q554 561 528.5 516 Q503 471 486 421 Q469 368 465 315 Q464 301 464 288 Q464 275 464 261 Q465 250 465.5 239 Q466 228 468 217 Z " />
<glyph glyph-name="W" unicode="W" horiz-adv-x="1037" d="M1036 283 Q1040 288 1045 283 Q1050 278 1045 273 Q1040 267 1035 260.5 Q1030 254 1025 247 Q1005 220 984.5 193 Q964 166 943 140 Q932 128 921 115.5 Q910 103 899 91 Q889 80 879 70 Q869 60 858 51 Q838 34 812.5 19.5 Q787 5 759 8 Q737 11 720 28 Q716 22 712 16 Q708 10 704 4 Q683 -25 661 -52 Q639 -79 614 -104 Q602 -116 589.5 -127.5 Q577 -139 562 -148 Q554 -153 545 -157 Q536 -161 525 -162 Q508 -164 493.5 -157 Q479 -150 471 -132 Q466 -121 463.5 -110 Q461 -99 459 -88 Q456 -61 457 -34 Q458 -7 463 20 Q468 55 476.5 89.5 Q485 124 496 158 Q515 221 537.5 280.5 Q560 340 585 400 Q596 428 608 455 Q620 482 631 509 Q632 510 632 512 Q631 511 631 510.5 Q631 510 630 509 Q616 481 601 453.5 Q586 426 572 398 Q559 373 547.5 349 Q536 325 524 301 Q510 272 497.5 242.5 Q485 213 471 184 Q463 166 454 147 Q445 128 437 109 Q426 86 416 64 Q406 42 395 19 Q374 -26 351.5 -69.5 Q329 -113 303 -155 Q294 -169 284.5 -182 Q275 -195 264 -208 Q252 -222 237 -232 Q232 -235 226 -237.5 Q220 -240 213 -240 Q212 -240 212 -241 L203 -241 Q201 -240 197 -240 Q179 -234 172 -217 Q167 -204 166 -187 Q164 -163 166 -139 Q168 -115 173 -91 Q180 -57 190 -24.5 Q200 8 211 40 Q226 82 243 122.5 Q260 163 277 205 Q294 244 310.5 283 Q327 322 342 363 Q367 427 384 495 Q389 516 391.5 537.5 Q394 559 394 581 Q394 598 392 614.5 Q390 631 383 647 Q379 657 372 667 Q358 687 330 690 Q315 692 301 688.5 Q287 685 273 680 Q252 672 232.5 661.5 Q213 651 194 637 Q166 616 139 586 Q117 561 98 531 Q93 523 89 514.5 Q85 506 80 497 Q61 455 50 408 Q46 388 44 369 Q42 350 43 330 Q44 310 48 291 Q52 272 62 254 Q70 237 85 226 Q104 212 124 220 Q137 225 145 233 Q147 235 151.5 234.5 Q156 234 158 231 Q158 229 157 228 Q155 226 153.5 224.5 Q152 223 150 221 Q111 194 73 224 Q62 233 54.5 244.5 Q47 256 42 269 Q34 287 31.5 305.5 Q29 324 29 344 Q31 397 45 443 Q50 463 58 483 Q66 503 76 522 Q120 604 194 657 Q212 670 230.5 680 Q249 690 269 698 Q280 701 290 703.5 Q300 706 311 706 Q332 707 349.5 699 Q367 691 382 677 Q403 654 413 620 Q418 602 420 583 Q422 564 421 545 Q419 517 414.5 490 Q410 463 402 437 Q392 399 379 363 Q366 327 351 291 Q333 247 314.5 204 Q296 161 277 117 Q261 80 246.5 42 Q232 4 220 -34 Q213 -57 207 -79 Q201 -101 197 -124 Q194 -141 192.5 -158 Q191 -175 193 -192 Q193 -205 198 -218 L204 -227 Q208 -231 212 -228 Q217 -226 221 -224 Q225 -222 229 -219 Q247 -206 261 -185 Q276 -166 288.5 -146 Q301 -126 313 -106 Q353 -36 388 38 Q405 73 420.5 108.5 Q436 144 452 179 Q472 223 492 265.5 Q512 308 533 352 Q550 387 567.5 421 Q585 455 603 490 Q620 520 636 550.5 Q652 581 669 611 Q670 613 670.5 614.5 Q671 616 673 618 Q674 621 678 621 Q686 621 691 616 Q693 612 693 609 Q693 604 691 596 Q686 576 679.5 557 Q673 538 665 519 Q651 484 637.5 449.5 Q624 415 610 380 Q588 325 568 270.5 Q548 216 530 160 Q521 131 513 103 Q505 75 499 46 Q494 26 491 6 Q488 -14 486 -34 Q484 -51 484.5 -67.5 Q485 -84 487 -101 Q489 -110 490.5 -118 Q492 -126 496 -134 Q500 -140 504 -144 Q512 -153 524 -150 Q532 -148 539.5 -144 Q547 -140 555 -135 Q570 -124 583.5 -111.5 Q597 -99 610 -85 Q638 -56 662 -24.5 Q686 7 708 39 Q709 40 709 40.5 Q709 41 710 42 Q702 53 699 66 Q694 78 692.5 91 Q691 104 691 117 Q690 134 690 151.5 Q690 169 692 186 Q694 221 699 255.5 Q704 290 712 324 Q720 357 729.5 389 Q739 421 750 453 Q760 480 770 507 Q780 534 792 560 Q792 561 793 562 Q801 578 809 593 Q817 608 827 622 Q836 636 846 649 Q856 662 869 673 Q878 681 890 685.5 Q902 690 914 687 Q925 685 931 678 Q937 671 939.5 662 Q942 653 942 643 Q942 633 941 624 Q939 593 933.5 563 Q928 533 922 503 Q920 493 918 483.5 Q916 474 914 464 Q910 449 906.5 434.5 Q903 420 899 405 Q894 386 888.5 368.5 Q883 351 877 333 Q866 305 855 278 Q844 251 831 225 Q808 176 782.5 130 Q757 84 728 39 Q739 28 749 24 Q760 20 771 21 Q782 22 793 26 Q819 34 840 52 Q861 70 879 89 Q900 112 920 134.5 Q940 157 959 182 Q979 207 997.5 232 Q1016 257 1036 283 Z M718 54 Q744 92 766.5 132.5 Q789 173 809 215 Q840 278 863 339 Q881 388 893 441 Q899 466 904.5 491 Q910 516 915 541 Q918 556 920.5 570.5 Q923 585 925 600 Q927 609 927.5 617.5 Q928 626 929 635 Q929 642 929.5 650 Q930 658 926 666 Q920 679 906.5 676.5 Q893 674 883 667 Q876 661 869 653.5 Q862 646 857 639 Q850 630 843.5 621.5 Q837 613 831 604 Q817 581 805.5 557 Q794 533 784 508 Q773 482 764 455 Q755 428 747 400 Q737 369 729 337.5 Q721 306 716 274 Q704 209 704 143 Q704 120 705.5 97 Q707 74 718 54 Z " />
<glyph glyph-name="X" unicode="X" horiz-adv-x="603" d="M314 306 Q319 311 323 316.5 Q327 322 332 328 Q355 357 378 385 Q401 413 424 442 Q458 483 491 523 Q524 563 558 604 Q581 631 603.5 657.5 Q626 684 649 711 Q657 719 664.5 727.5 Q672 736 680 745 Q683 748 687.5 747 Q692 746 694 742 Q694 740 692 738 Q684 730 677 721.5 Q670 713 662 704 Q643 682 624.5 660.5 Q606 639 587 616 Q572 598 557 580.5 Q542 563 528 545 Q508 521 488.5 497 Q469 473 449 449 L335 308 Q328 299 321.5 290.5 Q315 282 308 274 Q305 269 305 265 Q300 245 295 224.5 Q290 204 285 184 Q280 163 274.5 142.5 Q269 122 264 101 Q259 86 255.5 70.5 Q252 55 248 39 Q245 27 242.5 15 Q240 3 238 -10 Q229 -49 226 -90 Q224 -107 224 -123 Q224 -139 227 -156 Q229 -170 236 -182 Q237 -184 238 -184.5 Q239 -185 241 -187 Q243 -190 248 -188 Q252 -186 255.5 -185 Q259 -184 263 -182 Q273 -177 280.5 -169.5 Q288 -162 296 -154 Q318 -132 337 -108 Q356 -84 374 -58 Q397 -23 421 12.5 Q445 48 468 83 Q500 131 531 177 Q562 223 593 271 Q599 279 601 283 Q603 285 607 285 Q611 283 611 283 Q616 280 613 276 Q595 248 577 220.5 Q559 193 541 166 Q515 128 490.5 90 Q466 52 440 14 Q424 -10 409 -33.5 Q394 -57 377 -81 Q344 -131 300 -173 Q294 -179 288 -184 Q282 -189 274 -193 Q267 -197 259.5 -199 Q252 -201 244 -199 Q221 -196 209 -176 Q204 -168 201.5 -158.5 Q199 -149 197 -139 Q195 -124 194.5 -109 Q194 -94 195 -79 Q197 -41 202.5 -5 Q208 31 217 67 Q225 99 232.5 131.5 Q240 164 248 196 Q249 197 249 199 Q245 195 243 192 Q207 147 171 103 Q135 59 99 14 Q73 -18 48.5 -49 Q24 -80 -1 -112 Q-2 -113 -4 -117 Q-6 -119 -7 -119 Q-12 -119 -16 -117 Q-20 -116 -18 -112 Q-12 -105 -7 -96 Q16 -67 37.5 -39 Q59 -11 82 18 Q108 50 133 81.5 Q158 113 184 145 Q202 168 220.5 190.5 Q239 213 257 236 Q258 237 258.5 238 Q259 239 260 240 Q266 267 272 293.5 Q278 320 284 347 Q288 364 290.5 381.5 Q293 399 296 416 Q300 439 302.5 461.5 Q305 484 307 507 Q308 525 308 543 Q308 561 306 580 Q304 600 299 619 Q294 638 283 656 Q281 658 279.5 661 Q278 664 276 666 Q259 690 225 693 Q208 695 192.5 691.5 Q177 688 163 681 Q146 674 132 664 Q118 654 106 642 Q86 622 72 599 Q58 576 47 550 Q42 536 38 523 Q34 510 31 496 Q27 475 25.5 454 Q24 433 27 411 Q30 383 40.5 358 Q51 333 71 311 Q74 308 77.5 304.5 Q81 301 85 298 Q114 273 153 281 Q158 283 162.5 284 Q167 285 172 287 Q179 290 185 285 Q190 282 184 280 Q168 273 149 271 Q115 268 87 287 Q67 300 53.5 317 Q40 334 30 354 Q22 372 18 391 Q14 410 12 430 Q10 457 15 484 Q20 516 29.5 545.5 Q39 575 56 603 Q69 625 86 644 Q103 663 125 678 Q140 689 156 696 Q172 703 191 706 Q245 717 285 677 Q298 664 306.5 649.5 Q315 635 321 618 Q327 601 330 585.5 Q333 570 335 553 Q336 541 336.5 529 Q337 517 337 506 Q337 487 336 469 Q335 451 333 433 Q331 413 328 393.5 Q325 374 322 354 Q320 342 318 330.5 Q316 319 314 307 L314 306 Z " />
<glyph glyph-name="Y" unicode="Y" horiz-adv-x="626" d="M624 283 Q628 288 633 283 Q638 278 633 273 Q629 268 625.5 264 Q622 260 617 255 Q585 219 550 185 Q515 151 477 119 Q442 91 406.5 66 Q371 41 332 20 Q330 16 329 12 Q328 8 326 4 Q325 3 321 -6 Q317 -15 312 -27 Q301 -50 289.5 -72.5 Q278 -95 264 -116 Q252 -133 239 -148.5 Q226 -164 211 -178 Q188 -201 161 -216 Q150 -222 139.5 -227 Q129 -232 118 -235 Q98 -241 74 -243 Q50 -245 33 -229 Q25 -222 21.5 -212 Q18 -202 19 -192 Q21 -169 32.5 -150.5 Q44 -132 60 -118 Q77 -102 96 -89 Q115 -76 135 -65 Q176 -42 217.5 -22.5 Q259 -3 301 18 Q312 44 321.5 71 Q331 98 341 125 Q348 145 354 165 Q360 185 367 205 Q367 206 367.5 206.5 Q368 207 368 208 L367 208 Q364 200 359 192 Q345 165 331 138.5 Q317 112 300 86 Q290 72 279.5 58.5 Q269 45 257 34 Q250 27 243 22 Q236 17 227 14 Q211 7 193 12.5 Q175 18 166 35 Q161 45 158.5 54.5 Q156 64 154 75 Q152 95 152.5 114.5 Q153 134 155 154 Q160 192 169.5 229 Q179 266 191 302 Q206 347 221.5 390 Q237 433 253 478 Q264 508 274 537.5 Q284 567 292 598 Q296 612 298.5 625 Q301 638 303 652 Q305 663 305 672.5 Q305 682 302 693 Q302 693 301 695 Q298 708 282 710 Q271 712 260.5 710 Q250 708 240 704 Q207 692 178 667 Q141 637 111 596 Q76 546 56 487 Q48 463 44 438 Q40 413 41 387 Q42 361 47.5 336 Q53 311 64 288 Q67 280 71.5 274 Q76 268 81 262 Q98 243 125 248 Q132 250 138 252 Q144 254 151 256 Q158 259 163 254 Q166 251 162 249 Q152 244 142 241 Q132 238 121 238 Q85 238 64 267 Q49 288 41 316 Q26 364 29 414 Q31 453 42 489 Q53 525 71 559 Q93 599 122 634 Q141 655 161.5 673 Q182 691 207 705 Q228 718 253 723 Q267 725 279 723 Q291 721 302 713 Q319 700 324 677 Q326 666 326 655.5 Q326 645 325 634 Q322 605 315 576.5 Q308 548 299 520 Q289 485 277 452 Q265 419 254 385 Q242 351 230 317.5 Q218 284 208 249 Q201 226 195 202.5 Q189 179 184 154 Q181 136 179 118 Q177 100 178 81 Q179 70 180 60.5 Q181 51 186 41 Q189 32 195 26 Q200 20 208 22 Q222 27 232 35 Q243 43 252 53.5 Q261 64 269 75 Q285 95 298 117 Q311 139 324 162 Q341 191 356 220.5 Q371 250 386 280 Q390 288 393.5 296 Q397 304 401 312 Q406 326 409 337 Q426 387 443 436 Q460 485 479 533 Q485 549 491 564 Q497 579 505 593 L511 602 Q515 604 517 604 Q523 604 528 599 Q531 596 529 592 Q525 581 522 570 Q519 559 515 548 Q505 523 495 498.5 Q485 474 476 448 Q469 430 463 411.5 Q457 393 451 374 Q437 328 422.5 282.5 Q408 237 393 190 Q381 152 368 114.5 Q355 77 340 40 Q378 61 412.5 86 Q447 111 479 139 Q518 172 554 208 Q590 244 624 283 Z M293 -1 Q256 -19 219 -36.5 Q182 -54 147 -74 Q127 -85 108.5 -97 Q90 -109 73 -124 Q58 -137 46.5 -154 Q35 -171 33 -192 L33 -199 Q35 -213 43.5 -220 Q52 -227 64 -229 Q77 -231 89.5 -228 Q102 -225 113 -220 Q129 -214 143 -204 Q157 -194 170 -183 Q184 -171 196 -157 Q208 -143 219 -129 Q229 -115 238.5 -101 Q248 -87 256 -72 Q263 -61 269.5 -49 Q276 -37 282 -25 Q284 -19 287 -13 Q290 -7 293 -1 Z " />
<glyph glyph-name="Z" unicode="Z" horiz-adv-x="856" d="M888 666 Q890 661 886 657 L868 642 Q815 603 767 559.5 Q719 516 673 469 Q631 427 592 384 Q553 341 513 298 L432 208 Q432 208 430 206 L438 206 Q459 207 480 208 Q501 209 522 210 Q539 212 555 212.5 Q571 213 588 215 Q594 216 599.5 217 Q605 218 610 220 Q613 222 616.5 219.5 Q620 217 621 215 Q622 213 619 211 Q614 209 608.5 208 Q603 207 598 206 Q578 204 557.5 203 Q537 202 516 200 Q493 198 469 197.5 Q445 197 422 195 Q420 195 418 193 Q408 182 398 171.5 Q388 161 377 150 Q342 113 305 77.5 Q268 42 230 7 Q202 -18 173.5 -42 Q145 -66 116 -89 Q85 -112 54 -134 Q23 -156 -12 -173 Q-15 -175 -21.5 -179 Q-28 -183 -31 -183 Q-25 -184 -19 -184 Q-13 -184 -8 -184 Q19 -186 46 -184 Q72 -183 99 -180 Q126 -177 152 -172 Q205 -161 255.5 -144.5 Q306 -128 355 -106 Q403 -83 448.5 -56.5 Q494 -30 538 -1 Q582 29 623 62 Q664 95 704 130 Q745 165 783.5 202 Q822 239 854 282 Q858 287 864 283.5 Q870 280 866 275 Q861 270 857.5 264.5 Q854 259 849 254 Q815 212 775 175 Q735 138 693 103 Q652 68 609.5 35 Q567 2 522 -28 Q477 -57 430 -83 Q383 -109 332 -130 Q281 -151 229 -166.5 Q177 -182 122 -190 Q96 -194 68.5 -196 Q41 -198 14 -198 Q1 -198 -12 -198 Q-25 -198 -38 -196 Q-40 -195 -41.5 -195 Q-43 -195 -45 -194 L-48 -194 Q-59 -191 -60 -184 Q-61 -178 -53 -174 Q-52 -174 -50 -172 Q-46 -170 -42 -167.5 Q-38 -165 -34 -163 Q-28 -160 -22.5 -157 Q-17 -154 -12 -151 Q49 -115 107.5 -67.5 Q166 -20 216 26.5 Q266 73 304 113 Q342 153 361 174 L370 183 Q372 185 373.5 186.5 Q375 188 376 190 Q377 192 378 193 Q373 192 368 192 Q363 192 358 192 Q347 190 337 189.5 Q327 189 316 187 Q308 186 299 184.5 Q290 183 282 181 Q280 180 278.5 179.5 Q277 179 275 177 Q275 176 272 176 Q267 177 264 181 Q261 185 266 187 Q270 189 276 191 Q303 198 330 200 Q344 202 358 202.5 Q372 203 386 204 Q388 204 390 206 Q417 237 444 267.5 Q471 298 498 328 Q541 377 585 424 Q629 471 675 516 Q704 545 734 571.5 Q764 598 796 623 Q807 632 819 640 Q831 648 842 656 Q843 656 845 658 Q834 656 823.5 654.5 Q813 653 802 651 Q783 649 764.5 646.5 Q746 644 727 642 Q679 637 631.5 637 Q584 637 536 637 Q505 637 475 636.5 Q445 636 414 635 Q378 634 342.5 630.5 Q307 627 272 619 Q243 613 216 603 Q189 593 163 577 Q111 546 79 497 Q56 460 47 415 Q40 378 41 342 Q42 319 46 297 Q50 275 58 255 Q64 241 71.5 229 Q79 217 90 207 Q100 199 110.5 193 Q121 187 134 185 Q165 180 185 203 Q192 210 200 205 Q204 203 200 199 Q197 196 196 194 Q182 180 161 177 Q108 170 70 212 Q56 226 48.5 243 Q41 260 36 279 Q30 301 28 322.5 Q26 344 27 366 Q27 392 31 416.5 Q35 441 44 465 Q67 529 122 573 Q148 594 177 608.5 Q206 623 238 631 Q258 637 277.5 640.5 Q297 644 317 647 Q361 652 404 653.5 Q447 655 490 655 L632 655 Q658 655 683 656 Q708 657 734 660 Q757 662 778.5 665.5 Q800 669 823 672 Q834 674 845.5 676 Q857 678 868 680 Q875 681 880.5 676 Q886 671 888 666 Z " />
<glyph glyph-name="zero" unicode="0" horiz-adv-x="304" d="M44 162 Q42 148 40.5 135.5 Q39 123 39 109 Q39 95 40.5 81.5 Q42 68 48 55 Q50 50 56 42 Q63 33 78 36 Q87 39 94.5 43.5 Q102 48 110 53 Q127 67 141 81.5 Q155 96 168 112 Q204 158 230 215 Q237 231 243.5 247 Q250 263 255 280 Q260 296 263.5 311.5 Q267 327 268 344 Q270 355 270.5 365.5 Q271 376 272 387 Q273 401 271.5 414.5 Q270 428 268 441 Q266 447 265 452.5 Q264 458 262 463 Q260 467 257 467 Q255 467 251 469 Q251 470 250.5 470.5 Q250 471 250 472 Q250 474 253 474 Q257 475 265 473 Q273 470 276 462 Q280 455 281.5 448 Q283 441 285 433 Q287 421 288.5 409.5 Q290 398 290 386 Q290 348 283 316 Q278 290 270 266 Q262 242 251 218 Q242 200 232.5 181.5 Q223 163 212 146 Q179 96 139 60 Q128 50 116 41.5 Q104 33 90 28 Q82 25 73.5 23 Q65 21 56 22 Q35 22 24 40 Q14 55 11 77 Q8 94 8 110.5 Q8 127 10 144 Q13 172 18.5 199.5 Q24 227 32 254 Q47 308 74 360 Q81 374 88.5 388 Q96 402 105 415 Q113 426 122 437 Q131 448 142 456 Q149 461 156.5 465 Q164 469 173 471 Q194 474 210 464 Q220 458 217 447 Q217 441 210 441 Q205 441 202 442 Q198 444 198 449 L198 452 Q197 459 191 459 Q180 459 170 451 Q158 442 149 430 Q138 418 130.5 404.5 Q123 391 115 377 Q84 320 64 256 Q56 233 51.5 209 Q47 185 44 162 Z " />
<glyph glyph-name="one" unicode="1" horiz-adv-x="186" d="M155 456 Q153 455 150.5 454 Q148 453 145 452 Q137 448 130 444.5 Q123 441 115 438 Q110 435 106 435 Q104 435 100 437 Q97 438 101 440 Q102 441 102 441 Q117 447 131 454 Q145 461 159 469 Q168 474 176 470 Q184 466 182 457 Q180 445 176 433 Q165 404 154 375.5 Q143 347 132 318 Q125 299 118 280 Q111 261 104 241 Q95 216 86 192 Q77 168 69 143 Q64 131 60 118.5 Q56 106 51 93 Q46 82 42 70.5 Q38 59 33 48 Q30 43 27.5 37 Q25 31 23 26 Q16 14 7 13 L4 13 Q0 13 3 17 Q5 23 5 26 Q12 54 23 83 Q28 99 32.5 114 Q37 129 42 145 Q48 165 54.5 185 Q61 205 67 225 Q74 245 80.5 263.5 Q87 282 93 302 Q101 325 110 347.5 Q119 370 128 393 L155 456 Z " />
<glyph glyph-name="three" unicode="3" horiz-adv-x="284" d="M218 135 Q221 172 205 203 Q199 215 190.5 224 Q182 233 171 241 Q168 243 165.5 245 Q163 247 161 249 Q159 250 158.5 251 Q158 252 157 253 Q147 263 154 276 Q159 286 164 295.5 Q169 305 175 315 Q186 332 197.5 349 Q209 366 220 383 Q227 394 233.5 406 Q240 418 245 431 Q247 439 249 447 Q251 455 250 463 L250 465 Q247 474 239 474 Q221 475 201 464 Q181 453 166 435 Q155 422 146 408.5 Q137 395 131 379 Q127 372 126 366 Q124 363 123 364 Q113 364 116 374 Q121 387 127 398.5 Q133 410 141 421 Q154 443 169 456 Q192 477 221 483 Q238 488 253 480 Q271 470 273 447 Q274 425 263 399 Q257 385 249 371.5 Q241 358 232 344 Q221 326 208.5 308.5 Q196 291 183 274 Q181 272 179.5 269 Q178 266 176 264 Q172 257 177 254 Q183 248 186 246 Q191 241 196 237 Q201 233 206 228 Q239 196 239 149 Q239 132 234 117 Q229 102 221 87 Q194 35 144 9 Q124 -2 103 -6 Q77 -11 56 -4 Q37 2 27 22 Q14 46 13 69 Q12 78 13.5 86 Q15 94 20 102 Q29 114 37 119 Q42 122 47 120 Q51 118 48 115 Q40 109 37 105 Q28 94 28 82 Q26 63 31.5 47.5 Q37 32 47 18 Q56 6 75 3 Q91 1 106 5 Q121 9 135 17 Q172 38 195 77 Q200 87 205.5 97 Q211 107 214 118 Q215 123 215.5 127 Q216 131 218 135 Z " />
<glyph glyph-name="two" unicode="2" horiz-adv-x="270" d="M96 66 Q110 60 124.5 53.5 Q139 47 153 41 L219 17 Q219 17 223 17 Q225 17 226 17.5 Q227 18 229 18 Q234 18 232 13 Q230 8 226 7 Q218 2 211 5 Q200 9 190 12 Q180 15 169 19 Q129 32 96 49 Q88 53 85 55 Q82 55 81 54 Q70 46 58.5 39 Q47 32 33 27 Q18 22 4 22 Q-6 22 -13 26 Q-27 33 -18 45 Q-14 52 -6 59 Q10 68 27 71 Q46 76 69 73 Q71 73 72 74 Q80 82 87 90.5 Q94 99 100 108 Q116 128 128.5 149.5 Q141 171 153 193 Q176 235 192.5 277.5 Q209 320 222 365 Q227 379 229 392.5 Q231 406 233 420 Q236 437 232 451 Q230 457 228 462 Q221 472 209 472 Q197 473 185.5 469.5 Q174 466 163 461 Q125 440 108 405 Q105 400 102.5 394 Q100 388 98 382 Q97 381 97 379 Q97 376 94 376 Q92 376 91 376.5 Q90 377 88 377 Q85 378 85 383 Q87 388 88.5 392 Q90 396 92 401 Q97 413 104 424 Q111 435 121 444 Q149 472 191 480 Q200 481 209 480.5 Q218 480 227 475 Q248 464 253 441 Q256 430 256.5 420 Q257 410 256 399 Q253 366 244.5 334.5 Q236 303 224 271 Q193 193 143 120 Q133 106 122 92.5 Q111 79 97 68 Q97 67 96.5 67 Q96 67 96 66 Z M60 62 Q58 62 57.5 62.5 Q57 63 56 63 Q44 64 29 61 Q24 59 19.5 57.5 Q15 56 10 53 Q4 50 1 44 Q-1 39 1.5 36 Q4 33 9 33 Q10 34 12 34 Q26 38 37.5 45.5 Q49 53 60 62 Z " />
<glyph glyph-name="parenleft" unicode="&#x28;" horiz-adv-x="285" d="M77 -67 Q68 -66 61 -59 Q54 -50 50 -34 Q47 -20 46.5 -5.5 Q46 9 45 23 Q45 65 48 109 Q50 129 51.5 148 Q53 167 55 187 Q57 213 61 240 Q65 267 72 293 Q80 325 91 357 Q102 389 116 420 Q129 449 143 477.5 Q157 506 174 533 Q199 575 226.5 613.5 Q254 652 286 689 Q296 700 306.5 710.5 Q317 721 329 730 Q331 732 332.5 732.5 Q334 733 336 735 Q342 739 347 737 Q352 735 354 733 Q356 730 354 728 Q353 725 349 725 Q348 725 346 723 Q336 716 327.5 708 Q319 700 311 692 Q292 672 276 651 Q260 630 244 609 Q215 567 190.5 524.5 Q166 482 146 437 Q134 411 124 386 Q114 361 105 335 Q86 276 79 220 Q67 139 64 58 Q63 38 63.5 19.5 Q64 1 66 -17 Q67 -25 68 -31.5 Q69 -38 72 -45 Q75 -55 85 -59 Q85 -60 85.5 -60 Q86 -60 86 -61 Q86 -62 87 -62 Q86 -65 83 -66 Q81 -67 77 -67 Z " />
<glyph glyph-name="parenright" unicode="&#x29;" horiz-adv-x="278" d="M207 460 Q200 418 189.5 378 Q179 338 163 297 Q149 262 132 227 Q115 192 94 159 Q73 124 51 89.5 Q29 55 6 21 Q-5 3 -17 -14.5 Q-29 -32 -41 -49 Q-44 -54 -47 -57 Q-50 -60 -54 -64 Q-57 -67 -61.5 -66.5 Q-66 -66 -68 -63 Q-70 -62 -68 -60 Q-57 -48 -48.5 -34.5 Q-40 -21 -31 -8 Q-5 32 20 71.5 Q45 111 70 152 Q87 181 102.5 211 Q118 241 132 272 Q144 301 154 329 Q164 357 172 386 Q180 412 185 439 Q190 466 194 492 Q196 507 197 522 Q198 537 199 553 Q201 582 199.5 610.5 Q198 639 194 667 Q192 683 189.5 697.5 Q187 712 183 727 Q182 729 182 730 Q182 731 181 732 Q179 738 185 736 Q192 736 194 730 Q197 723 199 717 Q204 696 207.5 674.5 Q211 653 213 630 Q216 592 216 553 Q215 515 210 476 Q209 472 208.5 468 Q208 464 207 460 Z " />
<glyph glyph-name="hyphen" unicode="&#x2d;" horiz-adv-x="247" d="M165 207 Q143 208 122 208.5 Q101 209 80 210 Q73 210 63 212 Q61 212 59 213 Q57 214 55 215 Q52 217 54 219 Q54 221 57 221 Q61 221 65 221.5 Q69 222 73 222 Q90 222 106 222.5 Q122 223 139 223 Q144 223 148 223.5 Q152 224 157 224 Q169 222 175 215 Q180 208 171 207 L165 207 Z " />
<glyph glyph-name="plus" unicode="&#x2b;" horiz-adv-x="272" d="M135 221 L153 221 Q161 221 168 221.5 Q175 222 183 222 Q189 222 193 215 Q195 213 193 211 Q191 209 188 209 Q181 209 175 209 Q169 209 162 210 L133 210 Q132 210 130 209 Q128 203 127 199 Q122 187 117.5 174.5 Q113 162 108 150 Q105 143 99 142 Q89 139 83 141 Q79 143 81 146 Q86 161 91 176 Q96 191 101 206 Q101 206 103 210 L99 210 L57 210 Q52 210 49 215 L49 218 Q51 220 53 220 L85 220 L107 220 Q109 224 109.5 226.5 Q110 229 112 232 Q117 245 122.5 258 Q128 271 133 284 Q134 286 134 286 Q141 300 153 295 Q156 293 155 287 Q150 273 146 258 Q142 243 137 229 Q135 223 135 221 Z " />
<glyph glyph-name="underscore" unicode="&#x5f;" horiz-adv-x="347" d="M127 97 L202 97 Q207 98 211 98 Q215 98 219 98 Q228 98 233 92 Q236 89 236 86 Q233 83 231 83 Q229 82 224 82 Q218 83 211.5 83 Q205 83 199 84 Q177 84 155 84.5 Q133 85 111 86 Q96 87 81 87 Q66 87 51 88 Q44 88 40 91 Q39 92 39 93 Q39 94 38 95 Q40 97 42 98 L44 98 L127 98 L127 97 Z " />
<glyph glyph-name="seven" unicode="7" horiz-adv-x="283" d="M245 474 Q240 473 236.5 472.5 Q233 472 229 471 Q214 468 199 466 Q184 464 169 463 Q148 462 123 465 Q111 467 99.5 468 Q88 469 76 471 Q74 471 72 472 Q70 473 68 474 Q66 476 66 478 Q67 478 67.5 478.5 Q68 479 69 479 Q71 480 73 479.5 Q75 479 77 479 Q92 477 107.5 475.5 Q123 474 138 473 Q155 471 170 473 Q185 475 201 477 Q213 479 224.5 481.5 Q236 484 247 488 Q257 491 266 486 Q276 480 273 469 Q271 464 269 459.5 Q267 455 265 450 Q251 423 237 396 Q223 369 209 342 Q197 317 184.5 292 Q172 267 160 241 L159 240 L159 238 Q166 239 172.5 239 Q179 239 185 240 Q194 240 201 244 Q205 247 211 243 Q214 240 211 238 Q208 236 205.5 234.5 Q203 233 200 233 Q189 232 179.5 231.5 Q170 231 160 230 Q154 230 152 225 Q139 197 126.5 169.5 Q114 142 100 114 Q94 101 87.5 89.5 Q81 78 74 66 Q66 52 59 39.5 Q52 27 44 14 Q42 11 40.5 8 Q39 5 37 2 Q33 -3 26 -4 Q19 -5 14 -3 Q8 0 13 5 L19 14 Q27 30 34 45 Q41 60 49 76 Q66 114 82.5 152.5 Q99 191 116 229 L116 231 Q109 232 102.5 233 Q96 234 89 235 Q83 237 80 239 Q76 241 81 243 L88 243 Q94 242 100.5 241.5 Q107 241 114 240 Q119 239 120 240 Q121 241 123 246 Q137 277 151 307 Q165 337 182 366 Q197 393 212 419.5 Q227 446 244 471 Q244 473 245 474 Z " />
<glyph glyph-name="six" unicode="6" horiz-adv-x="298" d="M21 162 Q27 199 41 238 Q52 269 65 298 Q78 327 94 356 Q108 380 123.5 402 Q139 424 158 444 Q166 452 175 459 Q184 466 195 471 Q213 480 234 477 Q261 473 275 447 Q280 438 281 429.5 Q282 421 281 412 Q281 400 276 393 Q275 391 271 387 Q269 384 264 385 Q259 386 257 390 Q257 392 258 393 Q264 401 266 412 Q268 421 268 430 Q268 439 263 448 Q262 450 261.5 451.5 Q261 453 259 455 Q251 466 239 466 Q222 466 205 454 Q197 449 191 442 Q185 435 179 427 Q159 403 143.5 376.5 Q128 350 114 322 Q89 273 73 222 Q66 201 60.5 180 Q55 159 51 136 Q49 121 48.5 106 Q48 91 50 76 Q52 56 60 42 Q63 36 68 31 Q78 20 94 20 Q127 21 150 39 Q180 63 198 97 Q204 108 209.5 119.5 Q215 131 219 144 Q223 156 225.5 168.5 Q228 181 227 195 Q225 216 214 235 Q209 243 202 246 Q199 247 192 247 Q179 245 168 239 Q147 227 128 212.5 Q109 198 95 179 Q90 172 86 164.5 Q82 157 78 149 Q78 145 73 145 Q67 147 65 149 L65 152 Q72 171 81 184 Q92 198 105 209.5 Q118 221 132 231 Q140 237 148.5 242.5 Q157 248 167 252 Q174 254 180.5 255.5 Q187 257 195 256 Q220 251 234 229 Q248 203 246 176 Q245 165 243.5 154.5 Q242 144 239 134 Q235 120 229 108 Q223 96 216 84 Q199 51 164 27 Q129 3 82 8 Q45 12 26 48 Q21 59 19 69.5 Q17 80 16 91 Q14 106 15 122.5 Q16 139 21 162 Z " />
<glyph glyph-name="five" unicode="5" horiz-adv-x="256" d="M76 316 Q78 318 78.5 318 Q79 318 80 319 Q97 330 114.5 339.5 Q132 349 152 354 Q168 359 179 358 Q218 357 235 322 Q241 305 241 286 Q242 269 239.5 253 Q237 237 233 220 Q229 203 224.5 187.5 Q220 172 213 157 Q185 95 137 50 Q100 16 55 3 Q34 -3 13 0 Q-15 6 -14 34 Q-13 43 -12.5 52.5 Q-12 62 -10 71 Q-8 83 -5.5 94.5 Q-3 106 2 117 Q5 127 12 132 Q20 136 25 133 Q29 131 25 129 Q16 123 13 109 Q11 103 10 96.5 Q9 90 7 83 Q5 76 4.5 69 Q4 62 3 55 Q1 41 3 28 Q4 6 30 8 Q44 10 57 15 Q70 20 83 28 Q120 49 148 87 Q188 139 208 201 Q220 242 223 281 Q225 306 217 323 Q211 341 193 347 Q188 349 182.5 348.5 Q177 348 172 347 Q142 340 113 322 Q82 302 59 276 Q57 275 55 271 Q50 265 44 265 Q33 265 27 271 Q24 272 26 278 Q30 292 35.5 305 Q41 318 46 332 Q57 358 69 382.5 Q81 407 94 432 Q99 441 104 449.5 Q109 458 114 467 Q114 469 116 469 Q124 481 137 478 Q151 476 163.5 473 Q176 470 189 468 Q206 465 227 467 Q235 468 243 469.5 Q251 471 259 475 Q265 477 272 474 Q279 469 271 466 Q254 459 241 458 Q222 456 204.5 457.5 Q187 459 170 463 Q163 465 156.5 466 Q150 467 144 468 Q141 469 140 467 Q135 448 127.5 430 Q120 412 112 394 Q104 375 95 357 Q86 339 78 320 Q78 320 76 316 Z " />
<glyph glyph-name="four" unicode="4" horiz-adv-x="263" d="M177 331 Q172 328 168.5 325 Q165 322 161 320 Q142 307 121.5 298 Q101 289 78 282 Q70 280 62 278.5 Q54 277 45 279 Q37 279 25 286 Q12 296 16 311 Q19 325 27 340 Q37 356 46 372 Q55 388 64 404 L121 500 L127 509 Q131 515 136 511 Q142 509 145 507 Q151 502 148 496 Q145 483 139 473 Q129 453 118 434 Q107 415 96 396 Q85 378 74 359.5 Q63 341 52 323 Q46 312 41 301 Q40 299 40 296.5 Q40 294 39 291 Q43 291 46 290.5 Q49 290 52 291 Q60 291 68 293 Q76 295 83 297 Q100 303 116 310 Q132 317 146 326 Q157 333 166.5 341.5 Q176 350 185 359 Q186 360 186 361 Q186 362 187 363 Q195 387 204 411 Q213 435 223 458 Q225 461 226.5 464 Q228 467 230 471 Q233 476 240 473 Q246 472 252 466 Q256 461 255 457 Q253 446 250.5 434 Q248 422 244 411 Q232 369 219.5 328.5 Q207 288 194 246 Q183 210 172 174.5 Q161 139 152 102 Q144 74 138 46 Q132 18 125 -10 Q123 -16 123 -19 Q121 -24 117 -25 Q106 -27 99 -22 Q94 -19 95 -14 Q97 -5 98.5 4 Q100 13 102 22 Q106 42 109.5 60.5 Q113 79 116 98 Q124 142 134.5 184 Q145 226 157 268 Q162 283 166.5 298 Q171 313 176 328 Q176 330 177 331 Z " />
<glyph glyph-name="eight" unicode="8" horiz-adv-x="300" d="M141 243 Q139 247 137 250.5 Q135 254 133 259 Q126 270 119.5 281.5 Q113 293 108 305 Q96 330 95.5 356 Q95 382 104 406.5 Q113 431 130.5 451 Q148 471 172 484 Q183 489 194.5 492.5 Q206 496 219 495 Q237 495 252.5 489.5 Q268 484 279 470 Q291 456 293 436 Q294 393 269 353 Q255 331 238 313 Q221 295 201 278 Q194 272 187.5 267 Q181 262 174 257 Q175 255 174.5 254.5 Q174 254 170 251 Q174 243 178 236.5 Q182 230 185 223 Q192 210 197 198 Q202 186 204 172 Q213 129 196 88 Q183 55 160 30 Q148 18 133.5 9 Q119 0 102 -5 Q68 -15 42 3 Q32 9 27 17.5 Q22 26 19 37 Q12 65 21 96 Q26 113 34 128 Q42 143 52 157 Q67 178 85.5 195.5 Q104 213 124 229 Q128 233 132 236 Q136 239 141 243 Z M164 261 Q166 262 166 262 Q184 276 200 289.5 Q216 303 230 320 Q256 349 269 382 Q282 413 278 445 Q276 454 272 462 Q268 470 260 475 Q237 492 206 484 Q181 477 162 456 Q128 422 123 372 Q122 357 124 343 Q126 329 133 315 Q138 306 142.5 297 Q147 288 152 280 Q155 275 158 270.5 Q161 266 164 261 Z M146 234 Q144 233 143 232 Q130 222 118 212 Q106 202 95 191 Q78 174 64.5 156 Q51 138 42 117 Q35 102 31.5 86.5 Q28 71 30 55 Q31 40 39 25 Q47 12 66.5 4.5 Q86 -3 106 9 Q124 21 138 38 Q179 92 171 160 Q169 174 165 187 Q161 200 155 214 Q153 219 150.5 224 Q148 229 146 234 Z " />
<glyph glyph-name="nine" unicode="9" horiz-adv-x="268" d="M209 349 Q204 342 199.5 335.5 Q195 329 190 323 Q171 298 147 281 Q126 266 103 266 Q72 265 59 292 Q54 300 53 309 Q52 318 52 328 Q53 348 59.5 367 Q66 386 75 405 Q83 420 92.5 434 Q102 448 116 461 Q128 472 141 480 Q154 488 170 492 Q182 495 193.5 495.5 Q205 496 215 491 Q225 486 231 479 Q237 472 242 464 Q248 452 248 439 Q247 436 245 428 Q245 426 242 426 Q240 425 238.5 425.5 Q237 426 235 426 Q231 427 233 431 Q236 446 231.5 458 Q227 470 217 479 Q207 488 191 484 Q172 477 155 462 Q125 432 106 391 Q101 380 96 368.5 Q91 357 88 346 Q85 333 83.5 320.5 Q82 308 85 297 Q86 290 91 282 Q101 272 114 276 Q128 281 139 289 Q167 311 187 340 Q197 354 205.5 368.5 Q214 383 223 397 Q225 399 225 402 Q225 405 227 408 Q228 410 228.5 411.5 Q229 413 231 415 Q231 416 233 418 Q235 420 240 421 Q245 422 247 420 Q249 420 249 418 Q250 417 250 417 Q253 414 253 406 Q252 394 250 382 Q248 370 245 357 Q241 342 237 326.5 Q233 311 228 295 Q219 264 209 233 Q199 202 187 172 Q178 149 168 127.5 Q158 106 145 85 Q138 74 130.5 63 Q123 52 113 42 Q102 30 88.5 21.5 Q75 13 58 10 Q51 8 44.5 8 Q38 8 31 8 Q20 9 9.5 10.5 Q-1 12 -11 17 Q-20 20 -26 26 Q-33 34 -31 47 Q-29 51 -27 51 Q-24 52 -18 52 Q-15 52 -15 48 Q-13 30 2 24 Q5 23 7.5 22.5 Q10 22 13 21 Q26 18 43 18 Q56 19 69 29 Q78 34 85 41.5 Q92 49 97 57 Q108 72 116.5 87.5 Q125 103 132 120 Q148 155 160 191 Q172 227 183 263 Q189 284 195.5 304.5 Q202 325 208 346 Q208 348 209 349 Z " />
<glyph glyph-name="numbersign" unicode="&#x23;" horiz-adv-x="325" d="M118 277 L110 277 L79 277 Q76 277 73 280 Q70 283 69 286 Q69 289 72 289 Q77 290 87 290 Q95 291 104 291 Q113 291 122 292 Q124 292 124 294 Q131 311 137 329 Q143 347 150 364 Q152 370 154.5 375.5 Q157 381 159 386 Q162 393 169 390 Q179 384 175 374 Q173 367 170.5 360 Q168 353 165 345 Q160 332 155.5 320 Q151 308 146 295 Q146 293 145 292 L162 292 L190 292 Q194 292 195 295 Q202 314 208 332.5 Q214 351 221 370 Q223 376 224 378 Q225 380 227 382 Q232 385 239 380 Q244 376 243 371 Q241 366 240.5 362 Q240 358 238 354 L214 294 Q214 293 213.5 292.5 Q213 292 213 291 Q221 291 225 290 Q230 289 235.5 289 Q241 289 246 287 Q255 286 258 277 Q259 272 257 270 Q256 268 251 272 Q248 275 247 275 Q237 276 228 276.5 Q219 277 209 277 L208 277 Q207 276 207 276 Q204 268 200.5 259 Q197 250 194 242 L194 240 Q198 240 202 240.5 Q206 241 210 241 Q216 241 221.5 241.5 Q227 242 232 242 Q235 242 238 239 Q241 236 241 233 Q242 230 238 230 Q233 230 229 229.5 Q225 229 220 229 Q212 228 205 227.5 Q198 227 190 227 Q188 227 188 225 Q181 206 174.5 188 Q168 170 162 151 Q160 148 159.5 144 Q159 140 158 136 Q158 132 155 132 Q150 132 147 133 Q144 133 144 138 Q144 143 145 148.5 Q146 154 148 159 L169 222 Q169 224 170 225 Q166 225 162.5 224.5 Q159 224 155 224 L122 221 Q119 221 118 217 Q113 201 108 185 Q103 169 98 153 Q96 144 98 139 Q98 136 94 135 Q82 135 82 149 Q82 155 84 163 Q88 177 91.5 189.5 Q95 202 99 216 Q100 217 100 218 Q95 217 90 216.5 Q85 216 80 215 Q77 214 73.5 214 Q70 214 67 213 Q63 212 59.5 216 Q56 220 56 223 Q58 225 59 225 Q66 227 72.5 228 Q79 229 85 231 Q90 232 94 232 Q98 232 102 233 Q105 233 105 235 Q109 245 112 255 Q115 265 118 276 Q118 277 118 277 Z M189 278 L187 278 L141 278 Q139 278 139 275 Q137 270 134.5 264 Q132 258 130 252 Q128 248 127 244 Q126 240 124 235 L127 235 Q138 236 150 237 Q162 238 173 239 Q174 239 176 241 Q178 249 181 256 Q184 263 186 270 Q187 272 187.5 274 Q188 276 189 278 Z " />
<glyph glyph-name="asciitilde" unicode="&#x7e;" horiz-adv-x="303" d="M150 223 Q142 225 135 229 Q128 233 123 241 Q117 250 114 261 Q112 265 111 268 Q110 271 109 275 Q108 277 105 276 Q101 274 97.5 272.5 Q94 271 91 268 Q86 263 81 258 Q76 253 73 246 L73 243 Q73 239 70 239 Q63 239 60 245 L60 250 Q63 257 68 263 Q77 276 91 284 Q106 293 119 280 Q125 272 128 265 Q131 260 133 255.5 Q135 251 138 246 Q141 240 142 240 Q143 240 149 242 Q157 245 165 250 Q173 255 181 260 Q189 265 196.5 271 Q204 277 212 283 Q214 284 215 285.5 Q216 287 217 288 Q219 290 221 290 Q228 290 233 284 Q240 279 233 272 Q227 266 224 264 Q213 255 201 246.5 Q189 238 178 230 Q165 220 150 223 Z " />
<glyph glyph-name="dollar" unicode="&#x24;" horiz-adv-x="403" d="M287 569 Q291 580 294.5 591 Q298 602 301 613 Q304 618 307 617 Q318 613 315 603 Q313 595 310 586.5 Q307 578 305 570 Q304 568 304 567 Q304 566 303 564 Q305 562 308 561.5 Q311 561 313 559 Q353 540 372 500 Q385 473 382 445 Q379 418 361 395 Q350 380 336.5 369 Q323 358 307 349 Q298 344 289 339.5 Q280 335 270 333 Q256 330 244 337 L240 341 Q236 345 242 345 Q246 345 248 344 Q255 340 263 343 Q272 345 280.5 349 Q289 353 297 358 Q311 366 324 377 Q337 388 348 402 Q368 430 368 461 Q368 497 345 523 Q328 542 301 552 L299 552 Q297 548 296 545 Q271 479 248 413.5 Q225 348 201 282 Q198 275 202 268 Q213 251 223 233.5 Q233 216 241 197 Q248 181 253 164.5 Q258 148 260 130 Q265 79 241 33 Q195 -55 106 -85 Q98 -88 89 -90 Q80 -92 72 -94 Q69 -96 68 -97 Q63 -114 57 -131.5 Q51 -149 46 -166 Q44 -169 43 -172.5 Q42 -176 40 -179 Q37 -189 27 -185 Q25 -183 26 -181 Q31 -168 34.5 -155.5 Q38 -143 43 -129 Q45 -121 48 -114 Q51 -107 53 -99 Q53 -98 54 -97 L51 -97 Q43 -96 35 -96.5 Q27 -97 19 -95 Q-2 -92 -20 -84 Q-38 -76 -52 -60 Q-63 -49 -69 -36 Q-75 -23 -77 -6 Q-79 7 -76 19.5 Q-73 32 -68 44 Q-52 78 -22 100 Q-10 109 2.5 117.5 Q15 126 29 131 Q35 133 40.5 134.5 Q46 136 52 134 Q66 131 67 117 L67 114 Q66 113 63 113 Q58 115 57 120 Q55 126 51 125 Q41 123 35 121 Q3 108 -25 83 Q-36 72 -45 60 Q-54 48 -59 33 Q-74 -11 -50 -45 Q-30 -74 8 -84 Q30 -88 56 -85 Q57 -85 59 -82 Q63 -69 67 -56.5 Q71 -44 76 -31 L145 170 Q153 195 161.5 219.5 Q170 244 179 269 Q180 272 178 274 Q167 293 155.5 311 Q144 329 133 348 Q115 377 106 410 Q100 431 101 451 Q104 494 133 524 Q147 539 162.5 548.5 Q178 558 196 563 Q225 573 256 573 Q263 572 269.5 571 Q276 570 284 569 L287 569 Z M73 -82 Q76 -82 76 -81 Q165 -58 213 27 Q233 60 237 97 Q241 136 229 174 Q222 195 212.5 214.5 Q203 234 192 253 Q191 253 191 254 L190 254 L73 -82 Z M282 556 Q280 557 279 557 Q274 557 272 558 Q244 559 214 550 Q198 545 184 537.5 Q170 530 158 518 Q115 477 124 419 Q130 391 144 364 Q152 347 162 330.5 Q172 314 183 298 Q185 294 187 292 Q210 359 232.5 425 Q255 491 282 556 Z " />
<glyph glyph-name="percent" unicode="&#x25;" horiz-adv-x="345" d="M379 677 Q383 672 380 666 Q375 659 370.5 652 Q366 645 361 638 Q343 612 326.5 585.5 Q310 559 294 533 Q266 488 240.5 443 Q215 398 190 350 Q173 317 156.5 284 Q140 251 124 218 Q107 180 90 144 Q73 108 56 70 Q43 43 31 16 Q19 -11 8 -39 Q2 -55 -3.5 -70 Q-9 -85 -15 -101 Q-16 -106 -22 -106 L-27 -106 Q-33 -105 -32 -98 Q-24 -69 -13.5 -41.5 Q-3 -14 9 14 Q29 59 49 103.5 Q69 148 89 193 Q108 233 126 272.5 Q144 312 164 351 Q181 386 199.5 419.5 Q218 453 238 487 Q258 523 279 557.5 Q300 592 322 626 Q328 635 334.5 644.5 Q341 654 348 663 Q348 663 350 665 Q343 664 336.5 663.5 Q330 663 324 662 Q301 660 276 656 Q274 656 271.5 655.5 Q269 655 267 655 Q262 654 262 648 Q264 644 264.5 640 Q265 636 266 632 Q266 610 252 595 Q247 588 239.5 586 Q232 584 224 586 Q210 590 199.5 601 Q189 612 191 629 Q193 634 193.5 638 Q194 642 196 646 Q201 656 206.5 664 Q212 672 221 679 Q234 689 246 678 Q246 678 248 674 L248 669 L243 669 Q242 668 241 668 Q240 668 239 666 Q223 649 216 627 Q215 622 214.5 618.5 Q214 615 215 610 Q217 604 218.5 602.5 Q220 601 226 604 Q230 606 232.5 608.5 Q235 611 237 613 Q249 633 246 650 L246 657 Q246 666 252 668 Q257 670 261.5 670.5 Q266 671 271 672 Q286 674 301 676.5 Q316 679 330 681 Q338 682 344.5 683.5 Q351 685 359 686 Q365 688 370.5 684.5 Q376 681 379 677 Z M123 41 Q129 43 136 39 Q143 35 143 29 Q144 21 144.5 14.5 Q145 8 144 1 Q143 -23 121 -35 Q113 -41 104 -40.5 Q95 -40 85 -35 Q70 -25 70 -7 Q70 15 82 30 Q86 35 90.5 39 Q95 43 102 41 Q105 41 107.5 39.5 Q110 38 112 37 Q115 35 112 32 Q109 29 109 27 Q98 8 98 -14 Q98 -16 98.5 -17 Q99 -18 99 -20 Q99 -21 100 -21 Q106 -15 109 -11 Q116 -2 118.5 9 Q121 20 121 32 Q121 33 120.5 33.5 Q120 34 120 35 Q118 38 123 41 Z " />
<glyph glyph-name="exclam" unicode="&#x21;" horiz-adv-x="225" d="M250 659 Q251 658 250.5 656.5 Q250 655 250 653 Q242 629 233 605 Q224 581 216 557 Q193 496 172 434.5 Q151 373 128 311 Q118 282 107.5 251.5 Q97 221 86 192 Q71 150 56 109 Q41 68 26 26 Q24 22 22.5 18 Q21 14 17 11 Q16 6 7 6 Q4 6 3 7 Q-3 10 0 14 Q3 18 5 26 Q25 80 43 133.5 Q61 187 78 241 Q89 276 101 310.5 Q113 345 124 380 Q145 445 168.5 509.5 Q192 574 216 638 Q219 644 222 650 Q225 656 227 662 Q229 664 231 667 Q233 670 238 669 Q242 667 245 665.5 Q248 664 250 659 Z M7 -56 Q15 -64 5 -70 Q1 -73 -6 -73.5 Q-13 -74 -18 -71 Q-23 -68 -22 -64 Q-22 -56 -15 -53 Q-13 -52 -11.5 -52 Q-10 -52 -8 -51 Q-4 -52 0 -53 Q4 -54 7 -56 Z " />
<glyph glyph-name="at" unicode="&#x40;" horiz-adv-x="421" d="M228 208 Q226 206 224 205 Q222 204 220 203 Q217 201 213.5 198 Q210 195 206 193 Q194 187 181 192 Q171 197 170 207 Q168 217 173 233 Q179 250 189 264.5 Q199 279 213 290 Q223 299 234 300 Q260 303 265 277 Q267 267 264 259 Q263 257 262.5 255.5 Q262 254 260 252 Q258 250 254.5 250.5 Q251 251 249 254 L249 256 Q251 263 251.5 269 Q252 275 250 282 Q248 290 245 290.5 Q242 291 236 288 Q229 283 224 277.5 Q219 272 214 266 Q208 257 202.5 248 Q197 239 194 228 Q191 216 192 207 Q192 205 193 203 Q195 205 196.5 205.5 Q198 206 200 208 Q206 212 211.5 216 Q217 220 223 225 Q233 232 244 227 Q249 226 251 218 Q251 207 252 202 Q253 196 254.5 195 Q256 194 261 196 Q272 201 279.5 208 Q287 215 294 223 Q309 244 319 273 Q326 294 330 315 Q334 336 336 359 Q338 398 319 429 Q310 444 295.5 450.5 Q281 457 263 456 Q245 454 229.5 447 Q214 440 200 429 Q184 415 171 399.5 Q158 384 147 367 Q98 289 79 203 Q70 164 70 123 Q71 108 73 93 Q75 78 81 64 Q92 36 114 21 Q120 17 127 14 Q134 11 142 12 Q150 12 158 15 Q181 25 196 40 Q207 52 218 64 Q229 76 240 88 Q253 102 265 116.5 Q277 131 290 145 Q292 147 293.5 149.5 Q295 152 297 154 Q301 161 309 159 Q315 159 311 155 Q309 150 303 142 Q276 110 247 77 Q239 67 230.5 58 Q222 49 214 40 Q202 26 184 15 Q165 2 145 1 Q119 0 100.5 11 Q82 22 68 42 Q60 54 55 68 Q50 82 48 96 Q42 127 47 162 Q53 223 74 278 Q95 333 129 384 Q140 400 152.5 414 Q165 428 180 440 Q194 452 210.5 459.5 Q227 467 246 469 Q307 474 335 423 Q351 397 351 363 Q353 302 329 249 Q319 223 302 206 Q285 189 265 184 Q258 181 248 183 Q231 186 228 204 L228 208 Z " />
<glyph glyph-name="ampersand" unicode="&#x26;" horiz-adv-x="668" d="M692 653 Q704 628 686 607 Q678 596 667 588.5 Q656 581 644 575 Q622 564 598.5 556 Q575 548 551 543 Q515 534 479 531 Q462 529 446.5 528 Q431 527 415 525 Q401 524 386.5 523.5 Q372 523 358 523 Q357 522 356.5 522 Q356 522 355 521 Q345 505 338 488.5 Q331 472 327 454 Q325 440 325 427.5 Q325 415 330 402 Q343 369 380 363 Q392 361 404.5 361.5 Q417 362 430 364 Q431 364 437 366 Q451 371 466 375 Q481 379 497 381 Q503 382 509.5 382.5 Q516 383 522 381 Q529 379 532 376 Q537 371 530 368 Q526 367 522 366 Q518 365 514 364 Q500 361 487 359 Q474 357 460 354 Q455 353 451.5 351.5 Q448 350 444 348 Q364 313 308 250 Q290 229 275.5 206 Q261 183 252 157 Q243 130 243 103 Q244 88 248.5 74 Q253 60 264 48 Q295 14 341 29 Q359 35 374 44.5 Q389 54 403 66 Q418 80 431 94 Q444 108 456 124 Q458 126 459 129 Q460 132 462 134 Q472 153 482 171 Q492 189 505 206 Q509 211 513 216 Q517 221 522 226 Q530 234 541 228 Q548 225 544 219 Q540 213 536.5 207 Q533 201 528 195 Q517 181 508.5 166.5 Q500 152 492 136 Q462 77 435.5 16.5 Q409 -44 386 -107 Q386 -107 385 -108 Q384 -111 380 -116.5 Q376 -122 366 -123 Q359 -123 361 -111 Q375 -64 392.5 -18.5 Q410 27 431 72 Q431 73 431.5 73.5 Q432 74 432 75 Q426 70 420.5 64.5 Q415 59 409 54 Q380 30 351 20 Q307 6 271 23 Q225 43 217 97 Q214 116 217 134 Q220 152 227 170 Q238 196 252.5 219 Q267 242 285 263 Q331 314 394 346 Q394 346 398 348 Q394 349 391 349 Q388 349 385 350 Q369 352 354.5 357.5 Q340 363 328 374 Q296 402 298 446 Q299 462 303.5 477 Q308 492 314 506 Q316 510 317.5 513.5 Q319 517 321 521 Q316 520 312 520 Q308 520 304 520 Q294 519 285 518 Q276 517 267 516 Q241 513 215 508.5 Q189 504 164 494 Q101 468 70 409 Q50 373 52 332 Q53 283 84 242 Q102 216 126 202 Q137 196 148.5 192 Q160 188 173 189 Q178 189 181.5 190 Q185 191 190 191 L198 191 Q200 191 200 188 Q200 186 198 186 Q194 184 184 182 Q146 176 113 200 Q72 228 52 277 Q37 312 39 351 Q40 382 54 411 Q72 449 101.5 473 Q131 497 170 510 Q184 515 199 518 Q214 521 229 523 Q243 525 258 526.5 Q273 528 288 530 Q297 531 306.5 531 Q316 531 325 532 Q328 532 328 534 Q345 562 366.5 585.5 Q388 609 413 629 Q433 645 455 658.5 Q477 672 501 682 Q549 702 601 700 Q621 698 639 692.5 Q657 687 673 675 Q685 666 692 653 Z M674 616 Q684 627 682 641 Q682 656 667 666 Q646 681 615 683 Q558 684 505 657 Q468 639 436.5 613 Q405 587 379 555 Q375 550 371.5 544.5 Q368 539 363 534 Q365 534 366.5 533.5 Q368 533 370 534 Q384 534 397 534.5 Q410 535 423 536 Q440 538 456 539.5 Q472 541 489 543 Q511 545 532 550 Q553 555 574 561 Q593 567 610 574 Q627 581 644 591 Q653 596 660.5 602 Q668 608 674 616 Z " />
<glyph glyph-name="grave" unicode="&#x60;" horiz-adv-x="176" d="M127 566 Q123 566 119 569 Q115 572 114 575 Q112 578 111.5 581 Q111 584 110 586 Q107 593 104 599 Q101 605 98 612 Q97 614 97 615.5 Q97 617 96 619 Q95 623 99 624 Q101 624 102.5 623.5 Q104 623 106 623 Q115 620 118 611 Q122 603 125 594 Q128 585 131 577 Q132 576 132 575 Q132 574 133 573 Q133 566 127 566 Z " />
<glyph glyph-name="question" unicode="&#x3f;" horiz-adv-x="460" d="M465 621 Q464 607 461.5 594.5 Q459 582 455 569 Q446 540 433 513 Q420 486 405 460 Q386 427 366 396 Q346 365 326 334 Q300 294 275 254.5 Q250 215 227 173 Q211 144 196 115.5 Q181 87 167 58 Q157 38 148 19 Q139 0 130 -20 Q128 -24 127 -27.5 Q126 -31 125 -36 Q125 -41 121 -41 Q107 -41 110 -25 Q111 -14 118 -1 Q130 28 142.5 55 Q155 82 169 110 Q183 139 198 168 Q213 197 228 226 Q245 258 263.5 289 Q282 320 302 350 Q321 378 338.5 406 Q356 434 373 463 Q387 486 399 509.5 Q411 533 422 559 Q428 573 433 587.5 Q438 602 441 618 Q447 642 444 666 Q442 683 434 694 Q426 705 415 713 Q394 726 369 728 Q332 733 298 720 Q264 707 232 682 Q195 653 166 611 Q139 572 124 527 Q103 466 104 407 Q105 385 109 365 Q113 345 123 328 Q137 300 161 289 Q172 283 184 286 Q188 287 192 285 Q194 285 194 282 Q194 279 192 279 Q188 278 184.5 277 Q181 276 178 276 Q164 276 153.5 281.5 Q143 287 133 296 Q123 304 116 315.5 Q109 327 104 341 Q96 363 93 386 Q90 409 92 433 Q93 466 101 499 Q117 563 150 614 Q199 690 272 726 Q316 748 357 745 Q378 744 396.5 737.5 Q415 731 431 716 Q469 681 465 621 Z M105 -101 Q109 -103 109 -108 Q107 -116 102 -117 Q100 -118 98 -118 Q96 -118 94 -119 Q92 -117 90.5 -116.5 Q89 -116 87 -114 Q86 -114 86 -111 Q85 -110 85 -109 Q80 -102 87 -98 Q91 -96 98 -98 Q101 -99 105 -101 Z " />
<glyph glyph-name="less" unicode="&#x3c;" horiz-adv-x="310" d="M190 287 Q192 285 193.5 285 Q195 285 197 283 Q200 280 195 278 Q168 265 145 248 Q137 243 131 237 Q126 232 128 227 Q130 222 132.5 218 Q135 214 137 210 Q143 200 149.5 191 Q156 182 162 172 Q162 169 162 169 Q160 167 158 167 Q151 164 146 169 Q138 179 133 186 Q127 194 121.5 201 Q116 208 110 216 Q106 224 105 228 Q102 235 111 241 Q128 253 145 264 Q162 275 180 283 Q182 285 184.5 285 Q187 285 190 287 Z " />
<glyph glyph-name="greater" unicode="&#x3e;" horiz-adv-x="278" d="M162 241 Q157 245 153.5 248 Q150 251 146 255 Q139 260 132.5 265.5 Q126 271 120 277 Q116 281 114 284 Q114 284 114 288 Q118 290 119 290 Q123 289 129 285 Q134 280 139 275.5 Q144 271 149 267 Q156 261 162 256 Q168 251 174 246 Q177 243 179 242 L182 239 Q185 234 178 230 Q168 223 158.5 216.5 Q149 210 139 202 Q126 193 114 183.5 Q102 174 89 165 Q87 163 85 163 Q77 161 75 168 Q75 171 77 173 Q82 178 87 182.5 Q92 187 97 191 Q112 203 127.5 215 Q143 227 158 238 Q159 239 159.5 239 Q160 239 162 241 Z " />
<glyph glyph-name="braceleft" unicode="&#x7b;" horiz-adv-x="320" d="M112 358 Q117 358 119 357 Q129 357 138 356.5 Q147 356 156 355 Q168 353 177 346 Q188 338 186 323 Q184 315 181.5 306.5 Q179 298 177 290 Q166 264 156.5 237 Q147 210 137 184 Q128 159 121 135 Q114 111 107 86 Q103 71 99.5 56 Q96 41 94 25 Q92 11 91 -3 Q90 -17 92 -31 Q93 -40 98 -51 Q102 -61 115 -66 Q136 -75 161 -72 Q182 -69 195 -50 Q200 -41 209 -45 Q212 -46 211 -50 Q202 -65 186 -74 Q175 -79 160 -81 Q129 -85 99 -74 Q87 -69 80.5 -60 Q74 -51 71 -39 Q69 -28 68.5 -18.5 Q68 -9 69 2 Q70 21 73.5 39.5 Q77 58 82 77 Q90 109 100 141 Q110 173 122 205 Q130 226 138 246.5 Q146 267 154 288 Q157 296 159.5 304.5 Q162 313 165 321 Q166 324 166 330 Q167 341 156 343 Q151 344 141 344 Q133 345 126 345 Q119 345 111 346 Q106 347 101.5 348 Q97 349 93 353 Q87 359 92 368 L98 377 Q103 383 108.5 388.5 Q114 394 119 400 Q130 411 140.5 422.5 Q151 434 162 445 Q182 467 199 490.5 Q216 514 230 540 L287 639 Q295 653 304 667 Q313 681 322 695 Q330 710 345 725 Q351 730 357 733.5 Q363 737 371 737 Q387 735 392 723 Q394 720 392 718 Q389 715 386 718 Q384 719 383.5 720 Q383 721 381 723 Q379 728 373 726 Q367 725 362.5 721.5 Q358 718 353 713 Q347 706 342 698.5 Q337 691 332 683 Q315 654 299.5 624.5 Q284 595 268 565 Q256 542 243 519.5 Q230 497 214 475 Q200 455 183.5 436.5 Q167 418 150 400 Q143 393 136.5 387 Q130 381 124 374 Q118 368 114 361 Q113 360 113 359.5 Q113 359 112 358 Z " />
<glyph glyph-name="braceright" unicode="&#x7d;" horiz-adv-x="265" d="M118 295 Q121 309 124.5 323.5 Q128 338 131 352 L137 367 Q143 378 158 385 Q163 387 168 389.5 Q173 392 178 395 Q183 397 183.5 398 Q184 399 182 403 Q178 407 174.5 410.5 Q171 414 167 417 Q135 447 151 497 Q154 512 159.5 526.5 Q165 541 171 556 Q179 578 186.5 600 Q194 622 201 644 Q203 655 206.5 665.5 Q210 676 212 687 Q215 699 214 710 Q215 717 213.5 718 Q212 719 204 717 Q193 714 180 706 Q175 702 171 705 L170 705 Q163 711 172 715 Q188 725 202 728 Q225 731 231 712 Q234 699 231 684 Q229 669 225 654.5 Q221 640 217 625 Q210 600 200.5 575.5 Q191 551 183 526 Q178 515 175.5 504.5 Q173 494 169 483 Q166 467 167 454 Q167 444 171 436.5 Q175 429 181 422 Q185 418 188.5 414 Q192 410 196 406 Q200 402 200 400 Q204 392 197 388 Q193 386 187 382 Q183 380 179 378.5 Q175 377 171 375 Q158 368 157 357 Q154 349 152 341 Q150 333 148 325 Q144 302 140 280 Q136 258 129 235 Q121 210 112 185.5 Q103 161 92 137 Q75 99 56 65 Q42 40 24.5 17.5 Q7 -5 -14 -25 Q-25 -34 -35 -43 Q-45 -52 -56 -60 Q-61 -63 -65 -65.5 Q-69 -68 -74 -69 Q-84 -71 -90 -66 Q-90 -65 -90.5 -64.5 Q-91 -64 -91 -63 Q-91 -63 -88 -60 Q-86 -60 -85 -59.5 Q-84 -59 -82 -59 Q-78 -60 -75 -57 Q-64 -50 -55.5 -41.5 Q-47 -33 -37 -25 Q-8 3 12.5 33.5 Q33 64 49 99 Q57 117 65 134.5 Q73 152 81 170 Q85 181 89 192.5 Q93 204 97 215 Q104 235 108.5 255 Q113 275 118 295 Z " />
<glyph glyph-name="bracketleft" unicode="&#x5b;" horiz-adv-x="217" d="M66 -58 Q69 -58 72 -57.5 Q75 -57 77 -57 Q79 -57 80.5 -56.5 Q82 -56 84 -57 Q86 -57 86 -58 Q86 -59 84 -61 Q82 -62 80 -63 Q78 -64 76 -64 Q67 -68 53 -66 Q23 -65 -7 -55 L-8 -55 Q-17 -52 -20 -47 Q-23 -42 -21 -31 Q-16 -14 -11.5 4 Q-7 22 -2 39 Q14 89 30 138 Q46 187 63 236 Q83 295 102.5 352.5 Q122 410 142 468 Q154 503 167 537.5 Q180 572 194 607 Q201 625 207.5 642.5 Q214 660 221 678 Q224 687 228 695.5 Q232 704 235 712 Q242 730 262 732 Q270 734 277.5 733.5 Q285 733 293 733 Q296 732 300 730 Q300 729 300.5 729 Q301 729 301 728 Q301 727 302 727 Q300 724 298 724 L290 724 Q285 723 279.5 723 Q274 723 269 722 Q263 721 258 714 Q253 703 248.5 691.5 Q244 680 239 669 Q228 640 217 612 Q206 584 195 555 Q181 520 168.5 484.5 Q156 449 144 413 Q127 367 112 322 Q97 277 81 231 Q67 188 53 146 Q39 104 25 61 Q19 43 13.5 25 Q8 7 3 -11 Q1 -16 0 -21.5 Q-1 -27 -2 -32 Q-5 -43 5 -46 Q16 -50 31 -53 Q35 -54 39 -54.5 Q43 -55 47 -56 Q52 -57 56.5 -57 Q61 -57 66 -58 Z " />
<glyph glyph-name="bracketright" unicode="&#x5d;" horiz-adv-x="205" d="M229 720 Q222 719 215.5 719 Q209 719 202 717 Q193 717 189 720 Q187 722 187 725 Q189 727 192 727 Q198 728 204 729 Q210 730 216 731 L235 731 Q243 731 250 724 Q260 716 256 700 Q252 683 246.5 666 Q241 649 235 632 Q221 594 206 556.5 Q191 519 177 481 Q167 454 157.5 426.5 Q148 399 138 371 L90 224 Q78 186 67 148.5 Q56 111 45 73 Q38 50 31 28.5 Q24 7 17 -16 Q15 -22 13.5 -28.5 Q12 -35 10 -41 Q8 -51 0 -54 Q-8 -59 -15 -60 Q-23 -63 -31.5 -65.5 Q-40 -68 -48 -70 Q-56 -73 -63 -69 Q-65 -65 -65 -64 Q-62 -61 -60 -61 Q-57 -60 -54 -61 Q-51 -63 -47 -61 Q-40 -58 -33.5 -55.5 Q-27 -53 -20 -50 Q-12 -47 -10 -38 Q-5 -21 0 -4.5 Q5 12 10 29 Q20 64 30 98.5 Q40 133 51 168 Q59 195 67.5 222 Q76 249 85 276 Q96 310 106.5 343 Q117 376 128 409 Q140 446 153.5 481.5 Q167 517 181 553 L223 661 Q231 685 236 711 L236 714 Q237 719 236.5 719.5 Q236 720 232 720 L229 720 Z " />
<glyph glyph-name="asciicircum" unicode="&#x5e;" horiz-adv-x="226" d="M117 636 Q123 645 129 653.5 Q135 662 140 671 Q145 677 148 683.5 Q151 690 155 696 Q157 700 158 703 Q162 709 171 709 Q187 709 187 696 Q188 691 188 686 Q188 681 188 676 Q188 664 187.5 652.5 Q187 641 187 629 Q187 627 183 625 Q178 624 172 627 Q167 628 167 635 Q167 643 166.5 651.5 Q166 660 166 668 Q166 675 165 679 Q163 677 161 673 Q156 665 150.5 657.5 Q145 650 140 642 Q138 640 137.5 638.5 Q137 637 135 635 Q126 626 117 635 L117 636 Z " />
<glyph glyph-name="asterisk" unicode="&#x2a;" horiz-adv-x="253" d="M156 601 Q151 601 147.5 600.5 Q144 600 140 599 Q136 599 133 599 Q130 599 127 601 Q126 601 126 601.5 Q126 602 125 602 Q122 607 127 607 Q133 608 138.5 608.5 Q144 609 150 610 Q154 611 157.5 611 Q161 611 164 612 L164 613 Q159 618 155.5 622.5 Q152 627 148 632 Q145 635 146 636 Q148 638 150 638 Q159 639 165 633 Q167 631 169 629.5 Q171 628 173 626 Q175 634 175 638 Q176 644 183 643 Q186 643 187 642 Q193 639 192 633 L192 630 Q195 632 197.5 634 Q200 636 203 638 Q207 642 214 642 Q216 641 217.5 640.5 Q219 640 221 639 Q223 636 221 634 Q217 630 215 629 Q207 622 196 615 Q196 615 194 613 Q199 612 203 611.5 Q207 611 212 609 Q216 607 219 605 Q221 605 221 602 Q219 600 218 600 Q216 600 210 602 Q205 604 200 604 Q195 604 190 604 Q191 602 191 602 Q197 594 203 587.5 Q209 581 214 574 Q217 571 216 569 Q216 567 212 567 Q205 567 201 571 L186 586 Q184 588 183 590 Q181 584 180.5 578.5 Q180 573 178 568 L175 559 Q173 555 170 556 Q166 556 162 559 Q160 560 160 564 Q162 571 163 577 Q164 583 165 590 Q160 586 156 582.5 Q152 579 148 575 L138 565 Q136 563 131 563.5 Q126 564 124 567 Q124 568 124.5 569 Q125 570 125 571 L141 587 Q145 591 148.5 594 Q152 597 156 601 Z " />
<glyph glyph-name="colon" unicode="&#x3a;" horiz-adv-x="175" d="M85 247 Q72 249 68 256 Q66 262 72 268 Q77 273 83 272 Q85 271 87.5 271 Q90 271 92 269 Q93 269 97 265 Q98 264 98 263.5 Q98 263 99 262 Q105 254 93 249 Q87 247 85 247 Z M67 196 Q74 194 75 190 Q78 184 71 178 Q63 173 56 173 Q47 173 43 179 Q40 184 45 188 Q51 194 55 196 Q59 198 67 196 Z " />
<glyph glyph-name="semicolon" unicode="&#x3b;" horiz-adv-x="150" d="M54 184 Q57 181 56 177 Q52 167 48.5 157 Q45 147 41 137 Q39 133 38 132 Q37 131 36 131 Q35 131 35 130 Q28 130 25 135 L25 138 Q27 144 29 149.5 Q31 155 33 161 Q37 171 40 184 Q41 188 46 187 Q48 187 50 186 Q52 185 54 184 Z M84 261 Q86 259 86.5 256.5 Q87 254 85 252 Q82 246 75 246 Q65 248 59 255 Q55 259 57 264 Q60 270 68 270 Q78 268 84 261 Z " />
<glyph glyph-name="equal" unicode="&#x3d;" horiz-adv-x="277" d="M161 177 L77 180 Q70 180 60 182 Q58 182 56 183 Q54 184 52 185 Q49 187 51 189 Q51 191 54 191 Q58 191 61.5 191.5 Q65 192 70 192 Q87 192 103 192.5 Q119 193 136 193 Q141 193 145 193.5 Q149 194 154 194 Q166 192 172 185 Q177 178 168 177 L161 177 Z M179 229 Q158 229 136.5 229.5 Q115 230 94 231 Q90 231 86 231.5 Q82 232 77 233 Q75 233 73.5 234 Q72 235 70 236 Q68 238 68 240 Q68 242 71 242 Q76 242 79.5 242.5 Q83 243 87 243 Q104 243 120.5 243.5 Q137 244 154 244 Q159 244 162.5 244.5 Q166 245 171 245 Q184 243 189 236 Q194 230 186 228 L179 228 L179 229 Z " />
<glyph glyph-name="quotedbl" unicode="&#x22;" horiz-adv-x="211" d="M183 722 Q183 719 183 719 Q180 712 178 705.5 Q176 699 174 691 Q174 690 173.5 689.5 Q173 689 173 688 Q171 684 168 684 Q165 685 161 687 Q158 689 159 693 Q161 699 163 705.5 Q165 712 167 718 Q167 720 168 720 Q169 722 169.5 723.5 Q170 725 173 726 Q179 726 183 722 Z M198 724 Q204 721 202 715 L193 691 Q191 686 187 687 Q180 687 178 692 L178 694 L187 721 Q188 725 193 725 Q196 725 198 724 Z " />
<glyph glyph-name="quotesingle" unicode="&#x27;" horiz-adv-x="178" d="M165 724 Q171 721 169 715 L160 691 Q158 686 154 687 Q147 687 145 692 L145 694 L154 721 Q155 725 160 725 Q163 725 165 724 Z " />
<glyph glyph-name="bar" unicode="&#x7c;" horiz-adv-x="207" d="M-35 -105 L-38 -105 Q-45 -103 -43 -97 Q-38 -85 -33 -72.5 Q-28 -60 -24 -47 Q-14 -18 -4 10 Q6 38 15 67 Q38 136 61 204.5 Q84 273 107 342 Q118 377 130 413 Q142 449 153 485 Q163 514 172 542.5 Q181 571 189 600 Q200 634 209.5 667.5 Q219 701 230 735 Q230 738 232 742 Q232 745 235 745 Q242 743 244 740 Q245 739 245 736 Q242 726 239 717 Q236 708 234 699 Q226 670 218 642 Q210 614 202 586 Q185 528 166.5 470.5 Q148 413 129 356 Q117 321 104.5 285.5 Q92 250 80 215 Q65 170 49.5 125 Q34 80 19 34 Q10 5 0 -24 Q-10 -53 -20 -82 Q-22 -87 -25 -92 Q-28 -97 -30 -102 Q-30 -105 -35 -105 Z " />
<glyph glyph-name="slash" unicode="&#x2f;" horiz-adv-x="315" d="M-53 -104 L-56 -104 Q-59 -102 -59.5 -101 Q-60 -100 -58 -96 Q-51 -84 -44.5 -71.5 Q-38 -59 -31 -46 L26 68 Q61 137 95 205.5 Q129 274 164 343 Q181 378 199 414 Q217 450 234 486 Q248 515 261 543.5 Q274 572 288 601 Q304 635 319.5 668.5 Q335 702 350 736 Q351 738 352 739.5 Q353 741 354 743 Q355 746 358 746 Q364 744 366 741 L366 737 Q361 727 357.5 718 Q354 709 349 700 Q336 671 323.5 643 Q311 615 298 587 Q272 529 244.5 471.5 Q217 414 189 357 L117 216 Q94 171 71.5 126 Q49 81 26 35 Q11 6 -4 -23 Q-19 -52 -34 -81 Q-36 -86 -39.5 -91 Q-43 -96 -46 -101 Q-48 -104 -53 -104 Z " />
<glyph glyph-name="backslash" unicode="&#x5c;" horiz-adv-x="395" d="M280 -104 L277 -104 Q270 -102 269 -96 Q267 -84 264.5 -71.5 Q262 -59 260 -46 L236 68 Q221 137 206 205.5 Q191 274 176 343 Q168 378 159.5 414 Q151 450 143 486 Q136 515 129 543.5 Q122 572 115 601 Q106 635 97 668.5 Q88 702 80 736 Q79 738 79 739.5 Q79 741 78 743 Q78 746 81 746 Q83 745 86 744 Q89 743 92 741 Q93 740 93.5 739 Q94 738 95 737 Q97 727 99.5 718 Q102 709 105 700 Q113 671 120 643 Q127 615 135 587 Q150 529 163.5 471.5 Q177 414 190 357 L220 216 Q230 171 239.5 126 Q249 81 258 35 Q265 6 270.5 -23 Q276 -52 282 -81 Q283 -86 283.5 -91 Q284 -96 284 -101 Q285 -104 280 -104 Z " />
<glyph glyph-name="comma" unicode="&#x2c;" horiz-adv-x="167" d="M74 154 Q77 151 76 147 Q72 137 68.5 127 Q65 117 61 107 Q59 103 58 102 Q57 101 56 101 Q55 101 55 100 Q48 100 45 105 L45 106 Q45 108 45 108 Q47 114 49 119.5 Q51 125 53 131 Q57 141 60 154 Q61 158 66 157 Q68 157 70 156 Q72 155 74 154 Z " />
<glyph glyph-name="period" unicode="&#x2e;" horiz-adv-x="150" d="M41 140 Q36 146 41 151 Q44 154 48 154.5 Q52 155 55 154 Q59 153 61 150 Q63 147 61 143 Q60 141 56 137 Q52 135 49 135 Q46 135 44 137 L41 140 Z " />
<glyph glyph-name="quoteleft" unicode="&#x2018;" horiz-adv-x="176" d="M165 724 Q171 721 169 715 L160 691 Q158 686 154 687 Q147 687 145 692 L145 694 L154 721 Q155 725 160 725 Q163 725 165 724 Z " />
<glyph glyph-name="quoteright" unicode="&#x2019;" horiz-adv-x="180" d="M165 724 Q171 721 169 715 L160 691 Q158 686 154 687 Q147 687 145 692 L145 694 L154 721 Q155 725 160 725 Q163 725 165 724 Z " />
<glyph glyph-name="quotedblleft" unicode="&#x201c;" horiz-adv-x="214" d="M183 722 Q183 719 183 719 Q180 712 178 705.5 Q176 699 174 691 Q174 690 173.5 689.5 Q173 689 173 688 Q171 684 168 684 Q165 685 161 687 Q158 689 159 693 Q161 699 163 705.5 Q165 712 167 718 Q167 720 168 720 Q169 722 169.5 723.5 Q170 725 173 726 Q179 726 183 722 Z M198 724 Q204 721 202 715 L193 691 Q191 686 187 687 Q180 687 178 692 L178 694 L187 721 Q188 725 193 725 Q196 725 198 724 Z " />
<glyph glyph-name="quotedblright" unicode="&#x201d;" horiz-adv-x="212" d="M183 722 Q183 719 183 719 Q180 712 178 705.5 Q176 699 174 691 Q174 690 173.5 689.5 Q173 689 173 688 Q171 684 168 684 Q165 685 161 687 Q158 689 159 693 Q161 699 163 705.5 Q165 712 167 718 Q167 720 168 720 Q169 722 169.5 723.5 Q170 725 173 726 Q179 726 183 722 Z M198 724 Q204 721 202 715 L193 691 Q191 686 187 687 Q180 687 178 692 L178 694 L187 721 Q188 725 193 725 Q196 725 198 724 Z " />
<glyph glyph-name="a" unicode="a" horiz-adv-x="331" d="M948 370 Q951 375 956 372 Q961 369 958 364 Q950 351 940 341 Q918 318 889.5 306.5 Q861 295 829 295 Q794 295 760 305 Q726 315 692 324 Q669 330 645.5 333.5 Q622 337 599 335 Q600 322 594.5 310 Q589 298 579 289.5 Q569 281 556.5 276 Q544 271 532 271 Q524 271 518.5 275 Q513 279 511 287 Q508 301 520 313 Q530 324 544 331 Q558 338 573 342 Q576 343 584 345 Q578 360 561 370 Q546 379 529 379 Q512 379 495 377 Q466 372 433 362 Q373 342 319 310 Q265 278 217 238 Q192 218 168.5 196.5 Q145 175 123 152 Q106 135 88.5 118 Q71 101 50 88 L49 88 L48 87 Q28 76 18.5 78.5 Q9 81 5 84 Q-1 91 -2 101 Q-3 117 1 133 Q5 150 10.5 165.5 Q16 181 23 196 Q27 204 28 208 L28 209 Q26 206 24 203.5 Q22 201 20 198 Q14 191 7.5 185.5 Q1 180 -7 175 Q-16 169 -28 172 Q-42 177 -42 191 Q-43 199 -42 205.5 Q-41 212 -39 218 Q-29 252 -6 279 Q10 298 37 296 Q40 296 46 294 L52 291 Q59 284 53 276 Q49 271 43 275 L43 278 Q43 280 44 280.5 Q45 281 45 283 Q45 286 43 287.5 Q41 289 39 287 Q36 285 32.5 282 Q29 279 27 276 Q14 260 5.5 242.5 Q-3 225 -10 206 Q-12 201 -13 195.5 Q-14 190 -16 185 L-16 183 Q-15 184 -14.5 184 Q-14 184 -13 185 Q2 193 10 204 Q18 214 26 224 Q34 234 42 245 Q46 251 50 256.5 Q54 262 58 268 Q59 270 60 270.5 Q61 271 62 273 Q65 279 73 277 Q75 276 76.5 275.5 Q78 275 80 274 Q87 269 85 262 Q83 255 80.5 248 Q78 241 75 233 L42 158 Q37 147 33 136 Q29 125 26 113 Q24 108 23 101 Q22 94 24 89 Q32 91 38.5 94.5 Q45 98 51 102 Q65 112 77 123.5 Q89 135 100 146 Q112 158 124 170 Q136 182 148 193 Q172 216 197.5 237 Q223 258 250 278 Q303 317 362.5 346.5 Q422 376 487 388 Q505 391 523.5 391.5 Q542 392 559 384 Q571 379 581 369.5 Q591 360 596 346 Q621 349 646.5 345.5 Q672 342 695 335 Q731 325 767 315 Q803 305 841 307 Q874 309 902 325.5 Q930 342 948 370 Z M587 333 Q582 333 576 331 Q562 327 548.5 320.5 Q535 314 526 303 Q522 298 522 291 Q522 284 530 282 Q537 281 544 283.5 Q551 286 557 288 Q568 294 577 303.5 Q586 313 587 327 L587 333 Z " />
<glyph glyph-name="b" unicode="b" horiz-adv-x="385" d="M1025 347 Q1030 347 1030 341 Q1030 335 1025 336 L991 336 Q958 334 926 326 Q894 318 862.5 306.5 Q831 295 800.5 281.5 Q770 268 739 256 Q710 245 680.5 236 Q651 227 621 222.5 Q591 218 561 218.5 Q531 219 501 227 Q474 234 449 248 Q424 262 406 284 Q401 291 396 299 Q391 307 388 316 Q375 305 362 296 Q349 287 335 278 Q290 250 242.5 229.5 Q195 209 146 190 L138 187 L138 185 Q138 184 137 182.5 Q136 181 135 179 Q126 159 114 141 Q102 123 86 107 Q77 96 65 89 Q48 79 34 84 Q18 89 21 107 Q24 128 40 146 Q61 173 96 184 Q106 188 110 198 Q115 209 119.5 220.5 Q124 232 127 244 Q128 249 128.5 253 Q129 257 128 262 Q127 267 122 267 Q117 267 113 266 Q109 265 104 263 Q81 253 61 232 Q47 218 35 202 Q23 186 12 169 Q3 154 -5.5 138.5 Q-14 123 -23 107 Q-25 105 -27 99 Q-31 91 -40 89.5 Q-49 88 -54 91 Q-57 92 -57 97 Q-53 108 -50 123 Q-42 152 -34.5 180 Q-27 208 -17 237 Q-8 264 1.5 291 Q11 318 21 345 Q33 377 45 409 Q57 441 70 473 Q83 506 97 538 Q111 570 128 602 Q139 623 151.5 642.5 Q164 662 179 679 Q191 693 204 702 Q213 709 223 709 Q232 710 241.5 704 Q251 698 253 683 Q254 673 252.5 663.5 Q251 654 249 645 Q243 614 232 585.5 Q221 557 207 529 Q190 497 173 466 Q156 435 136 405 Q124 385 110 366.5 Q96 348 82 330 Q74 321 67 312 Q60 303 52 294 Q49 290 45.5 287 Q42 284 39 281 Q37 279 37 278 Q28 252 19 227.5 Q10 203 1 177 L1 176 L2 176 L11 191 Q24 210 38.5 226 Q53 242 70 256 Q79 263 89 268.5 Q99 274 110 276 Q124 279 136 273 Q150 266 153 248 Q154 239 152.5 230.5 Q151 222 149 213 Q146 208 145 202 Q196 222 245.5 244 Q295 266 341 296 Q366 312 385 329 L385 334 Q384 346 388 358 Q392 370 400 379 Q408 389 419 393 Q424 395 431 396 Q438 397 443 392 Q448 387 447 381 Q446 375 442 369 Q438 363 432.5 357.5 Q427 352 424 349 Q418 342 411.5 336 Q405 330 398 324 Q403 302 420 285.5 Q437 269 455 258 Q478 244 504 238 Q530 232 556 230 Q616 227 672.5 245.5 Q729 264 784 287 Q812 299 841.5 310.5 Q871 322 901 331 Q931 340 962 344.5 Q993 349 1025 347 Z M54 326 Q52 321 51 317.5 Q50 314 48 310 L49 310 Q49 310 50 311 Q58 322 67 333 Q76 344 84 355 Q112 393 135.5 432 Q159 471 181 512 Q195 540 207 569 Q219 598 227 628 Q230 641 232.5 653.5 Q235 666 234 679 Q234 682 233.5 685.5 Q233 689 233 693 Q232 692 231 692 Q229 690 227.5 689.5 Q226 689 224 687 Q215 679 208 670.5 Q201 662 195 653 Q181 633 170 612.5 Q159 592 148 570 Q135 544 124.5 517 Q114 490 103 462 Q90 428 78 394 Q66 360 54 326 Z M41 97 Q59 113 72 132 Q85 151 96 171 L95 171 Q75 162 60 147 Q44 131 40 112 Q38 104 41 97 Z M415 378 Q406 371 401 360.5 Q396 350 396 339 Q409 350 424 366 Q426 368 432 374.5 Q438 381 435 384 Q433 386 429.5 385 Q426 384 424 383 Q421 382 415 378 Z " />
<glyph glyph-name="c" unicode="c" horiz-adv-x="369" d="M968 356 Q973 359 975.5 354 Q978 349 973 346 Q960 336 944 328 Q877 294 804 303 Q766 308 729 318 Q692 328 654 332 Q635 334 616 332.5 Q597 331 578 326 Q584 320 586 317 Q596 304 596.5 289 Q597 274 591 260 Q577 232 549 221 Q541 217 531.5 216 Q522 215 514 219 Q503 223 498 237 Q493 250 495.5 263.5 Q498 277 506 288 Q514 300 525 309.5 Q536 319 549 326 Q551 328 553 328 Q538 334 523 334 Q504 335 485 331.5 Q466 328 447 324 Q375 308 308 278.5 Q241 249 178 212 Q146 193 115.5 172.5 Q85 152 53 132 Q38 122 21.5 114.5 Q5 107 -13 105 L-16 105 L-24 105 Q-36 105 -45 109 Q-61 116 -66 134 Q-71 152 -67.5 169.5 Q-64 187 -57 204 Q-49 225 -37 243 Q-25 261 -9 277 Q7 293 26 297 Q39 300 50 296 Q59 292 59 282 Q59 279 56 279 Q52 279 49 280 Q46 280 45 279 Q38 274 32.5 267.5 Q27 261 22 255 Q5 234 -8 211.5 Q-21 189 -29 164 Q-34 150 -35 137 Q-35 135 -34.5 131 Q-34 127 -31.5 123.5 Q-29 120 -23.5 117.5 Q-18 115 -8 117 Q-6 118 -3.5 118 Q-1 118 1 119 Q12 122 22 127.5 Q32 133 40 138 Q57 148 72.5 158.5 Q88 169 104 180 Q136 201 169 220.5 Q202 240 237 258 Q306 293 377 317 Q394 323 412.5 327.5 Q431 332 449 336 Q469 341 489 344 Q509 347 529 345 Q551 343 567 334 Q591 343 617 344.5 Q643 346 669 342 Q709 336 748 325 Q787 314 828 313 Q905 311 968 356 Z M580 306 Q574 315 565 321 Q560 319 554 316 Q548 313 543 309 Q532 302 522.5 291.5 Q513 281 509 268 Q506 258 507.5 244.5 Q509 231 522 228 Q530 226 538 229 Q546 232 553 236 Q559 240 564.5 244.5 Q570 249 574 255 Q582 266 584.5 279.5 Q587 293 580 306 Z " />
</font>
</svg>
