<?xml version="1.0" encoding="UTF-8"?>
<svg xmlns="http://www.w3.org/2000/svg" xmlns:xlink="http://www.w3.org/1999/xlink" version="1.2" >
<font id="Harris Signature">
<font-face  font-family="Harris Signature" units-per-em="1000" ascent="750" descent="-250" font-style="normal" font-weight="400" font-stretch="normal" cap-height="700" x-height="500" underline-position="-75" underline-thickness="50" />
<missing-glyph  horiz-adv-x="250" d="" />
<glyph glyph-name="NULL" d="" />
<glyph glyph-name="nonmarkingreturn" unicode="&#xd;" horiz-adv-x="250" d="" />
<glyph glyph-name="space" unicode="&#x20;" horiz-adv-x="250" d="" />
<glyph glyph-name="E" unicode="E" horiz-adv-x="518" d="M666 745 Q676 750 682.5 741.5 Q689 733 681 725 L588 614 L423 419 Q402 394 381.5 370 Q361 346 340 321 Q329 309 319.5 296.5 Q310 284 299 272 Q296 268 292.5 265 Q289 262 286 258 Q291 253 291 247 Q291 240 284 233 Q277 228 268.5 228.5 Q260 229 255 238 Q250 248 255.5 257 Q261 266 267 273 Q274 281 280 288.5 Q286 296 293 304 Q340 359 385.5 413.5 Q431 468 478 523 Q515 567 551 609.5 Q587 652 624 696 Q584 676 545 653.5 Q506 631 468 608 Q378 554 294 491 Q253 460 214 427.5 Q175 395 137 360 Q118 343 99.5 325.5 Q81 308 64 290 Q56 281 47.5 271.5 Q39 262 35 251 Q32 242 35 233 Q35 232 35.5 232 Q36 232 36 231 Q37 230 37 229.5 Q37 229 38 228 L38 227 Q38 227 39 226 Q41 224 42 224 Q42 223 44 221 L45 221 L47 219 Q51 216 55 215 L63 211 Q69 209 73 208 Q83 205 93.5 203.5 Q104 202 113 200 Q142 197 172 193.5 Q202 190 232 187 Q242 185 243 178 Q247 168 238 164 Q231 161 224.5 158 Q218 155 212 152 Q158 129 106 103.5 Q54 78 3 49 Q-43 21 -86 -11 Q-129 -43 -164 -85 Q-180 -104 -194 -125 Q-201 -136 -206 -146 Q-211 -156 -214 -168 Q-214 -170 -214.5 -171 Q-215 -172 -215 -174 L-215 -178 Q-217 -183 -215 -188 L-215 -190 Q-215 -190 -214 -192 Q-214 -194 -213.5 -194.5 Q-213 -195 -213 -197 Q-213 -196 -212.5 -197.5 Q-212 -199 -211 -199 Q-211 -201 -210 -201 L-210 -202 Q-202 -212 -189 -214.5 Q-176 -217 -163 -218 Q-98 -222 -35 -207.5 Q28 -193 87 -167 Q148 -141 204 -106.5 Q260 -72 315 -36 Q319 -33 324.5 -34.5 Q330 -36 332 -41 Q337 -51 327 -58 L300 -76 Q243 -113 184 -147 Q125 -181 60 -205 Q28 -217 -4.5 -225.5 Q-37 -234 -70 -239 Q-87 -241 -104 -242.5 Q-121 -244 -138 -244 Q-154 -244 -171 -243 Q-188 -242 -203 -236 Q-217 -231 -226.5 -221 Q-236 -211 -239 -197 Q-242 -184 -240 -171 Q-238 -158 -233 -146 Q-223 -123 -206 -99 Q-198 -88 -189.5 -77.5 Q-181 -67 -172 -56 Q-134 -14 -87.5 19 Q-41 52 8 80 Q51 105 95.5 126 Q140 147 185 167 Q174 169 162.5 170 Q151 171 140 172 Q126 174 113 175.5 Q100 177 86 179 Q66 183 45 191 Q24 199 14 219 Q7 232 8.5 245 Q10 258 16.5 269.5 Q23 281 32 291.5 Q41 302 50 311 Q87 348 126 384 Q205 456 291 519 Q335 551 379.5 581.5 Q424 612 472 640 Q520 669 568 695 Q616 721 666 745 Z " />
<glyph glyph-name="F" unicode="F" horiz-adv-x="840" d="M1206 742 Q1217 744 1221 734.5 Q1225 725 1216 719 Q1165 681 1113.5 644.5 Q1062 608 1010 570 Q1006 567 1000.5 568.5 Q995 570 993 575 Q990 580 991.5 584.5 Q993 589 998 592 Q1038 621 1077.5 649.5 Q1117 678 1157 707 Q1046 686 935 662 Q874 648 813 634 Q752 620 691 606 Q630 591 569.5 575.5 Q509 560 449 543 Q354 517 260 489 Q233 451 206.5 412.5 Q180 374 154 335 Q148 327 142 318.5 Q136 310 131 301 Q217 321 302.5 340.5 Q388 360 474 378 Q519 388 564 397 Q609 406 654 415 Q677 420 698.5 424.5 Q720 429 743 433 Q766 438 789 439.5 Q812 441 835 436 Q840 435 842.5 430.5 Q845 426 844 421 Q841 410 828 412 Q804 417 780 414 Q756 411 732 406 Q708 401 683.5 396 Q659 391 634 386 Q544 368 456 348.5 Q368 329 279 309 Q237 300 195 290.5 Q153 281 111 271 Q91 240 72.5 209.5 Q54 179 35 147 Q6 99 -21 51.5 Q-48 4 -74 -45 Q-100 -93 -124.5 -141.5 Q-149 -190 -172 -240 Q-174 -245 -179.5 -246 Q-185 -247 -189 -245 Q-199 -238 -194 -228 Q-191 -222 -188 -215.5 Q-185 -209 -182 -204 Q-158 -153 -133 -104.5 Q-108 -56 -82 -8 Q-29 91 28 185 Q40 205 52 224 Q64 243 76 262 Q38 254 1 244.5 Q-36 235 -74 226 Q-80 224 -84 227 Q-88 230 -89 234.5 Q-90 239 -88.5 243.5 Q-87 248 -81 250 Q-36 261 7.5 271.5 Q51 282 96 293 Q109 313 121.5 333 Q134 353 148 373 Q166 399 184.5 425.5 Q203 452 221 478 Q217 476 213 475.5 Q209 475 204 473 Q143 455 82 436.5 Q21 418 -40 400 Q-46 398 -49.5 401 Q-53 404 -54.5 408.5 Q-56 413 -54.5 417.5 Q-53 422 -47 424 Q-39 426 -31.5 428.5 Q-24 431 -16 433 Q46 452 106.5 470 Q167 488 228 506 Q233 508 236.5 509 Q240 510 245 511 L278 556 Q289 571 300 586 Q311 601 322 615 Q316 617 313 623.5 Q310 630 316 636 Q342 661 367 686 Q392 711 418 736 Q427 745 436 736 Q444 728 436 719 Q431 713 427 707.5 Q423 702 418 697 Q383 654 350 611 Q317 568 284 523 Q331 537 377.5 549.5 Q424 562 472 575 Q532 592 592.5 607 Q653 622 714 637 Q776 652 837 665.5 Q898 679 960 693 Q1022 706 1083 718 Q1144 730 1206 742 Z " />
<glyph glyph-name="G" unicode="G" horiz-adv-x="827" d="M758 710 Q766 695 764 679 Q762 663 756 649 Q742 615 722.5 584 Q703 553 683 522 Q662 490 641 459 Q620 428 597 398 Q551 335 501.5 276.5 Q452 218 401 161 Q392 152 383 161 Q374 169 383 178 Q395 192 407.5 205.5 Q420 219 431 233 Q456 261 480 289 Q504 317 527 346 Q572 404 614 466 Q634 495 654.5 525 Q675 555 694 586 Q703 601 711.5 616 Q720 631 728 647 Q731 654 733.5 660.5 Q736 667 738 675 Q739 679 739 687 Q739 690 738 691 Q738 691 737 693 L737 695 Q733 704 719 711 Q715 713 715 713 Q711 715 709 715 Q707 716 706 716 Q705 716 704 717 L699 717 Q685 719 672 717 Q659 715 645 711 Q617 703 596 693 Q582 686 567 679.5 Q552 673 538 666 Q478 636 420.5 601 Q363 566 309 525 Q254 483 203.5 437.5 Q153 392 106 341 Q59 290 17 235 Q-25 180 -60 120 Q-73 98 -82.5 76.5 Q-92 55 -97 29 Q-99 23 -99 19 Q-99 15 -100 8 Q-100 -1 -99 -5 L-99 -11 Q-99 -13 -98 -14 Q-95 -37 -80 -53 Q-70 -64 -57 -70.5 Q-44 -77 -29 -81 Q-12 -85 5 -85.5 Q22 -86 39 -85 Q74 -83 108 -73.5 Q142 -64 176 -52 Q242 -28 306 4 Q338 21 369 39 Q400 57 431 77 Q463 98 495 118.5 Q527 139 559 160 Q575 170 591 180 Q607 190 623 201 Q638 211 652.5 221 Q667 231 683 239 Q692 244 698.5 237 Q705 230 701 223 L699 219 L643 111 Q650 115 656.5 118.5 Q663 122 669 126 Q674 129 679 127 Q684 125 686 121 Q688 117 687.5 112 Q687 107 682 104 Q676 101 670.5 98 Q665 95 659 92 Q649 86 639 80 Q629 74 619 68 Q610 51 600.5 35 Q591 19 581 2 Q552 -46 521 -93 Q490 -140 456 -185 Q448 -196 439.5 -206 Q431 -216 421 -225 Q412 -234 400 -240 Q388 -246 375 -243 Q364 -240 356.5 -231 Q349 -222 347 -211 Q343 -197 344 -183 Q345 -169 349 -156 Q355 -131 369.5 -110 Q384 -89 401 -71 Q420 -51 440.5 -33.5 Q461 -16 482 1 Q511 24 540.5 44.5 Q570 65 600 85 Q609 101 617.5 116 Q626 131 634 146 Q640 158 646 170 Q652 182 659 195 Q653 191 647 187 Q641 183 635 179 Q603 157 570 136.5 Q537 116 505 95 Q473 75 440.5 54 Q408 33 374 13 Q308 -25 241 -53 Q207 -67 172.5 -79.5 Q138 -92 102 -100 Q84 -105 65.5 -107.5 Q47 -110 28 -110 Q10 -111 -8.5 -109.5 Q-27 -108 -44 -102 Q-73 -93 -95 -72.5 Q-117 -52 -123 -21 Q-128 5 -122.5 31 Q-117 57 -107 81 Q-95 110 -80 135.5 Q-65 161 -48 187 Q-7 248 40 304.5 Q87 361 140 412 Q190 462 243.5 505.5 Q297 549 355 588 Q412 626 470.5 659 Q529 692 592 718 Q619 730 648.5 738 Q678 746 708 741 Q722 739 736 731 Q750 723 758 710 Z M464 -131 Q493 -90 520 -48 Q547 -6 573 37 Q550 21 528 4.5 Q506 -12 485 -29 Q465 -46 445.5 -62.5 Q426 -79 409 -99 Q395 -116 383.5 -135.5 Q372 -155 370 -178 Q368 -190 370 -201 Q371 -203 371.5 -205.5 Q372 -208 373 -210 Q373 -211 374 -213 Q375 -215 376 -215 Q378 -217 378 -217.5 Q378 -218 380 -219 Q380 -219 381 -219 L382 -219 L385 -219 Q393 -216 401 -210 Q410 -202 417.5 -193 Q425 -184 432 -175 Q440 -164 448 -153 Q456 -142 464 -131 Z " />
<glyph glyph-name="H" unicode="H" horiz-adv-x="467" d="M603 741 Q608 739 609.5 734 Q611 729 608 724 Q604 719 600.5 713 Q597 707 593 701 Q562 655 532.5 609.5 Q503 564 473 517 Q456 490 439.5 463.5 Q423 437 406 409 Q414 411 422.5 412 Q431 413 439 415 Q444 416 448 413.5 Q452 411 454 406 Q456 401 453 396.5 Q450 392 445 391 Q431 389 416.5 386.5 Q402 384 388 381 Q380 368 372.5 355.5 Q365 343 357 330 Q328 283 300 236.5 Q272 190 243 143 Q215 95 187.5 48 Q160 1 132 -47 Q105 -95 78.5 -142 Q52 -189 25 -237 Q22 -242 17 -243 Q12 -244 8 -241.5 Q4 -239 2 -234.5 Q0 -230 3 -225 Q7 -219 10 -213 Q13 -207 17 -201 Q43 -153 70 -106 Q97 -59 124 -11 Q152 37 179.5 84 Q207 131 236 178 Q264 226 292 272.5 Q320 319 349 366 Q352 369 354 374 L318 365 Q287 358 257 350 Q227 342 196 334 Q172 295 148 256 Q124 217 99 179 Q52 106 5.5 33.5 Q-41 -39 -89 -111 Q-92 -116 -97 -116.5 Q-102 -117 -106 -115 Q-110 -113 -111.5 -108.5 Q-113 -104 -110 -98 Q-102 -83 -93.5 -67.5 Q-85 -52 -77 -36 Q-47 19 -17.5 73.5 Q12 128 42 184 Q44 189 49 189.5 Q54 190 59 188 Q70 182 63 171 Q62 168 58 162 Q84 203 109.5 243 Q135 283 161 324 Q144 319 127.5 314.5 Q111 310 94 305 Q65 297 37.5 289.5 Q10 282 -19 275 Q-30 273 -42 271 Q-54 269 -65 274 Q-72 276 -78 282 Q-84 288 -82 296 Q-79 310 -65 317 Q-54 322 -48 313 Q-43 303 -51 296 L-49 296 Q-43 296 -38.5 296.5 Q-34 297 -28 298 Q-14 302 0 305.5 Q14 309 28 313 Q66 323 104 333.5 Q142 344 180 355 Q226 428 270.5 501 Q315 574 359 648 Q362 653 367 653.5 Q372 654 376 652 Q380 650 382 645.5 Q384 641 381 636 Q355 594 330.5 553 Q306 512 280 470 Q264 444 248 417.5 Q232 391 216 365 Q221 367 225 367.5 Q229 368 234 370 Q269 379 303 387.5 Q337 396 372 403 Q395 441 419 478 Q443 515 467 552 Q496 599 526 645 Q556 691 586 737 Q593 748 603 741 Z " />
<glyph glyph-name="I" unicode="I" horiz-adv-x="303" d="M472 741 Q478 742 481.5 739 Q485 736 486.5 731.5 Q488 727 486 722.5 Q484 718 478 717 Q461 712 444 707 Q427 702 410 697 Q405 695 400 694 Q395 693 390 691 Q388 688 386.5 685 Q385 682 383 680 Q353 638 324.5 596 Q296 554 267 511 Q238 469 210.5 426 Q183 383 156 339 Q129 296 102.5 253 Q76 210 50 166 Q24 122 -1 78.5 Q-26 35 -51 -10 Q-74 -51 -96 -92 Q-118 -133 -140 -175 Q-124 -170 -108.5 -166 Q-93 -162 -77 -158 Q-62 -155 -46.5 -153 Q-31 -151 -15 -151 Q1 -151 15.5 -154.5 Q30 -158 43 -167 Q53 -174 48 -185 Q45 -189 40 -190.5 Q35 -192 30 -189 Q18 -180 3 -178 Q-12 -176 -27 -177 Q-42 -178 -57.5 -180.5 Q-73 -183 -88 -186 Q-104 -190 -120 -195 Q-136 -200 -152 -205 Q-168 -210 -182.5 -217 Q-197 -224 -212 -231 Q-228 -237 -244 -241.5 Q-260 -246 -277 -242 Q-282 -241 -284.5 -236.5 Q-287 -232 -285 -227 Q-283 -222 -279 -219.5 Q-275 -217 -270 -218 Q-253 -222 -236.5 -215 Q-220 -208 -206 -201 Q-190 -193 -175 -187 L-143 -128 Q-123 -90 -102.5 -52 Q-82 -14 -60 24 Q-35 69 -9.5 112.5 Q16 156 42 201 Q68 245 94.5 288 Q121 331 148 374 Q176 417 203.5 459.5 Q231 502 260 545 Q282 578 304.5 611 Q327 644 350 677 L349 677 Q335 672 320.5 667 Q306 662 292 657 Q278 653 263 650.5 Q248 648 233 649 Q225 650 218 651.5 Q211 653 206 659 Q201 665 201.5 673.5 Q202 682 211 686 Q222 691 228 682 Q229 680 229 675 Q233 674 240 674 Q252 674 266 677 Q292 682 317 691.5 Q342 701 367 709 Q369 710 371 710.5 Q373 711 375 712 Q375 712 376 714 Q379 718 384 719.5 Q389 721 394 718 Q414 724 433 730 Q452 736 472 741 Z " />
<glyph glyph-name="J" unicode="J" horiz-adv-x="807" d="M881 717 Q897 707 904.5 690.5 Q912 674 911 655 Q910 636 903 618.5 Q896 601 888 584 Q880 567 870.5 550.5 Q861 534 850 518 Q829 486 805.5 456 Q782 426 756 397 Q729 365 700.5 335.5 Q672 306 643 276 Q614 247 585.5 217 Q557 187 528 158 Q470 101 410 46 Q350 -9 287 -60 Q256 -86 224 -111 Q192 -136 159 -161 Q143 -172 128 -183.5 Q113 -195 96 -206 Q85 -213 73.5 -218 Q62 -223 51 -227 Q28 -235 4.5 -236 Q-19 -237 -41 -230 Q-64 -224 -81.5 -209.5 Q-99 -195 -107 -173 Q-118 -147 -115.5 -117.5 Q-113 -88 -103 -62 Q-90 -29 -69 0.5 Q-48 30 -21 54 Q-8 65 5.5 74.5 Q19 84 35 92 Q52 100 69.5 106 Q87 112 105 117 Q143 127 183 129.5 Q223 132 263 128 Q275 126 275 116 Q275 111 271.5 106.5 Q268 102 263 103 Q244 105 226 105.5 Q208 106 189 105 Q170 103 151.5 101 Q133 99 115 94 Q79 86 49 72 Q20 58 -4.5 35.5 Q-29 13 -48 -13 Q-66 -39 -79 -69 Q-90 -99 -91 -126 Q-91 -134 -90 -139 L-90 -141 L-90 -143 Q-89 -145 -89 -148 Q-88 -151 -86 -159 Q-85 -160 -85 -161 Q-85 -162 -84 -163 Q-84 -165 -84 -165 Q-83 -165 -83 -166 Q-81 -168 -80.5 -171 Q-80 -174 -78 -176 Q-76 -178 -75 -180 Q-75 -180 -74 -182 Q-72 -184 -70.5 -185.5 Q-69 -187 -67 -189 Q-65 -191 -63 -192 L-62 -193 Q-53 -199 -45 -203 L-44 -203 Q-43 -203 -43 -203.5 Q-43 -204 -42 -204 Q-40 -204 -39.5 -204.5 Q-39 -205 -37 -205 Q-35 -206 -32.5 -206.5 Q-30 -207 -28 -208 Q-27 -208 -25.5 -208.5 Q-24 -209 -23 -209 Q-21 -209 -20 -210 L-19 -210 L-17 -210 L-15 -210 L-9 -210 Q1 -212 12 -210 L15 -210 Q15 -210 17 -209 L21 -209 Q29 -207 31 -207 Q45 -204 53 -200 Q54 -199 55 -199 Q56 -199 57 -198 Q58 -198 62 -196 Q64 -194 67 -193.5 Q70 -193 72 -191 Q79 -187 84.5 -183.5 Q90 -180 96 -176 Q161 -131 222 -82 Q283 -33 342 19 Q402 71 458 125 Q514 179 570 236 Q625 293 679.5 349.5 Q734 406 783 468 Q806 497 826.5 527.5 Q847 558 863 590 Q871 605 878 621.5 Q885 638 886 654 Q888 669 881.5 681 Q875 693 861 699 Q856 702 848 704 Q844 705 841.5 705 Q839 705 836 706 Q826 707 816.5 706.5 Q807 706 797 705 Q777 703 758 699.5 Q739 696 719 691 Q678 682 638.5 671 Q599 660 561 647 Q484 621 411 588 Q338 555 268 515 Q196 474 130 428 Q121 422 112 416 Q103 410 95 403 Q114 414 132 424.5 Q150 435 167 448 Q172 451 177 449.5 Q182 448 185 444 Q189 434 180 427 Q139 397 94.5 375.5 Q50 354 4 334 Q-1 332 -6 332.5 Q-11 333 -13 338 Q-16 343 -15 348 Q-14 353 -9 355 Q-5 357 -2.5 359.5 Q0 362 3 364 Q6 367 9.5 370 Q13 373 17 376 Q25 383 33.5 389 Q42 395 50 402 Q117 453 188 497 Q259 541 334 579 Q409 617 487 647 Q565 677 646 699 Q667 704 687.5 709 Q708 714 729 719 Q750 724 771.5 727 Q793 730 815 731 Q832 732 849.5 729.5 Q867 727 881 717 Z M57 -198 Q59 -197 58.5 -197.5 Q58 -198 57 -198 Z " />
<glyph glyph-name="K" unicode="K" horiz-adv-x="610" d="M1013 739 Q1021 742 1026 734.5 Q1031 727 1027 720 Q1019 708 1013 697 Q1008 689 999 692 Q990 695 989 703 Q981 699 972 696 Q924 676 877 656 Q830 636 782 615 Q734 594 688 571.5 Q642 549 595 526 Q548 503 502.5 479 Q457 455 411 430 Q366 404 321.5 378 Q277 352 232 326 Q194 303 156 278.5 Q118 254 86 224 Q56 195 36 159.5 Q16 124 15 82 Q13 40 29.5 0 Q46 -40 74 -72 Q104 -105 143 -128 Q182 -151 224 -165 Q272 -181 320.5 -188.5 Q369 -196 419 -197 Q470 -198 520.5 -191 Q571 -184 621 -169 Q627 -168 631 -171 Q635 -174 636 -178.5 Q637 -183 635.5 -187.5 Q634 -192 628 -193 Q615 -197 603 -200.5 Q591 -204 578 -206 Q472 -229 366 -220 Q316 -215 267.5 -203.5 Q219 -192 173 -171 Q130 -152 93 -123 Q56 -94 30 -55 Q9 -23 -1.5 15.5 Q-12 54 -9 92 Q-30 59 -50.5 26 Q-71 -7 -91 -40 L-205 -226 Q-208 -231 -213 -232 Q-218 -233 -222 -230.5 Q-226 -228 -228 -223.5 Q-230 -219 -227 -214 Q-220 -201 -213.5 -188 Q-207 -175 -200 -162 Q-177 -117 -153.5 -71.5 Q-130 -26 -107 19 Q-100 30 -89 23 Q-85 21 -85 18 Q-59 60 -34 100 Q-9 140 16 182 Q45 229 73 275 Q101 321 130 367 Q158 412 185 457 Q212 502 238 548 Q258 583 278 619 Q298 655 316 691 Q250 644 197 579 Q194 575 188.5 575 Q183 575 180 579 Q171 587 180 596 Q212 638 251 672 Q290 706 335 734 Q340 736 347.5 738.5 Q355 741 358 733 Q360 726 356.5 717 Q353 708 351 706 L314 634 Q298 603 281 572.5 Q264 542 246 512 Q193 422 138 332 Q127 315 117.5 299 Q108 283 97 266 Q133 295 172 319 Q211 343 250 366 Q296 393 341.5 419 Q387 445 435 471 Q482 496 528 520.5 Q574 545 622 568 Q670 591 718 613.5 Q766 636 815 657 Q865 679 914 699 Q963 719 1013 739 Z " />
<glyph glyph-name="L" unicode="L" horiz-adv-x="363" d="M810 -71 Q811 -76 808.5 -80.5 Q806 -85 801 -86 Q795 -88 788.5 -88.5 Q782 -89 775 -91 Q724 -100 673 -108.5 Q622 -117 571 -125 Q520 -133 469 -140 Q418 -147 366 -155 Q315 -162 263.5 -168.5 Q212 -175 161 -181 Q110 -187 59.5 -192.5 Q9 -198 -42 -203 Q-66 -206 -90 -208.5 Q-114 -211 -138 -213 Q-156 -228 -176 -235 Q-186 -239 -197.5 -240.5 Q-209 -242 -220 -240 Q-231 -238 -240 -232.5 Q-249 -227 -255 -216 Q-259 -209 -255.5 -203.5 Q-252 -198 -244 -197 Q-220 -195 -196 -193 Q-172 -191 -148 -189 Q-129 -172 -115.5 -152 Q-102 -132 -89 -111 Q-57 -57 -26 -4.5 Q5 48 37 102 Q69 156 101.5 208.5 Q134 261 166 314 Q199 368 232 420.5 Q265 473 299 526 Q318 556 337 586 Q356 616 375 645 Q368 637 361.5 628.5 Q355 620 348 611 Q345 607 340.5 605.5 Q336 604 331 607 Q326 609 324.5 614 Q323 619 326 624 Q375 690 437 740 Q445 748 453 741 Q462 734 456 725 Q451 718 447.5 711.5 Q444 705 439 698 Q404 644 369.5 590 Q335 536 300 482 Q266 428 232.5 373.5 Q199 319 165 264 Q131 210 98 155.5 Q65 101 32 46 Q15 18 -0.5 -9 Q-16 -36 -33 -64 Q-48 -90 -62.5 -115.5 Q-77 -141 -94 -165 Q-98 -170 -101.5 -175 Q-105 -180 -110 -185 Q-87 -183 -64 -180.5 Q-41 -178 -18 -176 Q84 -165 184 -153 Q284 -141 385 -127 Q488 -113 589.5 -96.5 Q691 -80 794 -62 Q807 -60 810 -71 Z " />
<glyph glyph-name="M" unicode="M" horiz-adv-x="680" d="M895 739 Q905 745 911.5 736.5 Q918 728 910 720 Q905 715 900 710 Q895 705 890 700 Q848 661 808 620 Q768 579 730 536 Q692 494 655.5 451 Q619 408 584 363 Q550 318 517.5 273 Q485 228 454 180 Q391 85 338 -11 Q313 -57 289.5 -103 Q266 -149 247 -198 Q252 -200 254 -205 Q256 -210 252 -215 Q245 -229 226 -236 Q220 -238 214.5 -233 Q209 -228 211 -221 Q214 -214 216.5 -207 Q219 -200 222 -193 Q245 -136 272 -82.5 Q299 -29 329 23 Q357 73 386 120 Q415 167 447 215 Q479 263 513 309 Q547 355 583 400 Q653 490 730 574 Q769 616 810 657 Q762 625 717 591 Q680 563 645 534 Q610 505 575 474 Q539 442 504.5 409.5 Q470 377 435 343 Q400 308 367 273 Q334 238 301 202 Q267 167 234 129 Q222 115 210 102 Q198 89 187 75 Q182 69 177.5 63.5 Q173 58 168 53 Q163 48 157 44 Q151 40 143 39 L142 39 L141 39 Q135 41 131 43 Q129 45 128 48.5 Q127 52 126 55 Q125 67 129.5 79 Q134 91 139 102 Q145 118 153 133 Q161 148 169 163 Q189 196 210 227.5 Q231 259 252 291 Q266 312 280 332.5 Q294 353 308 373 Q336 412 364.5 450 Q393 488 423 525 Q447 556 472 583 Q455 571 439.5 558 Q424 545 408 531 Q342 473 282 409 Q222 345 164 278 Q103 208 43 138.5 Q-17 69 -82 3 Q-90 -5 -98.5 2 Q-107 9 -102 18 Q-89 44 -76 69 Q-63 94 -49 119 Q-24 164 2 208 Q28 252 55 296 Q70 321 85.5 345 Q101 369 117 393 Q115 391 114 389 Q113 387 111 385 Q108 381 103.5 379.5 Q99 378 94 381 Q90 383 88 388 Q86 393 89 398 Q124 444 173 473 Q181 478 188.5 471 Q196 464 190 456 Q173 433 157 408.5 Q141 384 125 360 Q97 317 70 273.5 Q43 230 17 185 Q3 160 -11 135 Q-25 110 -39 84 Q-19 107 1 129 Q21 151 41 174 Q101 243 160 311.5 Q219 380 283 446 Q344 509 409.5 565.5 Q475 622 550 669 Q559 674 566 665.5 Q573 657 565 649 Q557 641 549.5 632.5 Q542 624 534 616 Q471 547 415 474.5 Q359 402 306 325 Q294 309 283 293 Q272 277 261 260 Q237 225 217 192 Q200 163 183.5 132.5 Q167 102 161 82 Q166 87 169.5 92.5 Q173 98 177 103 Q182 110 188 116 Q194 122 199 128 Q231 164 264 199.5 Q297 235 330 270 Q395 339 461.5 403.5 Q528 468 600 529 Q669 588 742.5 641 Q816 694 895 739 Z " />
<glyph glyph-name="N" unicode="N" horiz-adv-x="523" d="M624 735 Q632 740 639 733 Q646 726 641 718 Q637 712 633.5 706.5 Q630 701 626 695 Q597 650 568.5 605.5 Q540 561 512 516 Q484 471 457 425.5 Q430 380 404 334 Q377 288 351.5 242.5 Q326 197 300 150 Q275 103 250.5 56.5 Q226 10 203 -38 Q183 -77 163.5 -117 Q144 -157 125 -197 Q130 -195 134.5 -198 Q139 -201 140 -206 Q143 -217 132 -221 Q124 -224 117.5 -227 Q111 -230 103 -233 Q95 -235 90 -228 Q86 -222 89 -214 Q92 -208 95 -202 Q98 -196 100 -190 Q145 -96 193 -1 Q217 46 241.5 92.5 Q266 139 291 185 Q317 232 343 278 Q369 324 395 370 Q422 416 449 461 Q476 506 505 551 Q525 583 545 614.5 Q565 646 585 678 Q547 652 511.5 623 Q476 594 441 563 Q399 526 360.5 488 Q322 450 285 408 Q247 368 212 326 Q177 284 142 241 Q108 198 75 154.5 Q42 111 10 66 Q-22 21 -53.5 -24 Q-85 -69 -117 -115 Q-122 -123 -132 -120 Q-143 -114 -140 -105 Q-123 -63 -105 -22 Q-87 19 -67 61 Q-32 133 6.5 203 Q45 273 88 342 Q123 399 161 454 Q199 509 240 563 Q188 532 145 494 Q134 487 127 494 Q118 503 127 512 Q195 572 278 610 Q288 615 294 607 Q300 599 293 591 Q265 556 238.5 519.5 Q212 483 186 446 Q140 380 98.5 312 Q57 244 19 173 Q-4 130 -26.5 86 Q-49 42 -69 -3 Q-50 23 -32 49 Q-14 75 6 101 Q38 146 72 190.5 Q106 235 141 279 Q176 323 212 364 Q248 405 286 447 Q324 487 364 525.5 Q404 564 446 600 Q531 675 624 735 Z " />
<glyph glyph-name="O" unicode="O" horiz-adv-x="690" d="M728 661 Q730 629 722 599 Q712 560 695 520 Q663 437 619 361 Q575 285 524 213 Q419 66 292 -57 Q260 -89 225.5 -118.5 Q191 -148 156 -177 Q141 -189 125 -201 Q109 -213 91.5 -222 Q74 -231 55.5 -236 Q37 -241 17 -238 Q-3 -236 -20.5 -224 Q-38 -212 -50 -195 Q-61 -179 -67 -160.5 Q-73 -142 -75 -122 Q-77 -99 -76 -76.5 Q-75 -54 -72 -31 Q-69 -8 -64.5 15.5 Q-60 39 -55 62 Q-35 149 -1 229.5 Q33 310 81 385 Q104 422 130 456 Q156 490 185 522 Q202 542 219.5 561 Q237 580 257 597 Q277 615 298.5 631 Q320 647 346 655 Q371 663 392 656 Q405 651 414 641 Q423 631 429 620 Q433 611 428 605 Q456 631 485 656 Q514 681 546 701 Q563 711 580.5 720 Q598 729 617 735 Q631 739 644.5 740 Q658 741 672 737 Q696 731 712 709 Q720 698 723 686 Q726 674 728 661 Z M695 596 Q700 612 702 625 Q704 638 703 654 L703 662 Q702 662 702 664 L702 666 Q701 668 701 671 Q701 674 700 677 Q699 678 699 679 Q699 680 698 682 Q698 683 697.5 683.5 Q697 684 697 685 Q695 687 694.5 689.5 Q694 692 692 694 Q692 695 690 697 Q690 697 689 698 Q689 699 687 701 L684 704 Q683 704 683 704.5 Q683 705 682 705 L682 706 Q680 708 677.5 708.5 Q675 709 673 711 Q672 711 671.5 711.5 Q671 712 670 712 Q669 712 668 712.5 Q667 713 666 713 Q664 714 659 714 Q658 714 657.5 714.5 Q657 715 656 715 L645 715 Q643 714 640 714 Q638 714 636.5 713.5 Q635 713 633 713 Q630 712 626.5 711.5 Q623 711 620 709 Q603 704 586.5 695.5 Q570 687 554 676 Q537 665 521 653 Q505 641 490 628 Q474 614 459 600 Q444 586 430 572 Q416 558 402 543.5 Q388 529 374 514 Q320 454 277 386 Q234 318 205 243 Q201 232 190 234 Q185 236 182 240.5 Q179 245 181 250 Q196 287 214 325 Q233 362 255 397 Q277 432 302 466 Q328 500 356 531.5 Q384 563 414 592 Q417 595 420 597.5 Q423 600 426 603 Q425 603 425 602 Q420 600 415 601 Q410 602 408 607 Q406 610 404.5 613 Q403 616 401 618 L400 620 L399 620 Q398 622 395 625 Q394 625 393 626 Q392 627 392 627 Q390 629 390 629 Q386 631 385 631 L385 632 L384 632 L383 632 Q382 633 381 633 Q380 633 378 634 L376 634 L367 634 L364 634 L365 634 L364 634 Q362 633 359 633 Q357 632 354 631.5 Q351 631 349 630 Q347 629 346 629 Q345 629 344 628 Q344 628 342 627 Q341 626 340 626 Q336 625 330 621 Q324 618 318.5 614.5 Q313 611 308 607 Q306 606 303 603 Q302 602 301.5 602 Q301 602 300 601 L299 601 L299 600 Q297 598 294 596 Q291 594 289 592 Q284 588 279 584 Q274 580 269 575 Q261 567 253 558.5 Q245 550 237 542 Q185 488 140.5 427.5 Q96 367 61 301 Q-23 146 -47 -27 Q-50 -49 -51.5 -71 Q-53 -93 -51 -115 Q-49 -132 -44.5 -149 Q-40 -166 -30 -180 Q-25 -187 -19.5 -193 Q-14 -199 -6 -204 Q-2 -206 2 -208 Q6 -210 11 -212 Q21 -214 25 -215 Q42 -216 58 -210 Q74 -204 88 -195 Q104 -186 118.5 -174.5 Q133 -163 147 -152 Q164 -138 181 -123.5 Q198 -109 215 -94 Q280 -37 340 28 Q399 90 450.5 156.5 Q502 223 549 295 Q572 330 593 367 Q614 404 633 442 Q652 479 668 517.5 Q684 556 695 596 Z M385 631 L385 632 L384 632 Q383 632 385 631 Z " />
<glyph glyph-name="P" unicode="P" horiz-adv-x="783" d="M857 635 Q862 597 851 561 Q840 525 823 492 Q792 432 746 378 Q701 324 649.5 278.5 Q598 233 543 191 Q481 145 418 102.5 Q355 60 288 22 Q255 2 222 -14 Q205 -23 187.5 -31.5 Q170 -40 152 -46 Q134 -52 115 -54 Q96 -56 78 -51 Q69 -49 60.5 -45 Q52 -41 47 -34 Q34 -19 37 2 Q39 11 43 19 Q47 27 52 35 Q61 51 74 66 Q85 80 97.5 93 Q110 106 124 118 Q176 165 240 202 Q271 220 303.5 234.5 Q336 249 370 260 Q385 265 402 269.5 Q419 274 436.5 275 Q454 276 470.5 272.5 Q487 269 501 259 Q512 251 506 242 Q504 238 498.5 236.5 Q493 235 489 238 Q477 246 463.5 248.5 Q450 251 435 250 Q419 248 403.5 244 Q388 240 373 235 Q343 225 312 211 Q252 185 195 143 Q167 123 141.5 100.5 Q116 78 94 52 Q89 45 84 38.5 Q79 32 74 24 Q70 18 66.5 11 Q63 4 61 -3 Q60 -15 72 -22 Q85 -29 101 -29 Q118 -30 134.5 -25 Q151 -20 166 -14 Q183 -6 199 2.5 Q215 11 232 19 Q264 36 296 55 Q328 74 359 94 Q481 170 589 259 Q640 301 686.5 348 Q733 395 769 450 Q788 478 804.5 508.5 Q821 539 829 572 Q837 601 832.5 633 Q828 665 804 687 Q794 697 782 702.5 Q770 708 756 712 Q728 719 696 719 Q658 719 620.5 712.5 Q583 706 546 696 Q510 686 475 675 Q440 664 405 650 Q379 608 353.5 567 Q328 526 302 484 Q274 439 246.5 394 Q219 349 192 304 Q164 259 136.5 214 Q109 169 82 124 Q54 78 27 33 Q0 -12 -27 -58 Q-54 -104 -81.5 -149 Q-109 -194 -135 -240 Q-138 -245 -143 -245.5 Q-148 -246 -152 -244 Q-156 -242 -158 -237 Q-160 -232 -157 -227 Q-153 -222 -150 -216 Q-147 -210 -143 -204 Q-117 -159 -89.5 -113.5 Q-62 -68 -35 -23 Q-8 23 19 68 Q46 113 74 158 Q101 203 128.5 248.5 Q156 294 183 339 Q211 384 238.5 429 Q266 474 295 519 Q312 548 330 576.5 Q348 605 366 634 L288 598 Q226 566 167.5 530 Q109 494 54 452 Q28 431 1.5 409.5 Q-25 388 -48 364 Q-71 341 -90 315.5 Q-109 290 -120 259 Q-122 254 -126.5 251.5 Q-131 249 -136 251 Q-141 252 -143.5 256.5 Q-146 261 -144 266 Q-133 298 -114 325 Q-94 354 -69 378.5 Q-44 403 -18 425 Q10 449 39 471 Q68 493 98 514 Q216 596 347 653 Q358 657 368 661 Q378 665 388 670 Q393 677 397 684 Q401 691 406 698 Q409 703 414 703.5 Q419 704 423 702 Q427 700 429 695.5 Q431 691 428 686 Q427 685 427 684 Q441 689 454 693.5 Q467 698 481 703 Q519 715 557.5 725 Q596 735 635 740 Q670 745 706 744.5 Q742 744 775 732 Q790 727 803.5 718.5 Q817 710 828 698 Q852 672 857 635 Z " />
<glyph glyph-name="Q" unicode="Q" horiz-adv-x="667" d="M656 579 Q664 562 666 544.5 Q668 527 665 509 Q662 491 656.5 473.5 Q651 456 645 439 Q640 422 633 406.5 Q626 391 619 375 Q591 314 551 256 Q511 197 465 144 Q419 91 368 42 Q347 22 326 2.5 Q305 -17 282 -36 L288 -36 Q301 -35 316 -36 Q331 -37 339 -51 Q346 -62 341 -75.5 Q336 -89 323 -92 Q317 -94 313 -91 Q309 -88 308 -83.5 Q307 -79 308.5 -74.5 Q310 -70 316 -68 L317 -68 L317 -67 Q317 -66 318 -66 L317 -66 Q317 -66 318 -65 L318 -64 Q317 -64 317 -63 Q317 -63 315 -62 Q311 -60 304 -60 Q290 -60 275 -61 Q260 -62 246 -64 L245 -64 Q216 -84 186 -100.5 Q156 -117 124 -128 Q88 -140 52 -143 Q41 -144 30.5 -144 Q20 -144 9 -142 Q-31 -159 -68 -181 Q-105 -203 -135 -235 Q-139 -240 -144 -239.5 Q-149 -239 -152 -235.5 Q-155 -232 -155.5 -227.5 Q-156 -223 -152 -218 Q-131 -195 -106 -177 Q-81 -159 -54 -144 Q-47 -140 -40.5 -137 Q-34 -134 -26 -130 Q-56 -115 -68 -83 Q-80 -51 -78 -19 Q-77 1 -74 20 Q-71 39 -66 58 Q-63 75 -59 90.5 Q-55 106 -50 121 Q-39 153 -27 184.5 Q-15 216 -1 247 Q28 309 64 366.5 Q100 424 142 477 Q187 533 236.5 582.5 Q286 632 342 675 Q357 686 372.5 696.5 Q388 707 404 717 Q421 726 439 735 Q457 744 477 741 Q485 739 492.5 735.5 Q500 732 505 724 Q511 716 510.5 706 Q510 696 508 686 Q503 670 496.5 654.5 Q490 639 482 623 Q463 584 442 550 Q449 556 455.5 561.5 Q462 567 470 572 Q500 593 531 603 Q548 609 566.5 613 Q585 617 602 615 Q640 610 656 579 Z M72 -115 Q98 -111 123 -102 Q148 -93 171 -81 Q145 -88 120.5 -97 Q96 -106 72 -115 Z M642 527 Q642 535 641.5 542 Q641 549 638 557 Q630 584 604 590 Q589 593 572 589 Q555 585 541 580 Q511 570 484.5 552 Q458 534 437 510 Q434 506 428.5 506 Q423 506 419 510 Q418 511 417.5 512 Q417 513 416 514 Q394 485 368.5 458.5 Q343 432 314 409 Q307 402 299 407 Q296 409 294 413 Q292 417 294 421 Q315 481 356 531 Q359 536 364.5 535.5 Q370 535 373 531 Q382 523 373 514 Q355 490 343 468 Q343 468 344 469 Q389 514 424 568.5 Q459 623 480 683 Q482 688 483 691.5 Q484 695 485 700 Q486 702 486 707 Q486 709 485.5 709 Q485 709 485 710 L482 713 Q483 713 481 714 Q479 715 480 715 L478 715 Q474 717 467 717 Q459 716 451.5 712.5 Q444 709 436 705 Q428 701 420 696.5 Q412 692 404 687 Q375 669 347.5 647 Q320 625 294 602 Q245 558 202 509.5 Q159 461 121 407 Q84 354 53 298 Q22 242 -2 182 Q-13 153 -22.5 123 Q-32 93 -40 63 Q-48 31 -53 -4 Q-58 -39 -46 -71 Q-37 -96 -13 -110 Q-8 -112 -3.5 -113.5 Q1 -115 6 -116 Q17 -111 27.5 -107 Q38 -103 49 -98 Q107 -74 167 -56 Q184 -51 200.5 -47.5 Q217 -44 234 -41 Q251 -29 266 -16.5 Q281 -4 296 9 Q322 32 346.5 55.5 Q371 79 395 104 Q441 152 482 204 Q523 256 558 313 Q590 367 615 429 Q621 445 626.5 460.5 Q632 476 636 493 Q640 509 642 527 Z " />
<glyph glyph-name="R" unicode="R" horiz-adv-x="844" d="M949 649 Q956 629 955 608.5 Q954 588 947.5 568 Q941 548 931 529.5 Q921 511 909 495 Q881 457 847.5 425 Q814 393 778 364 Q740 334 701.5 305.5 Q663 277 623 248 Q542 191 459.5 140 Q377 89 291 41 Q264 26 236.5 10.5 Q209 -5 180 -19 Q183 -29 187 -35 Q203 -73 226 -109.5 Q249 -146 283 -171 Q318 -195 359.5 -203.5 Q401 -212 441 -198 Q447 -196 450.5 -199 Q454 -202 455.5 -206.5 Q457 -211 455.5 -215.5 Q454 -220 448 -222 Q428 -229 407.5 -230.5 Q387 -232 367 -230 Q325 -225 289 -204 Q253 -183 226 -151 Q198 -117 181 -81 Q174 -69 169 -56 Q164 -43 158 -30 Q148 -35 138.5 -39.5 Q129 -44 119 -49 Q74 -69 27 -81 Q16 -84 4 -86.5 Q-8 -89 -19 -90 Q-31 -91 -38.5 -83.5 Q-46 -76 -45 -64 Q-44 -44 -29.5 -27.5 Q-15 -11 0 0 Q17 12 36 21.5 Q55 31 75 39 Q95 47 114.5 44.5 Q134 42 150 27 Q161 17 169 3 Q181 10 193 16 Q205 22 217 29 Q301 74 382 122 Q463 171 541.5 223 Q620 275 696 332 Q732 359 768 388 Q804 417 836 449 Q865 478 890.5 511.5 Q916 545 926 586 Q931 603 930 621 Q929 639 920 654 Q910 671 893 681.5 Q876 692 858 697 Q814 712 767.5 712 Q721 712 675 705 Q591 693 509.5 671 Q428 649 348 620 Q345 618 341.5 617.5 Q338 617 335 615 Q309 577 284 539 Q259 501 233 463 Q205 421 178 381 Q151 341 124 300 Q98 260 72 220.5 Q46 181 20 139 Q-5 99 -28.5 59 Q-52 19 -75 -23 Q-97 -65 -117.5 -106 Q-138 -147 -156 -190 Q-158 -195 -163.5 -196 Q-169 -197 -173 -195 Q-182 -189 -178 -178 Q-175 -173 -172.5 -167.5 Q-170 -162 -168 -157 Q-149 -114 -128.5 -73 Q-108 -32 -85 10 Q-62 52 -38 92 Q-14 132 11 172 Q37 213 63 252.5 Q89 292 116 332 Q143 374 170 414 Q197 454 225 496 Q242 522 259.5 547.5 Q277 573 294 599 Q230 573 168 543 Q106 513 46 478 Q-99 397 -233 290 Q-366 187 -483 67 Q-487 63 -492 63.5 Q-497 64 -500.5 67.5 Q-504 71 -504.5 75.5 Q-505 80 -501 85 Q-486 100 -471 114.5 Q-456 129 -441 144 Q-314 265 -173 367 Q-102 418 -28 463.5 Q46 509 124 549 Q172 573 220 594.5 Q268 616 319 635 L337 662 Q345 673 354 667 Q365 661 358 650 Q380 658 402 665 Q424 672 446 679 Q488 691 530 701.5 Q572 712 615 720 Q663 729 711 734.5 Q759 740 807 734 Q828 731 850 726 Q872 721 891.5 711 Q911 701 926 686 Q941 671 949 649 Z M49 -49 Q75 -41 99 -30.5 Q123 -20 146 -8 Q138 4 127.5 13 Q117 22 102 20 Q91 19 81 15 Q71 11 62 6 Q43 -2 27 -12 Q10 -23 -2 -35 Q-8 -40 -13 -47.5 Q-18 -55 -20 -63 Q-20 -64 -21 -65 L-17 -65 Q-12 -64 -6.5 -63 Q-1 -62 4 -61 Q28 -57 49 -49 Z " />
<glyph glyph-name="S" unicode="S" horiz-adv-x="488" d="M719 737 Q733 729 733 711 Q732 703 728.5 695.5 Q725 688 720 682 Q710 670 697.5 661.5 Q685 653 674 643 Q660 630 646 617.5 Q632 605 618 592 Q564 541 513.5 487 Q463 433 416 374 Q370 317 328 258 Q286 199 247 137 Q244 132 239 131.5 Q234 131 230 133 Q226 135 224.5 139.5 Q223 144 226 149 Q235 164 244.5 179 Q254 194 264 209 Q345 329 438 440 Q486 496 537.5 548.5 Q589 601 645 650 Q657 662 671 673 Q677 678 682.5 681.5 Q688 685 693 690 Q704 700 707 709 L708 710 L708 711 L708 713 L707 714 L707 715 Q707 716 706 716 Q705 716 705 717 L704 717 L702 717 Q700 718 699 717 L697 717 Q694 717 693 716 Q683 714 676 712 Q668 710 659.5 707 Q651 704 643 701 Q627 695 611.5 688 Q596 681 580 673 Q547 657 515 639.5 Q483 622 451 603 Q420 584 390 565 Q360 546 330 526 Q210 447 106 352 Q79 327 53.5 301.5 Q28 276 2 250 Q-22 224 -45.5 198 Q-69 172 -91 145 Q-113 119 -131.5 92 Q-150 65 -164 35 Q-168 27 -171.5 20 Q-175 13 -177 5 Q-180 -3 -181 -9.5 Q-182 -16 -180 -24 Q-180 -25 -179 -26 Q-179 -26 -178 -27 L-175 -30 L-176 -30 L-175 -30 Q-175 -31 -175 -31 L-174 -31 Q-173 -32 -169 -34 L-168 -34 L-159 -37 Q-157 -38 -154 -38 Q-152 -38 -151 -39 Q-153 -38 -152 -38.5 Q-151 -39 -150 -39 Q-144 -39 -140 -40 Q-135 -40 -129.5 -40 Q-124 -40 -119 -39 Q-114 -39 -109.5 -38.5 Q-105 -38 -100 -37 L-97 -37 Q-94 -37 -93 -36 Q-91 -36 -88.5 -35.5 Q-86 -35 -84 -35 Q-49 -28 -15 -16 Q19 -4 54 5 Q89 15 124 22.5 Q159 30 194 37 Q207 40 218 39 Q223 43 227.5 46.5 Q232 50 237 54 Q242 57 247 55.5 Q252 54 255 49 Q257 44 255.5 39.5 Q254 35 250 32 Q246 30 245 28 Q247 26 248 24 Q254 16 253.5 7.5 Q253 -1 249 -9 Q245 -17 239 -24 Q233 -31 227 -37 Q170 -88 113.5 -137.5 Q57 -187 0 -238 Q-5 -243 -10 -241 Q-14 -241 -16 -239 Q-20 -235 -21 -232 Q-23 -226 -20 -223 Q-7 -206 5 -189.5 Q17 -173 31 -156 Q66 -112 103 -70 Q140 -28 182 9 Q172 7 168 6 Q148 2 129.5 -2 Q111 -6 92 -11 Q73 -16 55 -21 Q37 -26 19 -31 Q2 -37 -15.5 -42.5 Q-33 -48 -50 -53 Q-73 -58 -97 -62 Q-121 -66 -144 -64 Q-155 -63 -166 -61 Q-177 -59 -186 -53 Q-199 -45 -203.5 -32 Q-208 -19 -206 -5 Q-203 11 -195 27 L-180 60 Q-164 90 -144 117 Q-124 146 -101 172.5 Q-78 199 -55 225 Q-5 280 47.5 331 Q100 382 157 429 Q213 475 272 516.5 Q331 558 393 596 Q425 616 456.5 635 Q488 654 521 671 L587 704 Q604 712 620.5 719 Q637 726 654 732 Q662 734 671 736.5 Q680 739 689 741 Q697 743 704.5 742.5 Q712 742 719 737 Z M225 12 Q205 -3 190 -18 Q138 -66 90 -123 Q88 -125 86.5 -127 Q85 -129 83 -131 Q100 -116 117.5 -100.5 Q135 -85 152 -70 Q166 -57 181 -44 Q196 -31 210 -18 Q215 -13 220.5 -8 Q226 -3 228 3 Q229 8 226 11 L226 12 L225 12 Z " />
<glyph glyph-name="T" unicode="T" horiz-adv-x="261" d="M921 706 Q926 704 929 699.5 Q932 695 930 690 Q928 685 923.5 682 Q919 679 914 681 Q907 684 900.5 685.5 Q894 687 886 689 Q871 691 856 691 Q841 691 826 690 Q793 690 760 687 Q727 685 694 682.5 Q661 680 628 676 Q499 662 373 640 Q368 632 362.5 625.5 Q357 619 351 611 Q335 589 319 567.5 Q303 546 286 523 Q254 478 223 433.5 Q192 389 162 343 Q132 296 103 249.5 Q74 203 46 155 Q18 107 -8.5 59.5 Q-35 12 -60 -37 Q-73 -61 -85.5 -85.5 Q-98 -110 -110 -135 Q-116 -147 -122 -159.5 Q-128 -172 -134 -184 Q-141 -198 -146 -215 Q-141 -218 -139 -225.5 Q-137 -233 -145 -237 Q-148 -239 -150.5 -240 Q-153 -241 -156 -243 Q-162 -246 -169 -243 Q-176 -240 -175 -233 Q-174 -219 -169 -205 Q-164 -191 -158.5 -178.5 Q-153 -166 -147 -154 Q-141 -141 -135 -129 Q-129 -117 -123 -104 Q-110 -79 -97.5 -54.5 Q-85 -30 -72 -6 Q-46 44 -19.5 92 Q7 140 36 188 Q64 236 93.5 282.5 Q123 329 153 375 Q184 422 215.5 467 Q247 512 280 557 Q294 577 308.5 595.5 Q323 614 338 634 Q281 623 224 612 Q167 601 110 587 Q47 573 -16 557 Q-79 541 -142 522 Q-173 512 -202.5 502 Q-232 492 -261 478 Q-282 469 -303 458 Q-324 447 -340 430 Q-335 430 -330 431 Q-325 432 -320 433 Q-309 435 -298.5 436 Q-288 437 -277 438 Q-254 442 -232 445 Q-210 448 -187 451 Q-182 451 -177.5 449 Q-173 447 -172 442 Q-170 437 -172.5 432 Q-175 427 -180 426 Q-205 423 -230 419.5 Q-255 416 -280 413 Q-293 411 -305 409.5 Q-317 408 -330 406 Q-341 405 -351.5 406.5 Q-362 408 -370 416 Q-373 418 -373.5 423 Q-374 428 -372 431 Q-367 436 -362.5 441.5 Q-358 447 -353 452 Q-331 472 -304 485.5 Q-277 499 -250 510 Q-220 523 -189 533 Q-158 543 -127 552 Q-63 571 1 587 Q65 603 130 617 Q187 630 244 641.5 Q301 653 359 663 Q361 665 362.5 668 Q364 671 366 673 Q360 673 356 677 Q353 680 352.5 685.5 Q352 691 356 694 Q369 706 381 717.5 Q393 729 406 740 Q414 748 422.5 741.5 Q431 735 426 725 Q423 719 419.5 713 Q416 707 413 701 Q408 693 403 685 Q398 677 392 669 L393 669 Q525 691 661 705 Q728 711 796 714 Q827 716 859.5 716.5 Q892 717 921 706 Z " />
<glyph glyph-name="U" unicode="U" horiz-adv-x="608" d="M700 671 Q705 669 706 664 Q707 659 705 654 Q680 617 657 580 Q634 543 612 505 Q572 437 536 368 Q500 299 468 228 Q452 193 437 157 Q422 121 408 85 Q401 67 394 49 Q387 31 381 12 Q374 -7 369 -26 Q364 -45 362 -65 Q360 -78 350 -78 Q345 -78 340.5 -74 Q336 -70 337 -65 Q339 -42 345 -19.5 Q351 3 359 25 Q367 46 374.5 66.5 Q382 87 390 108 Q448 251 516 383 L501 362 Q460 302 419.5 244 Q379 186 337 127 Q317 98 297.5 70.5 Q278 43 258 15 Q238 -11 217.5 -36.5 Q197 -62 176 -88 Q159 -109 141 -129.5 Q123 -150 103 -169 Q84 -188 62 -204.5 Q40 -221 14 -231 Q-1 -236 -17.5 -238 Q-34 -240 -49 -233 Q-61 -228 -68.5 -217 Q-76 -206 -80 -194 Q-87 -167 -84 -136 Q-83 -119 -80.5 -103 Q-78 -87 -75 -70 Q-69 -43 -61.5 -17 Q-54 9 -46 35 Q-25 100 2 162 Q29 224 61 284 Q93 344 128 401 Q163 458 201 515 Q239 572 277.5 627 Q316 682 355 738 Q358 742 363 743.5 Q368 745 373 742 Q377 740 378.5 735 Q380 730 377 725 Q368 711 358.5 698.5 Q349 686 340 672 Q302 618 264 563.5 Q226 509 190 453 Q154 396 120.5 339 Q87 282 58 222 Q32 170 10.5 117 Q-11 64 -28 8 Q-36 -19 -43 -46 Q-50 -73 -55 -100 Q-56 -102 -56 -104.5 Q-56 -107 -57 -109 L-57 -113 L-57 -114 Q-59 -124 -59 -130 Q-60 -138 -60 -144.5 Q-60 -151 -60 -159 Q-60 -163 -59.5 -166 Q-59 -169 -59 -173 L-59 -174 Q-59 -175 -58.5 -175.5 Q-58 -176 -58 -177 Q-58 -181 -57 -183 Q-56 -185 -55.5 -188 Q-55 -191 -54 -193 L-53 -194 Q-53 -195 -52.5 -195.5 Q-52 -196 -52 -197 Q-51 -198 -50.5 -199 Q-50 -200 -49 -201 L-49 -202 Q-48 -202 -48 -203 Q-46 -204 -45.5 -205 Q-45 -206 -44 -206 L-44 -207 Q-43 -207 -43 -207.5 Q-43 -208 -42 -208 Q-40 -210 -38 -210 Q-37 -210 -37 -211 L-35 -211 Q-33 -212 -32 -212 Q-31 -212 -29 -213 L-26 -213 L-20 -213 Q-17 -213 -16 -212 L-15 -212 Q-13 -212 -11 -211.5 Q-9 -211 -7 -211 Q-2 -209 2 -208 Q6 -207 11 -205 Q13 -204 15.5 -203 Q18 -202 21 -201 Q23 -199 26 -198 Q29 -197 31 -195 Q43 -188 53 -181 Q74 -164 93 -144 Q112 -124 130 -104 Q148 -83 166.5 -61.5 Q185 -40 202 -17 Q244 37 283 92 Q322 147 360 203 Q401 261 441 319 Q481 377 522 435 Q562 493 602 551 Q642 609 683 667 Q686 671 690.5 672.5 Q695 674 700 671 Z " />
<glyph glyph-name="V" unicode="V" horiz-adv-x="483" d="M730 735 Q733 731 733.5 725.5 Q734 720 730 717 Q719 708 708.5 699.5 Q698 691 687 682 Q642 644 600.5 605.5 Q559 567 518 526 Q476 484 437 442.5 Q398 401 359 357 Q320 312 282.5 268 Q245 224 207 179 Q169 134 132.5 88.5 Q96 43 58 -2 Q21 -48 -16 -93 Q-53 -138 -91 -183 Q-100 -194 -109.5 -205 Q-119 -216 -131 -223 Q-135 -225 -138 -226 Q-141 -227 -145 -228 Q-156 -229 -161 -219 Q-168 -208 -166 -194 Q-164 -179 -158.5 -165.5 Q-153 -152 -148 -139 Q-142 -125 -136 -110.5 Q-130 -96 -124 -82 Q-100 -26 -74 27.5 Q-48 81 -19 135 Q10 189 39.5 241 Q69 293 100 345 Q131 398 162 449.5 Q193 501 224 553 Q232 566 239.5 579 Q247 592 255 605 Q263 618 270 630.5 Q277 643 284 657 Q288 663 290.5 669.5 Q293 676 295 682 Q296 686 297 689.5 Q298 693 298 697 L298 704 L297 704 Q293 702 290 701.5 Q287 701 283 699 L253 690 Q247 688 243 691 Q239 694 238 698.5 Q237 703 238.5 707.5 Q240 712 246 714 Q253 716 259.5 718 Q266 720 274 722 Q280 724 287 726.5 Q294 729 301 729 Q309 730 315 725 Q321 720 323 712 Q325 705 324 698 Q323 691 321 684 Q318 670 312 657 Q307 644 300.5 632.5 Q294 621 287 610 Q279 598 272.5 586 Q266 574 258 561 Q229 513 201 465.5 Q173 418 144 370 Q115 322 87.5 274.5 Q60 227 33 179 Q-21 81 -69 -19 Q-80 -44 -91 -68.5 Q-102 -93 -113 -119 Q-118 -132 -123.5 -145 Q-129 -158 -134 -171 Q-136 -177 -138 -182.5 Q-140 -188 -141 -195 L-141 -200 L-132 -191 Q-121 -180 -111.5 -168 Q-102 -156 -91 -144 Q-81 -132 -71 -120 Q-61 -108 -50 -95 Q-30 -71 -10 -46.5 Q10 -22 30 2 Q70 52 110 100.5 Q150 149 191 198 Q231 247 272 294 Q313 341 355 389 Q438 482 527 570 Q572 614 618 655 Q664 696 712 735 Q716 738 721 738.5 Q726 739 730 735 Z " />
<glyph glyph-name="W" unicode="W" horiz-adv-x="883" d="M902 691 Q914 673 918.5 651 Q923 629 922 607 Q921 581 915.5 556.5 Q910 532 902 509 Q894 483 883 457.5 Q872 432 859 408 Q833 359 801.5 313.5 Q770 268 737 224 Q702 178 666 135 Q630 92 591 50 Q572 30 552.5 10 Q533 -10 513 -30 Q493 -50 473 -69 Q453 -88 431 -106 Q411 -123 389 -139.5 Q367 -156 342 -168 Q322 -178 298 -182 Q274 -186 253 -175 Q228 -162 223 -137 Q218 -112 221 -87 Q225 -59 232.5 -31.5 Q240 -4 250 23 Q269 77 293.5 128 Q318 179 346 230 Q373 280 402.5 327.5 Q432 375 464 423 Q480 447 496 471 Q512 495 529 519 Q468 459 411 395 Q373 352 336 308.5 Q299 265 263 220 Q228 175 192.5 130 Q157 85 121 40 Q85 -5 48.5 -49 Q12 -93 -26 -136 Q-36 -147 -45.5 -157.5 Q-55 -168 -65 -179 Q-75 -190 -85 -200 Q-95 -210 -106 -219 Q-117 -230 -130 -237 Q-138 -241 -146 -243 Q-154 -245 -162 -240 Q-174 -233 -174.5 -219 Q-175 -205 -173 -194 Q-167 -164 -154 -135.5 Q-141 -107 -127 -79 Q-113 -51 -97.5 -24 Q-82 3 -67 31 Q-35 85 -2 138 Q31 191 65 244 Q100 298 134 349.5 Q168 401 203 454 Q221 480 238.5 506 Q256 532 273 558 Q290 584 307 610.5 Q324 637 339 664 Q343 672 346 678.5 Q349 685 352 692 Q356 700 357 704 Q357 704 358 706 L357 706 Q356 706 352 704 Q349 703 341 699 Q334 696 327.5 692.5 Q321 689 314 686 Q261 657 215 620 Q211 616 206 615.5 Q201 615 197 620 Q194 623 193.5 628.5 Q193 634 197 637 Q221 656 245 673 Q258 681 270.5 689 Q283 697 297 705 Q304 708 310 711.5 Q316 715 323 718 Q330 721 336.5 724.5 Q343 728 350 730 Q358 732 366 730.5 Q374 729 379 721 Q385 709 380 693 Q374 679 367 665 Q360 651 352 637 Q337 610 320 584 Q303 558 286 532 Q268 506 250.5 479.5 Q233 453 216 427 Q181 374 146.5 322.5 Q112 271 77 217 Q43 164 10.5 111 Q-22 58 -54 3 Q-69 -24 -84 -51 Q-99 -78 -113 -107 Q-120 -121 -126.5 -134.5 Q-133 -148 -138 -162 Q-140 -169 -142.5 -176 Q-145 -183 -147 -190 Q-148 -194 -148.5 -198 Q-149 -202 -150 -206 L-150 -209 L-150 -214 L-150 -215 L-150 -216 Q-150 -216 -149 -218 L-147 -218 Q-141 -215 -135.5 -211 Q-130 -207 -125 -203 Q-114 -193 -104 -183 Q-94 -173 -83 -162 Q-63 -141 -44.5 -119.5 Q-26 -98 -7 -76 Q31 -32 66.5 12 Q102 56 138 101 Q174 146 209.5 191 Q245 236 281 281 Q317 326 354.5 369 Q392 412 431 454 Q469 496 510 535.5 Q551 575 595 611 Q604 618 611 612 Q615 610 616 605 Q617 600 615 596 Q607 585 599.5 574 Q592 563 584 552 Q552 507 521 462.5 Q490 418 460 372 Q431 326 403 279.5 Q375 233 349 184 Q324 136 301.5 86 Q279 36 263 -16 Q259 -30 255.5 -43 Q252 -56 249 -70 Q247 -82 245 -93.5 Q243 -105 244 -117 Q245 -126 248.5 -135 Q252 -144 259 -150 Q273 -160 293 -157 Q301 -156 311.5 -153.5 Q322 -151 330 -146 Q353 -135 373 -120 Q395 -105 415 -87.5 Q435 -70 454 -52 Q534 22 606 103 Q678 184 741 271 Q773 314 801.5 358.5 Q830 403 853 451 Q864 475 872.5 499 Q881 523 888 549 Q893 570 895.5 591 Q898 612 896 635 Q894 652 886 669 Q878 686 863 697 Q844 711 821 710.5 Q798 710 777 704 Q771 702 767 705 Q763 708 762 712.5 Q761 717 762.5 721.5 Q764 726 770 728 Q782 732 794.5 734 Q807 736 820 735 Q845 735 866.5 724 Q888 713 902 691 Z M-148 -219 L-149 -219 L-148 -219 L-148 -219 Z " />
<glyph glyph-name="X" unicode="X" horiz-adv-x="600" d="M617 297 Q622 287 612 280 Q603 272 594 265.5 Q585 259 576 251 Q538 219 503.5 185 Q469 151 435 114 Q402 78 371 41 Q340 4 309 -34 Q279 -71 247.5 -107 Q216 -143 181 -175 Q172 -183 162.5 -190.5 Q153 -198 144 -206 Q135 -213 126 -219 Q117 -225 106 -230 Q87 -240 64 -241 Q41 -242 25 -224 Q9 -205 9.5 -180 Q10 -155 13 -133 Q18 -107 24.5 -82 Q31 -57 39 -32 Q55 16 72.5 63 Q90 110 110 156 Q117 172 123.5 187 Q130 202 137 218 Q127 207 117 196.5 Q107 186 97 175 Q57 132 19 88 Q-19 44 -56 -1 Q-92 -46 -127 -91.5 Q-162 -137 -196 -185 Q-204 -196 -213 -190 Q-218 -188 -219.5 -182.5 Q-221 -177 -218 -173 Q-213 -167 -209.5 -161 Q-206 -155 -201 -150 Q-168 -104 -133 -59 Q-98 -14 -62 30 Q-27 74 10.5 116 Q48 158 86 200 Q106 222 126.5 243 Q147 264 167 285 Q174 299 180 312.5 Q186 326 193 340 Q213 386 233.5 431 Q254 476 273 522 Q283 545 292.5 569 Q302 593 310 616 Q320 643 325 666 Q326 671 327 677 Q328 683 329 689 Q330 694 330 702 Q330 704 330.5 704.5 Q331 705 330 707 L330 710 L330 714 L329 715 L326 715 Q321 714 317 712 Q313 710 308 708 Q297 703 287 697.5 Q277 692 267 686 Q230 663 198 628 Q194 623 189 624 Q184 625 180.5 628 Q177 631 176.5 636 Q176 641 180 646 Q188 654 196 662 Q204 670 213 677 Q231 692 250.5 705 Q270 718 292 728 Q303 733 315.5 738 Q328 743 340 737 Q351 732 353.5 720.5 Q356 709 355 698 Q353 672 346 647 Q339 622 330 597 Q321 574 311.5 550.5 Q302 527 292 504 Q275 461 256 419 Q237 377 217 335 Q225 341 231.5 347.5 Q238 354 245 361 Q286 400 327.5 437.5 Q369 475 412 511 Q453 545 493.5 577.5 Q534 610 576 642 Q574 646 575.5 650.5 Q577 655 581 657 Q588 662 596 659 Q604 656 607 648 Q610 644 608 638 Q607 634 601 630 Q598 628 595.5 625.5 Q593 623 590 621 Q584 616 578.5 612.5 Q573 609 567 604 Q556 595 544.5 586.5 Q533 578 522 569 Q499 551 477 533 Q455 515 433 496 Q345 421 260 341 Q242 324 224 306 Q206 288 188 270 Q173 236 158 203 Q143 170 129 136 Q109 89 91.5 42 Q74 -5 59 -53 Q51 -77 44.5 -101.5 Q38 -126 36 -152 Q35 -163 35 -173.5 Q35 -184 37 -194 Q40 -202 45 -208 Q50 -214 59 -216 L60 -216 L61 -216 L66 -216 Q71 -216 74 -215 Q83 -214 92 -209 Q102 -204 111 -198 Q120 -192 129 -186 Q148 -172 164.5 -156.5 Q181 -141 198 -124 Q231 -89 261.5 -52 Q292 -15 322 22 Q354 60 386 97 Q418 134 453 169 Q520 241 600 301 Q604 305 609.5 303 Q615 301 617 297 Z " />
<glyph glyph-name="Y" unicode="Y" horiz-adv-x="603" d="M727 704 Q731 701 732.5 696.5 Q734 692 731 687 L707 648 Q658 569 610 490.5 Q562 412 514 333 Q466 257 420 181 Q374 105 326 29 Q396 32 458 8 Q470 3 467 -7 Q465 -12 461 -15 Q457 -18 452 -16 Q444 -13 435.5 -10 Q427 -7 418 -5 Q392 2 365 3.5 Q338 5 310 3 Q289 -32 267.5 -66 Q246 -100 223 -134 Q212 -151 199.5 -167.5 Q187 -184 173 -199 Q159 -213 141.5 -226 Q124 -239 104 -241 Q84 -242 71.5 -228 Q59 -214 57 -195 Q55 -177 58.5 -159.5 Q62 -142 70 -125 Q84 -91 110.5 -65 Q137 -39 168 -19 Q197 -1 229.5 10 Q262 21 296 26 Q306 43 315.5 59 Q325 75 336 91 Q383 168 429 243.5 Q475 319 522 395 Q566 465 608.5 535 Q651 605 695 675 Q692 674 688 670 Q620 618 558.5 560 Q497 502 437 441 Q377 379 319 316.5 Q261 254 201 192 Q186 176 171 161 Q156 146 141 131 Q126 116 110 102 Q94 88 77 75 Q69 69 60 63.5 Q51 58 42 53 Q31 48 20 44 Q9 40 -2 42 Q-22 45 -30 62.5 Q-38 80 -38 98 Q-36 120 -32 139 Q-30 150 -27.5 160.5 Q-25 171 -21 182 Q-15 204 -7 225 Q1 246 10 267 Q28 308 48 348 Q68 388 88 428 Q130 508 175.5 584.5 Q221 661 272 735 Q279 745 289 740 Q294 737 295 732 Q296 727 293 723 Q287 714 281 705 Q275 696 270 687 Q172 540 92 380 Q72 341 53.5 301.5 Q35 262 19 221 Q2 178 -7 138 Q-9 128 -10.5 118.5 Q-12 109 -13 99 L-13 91 Q-12 89 -12 87 L-12 86 L-12 85 Q-11 83 -11 81.5 Q-11 80 -10 78 L-9 75 Q-9 75 -8 73 L-7 71 Q-6 71 -6 70.5 Q-6 70 -5 70 L-3 68 L-2 68 L-1 67 Q3 66 7 66.5 Q11 67 15 68 Q24 71 33 76.5 Q42 82 50 87 Q67 98 82.5 111 Q98 124 112 138 Q143 167 172 197.5 Q201 228 230 258 Q289 321 346.5 382.5 Q404 444 464 504 Q494 534 525 563 Q556 592 588 620 Q604 634 619.5 647 Q635 660 652 673 Q660 680 668.5 687 Q677 694 686 700 Q695 706 706 708.5 Q717 711 727 704 Z M243 -58 Q263 -29 278 -2 Q245 -9 213.5 -23 Q182 -37 155 -58 Q129 -79 109 -106.5 Q89 -134 82 -168 Q81 -173 81 -181 L81 -190 Q81 -192 81 -192 Q81 -192 82 -194 Q82 -196 84 -202 L86 -206 Q88 -211 92 -213 Q98 -217 105 -215.5 Q112 -214 119 -211 Q127 -206 134 -200.5 Q141 -195 148 -189 Q162 -175 173.5 -160 Q185 -145 196 -129 Q209 -111 220.5 -93.5 Q232 -76 243 -58 Z " />
<glyph glyph-name="Z" unicode="Z" horiz-adv-x="637" d="M679 721 Q687 713 688.5 703.5 Q690 694 688.5 683.5 Q687 673 683 663 Q679 653 675 644 Q660 609 637.5 577.5 Q615 546 590 517 Q552 471 512 427.5 Q472 384 431 340 Q443 342 454.5 343 Q466 344 478 344 Q486 345 494.5 345.5 Q503 346 511 346 Q518 346 524.5 346 Q531 346 539 344 Q551 341 560.5 332.5 Q570 324 570 310 Q570 304 566 301 Q562 298 557.5 298 Q553 298 549 301 Q545 304 545 310 L545 312 Q544 313 544 314 L543 314 Q543 315 542 316 L541 316 Q539 318 538 318 L537 318 Q536 319 535 319 Q534 319 532 320 L530 320 Q529 320 528.5 320.5 Q528 321 529 321 L516 321 Q498 321 480 320 Q462 319 445 317 Q434 315 424 314.5 Q414 314 403 312 Q392 300 380.5 288 Q369 276 357 265 Q296 203 234.5 142.5 Q173 82 111 21 Q79 -10 47 -41 Q15 -72 -17 -104 Q-45 -131 -73 -158.5 Q-101 -186 -124 -218 Q-123 -218 -122 -219 L-121 -219 L-119 -219 L-117 -219 L-114 -219 Q-112 -218 -110 -218 Q-100 -216 -90 -212.5 Q-80 -209 -70 -206 Q-49 -199 -28.5 -192 Q-8 -185 12 -177 Q85 -148 157 -118 Q229 -88 304 -65 Q342 -54 380 -45.5 Q418 -37 456 -33 Q466 -32 475 -31.5 Q484 -31 494 -30 Q504 -30 514 -31.5 Q524 -33 532 -38 Q548 -46 553.5 -65 Q559 -84 546 -98 Q543 -102 537.5 -102 Q532 -102 529 -98 Q520 -90 529 -81 Q527 -82 528 -81.5 Q529 -81 529 -80 Q529 -79 529.5 -79 Q530 -79 530 -78 L530 -77 L530 -75 Q529 -73 529 -72 Q529 -71 528 -70 Q528 -68 527 -67 Q526 -66 526 -65 L525 -64 Q522 -60 518 -59 Q513 -56 507.5 -55.5 Q502 -55 496 -55 Q488 -56 481.5 -56 Q475 -56 467 -57 Q453 -59 440 -60.5 Q427 -62 413 -64 Q384 -69 357 -76 Q330 -83 302 -91 Q247 -109 194 -130.5 Q141 -152 87 -173 Q34 -196 -21 -215 Q-35 -220 -48 -224.5 Q-61 -229 -75 -234 Q-86 -237 -98.5 -241.5 Q-111 -246 -124 -244 Q-131 -242 -136.5 -239.5 Q-142 -237 -146 -232 Q-153 -223 -152 -216 Q-150 -212 -147.5 -208.5 Q-145 -205 -143 -202 Q-134 -189 -124.5 -177.5 Q-115 -166 -104 -155 Q-82 -132 -59.5 -110.5 Q-37 -89 -14 -66 Q34 -20 80 26 Q126 72 174 119 Q219 164 263.5 208 Q308 252 353 297 Q358 300 361 305 Q320 297 280 287.5 Q240 278 199 267 Q136 251 74 234.5 Q12 218 -51 201 Q-57 199 -61 202 Q-65 205 -66.5 209.5 Q-68 214 -66 218.5 Q-64 223 -58 225 Q-21 236 15.5 245.5 Q52 255 89 265 Q154 282 217.5 298.5 Q281 315 347 327 Q358 329 369 331 Q380 333 391 335 Q426 371 459.5 407 Q493 443 526 481 Q546 504 565 526 Q584 548 602 572 Q619 594 633.5 618 Q648 642 658 668 Q660 674 662 680 Q664 686 665 692 Q665 702 655 708 Q643 715 629 716 Q615 717 601 716 Q570 714 540 708.5 Q510 703 481 695 Q419 680 360 659 Q301 638 242 615 Q237 613 232.5 616 Q228 619 227 624 Q224 634 235 640 Q245 643 254.5 646.5 Q264 650 274 654 Q315 670 354.5 684 Q394 698 436 709 Q456 715 476.5 720 Q497 725 518 729 Q539 734 560 737 Q581 740 603 741 Q623 743 643 738 Q653 736 662.5 732.5 Q672 729 679 721 Z M545 312 Q545 312 545 312 L545 312 Z " />
<glyph glyph-name="q" unicode="q" horiz-adv-x="195" d="M213 294 Q216 289 210 283 Q196 268 181.5 253.5 Q167 239 153 225 Q127 199 100 174.5 Q73 150 47 127 Q40 120 33 114 Q26 108 18 102 L-9 78 Q-11 76 -13.5 74 Q-16 72 -19 70 Q-14 64 -12.5 53.5 Q-11 43 -15 29 Q-16 25 -17.5 21.5 Q-19 18 -21 14 Q-22 12 -22.5 11.5 Q-23 11 -24 9 Q-27 1 -32 -7 Q-42 -26 -51 -41 Q-68 -70 -96 -108 Q-98 -110 -99 -112 Q-100 -114 -102 -116 Q-105 -122 -109 -126 L-121 -141 Q-127 -149 -133.5 -157 Q-140 -165 -148 -173 Q-159 -186 -171 -198 Q-183 -210 -195 -222 Q-197 -224 -198.5 -226 Q-200 -228 -202 -230 Q-203 -230 -204 -231 Q-208 -235 -212 -235 Q-217 -235 -220 -232 Q-222 -230 -222 -229 Q-226 -225 -224 -220 Q-214 -183 -200 -150.5 Q-186 -118 -174 -92 Q-151 -44 -124 2 Q-97 48 -70 93 Q-65 100 -61 107 Q-57 114 -52 122 Q-47 130 -42.5 137 Q-38 144 -33 152 Q-29 157 -26 162.5 Q-23 168 -19 173 Q-12 184 -5.5 195 Q1 206 9 217 Q-2 209 -9 202 Q-35 180 -50 195 Q-50 196 -51 197 Q-56 202 -54 213 Q-52 224 -45 238.5 Q-38 253 -27 268.5 Q-16 284 -3 299 Q10 315 21 322.5 Q32 330 39.5 332.5 Q47 335 51 334.5 Q55 334 56 334 Q68 333 71 321 Q77 327 82 335 Q89 344 98 339 Q102 336 104 331 Q105 327 102 322 Q97 314 92 305.5 Q87 297 82 289 Q68 267 54.5 245.5 Q41 224 27 202 Q20 191 13 179 Q6 167 -2 156 Q-11 142 -20.5 127.5 Q-30 113 -38 98 Q-44 90 -46 86 Q-44 86 -42.5 85.5 Q-41 85 -39 85 Q-37 86 -34 89 Q-29 93 -24.5 96.5 Q-20 100 -15 104 L-6 113 Q48 158 97.5 205 Q147 252 194 300 Q198 304 204 303 Q211 302 213 294 Z M-37 41 Q-36 47 -37 54 Q-38 55 -38 56 Q-38 57 -39 58 Q-51 53 -59 58 Q-61 58 -62 59 Q-72 42 -82 25 Q-92 8 -103 -9 Q-119 -38 -133 -64 Q-147 -90 -159 -115 Q-167 -132 -173.5 -147.5 Q-180 -163 -185 -177 Q-179 -170 -173.5 -164.5 Q-168 -159 -163 -154 Q-156 -146 -150 -139.5 Q-144 -133 -139 -126 L-127 -111 Q-125 -109 -124.5 -107 Q-124 -105 -122 -103 Q-121 -101 -120 -100 Q-119 -99 -118 -97 Q-107 -83 -96.5 -68 Q-86 -53 -76 -37 Q-67 -22 -58.5 -6.5 Q-50 9 -42 26 Q-40 30 -39 33 Q-38 36 -37 41 Z M34 288 Q34 293 38 297 L40 299 Q42 301 44.5 303.5 Q47 306 49 309 L49 310 Q47 310 46.5 309 Q46 308 44 307 Q39 304 35.5 300 Q32 296 28 293 Q-2 263 -20 230 Q-23 226 -27 218 Q-20 223 -14.5 228.5 Q-9 234 -3 239 L2 244 Q10 252 17 258.5 Q24 265 31 273 Q33 275 34.5 276.5 Q36 278 38 280 Q34 284 34 288 Z " />
<glyph glyph-name="a" unicode="a" horiz-adv-x="190" d="M207 298 Q211 288 199 279 Q169 249 141 225.5 Q113 202 80 174 Q72 168 61 159.5 Q50 151 38.5 145 Q27 139 16 137.5 Q5 136 -1 144 Q-3 149 -3.5 155 Q-4 161 -4 167 Q0 198 15 226 Q7 219 1 213 Q-5 207 -12 202 Q-22 196 -32.5 196.5 Q-43 197 -48 208 Q-53 219 -50.5 230 Q-48 241 -42 251 Q-31 268 -17 284.5 Q-3 301 11 313 Q19 319 28.5 323 Q38 327 47 325 Q53 323 56.5 319.5 Q60 316 65 310 Q67 312 69 314.5 Q71 317 74 320 Q79 325 82 325 Q92 325 93 318.5 Q94 312 93 304 Q90 301 84 293 Q73 279 63 263.5 Q53 248 45 232 Q26 198 20 166 L20 164 Q46 179 68 195 Q90 211 109.5 228 Q129 245 148.5 262.5 Q168 280 190 300 Q195 304 200 303 Q205 302 207 298 Z M23 266 Q20 276 30 281 Q32 283 34.5 285.5 Q37 288 39 291 Q42 297 41 299.5 Q40 302 37 300 Q21 285 8 270.5 Q-5 256 -16 237 Q-18 234 -19.5 231 Q-21 228 -23 224 Q-17 228 -15 230 Q-5 239 4 248 Q13 257 23 266 Z " />
<glyph glyph-name="b" unicode="b" horiz-adv-x="227" d="M214 609 Q182 559 151 510 Q120 461 90 410 Q57 357 27 302 Q35 309 45 316.5 Q55 324 66 328.5 Q77 333 88 333.5 Q99 334 110 328 Q120 322 124 311 Q128 300 125 289 Q122 279 116 270 Q110 261 105 253 Q136 265 166.5 277.5 Q197 290 228 303 Q233 305 237.5 302 Q242 299 243 294 Q246 283 235 279 Q196 262 156.5 246.5 Q117 231 78 215 Q71 206 64.5 197.5 Q58 189 50 180 Q23 150 -12 120 Q-20 113 -30 105 Q-40 97 -51 96 Q-62 96 -70 103.5 Q-78 111 -80 122 Q-82 134 -76.5 145 Q-71 156 -63 164 Q-51 179 -31 192 Q-14 203 5 211.5 Q24 220 44 228 Q49 230 53.5 232 Q58 234 63 236 Q68 244 74 252 Q80 260 85 268 Q87 272 90 276 Q93 280 95 284 Q97 288 99 291.5 Q101 295 101 299 L101 303 L100 303 L100 304 Q100 305 99 305 L98 306 L97 306 Q92 309 88 308 Q80 308 71.5 303 Q63 298 56 293 Q49 288 42 282.5 Q35 277 29 271 Q0 245 -19 213 L-20 212 Q-21 210 -21.5 209.5 Q-22 209 -23 207 Q-25 202 -30 201 Q-35 200 -40 202 Q-49 208 -44 220 Q-30 249 -15 277.5 Q0 306 17 335 Q46 386 76 435.5 Q106 485 137 534 Q169 585 200.5 634.5 Q232 684 264 735 Q267 740 272 740.5 Q277 741 281 739 Q285 737 286.5 732 Q288 727 285 722 Q268 694 250 666 Q232 638 214 609 Z M-14 151 Q9 172 30 195 Q19 190 8 185 Q-3 180 -14 173 Q-29 162 -42 151 Q-45 147 -48 144 Q-51 141 -53 137 Q-55 133 -55 131 Q-56 130 -56 129 Q-56 130 -55.5 130 Q-55 130 -56 128 L-56 127 L-56 126 L-55 124 Q-54 123 -53.5 122 Q-53 121 -54 122 Q-53 122 -53 121 Q-53 121 -53 121 Q-52 122 -52 122 Q-49 123 -50 122 Q-51 121 -49 123 Q-44 125 -43 127 Q-35 133 -28 139 Q-21 145 -14 151 Z " />
<glyph glyph-name="c" unicode="c" horiz-adv-x="158" d="M175 297 Q178 293 177 287.5 Q176 282 171 280 Q153 271 135.5 261.5 Q118 252 100 244 L94 241 Q77 232 59.5 223 Q42 214 25 206 Q12 201 -1 196 Q-14 191 -28 193 Q-46 195 -48 213 Q-49 225 -43.5 237 Q-38 249 -33 259 Q-14 296 21 321 Q26 325 31.5 328 Q37 331 44 330 Q58 328 61 316 Q65 305 58.5 295.5 Q52 286 43 279 Q34 271 26 279 Q22 283 22 290 L13 281 Q-8 258 -19 229 Q-20 226 -21 223 Q-22 220 -23 217 Q-16 218 -2 224 Q12 230 28.5 237.5 Q45 245 62.5 253.5 Q80 262 93 268 Q97 269 99 271 Q104 273 108 275.5 Q112 278 116 280 Q117 280 118 281 Q128 286 138 291.5 Q148 297 158 302 Q163 304 168 303 Q173 302 175 297 Z M43 306 Q42 305 42 305 Q43 306 43 306 Z " />
<glyph glyph-name="d" unicode="d" horiz-adv-x="230" d="M358 723 Q361 728 366 729 Q371 730 375 727.5 Q379 725 381 720.5 Q383 716 380 711 Q377 705 373.5 699.5 Q370 694 367 689 Q341 644 314 600.5 Q287 557 259 514 Q230 470 202 427.5 Q174 385 147 341 Q101 268 58 190 Q58 189 57 188 Q55 186 54 184 Q54 184 53 182 L50 176 Q49 175 48.5 173.5 Q48 172 47 170 Q46 169 46 168 Q38 152 27.5 127.5 Q17 103 12 81 Q16 84 19 88 L230 302 Q235 305 240 303 Q245 301 247 297 Q250 292 248.5 287.5 Q247 283 243 280 L44 78 Q41 74 38 71 Q35 68 31 64 Q21 55 8 54 Q-3 54 -9 61 L-9 62 Q-10 62 -10 64 Q-11 64 -11 65 Q-14 70 -12 84 Q-12 88 -11 90 Q-10 93 -10 96 Q-10 99 -8 103 Q-2 126 10.5 152 Q23 178 34 199 Q39 209 44.5 218 Q50 227 55 237 Q50 232 44 228 Q38 224 33 219 Q25 213 18 208 Q11 203 3 198 Q-5 193 -16 191 Q-27 189 -35 197 Q-43 204 -44 213 Q-45 222 -43 231.5 Q-41 241 -37 250 Q-33 259 -29 266 Q-20 281 -7 296.5 Q6 312 21 321 Q29 326 40 326.5 Q51 327 60 322 Q67 318 71 308 Q74 298 69 289 Q67 284 61.5 283 Q56 282 52 284 Q44 290 47 300 Q27 292 13 274.5 Q-1 257 -11 238 Q-12 236 -15.5 227.5 Q-19 219 -15 217 Q-12 215 -6 219 Q0 223 2 224 Q14 232 24.5 240.5 Q35 249 45 258 Q60 272 74 287 Q75 288 98.5 318.5 Q122 349 154 399 Q156 401 156 401 Q179 437 202.5 473 Q226 509 250 546 Q278 590 305 634 Q332 678 358 723 Z " />
<glyph glyph-name="e" unicode="e" horiz-adv-x="167" d="M183 297 Q185 293 184 287.5 Q183 282 178 280 Q167 275 156 269 Q142 262 128 255.5 Q114 249 100 242 Q81 233 62.5 223 Q44 213 25 205 Q22 203 19.5 202.5 Q17 202 14 200 Q4 196 -8.5 194.5 Q-21 193 -29 203 Q-37 211 -36.5 221.5 Q-36 232 -34 241 Q-29 264 -16 284 Q-3 304 17 317 Q25 322 33.5 326 Q42 330 51 329 Q63 327 69 318 Q73 311 72 304 Q71 297 68 291 Q61 279 50.5 270 Q40 261 26 259 Q20 258 13.5 259 Q7 260 3 265 Q-3 256 -6 247 Q-11 234 -12 224 Q-12 220 -8 220 Q0 222 7.5 225 Q15 228 23 232 Q31 236 38 239.5 Q45 243 52 247 L159 299 Q161 300 162.5 300.5 Q164 301 166 302 Q177 307 183 297 Z M24 287 Q24 286 23.5 285.5 Q23 285 23 283 Q27 284 31 286.5 Q35 289 38 292 Q44 300 46 304 Q46 303 45 303 Q43 303 42 302 L41 302 Q39 300 36.5 299.5 Q34 299 32 297 Q31 296 29 294.5 Q27 293 25 289 L25 288 L24 287 Z " />
<glyph glyph-name="f" unicode="f" horiz-adv-x="206" d="M260 726 Q263 731 268 731.5 Q273 732 277.5 730 Q282 728 284 723 Q286 718 283 713 Q278 705 274.5 698 Q271 691 266 683 Q230 621 192 561 Q154 501 116 440 Q78 380 41 320 Q4 260 -30 197 Q-35 188 -39.5 179 Q-44 170 -49 161 Q-47 163 -44 164.5 Q-41 166 -37 168 Q24 200 84 232.5 Q144 265 204 301 Q210 304 214.5 302.5 Q219 301 221.5 297 Q224 293 223.5 288 Q223 283 218 280 Q201 269 183 259 Q165 249 148 239 Q116 221 85 204.5 Q54 188 22 171 Q7 163 -8 154.5 Q-23 146 -40 138 Q-45 136 -48.5 134 Q-52 132 -57 130 Q-59 128 -61.5 127 Q-64 126 -66 124 Q-60 120 -56 114 Q-44 97 -41.5 78 Q-39 59 -42 40 Q-44 22 -48 5 Q-52 -12 -58 -28 Q-80 -94 -125 -149 Q-136 -162 -147.5 -174 Q-159 -186 -172 -197 Q-179 -203 -187 -208 Q-195 -213 -206 -209 Q-214 -207 -218 -199.5 Q-222 -192 -223 -184 Q-224 -176 -222 -168.5 Q-220 -161 -217 -153 Q-214 -144 -211.5 -135.5 Q-209 -127 -206 -118 Q-199 -100 -192.5 -82 Q-186 -64 -178 -47 Q-161 -3 -141 38.5 Q-121 80 -100 122 L-100 127 Q-98 132 -94 135 Q-82 155 -72 176 Q-62 197 -51 217 Q-14 282 25 345.5 Q64 409 104 472 Q144 535 183.5 598 Q223 661 260 726 Z M-199 -186 Q-200 -185 -200.5 -186.5 Q-201 -188 -199 -186 Z M-65 63 Q-65 78 -72 94 Q-74 98 -80 104 Q-101 65 -119.5 25.5 Q-138 -14 -154 -56 Q-162 -72 -168 -88 Q-174 -104 -180 -121 Q-183 -129 -185.5 -137.5 Q-188 -146 -191 -154 Q-196 -163 -197 -172 Q-197 -174 -197.5 -175 Q-198 -176 -198 -178 L-198 -181 L-198 -184 L-198 -185 L-197 -184 Q-191 -180 -185 -174.5 Q-179 -169 -174 -164 Q-152 -144 -133 -118 Q-114 -92 -99.5 -63 Q-85 -34 -77 -3 Q-72 13 -68.5 29.5 Q-65 46 -65 63 Z " />
<glyph glyph-name="D" unicode="D" horiz-adv-x="660" d="M869 671 Q873 642 860.5 615.5 Q848 589 832 566 Q811 536 786 509 Q761 482 735 457 Q711 434 686 412 Q661 390 635 368 Q602 341 569 314 Q536 287 502 261 Q452 223 402.5 186.5 Q353 150 302 114 Q279 98 257 82 Q235 66 213 49 Q211 48 209 46 Q208 45 207.5 45 Q207 45 206 44 Q203 42 200 39 Q197 36 194 34 Q173 18 152.5 2 Q132 -14 112 -31 Q86 -52 59.5 -73 Q33 -94 6 -115 Q-18 -135 -43 -154 Q-68 -173 -93 -193 Q-107 -204 -121 -215 Q-135 -226 -151 -235 Q-154 -238 -158 -239 Q-163 -241 -168 -238 Q-173 -235 -176 -231 Q-184 -220 -179 -207 Q-177 -197 -166 -185 Q-162 -180 -158 -174.5 Q-154 -169 -149 -164 Q-140 -153 -131 -142.5 Q-122 -132 -113 -121 Q-75 -78 -35 -38.5 Q5 1 48 39 Q93 77 139 113 Q185 149 233 181 Q237 184 241.5 182.5 Q246 181 248.5 177.5 Q251 174 251.5 169.5 Q252 165 248 162 Q191 109 128 66 Q124 63 118 65 Q84 38 52 9 Q20 -20 -11 -50 Q-31 -70 -50 -90 Q-69 -110 -87 -130 Q-107 -151 -123 -172 Q-133 -182 -140 -192 Q-143 -196 -146 -199 Q-149 -202 -151 -206 Q-147 -203 -143 -200 Q-139 -197 -135 -194 Q-130 -191 -126 -187.5 Q-122 -184 -118 -181 Q-115 -179 -112.5 -177 Q-110 -175 -108 -173 Q-107 -173 -105 -171 L-104 -171 Q-103 -169 -102 -168.5 Q-101 -168 -100 -167 Q-88 -158 -76.5 -149 Q-65 -140 -53 -131 Q-27 -111 -1.5 -90 Q24 -69 50 -49 Q73 -30 97 -11.5 Q121 7 144 26 Q158 37 172 48.5 Q186 60 200 71 Q246 106 292.5 138.5 Q339 171 386 205 Q434 240 481.5 276.5 Q529 313 575 351 Q596 368 617 385.5 Q638 403 659 421 Q685 444 711 468.5 Q737 493 761 519 Q767 525 773 531.5 Q779 538 785 545 Q787 548 790 551.5 Q793 555 795 558 Q796 559 796.5 560 Q797 561 798 562 L799 562 Q799 563 800 564 Q801 566 802 567 Q803 568 804 570 Q813 582 821 594.5 Q829 607 835 621 Q836 622 836.5 623.5 Q837 625 836 623 Q837 624 837 626 Q839 630 839 632 Q841 636 843 644 Q843 646 843.5 647 Q844 648 844 650 L844 652 L844 653 Q845 656 845 664 Q845 665 844.5 667.5 Q844 670 845 667 Q844 668 844 672 Q843 674 843 674.5 Q843 675 842 677 Q842 678 841 679 L841 680 Q840 683 836 689 Q836 690 835 690 Q835 691 834 691 Q833 694 830 695 L830 696 Q829 696 829 697 Q825 699 824 699 Q824 700 823 700 L822 700 Q818 702 816 702 Q814 703 813 703 Q812 703 810 704 L807 704 L806 704 Q803 705 799.5 705 Q796 705 793 705 Q785 706 777 705.5 Q769 705 761 704 Q752 703 745 702 Q738 701 728 699 Q693 693 658.5 684 Q624 675 590 664 Q547 650 505.5 635.5 Q464 621 422 604 Q387 590 352 573 Q317 556 283 538 Q235 460 188 383 Q141 306 93 228 Q72 194 51.5 160 Q31 126 9 91 Q38 129 65.5 167 Q93 205 120 243 Q122 247 127 248.5 Q132 250 137 247 Q141 245 142.5 240 Q144 235 141 230 L90 158 Q43 94 -4.5 32 Q-52 -30 -103 -91 Q-106 -95 -111 -94.5 Q-116 -94 -119 -92 Q-123 -89 -124 -84.5 Q-125 -80 -122 -76 Q-95 -31 -67.5 13.5 Q-40 58 -13 103 Q36 183 84.5 261.5 Q133 340 182 420 Q196 443 210 466.5 Q224 490 239 513 Q233 509 227 506 Q221 503 214 499 Q164 470 116 437.5 Q68 405 20 370 Q-27 336 -71 301 Q-115 266 -160 229 Q-182 211 -204 193.5 Q-226 176 -247 156 Q-256 148 -264.5 138.5 Q-273 129 -278 118 Q-283 110 -283 99 Q-283 90 -277 83 Q-273 78 -275 73 Q-277 68 -281 66 Q-290 61 -298 70 Q-307 81 -308 93.5 Q-309 106 -305 118 Q-301 130 -294 140.5 Q-287 151 -279 160 Q-269 171 -258.5 180 Q-248 189 -237 198 Q-226 207 -214.5 216.5 Q-203 226 -192 235 Q-169 255 -146.5 273 Q-124 291 -101 310 Q-53 347 -5.5 382.5 Q42 418 92 451 Q174 507 265 556 Q293 602 320.5 647 Q348 692 376 737 Q379 742 384 742.5 Q389 743 393 741 Q397 739 398.5 734 Q400 729 397 724 Q375 688 353 651.5 Q331 615 308 579 Q413 632 520 668 Q552 679 584 688.5 Q616 698 648 706 Q685 716 723 724 Q741 727 758.5 729 Q776 731 794 730 Q808 730 821.5 727 Q835 724 846 714 Q856 706 861.5 694.5 Q867 683 869 671 Z M829 697 Q829 696 830 696 L829 697 Z " />
<glyph glyph-name="g" unicode="g" horiz-adv-x="209" d="M226 300 Q230 296 230 290.5 Q230 285 226 282 Q221 277 215 272 Q209 267 202 262 Q154 222 106 182.5 Q58 143 10 102 Q1 94 -9 85.5 Q-19 77 -28 69 L-58 18 Q-74 -9 -91 -36 Q-108 -63 -125 -90 Q-141 -116 -159 -140 Q-177 -164 -202 -184 Q-207 -188 -214 -192.5 Q-221 -197 -228 -199.5 Q-235 -202 -242.5 -201.5 Q-250 -201 -257 -194 Q-269 -183 -266 -165.5 Q-263 -148 -257 -136 Q-250 -122 -240.5 -110 Q-231 -98 -222 -86 Q-212 -74 -202.5 -62 Q-193 -50 -182 -39 Q-150 -5 -117 25.5 Q-84 56 -49 86 Q-36 108 -24.5 129.5 Q-13 151 -2 173 Q4 186 10 198 Q16 210 22 222 Q14 215 7 209 Q0 203 -8 197 Q-16 191 -25.5 186 Q-35 181 -45 181 Q-57 181 -64 190.5 Q-71 200 -68 211 Q-64 227 -53 244.5 Q-42 262 -28 277.5 Q-14 293 2.5 305.5 Q19 318 35 323 Q43 325 52 324 Q61 323 65 312 Q67 306 65 300 Q63 294 61 289 L60 288 Q65 286 68 282 Q71 278 70 273 Q67 256 60 243 Q55 229 48 215 Q41 201 33 187 Q25 173 18 159 Q11 145 5 131 L4 131 Q5 131 5.5 131.5 Q6 132 7 132 Q57 175 107 216.5 Q157 258 208 300 Q217 307 226 300 Z M-2 232 Q8 240 16.5 249.5 Q25 259 34 269 Q32 269 32 270 Q24 278 31 288 Q33 290 36 293.5 Q39 297 38 296 Q37 295 35 295 Q33 294 31.5 294 Q30 294 29 293 Q15 285 4 273 Q-7 261 -16 248 Q-24 240 -30.5 229.5 Q-37 219 -42 208 L-42 207 Q-41 207 -37 209 Q-33 211 -32 212 Q-15 221 -2 232 Z M-125 -43 Q-115 -28 -106 -13 Q-97 2 -88 17 Q-110 -3 -130 -22.5 Q-150 -42 -170 -64 Q-180 -75 -189.5 -86 Q-199 -97 -208 -109 Q-216 -120 -224.5 -131.5 Q-233 -143 -238 -156 Q-239 -158 -240 -161.5 Q-241 -165 -240 -168 Q-241 -169 -241 -173 Q-241 -175 -240 -176 L-240 -177 L-239 -177 Q-233 -175 -230 -173 Q-208 -160 -190 -137 Q-171 -115 -156 -91 Q-141 -67 -125 -43 Z " />
<glyph glyph-name="h" unicode="h" horiz-adv-x="190" d="M277 729 Q282 727 283.5 721.5 Q285 716 282 712 Q264 685 246 658.5 Q228 632 210 605 Q178 556 147.5 507.5 Q117 459 88 409 Q74 384 59.5 359.5 Q45 335 31 309 Q30 307 28.5 304 Q27 301 25.5 298.5 Q24 296 24.5 295.5 Q25 295 28 298 Q31 301 34 303.5 Q37 306 40 308 Q45 312 50.5 315.5 Q56 319 63 321 Q73 326 79.5 318.5 Q86 311 88 301 Q88 291 81 279 Q79 274 76 268 Q73 262 71 257 Q68 250 64.5 244 Q61 238 58 231 L78 242 L131 271 L140 276 L175 294 Q177 296 180 297 Q183 298 185 300 Q187 301 187.5 301 Q188 301 190 302 Q200 307 206 296 Q211 284 200 279 L188 273 Q188 273 186 272 L48 196 Q40 194 33 195 Q26 196 23 205 Q21 210 23.5 215 Q26 220 28 225 Q30 231 33 236.5 Q36 242 38 247 Q44 258 49 269 Q54 280 60 291 Q60 293 62 295 Q58 292 54.5 288.5 Q51 285 48 282 Q32 269 14 249 Q7 241 -0.5 232.5 Q-8 224 -17 217 Q-23 213 -28 216 Q-32 218 -32 223 Q-32 228 -32 232 Q-31 237 -29.5 242 Q-28 247 -26 252 Q-17 272 -6.5 292 Q4 312 15 332 Q43 383 72.5 432.5 Q102 482 133 531 Q164 581 196 628.5 Q228 676 260 724 Q267 734 277 729 Z " />
<glyph glyph-name="i" unicode="i" horiz-adv-x="138" d="M137 301 Q142 304 147 302.5 Q152 301 154.5 297 Q157 293 156.5 288 Q156 283 151 280 Q134 269 117.5 259.5 Q101 250 84 240 Q70 231 55 222.5 Q40 214 25 205 Q15 200 3.5 195.5 Q-8 191 -19 196 Q-28 200 -31 208 Q-34 216 -33.5 225 Q-33 234 -30.5 242 Q-28 250 -25 256 Q-18 272 -9 287 Q0 302 8 316 Q11 320 17 321.5 Q23 323 28 320 Q32 318 34.5 312.5 Q37 307 34 303 Q32 301 25 287.5 Q18 274 10.5 259 Q3 244 -2 231.5 Q-7 219 -4 219 Q-3 219 2 222 Q4 223 7 225 Q13 228 18 231 Q23 234 29 237 Q57 253 84 268.5 Q111 284 137 301 Z M60 359 Q54 359 50.5 363 Q47 367 47 371.5 Q47 376 49.5 380 Q52 384 58 384 Q64 384 67.5 380 Q71 376 71 371.5 Q71 367 68.5 363 Q66 359 60 359 Z " />
<glyph glyph-name="j" unicode="j" horiz-adv-x="141" d="M157 300 Q161 296 160 291 Q159 286 155 283 Q149 278 143 273 Q137 268 130 263 Q79 223 30.5 183 Q-18 143 -68 102 Q-78 94 -88 85.5 Q-98 77 -108 69 Q-116 56 -124 43.5 Q-132 31 -140 18 Q-157 -9 -175.5 -36 Q-194 -63 -212 -90 Q-229 -116 -248 -140 Q-267 -164 -293 -184 Q-299 -188 -306 -192.5 Q-313 -197 -320.5 -199.5 Q-328 -202 -335.5 -201.5 Q-343 -201 -349 -194 Q-360 -183 -356.5 -165.5 Q-353 -148 -346 -136 Q-338 -122 -328.5 -110 Q-319 -98 -309 -86 Q-298 -74 -288 -62 Q-278 -50 -267 -39 Q-234 -5 -199 25.5 Q-164 56 -127 86 Q-121 96 -113.5 108.5 Q-106 121 -92 145.5 Q-78 170 -54 211 Q-30 252 9 319 Q12 323 17.5 324.5 Q23 326 28 323 Q32 321 33.5 315.5 Q35 310 32 306 Q26 294 10.5 268.5 Q-5 243 -22.5 215.5 Q-40 188 -54.5 164 Q-69 140 -72 131 L-73 131 Q-72 131 -71.5 131.5 Q-71 132 -70 132 Q-18 175 35 216.5 Q88 258 141 300 Q151 306 157 300 Z M-210 -43 Q-199 -28 -189.5 -13 Q-180 2 -170 17 Q-193 -3 -214.5 -22.5 Q-236 -42 -256 -64 Q-267 -75 -276.5 -86 Q-286 -97 -296 -109 Q-305 -120 -313.5 -131.5 Q-322 -143 -328 -156 Q-329 -158 -330 -161.5 Q-331 -165 -331 -168 Q-332 -169 -332 -173 Q-332 -175 -331 -176 L-331 -177 L-330 -177 Q-324 -175 -321 -173 Q-309 -166 -298.5 -157 Q-288 -148 -279 -137 Q-259 -115 -243 -91 Q-227 -67 -210 -43 Z M53 366 Q47 366 44 370 Q41 374 41 378.5 Q41 383 44 387 Q47 391 53 391 Q59 391 62.5 387 Q66 383 66 378.5 Q66 374 62.5 370 Q59 366 53 366 Z " />
<glyph glyph-name="k" unicode="k" horiz-adv-x="198" d="M98 421 Q81 393 65 366 Q49 339 33 311 Q28 303 24 295.5 Q20 288 15 280 Q48 310 91 330 Q102 335 108 325 Q110 321 109.5 315.5 Q109 310 104 308 Q59 289 24 255 Q24 255 25 254 Q30 249 32.5 242 Q35 235 37 228 Q39 222 39.5 216.5 Q40 211 42 205 Q44 201 44 201 Q46 201 48 203 Q60 211 72.5 219 Q85 227 97 235 Q123 252 148 268.5 Q173 285 198 302 Q209 307 216 297 Q221 287 211 280 L154 242 L103 209 Q97 205 90.5 201 Q84 197 78 193 Q72 189 66.5 185 Q61 181 54 178 Q47 175 39 175.5 Q31 176 26 183 Q21 188 19.5 194 Q18 200 16 206 Q14 212 13.5 218 Q13 224 11 230 Q10 232 9.5 233.5 Q9 235 7 237 Q-11 218 -22 198 Q-27 190 -37 192 Q-47 194 -46 204 Q-44 222 -36.5 238 Q-29 254 -21 270 Q-11 285 -2 300.5 Q7 316 16 332 Q49 389 82.5 444 Q116 499 151 555 Q165 579 180 603.5 Q195 628 211 652 Q216 661 226.5 677 Q237 693 243 703 Q249 713 255 722 Q261 731 267 740 Q269 744 274 745.5 Q279 747 284 744 Q288 742 289.5 737 Q291 732 288 727 Q282 718 276 708.5 Q270 699 264 689 Q261 685 254.5 674.5 Q248 664 240.5 652 Q233 640 225 627.5 Q217 615 213 608 Q184 561 155.5 515 Q127 469 98 421 Z " />
<glyph glyph-name="l" unicode="l" horiz-adv-x="131" d="M285 741 Q295 734 290 723 Q264 685 238 646 Q212 607 186 567 Q141 498 99 428 Q57 358 19 285 Q10 268 2.5 251.5 Q-5 235 -9 216 Q-11 210 -11 203 Q-11 196 -9 191 Q-6 187 -2 187 Q4 186 9 189 Q17 194 23.5 200 Q30 206 37 212 Q45 220 53 227 Q61 234 69 242 Q84 256 99.5 271 Q115 286 131 300 Q135 304 140 303.5 Q145 303 148 299.5 Q151 296 151.5 291 Q152 286 148 282 Q130 265 111.5 248 Q93 231 75 214 Q66 206 57 197.5 Q48 189 39 181 Q31 173 21 167.5 Q11 162 0 162 Q-11 161 -19 166.5 Q-27 172 -32 181 Q-36 190 -36 199.5 Q-36 209 -34 218 Q-30 238 -22.5 257 Q-15 276 -5 293 Q4 311 14 329 Q24 347 35 365 Q46 385 57 403.5 Q68 422 79 441 Q124 517 171.5 590 Q219 663 268 736 Q275 746 285 741 Z " />
<glyph glyph-name="n" unicode="n" horiz-adv-x="218" d="M218 301 Q223 304 227.5 302 Q232 300 234.5 296 Q237 292 236 287 Q235 282 230 279 Q203 264 176 249.5 Q149 235 122 221 Q110 215 98 209.5 Q86 204 74 198 Q69 196 64.5 193 Q60 190 54 190 Q46 189 40.5 195.5 Q35 202 37 210 Q39 216 42 220.5 Q45 225 48 230 Q51 236 54.5 242 Q58 248 61 254 Q66 262 70.5 270.5 Q75 279 80 287 L85 295 L76 289 Q67 282 57.5 274 Q48 266 39.5 258.5 Q31 251 25 245.5 Q19 240 18 239 Q5 228 -6.5 217 Q-18 206 -30 195 Q-38 188 -45.5 193 Q-53 198 -51 207 Q-48 223 -40.5 238.5 Q-33 254 -23 269.5 Q-13 285 -2.5 299.5 Q8 314 16 328 Q19 333 24 333.5 Q29 334 33 331.5 Q37 329 39 324.5 Q41 320 38 315 Q30 301 21.5 288 Q13 275 4 262 Q9 267 14 271 Q19 275 24 280 Q38 291 51.5 302 Q65 313 80 322 Q90 327 102 331 Q114 335 120 329 Q125 326 125 319 Q125 311 120 304.5 Q115 298 111 291 Q106 283 102 275.5 Q98 268 93 260 Q88 252 84 244 Q80 236 75 228 Q75 227 74 226 Q77 227 85 231 Q96 236 107 241.5 Q118 247 129 253 Q152 265 173.5 277 Q195 289 218 301 Z " />
<glyph glyph-name="m" unicode="m" horiz-adv-x="280" d="M280 302 Q286 305 290.5 303 Q295 301 297.5 297 Q300 293 299 288 Q298 283 293 280 Q266 265 239 250.5 Q212 236 185 222 Q173 216 161 210.5 Q149 205 137 199 Q132 197 127 194 Q122 191 117 191 Q109 190 103.5 196.5 Q98 203 100 211 Q101 217 104.5 221.5 Q108 226 110 231 Q114 237 117 243 Q120 249 124 255 Q136 274 147 295 Q144 293 141 290.5 Q138 288 135 285 Q115 267 96.5 248 Q78 229 59 210 Q53 204 45 207 Q37 210 38 218 Q38 235 45.5 248.5 Q53 262 63 274 Q66 279 69 282 Q72 285 74 289 Q66 283 57.5 276 Q49 269 41 262 Q23 245 5.5 229 Q-12 213 -30 196 Q-37 189 -45 194 Q-53 199 -51 208 Q-47 225 -38.5 240 Q-30 255 -21 269 Q-12 284 -2.5 299 Q7 314 16 329 Q19 334 24.5 334.5 Q30 335 34 332.5 Q38 330 39.5 325.5 Q41 321 38 316 Q30 302 21.5 289 Q13 276 4 262 Q9 267 14 271.5 Q19 276 24 281 Q41 296 59.5 309.5 Q78 323 100 332 Q108 336 113 331 Q120 327 118 318 Q116 311 113.5 305 Q111 299 108 293 L123 308 Q130 313 136.5 318.5 Q143 324 151 328 Q156 332 163 334 Q170 336 177 334 Q188 330 188 320 Q188 316 184 308 Q182 304 179 300 Q176 296 174 292 Q169 284 165 276.5 Q161 269 156 261 Q151 253 147 245 Q143 237 138 229 Q138 228 137.5 227.5 Q137 227 137 226 Q139 228 142 229 Q145 230 147 232 Q158 237 169.5 243 Q181 249 192 254 Q215 266 236.5 277.5 Q258 289 280 302 Z " />
<glyph glyph-name="o" unicode="o" horiz-adv-x="165" d="M180 294 Q183 283 172 279 Q155 273 138 270 Q121 267 104 265 Q77 262 53 266 Q46 246 33 227.5 Q20 209 1 197 Q-9 190 -23.5 187.5 Q-38 185 -46 199 Q-51 206 -50 213.5 Q-49 221 -46 228 Q-43 235 -40 241 Q-37 247 -34 254 Q-21 278 -2 301 Q3 306 7.5 311 Q12 316 17 321 Q23 326 31.5 327 Q40 328 45 320 Q47 316 47 314 Q51 312 53 310 Q61 302 59 291 Q64 289 68.5 289 Q73 289 78 289 Q122 288 165 303 Q170 305 174.5 302 Q179 299 180 294 Z M35 293 Q35 295 34.5 294.5 Q34 294 35 293 Z M-1 227 Q21 247 30 275 Q28 277 25.5 279.5 Q23 282 21 284 Q20 285 20 285.5 Q20 286 19 287 Q17 283 14 280 Q11 277 8 273 Q1 264 -5 254 Q-11 244 -16 233 Q-18 228 -20 224 Q-22 220 -24 215 Q-24 213 -25 213 L-24 213 L-25 213 L-24 213 Q-21 213 -19 214 Q-18 214 -14 216 Q-10 218 -7 221 Q-4 224 -1 227 Z " />
<glyph glyph-name="p" unicode="p" horiz-adv-x="199" d="M214 294 Q217 283 205 279 Q178 269 151 258 Q124 247 98 236 Q84 230 71 224.5 Q58 219 44 213 Q43 212 40 212 Q34 206 27 202 Q20 196 8 190.5 Q-4 185 -12 195 Q-15 199 -16 204 Q-17 209 -12 213 Q-5 219 3.5 223 Q12 227 20 230 L26 233 Q28 234 29 235 Q30 236 32 237 Q36 241 39.5 244.5 Q43 248 47 251 Q52 257 56.5 262.5 Q61 268 66 274 Q70 281 72.5 287.5 Q75 294 76 302 Q62 295 49 285.5 Q36 276 24 265 Q9 251 -5 236.5 Q-19 222 -33 205 Q-52 182 -67.5 157 Q-83 132 -99 106 Q-116 80 -132 54 Q-148 28 -164 1 Q-226 -100 -281 -203 Q-283 -208 -288 -209 Q-293 -210 -298 -208 Q-307 -202 -302 -191 Q-287 -162 -271 -133 Q-255 -104 -238 -75 Q-178 29 -116 127 Q-84 178 -51 227 Q-18 276 15 326 Q22 337 32 330 Q36 328 37.5 323 Q39 318 36 313 Q34 311 32.5 308 Q31 305 29 302 Q44 314 62 323 Q71 328 82 329.5 Q93 331 99 320 Q104 312 102 301.5 Q100 291 97 283 Q95 276 91.5 269.5 Q88 263 84 257 L85 258 Q114 270 142 281 Q170 292 199 303 Q204 305 208 302 Q212 299 214 294 Z M77 308 Q77 310 76.5 309 Q76 308 77 308 Z " />
<glyph glyph-name="s" unicode="s" horiz-adv-x="196" d="M209 297 Q211 292 209 287 Q207 282 202 280 Q170 266 136.5 250.5 Q103 235 71 217 Q68 210 64 204 Q60 198 57 193 Q30 158 1 132 Q-14 116 -27 105 Q-35 99 -43.5 94.5 Q-52 90 -62 88 Q-71 86 -79 89 Q-87 92 -92 100 Q-97 108 -95 117.5 Q-93 127 -88 135 Q-83 143 -75.5 150 Q-68 157 -60 162 Q-52 168 -43 173.5 Q-34 179 -26 185 Q-10 196 7.5 206.5 Q25 217 44 228 Q47 230 53 233 L53 238 Q53 238 52 240 L52 241 Q52 242 51.5 243.5 Q51 245 52 243 Q50 245 48 246 Q45 248 41 247.5 Q37 247 33 247 Q24 246 15 246.5 Q6 247 -1 252 Q-9 259 -10.5 269.5 Q-12 280 -7 290 Q2 308 16.5 323.5 Q31 339 48 351 Q53 354 59.5 356.5 Q66 359 72 359 Q86 357 86 341 Q86 336 83 331 Q80 326 78 321 Q72 312 67 302 Q60 291 49 297 Q40 304 47 314 Q48 315 48 316 Q48 317 49 318 Q43 312 39 309 Q36 306 31.5 301.5 Q27 297 23 291.5 Q19 286 16 280 Q13 274 13 270 Q20 268 27.5 268.5 Q35 269 42.5 269.5 Q50 270 57 268.5 Q64 267 69 261 Q74 254 76 246 Q105 261 134 275 Q163 289 194 301 Q199 303 203 302.5 Q207 302 209 297 Z M-13 147 Q-2 158 8 169 Q18 180 28 193 Q10 182 -6 171 Q-22 160 -40 149 Q-48 144 -55 138.5 Q-62 133 -67 126 Q-70 121 -71 119 L-71 117 L-71 115 L-71 114 L-71 113 Q-71 113 -70 112 Q-67 111 -69 111.5 Q-71 112 -68 111 L-66 111 L-65 111 L-64 111 Q-61 111 -59 113 Q-51 116 -44 121 Q-26 134 -13 147 Z " />
<glyph glyph-name="r" unicode="r" horiz-adv-x="160" d="M160 300 Q165 304 170 303.5 Q175 303 178 299.5 Q181 296 181 291 Q181 286 176 282 Q156 265 137.5 247.5 Q119 230 101 212 Q84 195 66.5 178 Q49 161 30 146 Q22 139 10.5 133 Q-1 127 -10 136 Q-17 144 -14.5 156 Q-12 168 -10 177 Q-5 197 4 216 Q13 235 24 252 Q28 256 29 259 Q30 259 33.5 265 Q37 271 39 275 L36 275 Q34 276 30 276 Q15 277 6 282.5 Q-3 288 -7.5 295 Q-12 302 -13 308.5 Q-14 315 -14 317 Q-15 336 -7 354.5 Q1 373 13 389 Q20 397 27.5 404.5 Q35 412 45 417 Q54 422 65.5 423.5 Q77 425 82 414 Q86 406 83 396.5 Q80 387 77 379 Q74 368 69 358.5 Q64 349 59 339 Q53 329 45.5 319 Q38 309 30 301 L32 301 Q34 300 35.5 300.5 Q37 301 39 300 Q42 300 45.5 300 Q49 300 52 299 Q68 292 63 273 Q60 260 52 249 Q44 238 37 227 Q28 212 21 195.5 Q14 179 11 162 Q12 162 14 164 L15 165 Q23 171 30 177 Q37 183 44 190 Q58 204 72 217.5 Q86 231 100 245 Q114 259 129 272.5 Q144 286 160 300 Z M59 404 L59 403 L59 404 L59 404 Z M12 316 Q21 325 28.5 336.5 Q36 348 42 359 Q47 368 50.5 377 Q54 386 57 396 Q56 396 52 394 Q39 385 30 372 Q20 358 14 341 Q12 335 11 328.5 Q10 322 12 316 Z " />
<glyph glyph-name="t" unicode="t" horiz-adv-x="175" d="M467 523 Q472 524 475.5 520 Q479 516 479 511 Q479 501 467 499 Q432 496 397 493 Q362 490 327 487 Q276 483 226 479 Q176 475 125 471 Q94 420 65 369 Q36 318 8 265 Q-6 239 -20 212 Q-34 185 -47 158 Q-53 145 -59 132 Q-65 119 -70 105 Q-75 91 -80 77 Q-85 63 -87 49 Q-90 34 -90 21 Q-90 16 -89 11 Q-88 6 -85 3 Q-83 1 -79 1 Q-77 1 -74.5 2 Q-72 3 -70 4 Q-65 8 -60.5 12 Q-56 16 -51 21 Q-30 41 -11 63.5 Q8 86 26 109 Q64 157 100.5 204.5 Q137 252 175 300 Q178 304 183.5 303.5 Q189 303 192 300 Q200 292 192 283 Q187 277 182.5 271 Q178 265 173 259 Q153 234 134 209 Q115 184 95 159 Q75 135 57 110.5 Q39 86 19 62 Q9 51 -1 39.5 Q-11 28 -22 17 L-43 -4 Q-48 -9 -53.5 -13 Q-59 -17 -65 -20 Q-80 -26 -93 -19.5 Q-106 -13 -111 2 Q-116 17 -114.5 33 Q-113 49 -109 64 Q-94 123 -65.5 179 Q-37 235 -8 289 Q17 334 43 378.5 Q69 423 96 468 Q91 468 87 467.5 Q83 467 78 467 L-171 446 Q-176 446 -179.5 449.5 Q-183 453 -183 458 Q-183 463 -179.5 466.5 Q-176 470 -171 470 L-30 482 L111 494 Q115 500 119 507 Q153 561 187.5 614 Q222 667 257 719 Q260 723 264.5 724.5 Q269 726 274 723 Q278 721 279.5 716 Q281 711 278 707 Q270 696 261 682 Q230 636 200 590 Q170 544 141 496 Q161 498 180 499.5 Q199 501 219 503 Q282 508 343 513 Q404 518 467 523 Z " />
<glyph glyph-name="u" unicode="u" horiz-adv-x="201" d="M218 297 Q221 292 219.5 287.5 Q218 283 214 280 Q179 258 145.5 236 Q112 214 77 192 Q69 187 61.5 182.5 Q54 178 46 177 Q35 175 28 182.5 Q21 190 22 201 Q23 206 25 210 Q27 214 29 219 Q31 223 32.5 226.5 Q34 230 36 234 L42 246 Q37 239 31 233 Q25 227 19 221 Q14 216 8.5 211 Q3 206 -3 201 Q-11 196 -19 191 Q-27 186 -36 191 Q-46 196 -47.5 206.5 Q-49 217 -46 225 Q-35 248 -21 271 Q-7 294 7 315 Q10 320 16.5 321 Q23 322 28 319 Q39 313 32 302 Q22 286 12.5 270.5 Q3 255 -7 238 Q-9 234 -11 230.5 Q-13 227 -15 223 Q-13 225 -12 225.5 Q-11 226 -10 228 Q10 246 28 265 Q46 284 68 301 Q72 304 75.5 306.5 Q79 309 84 311 Q91 314 97 309.5 Q103 305 103 298 Q103 294 101.5 291 Q100 288 98 285 Q96 281 94 278 Q92 275 90 271 Q79 254 69.5 237.5 Q60 221 49 204 Q51 206 53.5 206.5 Q56 207 58 209 Q65 214 71.5 218 Q78 222 86 227 Q115 246 143.5 264.5 Q172 283 201 302 Q206 304 211 303 Q216 302 218 297 Z " />
<glyph glyph-name="v" unicode="v" horiz-adv-x="175" d="M190 296 Q192 292 191 286.5 Q190 281 185 279 Q171 273 155.5 269.5 Q140 266 124 268 Q108 269 93 274 L78 280 Q77 281 76 281 Q74 280 73.5 279 Q73 278 71 276 Q65 271 60 265 Q54 259 48 253 Q42 247 37 240 Q27 229 17.5 218 Q8 207 -3 197 Q-8 192 -15 186.5 Q-22 181 -30 182 Q-40 184 -44 192 Q-48 200 -46 209 Q-45 217 -42 224 Q-39 231 -36 238 Q-33 245 -29.5 251.5 Q-26 258 -23 265 Q-15 279 -7 292 Q1 305 9 318 Q12 323 17 323.5 Q22 324 26 322 Q30 320 31.5 315.5 Q33 311 30 306 Q19 286 7.5 266.5 Q-4 247 -14 227 Q-15 225 -16 222 Q-17 219 -18 217 Q-13 221 -9.5 225 Q-6 229 -2 234 Q12 249 24.5 263.5 Q37 278 51 292 Q58 298 65.5 305.5 Q73 313 83 307 Q85 306 88 303 Q92 301 93 301 Q97 299 101 298 Q105 297 109 296 Q141 287 173 301 Q184 306 190 296 Z " />
<glyph glyph-name="w" unicode="w" horiz-adv-x="210" d="M209 301 Q214 304 219 302.5 Q224 301 226 297 Q228 293 227.5 288 Q227 283 222 280 Q205 269 185.5 265.5 Q166 262 146 264 Q138 265 130 267 Q122 269 114 272 L113 271 Q111 269 112.5 270.5 Q114 272 112 269 Q110 267 108.5 264 Q107 261 105 259 Q96 245 86.5 230 Q77 215 64 203 Q58 197 49 191 Q40 185 31 190 Q21 195 23 206 Q25 217 27 225 Q28 230 29 234 Q30 238 31 242 Q30 241 30 240.5 Q30 240 29 239 Q21 229 12.5 219.5 Q4 210 -6 201 Q-11 196 -17 192 Q-23 188 -31 190 Q-41 193 -43 202 Q-45 211 -43 219 Q-39 233 -33 246.5 Q-27 260 -19 272 Q-11 285 -3.5 297.5 Q4 310 13 321 Q22 331 32 326 Q37 324 38.5 318.5 Q40 313 37 309 Q28 296 19.5 283.5 Q11 271 3 257 Q0 252 -3 246 Q-6 240 -9 234 Q-4 239 0.5 245 Q5 251 10 256 Q21 268 32 279.5 Q43 291 57 300 Q64 305 70.5 299.5 Q77 294 75 286 Q71 275 66.5 265.5 Q62 256 58 245 Q56 240 55.5 236 Q55 232 53 227 Q57 232 60 236 Q63 240 66 245 Q72 254 78 263.5 Q84 273 90 282 Q93 287 97 290.5 Q101 294 107 296 Q112 298 117.5 297 Q123 296 128 294 Q148 286 169.5 288 Q191 290 209 301 Z " />
<glyph glyph-name="x" unicode="x" horiz-adv-x="200" d="M217 297 Q220 287 209 280 Q190 268 172 255.5 Q154 243 135 229 Q118 218 102 206 Q86 194 69 183 Q56 175 41 166.5 Q26 158 12 163 Q3 166 -0.5 174 Q-4 182 -5 191 Q-18 176 -31.5 160.5 Q-45 145 -59 129 Q-68 120 -77 125 Q-80 127 -81 132 Q-82 137 -78 142 Q-60 163 -41.5 183.5 Q-23 204 -6 224 Q-5 226 -5 230 Q-3 270 1 310 Q2 316 6.5 319 Q11 322 15.5 322 Q20 322 23.5 319 Q27 316 26 310 Q24 296 23 281 Q22 266 21 251 Q56 286 92 319 Q96 323 101 322.5 Q106 322 108.5 318.5 Q111 315 111 310 Q111 305 106 301 Q61 260 19 217 Q20 209 20.5 200.5 Q21 192 24 187 L26 187 Q27 187 28 188 Q31 188 39 192 Q45 196 49 198 Q57 203 63 207.5 Q69 212 77 217 Q108 238 138 260 Q168 282 200 302 Q210 307 217 297 Z " />
<glyph glyph-name="y" unicode="y" horiz-adv-x="206" d="M223 296 Q226 291 224.5 286.5 Q223 282 219 279 Q211 274 203 268 Q195 262 187 256 Q125 210 67.5 160 Q10 110 -47 57 Q-64 30 -80 2.5 Q-96 -25 -113 -52 Q-135 -87 -156.5 -121.5 Q-178 -156 -205 -186 Q-217 -199 -233 -209 Q-241 -214 -250 -216 Q-259 -218 -268 -213 Q-276 -208 -278 -199.5 Q-280 -191 -278.5 -181.5 Q-277 -172 -273 -163 Q-269 -154 -266 -147 Q-258 -130 -247 -115 Q-236 -100 -224 -86 Q-212 -72 -199 -58.5 Q-186 -45 -173 -31 Q-147 -4 -120 21.5 Q-93 47 -66 73 Q-52 96 -38.5 118 Q-25 140 -11 163 Q0 182 11.5 200 Q23 218 34 236 Q35 238 36 239 Q37 240 38 242 L34 238 Q23 227 11.5 214 Q0 201 -17 200 Q-26 199 -32 205 Q-38 211 -39 220 Q-40 227 -37.5 233.5 Q-35 240 -32 247 Q-24 265 -13.5 282 Q-3 299 8 316 Q15 326 25 321 Q30 318 31 313 Q32 308 29 304 Q24 295 18.5 286.5 Q13 278 8 269 Q3 261 -2 252 Q-7 243 -11 233 Q-12 232 -12 231 Q-12 230 -13 228 L-13 226 L-12 227 Q-9 229 -6.5 231 Q-4 233 -1 235 Q4 241 10.5 247 Q17 253 22 259 Q30 267 36 275 Q42 283 50 291 Q56 298 64 305.5 Q72 313 83 310 Q95 307 95 293 Q95 286 90 278 Q86 271 81.5 264.5 Q77 258 73 251 Q55 222 37 193 Q19 164 2 135 Q51 180 101.5 221.5 Q152 263 206 301 Q211 304 216 302.5 Q221 301 223 296 Z M-191 -128 Q-179 -111 -168.5 -93 Q-158 -75 -147 -58 L-117 -10 Q-132 -24 -146 -38.5 Q-160 -53 -174 -68 Q-197 -93 -219.5 -119.5 Q-242 -146 -252 -179 Q-254 -185 -254 -188 L-254 -189 Q-255 -192 -251 -190.5 Q-247 -189 -246 -188 Q-243 -186 -240 -184 Q-237 -182 -234 -179 Q-221 -168 -211 -155 Q-201 -142 -191 -128 Z " />
<glyph glyph-name="z" unicode="z" horiz-adv-x="265" d="M282 297 Q285 292 283.5 287.5 Q282 283 278 280 Q270 275 262.5 270 Q255 265 247 260 Q218 240 189 220 Q160 200 132 177 Q104 155 77 131.5 Q50 108 24 84 Q22 82 21.5 81 Q21 80 19 79 Q18 78 18 77 Q-12 11 -51.5 -47.5 Q-91 -106 -139 -160 Q-151 -173 -163.5 -186.5 Q-176 -200 -191 -209 Q-197 -213 -203.5 -214.5 Q-210 -216 -216 -212 Q-221 -209 -223 -203 Q-225 -197 -224 -192 Q-222 -181 -218.5 -170 Q-215 -159 -210 -149 Q-195 -118 -174 -89 Q-153 -61 -129 -35.5 Q-105 -10 -80 16 Q-60 36 -40.5 55.5 Q-21 75 -1 94 Q2 102 5 109.5 Q8 117 10 125 Q12 133 12 139.5 Q12 146 10 153 Q8 159 4 162.5 Q0 166 -5 170 Q-11 176 -10.5 183.5 Q-10 191 -4 197 Q4 202 11.5 207 Q19 212 27 217 Q42 227 57 237.5 Q72 248 86 260 Q93 265 100 271 Q107 277 114 283 L119 288 Q104 286 89.5 285 Q75 284 60 282 Q49 281 38.5 280 Q28 279 17 278 Q12 278 3.5 278 Q-5 278 -12.5 280 Q-20 282 -24 286.5 Q-28 291 -24 300 Q-21 306 -14 311 Q-7 315 -2 311 Q3 307 5 302 Q10 302 14.5 302.5 Q19 303 24 304 Q34 305 43.5 305.5 Q53 306 64 307 Q84 309 104 311 Q124 313 144 315 Q150 316 153 312 Q156 308 157 303 Q158 293 152 286 Q146 279 140 273 Q112 247 82 224.5 Q52 202 20 182 Q22 182 22 180 Q33 168 36 150 Q38 139 36 128 Q62 151 88 173 Q114 195 141 216 Q171 239 202 260 Q233 281 265 302 Q270 304 275 303 Q280 302 282 297 Z M-127 -108 Q-106 -82 -86 -53.5 Q-66 -25 -49 4 L-37 25 Q-47 14 -56.5 4.5 Q-66 -5 -76 -16 Q-99 -40 -121.5 -64.5 Q-144 -89 -163 -117 Q-172 -131 -180 -145 Q-188 -159 -193 -174 Q-195 -181 -192.5 -180 Q-190 -179 -185.5 -174.5 Q-181 -170 -176.5 -164.5 Q-172 -159 -172 -159 L-127 -108 Z " />
<glyph glyph-name="zero" unicode="0" horiz-adv-x="231" d="M217 498 Q227 492 231.5 482 Q236 472 237 461 Q238 450 236.5 440 Q235 430 234 423 Q231 408 223.5 384 Q216 360 196 322 Q185 301 171.5 277 Q158 253 141 230 Q124 204 106.5 184.5 Q89 165 70 149 Q58 140 47 133.5 Q36 127 25 122 Q20 120 13 118 Q6 116 -2 116 Q-14 116 -26 122 Q-62 144 -41 212 Q-26 262 3 306 Q19 328 37 347.5 Q55 367 76 384 Q84 391 96 399 Q108 407 122 413 Q151 427 176 419 Q182 417 184.5 412.5 Q187 408 186 403 Q182 392 171 395 Q166 397 162 397 Q158 397 153 397 Q141 395 130 389 Q119 383 110 377 Q100 371 91 363.5 Q82 356 73 348 Q37 313 14 275 Q-11 231 -21 191 Q-25 170 -22 154 Q-21 152 -20.5 151 Q-20 150 -19 148 Q-18 146 -17 145.5 Q-16 145 -16 144 Q-10 141 -1 141 Q10 142 20 147.5 Q30 153 38 158 Q56 170 73 187 Q103 215 132 263 Q145 283 157.5 305 Q170 327 181 350 Q204 396 210 436 Q212 444 212.5 451.5 Q213 459 211 467 Q210 468 210 469 Q210 470 209.5 471 Q209 472 209 473 Q209 473 208 474 L208 475 L207 475 L206 476 L205 476 Q204 477 202 477 Q200 477 198 477 Q193 476 188.5 473.5 Q184 471 179 469 Q174 466 170 462.5 Q166 459 161 455 Q140 436 131 420 Q128 414 120 414 Q111 416 108 421 Q105 427 108 433 Q112 438 115.5 443.5 Q119 449 124 454 Q142 476 165 490 Q176 497 189.5 501.5 Q203 506 217 498 Z " />
<glyph glyph-name="one" unicode="1" horiz-adv-x="93" d="M134 501 Q139 498 139 491 Q137 481 132.5 472.5 Q128 464 123 456 Q121 454 120.5 452 Q120 450 118 448 L-79 124 Q-82 118 -89 118 Q-92 118 -96 120 Q-100 122 -101.5 127 Q-103 132 -100 137 L93 454 Q89 451 85 448 Q81 445 78 442 Q68 434 60 442 Q56 446 56 451 Q56 456 60 460 Q74 472 89 483 Q104 494 120 502 Q126 507 134 501 Z " />
<glyph glyph-name="two" unicode="2" horiz-adv-x="208" d="M210 458 Q211 444 206 431 Q201 418 196 405 Q191 395 185 384.5 Q179 374 171 361 Q159 339 145 318 Q131 297 116 277 Q101 257 85.5 239 Q70 221 54 204 Q91 187 120 145 Q122 140 121 136 Q119 131 115 128 Q105 121 98 132 Q95 137 92 140.5 Q89 144 87 147 Q62 176 35 184 Q9 158 -21 136 Q-32 128 -43 121 Q-54 114 -67 112 Q-69 111 -73 111 Q-84 111 -91 117 Q-101 125 -99 138 Q-98 159 -75 180 Q-55 197 -34 205 Q-2 216 26 212 Q49 235 70 260 Q91 285 110 312 Q135 348 158 387 L159 389 Q164 398 169 407.5 Q174 417 178 427 Q182 435 184.5 445.5 Q187 456 184 466 Q183 468 181.5 470.5 Q180 473 178 474 Q174 475 165 472 Q155 467 146.5 461 Q138 455 130 449 Q96 422 72 387 Q65 377 55 382 Q51 385 49 390 Q48 395 50 399 Q54 404 57.5 409.5 Q61 415 66 421 Q98 461 138 486 Q150 493 162.5 497.5 Q175 502 189 496 Q197 493 203 483.5 Q209 474 210 458 Z M-5 182 Q-1 186 2 188 Q-9 186 -19.5 183 Q-30 180 -40 174 Q-60 163 -68 150 Q-74 142 -74 137 L-74 136 L-72 136 Q-63 137 -54.5 142.5 Q-46 148 -38 154 Q-18 169 -5 182 Z " />
<glyph glyph-name="three" unicode="3" horiz-adv-x="196" d="M243 495 Q246 490 244 486 Q238 466 217 448 Q209 441 202 435.5 Q195 430 187 425 Q185 424 184.5 423.5 Q184 423 182 422 L94 361 Q141 356 148 321 Q153 297 141 268 Q131 243 109 215 Q99 202 88.5 190.5 Q78 179 66 168 Q38 141 15 127 Q-5 115 -21 115 Q-30 115 -40 120 Q-51 129 -55 141 Q-58 153 -57 166 Q-54 196 -34 220 Q-14 244 10 266 Q15 271 22 268 Q29 266 31 259 Q32 252 27 248 Q16 237 5 226.5 Q-6 216 -14 204 Q-21 195 -27 183 Q-33 171 -32 157 Q-32 148 -28 144 Q-28 142 -25 141 Q-24 140 -22 140 Q-16 140 -11 142 Q-6 144 -1 147 Q5 150 10.5 154 Q16 158 21 162 Q67 198 98 241 Q114 266 120 285 Q123 293 124.5 302.5 Q126 312 122 320 Q118 333 96 336 Q85 338 74.5 337 Q64 336 52 334 Q42 334 40 344 Q38 351 45 358 L146 428 Q150 430 153 432.5 Q156 435 160 437 Q168 442 176.5 448 Q185 454 193 460 Q197 463 201.5 467 Q206 471 211 476 Q161 473 107 443 Q102 440 95 443 Q89 447 89 455 Q89 462 95 465 Q130 485 165 494.5 Q200 504 232 502 Q240 500 243 495 Z " />
<glyph glyph-name="four" unicode="4" horiz-adv-x="176" d="M226 453 Q228 448 225 444 Q218 433 210 423 Q202 413 194 403 Q189 396 184.5 389.5 Q180 383 175 376 Q132 313 94 248.5 Q56 184 19 120 Q16 114 9 114 Q7 114 3 116 Q-8 122 -2 133 Q8 150 18 168.5 Q28 187 39 205 Q61 242 79.5 272.5 Q98 303 115 330 Q105 323 96 317 Q87 311 77 306 Q67 300 56 294.5 Q45 289 34 285 Q18 280 9 286 Q-3 294 0 312 Q2 326 9 337.5 Q16 349 24 361 Q31 372 38.5 382.5 Q46 393 56 407 Q72 430 89 452.5 Q106 475 124 498 Q126 502 131 502 Q138 502 142 498 Q145 495 145 490 Q145 485 142 481 Q124 458 107 435 Q90 412 73 389 Q66 379 59 368.5 Q52 358 44 347 L43 345 Q38 337 32.5 327.5 Q27 318 25 308 Q26 309 27 309 Q32 311 35.5 312.5 Q39 314 43 316 L46 317 Q55 322 64.5 327.5 Q74 333 83 339 Q136 372 175 419 Q191 441 204 457 Q211 467 221 462 Q225 458 226 453 Z " />
<glyph glyph-name="five" unicode="5" horiz-adv-x="212" d="M280 495 Q281 490 279 484 Q272 475 262 480 Q257 482 252 481.5 Q247 481 242 480 L242 479 Q235 478 228.5 477 Q222 476 216 474 Q203 471 190.5 468 Q178 465 165 461 Q156 459 147 456 Q138 453 128 450 Q104 420 83 390 Q76 381 70 371.5 Q64 362 58 352 Q55 347 52 342.5 Q49 338 46 333 Q45 331 44.5 330.5 Q44 330 43 328 L40 322 Q41 323 42 323.5 Q43 324 44 325 Q46 325 47 326 Q48 327 50 327 Q59 332 68.5 336 Q78 340 88 343 L89 343 Q96 346 106 349 Q116 352 125.5 352.5 Q135 353 144.5 350.5 Q154 348 160 340 Q171 324 164.5 305 Q158 286 150 272 Q134 241 111 213 Q63 158 -1 127 Q-7 124 -14.5 121 Q-22 118 -30 118 Q-36 118 -39 119 Q-59 126 -57 148 Q-55 168 -39.5 178 Q-24 188 -6 196 Q-1 198 3 195 Q8 193 10 187 Q14 176 1 172 L0 171 Q-8 169 -15.5 165 Q-23 161 -28 155 Q-32 149 -32 146 L-32 144 L-32 143 Q-27 142 -19 146 L-18 146 Q-14 148 -10.5 150 Q-7 152 -3 154 Q12 161 28 172 Q83 209 117 264 Q126 277 132 291 Q135 297 138 304 Q141 311 141 318 Q141 323 139 325 Q136 328 131 328 Q118 328 102 321 L100 321 Q91 318 82 314.5 Q73 311 65 307 Q63 306 61 305.5 Q59 305 57 303 Q51 300 45 297 Q39 294 31 294 Q19 294 15 302 Q9 310 12 321 Q13 326 15 329 Q17 332 19 336 Q20 337 20 337.5 Q20 338 21 339 Q23 344 25.5 347.5 Q28 351 30 355 Q53 393 84 434 Q78 432 72.5 429.5 Q67 427 62 425 Q57 423 53 425 Q47 429 46 433 Q44 444 55 449 Q69 455 84 460.5 Q99 466 114 471 Q118 477 121 479 Q124 483 129 483 Q135 483 139 479 Q153 484 164 487 Q178 491 191.5 494.5 Q205 498 219 501 Q222 501 224 502 Q236 504 249 505.5 Q262 507 274 501 Q279 499 280 495 Z M-34 142 L-34 143 L-32 143 L-34 142 Z " />
<glyph glyph-name="six" unicode="6" horiz-adv-x="164" d="M188 498 Q192 492 191 488 Q191 483 187 480 Q155 452 126 421.5 Q97 391 71 358 Q53 335 37 312 Q21 289 6 264 Q13 270 20.5 275.5 Q28 281 37 284 Q61 290 78 275 Q96 257 90 231 Q88 221 80 203.5 Q72 186 50 163 Q19 132 -18 120 Q-26 117 -34 117 Q-50 117 -59 127 Q-75 141 -68 167 Q-66 176 -62.5 184.5 Q-59 193 -55 201 L-52 207 Q-47 216 -43 225 Q-39 234 -34 243 Q40 384 170 498 Q179 507 188 498 Z M-39 174 Q-42 167 -44.5 159 Q-47 151 -42 145 Q-38 140 -32 141.5 Q-26 143 -19 146 Q13 160 35 184 Q47 198 54 210 Q59 217 62.5 225 Q66 233 66 241 Q66 244 65 250 Q64 256 57 259 Q48 264 37 256 Q27 251 16 240 Q10 234 4 229 Q-2 224 -10 220 Q-16 218 -18 219 Q-24 207 -29 196.5 Q-34 186 -39 175 L-39 174 Z " />
<glyph glyph-name="seven" unicode="7" horiz-adv-x="165" d="M210 502 Q229 498 226 478 Q224 467 217 458 Q210 449 202 441 L196 435 Q190 428 183.5 421.5 Q177 415 172 408 Q168 403 164.5 399.5 Q161 396 157 391 Q147 381 136.5 369.5 Q126 358 115 345 Q116 345 116.5 345.5 Q117 346 119 346 Q124 346 127 343 Q132 338 132 333 Q132 323 119 321 Q112 320 104.5 319 Q97 318 89 316 Q83 308 80 305 Q35 252 5 208.5 Q-25 165 -48 122 Q-51 116 -58 116 Q-62 116 -64 117 Q-75 122 -70 134 Q-45 182 -7 234 Q5 251 18.5 268 Q32 285 47 304 Q46 304 45 303 Q40 301 36 304 Q30 307 29 312 Q25 323 38 327 Q47 330 56.5 333 Q66 336 76 338 Q90 355 104.5 371 Q119 387 131 401 Q137 407 142.5 413 Q148 419 153 425 Q157 430 160.5 433.5 Q164 437 168 441 Q173 446 177 451 Q181 456 186 461 Q187 462 187 462.5 Q187 463 188 464 Q196 472 198 477 Q193 475 187.5 473.5 Q182 472 177 470 Q165 465 153.5 459 Q142 453 130 445 Q124 441 119 444 Q113 447 111 455 Q111 463 117 466 Q145 485 177 496 Q178 497 180 497 Q188 499 195 501.5 Q202 504 210 502 Z " />
<glyph glyph-name="eight" unicode="8" horiz-adv-x="152" d="M205 479 Q206 465 198 452.5 Q190 440 182 430 L180 428 Q162 404 143 385 Q106 346 63 321 L62 321 Q62 319 63 319 Q65 312 67.5 305.5 Q70 299 72 291 Q78 269 73 242 Q68 215 48 196 Q37 185 25 176 Q13 167 4 160 Q-18 143 -43 131 Q-49 128 -55.5 125 Q-62 122 -69 119 Q-78 116 -85 116 L-88 116 Q-100 118 -105 127 Q-112 139 -107 155 Q-103 161 -100 166.5 Q-97 172 -94 177 Q-94 178 -93.5 178 Q-93 178 -93 180 Q-89 186 -85.5 192 Q-82 198 -77 204 Q-24 281 31 328 Q27 338 26 346.5 Q25 355 24 363 Q23 378 27 392 Q31 406 37 417 Q44 428 53.5 437.5 Q63 447 73 455 Q100 474 123 486 Q175 511 195 500 Q205 493 205 479 Z M-84 140 L-85 139 L-84 139 L-84 140 Z M41 225 Q48 236 49.5 248 Q51 260 49 269 Q50 278 47 287 Q44 296 40 304 Q9 277 -20 241.5 Q-49 206 -75 161 Q-76 160 -78 159 Q-80 154 -82 150 Q-84 146 -84 141 L-83 141 L-82 141 L-81 141 Q-81 141 -79 142 Q-77 142 -76 143 Q-73 144 -70.5 145 Q-68 146 -66 147 Q-60 150 -54.5 153 Q-49 156 -43 159 Q-30 166 -18.5 173.5 Q-7 181 3 189 Q8 194 14.5 198.5 Q21 203 26 208 Q30 212 33.5 216 Q37 220 41 225 Z M179 468 Q181 474 180 478 L180 479 L179 479 L177 479 Q173 477 170 477 Q169 477 168 476 Q121 464 76 425 Q56 408 52 387 Q48 375 49.5 364 Q51 353 53 345 Q58 347 64 350.5 Q70 354 71 355 Q110 382 147 425 Q152 430 156 435.5 Q160 441 164 447 L166 449 Q169 454 173 458.5 Q177 463 179 468 Z " />
<glyph glyph-name="nine" unicode="9" horiz-adv-x="172" d="M193 448 Q199 441 194 433 Q180 406 164.5 378.5 Q149 351 133 325 L131 322 Q105 278 77 235 Q49 192 13 155 Q5 147 -4.5 138 Q-14 129 -25 122 Q-37 115 -49 115 Q-61 115 -70 125 Q-75 131 -76.5 142 Q-78 153 -71 167 Q-66 179 -56.5 188.5 Q-47 198 -38 206 Q-33 210 -28.5 209 Q-24 208 -20 205 Q-17 201 -16.5 196.5 Q-16 192 -21 188 L-24 185 Q-32 178 -39.5 170.5 Q-47 163 -50 153 Q-51 150 -51 145 Q-51 141 -50 141 L-50 140 Q-47 138 -44 141 Q-36 144 -28.5 150 Q-21 156 -15 163 Q-13 164 -11 166 Q-3 174 4 182 Q11 190 19 200 Q35 219 48 238 Q61 257 72 273 Q87 297 102.5 322.5 Q118 348 133 374 Q125 367 117.5 360.5 Q110 354 102 349 Q97 344 91.5 340 Q86 336 80 331 Q69 322 58 319 Q42 314 33 326 Q27 335 30 350 Q31 356 33.5 361.5 Q36 367 38 372 Q41 377 44 383 Q47 389 50 394 Q56 405 63 415 Q70 425 78 436 Q86 447 94.5 456.5 Q103 466 112 474 Q116 478 121 482.5 Q126 487 131 491 Q136 496 142 499.5 Q148 503 155 505 Q167 506 176 499 Q188 490 188 475 Q190 464 184 452 Q187 452 193 448 Z M149 440 Q156 450 160 460 Q164 470 163 476 Q163 478 161 480 L160 480 Q155 479 151.5 476 Q148 473 144 470 L142 468 Q126 454 112 438 Q98 422 87 405 Q74 387 66 371 Q65 370 64.5 369 Q64 368 63 367 Q61 361 58 355.5 Q55 350 54 344 Q55 344 56 345 Q63 348 70 355 Q71 355 73 357 Q81 364 90 370.5 Q99 377 108 385 Q129 403 149 423 Q148 425 147 426 Q146 427 146 429 Q145 433 148 438 L149 440 Z " />
<glyph glyph-name="ampersand" unicode="&#x26;" horiz-adv-x="404" d="M322 534 Q326 542 329.5 550.5 Q333 559 335 569 Q338 587 332 591 Q327 596 320.5 595 Q314 594 309 593 Q300 590 292 584.5 Q284 579 276 574 Q218 533 163 472 Q149 457 137 442 Q125 427 114 412 Q107 404 101.5 396 Q96 388 91 380 Q86 372 81.5 364 Q77 356 74 347 Q69 333 72.5 320 Q76 307 86 299 Q99 290 115 288.5 Q131 287 147 288 L154 288 Q163 288 165 279 Q169 270 160 265 Q148 257 135 248.5 Q122 240 109 231 Q18 167 -20 96 L-18 96 Q-12 98 -7 100.5 Q-2 103 3 105 Q24 117 44 131 Q64 145 83 159 Q92 167 101.5 174 Q111 181 120 189 L121 190 Q123 192 125 193.5 Q127 195 129 197 Q124 199 123 201 Q117 208 124 217 Q127 221 132 223 Q144 231 156 238.5 Q168 246 180 252 Q227 279 277 291 Q280 291 281 292 Q292 295 305 297 Q318 299 329 295 Q342 290 347.5 279.5 Q353 269 351 255 Q349 250 346 248 Q341 244 336 246 Q324 250 327 261 Q327 268 324 270 Q320 272 314 272 Q308 272 306 271 Q270 266 233 250.5 Q196 235 158 210 Q161 199 152 187 Q148 181 143 176.5 Q138 172 133 167 L132 167 Q126 162 120 157 Q114 152 107 147 Q94 136 81.5 127 Q69 118 56 109 Q54 108 53.5 107.5 Q53 107 51 106 Q40 98 28.5 90.5 Q17 83 5 78 Q-10 71 -24 71 Q-36 71 -46 79 Q-52 85 -48 94 Q-36 119 -18 145 Q9 183 44 211.5 Q79 240 114 264 Q98 266 86.5 270.5 Q75 275 66 283 Q50 299 47 322 Q45 344 54 364 Q59 375 64.5 384.5 Q70 394 76 402 Q82 411 88.5 419.5 Q95 428 101 437 Q115 454 128.5 470 Q142 486 156 501 Q170 516 185.5 530.5 Q201 545 216 559 Q224 565 232.5 571.5 Q241 578 249 585 Q269 600 287 610 Q309 622 327 619 Q350 616 358 596 Q364 581 358 557 Q355 546 351 536.5 Q347 527 342 517 Q305 436 254 358 Q250 353 245 352.5 Q240 352 236 354 Q227 362 232 371 Q258 410 280.5 451 Q303 492 322 534 Z " />
<glyph glyph-name="asterisk" unicode="&#x2a;" horiz-adv-x="410" d="M443 728 Q445 725 444 721 Q443 717 439 715 Q430 710 421.5 706 Q413 702 404 698 Q411 697 417 696.5 Q423 696 429 696 Q439 694 439 686 Q439 682 436.5 678.5 Q434 675 429 676 Q400 679 373 679 Q375 669 375.5 660 Q376 651 377 641 Q378 637 374.5 634 Q371 631 367 631 Q359 631 357 641 Q357 646 356.5 651 Q356 656 355 661 Q350 653 346 644.5 Q342 636 337 627 Q335 624 331 623 Q327 622 324 624 Q316 629 320 638 Q323 644 326 650 Q329 656 333 662 Q322 657 310 651 Q298 645 287 640 Q278 635 273 643 Q271 647 272 651 Q273 655 277 657 Q287 662 296 666.5 Q305 671 315 676 Q309 675 303.5 674.5 Q298 674 292 673 Q282 673 282 683 Q282 693 292 693 Q306 695 321 696.5 Q336 698 350 698 Q348 705 347 711.5 Q346 718 345 725 Q343 735 352 738 Q362 740 364 731 Q365 727 365.5 724 Q366 721 366 718 Q375 732 385 743 Q390 752 398 747 Q407 742 402 733 Q397 728 393.5 722 Q390 716 386 711 Q397 716 407.5 721.5 Q418 727 429 732 Q438 736 443 728 Z " />
<glyph glyph-name="parenleft" unicode="&#x28;" horiz-adv-x="227" d="M427 742 Q432 732 423 725 Q392 702 362 673 Q332 644 298 602 Q274 574 249.5 542 Q225 510 199 473 Q172 435 150 400.5 Q128 366 108 333 Q63 256 38 187 Q6 104 -1 31 Q-3 19 -14 19 Q-20 19 -23 23 Q-26 25 -26 31 Q-22 74 -11 117 Q0 160 19 208 Q47 277 88 348.5 Q129 420 189 503 Q210 531 236.5 565.5 Q263 600 292 635 Q322 670 351 697.5 Q380 725 410 746 Q413 749 418 748 Q424 746 427 742 Z " />
<glyph glyph-name="parenright" unicode="&#x29;" horiz-adv-x="250" d="M313 742 Q321 732 322 719.5 Q323 707 321 695 Q320 684 318 673 Q316 662 314 651 Q305 608 286 561 Q272 524 252 485 Q232 446 205 401 Q182 362 158.5 325.5 Q135 289 110 255 Q52 173 -4 116 Q-60 59 -120 20 Q-122 18 -127 18 Q-130 18 -132 19 Q-139 22 -139 30 Q-139 38 -133 41 Q-63 87 0 157 Q49 210 100 284 Q124 319 147 354.5 Q170 390 191 426 Q217 471 235.5 509 Q254 547 267 582 Q275 602 280.5 621 Q286 640 290 659 Q295 679 296 696 Q297 704 297 713 Q297 722 292 729 Q289 734 290 738 Q291 744 296 747 Q306 752 313 742 Z " />
<glyph glyph-name="hyphen" unicode="&#x2d;" horiz-adv-x="230" d="M143 269 Q153 269 153 259 Q153 249 143 249 L71 249 Q61 249 61 259 Q61 269 71 269 L143 269 L143 269 Z " />
<glyph glyph-name="underscore" unicode="&#x5f;" horiz-adv-x="325" d="M190 188 Q200 188 199.5 178 Q199 168 190 168 L10 168 Q0 168 0 178 Q0 188 10 188 L190 188 L190 188 Z " />
<glyph glyph-name="plus" unicode="&#x2b;" horiz-adv-x="260" d="M179 274 Q192 274 192 262 Q192 256 187 253 Q184 249 179 249 Q156 252 128 250 Q117 233 107.5 216.5 Q98 200 89 183 Q86 177 79 177 Q71 177 67 183 Q64 189 67 195 Q74 209 81.5 221.5 Q89 234 97 248 Q89 247 81.5 246.5 Q74 246 66 244 Q55 241 51 253 Q49 258 53 263 Q54 266 60 268 Q74 270 86.5 271.5 Q99 273 113 275 Q118 281 121 287 Q124 293 128 298 Q130 302 133 306 Q136 310 139 315 L145 324 Q145 333 152 336 Q158 341 166 337 Q170 334 172 329 Q173 320 166 311 Q160 302 154.5 293 Q149 284 143 276 Q152 276 161.5 275.5 Q171 275 179 274 Z " />
<glyph glyph-name="equal" unicode="&#x3d;" horiz-adv-x="255" d="M176 290 Q182 290 185 286.5 Q188 283 188 278 Q188 273 185 269.5 Q182 266 176 266 L86 266 Q80 266 77 269.5 Q74 273 74 278 Q74 283 77 286.5 Q80 290 86 290 L176 290 Z M156 253 Q162 253 165 249 Q168 245 168 240 Q168 235 165 231 Q162 227 156 227 L64 227 Q58 227 55 231 Q52 235 52 240 Q52 245 55 249 Q58 253 64 253 L156 253 Z " />
<glyph glyph-name="slash" unicode="&#x2f;" horiz-adv-x="328" d="M486 742 Q490 740 491.5 735.5 Q493 731 488 726 L-58 19 Q-64 13 -70 13 Q-73 13 -77 15 Q-79 17 -80.5 22 Q-82 27 -77 32 L469 739 Q480 750 486 742 Z " />
<glyph glyph-name="backslash" unicode="&#x5c;" horiz-adv-x="465" d="M289 31 Q289 25 284 20 Q279 15 273 15 Q271 15 270 16 Q265 17 262 24 L178 731 Q178 742 189 746 Q194 747 198.5 745 Q203 743 204 738 L289 31 L289 31 Z " />
<glyph glyph-name="braceleft" unicode="&#x7b;" horiz-adv-x="250" d="M449 742 Q454 737 452 731 Q452 725 443 721 Q437 719 431 724 L430 724 L428 724 Q426 724 420 722 Q409 717 400 708 Q390 699 380 688 Q370 677 359 664 Q331 629 308.5 592 Q286 555 264 517 Q259 509 255.5 502 Q252 495 247 487 L245 484 Q233 462 220 441 Q207 420 191 400 Q170 372 145 356 Q152 346 149 334.5 Q146 323 141 315 Q134 302 124 289 Q122 287 120.5 284.5 Q119 282 117 279 Q112 271 105.5 262 Q99 253 92 242 Q81 224 70 205.5 Q59 187 50 168 Q41 149 33 130.5 Q25 112 18 93 Q18 91 17.5 90.5 Q17 90 17 89 Q14 80 11 71.5 Q8 63 6 54 Q6 52 5.5 51 Q5 50 6 48 L6 47 Q8 45 11 47 Q19 54 28 47 Q32 41 32 37 Q32 33 28 29 Q18 21 7 21 Q-4 21 -13 30 Q-21 40 -19 52 Q-17 64 -14 75 L-14 76 Q-1 115 16 154 Q33 193 56 231 Q67 251 80 269.5 Q93 288 105 305 Q106 306 106.5 307 Q107 308 108 309 Q110 313 113 316.5 Q116 320 118 324 Q120 328 122 331.5 Q124 335 124 339 Q124 342 123 343 Q122 344 120 344 Q117 344 113 342 Q108 340 104 343 Q100 346 98 350 Q94 360 103 365 Q108 367 114 369 Q138 378 155.5 397 Q173 416 185 433 Q201 457 215.5 482 Q230 507 244 531 Q256 553 268.5 574.5 Q281 596 295 617 Q328 668 362 705 Q371 715 380.5 724 Q390 733 402 740 Q431 757 449 742 Z " />
<glyph glyph-name="braceright" unicode="&#x7d;" horiz-adv-x="215" d="M358 730 Q364 717 358 704.5 Q352 692 345 682 Q344 680 343.5 679.5 Q343 679 342 677 L164 407 Q164 405 162 403 Q159 398 156 394 Q153 390 151 385 Q144 374 144 366 Q144 360 148 358 Q152 354 160 356 Q165 358 169 355 Q173 352 175 348 Q176 343 174 338.5 Q172 334 166 332 Q128 320 100 279 Q90 265 82.5 248.5 Q75 232 68 216 Q66 211 64 207.5 Q62 204 60 199 Q51 178 40 156.5 Q29 135 17 114 Q11 103 5 93 Q-1 83 -8 73 Q-17 57 -33 39 Q-44 29 -58 22 Q-72 15 -86 15 Q-98 15 -108 21 Q-114 24 -114 31 Q-114 38 -107 42 Q-101 46 -95 42 Q-89 39 -80.5 40.5 Q-72 42 -65 46 Q-51 55 -36 75 Q-8 116 13 158 Q34 200 49 235 Q57 255 67.5 274 Q78 293 92 310 Q100 319 109 327 Q118 335 128 341 Q124 344 123 349 Q115 363 120 376.5 Q125 390 131 401 Q136 409 141 416.5 Q146 424 151 432 Q153 436 155.5 439 Q158 442 160 446 L322 692 Q323 693 323.5 694 Q324 695 325 696 Q327 700 329.5 703.5 Q332 707 334 712 Q336 718 336 719 Q332 721 329 718 Q323 716 320 717 Q314 718 311 723 Q306 733 316 740 Q326 747 341 744 Q353 741 358 730 Z " />
<glyph glyph-name="bracketleft" unicode="&#x5b;" horiz-adv-x="197" d="M398 743 Q400 741 400 736 Q399 721 390 720 Q384 719 378 718.5 Q372 718 365 717 Q360 717 358 716.5 Q356 716 353 713 Q351 711 349.5 708.5 Q348 706 346 703 Q346 702 345.5 702 Q345 702 345 701 L340 694 L292 619 Q245 545 199.5 471 Q154 397 109 322 Q86 285 64 248 Q42 211 20 174 L18 171 Q0 139 -18.5 107 Q-37 75 -52 41 Q-42 42 -33 43 Q-24 44 -15 46 Q-3 48 0 37 Q2 32 -2 27 Q-4 22 -9 22 Q-25 19 -40.5 17.5 Q-56 16 -71 15 L-72 15 Q-78 15 -82 21 Q-86 27 -83 31 Q-65 75 -42 115.5 Q-19 156 4 195 L10 205 Q55 281 100.5 357 Q146 433 193 508 Q216 546 240 583.5 Q264 621 288 658 L312 697 Q314 699 315 701 Q316 703 318 705 Q324 718 334 729 Q341 737 349 740 Q354 742 364 742 L368 742 Q373 743 378.5 743.5 Q384 744 389 745 L394 746 L393 745 Q395 744 395.5 744 Q396 744 398 743 Z " />
<glyph glyph-name="bracketright" unicode="&#x5d;" horiz-adv-x="205" d="M374 740 Q384 732 382 720 Q382 713 380 707.5 Q378 702 376 699 Q372 691 367 684 Q362 677 357 669 Q355 667 353.5 664 Q352 661 350 659 Q343 649 336 639 Q329 629 322 619 Q295 579 268.5 538.5 Q242 498 216 457 Q190 416 165.5 375.5 Q141 335 117 294 Q69 211 24 129 Q19 121 15 112.5 Q11 104 7 96 Q1 85 -5 73 Q-11 61 -18 50 Q-22 42 -28.5 34 Q-35 26 -46 23 Q-49 21 -52.5 21 Q-56 21 -59 20 Q-63 20 -65 19 Q-70 18 -76 17.5 Q-82 17 -88 16 Q-89 15 -91 15 Q-101 15 -103 24 Q-105 31 -102 35 Q-100 38 -94 40 Q-91 41 -87.5 41 Q-84 41 -81 42 Q-78 43 -75 43 Q-72 43 -69 44 L-64 44 Q-60 45 -57 45 Q-54 45 -52 47 Q-48 49 -45.5 52.5 Q-43 56 -41 59 Q-39 62 -37.5 65.5 Q-36 69 -34 72 Q-34 72 -32 76 Q-21 98 -9.5 119.5 Q2 141 14 163 Q57 242 103 320 Q149 398 198 476 Q223 514 248 552.5 Q273 591 299 629 L326 668 Q329 674 334 679 L352 706 Q354 709 355.5 712.5 Q357 716 357 719 Q352 719 345 718 Q338 717 331 716 Q327 715 324 714.5 Q321 714 318 714 Q306 712 303 723 Q301 728 305 733 Q308 738 312 738 L336 741 Q338 742 342 742 Q350 744 358.5 744.5 Q367 745 374 740 Z " />
<glyph glyph-name="bar" unicode="&#x7c;" horiz-adv-x="262" d="M406 746 Q411 746 413 743 Q415 740 410 734 L-34 27 Q-38 21 -44 18 Q-50 15 -55 15 Q-60 15 -61.5 18 Q-63 21 -59 27 L385 734 Q390 740 395.5 743 Q401 746 406 746 Z " />
<glyph glyph-name="comma" unicode="&#x2c;" horiz-adv-x="160" d="M63 216 Q67 211 63 203 Q42 176 31 149 Q27 145 24 144 Q23 143 20 143 Q17 143 13 145 Q4 150 9 162 Q17 182 29 198 Q28 201 30 208 Q36 219 49 222 Q57 224 63 216 Z " />
<glyph glyph-name="period" unicode="&#x2e;" horiz-adv-x="161" d="M45 218 Q49 212 49 207 Q49 201 45 195 Q41 189 33 189 Q25 189 20 195 Q15 201 15 207 Q15 213 20 218 Q25 223 33 223 Q38 223 45 218 Z " />
<glyph glyph-name="semicolon" unicode="&#x3b;" horiz-adv-x="195" d="M118 299 Q121 296 121 291 Q121 286 118 282 Q115 278 109 278 Q103 278 100 282 Q97 286 97 291 Q97 296 100 299.5 Q103 303 109 303 Q115 303 118 299 Z M68 243 Q77 245 82 237 Q87 230 82 224 Q72 211 64.5 197.5 Q57 184 50 170 Q48 166 44 165 Q42 164 39 164 Q37 164 33 166 Q28 168 27 172.5 Q26 177 28 182 Q36 200 49 219 Q47 224 50 228 Q56 240 68 243 Z " />
<glyph glyph-name="colon" unicode="&#x3a;" horiz-adv-x="150" d="M95 289 Q95 286 94 284 Q94 281 91 280 L88 277 Q86 277 85 276.5 Q84 276 83 276 L81 276 Q75 276 72 280 Q69 281 69 285 L68 286 L68 289 Q68 292 69 293 Q70 295 70.5 295.5 Q71 296 72 298 Q74 300 76 300 Q77 301 81 301 L83 301 Q88 301 91 298 Q93 296 95 292 L95 289 Z M46 242 Q52 242 55 237 Q58 234 58 229 Q58 224 55 220 Q52 216 46 216 Q41 216 36 221 Q35 223 34 225 Q33 227 33 229 Q33 234 36.5 238 Q40 242 46 242 Z " />
<glyph glyph-name="less" unicode="&#x3c;" horiz-adv-x="260" d="M198 322 Q201 318 199 311 Q197 306 193 305 Q176 297 159.5 290 Q143 283 126 275 L123 273 Q113 268 103 263.5 Q93 259 84 252 L129 212 Q133 209 133 204 Q133 198 130 195 Q126 191 121 191 Q116 191 112 195 L55 244 Q52 247 52 253 Q52 259 55 262 Q68 273 82 280.5 Q96 288 112 296 L181 326 L181 327 Q192 330 198 322 Z " />
<glyph glyph-name="greater" unicode="&#x3e;" horiz-adv-x="275" d="M184 262 Q187 258 185 252 Q184 246 177 243 L97 213 Q91 211 85.5 208.5 Q80 206 74 204 L72 203 Q67 201 61.5 199 Q56 197 52 192 Q49 188 44 188 L43 188 Q38 188 34 192 Q25 199 34 209 Q40 216 47.5 220 Q55 224 63 227 L87 236 Q89 237 92 237.5 Q95 238 98 240 L153 261 Q142 272 129.5 283 Q117 294 103 303 Q98 307 97.5 312 Q97 317 99 321 Q107 330 116 325 Q157 297 184 262 Z " />
<glyph glyph-name="asciitilde" unicode="&#x7e;" horiz-adv-x="245" d="M185 279 Q188 276 188 269 Q188 264 185 261 Q173 252 158 243 Q132 228 118 228 Q112 228 110 229 Q101 232 98 242 Q96 249 98 257 L98 258 L98 259 Q98 259 96 258 Q82 251 72 239 Q67 235 62 235.5 Q57 236 54 240 Q51 243 50 248 Q49 253 54 257 Q63 266 71 271.5 Q79 277 87 281 Q91 283 96 284.5 Q101 286 107 284 Q123 280 123 264 Q124 262 123.5 259.5 Q123 257 123 255 Q123 254 122 253 Q126 254 128 255 Q130 256 133 257 Q136 259 139.5 261 Q143 263 148 266 Q152 268 160 274 Q162 275 165 278 L166 278 Q166 279 167 279 Q177 287 185 279 Z " />
<glyph glyph-name="question" unicode="&#x3f;" horiz-adv-x="310" d="M469 722 Q471 714 468.5 706 Q466 698 463 690 Q456 677 447 662 Q438 649 428 637 Q418 625 408 613 Q404 609 401 605.5 Q398 602 394 597 L391 593 Q372 571 353.5 548 Q335 525 316 502 Q282 460 244 413 Q206 366 169 315 Q131 262 100 214 Q69 166 44 118 Q40 112 34 112 Q30 112 28 113 Q23 115 21 120 Q19 125 22 130 Q26 137 29 143.5 Q32 150 36 156 Q85 243 160 344 Q195 392 231.5 437.5 Q268 483 304 527 Q321 548 338.5 569.5 Q356 591 373 611 L379 617 Q381 621 384 624 Q387 627 389 630 Q395 638 401 645 Q407 652 413 659 Q414 661 416 663 L418 666 Q420 669 422 671.5 Q424 674 426 677 Q430 682 434 688.5 Q438 695 441 702 Q441 703 442 704 L442 705 Q442 706 442.5 706.5 Q443 707 443 708 Q444 710 444 714 L444 715 L444 716 L444 717 L444 718 Q443 718 443 719 L442 719 L441 720 L437 720 L424 720 Q412 718 400 714.5 Q388 711 377 707 Q287 675 221 600 Q218 596 213 596 Q207 596 203 599 Q196 608 203 617 Q208 622 212 626.5 Q216 631 220 635 Q294 710 394 738 Q401 740 409 742 Q417 744 425 745 Q448 747 457 740 Q466 735 469 722 Z M-16 39 Q-10 39 -7 35 Q-4 31 -4 26 Q-4 21 -7 17.5 Q-10 14 -16 14 Q-22 14 -25 18 Q-28 21 -28 26 Q-28 31 -25 35 Q-22 39 -16 39 Z " />
<glyph glyph-name="exclam" unicode="&#x21;" horiz-adv-x="210" d="M398 738 Q399 733 397 729 Q374 696 351.5 663 Q329 630 307 596 Q269 537 231.5 477 Q194 417 159 357 Q88 235 24 111 Q21 105 14 105 Q12 105 8 107 Q3 109 1 113.5 Q-1 118 2 124 Q39 195 76 263 Q110 324 145.5 384.5 Q181 445 219 505 Q256 565 295 624 Q334 683 375 742 Q382 753 392 746 Q396 745 398 738 Z M-15 36 Q-13 32 -13 31 L-13 26 L-14 24 Q-14 20 -17 19 L-17 18 L-19 17 Q-23 15 -26 15 L-29 15 Q-32 17 -33 18 Q-35 19 -37 21 Q-37 22 -37.5 23 Q-38 24 -38 26 L-38 31 L-37 33 Q-37 36 -34 39 L-31 40 Q-30 42 -25 42 L-22 42 Q-20 41 -18 39 Q-15 39 -15 36 Z " />
<glyph glyph-name="at" unicode="&#x40;" horiz-adv-x="325" d="M270 384 Q272 360 264.5 334.5 Q257 309 241 285 Q226 262 206 243 Q186 224 163 213 Q157 210 149 207 Q141 204 133 208 Q124 212 122.5 220 Q121 228 124 236 Q124 237 124.5 237.5 Q125 238 125 239 Q108 224 89 212 Q84 209 78.5 206.5 Q73 204 68 204 Q59 202 54 209 Q47 214 49 224 Q49 232 52.5 240 Q56 248 61 257 Q68 268 77 277.5 Q86 287 95 295 L98 298 Q107 306 118 313.5 Q129 321 142 319 Q154 317 161 306 Q161 304 162 303 Q168 305 173 300 Q180 293 175 285 L162 258 Q161 256 160 253.5 Q159 251 158 249 Q156 245 154 241.5 Q152 238 150 234 Q168 243 185 257 Q221 290 236 330 Q249 364 245 383.5 Q241 403 235 411 Q227 422 214.5 425 Q202 428 189.5 426.5 Q177 425 167 421.5 Q157 418 153 417 Q112 399 74 358 Q56 338 40 316.5 Q24 295 10 271 Q-1 250 -12.5 224 Q-24 198 -27 169 Q-27 163 -27 153.5 Q-27 144 -24 133.5 Q-21 123 -15 113.5 Q-9 104 2 97 Q13 91 25 90.5 Q37 90 48.5 93 Q60 96 70 100.5 Q80 105 87 110 Q110 124 128.5 142 Q147 160 164 180 L166 183 Q171 188 177 186 Q184 184 187 177 Q189 170 184 165 Q179 160 174 154 Q169 148 164 143 Q144 123 120 103 Q96 83 65 73 Q48 66 28 66 Q23 66 18 66.5 Q13 67 8 68 Q-18 74 -33 96 Q-53 122 -52.5 152 Q-52 182 -45 205 Q-30 258 10 317 Q47 373 90 407 Q144 450 196 452 Q230 452 248 434 Q267 417 270 384 Z M137 283 Q134 287 137 295 Q133 294 129 291 Q125 288 123 286 L122 285 Q103 270 87 251 Q84 247 81.5 243 Q79 239 77 234 Q82 237 86 240 Q90 243 94 246 Q98 249 103 253 Q108 257 113 261 Q118 265 122.5 269 Q127 273 132 278 L137 283 Z " />
<glyph glyph-name="numbersign" unicode="&#x23;" horiz-adv-x="260" d="M189 292 Q199 292 199 282 Q199 272 189 272 Q181 271 172 270.5 Q163 270 154 269 Q152 267 151 264 Q150 261 148 259 L169 259 Q179 259 179 249 Q179 239 169 239 Q161 239 152 239 Q143 239 135 238 Q130 230 124.5 221 Q119 212 114 203 Q112 199 108 198.5 Q104 198 101 200 Q98 202 96.5 205.5 Q95 209 97 213 Q101 219 104 225 Q107 231 111 236 Q106 236 102.5 235.5 Q99 235 94 234 Q90 228 86.5 221.5 Q83 215 78 209 Q73 201 64.5 206 Q56 211 61 219 Q63 222 64.5 224.5 Q66 227 68 230 Q65 230 64 229 Q54 227 52 236 Q50 240 52.5 244 Q55 248 59 249 Q65 250 70.5 251 Q76 252 82 253 L88 262 Q86 262 83.5 261.5 Q81 261 79 261 Q69 259 66 268 Q64 278 73 280 Q81 282 87.5 282.5 Q94 283 101 284 Q107 294 113 303.5 Q119 313 124 323 Q129 331 137.5 326 Q146 321 142 313 Q138 306 134.5 299.5 Q131 293 126 287 Q131 287 134.5 287.5 Q138 288 142 288 Q147 296 152 303.5 Q157 311 162 319 Q165 323 169 323.5 Q173 324 176.5 322 Q180 320 181.5 316.5 Q183 313 180 309 Q176 304 173 299.5 Q170 295 167 290 Q173 291 178.5 291 Q184 291 189 292 Z M129 267 Q125 267 121.5 266.5 Q118 266 113 265 Q112 262 108 256 Q112 257 115.5 257 Q119 257 123 258 L129 267 Z " />
<glyph glyph-name="dollar" unicode="&#x24;" horiz-adv-x="325" d="M377 512 Q382 498 375.5 485.5 Q369 473 361 463 Q344 440 326 418.5 Q308 397 289 377 Q284 372 278 374 Q270 376 269 383 Q266 390 271 395 Q276 400 280.5 405 Q285 410 290 415 Q299 426 308 436 Q317 446 325 457 Q330 462 333.5 468 Q337 474 342 479 Q342 480 342.5 480 Q343 480 343 481 Q346 485 349 489.5 Q352 494 353 499 Q355 502 353 506 Q352 506 352 507 Q352 508 351.5 508 Q351 508 351 509 Q347 512 340 514 Q324 517 304 512 Q303 512 302.5 511.5 Q302 511 301 511 Q296 504 292 497 Q288 490 283 483 Q261 448 238.5 411.5 Q216 375 193 337 L201 332 Q207 328 209 327 Q214 324 218 321 Q222 318 226 316 Q239 309 245 300 Q262 278 247 251 Q241 240 232 231 Q223 222 213 214 Q165 171 121 168 Q107 166 92 171 Q75 142 58 113 Q41 84 24 56 Q21 50 14 50 Q5 50 2 57 Q-1 63 2 69 Q19 97 35.5 125 Q52 153 69 182 Q61 187 55 197 Q49 207 51 222 Q53 236 57 249 Q61 262 66 273 Q71 286 76.5 298 Q82 310 89 321 Q92 327 99 327 L100 327 Q107 327 111 320 Q114 314 111 308 Q107 303 104 297 Q101 291 98 286 Q87 263 80 238 Q80 237 79.5 236.5 Q79 236 79 235 Q77 230 76 225 Q75 220 75 215 Q76 209 82 203 Q101 235 120 266 Q139 297 159 329 L152 334 Q150 336 148 336.5 Q146 337 144 339 Q135 344 126.5 350 Q118 356 112 365 Q104 375 104 388 Q104 401 112 414 Q118 425 126.5 434.5 Q135 444 143 452 Q151 460 159.5 467.5 Q168 475 178 483 Q197 497 217.5 507.5 Q238 518 261 526 Q267 528 273 529.5 Q279 531 286 533 Q300 556 312.5 576 Q325 596 337 614 Q340 619 345 619.5 Q350 620 355 618 Q360 614 360 609.5 Q360 605 358 601 Q349 586 339 571 Q329 556 319 539 Q336 541 347 538 Q371 532 377 512 Z M105 193 Q110 193 114 192.5 Q118 192 123 193 Q146 196 167 209 Q178 216 187.5 224.5 Q197 233 206 241 L207 242 Q214 249 221.5 257 Q229 265 229 275 Q229 283 222 288.5 Q215 294 207 299 L201 302 L180 316 Q172 303 165 292 Q158 281 152 270 Q141 253 130 234 Q119 215 105 193 Z M204 403 Q219 427 234.5 451.5 Q250 476 265 501 Q232 490 203.5 470.5 Q175 451 152 425 Q144 417 138 408 Q129 397 129 389 Q128 381 135 375.5 Q142 370 149 365 Q150 364 151 364 Q152 364 153 363 L172 351 Q180 365 188 377.5 Q196 390 204 403 Z " />
<glyph glyph-name="percent" unicode="&#x25;" horiz-adv-x="275" d="M405 576 Q408 566 401 559 Q374 537 347.5 514 Q321 491 295 467 Q250 425 208 380.5 Q166 336 126 288 Q46 192 -19 89 Q-22 84 -28 84 Q-29 83 -31 83 Q-33 83 -37 85 Q-46 91 -38 102 Q-19 131 0.5 160 Q20 189 41 217 Q116 318 202 407 Q275 483 355 551 L292 543 Q289 529 277 515 Q269 507 259.5 501.5 Q250 496 240 495 Q227 492 219 499 Q211 508 217 523 Q226 543 246 560 Q251 564 256 568 Q261 572 267 572 Q273 572 279 566 Q281 566 283 567 L395 581 Q401 582 405 576 Z M258 540 Q255 537 252 534 Q249 531 247 527 Q245 525 243 521 Q243 521 242 520 Q251 522 258 529 Q265 536 267 544 L265 544 Q264 544 263 545 L258 540 Z M111 198 Q119 196 122 190 Q127 179 120 166 Q112 152 97.5 140.5 Q83 129 66 124 L62 124 Q58 124 55 127 Q50 130 52 137 Q58 168 83 194 Q90 200 98 196 Q103 200 111 198 Z M91 167 L90 166 L87 163 Q89 164 91 166 L91 167 Z " />
<glyph glyph-name="quotedbl" unicode="&#x22;" horiz-adv-x="360" d="M320 742 Q325 750 333.5 745 Q342 740 337 732 L316 696 Q311 688 302.5 693 Q294 698 299 706 L320 742 Z M351 742 Q356 750 364.5 745 Q373 740 369 732 Q364 723 358 714 Q352 705 347 696 Q345 692 341 691.5 Q337 691 334 693 Q331 695 329.5 698.5 Q328 702 330 706 L351 742 Z " />
<glyph glyph-name="quotesingle" unicode="&#x27;" horiz-adv-x="315" d="M304 743 Q309 751 317.5 746 Q326 741 321 733 L300 697 Q295 689 286.5 694 Q278 699 283 707 L304 743 L304 743 Z " />
<glyph glyph-name="grave" unicode="&#x60;" horiz-adv-x="350" d="M354 694 Q360 685 351 682.5 Q342 680 337 689 Q322 714 313 738 Q311 743 313 745.5 Q315 748 319 748 Q323 748 327 745.5 Q331 743 333 738 Q338 727 343 716 Q348 705 354 694 Z " />
<glyph glyph-name="asciicircum" unicode="&#x5e;" horiz-adv-x="335" d="M333 745 Q338 750 345 746.5 Q352 743 350 736 Q343 716 336 696.5 Q329 677 322 657 Q319 648 310 650 Q306 652 303.5 655.5 Q301 659 303 663 Q306 671 309 679.5 Q312 688 315 697 Q306 686 298 676.5 Q290 667 282 656 Q277 647 268 652 Q265 654 263.5 658.5 Q262 663 265 666 Q281 687 297.5 707 Q314 727 333 745 Z " />
<glyph glyph-name="quotedblleft" unicode="&#x201c;" horiz-adv-x="360" d="M320 742 Q325 750 333.5 745 Q342 740 337 732 L316 696 Q311 688 302.5 693 Q294 698 299 706 L320 742 Z M351 742 Q356 750 364.5 745 Q373 740 369 732 L347 696 Q345 692 341 691.5 Q337 691 334 693 Q331 695 329.5 698.5 Q328 702 330 706 L351 742 Z " />
<glyph glyph-name="quotedblright" unicode="&#x201d;" horiz-adv-x="362" d="M320 742 Q325 750 333.5 745 Q342 740 337 732 L316 696 Q311 688 302.5 693 Q294 698 299 706 L320 742 Z M351 742 Q356 750 364.5 745 Q373 740 369 732 L347 696 Q345 692 341 691.5 Q337 691 334 693 Q331 695 329.5 698.5 Q328 702 330 706 L351 742 Z " />
<glyph glyph-name="quoteright" unicode="&#x2019;" horiz-adv-x="316" d="M304 743 Q309 751 317.5 746 Q326 741 321 733 L300 697 Q295 689 286.5 694 Q278 699 283 707 L304 743 L304 743 Z " />
<glyph glyph-name="quoteleft" unicode="&#x2018;" horiz-adv-x="318" d="M304 743 Q309 751 317.5 746 Q326 741 321 733 L300 697 Q295 689 286.5 694 Q278 699 283 707 L304 743 L304 743 Z " />
<glyph glyph-name="B" unicode="B" horiz-adv-x="670" d="M956 708 Q958 698 950 693 Q905 670 861 648 Q817 626 772 603 Q694 565 618 525.5 Q542 486 467 444 Q429 423 392 401.5 Q355 380 317 357 Q300 346 283 335.5 Q266 325 249 314 Q241 308 232.5 300.5 Q224 293 217 284 Q224 285 230.5 285.5 Q237 286 244 286 Q291 291 338 291.5 Q385 292 431 283 Q451 278 470 270.5 Q489 263 505 249 Q536 222 538 180 Q539 160 531 141 Q523 122 512 105 Q499 87 483.5 71 Q468 55 451 41 Q416 9 380 -19 Q344 -47 306 -74 Q296 -82 286 -88.5 Q276 -95 266 -103 Q272 -104 278.5 -105 Q285 -106 292 -108 Q297 -109 300 -113.5 Q303 -118 301 -123 Q299 -128 295 -130.5 Q291 -133 286 -132 Q275 -130 263.5 -127.5 Q252 -125 241 -123 L237 -123 Q199 -149 155 -176 Q116 -198 74.5 -215 Q33 -232 -12 -239 Q-33 -242 -54 -242.5 Q-75 -243 -97 -239 Q-115 -236 -132.5 -228 Q-150 -220 -161 -203 Q-172 -184 -166 -164.5 Q-160 -145 -147 -129 Q-133 -112 -115.5 -99.5 Q-98 -87 -78 -78 Q-58 -69 -37 -64 Q-16 -59 7 -59 Q31 -58 54.5 -62 Q78 -66 101 -71 Q134 -77 166.5 -83.5 Q199 -90 232 -96 Q256 -79 280.5 -61.5 Q305 -44 329 -27 Q363 -1 396 26 Q429 53 460 83 Q472 95 484 109.5 Q496 124 503.5 140 Q511 156 512.5 173.5 Q514 191 505 208 Q496 225 481.5 235.5 Q467 246 449.5 252 Q432 258 413 260.5 Q394 263 377 265 Q332 268 286.5 265 Q241 262 196 257 Q190 256 186 261.5 Q182 267 184 273 Q191 293 205 308 Q219 323 236 335 Q255 349 275 361 Q295 373 315 385 Q390 431 466.5 472.5 Q543 514 621 555 Q697 594 773 632.5 Q849 671 926 709 Q926 710 925 710 Q921 712 918 713 Q915 714 910 716 Q901 718 890 717.5 Q879 717 868 715 Q840 713 812.5 708.5 Q785 704 757 699 Q654 678 555 644 Q456 610 358 572 Q343 566 327.5 560 Q312 554 297 548 Q252 477 207.5 407 Q163 337 121 265 Q110 249 99 228 Q102 232 106.5 232.5 Q111 233 115 230.5 Q119 228 121 223.5 Q123 219 120 214 Q111 198 102.5 182.5 Q94 167 85 151 L25 40 Q17 26 10.5 13.5 Q4 1 -4 -12 Q-11 -24 -19.5 -33 Q-28 -42 -41 -47 Q-47 -49 -53 -44 Q-59 -39 -56 -32 Q-19 60 25 144 Q64 221 108 294 Q152 367 198 439 Q213 462 227.5 485.5 Q242 509 257 532 Q190 504 126 472 Q62 440 2 400 Q-2 397 -7 398.5 Q-12 400 -15 404 Q-20 414 -10 421 Q-5 425 0.5 428.5 Q6 432 11 435 Q54 463 99 486.5 Q144 510 191 531 Q214 541 235.5 550 Q257 559 280 568 Q306 609 331 649.5 Q356 690 381 732 Q384 737 389 738 Q394 739 397.5 736.5 Q401 734 403 729.5 Q405 725 402 719 Q382 685 361 651.5 Q340 618 319 584 L382 608 Q433 627 484 645 Q535 663 587 680 Q638 696 689.5 709 Q741 722 794 731 Q808 733 821 734.5 Q834 736 848 738 Q859 740 870.5 741 Q882 742 894 742 Q912 742 931 735 Q950 728 956 708 Z M45 129 Q58 153 71 177 Q84 201 97 224 Q70 177 45 129 Z M187 -126 Q192 -124 195.5 -121 Q199 -118 203 -116 Q168 -109 132.5 -102 Q97 -95 62 -89 Q41 -85 19.5 -83.5 Q-2 -82 -23 -86 Q-60 -93 -94 -115 Q-108 -125 -122 -138.5 Q-136 -152 -141 -169 Q-144 -176 -142 -183 Q-141 -186 -140 -188.5 Q-139 -191 -138 -193 Q-133 -198 -127 -202 Q-121 -206 -115 -208 Q-97 -215 -78.5 -217 Q-60 -219 -42 -217 Q-22 -216 -2 -212 Q18 -208 37 -202 Q78 -189 115 -169 Q152 -149 187 -126 Z " />
<glyph glyph-name="C" unicode="C" horiz-adv-x="613" d="M772 726 Q778 723 778.5 717 Q779 711 775 706 Q740 671 704.5 636 Q669 601 634 566 Q571 503 508 440.5 Q445 378 382 315 Q285 218 191 118 Q229 147 261.5 181 Q294 215 328 247 Q332 251 337 250.5 Q342 250 345 247 Q348 244 348.5 239 Q349 234 345 230 Q334 219 324 209 Q314 199 304 188 Q284 168 263.5 148 Q243 128 221 111 Q201 94 178.5 79 Q156 64 130 55 Q120 52 116 61 Q112 70 117 76 Q152 113 185.5 149 Q219 185 254 221 Q317 285 379.5 347.5 Q442 410 505 473 Q565 533 624.5 592 Q684 651 744 711 Q738 713 732 714.5 Q726 716 719 718 Q699 723 677 721.5 Q655 720 635 715 Q612 710 591.5 701 Q571 692 551 681 Q509 659 472 631.5 Q435 604 399 575 Q355 541 313 505 Q271 469 231 431 Q148 351 75 263 Q40 219 5 175.5 Q-30 132 -62 85 Q-78 61 -92 36.5 Q-106 12 -119 -13 Q-130 -36 -140 -58.5 Q-150 -81 -155 -105 Q-156 -111 -157 -116.5 Q-158 -122 -158 -128 Q-158 -134 -158 -140 Q-158 -146 -157 -151 Q-155 -156 -153.5 -161 Q-152 -166 -150 -171 Q-149 -175 -145 -181 Q-144 -183 -142 -185 Q-140 -187 -140 -187 Q-138 -190 -134 -194 Q-133 -194 -132 -195 Q-130 -197 -129 -197 Q-128 -198 -127 -198.5 Q-126 -199 -125 -200 L-123 -200 Q-119 -202 -116 -203 L-112 -203 L-111 -204 L-110 -204 L-102 -204 Q-97 -204 -94 -203 L-92 -203 L-91 -203 Q-89 -203 -87 -202 Q-77 -200 -70 -198 Q-64 -196 -60 -194 Q-59 -194 -58.5 -193.5 Q-58 -193 -57 -193 L-56 -193 Q-55 -192 -54 -192 Q-45 -187 -36.5 -183 Q-28 -179 -20 -174 Q1 -162 21.5 -149.5 Q42 -137 62 -124 Q156 -62 242 9 Q287 45 328 83 Q369 121 409 163 Q413 167 418 166.5 Q423 166 426 163 Q429 160 429.5 154.5 Q430 149 426 145 Q416 135 406.5 125 Q397 115 386 104 Q305 25 210 -49 Q117 -120 19 -180 Q2 -191 -15 -200 Q-32 -209 -51 -217 Q-68 -224 -87 -227.5 Q-106 -231 -125 -226 Q-146 -220 -160 -202 Q-174 -184 -180 -163 Q-186 -137 -181 -110.5 Q-176 -84 -167 -60 Q-147 -6 -118 42.5 Q-89 91 -56 136 Q-22 184 16 229 Q34 252 52.5 274.5 Q71 297 90 319 Q128 364 169 405.5 Q210 447 254 487 Q294 523 335.5 556.5 Q377 590 420 623 Q459 653 500 680.5 Q541 708 587 726 Q633 745 679 746 Q728 747 772 726 Z " />
<glyph glyph-name="A" unicode="A" horiz-adv-x="520" d="M675 740 Q679 738 680.5 733 Q682 728 679 723 Q646 677 615 630 Q584 583 554 535 Q527 493 500 450.5 Q473 408 447 365 Q432 341 417 316.5 Q402 292 388 267 L418 270 Q430 270 430 257 Q430 245 418 245 Q411 244 405 243.5 Q399 243 393 243 Q388 242 382.5 241.5 Q377 241 372 241 Q365 229 358 217 Q351 205 344 194 Q318 150 294 107 Q270 64 245 19 Q221 -25 197 -68.5 Q173 -112 150 -157 Q148 -162 143 -163 Q138 -164 133 -162 Q122 -155 129 -145 Q132 -139 134.5 -133.5 Q137 -128 140 -123 Q163 -78 187 -34.5 Q211 9 235 53 Q260 98 284.5 141 Q309 184 335 228 Q339 234 341 238 Q303 234 266.5 230 Q230 226 192 221 Q181 220 171.5 219 Q162 218 151 216 Q140 205 128.5 193 Q117 181 105 170 Q62 126 20.5 81.5 Q-21 37 -58 -12 Q-74 -33 -88.5 -54.5 Q-103 -76 -117 -98 Q-98 -73 -75 -50 Q-71 -46 -66.5 -46.5 Q-62 -47 -58.5 -50 Q-55 -53 -54.5 -58 Q-54 -63 -58 -67 Q-63 -74 -69 -80 Q-75 -86 -80 -93 Q-103 -119 -122.5 -147.5 Q-142 -176 -159 -206 Q-161 -210 -163.5 -214 Q-166 -218 -168 -222 Q-174 -232 -188 -228 Q-198 -225 -202 -215 Q-206 -205 -204 -196 Q-202 -187 -197 -179.5 Q-192 -172 -187 -164 Q-182 -156 -177 -148 Q-172 -140 -167 -132 Q-130 -69 -86 -9 Q-64 21 -40.5 49.5 Q-17 78 9 105 Q34 132 59 158 Q84 184 110 210 Q51 202 -7 192 Q-56 184 -105 175 Q-154 166 -203 156 Q-252 145 -300 134.5 Q-348 124 -397 112 Q-445 100 -491.5 87 Q-538 74 -586 60 Q-592 58 -596 61.5 Q-600 65 -601 69.5 Q-602 74 -600.5 78.5 Q-599 83 -593 85 L-569 91 Q-521 105 -473.5 117.5 Q-426 130 -378 142 Q-330 154 -281.5 164.5 Q-233 175 -184 185 Q-85 204 14 221 Q78 232 138 239 L218 319 Q327 426 436 531 Q492 584 547 635.5 Q602 687 659 738 Q661 740 663 741 Q670 743 675 740 Z M546 568 Q559 588 572 608.5 Q585 629 599 649 L467 526 Q376 439 285 350 Q259 324 232.5 297.5 Q206 271 179 245 Q189 246 198 247 Q207 248 216 249 Q286 258 357 264 L438 399 Q464 442 491 484 Q518 526 546 568 Z " />
</font>
</svg>
