<?xml version="1.0" encoding="UTF-8"?>
<svg xmlns="http://www.w3.org/2000/svg" xmlns:xlink="http://www.w3.org/1999/xlink" version="1.2" >
<font id="Raisa Script">
<font-face  font-family="Raisa Script" units-per-em="1000" ascent="750" descent="-250" font-style="normal" font-weight="400" font-stretch="normal" cap-height="700" x-height="500" underline-position="-75" underline-thickness="50" />
<missing-glyph  horiz-adv-x="300" d="" />
<glyph glyph-name="NULL" d="" />
<glyph glyph-name="nonmarkingreturn" unicode="&#xd;" horiz-adv-x="300" d="" />
<glyph glyph-name="space" unicode="&#x20;" horiz-adv-x="300" d="" />
<glyph glyph-name="d" unicode="d" horiz-adv-x="464" d="M467 346 Q469 344 469 343 Q469 342 467 340 Q458 333 449 326 Q440 319 431 311 Q423 304 414.5 297.5 Q406 291 398 283 Q390 275 382.5 267.5 Q375 260 367 252 Q354 238 341.5 226 Q329 214 316 201 Q311 196 306.5 191 Q302 186 297 181 Q294 179 292 176 Q285 170 277.5 164.5 Q270 159 262 154 Q254 149 242.5 145.5 Q231 142 218 146 Q205 151 198 162 Q191 173 187 183 Q185 187 184 191 Q183 195 181 200 Q180 203 179.5 205.5 Q179 208 178 211 Q177 215 177 218.5 Q177 222 176 226 Q175 231 174.5 236 Q174 241 173 246 L173 261 L173 274 L173 291 Q173 296 173.5 300.5 Q174 305 174 310 Q175 315 175 319 Q175 323 176 328 Q177 332 177 335.5 Q177 339 178 342 Q178 347 178.5 352 Q179 357 180 362 L183 383 L189 413 Q190 418 191 423 Q192 428 193 433 Q195 438 196 443 Q197 448 198 453 Q199 457 200 460.5 Q201 464 202 468 Q204 472 204.5 476 Q205 480 207 484 Q208 492 212 503 Q214 508 215 512.5 Q216 517 218 522 Q220 527 221.5 531 Q223 535 225 540 Q229 551 232 561.5 Q235 572 239 583 Q241 590 243.5 596.5 Q246 603 248 611 L248 612 Q246 610 245 608.5 Q244 607 243 605 Q241 601 238.5 597.5 Q236 594 234 589 Q231 584 228 578.5 Q225 573 223 568 Q220 562 217.5 556 Q215 550 213 544 Q209 535 205.5 526 Q202 517 199 508 Q195 497 192 487 Q189 477 185 466 Q183 457 180 448.5 Q177 440 175 431 Q172 422 169.5 412.5 Q167 403 164 394 Q162 385 159.5 376 Q157 367 155 359 L146 329 Q144 322 142.5 315.5 Q141 309 139 303 Q137 295 134 288.5 Q131 282 129 275 Q127 269 124 263.5 Q121 258 118 252 Q111 237 98 223 Q91 214 83 209 Q79 206 75 203.5 Q71 201 65 199 Q42 191 18 200 Q10 203 4 207 Q-2 211 -7 216 Q-12 221 -14.5 226 Q-17 231 -20 236 Q-22 242 -24 246 Q-26 254 -27.5 262 Q-29 270 -29 280 Q-28 285 -28.5 290 Q-29 295 -27 300 Q-24 315 -17 327 Q-14 332 -10 337 Q-6 342 -1 347 Q11 356 32 359 Q46 360 61 357 Q73 353 84 344 Q89 339 94 335 Q99 331 103 326 Q105 324 103 323 Q100 321 97 323 Q95 325 93.5 325.5 Q92 326 90 328 Q86 332 82.5 335.5 Q79 339 74 342 Q68 348 55 353 Q41 358 27.5 352 Q14 346 6 335 Q-3 323 -6 310 Q-8 304 -9 298 Q-10 292 -11 285 L-11 267 L-8 252 Q-7 247 -5 243 Q-3 239 -1 234 Q1 230 3.5 227 Q6 224 8 220 Q12 216 16 212.5 Q20 209 25 206 Q33 202 38 201 Q48 198 58 203 Q70 208 78 218 Q86 226 91 233.5 Q96 241 101 249 Q106 257 109.5 264.5 Q113 272 116 280 Q118 285 119.5 289.5 Q121 294 122 299 Q124 303 124.5 306 Q125 309 127 313 Q128 317 129 320.5 Q130 324 131 328 Q136 344 139 357 L148 387 L157 420 Q159 428 161.5 436.5 Q164 445 167 453 L173 474 Q176 484 179.5 493 Q183 502 186 511 Q191 522 195 532.5 Q199 543 204 553 Q208 563 212 572 Q216 581 221 590 Q228 604 238 619 Q240 623 246 629 Q248 633 259 631 Q266 629 266 623 Q266 618 264 610 Q262 600 260 595 Q258 591 257.5 587.5 Q257 584 256 581 Q254 576 253 572.5 Q252 569 250 564 Q248 559 246.5 554 Q245 549 243 544 Q241 538 239 531.5 Q237 525 235 519 Q233 511 230.5 504.5 Q228 498 226 490 Q224 485 223 479 Q222 473 220 468 Q218 462 216.5 455.5 Q215 449 213 443 Q211 436 210 430 Q209 424 207 417 Q205 409 204 402 Q203 395 202 387 Q200 379 199.5 372.5 Q199 366 197 359 Q196 352 195.5 345 Q195 338 194 331 Q194 327 193.5 324 Q193 321 193 317 Q192 312 192 308 Q192 304 192 299 Q191 294 191 289.5 Q191 285 191 280 L191 262 Q191 257 191 253 Q191 249 192 244 L192 234 Q193 226 194 219.5 Q195 213 197 206 Q198 195 203 185 Q205 180 208 174 Q211 168 215 163 Q220 158 223 156 Q236 151 249 159 Q262 167 269 172 Q276 177 282 182 Q288 187 294 192 L303 201 L313 211 L367 265 Q375 273 382.5 280 Q390 287 398 295 Q406 302 414 309 Q422 316 431 322 Q435 326 439 329 Q443 332 448 335 Q448 335 451 337 Q454 339 457 341.5 Q460 344 462.5 345.5 Q465 347 465 347 Q466 347 467 346 Z " />
<glyph glyph-name="e" unicode="e" horiz-adv-x="245" d="M245 347 Q250 347 250 342.5 Q250 338 246 334 Q246 334 242 330 L239 327 Q234 322 229.5 318 Q225 314 220 310 Q200 292 181 277 Q156 257 129 240 Q102 223 73 210 Q62 205 51 201.5 Q40 198 27 197 Q-2 195 -20 210 Q-38 225 -39 248 Q-40 255 -39 261.5 Q-38 268 -37 276 Q-35 287 -31.5 295.5 Q-28 304 -25 311 Q-23 315 -20.5 318.5 Q-18 322 -16 327 Q-12 332 -8.5 336.5 Q-5 341 -1 346 Q7 355 18.5 361 Q30 367 45 365 Q59 362 69 350.5 Q79 339 74 327 Q72 321 68 317 Q64 313 59 309 Q51 304 42.5 300.5 Q34 297 25 295 Q17 293 10 295 Q3 297 -3 300 Q-5 300 -7 302 Q-7 300 -8 298 L-11 292 Q-16 278 -18 264 Q-20 250 -18 235 Q-16 227 -14 224 Q-9 213 -2 209.5 Q5 206 19 207 Q30 207 40.5 210 Q51 213 61 218 Q104 236 142 263 Q143 263 145 265 Q172 284 197 304.5 Q222 325 245 347 Z M10 330 Q5 323 1.5 317 Q-2 311 0 308 Q2 304 6 304 Q10 304 13 305 Q28 308 41 316 Q55 325 59 335 Q61 340 58.5 346.5 Q56 353 50 355 Q41 359 32 353 Q30 351 28 349.5 Q26 348 24 346 L10 330 Z " />
<glyph glyph-name="f" unicode="f" horiz-adv-x="387" d="M387 347 Q388 346 388.5 343.5 Q389 341 387 340 Q385 338 381 337 Q377 336 373 334 Q370 333 367.5 332 Q365 331 362 330 Q354 327 347.5 323.5 Q341 320 334 317 Q325 312 316 308 Q307 304 297 299 Q288 294 279 289 Q270 284 261 279 Q235 264 209.5 249 Q184 234 161 215 Q144 202 128.5 188.5 Q113 175 97 161 Q85 149 72 137 Q59 125 48 111 Q47 110 45 106 Q43 102 48 100 Q54 98 60.5 96 Q67 94 73 92 Q91 86 105 77 Q115 69 125 60 Q134 49 139.5 36.5 Q145 24 147 9 Q147 3 147.5 -2.5 Q148 -8 147 -14 Q144 -37 134 -55 Q123 -74 99 -79 Q82 -82 65 -68 Q53 -57 43 -39 Q38 -31 34 -22.5 Q30 -14 27 -6 Q22 5 18.5 16.5 Q15 28 11 40 Q7 54 3.5 68 Q0 82 -2 96 Q-7 120 -8 144 Q-9 154 -9.5 163 Q-10 172 -11 181 L-11 200 L-11 234 L-11 247 Q-11 258 -10 270 Q-9 282 -8 293 Q-7 298 -6.5 303 Q-6 308 -5 313 Q-4 318 -4 323.5 Q-4 329 -3 334 Q-1 342 0 350.5 Q1 359 2 367 L8 397 Q10 405 11 412.5 Q12 420 14 428 Q17 440 20 451.5 Q23 463 25 474 Q27 479 28.5 485 Q30 491 32 496 Q34 504 36.5 513 Q39 522 42 530 Q45 540 48.5 549.5 Q52 559 55 569 Q60 580 63.5 590 Q67 600 72 611 Q80 628 89 645 Q95 660 102 670 Q111 686 121 698 Q126 705 131.5 711.5 Q137 718 144 723 Q150 728 157 732 Q164 736 172 737 Q178 738 184 737 Q198 734 208 724 Q218 713 222 700 Q226 692 227.5 682.5 Q229 673 231 664 Q232 658 232 652 Q232 646 232 639 L232 617 Q230 609 229.5 600 Q229 591 227 583 Q226 578 225 572.5 Q224 567 223 562 Q221 557 220 551 Q219 545 217 540 L208 513 Q204 502 199 491 Q194 480 189 469 Q186 462 182 455 Q182 454 181 453 Q181 451 179 449 Q155 404 130.5 372.5 Q106 341 84 320.5 Q62 300 44 289 Q26 278 16 273 L16 266 Q16 260 15.5 254 Q15 248 15 243 Q14 237 14 231 Q14 225 14 220 L14 186 L17 150 Q18 138 19 126 Q20 114 22 103 Q24 93 25.5 83.5 Q27 74 29 65 Q32 51 36 37 Q40 23 45 9 Q55 -22 70 -43 Q78 -57 92 -65 Q99 -71 106 -68 Q111 -65 116 -59 Q127 -43 131.5 -25 Q136 -7 133 11 Q131 29 121.5 44.5 Q112 60 97 70 Q95 72 94 72 Q82 80 69 84 Q56 88 43 93 Q40 95 37 96 Q34 97 32 101 Q30 106 34 110 Q38 114 41 117 Q44 122 47.5 125.5 Q51 129 55 133 Q66 144 76.5 154 Q87 164 98 174 Q114 189 130 202.5 Q146 216 163 228 Q180 242 198 253 Q216 264 235 275 Q246 281 256.5 287 Q267 293 278 299 Q304 313 330 325.5 Q356 338 384 346 L387 347 Z M17 283 Q45 296 71.5 323 Q98 350 118 378.5 Q138 407 151.5 431 Q165 455 168 461 Q172 469 175.5 477.5 Q179 486 183 495 Q189 510 194.5 525 Q200 540 205 557 Q207 565 209 574 Q211 583 213 591 L216 615 Q218 623 218 629 Q219 643 218 657.5 Q217 672 213 686 Q211 694 207.5 701.5 Q204 709 199 716 Q197 720 193 722 Q187 728 175 723 Q165 718 154 707 Q142 695 135 682 Q130 674 125.5 667 Q121 660 116 652 Q112 644 108.5 636.5 Q105 629 102 621 Q96 609 91.5 597 Q87 585 82 572 Q80 567 77.5 561 Q75 555 73 549 Q70 538 66.5 528.5 Q63 519 60 508 Q58 502 56.5 495.5 Q55 489 53 483 Q51 474 48.5 465.5 Q46 457 44 448 L38 421 Q36 415 35.5 409 Q35 403 33 397 Q31 390 30.5 384 Q30 378 28 371 Q28 365 26 355 Q24 347 23.5 339.5 Q23 332 22 324 Q20 314 20 310 L17 283 Z " />
<glyph glyph-name="g" unicode="g" horiz-adv-x="330" d="M330 347 Q334 347 334 342 Q332 337 330 335 Q326 330 322.5 326 Q319 322 315 318 Q296 296 276.5 276 Q257 256 237 236 Q220 219 201.5 203.5 Q183 188 163 174 Q162 174 159.5 172.5 Q157 171 157 169 Q157 163 157.5 156 Q158 149 157 141 L157 124 Q155 109 152.5 95 Q150 81 146 67 Q143 56 139 45 Q135 34 130 23 Q125 15 120.5 6.5 Q116 -2 110 -10 Q105 -17 99.5 -23.5 Q94 -30 88 -36 Q83 -41 77.5 -46.5 Q72 -52 66 -57 Q60 -62 53.5 -66 Q47 -70 40 -75 Q34 -78 28 -81.5 Q22 -85 16 -87 Q10 -90 3.5 -91.5 Q-3 -93 -10 -95 Q-21 -97 -33 -95 Q-45 -93 -55 -86 Q-67 -79 -74 -65 Q-82 -46 -80 -26.5 Q-78 -7 -70 12 Q-62 31 -49.5 47.5 Q-37 64 -24 76 Q-7 91 12 102.5 Q31 114 51 125 Q70 136 89.5 145.5 Q109 155 129 165 Q131 166 133 167 Q135 168 138 170 Q132 203 127 231 Q122 255 117 279 Q112 303 110 314 Q108 309 105 304.5 Q102 300 100 295 Q89 274 78 253 Q67 232 53 212 Q43 198 29 189.5 Q15 181 -1 190 Q-17 198 -23 214 Q-37 244 -30.5 278 Q-24 312 -7 338 Q5 355 23 366.5 Q41 378 61 377 Q75 376 88 369.5 Q101 363 109 349 Q111 346 112 341.5 Q113 337 116 335 Q118 334 121 334 Q124 332 126 326 Q130 314 133 302 Q136 290 139 278 Q141 266 144 253.5 Q147 241 149 229 Q150 223 150.5 217 Q151 211 153 205 L153 201 Q154 196 154.5 192.5 Q155 189 155 185 Q156 184 156 181 Q160 183 163 185 L164 186 Q187 202 208.5 221 Q230 240 250 260 Q271 281 291 302.5 Q311 324 330 347 Z M105 332 Q106 333 106 334 Q104 339 101.5 344 Q99 349 96 354 Q83 374 60 371 Q44 369 30.5 358.5 Q17 348 9 335 Q-5 314 -12 288.5 Q-19 263 -14 237 Q-12 227 -7 213 Q-2 199 8 194 Q14 191 21 195 Q28 199 34 204.5 Q40 210 44.5 215.5 Q49 221 50 222 Q67 248 79 276 Q91 304 105 332 Z M140 150 Q139 154 139 162 Q138 162 137 161 Q132 159 127.5 156.5 Q123 154 118 152 Q110 147 101 143 Q92 139 83 134 Q75 129 66 125 Q57 121 49 116 Q41 111 34 107 Q27 103 20 98 Q15 94 10 91 Q5 88 0 84 Q-5 80 -9 76.5 Q-13 73 -17 68 Q-22 63 -26.5 58 Q-31 53 -36 48 Q-42 40 -47 31.5 Q-52 23 -56 14 Q-66 -7 -67 -27 Q-69 -36 -67 -45 Q-65 -61 -58 -71 Q-54 -76 -50 -79.5 Q-46 -83 -40 -86 Q-27 -90 -12 -89 Q3 -88 15 -82 Q30 -75 39 -69 Q44 -65 48.5 -62 Q53 -59 58 -54 Q66 -48 70 -44 L86 -28 Q91 -22 95 -16 Q99 -10 104 -3 Q108 3 111 9 Q114 15 117 21 Q120 28 123 34.5 Q126 41 128 49 Q130 56 131.5 63 Q133 70 135 77 Q136 83 137 88.5 Q138 94 138 99 Q139 105 139.5 110.5 Q140 116 140 121 L140 150 Z " />
<glyph glyph-name="h" unicode="h" horiz-adv-x="339" d="M339 347 Q338 347 341 344 Q341 342 342 341 Q341 339 340.5 338.5 Q340 338 339 336 Q327 318 316 300.5 Q305 283 294 265 Q284 250 275.5 234.5 Q267 219 258 204 Q250 190 240.5 174 Q231 158 217 149 Q205 143 190 147.5 Q175 152 166 163 Q158 172 155 182.5 Q152 193 149 204 Q144 223 143 243 Q141 257 141 271.5 Q141 286 142 300 Q142 313 142.5 325 Q143 337 143 349 Q143 356 142.5 362 Q142 368 140 374 Q139 376 136 379 Q135 382 129 379 Q124 377 120.5 374 Q117 371 113 368 Q102 360 94.5 351 Q87 342 79 333 Q63 313 50 293.5 Q37 274 25 254 Q21 247 18 240.5 Q15 234 11 227 Q9 224 2 222 Q-3 220 -3 224 Q-4 229 -4 238 Q-4 254 -3.5 270 Q-3 286 -3 302 L3 410 L3 411 Q3 421 4 426 Q5 445 6 463.5 Q7 482 9 501 L26 731 Q31 732 35 731 Q43 729 42 718 Q42 714 41 700 Q40 686 39 666.5 Q38 647 37 624.5 Q36 602 35 580 L25 404 L15 255 L14 250 Q16 252 17 255 Q18 258 20 260 Q34 283 49.5 305.5 Q65 328 85 350 Q96 363 108 372 Q116 378 121 380 Q125 383 135 385 Q145 386 151 380 Q154 377 156 368 Q158 357 157.5 345.5 Q157 334 156 322 Q156 311 155.5 300.5 Q155 290 155 279 Q155 271 155 263 Q155 255 156 247 Q158 217 166 192 Q169 185 172 178.5 Q175 172 180 166 Q187 157 195 156 Q203 155 211 159 Q219 163 226 170 Q233 177 238 185 Q246 199 253.5 212 Q261 225 269 238 Q277 252 286 265.5 Q295 279 304 293 Q312 307 321 320 Q330 333 339 347 Z " />
<glyph glyph-name="i" unicode="i" horiz-adv-x="182" d="M11 524 Q9 525 6.5 529 Q4 533 5 536 L8 545 Q10 552 17 547 Q24 542 20 535 L14 526 Q12 524 11 524 Z M182 347 Q188 344 186 339 Q185 336 183 334 L177 325 Q168 313 158 301 Q148 289 137 279 Q126 269 114 259 Q102 249 89 243 Q76 237 62 237 Q48 237 35 246 Q26 253 21 261 Q19 264 17.5 267 Q16 270 14 274 Q7 291 4 309.5 Q1 328 0 347 Q10 355 16 347.5 Q22 340 25.5 327 Q29 314 31.5 299.5 Q34 285 37 279 Q48 259 62 255.5 Q76 252 91 258 Q106 264 120 276 Q134 288 145 299 Q156 310 165 322 Q166 323 168.5 326.5 Q171 330 174 335 L182 347 Z " />
<glyph glyph-name="j" unicode="j" horiz-adv-x="385" d="M-1 500 Q-3 500 -5 504 Q-7 508 -6 510 Q-4 516 -2 518 Q0 525 7 520 Q14 515 9 509 Q7 506 2 501 Q0 499 -1 500 Z M385 347 Q387 346 388 344 Q390 339 386 338 Q386 337 385 337 Q348 314 313.5 288.5 Q279 263 244 238 Q213 216 183 194 Q153 172 123 150 L121 148 Q115 145 116 138 Q121 117 123 95 Q125 73 126 51 Q126 34 125 18 Q124 2 122 -15 Q118 -41 111 -66 Q104 -91 93 -116 Q73 -157 39 -190 Q23 -205 4.5 -216 Q-14 -227 -36 -232 Q-61 -237 -84.5 -236 Q-108 -235 -129 -224 Q-169 -206 -175 -162 Q-175 -154 -176 -151 L-176 -149 Q-175 -144 -175 -140 Q-175 -136 -174 -131 Q-172 -125 -172 -121 Q-164 -95 -148 -71 Q-135 -51 -119 -33 Q-103 -15 -86 2 Q-61 25 -34 47 Q-7 69 21 89 Q37 102 53.5 113.5 Q70 125 87 137 Q89 141 89 142 L86 154 Q80 174 67.5 200.5 Q55 227 42 252 Q29 277 18 295.5 Q7 314 5 318 Q3 320 3 322 Q0 329 0 338 L0 347 Q3 348 6 348 Q13 348 17 345 Q38 314 56 282 Q72 255 87.5 223.5 Q103 192 111 164 Q111 162 111.5 161 Q112 160 112 158 Q112 158 113 156 Q118 160 123 163.5 Q128 167 133 171 L259 261 Q277 274 295.5 286.5 Q314 299 332 312 Q342 319 354 326 L385 347 Z M94 -56 Q99 -33 101 -11.5 Q103 10 102 33 Q102 53 100 71.5 Q98 90 95 109 Q94 114 93.5 118 Q93 122 92 127 Q90 125 89 125 Q69 110 50 95.5 Q31 81 12 66 Q-14 46 -39 24.5 Q-64 3 -87 -20 Q-104 -37 -118 -54 Q-132 -71 -143 -91 Q-149 -103 -153.5 -115 Q-158 -127 -160 -140 Q-161 -150 -160 -159 Q-158 -186 -141 -203 Q-129 -216 -113 -221.5 Q-97 -227 -78 -229 Q-27 -232 13 -200 Q30 -187 42.5 -171 Q55 -155 64 -138 Q75 -118 82 -97.5 Q89 -77 94 -56 Z " />
<glyph glyph-name="k" unicode="k" horiz-adv-x="487" d="M487 347 Q489 347 489 342 L489 337 Q477 318 466.5 300.5 Q456 283 444 264 Q427 234 409.5 204.5 Q392 175 374 146 Q367 134 359.5 121.5 Q352 109 343 97 Q336 89 328.5 81 Q321 73 311 66 Q296 57 277 54 Q257 51 240 62 Q230 67 223 74.5 Q216 82 210 90 Q199 106 192 123 Q185 140 180 158 Q172 195 172 230 Q172 250 172.5 269 Q173 288 174 308 Q174 319 174 329 Q174 339 175 349 Q175 359 171 367 Q169 371 162 369 Q151 367 138 360 Q114 346 92 327 Q87 322 81.5 317.5 Q76 313 71 308 L62 296 Q50 277 38.5 258 Q27 239 19 219 Q12 204 7 185 Q7 180 2 180 Q-6 178 -10 180 Q-11 180 -11 183 Q-10 192 -9 201.5 Q-8 211 -7 220 Q-5 240 -4.5 260.5 Q-4 281 -2 301 Q-1 318 -0.5 336 Q0 354 1 372 L4 435 Q5 446 5.5 457 Q6 468 7 479 Q8 494 8.5 509 Q9 524 11 539 Q12 550 12.5 560.5 Q13 571 15 582 Q16 592 16.5 601.5 Q17 611 19 621 Q19 623 19.5 625 Q20 627 20 629 L33 734 Q37 735 41 735 Q47 735 46 726 Q44 713 43 700.5 Q42 688 41 676 Q39 657 37.5 639 Q36 621 34 603 Q31 570 29 537.5 Q27 505 25 471 Q25 465 24.5 459 Q24 453 24 447 Q23 432 22.5 417.5 Q22 403 21 388 Q19 371 18.5 353.5 Q18 336 17 319 Q16 305 15.5 292.5 Q15 280 14 266 L14 252 L23 267 Q28 274 33 280.5 Q38 287 43 293 Q48 301 53.5 309 Q59 317 65 325 Q100 373 148 421 Q165 438 181 454.5 Q197 471 214 488 Q231 504 247.5 519.5 Q264 535 282 550 Q295 561 308 570 Q311 571 313.5 571.5 Q316 572 319 572 Q324 572 324 569 Q324 566 318 564 Q316 564 315 565 Q313 566 309 564 Q301 557 294 551 Q287 545 279 538 Q252 514 227.5 489.5 Q203 465 178 439 Q136 395 100 349 Q100 348 99.5 348 Q99 348 99 347 Q101 349 102.5 350 Q104 351 106 352 Q114 358 122 362.5 Q130 367 140 372 Q146 374 152.5 376 Q159 378 167 377 Q186 375 193 365 Q198 356 198 345 Q198 332 198 319.5 Q198 307 197 294 Q195 274 194.5 255 Q194 236 196 216 Q197 193 201 170.5 Q205 148 213 126 Q217 115 222.5 104 Q228 93 237 83 Q246 71 262 64 Q279 57 295 67 Q308 74 318 86 Q338 106 352 131 Q363 147 372.5 163 Q382 179 392 195 Q405 216 417.5 236.5 Q430 257 443 278 Q454 295 465 312.5 Q476 330 487 347 Z " />
<glyph glyph-name="l" unicode="l" horiz-adv-x="367" d="M367 347 Q368 346 369 344 Q370 341 368 339 Q366 337 352.5 325 Q339 313 322 299 Q322 297 320 297 L317 294 Q315 292 313 290.5 Q311 289 309 287 Q297 276 287 267.5 Q277 259 273 255 Q255 238 237.5 221.5 Q220 205 202 188 Q176 163 152.5 137 Q129 111 106 84 L88 66 Q85 63 78 57 Q71 51 62 46.5 Q53 42 43 42 Q33 42 24 50 Q20 54 17 60 Q9 74 4 91 Q-2 113 -4.5 134.5 Q-7 156 -8 177 Q-10 203 -9.5 227.5 Q-9 252 -7 277 Q-5 299 -3 320 Q-1 341 1 362 Q7 406 15 447.5 Q23 489 33 531 Q39 554 45 577 Q51 600 58 623 Q76 686 103 746 Q109 745 113 742 Q117 740 119.5 737 Q122 734 120 730 L120 729 Q111 709 103.5 688.5 Q96 668 88 647 Q79 619 71.5 591.5 Q64 564 57 535 Q47 496 39 452 Q31 417 26 381 Q21 345 17 308 Q14 284 12.5 259.5 Q11 235 10 210 Q10 189 10.5 167.5 Q11 146 14 123 Q16 110 18.5 97 Q21 84 26 71 Q27 70 27 69.5 Q27 69 28 68 Q28 67 28.5 66.5 Q29 66 29 65 Q34 56 42 56 Q50 56 59 60.5 Q68 65 76.5 72.5 Q85 80 91 86 Q97 94 101 98 Q103 100 104.5 102 Q106 104 108 106 Q124 123 139 138.5 Q154 154 171 171 Q193 192 214.5 213 Q236 234 259 255 Q266 262 273 268 Q280 274 288 280 L367 347 L367 347 Z " />
<glyph glyph-name="m" unicode="m" horiz-adv-x="448" d="M448 347 Q450 346 451 343 Q452 338 448 331 Q445 325 439.5 316 Q434 307 427 297 Q420 287 413 277 Q406 267 402 261 Q393 249 384 237.5 Q375 226 366 215 Q350 193 331 171 Q322 160 313 150 Q304 140 294 129 Q275 108 254 89 Q246 82 235 75 Q224 68 212 72 Q207 74 204 80 Q201 86 200 93 Q199 100 199 106.5 Q199 113 199 117 Q197 170 208 222.5 Q219 275 236 326 Q243 345 250.5 363.5 Q258 382 267 401 Q274 415 281 428.5 Q288 442 295 456 Q297 461 299 467 Q299 469 296 468 Q291 466 287 463.5 Q283 461 279 458 Q257 443 240 425 Q223 407 207 388 Q188 366 170 337 Q161 323 153.5 309 Q146 295 139 281 Q131 267 125.5 253 Q120 239 113 225 Q110 219 106 215 Q101 208 92 210 Q83 210 80 217 Q76 228 76 240 Q75 242 75.5 243 Q76 244 75 246 L75 264 Q76 265 75.5 266.5 Q75 268 76 269 Q76 286 81 308 L87 341 Q89 348 90 355 Q91 362 93 369 Q94 370 93 372 Q91 370 87 364 Q76 347 66 330.5 Q56 314 46 297 Q35 275 25 252.5 Q15 230 7 207 Q4 197 1.5 187 Q-1 177 -3 166 Q-4 158 -5 151.5 Q-6 145 -6 137 Q-6 134 -6.5 131.5 Q-7 129 -7 127 Q-7 123 -12 120 Q-16 120 -16 120 L-20 120 Q-26 120 -26 125 Q-29 142 -29 159 Q-29 176 -29 193 Q-28 195 -28.5 196.5 Q-29 198 -28 200 L-28 210 Q-27 211 -27.5 211.5 Q-28 212 -27 213 Q-27 222 -26 231 Q-25 240 -23 248 Q-21 262 -18 274.5 Q-15 287 -13 300 Q-10 311 -7 323.5 Q-4 336 0 347 L1 347 Q6 347 10 346 Q17 344 16 337 Q13 326 10.5 315 Q8 304 5 293 Q3 283 1.5 274 Q0 265 -2 256 Q-4 247 -5 238 Q-6 229 -7 220 Q-7 216 -7.5 213 Q-8 210 -8 206 Q-6 211 -4.5 216 Q-3 221 -1 226 Q4 238 9.5 250.5 Q15 263 21 275 Q30 292 39.5 309 Q49 326 60 343 Q67 354 74 365.5 Q81 377 89 389 Q91 393 95 396 Q99 399 105 397 Q118 393 115 380 Q113 374 113 367.5 Q113 361 111 355 Q109 349 108 342.5 Q107 336 105 329 Q103 322 102 315.5 Q101 309 100 301 Q98 293 96 279 Q94 269 94 264 Q92 257 92.5 250.5 Q93 244 93 236 Q93 232 95 224 Q97 228 99 231.5 Q101 235 103 239 Q112 257 120.5 275 Q129 293 140 310 Q151 329 165 351 Q177 368 190 385 Q203 402 218 419 Q226 428 235 437 Q244 446 254 454 Q261 459 268 464.5 Q275 470 283 475 Q290 478 299 480 Q304 478 308 476.5 Q312 475 314 471 Q316 467 316 465 Q317 463 316 462 Q315 456 313 450.5 Q311 445 309 440 Q304 427 298 415 Q292 403 286 391 Q278 374 271 356.5 Q264 339 258 322 Q245 289 236.5 255.5 Q228 222 223 187 Q222 184 219.5 167.5 Q217 151 215 132.5 Q213 114 214 99.5 Q215 85 221 85 Q222 85 226 87 Q234 91 240.5 96.5 Q247 102 253 107 Q307 160 351 218 Q395 276 439 335 L448 347 L448 347 Z " />
<glyph glyph-name="n" unicode="n" horiz-adv-x="267" d="M270 346 Q271 345 270.5 340.5 Q270 336 267 333 Q264 329 259.5 323.5 Q255 318 250 313 Q242 305 234 296 Q227 288 218.5 279 Q210 270 201 262 Q197 258 193.5 255 Q190 252 186 248 Q186 248 185 247 Q180 243 176 239 Q172 235 167 231 Q163 228 159.5 224.5 Q156 221 152 218 Q152 217 151.5 217 Q151 217 151 216 Q136 203 124.5 201 Q113 199 105.5 202.5 Q98 206 93 214 Q88 222 86 229 Q82 240 81 249 Q80 258 79.5 267 Q79 276 81 285 Q80 287 81 287.5 Q82 288 81 290 L86 314 Q87 315 86.5 316 Q86 317 87 318 Q89 326 91.5 332.5 Q94 339 96 346 Q101 358 105 370.5 Q109 383 114 394 Q116 398 116.5 401.5 Q117 405 119 409 Q115 407 110 402 Q100 391 92.5 380.5 Q85 370 77 359 Q64 341 56 325 Q51 316 46 307 Q41 298 37 288 Q29 274 23 259 Q17 244 10 229 Q9 227 8 225 Q7 223 6 221 Q3 216 -3 216 Q-6 215 -7 216 Q-15 216 -16 222 Q-18 227 -18 233 Q-18 239 -18 245 Q-18 248 -15 271.5 Q-12 295 0 347 Q4 347 7 344 Q11 341 11 332 Q11 324 9.5 315 Q8 306 6 298 Q5 290 4 283 Q3 276 1 268 Q0 260 0 253.5 Q0 247 -1 240 L0 240 Q2 242 2.5 244.5 Q3 247 5 249 Q8 256 11 262.5 Q14 269 17 275 Q24 289 30.5 301.5 Q37 314 45 326 Q55 344 65 360 L86 390 Q97 405 109 415 Q121 427 131 416 Q134 412 132 406 Q130 397 127.5 387.5 Q125 378 122 369 Q119 360 116.5 351.5 Q114 343 111 335 Q103 312 100 293 Q98 282 97.5 270.5 Q97 259 99 248 Q100 242 101 236 Q102 230 104 225 Q107 219 114 214 Q121 209 136 220 L136 221 Q137 222 137.5 222 Q138 222 139 223 L142 226 Q150 231 156 237 Q162 243 169 249 Q177 257 185.5 264.5 Q194 272 202 280 Q216 294 230 308.5 Q244 323 258 337 L267 347 Q269 347 270 346 Z " />
<glyph glyph-name="o" unicode="o" horiz-adv-x="260" d="M262 343 Q264 338 260 337 Q195 301 120 287 Q116 286 109 286 Q106 286 105 285 L105 283 L105 280 L105 278 Q107 249 88 223 Q82 214 75 206 Q68 198 59 190 Q43 177 25 173 Q2 167 -15 180 Q-27 189 -33 205 Q-37 220 -37 239 Q-37 254 -34 269 Q-31 284 -26 298 Q-17 324 0 351 Q10 368 23 378 Q26 381 28 382 Q30 383 34 385 Q38 387 43 385 Q48 384 48 379.5 Q48 375 47 372 Q45 364 41 358 Q40 355 36 349 L32 345 Q27 338 17.5 327.5 Q8 317 -1 310 Q-14 281 -14 248 Q-14 219 -7 205 Q0 191 8 186 Q19 179 31.5 184 Q44 189 54 198 Q64 207 71 216 Q78 225 79 226 Q81 230 83.5 233.5 Q86 237 88 242 Q92 254 94 265 Q95 267 95 271 L95 279 L95 282 Q86 281 76.5 281.5 Q67 282 58 284 Q49 286 40 291.5 Q31 297 28 306 Q25 313 28 319.5 Q31 326 38 329 Q45 335 57 333 Q74 331 85 320 Q96 309 102 294 L103 294 Q145 301 184 313.5 Q223 326 260 347 L262 343 Z M93 293 Q90 306 79 317 Q71 325 61 328 Q54 331 45 327 Q37 324 35 315 Q35 315 35.5 311.5 Q36 308 39.5 304 Q43 300 51 296.5 Q59 293 73 292 Q81 292 86 292.5 Q91 293 93 293 Z M31 366 Q26 360 21 352.5 Q16 345 12 339 Q8 331 3 324 Q14 332 21.5 342 Q29 352 34 360 Q39 370 42 379 L35 370 L31 366 Z " />
<glyph glyph-name="p" unicode="p" horiz-adv-x="436" d="M436 347 Q438 345 439 343 Q442 338 437 336 L436 335 Q397 311 355 290 Q335 279 315 270 Q295 261 275 250 Q255 240 236 230 Q217 220 197 210 Q159 191 119 176 Q79 161 35 155 Q33 154 29.5 154 Q26 154 24 154 Q20 156 20 156 Q17 157 23 162 Q27 164 31 167 Q35 170 40 172 Q62 185 83 198.5 Q104 212 124 226 Q165 256 191 289 Q197 297 202.5 305.5 Q208 314 211 323 Q213 333 211 338 Q207 345 195 344 Q188 343 181.5 340.5 Q175 338 169 335 Q157 329 146.5 321.5 Q136 314 126 306 Q114 295 103.5 284 Q93 273 82 262 Q71 250 61.5 238.5 Q52 227 44 215 Q36 204 29 194 Q22 184 15 173 Q10 166 6.5 159 Q3 152 -2 145 Q-5 140 -7.5 134.5 Q-10 129 -13 124 Q-15 120 -16.5 116.5 Q-18 113 -20 109 Q-22 104 -24.5 99 Q-27 94 -29 89 Q-31 85 -32 82 Q-34 77 -35.5 72.5 Q-37 68 -39 63 Q-42 17 -42.5 -26 Q-43 -69 -43 -103 Q-43 -137 -42.5 -159 Q-42 -181 -43 -184 Q-46 -193 -55 -189 Q-59 -187 -64 -184 Q-64 -173 -64 -161 Q-64 -149 -65 -138 Q-66 -57 -62 23.5 Q-58 104 -44 185 Q-43 193 -42 200.5 Q-41 208 -39 216 L-38 216 L-39 216 Q-37 222 -37 224 Q-36 229 -35 233.5 Q-34 238 -33 241 Q-32 245 -32 247 Q-30 254 -28.5 261 Q-27 268 -25 276 Q-19 300 -10 324 Q-9 326 -8.5 327.5 Q-8 329 -7 331 L0 347 Q2 346 5 345 Q10 342 9 338 Q8 333 7 328 Q6 323 4 318 Q-8 277 -17 232 Q-20 215 -23.5 197.5 Q-27 180 -29 162 Q-29 162 -30 160 Q-32 145 -33 129.5 Q-34 114 -36 98 Q-35 101 -34 103.5 Q-33 106 -32 109 Q-30 113 -27.5 117 Q-25 121 -23 126 Q-20 131 -17.5 136 Q-15 141 -12 146 Q-10 151 -7 155.5 Q-4 160 -1 165 Q4 173 9 180.5 Q14 188 19 196 Q26 206 33.5 216 Q41 226 49 236 Q70 263 96 289 Q107 300 119 310.5 Q131 321 145 330 Q163 341 181 347 Q198 350 208 348 Q226 344 224 328 Q223 315 211 298 Q200 281 184.5 266 Q169 251 152 237 Q130 219 106 203 Q82 187 56 173 Q50 168 45 166 Q83 173 123 189 Q165 204 203.5 224 Q242 244 281 264 Q319 284 358 303 Q397 322 433 345 L436 347 L436 347 Z " />
<glyph glyph-name="q" unicode="q" horiz-adv-x="295" d="M295 347 Q303 347 299 344.5 Q295 342 295 340 Q285 327 276.5 314 Q268 301 260 287 Q253 276 246 264.5 Q239 253 232 241 L187 160 Q177 143 169 125 Q161 107 153 89 Q147 76 141 63.5 Q135 51 130 37 Q123 22 117 7 Q111 -8 105 -23 Q100 -33 96 -42 Q92 -51 85 -61 Q83 -65 79.5 -68.5 Q76 -72 72 -76 Q65 -81 58 -84 Q45 -89 39 -81 Q34 -76 31 -68 Q26 -53 24 -33 Q21 -18 21 -3 Q20 5 20 13.5 Q20 22 20 31 Q19 49 19.5 67.5 Q20 86 22 105 Q24 125 26 144 Q28 163 32 183 Q34 197 37 210.5 Q40 224 42 238 L54 289 Q56 294 56.5 299.5 Q57 305 59 310 L59 312 Q58 311 58 310 Q58 309 57 308 Q49 295 42.5 282.5 Q36 270 28 257 Q11 228 -11 200 Q-16 195 -21.5 189.5 Q-27 184 -34 179 Q-49 169 -64 170 Q-74 172 -79 178 Q-86 186 -86 200 Q-87 214 -83.5 227.5 Q-80 241 -74 255 Q-65 281 -47 305 Q-40 314 -32.5 322 Q-25 330 -15 338 Q-2 348 14 352 Q24 356 37 354 Q51 350 54 338 Q55 332 50 321 Q50 319 48 319 Q45 319 45 321 Q46 324 46 331 L46 339 Q46 340 44 344 Q42 348 36 349 Q30 350 19.5 344 Q9 338 -9 319 Q-24 303 -37 277 Q-50 251 -57 227.5 Q-64 204 -62.5 188.5 Q-61 173 -47 179 Q-31 188 -19 203 Q-7 218 3 232 Q23 260 37 290 Q43 302 48.5 314 Q54 326 60 338 L63 344 Q64 347 69 347 Q80 347 80 340 Q80 335 80 331 Q80 327 79 322 Q77 309 74 296.5 Q71 284 69 271 L60 232 Q58 219 55 206.5 Q52 194 50 181 L44 139 Q42 121 40 102.5 Q38 84 37 66 Q36 54 36 41.5 Q36 29 36 17 Q36 6 36.5 -5 Q37 -16 38 -27 Q39 -36 40 -45.5 Q41 -55 44 -63 Q46 -66 46.5 -69 Q47 -72 49 -74 L54 -79 Q57 -80 59 -78 L69 -68 Q75 -60 79.5 -52 Q84 -44 88 -36 Q95 -22 101 -7 Q107 8 113 22 L149 103 Q163 136 180 164 Q188 177 194.5 190 Q201 203 209 216 Q217 230 226 243.5 Q235 257 243 271 Q250 282 256.5 293 Q263 304 271 315 Q276 323 281.5 331 Q287 339 295 347 Z " />
<glyph glyph-name="r" unicode="r" horiz-adv-x="308" d="M308 347 Q316 347 313 339.5 Q310 332 308 330 L301 314 Q289 286 276.5 259 Q264 232 252 205 Q233 163 216 122 Q199 81 184 38 Q178 22 172.5 6.5 Q167 -9 161 -25 Q156 -41 142 -58 Q135 -65 128 -70 Q121 -75 112 -77 Q92 -83 83 -64 Q76 -49 75 -37 Q69 3 72 45 Q73 74 77.5 101.5 Q82 129 87 158 Q92 180 95.5 201 Q99 222 104 244 Q108 269 107 293 Q107 304 102 316 Q94 332 78 333 Q69 334 60.5 334 Q52 334 43 334 L18 334 Q7 335 -4 337.5 Q-15 340 -25 345 Q-52 361 -58 394 Q-63 414 -61 433 Q-59 452 -53 471 Q-45 496 -30 514 Q-24 521 -17 527 Q-4 536 9.5 533 Q23 530 32 518 Q40 505 42 490 Q44 479 44 468.5 Q44 458 43 447 Q40 419 33 396 Q25 371 11 351 Q10 349 7 346 L7 345 L38 345 Q48 345 57 345 Q66 345 76 344 Q89 344 105 337 Q128 326 131 298 Q133 285 131.5 273 Q130 261 128 249 Q124 227 120 206 Q116 185 111 163 Q106 140 101.5 117 Q97 94 94 71 Q92 53 90.5 35.5 Q89 18 90 1 Q90 -10 91 -21.5 Q92 -33 96 -44 Q98 -48 99.5 -52 Q101 -56 103 -59 Q111 -70 122 -62 Q127 -60 130 -56 Q133 -52 136 -47 Q141 -39 145 -29.5 Q149 -20 152 -11 Q164 31 180.5 71 Q197 111 216 150 Q233 188 250.5 225.5 Q268 263 285 301 Q289 309 293 317 Q297 325 301 333 L308 347 Z M3 353 Q6 358 9 363.5 Q12 369 14 375 Q24 398 28 422 Q32 446 32 471 Q32 485 29 499 Q26 512 19 520 Q11 527 4 524 Q0 522 -6 518 Q-16 510 -22 497 Q-45 458 -42 409 Q-40 388 -32 373 Q-21 353 0 347 L3 353 Z " />
<glyph glyph-name="s" unicode="s" horiz-adv-x="442" d="M444 345 Q446 341 443 339 Q441 337 423.5 324 Q406 311 375.5 293 Q345 275 303 256.5 Q261 238 211 226 Q216 221 222 215 Q228 209 233 202 Q248 183 254.5 161 Q261 139 256 115 Q251 97 241.5 83 Q232 69 219 56 Q205 41 188 29.5 Q171 18 153 9 Q120 -8 80.5 -16 Q41 -24 4 -13 Q-15 -7 -24.5 3 Q-34 13 -38 24.5 Q-42 36 -41 46.5 Q-40 57 -38 64 Q-32 86 -19 105 Q-6 124 10.5 139.5 Q27 155 46.5 168 Q66 181 85 191 Q130 214 184 229 Q171 239 156 247 Q142 255 127.5 261 Q113 267 98 273 Q95 275 89 277 Q47 293 30 305.5 Q13 318 3 333 Q0 337 0 343 L0 347 Q9 353 17 343 Q23 337 24 332 Q25 331 25 330.5 Q25 330 26 329 Q28 326 32 322 Q36 319 42 314.5 Q48 310 59 305 Q63 303 67 301.5 Q71 300 76 298 Q91 292 111 283.5 Q131 275 142 270 Q154 263 165 256.5 Q176 250 184 245 Q194 239 202 234 L204 234 Q205 234 205 234.5 Q205 235 206 235 Q224 241 242.5 247 Q261 253 279 260 Q313 273 349 290 Q381 306 408 323 Q411 325 417 329 Q423 333 428 337 L442 347 Q444 347 444 345 Z M214 204 Q213 205 208 209.5 Q203 214 195 221 L191 221 Q183 219 175.5 217 Q168 215 160 213 Q146 208 132.5 203 Q119 198 106 192 Q83 181 63 167.5 Q43 154 25 137 Q8 121 -6.5 102 Q-21 83 -29 60 Q-31 52 -32 44 Q-33 36 -31 28 Q-28 18 -20.5 11.5 Q-13 5 -3 2 Q7 -1 17.5 -2 Q28 -3 37 -3 Q53 -2 67.5 1 Q82 4 96 8 Q118 14 140 26 Q162 38 180.5 54.5 Q199 71 213 91 Q227 111 233 134 Q238 156 231 175 Q227 191 214 204 Z " />
<glyph glyph-name="t" unicode="t" horiz-adv-x="380" d="M535 672 Q536 671 537 669.5 Q538 668 536 666 Q536 664 532 664 Q528 664 528 669 L530 669 L531 670 Q529 670 528.5 670.5 Q528 671 527 671 Q520 673 514 673.5 Q508 674 502 675 Q464 679 426 679.5 Q388 680 350 679 Q336 679 323 678.5 Q310 678 296 677 Q285 677 273 676 Q261 675 250 674 Q238 672 226.5 671.5 Q215 671 203 669 Q190 667 178 666 Q166 665 153 663 Q142 661 130 659.5 Q118 658 106 656 Q98 655 90.5 654 Q83 653 75 652 L69 631 Q64 608 58 584.5 Q52 561 47 538 Q38 495 32 453 Q29 435 26.5 416.5 Q24 398 22 379 Q16 331 16 283 Q16 264 16 245.5 Q16 227 17 208 Q19 173 23.5 137.5 Q28 102 38 67 Q49 26 69 -7 Q74 -15 79.5 -22 Q85 -29 93 -34 Q106 -44 118 -45 Q129 -45 138 -39 Q145 -34 150 -27.5 Q155 -21 160 -14 Q170 0 178.5 15 Q187 30 196 45 Q213 74 230 102.5 Q247 131 264 160 Q272 174 280.5 187.5 Q289 201 297 215 Q298 217 299 218 Q300 219 301 221 L380 347 L384 345 Q387 344 385 340 Q385 339 382.5 335.5 Q380 332 377 326 L329 247 Q327 242 324 238.5 Q321 235 319 230 Q300 200 282 169.5 Q264 139 246 108 Q236 91 227 73.5 Q218 56 208 39 Q200 23 191 8 Q182 -7 171 -21 Q162 -34 149 -43 Q135 -54 117 -55 Q99 -56 83 -45 Q72 -37 64.5 -28.5 Q57 -20 50 -9 Q39 8 31.5 26 Q24 44 19 63 Q8 98 3 139 Q-2 174 -4 208.5 Q-6 243 -4 278 Q-3 298 -2.5 316.5 Q-2 335 0 355 Q2 379 5 403 Q8 427 13 451 Q17 474 21 497 Q25 520 30 543 Q35 569 42 595.5 Q49 622 57 648 L57 649 Q52 649 42 647 Q25 645 9 642.5 Q-7 640 -23 638 L-89 629 Q-104 627 -119 625 Q-134 623 -148 621 Q-162 619 -175.5 618 Q-189 617 -203 615 Q-215 613 -227.5 612 Q-240 611 -252 609 Q-270 607 -288 606.5 Q-306 606 -325 605 Q-328 604 -331.5 604.5 Q-335 605 -338 604 L-345 604 Q-347 604 -349 606 Q-352 606 -348 608 L-346 608 Q-336 609 -327 609.5 Q-318 610 -309 611 Q-299 613 -289.5 613.5 Q-280 614 -270 615 Q-257 617 -245 618.5 Q-233 620 -220 622 Q-204 624 -188.5 626.5 Q-173 629 -158 631 Q-142 633 -126 635.5 Q-110 638 -94 640 Q-80 642 -66 644.5 Q-52 647 -38 649 Q-24 651 -9 653.5 Q6 656 21 658 Q31 659 40 660 Q49 661 59 663 Q62 664 62 666 Q67 679 70.5 691 Q74 703 78 716 Q79 718 80 721 Q81 724 82 726 Q84 730 87 730 Q92 730 93 726 Q95 722 95 721 Q97 719 94 719 Q92 719 91 720 Q88 706 85 693 Q82 680 78 666 Q83 667 87 667.5 Q91 668 96 668 Q108 670 120 671.5 Q132 673 145 675 Q159 677 171.5 678 Q184 679 198 681 L243 684 Q277 686 311 686.5 Q345 687 380 686 Q397 686 414.5 686 Q432 686 449 685 Q464 684 479 683 Q494 682 509 680 Q514 680 517.5 679 Q521 678 525 677 Q529 676 535 672 Z " />
<glyph glyph-name="u" unicode="u" horiz-adv-x="370" d="M370 347 Q372 347 373 345 Q374 342 370 336 Q317 285 277.5 269 Q238 253 207 253 Q177 253 157 269.5 Q137 286 128 315 Q127 317 126.5 318 Q126 319 125 321 Q111 301 98 285 Q92 276 83.5 267.5 Q75 259 65 254.5 Q55 250 44 250.5 Q33 251 23 261 Q10 274 5.5 289 Q1 304 -1 317 Q-3 332 0 347 Q18 347 19 330 Q19 324 21.5 313 Q24 302 28.5 291.5 Q33 281 38.5 272 Q44 263 50 262 Q64 268 75 278.5 Q86 289 94.5 301 Q103 313 110.5 325.5 Q118 338 124 348 Q130 357 131 352 Q132 347 136 338 Q149 306 163 287 Q177 268 208 266 Q228 264 247 269.5 Q266 275 283 284 Q332 309 370 347 Z " />
<glyph glyph-name="v" unicode="v" horiz-adv-x="558" d="M558 347 Q559 346 559 345 Q559 342 558 342 Q544 337 527.5 332 Q511 327 497 322 L311 250 Q294 244 277 238.5 Q260 233 243 228 Q214 222 191 223 Q186 223 180.5 224 Q175 225 170 226 Q169 226 168.5 226.5 Q168 227 167 227 Q163 219 159 212 Q155 205 151 197 Q137 173 124.5 149 Q112 125 101 100 Q94 87 88.5 74 Q83 61 76 47 Q73 40 69 33 Q65 26 61 19 Q60 17 55 12 Q50 7 42.5 5.5 Q35 4 30 5 Q24 7 22 10 Q18 15 15 20.5 Q12 26 9 31 Q-2 55 -8 80 Q-14 105 -17 131 Q-21 168 -20 205 L-17 256 Q-15 266 -14 276 Q-13 286 -11 296 Q-9 304 -8 312 Q-7 320 -5 328 L0 347 Q3 348 7 347 Q14 345 14 340 L11 313 Q8 293 6 272.5 Q4 252 3 232 Q1 214 1 196 Q1 178 2 161 Q4 135 7.5 110 Q11 85 19 61 Q22 52 25.5 43 Q29 34 32 26 Q36 20 38 16 L39 17 L45 26 Q51 38 57 50.5 Q63 63 69 75 Q81 97 92.5 119 Q104 141 116 164 Q125 181 134.5 197.5 Q144 214 153 231 L153 232 L153 233 Q134 245 132 267 Q130 282 134.5 297 Q139 312 147 326 Q165 355 189 378 Q194 382 199 386 Q204 390 210 393 Q213 395 216.5 396.5 Q220 398 225 398 Q242 400 240 388 Q239 383 238.5 378.5 Q238 374 236 369 Q235 365 231 355 Q229 350 227 344.5 Q225 339 223 334 Q221 329 218.5 323.5 Q216 318 213 313 Q209 305 205 297 Q201 289 197 281 Q191 270 185 259 Q179 248 173 237 Q173 235 174 235 Q186 230 197 230 Q212 229 226.5 231.5 Q241 234 255 239 Q276 245 297 252.5 Q318 260 338 268 Q380 284 421.5 299.5 Q463 315 505 330 Q527 339 550 345 Q554 347 558 347 Z M161 245 Q169 260 176.5 274.5 Q184 289 192 303 Q197 312 201 321 Q205 330 210 340 Q212 346 214.5 351.5 Q217 357 219 363 Q221 368 222.5 373 Q224 378 226 383 Q227 385 227 387 Q227 389 228 392 Q216 385 211 380 Q181 352 166 324 Q151 300 151 275 Q151 258 159 247 L161 245 Z " />
<glyph glyph-name="w" unicode="w" horiz-adv-x="698" d="M700 345 Q701 344 701 342.5 Q701 341 702 340 Q691 331 681 323 Q671 315 659.5 307.5 Q648 300 634 293 Q620 286 601 280 Q600 280 600 279.5 Q600 279 599 279 L598 279 Q559 267 517 266 Q475 265 435 277 L435 258 Q435 253 435 247 Q435 241 434 236 Q433 229 432.5 223 Q432 217 431 210 Q429 200 427.5 191 Q426 182 424 173 Q419 147 410 121.5 Q401 96 390 71 Q380 50 369.5 30 Q359 10 347 -10 Q341 -19 333.5 -27.5 Q326 -36 317 -43 Q302 -55 281 -58 Q251 -62 228 -39 Q211 -20 200 4 Q185 40 179 78 Q177 92 175 107 Q173 122 171 136 Q169 156 168.5 176.5 Q168 197 169 217 Q171 240 172 261.5 Q173 283 175 306 Q175 317 175.5 327.5 Q176 338 176 349 Q175 347 175 345.5 Q175 344 174 342 Q169 325 163 309 Q157 293 152 276 Q148 262 144 248.5 Q140 235 135 221 L99 95 Q94 75 88.5 54 Q83 33 77 12 Q75 3 71.5 -5.5 Q68 -14 65 -22 Q64 -26 62.5 -28.5 Q61 -31 59 -34 Q54 -42 43.5 -42 Q33 -42 27 -34 Q23 -29 20.5 -23.5 Q18 -18 16 -12 Q11 2 7.5 16 Q4 30 2 45 Q0 56 -1.5 67.5 Q-3 79 -4 90 Q-6 101 -6.5 112 Q-7 123 -8 134 Q-9 152 -9.5 170 Q-10 188 -10 206 Q-12 246 -7 287 Q-6 302 -4 317 Q-2 332 0 347 Q6 348 10 347 Q20 345 19 334 Q16 314 14 295 Q12 276 11 256 Q10 233 9.5 211.5 Q9 190 10 168 Q11 151 11.5 134.5 Q12 118 14 101 Q16 78 19 55.5 Q22 33 28 10 Q33 -10 41 -26 Q42 -27 42.5 -28 Q43 -29 45 -31 Q47 -26 49 -22 Q51 -18 53 -13 Q58 0 61.5 13 Q65 26 69 39 Q77 65 84 90.5 Q91 116 99 142 Q104 159 109 175 Q114 191 119 208 Q128 240 137.5 272.5 Q147 305 157 337 Q159 346 162.5 355 Q166 364 169 374 Q171 376 171 377 Q175 382 181 381 Q195 378 195 364 Q195 354 195 344.5 Q195 335 194 326 Q192 291 190.5 256.5 Q189 222 189 187 Q190 152 193.5 118 Q197 84 206 50 Q211 33 216.5 17 Q222 1 231 -14 Q236 -20 240.5 -26 Q245 -32 251 -37 Q264 -47 277 -47 Q285 -47 293 -42 Q309 -32 321 -17 Q330 -4 338 9.5 Q346 23 353 37 Q385 98 404 161 Q409 177 412.5 192.5 Q416 208 418 225 Q419 234 420 243.5 Q421 253 422 263 L422 282 Q422 283 417 284.5 Q412 286 411 287 L399 293 L381 305 Q373 313 365.5 321 Q358 329 353 340 Q348 351 345 364 Q342 377 347 390 Q351 401 360 405.5 Q369 410 380 407 Q396 402 406 389 Q421 370 427 345 Q429 341 431 331 Q432 328 433 319.5 Q434 311 435 298 L435 294 L435 289 Q443 286 452 283.5 Q461 281 472 279 Q498 274 524 276 Q543 277 562 280.5 Q581 284 599 289 Q619 296 635.5 305 Q652 314 663 322 Q668 325 672.5 328.5 Q677 332 682 335 L694 344 L698 347 L700 345 Z M380 330 Q384 324 394.5 314 Q405 304 422 295 L422 302 Q421 304 421 309 L421 310 Q420 313 420 316 Q420 319 419 321 L419 322 L419 323 Q418 326 418 328 Q418 330 417 332 Q416 334 416 336 Q416 338 415.5 339 Q415 340 415 341 Q412 353 407.5 364 Q403 375 395 384 Q388 394 380 398 Q373 401 368 396 Q366 396 366 394 Q364 392 364 391 Q362 387 361 384 Q359 379 360 371 Q361 363 366 352 L372 342 Q374 339 375.5 336 Q377 333 380 330 Z " />
<glyph glyph-name="x" unicode="x" horiz-adv-x="541" d="M537 338 Q536 337 535.5 337 Q535 337 534 336 Q521 327 508.5 318.5 Q496 310 484 301 Q455 279 426 257 Q397 235 368 212 Q348 195 327.5 179 Q307 163 288 146 Q271 131 255.5 115.5 Q240 100 223 85 Q214 77 205 68 Q196 59 185 51 Q180 48 175.5 44.5 Q171 41 164 39 Q145 31 124 35 Q117 37 112.5 39.5 Q108 42 103 45 Q94 50 87 56.5 Q80 63 75 70 Q61 84 52 99.5 Q43 115 36 131 Q32 140 29.5 149 Q27 158 24 168 Q23 168 23 169 Q21 167 19 165 Q17 163 15 161 Q-4 141 -22 122 Q-40 103 -59 83 Q-71 69 -82.5 55.5 Q-94 42 -105 28 Q-107 25 -109 22 Q-111 19 -113 16 L-113 15 L-113 14 L-112 14 Q-111 14 -110 13.5 Q-109 13 -108 13 Q-108 13 -112 11 Q-119 11 -123 14 L-123 17 Q-121 19 -120.5 21.5 Q-120 24 -118 26 Q-111 34 -105 43 Q-99 52 -92 60 Q-75 80 -57.5 99 Q-40 118 -22 138 Q-12 149 -2 159.5 Q8 170 18 181 Q19 182 19 184 Q18 193 16.5 201.5 Q15 210 14 218 Q12 231 11 243.5 Q10 256 9 269 Q8 277 8 284 Q8 291 8 299 Q7 307 7 315.5 Q7 324 6 333 Q6 336 4 340 Q3 342 2.5 343.5 Q2 345 1 347 L-1 349 Q-2 349 -2 350 L-3 351 Q6 351 9 349 Q13 347 18 342 Q22 333 25 322 Q27 313 27.5 304 Q28 295 29 285 Q30 271 31 256.5 Q32 242 33 227 Q34 221 35 214.5 Q36 208 37 201 Q37 202 38 202 Q58 222 78 241 Q98 260 120 279 Q137 294 155 308 Q173 322 193 335 Q203 342 213 348.5 Q223 355 235 361 Q239 363 242.5 364 Q246 365 251 367 Q255 370 260 368 Q263 366 262 365 Q262 364 261.5 363.5 Q261 363 261 362 Q260 362 259 361 Q257 361 257 363 Q257 363 258 365 Q257 364 256 364 L255 364 Q245 359 237 353.5 Q229 348 221 343 Q193 323 167.5 302 Q142 281 118 259 Q98 242 78.5 224 Q59 206 41 187 Q40 186 40 184 Q46 155 58 128 Q64 115 71 103 Q78 91 88 79 Q94 71 101 63.5 Q108 56 119 49 Q122 47 125.5 45 Q129 43 133 41 Q135 41 136 40 Q146 37 153 42 Q162 47 169 52 Q178 60 186.5 67.5 Q195 75 203 83 Q219 98 234.5 113.5 Q250 129 267 143 Q284 157 301.5 171 Q319 185 337 199 Q365 221 393.5 243 Q422 265 451 287 Q467 299 483.5 310.5 Q500 322 517 333 Q519 334 520 335 Q521 336 523 337 L541 347 L542 346 Q543 345 543 342 Q543 341 542 341 Q541 340 540 340 Q539 340 537 338 Z " />
<glyph glyph-name="y" unicode="y" horiz-adv-x="452" d="M452 347 Q461 347 456.5 340.5 Q452 334 452 333 Q407 269 349 218 Q343 212 322 194 Q304 179 268 149.5 Q232 120 167 69 L167 68 Q166 61 165.5 54 Q165 47 163 39 Q163 37 162.5 34 Q162 31 162 29 Q162 26 161.5 23.5 Q161 21 161 19 Q156 -14 146 -45.5 Q136 -77 118 -106 Q107 -123 93.5 -139 Q80 -155 63 -168 Q47 -180 30 -188.5 Q13 -197 -7 -201 Q-27 -205 -46.5 -203 Q-66 -201 -83 -191 Q-117 -172 -120 -138 Q-121 -110 -101 -85 Q-92 -74 -80.5 -64.5 Q-69 -55 -56 -46 Q-36 -33 -15 -21.5 Q6 -10 28 1 Q50 12 70.5 23 Q91 34 111 47 Q119 52 126.5 58 Q134 64 142 69 L146 71 Q147 73 147 75 L150 159 Q151 185 151 210.5 Q151 236 152 262 Q153 274 153.5 286 Q154 298 154 310 L157 343 L157 344 L158 356 L154 348 Q152 345 150 342 Q148 339 146 335 L89 236 Q83 226 77 216 Q71 206 63 196 Q56 186 49 180 Q43 175 36 174 Q20 171 10 182 Q0 193 -4.5 211.5 Q-9 230 -9.5 253 Q-10 276 -8.5 297.5 Q-7 319 -3.5 335.5 Q0 352 4 357 Q9 364 13.5 366.5 Q18 369 21 370 Q25 371 28 369 L27 366 Q25 360 23.5 353.5 Q22 347 20 340 Q14 315 11.5 289 Q9 263 12 237 Q13 224 15.5 210.5 Q18 197 25 186 Q29 181 32.5 180.5 Q36 180 39.5 182.5 Q43 185 46 189 Q49 193 52 196 Q60 206 66 216 Q72 226 78 237 Q99 271 117 306 Q127 323 137 340.5 Q147 358 155 376 Q160 379 164 380 Q173 382 176 375 Q177 373 177 368 Q178 347 177 328 Q176 286 175 245.5 Q174 205 172 163 Q171 147 170.5 132 Q170 117 169 101 L168 93 Q168 93 168 91 L168 89 L168 88 Q187 102 215.5 123.5 Q244 145 274 170 L275 170 L278 173 Q285 179 305 195.5 Q325 212 350.5 236 Q376 260 403 288.5 Q430 317 452 347 Z M144 33 Q145 39 145.5 45 Q146 51 146 57 Q139 52 133 48.5 Q127 45 121 40 Q101 28 80 17 Q59 6 38 -5 Q18 -16 -2.5 -27 Q-23 -38 -43 -51 Q-55 -59 -66 -67.5 Q-77 -76 -86 -87 Q-107 -111 -104 -138 Q-101 -159 -87 -173 Q-71 -188 -51.5 -193 Q-32 -198 -9 -194 Q5 -192 18 -186.5 Q31 -181 43 -173 Q80 -147 104 -106 Q118 -82 126 -56.5 Q134 -31 139 -5 Q141 5 141.5 14 Q142 23 144 33 Z " />
<glyph glyph-name="z" unicode="z" horiz-adv-x="578" d="M584 339 Q570 319 556 300.5 Q542 282 527 263 Q516 251 505.5 239 Q495 227 484 216 Q448 178 409 146 Q370 114 338 91 Q300 64 264 43 L263 42 Q265 38 267 34.5 Q269 31 271 27 Q290 -13 281 -58 Q272 -105 243 -144 Q187 -221 99 -238 Q71 -244 43 -235 Q32 -230 22.5 -223 Q13 -216 6 -204 Q-5 -186 -3 -162 Q-2 -148 2.5 -137 Q7 -126 14 -115 Q22 -101 32.5 -90.5 Q43 -80 55 -71 Q72 -57 89 -45.5 Q106 -34 125 -23 Q127 -21 129 -20.5 Q131 -20 133 -18 Q147 -10 160 -2.5 Q173 5 187 13 Q200 21 213 28 Q226 35 239 43 Q240 44 240.5 44 Q241 44 242 45 Q240 47 239.5 48.5 Q239 50 237 52 Q228 64 216.5 72.5 Q205 81 193 88 Q180 94 167 99 Q154 104 140 107 Q128 110 116 112.5 Q104 115 92 119 Q87 120 82 122 Q77 124 72 126 Q48 137 51 170 Q53 184 56 196.5 Q59 209 64 221 Q73 245 83.5 268 Q94 291 105 314 Q121 346 137 378.5 Q153 411 169 443 Q185 472 195 500 Q197 505 198 510.5 Q199 516 201 521 Q202 522 202 526 Q199 525 196 525 Q188 523 181.5 519.5 Q175 516 168 511 Q154 502 141 490.5 Q128 479 115 466 Q98 449 82 432 Q66 415 50 396 Q27 368 7 338.5 Q-13 309 -30 277 Q-31 275 -32 273.5 Q-33 272 -34 270 Q-33 269 -33 268 L-35 266 Q-40 266 -41 271 Q-37 286 -30 298.5 Q-23 311 -15 324 Q-7 338 2.5 351.5 Q12 365 21 379 Q33 396 45 411.5 Q57 427 71 441 Q108 483 150 514 Q158 520 166.5 525 Q175 530 185 534 Q192 537 198 536 Q216 533 213 511 Q212 502 209.5 494 Q207 486 204 478 Q195 455 184 432.5 Q173 410 162 387 L93 240 Q86 225 80.5 210 Q75 195 70 178 Q68 172 67 165.5 Q66 159 67 152 Q67 138 78 133 Q83 131 89 129 Q95 127 100 126 Q119 121 137.5 117 Q156 113 174 106 Q190 100 205.5 92 Q221 84 235 72 Q240 68 244.5 63.5 Q249 59 254 54 Q254 53 255 53 Q279 67 307 85 Q331 101 362 123 Q393 145 427 174 Q436 182 445 190.5 Q454 199 463 208 Q527 272 578 347 L582 345 Q587 342 584 339 Z M255 -85 Q269 -44 262 -4 Q257 18 249 34 Q248 34 247 33 Q217 16 187.5 -0.5 Q158 -17 128 -34 Q111 -45 94.5 -55.5 Q78 -66 62 -79 Q51 -87 41 -97 Q31 -107 23 -119 Q17 -129 13 -139.5 Q9 -150 7 -163 Q5 -187 19 -207 Q33 -226 57 -231 Q70 -234 82 -233 Q94 -232 107 -228 Q157 -216 199 -176 Q218 -158 232.5 -135.5 Q247 -113 255 -85 Z " />
<glyph glyph-name="c" unicode="c" horiz-adv-x="210" d="M210 347 Q210 346 211.5 344 Q213 342 212 341 Q210 339 204 335 Q198 331 183 321.5 Q168 312 141 296 Q114 280 71 253 Q69 251 67 250.5 Q65 250 63 248 Q48 239 34 234 Q21 229 8.5 228 Q-4 227 -16 232 Q-36 242 -43 264 Q-44 267 -44 272 Q-45 276 -44 280 L-44 282 L-44 284 Q-42 294 -40 299 Q-36 311 -27.5 322.5 Q-19 334 -8 342 Q-3 345 1.5 347.5 Q6 350 11 352 Q28 357 42 349 Q50 345 52 336 Q53 331 51 323 Q51 321 49 321 Q49 319 47 321 Q44 321 44 324 Q44 324 44 326 Q44 327 44.5 327.5 Q45 328 44 330 Q44 338 41 342 Q39 348 32 348 Q27 348 23 346 Q12 342 2 332 Q-9 319 -15 306 Q-19 297 -21 287 L-21 284 Q-22 283 -21.5 283 Q-21 283 -22 282 L-22 280 L-22 272 Q-22 261 -15 251 Q-12 246 -6.5 241 Q-1 236 6 235 Q11 235 16 237.5 Q21 240 26 242 Q31 244 35.5 247 Q40 250 45 252 Q54 257 63 263 Q72 269 81 274 Q113 292 145.5 310.5 Q178 329 210 347 Z " />
<glyph glyph-name="R" unicode="R" horiz-adv-x="618" d="M618 347 Q623 346 622.5 341.5 Q622 337 620 333 Q559 216 477 116 Q457 93 436 70.5 Q415 48 389 30 Q388 29 387 28.5 Q386 28 385 26 L383 26 Q366 14 345 17.5 Q324 21 302.5 34.5 Q281 48 258.5 69.5 Q236 91 216 115 Q168 172 119 253 Q99 255 81 263 Q75 265 75 265 Q74 265 73 266 L58 275 Q56 277 54.5 278 Q53 279 51 281 Q46 285 42.5 290.5 Q39 296 41 302 Q44 309 50 310 Q55 311 61 310 Q66 310 69 309 Q77 307 83.5 304.5 Q90 302 96 299 Q108 290 126 270 Q128 268 134.5 269 Q141 270 148.5 271.5 Q156 273 162.5 275.5 Q169 278 171 279 Q181 282 190 286 Q199 290 208 295 Q227 306 244 319 Q261 332 277 346 Q309 376 335 410.5 Q361 445 384 483 Q410 524 427.5 570.5 Q445 617 437 667 Q434 688 422 699 Q410 710 394 714 Q377 718 362 716.5 Q347 715 333 710 Q312 703 294 693 Q276 683 259 670 Q247 661 235.5 651.5 Q224 642 212 631 Q204 623 196 615.5 Q188 608 180 600 Q169 586 158.5 573.5 Q148 561 137 547 Q128 536 120 525 Q112 514 104 502 Q97 491 90.5 480 Q84 469 77 458 Q68 444 59.5 429 Q51 414 43 399 Q35 383 28 367.5 Q21 352 13 336 Q3 314 -5.5 291.5 Q-14 269 -22 245 Q-31 216 -39.5 187 Q-48 158 -54 128 Q-61 95 -66 61 Q-71 27 -74 -8 Q-76 -30 -76.5 -52 Q-77 -74 -76 -97 Q-76 -114 -75.5 -131 Q-75 -148 -74 -165 Q-73 -176 -72.5 -187.5 Q-72 -199 -69 -211 Q-68 -213 -68 -216 Q-68 -219 -72 -218 Q-74 -218 -76 -216 Q-89 -182 -93 -140.5 Q-97 -99 -95.5 -56 Q-94 -13 -88.5 28 Q-83 69 -77 101.5 Q-71 134 -66 155.5 Q-61 177 -60 180 Q-54 201 -48 221.5 Q-42 242 -34 262 Q3 368 61.5 464 Q120 560 200 640 Q217 657 235 672.5 Q253 688 273 701 Q295 715 321 724 Q347 733 373 731 Q403 729 424 709.5 Q445 690 451 661 Q457 637 454.5 612.5 Q452 588 444.5 563.5 Q437 539 426.5 516 Q416 493 404 473 Q379 430 347 393 Q315 356 277 324 Q260 310 243 297 Q226 284 206 274 Q196 269 187 265.5 Q178 262 168 260 Q166 260 161.5 258.5 Q157 257 152 256 Q147 255 143 254.5 Q139 254 138 255 Q150 240 160 224.5 Q170 209 177 198 Q197 170 223.5 137.5 Q250 105 278 79 Q306 53 332 39.5 Q358 26 378 37 Q398 49 418.5 68.5 Q439 88 455 107 Q473 129 491 152 Q528 197 558.5 246.5 Q589 296 618 347 Z M96 274 Q98 273 100.5 273 Q103 273 105 272 L95 282 Q85 290 73 298 Q61 306 57 299 Q54 294 62.5 289 Q71 284 82 279 L83 279 Q90 275 96 274 Z " />
<glyph glyph-name="A" unicode="A" horiz-adv-x="754" d="M754 347 Q754 344 755 342 Q755 337 754 337 Q751 336 747 335.5 Q743 335 739 334 Q688 323 636.5 314.5 Q585 306 533 299 Q529 261 525.5 223.5 Q522 186 517 148 Q509 90 502 32.5 Q495 -25 487 -82 Q484 -102 480.5 -122 Q477 -142 473 -162 Q472 -167 471 -171 Q470 -175 469 -179 Q467 -183 466 -186 Q465 -189 460 -190 Q452 -192 448 -185 Q444 -175 444 -170 Q441 -142 441 -113 Q440 -96 439.5 -79.5 Q439 -63 437 -46 L437 -44 Q445 -39 446 -48 Q449 -61 450 -74 Q451 -87 451 -101 Q452 -116 453 -131 Q454 -146 455 -161 Q455 -162 456 -163 L457 -163 Q458 -163 459 -153 Q460 -143 460 -141 Q460 -135 460.5 -129.5 Q461 -124 462 -118 L477 5 Q480 36 483.5 66.5 Q487 97 491 129 Q495 160 498.5 190.5 Q502 221 505 252 Q507 263 508 274 Q509 285 510 296 Q461 290 412.5 285.5 Q364 281 315 276 Q283 273 250.5 270.5 Q218 268 186 265 Q178 244 170.5 225.5 Q163 207 158 194 L158 193 L128 103 Q123 92 120 80.5 Q117 69 114 57 Q110 45 107 32.5 Q104 20 101 7 Q96 -10 92.5 -25.5 Q89 -41 86 -58 Q81 -84 76 -109 Q71 -134 67 -160 Q64 -176 62 -192 Q60 -208 58 -224 Q57 -229 56.5 -233 Q56 -237 60 -239 Q51 -246 51 -235 Q51 -229 51.5 -223 Q52 -217 52 -211 Q54 -187 57 -163.5 Q60 -140 65 -116 Q68 -99 71.5 -81.5 Q75 -64 79 -46 Q82 -31 85.5 -15.5 Q89 0 93 16 Q97 30 100.5 42.5 Q104 55 108 68 Q111 82 115 94 Q119 106 123 120 Q128 137 133.5 153.5 Q139 170 144 187 Q144 187 145 188 Q145 189 145.5 190 Q146 191 146 192 Q151 205 155.5 218 Q160 231 165 244 Q167 249 169 254 Q171 259 173 264 Q155 262 137 260.5 Q119 259 102 257 Q48 251 -5 244.5 Q-58 238 -111 228 Q-125 226 -137.5 223.5 Q-150 221 -164 218 Q-176 216 -188 213.5 Q-200 211 -212 207 Q-235 199 -250 181 Q-256 172 -259.5 161 Q-263 150 -261 139 Q-260 134 -264.5 132.5 Q-269 131 -270 136 Q-271 148 -270 158 Q-265 181 -248.5 196 Q-232 211 -210 218 Q-198 222 -185 224.5 Q-172 227 -160 229 Q-146 232 -133 234.5 Q-120 237 -106 239 Q-52 248 2 255 Q56 262 111 267 Q128 269 144 270.5 Q160 272 177 274 Q178 276 178.5 277.5 Q179 279 180 281 L180 282 Q188 299 194 315 Q200 331 205 342 L220 375 Q238 417 258.5 457.5 Q279 498 302 537 Q324 575 347.5 610.5 Q371 646 398 679 Q422 711 449 731 Q462 740 474.5 744 Q487 748 500 742 Q510 737 517 729 Q524 721 529 710 Q538 692 542 671.5 Q546 651 548 629 Q552 592 551.5 554.5 Q551 517 549 479 Q548 441 543 403 Q542 390 541 376 Q540 364 539 350 Q538 336 536 323 Q536 317 534 309 Q542 309 546 310 Q599 317 650.5 326 Q702 335 754 347 Z M528 526 Q529 560 528.5 593.5 Q528 627 524 660 Q522 675 519 688.5 Q516 702 510 715 Q501 734 480 728 Q463 724 446 708 Q424 690 405.5 667 Q387 644 370 619 Q356 597 342 575.5 Q328 554 314 531 Q304 514 295 497.5 Q286 481 277 464 Q269 449 261.5 433.5 Q254 418 246 402 Q246 401 244 399 Q244 398 239 386.5 Q234 375 226 357.5 Q218 340 208.5 318.5 Q199 297 190 275 Q225 278 259.5 281 Q294 284 329 287 Q375 291 420.5 295.5 Q466 300 511 306 Q517 361 521.5 415.5 Q526 470 528 526 Z " />
<glyph glyph-name="C" unicode="C" horiz-adv-x="519" d="M523 335 Q512 318 501 302 Q490 286 479 269 Q461 240 442.5 211.5 Q424 183 406 154 L406 153 Q395 136 387 121 Q382 114 378 107 Q374 100 369 92 Q346 53 326 20 Q309 -9 291.5 -38 Q274 -67 265 -82 Q264 -83 264 -83.5 Q264 -84 263 -85 Q244 -117 223 -149 Q202 -181 173 -204 Q163 -212 152 -217.5 Q141 -223 129 -225 Q109 -228 91 -219 Q73 -210 60 -195 Q46 -179 36.5 -159.5 Q27 -140 19 -118 Q10 -92 4.5 -65 Q-1 -38 -5 -10 Q-10 22 -12 53.5 Q-14 85 -15 117 Q-15 170 -12 223 Q-8 305 6 385 Q14 433 25.5 479.5 Q37 526 54 571 Q65 598 76.5 623 Q88 648 104 670 Q118 690 134.5 705.5 Q151 721 171 729 Q195 739 216 733 Q247 723 257 684 Q261 671 262.5 657 Q264 643 266 629 Q267 616 266.5 603 Q266 590 264 577 Q263 569 262 561.5 Q261 554 259 546 Q259 541 255 542 Q253 542 253 547 Q254 555 254 563.5 Q254 572 255 580 Q256 607 254 632.5 Q252 658 245 683 Q244 691 240 700 Q230 722 208 724 Q196 725 185.5 721 Q175 717 164 709 Q148 698 135.5 682.5 Q123 667 112 649 Q81 600 63 538 Q51 504 42.5 469 Q34 434 28 399 Q18 343 13.5 288 Q9 233 7 177 Q5 137 6 98 Q7 59 12 20 Q15 -13 20.5 -44.5 Q26 -76 36 -105 Q43 -125 51.5 -143.5 Q60 -162 72 -178 Q80 -189 93 -199.5 Q106 -210 121 -210 Q139 -210 155.5 -198 Q172 -186 183 -174 Q195 -161 205.5 -146.5 Q216 -132 226 -117 Q241 -95 254.5 -72.5 Q268 -50 283 -27 Q288 -18 301.5 3 Q315 24 329 46 Q345 72 364 102 L397 157 Q426 205 456.5 252.5 Q487 300 519 347 Q520 347 522.5 343 Q525 339 523 335 Z " />
<glyph glyph-name="D" unicode="D" horiz-adv-x="704" d="M704 337 Q678 329 650.5 320 Q623 311 597 303 Q555 290 513 278.5 Q471 267 429 256 Q430 248 430 239 Q430 230 430 220 L430 203 Q429 174 424 143 Q422 122 417.5 103 Q413 84 408 65 Q407 64 407 62.5 Q407 61 406 60 Q403 49 399 38 Q395 27 391 16 Q376 -21 357 -51 Q343 -76 322 -102 Q315 -110 309 -117.5 Q303 -125 295 -132 Q277 -150 254 -168 Q229 -187 201 -201 Q193 -206 184 -210 Q175 -214 166 -217 Q128 -231 91 -237 Q76 -239 60.5 -240.5 Q45 -242 28 -241 Q8 -241 -12.5 -238 Q-33 -235 -55 -230 Q-69 -225 -82.5 -219.5 Q-96 -214 -110 -206 Q-133 -192 -154 -171.5 Q-175 -151 -192 -122 Q-194 -119 -195 -115.5 Q-196 -112 -198 -109 Q-209 -87 -214.5 -61 Q-220 -35 -219 -9.5 Q-218 16 -209.5 40 Q-201 64 -184 84 Q-161 112 -129 130 Q-97 148 -64 161 Q-46 168 -27.5 173.5 Q-9 179 11 182 L9 196 Q4 230 2.5 263.5 Q1 297 0 330 Q0 359 1.5 386.5 Q3 414 5 441 Q6 458 8 473.5 Q10 489 12 505 Q14 515 15 524 Q16 533 18 542 Q20 554 23.5 566 Q27 578 30 590 Q38 617 47.5 641.5 Q57 666 71 686 Q92 718 120 729 Q157 746 204 721 Q225 708 248 687 Q267 670 283 649.5 Q299 629 315 606 Q329 585 341 562.5 Q353 540 364 516 Q371 502 376.5 488 Q382 474 387 460 Q407 408 418 349 Q420 337 422 325 Q424 313 426 301 Q426 296 427 294 Q427 289 427.5 282 Q428 275 429 266 Q439 269 449 271.5 Q459 274 470 277 Q529 293 587.5 310.5 Q646 328 704 347 Q706 345 707 343 Q709 339 704 337 Z M17 372 Q15 343 16 314.5 Q17 286 19 256 Q20 245 20.5 234 Q21 223 22 211 Q23 202 25 183 Q64 190 103 196.5 Q142 203 180 211 Q237 222 293 234 Q349 246 406 260 Q405 265 405 268.5 Q405 272 405 276 L405 278 Q405 280 404 281 Q404 294 403 299 L403 306 L403 307 Q402 309 402 313 Q399 339 394 365.5 Q389 392 382 419 Q378 433 374.5 446 Q371 459 366 472 Q362 482 358.5 491.5 Q355 501 350 512 Q342 532 332.5 551 Q323 570 312 589 Q302 604 291.5 618.5 Q281 633 270 647 Q255 665 239 680 Q223 695 206 705 Q167 726 134 714 Q125 711 117.5 705.5 Q110 700 103 693 Q85 676 73 652 Q61 628 52 601 Q48 591 45.5 581.5 Q43 572 41 561 Q38 548 35 535.5 Q32 523 30 509 Q28 494 26 478.5 Q24 463 22 447 Q20 428 18.5 409.5 Q17 391 17 372 Z M406 215 Q408 228 406 250 Q382 244 358 238.5 Q334 233 309 227 Q238 212 168 199 Q98 186 26 174 Q26 172 27 171 L27 169 Q28 163 28.5 157 Q29 151 30 144 L30 143 Q33 123 36 102.5 Q39 82 43 62 Q48 33 54 4.5 Q60 -24 66 -53 Q71 -76 77 -98 Q83 -120 89 -142 Q93 -155 96.5 -167.5 Q100 -180 103 -194 Q105 -202 100 -203 Q95 -203 92 -195 Q87 -179 82.5 -163.5 Q78 -148 73 -133 Q67 -111 61.5 -89.5 Q56 -68 51 -45 Q46 -23 41.5 -1.5 Q37 20 32 43 Q28 66 24 87.5 Q20 109 17 132 Q15 138 14.5 144.5 Q14 151 13 158 L12 172 Q-7 168 -26 162 Q-43 157 -62.5 149.5 Q-82 142 -99 133 Q-119 123 -135.5 110 Q-152 97 -166 80 Q-179 65 -188 46.5 Q-197 28 -201 4 Q-203 -12 -203.5 -28.5 Q-204 -45 -200 -63 Q-191 -106 -168 -139 Q-153 -161 -136 -175 Q-119 -189 -100 -199 Q-81 -209 -62.5 -214.5 Q-44 -220 -25 -223 Q26 -231 74 -223 Q88 -221 100.5 -218.5 Q113 -216 126 -212 Q141 -207 155.5 -201.5 Q170 -196 184 -188 Q212 -174 237 -155 Q252 -144 265.5 -130.5 Q279 -117 293 -102 Q323 -66 347 -21 Q358 0 366.5 22.5 Q375 45 383 69 Q394 109 400 148 Q405 181 406 215 Z " />
<glyph glyph-name="E" unicode="E" horiz-adv-x="535" d="M537 332 Q535 328 530 321 Q525 314 516 300 Q474 234 432.5 169 Q391 104 349 38 Q328 6 307.5 -26.5 Q287 -59 264 -91 Q251 -110 237.5 -127.5 Q224 -145 208 -162 Q180 -193 145 -209 Q102 -229 60 -226 Q33 -224 11 -210 Q-2 -201 -9.5 -188.5 Q-17 -176 -22 -161 Q-31 -131 -29 -95 Q-27 -61 -19 -28 Q-11 5 1 37 Q50 175 155 283 Q172 301 191.5 317 Q211 333 231 348 Q236 352 241 355.5 Q246 359 251 363 Q253 365 254 365.5 Q255 366 257 368 Q257 368 256 369 Q251 369 248 370 Q243 370 238 370.5 Q233 371 228 372 Q222 372 216.5 372.5 Q211 373 205 374 Q200 375 194 375.5 Q188 376 183 377 Q156 382 131 389.5 Q106 397 85 414 Q44 444 46 503 Q47 526 52.5 547 Q58 568 66 589 Q83 638 115 674 Q129 691 146 704.5 Q163 718 183 726 Q212 739 236 732 Q253 728 263 718 Q273 708 280 693 Q285 682 287.5 669.5 Q290 657 291 644 Q294 624 294 606 Q294 601 293.5 595.5 Q293 590 292 585 Q292 583 290 583 Q285 583 285 587 Q284 593 283.5 598.5 Q283 604 283 610 Q281 625 279 640.5 Q277 656 275 671 Q272 691 263 706 Q248 728 218 725 Q202 723 188.5 715.5 Q175 708 162 698 Q139 680 122 657.5 Q105 635 92 609 Q76 576 68 541 Q65 524 64 508 Q63 492 66 476 Q73 437 105 416 Q118 407 132 401.5 Q146 396 161 391 Q173 389 184.5 387 Q196 385 208 383 L244 380 Q249 379 254.5 378.5 Q260 378 266 377 L272 374 Q276 370 272 364 Q271 360 267 358 Q257 350 248 341.5 Q239 333 229 325 Q205 305 183 284 Q161 263 141 238 Q100 188 69 133.5 Q38 79 17 19 Q8 -7 2.5 -34 Q-3 -61 -5 -89 Q-6 -107 -4.5 -124 Q-3 -141 3 -158 Q20 -207 68 -211 Q125 -218 174 -177 Q190 -163 203 -148 Q216 -133 228 -116 Q247 -88 265.5 -60.5 Q284 -33 303 -4 Q348 65 393 133.5 Q438 202 483 271 Q496 290 508.5 309 Q521 328 535 347 Q537 346 539 344 Q542 341 540 337 L537 332 Z " />
<glyph glyph-name="F" unicode="F" horiz-adv-x="534" d="M657 684 Q658 682 656 680 Q652 677 649 674 Q646 671 642 668 Q590 630 536.5 596.5 Q483 563 425 536 Q396 522 367.5 510.5 Q339 499 309 491 Q289 486 269.5 482.5 Q250 479 230 480 Q213 481 196 485 Q179 489 164 497 Q159 500 154 504 Q149 508 144 511 Q142 513 142 513 Q119 434 103.5 353.5 Q88 273 77 191 Q88 196 100 201 Q145 221 191 237.5 Q237 254 285 271 Q332 287 378.5 302.5 Q425 318 473 332 Q488 337 503 340 Q518 343 533 347 L535 347 L535 342 L535 339 Q520 336 504.5 332 Q489 328 475 323 Q373 291 274.5 255.5 Q176 220 78 178 Q75 176 75 173 Q73 157 71.5 141.5 Q70 126 68 109 Q66 96 65.5 83.5 Q65 71 64 58 Q62 38 61.5 17.5 Q61 -3 60 -23 Q59 -34 58.5 -45.5 Q58 -57 58 -68 Q57 -99 56.5 -129.5 Q56 -160 56 -191 Q56 -198 56.5 -204.5 Q57 -211 58 -218 Q58 -220 58.5 -220.5 Q59 -221 59 -222 Q59 -224 58 -225 Q56 -227 52.5 -226.5 Q49 -226 48 -223 Q46 -215 46 -211 Q43 -176 43 -140 Q43 -104 44 -69 Q44 -44 44.5 -19.5 Q45 5 46 31 Q47 52 47.5 73.5 Q48 95 49 117 Q50 128 51 140 Q52 152 53 164 L53 167 Q52 167 51.5 166.5 Q51 166 50 166 Q23 153 -4 141 Q-31 129 -57 116 Q-59 115 -62 114 Q-65 113 -67 112 L-69 112 Q-73 114 -74 114 Q-73 115 -72.5 116 Q-72 117 -71 118 Q-27 144 23 167 Q31 171 38 174 Q45 177 52 180 Q55 181 55 184 Q59 216 64 248.5 Q69 281 75 313 Q83 358 93 402 Q103 446 115 490 Q117 500 120 509.5 Q123 519 125 529 Q126 531 125 534 Q110 558 107 588 Q104 632 120 671 Q134 705 160 727 Q167 733 177 736 Q183 739 189 736 Q199 733 201 720 Q201 706 196 689 Q189 668 183 648 Q177 628 170 608 Q164 588 157.5 567.5 Q151 547 145 527 Q144 525 146 521 Q167 500 199 492 Q216 488 233.5 488.5 Q251 489 268 492 Q297 497 324 506.5 Q351 516 377 527 Q415 542 450 561 Q485 580 520 601 Q548 618 574 635.5 Q600 653 627 670 Q632 674 637.5 677 Q643 680 648 684 Q650 685 651 685 Q652 685 654 686 Q657 686 657 684 Z M131 549 Q140 578 149.5 605.5 Q159 633 170 661 Q175 674 179.5 686.5 Q184 699 187 713 Q188 717 188.5 720.5 Q189 724 188 729 Q186 728 184 727.5 Q182 727 180 726 Q171 721 164 713.5 Q157 706 150 698 Q140 684 134 668 Q128 652 124 635 Q116 601 123 570 Q124 564 126 558 Q128 552 130 546 Q131 547 131 549 Z " />
<glyph glyph-name="G" unicode="G" horiz-adv-x="592" d="M594 345 Q596 343 594 340 Q592 338 579.5 327 Q567 316 554 305 Q549 301 545.5 298 Q542 295 538 292 Q534 289 530 286 Q526 283 522 280 Q482 251 442 223 Q402 195 362 166 Q357 163 356 157 Q351 124 342.5 91 Q334 58 322 26 Q308 -12 291.5 -48 Q275 -84 255 -118 Q244 -135 233 -150 Q222 -165 209 -179 Q191 -199 172 -213.5 Q153 -228 130 -235 Q107 -243 85.5 -241.5 Q64 -240 44 -226 Q24 -214 15 -187 Q4 -152 20 -109 Q25 -92 33.5 -78.5 Q42 -65 52 -52 Q66 -33 82.5 -17.5 Q99 -2 116 12 Q141 32 166.5 50.5 Q192 69 218 86 Q247 105 276.5 124 Q306 143 335 163 Q338 166 338 169 Q348 266 318 350 Q316 355 313 360 Q310 365 308 371 Q306 372 305 371 Q301 367 297.5 363.5 Q294 360 291 356 Q275 335 260 314 Q245 293 230 272 Q212 246 194 220.5 Q176 195 156 171 Q146 159 136 148 Q126 137 115 128 Q105 120 95.5 114.5 Q86 109 75 107 Q63 104 53 107 Q43 110 34 118 Q24 127 17.5 139 Q11 151 6 165 Q-5 201 -6 241 Q-8 303 3 366 Q11 414 23.5 458.5 Q36 503 53 548 Q64 577 77 603.5 Q90 630 106 654 Q120 674 134.5 690.5 Q149 707 166 720 Q193 741 221 741 Q256 741 277 703 Q285 689 289 674.5 Q293 660 296 643 Q298 626 299 609 Q300 592 300 575 L300 544 L300 538 L299 501 Q299 493 298.5 484 Q298 475 295 466 Q293 463 292 463 Q290 463 290 467 Q290 476 289.5 485.5 Q289 495 289 505 L289 515 L289 518 L289 520 L289 521 L289 541 Q289 545 289.5 548.5 Q290 552 289 556 Q289 573 289 590 Q289 607 288 624 Q287 643 284 660.5 Q281 678 274 694 Q268 708 259.5 717 Q251 726 238 729 Q220 734 198 724 Q171 711 147 684 Q127 663 112 638 Q97 613 84 585 Q69 552 57 517 Q45 482 36 447 Q21 390 15 331 Q11 302 10.5 273 Q10 244 14 215 Q16 195 21 177.5 Q26 160 35 146 Q42 134 50 127 Q71 110 95 127 Q102 132 108 137.5 Q114 143 120 149 Q134 164 147 180.5 Q160 197 172 214 Q198 249 222.5 284 Q247 319 272 355 Q279 366 286 374 Q296 386 307.5 386 Q319 386 327 378 Q336 369 343 350 Q364 296 363 236 Q363 210 360 183 L360 180 L387 198 Q425 224 462 250 Q499 276 537 304 L592 347 L594 345 Z M332 129 Q334 134 334 138.5 Q334 143 336 148 Q334 147 333 146 Q307 128 281 110 Q255 92 229 74 Q206 57 182 41 Q158 25 135 6 Q119 -7 104.5 -20.5 Q90 -34 76 -50 Q65 -63 56 -77 Q47 -91 40 -108 Q26 -141 34 -174 Q41 -202 64 -215 Q100 -235 146 -215 Q180 -198 210 -160 Q226 -142 239 -121 Q252 -100 263 -77 Q313 21 332 129 Z " />
<glyph glyph-name="H" unicode="H" horiz-adv-x="588" d="M590 338 Q555 326 521.5 313.5 Q488 301 453 288 Q439 282 424 276 Q409 270 394 265 Q393 253 392.5 241.5 Q392 230 391 219 Q389 201 388.5 183.5 Q388 166 386 149 Q386 135 385 120 Q384 105 383 91 Q382 77 381.5 63 Q381 49 381 35 Q380 27 379.5 18 Q379 9 379 1 Q378 -15 377.5 -30.5 Q377 -46 377 -62 Q376 -88 375.5 -115 Q375 -142 374 -169 Q374 -180 374.5 -191.5 Q375 -203 375 -215 Q375 -220 377 -228 Q377 -229 378 -230 Q382 -233 379 -237 Q376 -242 369 -240 Q365 -239 363 -232 Q362 -225 361.5 -218.5 Q361 -212 361 -204 Q359 -174 359 -144 Q359 -114 360 -83 L363 28 Q365 54 365.5 80 Q366 106 368 132 Q370 195 374 256 Q353 248 332.5 240 Q312 232 292 224 Q263 212 235 200 Q207 188 179 175 Q181 141 181.5 107.5 Q182 74 181 40 Q180 17 178.5 -5 Q177 -27 172 -50 Q168 -65 163 -78.5 Q158 -92 150 -105 Q141 -119 130 -126 Q122 -131 111 -133 L102 -133 Q93 -133 85.5 -130.5 Q78 -128 72 -125 Q65 -121 60 -117 Q43 -106 29.5 -93 Q16 -80 8 -70 Q-8 -53 -13 -38 Q-24 -19 -22 4 L-22 7 Q-22 14 -21 16 Q-21 18 -20 19 Q-17 35 -10 48.5 Q-3 62 7 74 Q19 89 34 101 Q49 113 64 124 Q82 135 100 145.5 Q118 156 137 166 Q143 169 149 171.5 Q155 174 161 177 Q161 187 160.5 196 Q160 205 159 215 L159 218 Q159 224 158.5 231.5 Q158 239 157 247 L157 248 L157 256 Q156 262 155.5 268 Q155 274 155 279 Q154 284 154 289 Q153 296 153 302.5 Q153 309 152 316 Q150 334 148.5 352 Q147 370 145 388 Q141 418 137.5 448 Q134 478 129 507 Q125 532 120 556.5 Q115 581 107 605 Q99 632 85 654 Q83 657 80.5 660.5 Q78 664 75 666 Q58 684 36 673 Q28 669 21 663 Q14 657 8 649 Q-8 630 -18.5 608 Q-29 586 -36 561 Q-38 555 -38 551 Q-39 549 -38.5 546.5 Q-38 544 -38 542 Q-41 537 -43 544 Q-44 545 -44 548 L-44 553 Q-44 557 -42 565 Q-39 578 -34 590 Q-29 602 -24 613 Q-10 641 7 661 Q15 669 22.5 675 Q30 681 39 684 Q57 688 73 677 Q91 665 102 645 Q112 630 119 613 Q126 596 131 578 Q143 536 149 492 Q157 447 161 406 Q163 389 165 371 Q167 353 169 336 Q170 322 170.5 308 Q171 294 173 280 Q174 266 175 255 Q176 245 176 235 Q176 225 177 219 Q177 211 177.5 202.5 Q178 194 178 185 Q208 199 238 211.5 Q268 224 298 237 Q317 245 336 252 Q355 259 374 267 L380 363 L383 396 Q384 400 384 408 L384 409 L387 440 Q388 446 388.5 452.5 Q389 459 390 465 Q392 482 393.5 499 Q395 516 397 533 Q399 550 401 565.5 Q403 581 405 598 Q408 617 410.5 635.5 Q413 654 415 672 Q417 688 418.5 703 Q420 718 422 733 L422 737 Q422 741 425 741 Q434 741 436 731 Q437 726 437 716 Q437 698 436 680 Q435 662 433 645 L424 561 Q422 534 419 507.5 Q416 481 413 454 Q413 451 412.5 448.5 Q412 446 412 444 L412 441 L411 438 L410 427 L408 406 Q407 393 406 380.5 Q405 368 403 354 Q401 335 399 316.5 Q397 298 395 279 L395 275 Q413 283 430.5 289.5 Q448 296 465 303 Q496 314 526.5 325.5 Q557 337 588 347 Q589 347 592 343 Q595 339 590 338 Z M163 -36 Q166 -9 166 16 Q166 42 165.5 67.5 Q165 93 164 119 Q163 131 163 143 Q163 155 162 167 Q155 164 148.5 160.5 Q142 157 136 154 Q118 145 101 134.5 Q84 124 67 113 Q53 105 43 95 Q29 84 17 70 Q5 56 -2 39 Q-12 16 -10 -7.5 Q-8 -31 4 -51 Q5 -52 5 -53 Q19 -75 39 -93.5 Q59 -112 83 -122 Q94 -127 106 -128 Q118 -129 128 -121 Q137 -113 146 -99 Q160 -71 163 -36 Z " />
<glyph glyph-name="I" unicode="I" horiz-adv-x="371" d="M372 336 Q358 325 344 314 Q330 303 316 292 Q215 208 130 106 Q117 90 107 74 L107 71 Q106 70 106 68 Q105 59 105 49.5 Q105 40 103 30 Q101 13 99 -5 Q97 -23 95 -40 Q90 -72 82.5 -102.5 Q75 -133 63 -162 Q58 -175 51.5 -186.5 Q45 -198 36 -208 Q27 -220 14 -227 Q2 -232 -8 -231 Q-22 -228 -25 -210 Q-28 -196 -24 -177 Q-20 -154 -12 -131 Q-3 -106 8.5 -79.5 Q20 -53 33 -28 Q38 -19 43.5 -8.5 Q49 2 54 12 Q55 14 64 28.5 Q73 43 89 66 L90 92 Q90 94 90.5 95 Q91 96 91 98 L91 101 L91 102 Q94 172 95 241.5 Q96 311 95 381 L92 543 Q92 556 92 568 Q92 580 91 593 L88 671 Q87 683 85.5 695 Q84 707 82 719 Q81 723 80 726 Q79 729 78 733 Q77 735 74 734 Q69 732 66.5 728 Q64 724 61 720 L55 708 Q55 707 54.5 706.5 Q54 706 54 705 Q54 702 52 703 Q49 703 49 706 Q51 714 58 726 Q62 732 66 736 Q74 747 84 737 Q88 733 89.5 728.5 Q91 724 92 719 Q94 708 96 698.5 Q98 689 100 679 Q102 663 103.5 647.5 Q105 632 107 616 Q107 610 107 603.5 Q107 597 108 591 L111 498 Q114 391 114 285 Q113 258 112.5 231.5 Q112 205 112 179 Q111 169 111 159.5 Q111 150 110 140 L110 130 Q110 125 109.5 118.5 Q109 112 108 105 L108 98 L108 93 Q110 97 112 99 Q125 115 141.5 134 Q158 153 179 175 Q266 269 371 347 L373 343 Q375 339 372 336 Z M87 45 Q76 27 70 15.5 Q64 4 63 4 Q55 -13 46.5 -31.5 Q38 -50 30 -68 Q22 -86 15.5 -102.5 Q9 -119 5 -130 Q1 -141 -2.5 -152.5 Q-6 -164 -8 -176 Q-12 -195 -9 -208 Q-4 -230 13 -217 Q20 -212 25 -205 Q33 -195 39 -183.5 Q45 -172 50 -160 Q63 -127 69.5 -92.5 Q76 -58 81 -23 Q82 -12 83 -1.5 Q84 9 85 20 Q86 24 86 27.5 Q86 31 87 35 L87 45 Z " />
<glyph glyph-name="J" unicode="J" horiz-adv-x="580" d="M580 337 Q538 325 498.5 310.5 Q459 296 418 280 Q394 270 370 260.5 Q346 251 321 241 L321 211 Q319 172 315 135 Q309 83 296.5 34.5 Q284 -14 262 -58 Q204 -177 102 -220 Q73 -233 38 -231 Q34 -230 30 -229.5 Q26 -229 22 -228 Q-7 -224 -30 -203.5 Q-53 -183 -64 -157 Q-73 -135 -74.5 -111 Q-76 -87 -72 -62.5 Q-68 -38 -59 -15 Q-50 8 -37 27 Q-12 64 23.5 91.5 Q59 119 96 142 Q135 166 176 186.5 Q217 207 260 225 L302 243 Q302 257 301.5 269.5 Q301 282 300 295 L300 296 Q299 307 299 315.5 Q299 324 298 330 Q297 337 297 343 L297 347 Q292 393 285 437.5 Q278 482 267 526 Q252 593 224 650 Q216 667 206.5 682 Q197 697 185 709 Q182 713 178.5 716 Q175 719 171 722 Q145 741 117 721 Q108 713 100.5 704 Q93 695 85 684 Q77 670 71 658 Q69 650 68 645 Q66 637 71 633 Q71 633 72 631 L72 630 L69 630 Q62 633 62 644 Q62 648 64 656 Q68 671 77 685 Q94 714 115 730 Q128 740 141 741 Q147 742 153 740 Q159 738 164 736 Q177 730 187.5 720 Q198 710 207 698 Q238 657 259 604 Q273 569 283 531 Q293 493 301 454 Q306 430 309.5 405.5 Q313 381 316 356 Q316 351 317 339 Q318 327 319 314 Q319 312 319.5 309.5 Q320 307 320 305 Q321 291 321 278 Q321 265 321 251 Q350 263 378 274.5 Q406 286 435 297 Q470 311 506.5 323.5 Q543 336 580 347 Q581 347 583.5 343 Q586 339 580 337 Z M302 233 Q288 227 275 221.5 Q262 216 249 210 Q207 192 167 171.5 Q127 151 89 126 Q54 103 19.5 75.5 Q-15 48 -36 10 Q-48 -11 -53.5 -33.5 Q-59 -56 -61 -79 Q-61 -86 -61 -92 Q-61 -98 -60 -105 Q-60 -113 -59 -119.5 Q-58 -126 -56 -133 Q-54 -141 -51.5 -147.5 Q-49 -154 -46 -161 Q-42 -168 -38 -174.5 Q-34 -181 -29 -186 Q-17 -198 -2 -207 Q7 -212 17.5 -216 Q28 -220 39 -221 Q68 -224 96 -213 Q143 -195 179 -159 Q215 -123 243 -69 Q262 -32 273.5 8 Q285 48 292 92 Q297 127 299.5 162 Q302 197 302 233 Z " />
<glyph glyph-name="K" unicode="K" horiz-adv-x="490" d="M110 287 Q101 279 91.5 270 Q82 261 73 253 L72 251 Q75 247 78.5 243.5 Q82 240 84 235 Q99 212 106 185.5 Q113 159 117 132 Q122 100 121 67.5 Q120 35 118 3 Q116 -30 114 -62.5 Q112 -95 111 -128 Q110 -140 110.5 -153 Q111 -166 115 -178 L115 -179 L115 -180 Q120 -193 131 -188.5 Q142 -184 156.5 -169.5 Q171 -155 186 -134 Q201 -113 213.5 -94 Q226 -75 234.5 -61.5 Q243 -48 243 -47 Q255 -27 268 -3.5 Q281 20 296 48 Q297 51 301 57 L301 58 Q328 106 357 153 Q386 200 418 246 Q435 272 453 297 Q471 322 490 347 Q491 347 494.5 344.5 Q498 342 496 338 Q472 306 449 273.5 Q426 241 404 208 Q379 170 356 132.5 Q333 95 311 56 Q309 53 302.5 41 Q296 29 286.5 11.5 Q277 -6 264 -28 Q251 -50 237 -72 Q207 -120 178 -159 Q175 -163 166 -172.5 Q157 -182 146.5 -189.5 Q136 -197 126 -199.5 Q116 -202 109 -191 Q109 -190 108.5 -189.5 Q108 -189 108 -188 Q106 -183 104 -175 Q100 -160 100.5 -145 Q101 -130 101 -115 Q103 -81 105.5 -48 Q108 -15 110 18 Q112 52 111 85 Q110 118 104 150 Q99 176 90.5 200.5 Q82 225 65 245 L53 234 Q53 234 52 233 L36 218 Q35 218 35 217 Q21 206 9 194 Q5 191 5 187 Q2 167 -1 147 Q-4 127 -7 107 Q-12 77 -20 48 Q-28 19 -41 -9 Q-51 -31 -63.5 -50.5 Q-76 -70 -93 -87 Q-107 -100 -122 -110 Q-137 -120 -155 -125 Q-167 -130 -179.5 -131 Q-192 -132 -205 -127 Q-241 -115 -247 -78 Q-251 -55 -238 -29 Q-233 -17 -225 -6.5 Q-217 4 -208 15 Q-195 30 -181 43.5 Q-167 57 -152 71 Q-120 99 -88.5 126.5 Q-57 154 -25 181 Q-22 185 -14 191 Q-12 193 -12 194 Q-12 195 -11 197 Q-9 221 -7.5 245.5 Q-6 270 -4 294 Q-1 327 1 360 Q3 393 5 426 L11 534 Q13 554 14 575 Q15 596 16 617 Q18 636 18.5 654.5 Q19 673 21 693 Q22 704 22.5 715.5 Q23 727 23 738 Q23 740 23.5 741 Q24 742 24 744 Q30 745 31 740 Q33 730 33 725 Q34 714 34 704.5 Q34 695 34 685 Q33 665 33 646.5 Q33 628 32 608 Q31 591 31 574.5 Q31 558 30 541 L24 439 Q23 417 22 395 Q21 373 19 351 Q17 329 15.5 307.5 Q14 286 12 264 Q11 251 10 238.5 Q9 226 7 213 Q7 213 8 211 Q9 212 10 212.5 Q11 213 12 215 Q76 270 136 330 Q222 414 303 503 Q332 534 359.5 564.5 Q387 595 415 626 Q435 647 453 668.5 Q471 690 490 712 Q493 715 495.5 718.5 Q498 722 501 726 Q502 728 503 729.5 Q504 731 502 733 Q499 736 506 736 Q508 735 508.5 734.5 Q509 734 511 733 L511 729 Q506 718 499.5 709.5 Q493 701 485 693 Q462 666 438.5 639 Q415 612 392 586 L257 439 Q221 401 184.5 362.5 Q148 324 110 287 Z M-16 156 Q-15 161 -15 165 Q-15 169 -14 174 Q-16 173 -17 172 Q-48 146 -78 119.5 Q-108 93 -139 67 Q-155 53 -169.5 39 Q-184 25 -198 8 Q-207 -2 -215 -13 Q-223 -24 -228 -37 Q-232 -47 -234 -57.5 Q-236 -68 -234 -79 Q-228 -112 -198 -121 Q-184 -126 -165 -121 Q-151 -118 -139.5 -111 Q-128 -104 -117 -96 Q-98 -81 -84.5 -62 Q-71 -43 -60 -22 Q-49 1 -42 24 Q-35 47 -30 71 Q-25 92 -22 113 Q-19 134 -16 156 Z " />
<glyph glyph-name="L" unicode="L" horiz-adv-x="240" d="M-40 -136 Q-35 -137 -31 -137.5 Q-27 -138 -22 -140 Q-3 -145 15.5 -149.5 Q34 -154 53 -159 Q85 -167 115.5 -174.5 Q146 -182 177 -188 Q197 -191 217 -194 Q237 -197 257 -200 Q276 -203 295 -205 Q314 -207 333 -209 L399 -215 Q419 -217 438 -218 Q457 -219 477 -218 Q482 -217 487 -216.5 Q492 -216 497 -215 Q506 -214 507 -204 Q507 -199 512 -201 Q514 -201 514 -205 Q514 -213 508 -216 Q503 -221 492 -223 Q477 -225 462 -225 Q447 -225 432 -224 Q418 -223 404.5 -222.5 Q391 -222 377 -221 L320 -215 Q307 -214 294 -213 Q281 -212 268 -210 Q249 -208 231 -205.5 Q213 -203 194 -200 Q155 -194 116.5 -185 Q78 -176 40 -166 Q19 -160 -2 -155 Q-23 -150 -45 -145 Q-47 -145 -48 -147 Q-81 -191 -120 -217 Q-134 -226 -149 -232 Q-164 -238 -181 -240 Q-195 -242 -208.5 -240 Q-222 -238 -235 -230 Q-241 -225 -246 -219.5 Q-251 -214 -253 -206 Q-258 -190 -250 -176 Q-242 -162 -232 -153 Q-211 -138 -188 -132 Q-168 -127 -149 -125.5 Q-130 -124 -111 -126 Q-97 -128 -83 -129.5 Q-69 -131 -55 -133 Q-52 -133 -51 -131 Q-33 -102 -21.5 -71.5 Q-10 -41 -2 -7 Q6 31 10 69 Q13 104 13.5 139 Q14 174 13 209 Q11 238 9 267 Q7 296 3 325 Q-2 369 -8.5 411.5 Q-15 454 -22 497 Q-31 548 -41.5 597 Q-52 646 -63 696 Q-65 705 -66.5 714 Q-68 723 -70 732 Q-71 733 -71 733.5 Q-71 734 -72 735 Q-74 735 -74 737 Q-74 742 -71 741 Q-68 741 -66 738 Q-62 734 -61 729 Q-58 718 -54.5 706 Q-51 694 -48 682 Q-42 656 -36 631.5 Q-30 607 -24 582 Q-9 508 3 437 Q15 374 21 310 Q23 288 25 266.5 Q27 245 28 223 Q30 204 30 185.5 Q30 167 30 149 Q30 129 28.5 108 Q27 87 25 67 Q22 38 16.5 10.5 Q11 -17 3 -43 Q-12 -93 -39 -133 Q-39 -134 -39.5 -134.5 Q-40 -135 -40 -136 Z M-58 -143 Q-60 -142 -60 -142 L-61 -142 Q-73 -140 -84.5 -138.5 Q-96 -137 -107 -136 Q-126 -134 -144 -134 Q-162 -134 -180 -139 Q-201 -142 -220 -155 Q-226 -160 -231 -165 Q-236 -170 -239 -178 Q-244 -189 -243 -198 Q-240 -210 -230 -219 Q-221 -227 -210 -230 Q-199 -233 -187 -233 Q-165 -232 -141 -219 Q-121 -208 -103.5 -193 Q-86 -178 -71 -159 Q-68 -155 -65 -151.5 Q-62 -148 -58 -143 Z " />
<glyph glyph-name="M" unicode="M" horiz-adv-x="997" d="M1001 338 Q976 309 953 279.5 Q930 250 908 220 Q858 153 812.5 85 Q767 17 719 -52 Q696 -86 672.5 -119.5 Q649 -153 623 -186 Q616 -195 608.5 -203.5 Q601 -212 593 -220 Q584 -228 570.5 -235.5 Q557 -243 544 -236 Q527 -228 519.5 -207.5 Q512 -187 508 -170 Q505 -157 503.5 -144.5 Q502 -132 500 -119 Q500 -114 499.5 -109.5 Q499 -105 499 -100 Q497 -70 496 -40 Q495 -10 497 20 Q498 40 499 60.5 Q500 81 502 102 Q504 122 505.5 142 Q507 162 509 182 Q512 204 514.5 225 Q517 246 520 268 Q523 294 526.5 318.5 Q530 343 534 369 Q539 398 543 427 Q547 456 552 485 Q557 520 563 554 Q569 588 574 623 Q576 640 577.5 656 Q579 672 578 689 Q578 703 575 718 Q574 718 574 720 Q567 739 550 736 Q541 734 533.5 730 Q526 726 518 721 Q502 710 488.5 695.5 Q475 681 462 664 Q438 634 418 600 Q398 566 380 531 Q364 500 350 467.5 Q336 435 323 402 Q307 360 294.5 317.5 Q282 275 271 231 Q265 208 261 185 Q257 162 252 139 Q249 120 246 101 Q243 82 239 62 Q237 55 235 48.5 Q233 42 231 35 Q229 24 221 23 Q213 21 210 29 Q208 36 206 43 Q204 50 203 57 Q199 72 197.5 87 Q196 102 194 117 Q191 152 190.5 186 Q190 220 191 255 Q192 274 192.5 292.5 Q193 311 195 331 Q196 351 197 370.5 Q198 390 200 410 Q201 427 202 443.5 Q203 460 205 477 Q207 494 208 510 Q209 526 211 542 Q212 553 212.5 564 Q213 575 215 586 Q216 596 216.5 605.5 Q217 615 218 626 Q219 634 218.5 641 Q218 648 218 656 Q218 660 216 664 Q216 669 213 666 Q210 663 206.5 660.5 Q203 658 201 654 Q194 645 188.5 634.5 Q183 624 178 613 Q166 588 155.5 562 Q145 536 135 509 Q125 483 116 456 Q107 429 99 402 Q85 356 72 304 Q67 285 63.5 267 Q60 249 57 230 Q54 216 52.5 203 Q51 190 49 176 Q47 162 46 149 Q45 136 43 123 Q42 115 41.5 106.5 Q41 98 41 90 Q40 80 32 80 Q30 80 28 84 L22 126 Q20 137 18.5 148 Q17 159 15 170 Q14 180 13.5 189 Q13 198 11 207 Q10 218 9 228 Q8 238 7 248 Q6 257 5.5 266 Q5 275 4 283 Q3 294 2.5 305 Q2 316 1 327 Q0 334 0 341 Q0 348 -1 356 L-4 401 Q-4 407 -4 412.5 Q-4 418 -5 424 L-8 478 Q-8 484 -8 490.5 Q-8 497 -9 504 Q-9 515 -9.5 524.5 Q-10 534 -10 545 Q-11 551 -11 557 Q-11 563 -12 570 Q-12 581 -12.5 592 Q-13 603 -13 614 Q-14 622 -14 630.5 Q-14 639 -14 647 Q-15 661 -15 675 Q-15 689 -16 703 Q-16 711 -15 716 Q-15 721 -10 719 Q-8 719 -7 718 Q-7 718 -3 716 L-9 716 L-9 711 Q-8 703 -7.5 695.5 Q-7 688 -7 680 Q-6 671 -5.5 661.5 Q-5 652 -4 642 Q-3 637 -3 632 Q-3 627 -3 622 Q-2 614 -1.5 605.5 Q-1 597 -1 588 Q0 583 0 577 Q0 571 1 565 Q1 557 1.5 548.5 Q2 540 3 532 Q3 527 3.5 522 Q4 517 4 512 Q5 502 5.5 493 Q6 484 6 475 Q7 470 7 464.5 Q7 459 7 454 Q8 445 8.5 435.5 Q9 426 10 417 Q10 412 10 406 Q10 400 11 395 Q12 384 12.5 374.5 Q13 365 14 354 Q14 347 14.5 340.5 Q15 334 15 327 Q16 318 16.5 309.5 Q17 301 18 292 Q19 286 19 280 Q19 274 20 268 L23 238 Q23 231 23.5 224.5 Q24 218 25 211 Q26 203 26.5 195 Q27 187 28 179 L31 152 Q32 147 32.5 141.5 Q33 136 33 131 Q35 144 36.5 156.5 Q38 169 40 182 Q46 225 55 269 Q61 295 67.5 319.5 Q74 344 81 370 Q90 401 100 431 Q110 461 121 491 Q132 520 142.5 548 Q153 576 165 604 Q171 618 177.5 631 Q184 644 192 656 Q197 664 204 670 Q210 675 217 672.5 Q224 670 227 662 Q230 651 230 640 L230 617 Q229 609 229 600.5 Q229 592 228 584 Q227 578 227 572 Q227 566 226 560 Q225 552 224.5 544 Q224 536 223 528 Q223 522 222.5 516 Q222 510 221 505 Q220 495 219.5 485 Q219 475 218 465 Q217 457 217 449 Q217 441 216 433 L213 388 Q212 380 211.5 373.5 Q211 367 211 359 Q210 344 209 329 Q208 314 208 299 Q205 243 205 186 Q206 174 206 162 Q206 150 207 137 Q208 126 208.5 114 Q209 102 211 91 Q212 78 214 66 Q216 54 219 42 Q219 41 221 35 Q221 37 221.5 37.5 Q222 38 222 39 Q225 50 227.5 61.5 Q230 73 232 85 Q237 108 240.5 131 Q244 154 249 177 Q253 200 258 222.5 Q263 245 269 268 Q279 303 290 338 Q301 373 315 407 Q348 498 395 580 Q411 609 428 635 Q445 661 465 685 Q477 699 489.5 712 Q502 725 517 734 Q524 739 530.5 742 Q537 745 545 746 Q580 749 591 709 Q597 684 594 659 Q593 644 592 629 Q591 614 589 600 Q587 579 583.5 558.5 Q580 538 577 517 Q572 482 566 448.5 Q560 415 555 380 Q550 350 546 320 Q542 290 538 261 Q535 238 532 214.5 Q529 191 527 168 Q525 147 523 126.5 Q521 106 519 85 Q517 62 516 38.5 Q515 15 514 -8 Q514 -28 514 -48.5 Q514 -69 515 -89 Q515 -126 522 -157 L522 -161 Q523 -164 523.5 -166.5 Q524 -169 525 -172 Q528 -183 532 -194.5 Q536 -206 543 -215 Q552 -224 560 -225 Q568 -227 575 -222.5 Q582 -218 588 -213 Q604 -198 616 -180.5 Q628 -163 641 -146 Q664 -114 686.5 -81.5 Q709 -49 732 -16 Q755 17 777 50 Q799 83 822 116 Q863 176 906 234 Q949 292 997 347 L1000 344 Q1001 342 1002 341 Q1003 340 1001 338 Z " />
<glyph glyph-name="N" unicode="N" horiz-adv-x="758" d="M758 347 Q760 346 762 344 Q765 341 762 338 Q737 309 714 279.5 Q691 250 669 220 Q619 153 573.5 85 Q528 17 480 -52 Q457 -86 433.5 -119.5 Q410 -153 384 -186 Q377 -195 370 -203.5 Q363 -212 354 -220 Q347 -227 339 -231 Q339 -232 338 -232 Q338 -232 337 -233 Q335 -234 334.5 -234 Q334 -234 332 -235 Q315 -243 304.5 -230 Q294 -217 288 -197 Q283 -179 280.5 -157 Q278 -135 277 -113 Q276 -91 275.5 -73 Q275 -55 275 -44 Q275 -19 275.5 6 Q276 31 276 56 L279 143 Q280 163 281 181.5 Q282 200 284 220 Q286 235 286.5 249.5 Q287 264 289 279 Q291 296 292.5 312 Q294 328 296 345 Q298 362 300 379.5 Q302 397 304 414 Q306 431 308 446.5 Q310 462 312 479 Q314 498 316 516.5 Q318 535 320 554 Q323 582 323 612 Q322 620 321.5 628.5 Q321 637 319 645 Q317 648 316 651.5 Q315 655 313 658 Q310 664 304 662 Q297 660 292 657 Q286 654 281 649.5 Q276 645 271 640 Q261 630 253.5 619 Q246 608 239 597 Q225 574 212.5 550 Q200 526 189 500 Q165 447 146 393 Q127 339 111 282 Q100 242 91 201.5 Q82 161 74 119 Q70 96 67.5 73.5 Q65 51 63 28 Q61 12 60 -3.5 Q59 -19 58 -36 Q58 -38 57.5 -40.5 Q57 -43 57 -45 Q56 -52 47 -54 Q43 -54 42 -50 Q41 -47 40 -44 Q39 -41 38 -37 Q29 4 23 49 Q17 82 14 115 Q10 144 8 176 Q6 191 5 206.5 Q4 222 3 238 Q2 249 2 261 Q2 273 1 285 Q-2 380 1 475 Q2 532 7 589 Q8 605 9 620 Q10 635 12 651 Q13 665 14 678.5 Q15 692 13 706 Q13 716 10 725 Q6 734 -2 733 Q-12 731 -17 729 Q-26 725 -34.5 719 Q-43 713 -51 705 Q-72 685 -89 661.5 Q-106 638 -118 610 Q-122 604 -125 592 Q-127 593 -127.5 593 Q-128 593 -130 594 L-130 600 Q-128 605 -126.5 610 Q-125 615 -123 620 Q-116 640 -105.5 656.5 Q-95 673 -83 688 Q-73 699 -62.5 709.5 Q-52 720 -40 728 Q-26 739 -10 742 Q13 745 23 721 Q25 715 26 709 Q27 703 28 697 Q29 683 28.5 669.5 Q28 656 27 642 Q27 634 26.5 625 Q26 616 25 608 Q24 595 23.5 582 Q23 569 22 556 Q21 546 20.5 536.5 Q20 527 20 517 Q15 424 17 330 Q18 304 18.5 277.5 Q19 251 21 225 Q22 203 23.5 181.5 Q25 160 27 138 Q30 104 34.5 70.5 Q39 37 44 3 Q46 -7 46 -12 Q47 -12 47 -13 Q48 -9 48 1 Q50 28 53 55.5 Q56 83 61 110 Q76 199 100 283.5 Q124 368 156 451 Q170 485 184.5 517 Q199 549 216 581 Q225 597 235 612 Q245 627 257 641 Q268 656 281 664 Q286 666 291 668 Q296 670 301 671 Q321 673 330 652 Q333 647 334 641 Q335 635 337 629 Q339 613 339 598 Q339 583 338 567 Q337 554 336.5 541 Q336 528 334 515 L328 458 Q326 441 324 424 Q322 407 320 390 Q318 373 316 356 Q314 339 312 322 Q310 308 309 294 Q308 280 306 266 Q304 252 303 238.5 Q302 225 301 211 Q299 197 298.5 184 Q298 171 296 157 Q295 138 294 119.5 Q293 101 292 83 Q291 68 290.5 53.5 Q290 39 290 25 Q290 6 289.5 -12.5 Q289 -31 288 -50 Q288 -77 289.5 -110.5 Q291 -144 296 -171.5 Q301 -199 310.5 -214.5 Q320 -230 336 -222 Q340 -220 343 -217.5 Q346 -215 349 -213 Q365 -198 377 -180.5 Q389 -163 402 -146 Q425 -114 447.5 -81.5 Q470 -49 493 -16 Q516 17 538 50 Q560 83 583 116 Q624 176 667 234 Q710 292 758 347 Z " />
<glyph glyph-name="Q" unicode="Q" horiz-adv-x="558" d="M297 -21 L276 -15 Q258 -9 241.5 -1 Q225 7 209 20 Q194 32 183 47.5 Q172 63 163 82 Q150 108 142.5 135.5 Q135 163 130 193 Q128 213 126.5 233 Q125 253 127 273 Q130 333 147 385.5 Q164 438 194 485 Q215 519 245 542 Q268 560 291 564 Q334 570 365 536 Q388 510 399 472 Q405 456 408.5 439 Q412 422 414 405 Q416 390 416 375.5 Q416 361 416 345 Q416 335 415.5 325.5 Q415 316 414 306 Q412 295 411 283 Q410 271 408 259 Q406 245 403 232.5 Q400 220 398 206 Q393 183 387 162 Q381 141 374 120 Q363 85 348.5 51 Q334 17 316 -15 Q316 -15 314 -17 Q319 -18 324.5 -19 Q330 -20 335 -21 Q351 -25 367 -29 Q383 -33 399 -41 Q412 -48 423.5 -57 Q435 -66 444 -79 Q467 -107 470 -142 Q475 -172 466 -199 Q459 -215 446 -230 Q443 -233 440 -233 Q436 -234 434 -229 Q434 -226 434 -222.5 Q434 -219 433 -215 L434 -214 Q436 -212 436 -215 Q437 -218 437.5 -220.5 Q438 -223 438 -226 Q438 -226 440 -230 Q442 -228 442 -227.5 Q442 -227 444 -225 Q453 -215 458 -196 Q461 -176 460 -160 Q457 -95 408 -58 Q397 -50 384 -44.5 Q371 -39 357 -35 Q346 -32 335 -29.5 Q324 -27 312 -24 Q310 -24 309 -26 Q286 -62 259 -87 Q228 -115 189 -127 Q178 -129 168 -130.5 Q158 -132 147 -130 Q114 -127 87.5 -109.5 Q61 -92 40 -62 Q27 -43 18.5 -22 Q10 -1 3 22 Q-2 42 -6.5 63 Q-11 84 -13 105 Q-15 131 -16 157 Q-17 183 -15 209 Q-13 252 -8.5 293.5 Q-4 335 4 377 Q19 462 48 547 Q68 609 97 661 Q105 675 114 688 Q123 701 134 712 Q151 729 171 735 Q193 740 211.5 729.5 Q230 719 241 695 Q251 671 252 646 Q253 638 253 630.5 Q253 623 253 616 Q253 601 248 584 Q248 581 245 581 Q242 582 242 585 Q242 589 242.5 593 Q243 597 243 601 Q243 611 243 620 Q243 629 242 638 Q241 650 240 661.5 Q239 673 235 684 Q230 703 218 715 Q205 728 187 726 Q175 724 165.5 717.5 Q156 711 147 702 Q124 676 109 644 Q95 619 84 592 Q73 565 64 537 Q44 476 31.5 414 Q19 352 11 287 Q7 262 6 237.5 Q5 213 4 187 Q3 155 5 123 Q7 91 14 59 Q23 6 45 -36 Q66 -80 102 -104 Q117 -112 132 -117 Q147 -122 164 -120 Q193 -119 222 -101 Q241 -89 256.5 -73 Q272 -57 286 -37 Q289 -33 292 -29.5 Q295 -26 297 -21 Z M406 358 Q406 366 405.5 373 Q405 380 405 388 Q403 405 401 421 Q399 437 395 454 Q391 469 386 483.5 Q381 498 373 511 Q366 522 359 531 Q352 540 341 547 Q313 564 281 550 Q255 540 232 514 Q214 494 200 470.5 Q186 447 175 421 Q148 358 142 288 Q140 271 140 254 Q140 237 141 220 Q142 209 143 198.5 Q144 188 146 177 Q155 130 174 87 Q197 35 241 10 Q255 2 269.5 -3.5 Q284 -9 299 -13 Q302 -14 303 -11 Q312 3 319.5 18 Q327 33 334 48 Q365 120 385 198 Q390 218 394 238.5 Q398 259 400 280 Q402 291 402.5 300.5 Q403 310 404 321 Q405 330 405.5 339 Q406 348 406 358 Z " />
<glyph glyph-name="P" unicode="P" horiz-adv-x="590" d="M-59 495 Q-58 498 -58 500.5 Q-58 503 -57 505 Q-55 519 -50 531 Q-45 543 -39 555 Q-28 578 -14 597.5 Q0 617 17 635 Q52 673 98 699 Q116 710 135 717.5 Q154 725 174 730 Q209 739 245 736 Q274 734 301.5 726 Q329 718 355 702 Q454 641 479 516 Q484 495 485.5 473 Q487 451 486 429 Q484 390 475.5 354 Q467 318 452 283 Q419 209 362 160 Q300 106 230 84 Q219 81 208 78.5 Q197 76 186 74 Q166 71 142 73 Q126 75 110.5 78.5 Q95 82 81 90 L80 90 L79 90 Q79 87 78.5 83.5 Q78 80 78 76 Q78 63 77.5 50.5 Q77 38 77 25 Q76 -5 76 -35 Q76 -65 76 -95 Q76 -105 76.5 -114 Q77 -123 77 -132 L77 -153 Q78 -160 78 -166.5 Q78 -173 78 -181 Q79 -187 79 -193 Q79 -199 80 -205 Q80 -210 80.5 -214.5 Q81 -219 82 -224 Q83 -226 84 -228.5 Q85 -231 86 -234 Q89 -234 87 -236 Q87 -237 85 -237 Q82 -237 81 -236 Q75 -231 73 -221 Q72 -214 71.5 -208 Q71 -202 70 -195 Q69 -187 69 -178.5 Q69 -170 68 -162 Q68 -157 68 -151 Q68 -145 67 -139 Q67 -131 67 -122.5 Q67 -114 66 -105 L66 -68 Q65 -52 65 -36.5 Q65 -21 65 -5 L65 58 Q64 68 64.5 77.5 Q65 87 65 97 Q65 100 63 101 Q40 118 25 141.5 Q10 165 2 195 Q-4 215 -6 236 Q-8 257 -8 279 Q-7 295 -5.5 310.5 Q-4 326 -1 341 Q6 379 22 419 Q27 433 34 447 Q41 461 50 473 Q53 477 56 480.5 Q59 484 62 486 Q70 494 79.5 491.5 Q89 489 94 478 Q98 468 100 455 Q102 441 102.5 427 Q103 413 102 399 Q102 376 100 352.5 Q98 329 96 306 Q94 277 91 247.5 Q88 218 86 188 Q84 167 83 145.5 Q82 124 80 103 Q78 100 81 100 Q101 89 123 84 Q141 79 160 81 Q199 81 239 97 Q271 110 299.5 128 Q328 146 354 172 Q425 243 451 344 Q461 381 464 423 Q469 497 448 563 Q424 642 363 685 Q347 696 329.5 704 Q312 712 294 717 Q255 728 218 725 Q197 724 177 719 Q157 714 137 706 Q103 692 73.5 670.5 Q44 649 18 621 Q-14 587 -37 542 Q-42 531 -46 520.5 Q-50 510 -52 498 Q-53 492 -53.5 486.5 Q-54 481 -52 475 Q-52 473 -53 472 Q-57 472 -57 474 Q-58 476 -58 477 Q-58 478 -59 480 L-59 495 Z M65 111 L65 113 Q66 123 66 132.5 Q66 142 67 151 Q68 168 69 184 Q70 200 72 217 Q73 234 74 250.5 Q75 267 77 284 L83 344 Q84 360 84.5 375 Q85 390 87 406 Q88 420 88 433.5 Q88 447 86 461 Q85 466 84 470.5 Q83 475 81 480 Q78 484 76 483 Q71 481 64 474 Q51 459 39 436 Q29 414 22 391.5 Q15 369 10 345 Q7 331 5.5 318 Q4 305 3 291 Q1 267 3 243 Q6 218 12 196 Q25 152 52 123 Q55 120 58 117 Q61 114 65 111 Z " />
<glyph glyph-name="O" unicode="O" horiz-adv-x="687" d="M599 233 Q574 205 549.5 177.5 Q525 150 499 124 Q475 98 450 74 Q425 50 397 28 Q381 15 363.5 3.5 Q346 -8 327 -16 L315 -42 Q315 -43 314.5 -43.5 Q314 -44 314 -45 L305 -61 L305 -62 Q291 -89 275 -113 Q259 -137 239 -157 Q222 -177 202.5 -191 Q183 -205 160 -213 Q109 -230 66 -200 Q28 -175 8 -121 Q-10 -75 -16 -23 Q-21 14 -23 51 Q-25 88 -23 126 Q-15 340 44 536 Q54 568 65.5 598 Q77 628 91 657 Q98 671 105.5 683.5 Q113 696 122 707 Q133 722 146 730 Q171 746 192 720 L199 709 Q200 709 200 707 Q198 705 194 709 L183 721 Q173 733 160 725 Q150 720 138 706 Q130 695 122.5 682 Q115 669 108 655 Q94 627 83.5 597.5 Q73 568 63 538 Q46 484 34.5 430.5 Q23 377 14 320 Q9 291 6 262 Q3 233 1 204 Q-2 166 -3.5 127.5 Q-5 89 -3 51 Q-1 17 3.5 -15.5 Q8 -48 16 -80 Q22 -101 30.5 -120 Q39 -139 50 -156 Q79 -197 120 -203 Q135 -205 149.5 -202 Q164 -199 178 -191 Q193 -183 206 -172 Q219 -161 231 -147 Q256 -117 278 -80 Q286 -68 293.5 -53 Q301 -38 307 -24 Q305 -25 302 -25.5 Q299 -26 296 -28 Q269 -35 247.5 -28.5 Q226 -22 210 -9 Q194 4 183.5 20.5 Q173 37 167 50 Q158 71 152 93.5 Q146 116 141 140 Q136 169 134 199 Q132 229 132 260 Q132 346 149 424.5 Q166 503 199 576 Q210 601 223.5 623 Q237 645 254 664 Q266 677 279 687 Q292 697 307 702 Q357 719 393 671 Q404 657 410.5 641 Q417 625 422 608 Q428 586 431 564 Q434 542 436 519 Q438 499 437.5 478.5 Q437 458 436 437 Q434 410 431 382.5 Q428 355 424 328 Q403 200 364 78 Q359 63 353.5 47.5 Q348 32 342 17 L333 -2 Q356 9 376 23.5 Q396 38 415 55 Q441 78 465 102.5 Q489 127 513 152 Q558 200 600.5 249 Q643 298 687 347 Q688 347 692 345 Q696 343 692 338 L599 233 Z M324 13 Q332 33 339 52.5 Q346 72 352 92 Q374 160 390 230 Q406 300 415 373 Q419 401 421 429 Q423 457 423 489 Q423 494 423 500 Q423 506 422 514 Q422 534 420 552.5 Q418 571 414 590 Q409 609 403.5 626 Q398 643 389 658 Q362 704 320 689 Q299 682 280 663 Q262 646 248 624.5 Q234 603 222 578 Q145 410 154 213 Q155 187 158.5 162.5 Q162 138 167 114 Q171 98 175.5 82.5 Q180 67 186 52 Q193 36 203.5 21 Q214 6 228 -4.5 Q242 -15 260 -19 Q278 -23 300 -16 L309 -13 L313 -11 Q315 -6 317 -1.5 Q319 3 321 6 Q323 10 324 13 Z " />
<glyph glyph-name="S" unicode="S" horiz-adv-x="645" d="M648 344 Q651 339 649 337 Q632 316 614.5 296.5 Q597 277 578 258 Q533 214 483 178 Q433 142 378 112 Q380 111 380.5 110 Q381 109 383 108 Q400 92 414.5 74 Q429 56 440 34 Q453 8 457 -17 Q463 -46 458.5 -72.5 Q454 -99 440 -124 Q427 -147 410 -164 Q393 -181 372 -194 Q353 -207 332.5 -214.5 Q312 -222 290 -226 Q278 -229 266 -230 Q254 -231 242 -231 Q234 -231 227 -230.5 Q220 -230 212 -229 Q171 -224 136 -204 Q106 -186 89 -160 Q86 -156 85 -152 Q68 -119 79.5 -87.5 Q91 -56 114 -30 Q138 -3 167 16 Q172 19 177 22 Q182 25 187 28 Q204 37 222 45 Q240 53 257 61 Q275 69 292 77.5 Q309 86 326 95 Q334 99 341.5 103 Q349 107 357 111 Q338 128 318 141.5 Q298 155 278 168 Q252 183 225 196 Q198 209 172 223 Q148 235 125 247.5 Q102 260 79 275 Q63 285 48 296.5 Q33 308 20 322 Q6 336 -4.5 352.5 Q-15 369 -21 389 Q-31 420 -26 456 Q-23 482 -14 505 Q-5 528 8 549 Q39 600 78.5 639 Q118 678 168 704 Q204 724 248 732 Q282 737 311 734 Q334 731 355.5 723 Q377 715 397 700 Q435 670 442 623 Q444 613 444.5 604 Q445 595 444 585 Q443 572 440 560.5 Q437 549 432 538 Q432 535 428 537 Q425 537 427 540 Q428 545 429 549.5 Q430 554 431 559 Q434 581 433 599 Q432 613 429.5 626.5 Q427 640 421 654 Q408 685 378 704 Q349 720 315 723 Q282 726 250.5 719 Q219 712 189 697 Q157 680 129.5 658 Q102 636 77 608 Q45 575 23 533 Q14 516 7 499 Q0 482 -4 463 Q-18 389 29 334 Q42 319 57 306.5 Q72 294 89 283 Q111 269 134 256.5 Q157 244 180 233 Q208 219 236 205 Q264 191 290 175 Q312 162 332 148.5 Q352 135 371 119 Q394 132 416.5 145.5 Q439 159 462 175 Q564 246 645 347 L648 344 Z M414 41 Q406 58 394.5 72 Q383 86 370 98 L364 104 Q353 99 343.5 93 Q334 87 323 82 Q307 74 292 67 Q277 60 261 53 Q261 52 260 52 Q257 51 253 49 Q251 48 249.5 47 Q248 46 246 45 Q238 42 231.5 38.5 Q225 35 217 31 Q188 15 161.5 -4 Q135 -23 115 -50 Q101 -70 93.5 -94 Q86 -118 96 -142 Q106 -169 129 -186 Q151 -203 175 -210.5 Q199 -218 225 -220 Q233 -221 242 -220.5 Q251 -220 260 -220 Q273 -218 286 -216 Q299 -214 311 -209 Q336 -200 358 -186.5 Q380 -173 398 -152 Q398 -151 398.5 -151 Q399 -151 399 -150 Q410 -137 418 -122.5 Q426 -108 431 -91 Q436 -74 437 -55.5 Q438 -37 436 -20 Q434 -12 432.5 -5.5 Q431 1 428 8 Q424 25 414 41 Z " />
<glyph glyph-name="T" unicode="T" horiz-adv-x="233" d="M-270 495 Q-269 498 -269 500.5 Q-269 503 -268 505 Q-264 528 -248 547 Q-234 564 -217 575 Q-200 586 -180 591 Q-163 595 -147 595.5 Q-131 596 -114 595 Q-106 595 -99 594.5 Q-92 594 -84 593 Q-77 592 -70 591.5 Q-63 591 -56 590 Q-49 588 -42.5 587.5 Q-36 587 -29 586 Q-21 584 -14 583.5 Q-7 583 0 581 Q8 580 15 579 Q22 578 30 577 Q38 575 45.5 574.5 Q53 574 61 572 Q63 572 65 575 Q109 656 181 701 Q200 712 220 720 Q240 728 262 732 Q289 737 316 735.5 Q343 734 369 725 Q386 720 400.5 711.5 Q415 703 428 689 Q445 674 452 652 Q460 631 449 611 Q445 604 440 599 Q435 594 430 589 Q419 581 408.5 576.5 Q398 572 387 568 Q373 563 360 559.5 Q347 556 333 554 Q303 549 272.5 547.5 Q242 546 212 547 Q200 548 188.5 548.5 Q177 549 166 550 Q155 551 143 551.5 Q131 552 120 554 Q110 556 101 556.5 Q92 557 82 559 Q79 559 78 557 Q64 529 55 500 Q46 471 39 440 Q32 413 27.5 385.5 Q23 358 20 330 Q17 308 14.5 286 Q12 264 9 242 Q7 219 4.5 196.5 Q2 174 0 151 Q-4 110 -8.5 70.5 Q-13 31 -19 -9 Q-24 -35 -28.5 -61.5 Q-33 -88 -41 -114 Q-47 -136 -55.5 -155.5 Q-64 -175 -77 -192 Q-90 -209 -102 -219 Q-122 -236 -144 -229 Q-157 -225 -163 -219 Q-171 -213 -171 -201 Q-170 -188 -160 -180 L-158 -180 Q-157 -181 -157 -181 Q-158 -182 -159 -182 Q-167 -190 -167 -201 Q-168 -206 -164 -212 Q-159 -218 -154 -221 Q-142 -229 -127 -227 Q-123 -227 -117 -223 Q-111 -219 -105.5 -213 Q-100 -207 -95 -201 Q-80 -182 -71 -160.5 Q-62 -139 -56 -114 Q-50 -89 -46 -64 Q-42 -39 -39 -13 L-30 62 Q-28 79 -26.5 96.5 Q-25 114 -23 132 Q-21 146 -20.5 161 Q-20 176 -18 191 Q-16 205 -15 218 Q-14 231 -13 244 Q-11 258 -9.5 271.5 Q-8 285 -6 299 Q-4 315 -2 330 Q0 345 2 360 Q7 398 15 435 Q23 472 36 508 Q44 533 57 560 Q58 561 58 562 Q56 563 54 563 Q52 563 50 564 Q38 566 26.5 567.5 Q15 569 4 571 Q-6 573 -15.5 574 Q-25 575 -34 577 Q-43 579 -51.5 580 Q-60 581 -69 582 L-102 585 Q-110 586 -117.5 586 Q-125 586 -133 586 Q-150 586 -165.5 583.5 Q-181 581 -196 574 Q-211 567 -224 556.5 Q-237 546 -247 531 Q-257 516 -262 496 Q-264 484 -261 474 Q-256 461 -247 460 Q-245 459 -245 459 Q-245 456 -247 458 Q-263 458 -268 477 Q-269 479 -269 481.5 Q-269 484 -270 486 L-270 495 Z M85 569 Q87 569 89.5 568.5 Q92 568 94 568 Q103 567 112 566 Q121 565 129 564 Q140 563 149.5 562 Q159 561 169 561 Q179 560 188.5 559.5 Q198 559 207 559 Q227 558 246.5 558 Q266 558 286 560 Q301 562 316.5 563.5 Q332 565 347 568 Q361 571 374.5 575.5 Q388 580 401 586 Q410 590 418.5 595.5 Q427 601 434 609 Q445 621 446 637 Q446 653 436 670 Q430 680 422.5 687 Q415 694 406 700 Q389 711 371 717 Q353 723 333 725 Q308 728 277 723 Q257 719 238 712.5 Q219 706 202 695 Q167 675 139 644.5 Q111 614 89 576 Q86 573 85 569 Z " />
<glyph glyph-name="U" unicode="U" horiz-adv-x="899" d="M899 347 Q901 346 903 344 Q907 340 905 335 Q874 263 841 192 Q808 121 770 52 Q732 -18 683 -87 Q669 -107 653.5 -125.5 Q638 -144 620 -161 Q589 -188 567 -193 Q545 -198 530 -189.5 Q515 -181 506 -165.5 Q497 -150 493 -137 Q483 -102 479 -56 Q475 -10 475 41.5 Q475 93 478.5 147 Q482 201 488 252 Q493 300 501.5 351 Q510 402 518 445 Q528 494 538 542 L504 453 L498 438 Q496 433 494.5 428.5 Q493 424 491 419 L490 417 L457 330 Q446 302 436 275 Q426 248 415 221 Q404 192 392.5 164.5 Q381 137 368 109 Q355 83 341 57 Q327 31 309 8 Q296 -10 281 -25.5 Q266 -41 246 -52 Q220 -68 194 -71 Q152 -76 117 -55 Q100 -45 87 -32 Q74 -19 63 -4 Q46 19 34.5 44 Q23 69 15 96 Q9 117 5 138.5 Q1 160 -1 183 Q-6 236 -4 289 Q-4 300 -3.5 310 Q-3 320 -2 331 Q-1 341 -0.5 351 Q0 361 2 371 Q4 383 5.5 395.5 Q7 408 9 420 Q11 432 13.5 444.5 Q16 457 19 469 Q20 474 24 484 Q27 491 34 488 Q36 488 36 487 Q38 485 38 482 Q37 482 36 481.5 Q35 481 34 481 L33 481 Q32 476 31 472 Q30 468 29 463 Q27 455 26 446.5 Q25 438 24 430 Q22 423 21.5 416.5 Q21 410 20 403 L17 370 Q16 365 15.5 359 Q15 353 15 348 Q14 338 13.5 329 Q13 320 12 310 L12 294 L12 223 Q14 191 18 162 Q20 145 23 128.5 Q26 112 31 96 Q39 70 50 45.5 Q61 21 78 -2 Q100 -34 132 -51 Q156 -65 182 -63 Q196 -62 208 -58 Q220 -54 232 -47 Q249 -37 262.5 -24 Q276 -11 288 4 Q305 24 318 46 Q331 68 342 91 Q359 125 373.5 160 Q388 195 402 230 Q418 270 433 309.5 Q448 349 464 389 Q482 436 500.5 482 Q519 528 536 575 Q541 589 545 602 Q549 615 554 629 Q562 653 571 676.5 Q580 700 591 723 Q592 726 596 732 Q597 736 602 735 L605 735 Q607 734 608 734 Q609 734 610 733 Q615 730 614 727 Q610 717 607 707 Q604 697 600 687 Q595 673 591 659 Q587 645 582 631 Q564 568 548 497 Q534 436 521 358.5 Q508 281 502 197 Q500 156 499 111.5 Q498 67 498 25 Q498 -17 500.5 -55.5 Q503 -94 509 -123 Q512 -137 519.5 -152.5 Q527 -168 539.5 -175.5 Q552 -183 572 -178 Q592 -173 621 -146 Q632 -136 640.5 -125.5 Q649 -115 658 -104 Q670 -88 681 -72.5 Q692 -57 703 -40 Q725 -7 745 28 Q765 63 784 98 Q816 159 844.5 221.5 Q873 284 899 347 Z " />
<glyph glyph-name="V" unicode="V" horiz-adv-x="536" d="M-188 441 Q-184 443 -180 442 Q-181 441 -181 439 Q-181 438 -180 438 Q-176 435 -166 437 Q-157 439 -149.5 442.5 Q-142 446 -134 451 Q-108 471 -87 495 Q-71 513 -57.5 532 Q-44 551 -30 571 Q-19 588 -7.5 604 Q4 620 15 636 L24 648 Q30 652 34 651 Q43 651 43 640 Q43 633 42.5 627 Q42 621 42 614 Q40 603 39.5 593 Q39 583 37 572 Q30 501 25 429 Q21 373 20 318 Q19 263 21 207 Q22 167 24.5 127.5 Q27 88 32 48 Q37 11 43 -25 Q49 -61 58 -96 Q64 -119 71 -141.5 Q78 -164 89 -185 Q94 -194 98.5 -202 Q103 -210 111 -217 Q113 -219 116 -221 Q119 -223 122 -225 Q131 -228 137 -223 Q142 -219 145.5 -215 Q149 -211 153 -206 Q161 -195 167.5 -182.5 Q174 -170 179 -157 Q190 -134 198 -110.5 Q206 -87 214 -63 Q230 -18 245 26 Q260 70 275 115 Q292 161 309 206 Q326 251 344 296 Q371 365 401 431 Q417 466 432 501 Q447 536 464 571 Q477 600 490 627.5 Q503 655 517 683 Q527 702 540 724 Q541 726 542 727.5 Q543 729 545 731 Q548 734 554 734 Q558 733 558 729 Q556 724 552 726 L550 726 Q548 721 545 716.5 Q542 712 539 707 Q529 686 519 665 Q509 644 499 623 Q482 587 466 550.5 Q450 514 434 477 Q419 442 404.5 408 Q390 374 376 339 Q357 292 340 245.5 Q323 199 306 151 Q286 94 267 38.5 Q248 -17 229 -74 Q220 -100 210.5 -125 Q201 -150 190 -175 Q184 -186 177.5 -196.5 Q171 -207 163 -217 Q149 -233 131 -237 Q111 -241 93 -225 Q85 -217 78.5 -207.5 Q72 -198 67 -187 Q57 -166 49.5 -144 Q42 -122 36 -99 Q29 -72 23.5 -45 Q18 -18 15 9 Q12 31 9.5 52 Q7 73 5 95 Q0 148 -2 200.5 Q-4 253 -2 306 Q-1 365 4 427 Q6 455 8.5 482.5 Q11 510 14 538 Q17 558 20.5 579 Q24 600 27 621 Q28 626 28.5 630 Q29 634 30 639 Q28 637 26.5 635 Q25 633 23 631 Q9 611 -5.5 590 Q-20 569 -35 549 Q-49 530 -62.5 512.5 Q-76 495 -92 479 Q-103 467 -116 457 Q-129 447 -143 440 Q-151 436 -158 433.5 Q-165 431 -173 432 Q-183 432 -188 438 L-188 441 Z " />
<glyph glyph-name="W" unicode="W" horiz-adv-x="990" d="M990 347 Q992 348 994 347 Q998 345 997 341 Q996 339 996 337.5 Q996 336 995 334 Q975 274 944.5 216.5 Q914 159 871 111 Q849 87 824.5 66 Q800 45 771 29 Q756 21 740 15 Q724 9 707 7 Q691 5 676 7.5 Q661 10 647 16 Q643 17 637 21 Q632 4 626.5 -13 Q621 -30 616 -47 Q606 -76 594.5 -102.5 Q583 -129 569 -154 Q558 -172 545 -188 Q532 -204 517 -216 Q487 -238 457 -238 Q442 -237 428.5 -231 Q415 -225 402 -215 Q387 -202 375 -185.5 Q363 -169 352 -150 Q340 -127 331 -103 Q322 -79 314 -53 Q303 -15 297 24.5 Q291 64 288 105 Q286 125 285 144 Q284 163 284 183 Q283 199 283 214 Q283 229 283 245 Q284 254 283.5 263.5 Q283 273 284 282 Q283 279 282.5 275.5 Q282 272 280 268 Q269 221 258 175 Q247 129 233 83 Q222 44 210.5 5.5 Q199 -33 183 -71 Q176 -88 168.5 -105 Q161 -122 150 -137 Q141 -154 127 -166 Q118 -174 109 -178.5 Q100 -183 89 -184 Q70 -185 53 -170 Q41 -160 32.5 -147 Q24 -134 18 -120 Q4 -86 -4 -44 Q-9 -15 -11 14 Q-13 43 -14 72 Q-16 121 -14 169 Q-12 217 -8 266 Q-5 304 -1 342.5 Q3 381 9 420 Q13 455 18.5 490 Q24 525 29 560 Q32 581 35.5 602 Q39 623 43 645 Q45 660 46.5 675 Q48 690 50 705 Q51 710 50.5 714.5 Q50 719 50 724 Q50 725 48 729 Q47 738 39 736 Q29 734 22 729.5 Q15 725 7 720 Q-7 710 -19.5 698.5 Q-32 687 -45 675 Q-62 658 -78.5 641 Q-95 624 -112 607 Q-114 605 -115.5 603 Q-117 601 -119 599 Q-120 597 -124 599 L-124 600 Q-116 608 -110 615 Q-104 622 -97 630 L-36 691 Q-24 703 -12 713.5 Q0 724 14 733 Q19 736 24 738.5 Q29 741 35 742 Q58 747 61 719 Q63 710 62.5 700.5 Q62 691 62 682 L53 610 Q48 578 43.5 546.5 Q39 515 34 483 Q30 454 27 426.5 Q24 399 21 370 Q18 347 16 324 Q14 301 12 278 Q10 249 8.5 221.5 Q7 194 5 166 Q3 128 3.5 90 Q4 52 9 15 Q11 -11 14.5 -35.5 Q18 -60 26 -83 Q31 -99 37 -113.5 Q43 -128 52 -142 Q57 -148 61 -153 Q65 -158 71 -163 Q97 -183 122 -155 Q131 -146 138 -135 Q145 -124 151 -113 Q173 -65 190 -14 Q207 37 221 88 Q235 139 249 192 Q257 223 264 253.5 Q271 284 278 315 Q282 333 285 351.5 Q288 370 292 388 Q294 397 294.5 405.5 Q295 414 297 423 Q298 431 299 438 Q300 445 302 453 Q303 460 309 460 L313 460 Q319 459 318 451 Q316 434 314 418 Q312 402 310 385 Q307 358 305.5 331 Q304 304 302 276 Q302 259 301.5 241.5 Q301 224 301 206 Q302 162 304.5 119.5 Q307 77 314 35 Q323 -35 345 -93 Q361 -141 389 -179 Q406 -201 425 -214 Q473 -245 518 -203 Q532 -190 543 -174 Q554 -158 564 -140 Q576 -117 586 -93 Q596 -69 605 -43 Q610 -26 615 -8 Q620 10 625 28 Q604 42 588 61 Q572 80 559 102 Q542 134 530.5 168.5 Q519 203 514 238 Q508 275 507.5 311.5 Q507 348 511 385 Q513 420 517 456 Q521 492 527 527 Q531 544 535 561.5 Q539 579 544 596 Q544 598 546 604 Q551 618 562 635 Q573 652 590 656 L592 656 Q600 657 607 653 Q614 649 619.5 642.5 Q625 636 629 628.5 Q633 621 635 617 Q635 616 636 615 Q641 604 644.5 592 Q648 580 653 569 Q662 537 668.5 505 Q675 473 679 439 Q679 424 680 409 Q681 394 682 379 Q682 367 682.5 354.5 Q683 342 683 329 Q682 318 681.5 308 Q681 298 681 287 Q681 279 680 272 Q679 265 679 257 Q678 249 677 240 Q676 231 675 223 Q673 208 671.5 193.5 Q670 179 668 165 Q662 131 655 97.5 Q648 64 640 31 Q661 18 689 16 Q721 14 751 29 Q781 44 806 64 Q831 82 851.5 103.5 Q872 125 890 149 Q924 194 948.5 244 Q973 294 990 347 Z M628 38 Q632 54 635.5 69.5 Q639 85 642 101 Q650 135 654 165 Q656 178 658 190.5 Q660 203 662 216 Q663 224 663.5 231.5 Q664 239 664 247 Q666 262 667 277 Q668 292 668 306 Q670 323 670 338.5 Q670 354 669 370 Q668 405 665.5 438 Q663 471 656 504 Q651 530 644.5 555.5 Q638 581 628 605 Q626 610 624 613.5 Q622 617 620 622 Q607 644 595.5 645 Q584 646 575 636 Q566 626 559.5 611 Q553 596 550 586 Q541 556 536 526 Q531 496 528 465 Q520 396 518 327 Q516 258 534 191 Q543 159 557 128.5 Q571 98 592 72 Q606 54 628 38 Z " />
<glyph glyph-name="X" unicode="X" horiz-adv-x="297" d="M-223 564 Q-223 567 -221 573 Q-214 592 -200 607 Q-187 625 -169 634 Q-143 650 -117 631 Q-108 625 -101.5 616.5 Q-95 608 -88 600 Q-77 583 -67.5 564.5 Q-58 546 -50 527 Q-36 495 -24 463.5 Q-12 432 0 400 Q17 354 35 308.5 Q53 263 72 218 Q73 217 75 213 Q76 215 76 215 Q95 253 112.5 292 Q130 331 147 370 Q168 418 187.5 467 Q207 516 226 565 Q237 591 247 618 Q257 645 268 671 Q277 693 288 717 Q293 727 300 734 Q308 741 317 734 Q318 733 318 730 Q316 730 315 731 Q310 732 308 730 Q300 722 297 712 Q290 696 284 680.5 Q278 665 272 649 Q258 614 246 578.5 Q234 543 220 508 Q194 439 165 371 Q136 303 104 237 Q95 217 84 197 Q83 194 84 192 Q98 160 112 129 Q126 98 141 66 Q158 31 175.5 -2.5 Q193 -36 210 -70 Q224 -99 239.5 -126.5 Q255 -154 270 -182 Q277 -193 284 -204.5 Q291 -216 298 -227 Q300 -231 304 -231 Q306 -230 307.5 -231.5 Q309 -233 309 -235 Q309 -241 303 -239 Q301 -238 299 -237.5 Q297 -237 295 -235 Q288 -227 282 -216 Q268 -195 255.5 -173.5 Q243 -152 231 -130 Q220 -111 210 -92 Q200 -73 189 -54 Q159 3 129.5 58.5 Q100 114 74 172 Q73 172 72 175 Q70 170 68 166.5 Q66 163 64 159 Q46 127 27 95.5 Q8 64 -15 35 Q-31 14 -48.5 -5.5 Q-66 -25 -86 -42 Q-96 -50 -106.5 -58 Q-117 -66 -130 -71 Q-147 -79 -163 -78 Q-169 -77 -174.5 -75 Q-180 -73 -183 -68 Q-191 -58 -184 -43 Q-181 -36 -175.5 -30.5 Q-170 -25 -164 -20 Q-150 -9 -135.5 0.5 Q-121 10 -104 18 Q-98 21 -91.5 23.5 Q-85 26 -77 26 Q-63 28 -56 18 L-56 15 Q-57 15 -57.5 15.5 Q-58 16 -60 16 Q-66 25 -78 23 Q-86 21 -93.5 18 Q-101 15 -108 11 Q-133 -3 -159 -24 Q-172 -34 -176 -49 Q-179 -56 -176 -62 Q-172 -72 -160 -72 Q-149 -72 -137 -67 Q-125 -61 -115 -53.5 Q-105 -46 -95 -37 Q-73 -18 -55 3.5 Q-37 25 -20 48 Q3 80 22 113 Q41 146 59 181 Q61 184 62.5 186.5 Q64 189 64 192 Q64 194 62.5 197 Q61 200 60 203 Q34 258 12 313.5 Q-10 369 -30 426 Q-40 454 -49.5 481 Q-59 508 -70 535 Q-77 553 -84.5 570 Q-92 587 -103 603 Q-110 614 -120 624 Q-139 643 -162 631 Q-172 626 -179.5 620 Q-187 614 -194 606 Q-201 598 -207 588.5 Q-213 579 -216 568 Q-217 567 -217 563 Q-219 556 -213 555 Q-212 555 -212 554.5 Q-212 554 -211 554 Q-212 553 -212 553 L-214 553 Q-221 553 -223 560 L-223 561 L-223 564 Z " />
<glyph glyph-name="Y" unicode="Y" horiz-adv-x="695" d="M699 345 Q702 342 700 338 Q672 301 638 264 Q599 222 555 185 Q511 148 462 118 Q442 106 421.5 96 Q401 86 381 77 L375 47 Q373 33 370.5 20.5 Q368 8 365 -5 Q357 -37 346 -67 Q335 -97 319 -126 Q306 -149 291 -168.5 Q276 -188 256 -204 Q222 -230 183 -236 Q143 -242 107 -222.5 Q71 -203 51 -167 Q37 -144 37 -116 Q36 -80 56 -49 Q68 -29 84 -15.5 Q100 -2 120 9 Q139 19 158 25.5 Q177 32 197 37 Q200 37 203 38 Q205 38 206.5 38.5 Q208 39 209 39 Q229 44 248.5 47.5 Q268 51 288 56 Q298 58 307.5 61 Q317 64 326 67 Q331 69 335.5 70 Q340 71 345 73 Q351 75 354 77 Q355 77 359 78 Q363 79 363 80 Q363 82 363.5 83 Q364 84 364 86 Q365 94 365.5 100 Q366 106 367 107 Q367 112 367.5 117 Q368 122 369 127 Q371 146 372 165 Q373 184 374 203 Q377 266 377 329 Q377 366 376.5 402.5 Q376 439 375 477 L375 616 Q375 618 374 619 Q373 614 372 609.5 Q371 605 370 600 Q365 579 359 557.5 Q353 536 346 515 L325 452 Q317 432 310 412.5 Q303 393 295 373 Q286 351 277 329.5 Q268 308 257 286 Q243 257 228 229.5 Q213 202 194 177 Q184 163 173.5 151.5 Q163 140 149 131 Q128 117 106 118 Q81 119 60 142 Q49 155 41 169.5 Q33 184 27 201 Q7 255 2 316 Q0 331 -1 346.5 Q-2 362 -2 378 Q-4 410 -2 443 Q0 476 3 509 Q11 578 24 643 Q29 663 33.5 683 Q38 703 44 723 Q46 731 50 740 Q51 744 56 742 Q58 741 58 737 Q53 717 49 696 Q45 675 42 654 Q37 630 33.5 606.5 Q30 583 26 559 L17 478 Q16 467 15.5 455 Q15 443 15 431 Q14 416 14 401.5 Q14 387 14 372 Q15 355 16 338.5 Q17 322 19 305 Q21 288 24 270.5 Q27 253 32 236 Q41 196 60 164 Q70 147 82 138 Q106 118 133 132 Q150 142 166 158 Q179 172 189.5 187 Q200 202 211 219 Q234 257 253.5 298 Q273 339 290 381 Q299 403 306.5 424.5 Q314 446 322 468 Q333 500 341.5 533 Q350 566 357 600 Q362 618 365 636 Q368 654 372 673 Q372 675 372.5 676.5 Q373 678 373 680 Q374 683 377 684 Q388 684 390 672 Q391 661 391.5 649.5 Q392 638 392 627 Q394 598 394.5 569 Q395 540 396 511 Q397 458 398 405.5 Q399 353 398 300 Q398 254 395 211 Q392 162 386 114 Q386 112 385 105.5 Q384 99 382 88 Q431 109 475 137.5 Q519 166 559 201 Q597 234 630.5 270.5 Q664 307 695 347 L699 345 Z M361 65 Q361 68 362 69 Q316 52 265 41 Q261 40 257.5 39.5 Q254 39 249 39 Q232 35 204.5 29 Q177 23 154 14 Q143 9 132 4 Q121 -1 110 -9 Q94 -20 80.5 -35 Q67 -50 59 -70 Q45 -101 52 -134 Q60 -168 82 -190 Q111 -221 150 -227.5 Q189 -234 225 -214 Q262 -194 289 -153 Q304 -130 315.5 -105 Q327 -80 335 -53 Q341 -33 346 -12.5 Q351 8 355 29 Q357 37 358 45.5 Q359 54 361 63 L361 65 Z " />
<glyph glyph-name="Z" unicode="Z" horiz-adv-x="412" d="M-104 68 Q-101 70 -97.5 70.5 Q-94 71 -90 72 Q-88 73 -87 73 Q-86 73 -84 74 Q-66 82 -49.5 92 Q-33 102 -16 114 Q12 134 38 157 Q64 180 88 205 Q164 287 226 382 Q249 417 271.5 452.5 Q294 488 314 525 Q327 550 339 575 Q351 600 362 626 Q367 639 371 651.5 Q375 664 377 678 Q380 695 378 706 Q374 725 354 728 Q344 730 334.5 729 Q325 728 315 726 Q295 721 277 715 Q259 709 241 701 Q212 688 185 674 Q158 660 131 644 Q101 625 72 605.5 Q43 586 15 564 Q1 553 -13.5 541 Q-28 529 -42 516 Q-53 506 -63.5 496 Q-74 486 -85 475 L-85 474 L-84 473 L-84 472 Q-86 470 -88 468.5 Q-90 467 -92 465 Q-92 463 -94 463 Q-97 460 -100 463 Q-102 465 -99 468 Q-94 476 -87.5 483.5 Q-81 491 -74 498 Q-58 514 -42 528 Q-26 542 -9 556 Q15 575 39.5 592.5 Q64 610 90 627 Q125 650 162 671 Q199 692 238 709 Q257 717 275 723.5 Q293 730 313 734 Q334 739 353 736 Q390 729 392 693 Q394 681 392 669.5 Q390 658 387 647 Q381 626 372.5 606 Q364 586 355 566 Q310 477 254 393 Q231 359 207.5 327 Q184 295 158 264 Q127 227 94 193.5 Q61 160 23 130 Q2 113 -20.5 98.5 Q-43 84 -68 73 Q-68 72 -69 72 Q-67 72 -66 71.5 Q-65 71 -64 71 Q-50 68 -38.5 62.5 Q-27 57 -16 49 Q-1 40 12.5 28.5 Q26 17 40 6 Q63 -14 85 -34 Q107 -54 131 -73 Q165 -99 200.5 -123 Q236 -147 275 -167 Q336 -199 404 -215 Q420 -219 436 -221 Q452 -223 468 -225 Q482 -226 497 -226.5 Q512 -227 527 -225 Q553 -222 576.5 -213.5 Q600 -205 620 -188 Q630 -180 637.5 -170.5 Q645 -161 650 -149 Q652 -145 652.5 -141 Q653 -137 654 -132 Q656 -118 650.5 -107 Q645 -96 637 -85 Q630 -77 621.5 -70 Q613 -63 604 -56 Q593 -48 581.5 -41 Q570 -34 558 -28 L549 -25 Q547 -23 545 -25 Q545 -25 545 -29 L545 -31 Q543 -33 540 -31 Q536 -29 538 -25 Q540 -18 547 -20 L559 -23 Q579 -32 600 -46 Q610 -53 619.5 -59 Q629 -65 637 -73 Q657 -88 663 -112 Q668 -134 657 -158 Q646 -176 631.5 -189 Q617 -202 598 -212 Q581 -220 563.5 -225 Q546 -230 528 -233 Q516 -234 504.5 -234.5 Q493 -235 482 -235 Q466 -234 450.5 -232.5 Q435 -231 420 -228 Q355 -217 296.5 -191.5 Q238 -166 184 -129 Q152 -109 123.5 -86 Q95 -63 67 -37 Q51 -23 36 -9 Q21 5 5 19 Q-6 29 -17 38 Q-28 47 -42 54 Q-56 63 -73 66 Q-77 66 -80.5 66.5 Q-84 67 -88 65 Q-95 61 -100 64 Q-102 64 -104 66 L-104 68 Z " />
<glyph glyph-name="zero" unicode="0" horiz-adv-x="390" d="M94 495 Q89 493 87 499 Q86 504 89 511 Q95 525 108 537 Q126 553 149 562 Q188 577 231 562 Q256 554 273.5 540.5 Q291 527 303 509 Q308 501 312.5 492 Q317 483 319 474 Q321 468 322 461.5 Q323 455 324 448 Q325 440 325 432 Q325 424 325 416 Q323 390 316.5 365 Q310 340 299 316 Q280 275 251 243 Q221 207 181 184 Q157 171 134 167 Q102 161 75 175 Q64 180 56.5 186.5 Q49 193 43 201 Q29 217 23 238 Q20 246 18.5 255 Q17 264 16 272 Q13 316 28 355 Q39 381 50 405 Q61 429 75 453 Q79 458 82.5 463.5 Q86 469 91 474 Q94 477 101 479 Q103 480 107 478 Q106 477 106 477 Q101 475 97.5 472 Q94 469 92 466 Q79 448 70 426 L49 381 Q43 367 38 353 Q33 339 30 325 Q29 317 28.5 309.5 Q28 302 27 294 Q25 284 27 275 Q28 267 29 260.5 Q30 254 32 247 Q37 225 50 206 Q57 198 64.5 190 Q72 182 83 177 Q107 166 134 172 Q147 175 157.5 180 Q168 185 178 191 Q219 217 248 254 Q278 293 292 333 Q299 350 303.5 368.5 Q308 387 310 407 Q311 420 310 435 Q310 450 307 465 Q304 481 298 495.5 Q292 510 280 524 Q251 557 203 563 Q180 567 155 557 Q142 552 132 544.5 Q122 537 113 529 Q102 519 96 508 L93 499 Q93 497 94 495 Z " />
<glyph glyph-name="one" unicode="1" horiz-adv-x="160" d="M58 566 Q56 564 53 561 Q50 558 47 556 Q44 554 42 550 Q41 549 39 549 L39 552 Q40 554 41 555 Q42 556 43 558 L53 568 Q57 571 61 571 Q66 570 68 564 Q69 559 69 555 Q69 551 69 546 Q67 526 65.5 505.5 Q64 485 62 465 Q61 438 58.5 411.5 Q56 385 54 359 Q53 342 52 324.5 Q51 307 50 289 Q50 272 49.5 254 Q49 236 49 219 Q48 207 47.5 194.5 Q47 182 47 170 Q47 165 41 165 Q39 165 39 169 L39 183 L39 223 L39 272 Q40 283 39.5 294.5 Q39 306 40 318 Q40 330 40 342 Q40 354 41 366 Q43 399 46 432 Q49 465 52 499 Q53 513 54.5 526.5 Q56 540 58 554 Q59 557 59 560 Q59 563 60 565 Q58 566 58 566 Z " />
<glyph glyph-name="two" unicode="2" horiz-adv-x="305" d="M13 189 Q19 191 21 191 Q41 196 61 200.5 Q81 205 101 207 Q110 209 119 209.5 Q128 210 137 211 L179 214 Q192 215 204 215.5 Q216 216 228 217 L234 217 L236 215 Q235 213 235 213 Q233 212 230 212 Q221 210 211.5 209.5 Q202 209 192 208 L153 205 Q145 204 136 203.5 Q127 203 119 201 Q93 198 67 192 Q44 187 21.5 181 Q-1 175 -24 167 Q-28 165 -36 165 Q-41 165 -41 168 Q-41 170 -37 172 Q-34 174 -28 176 Q-13 184 0 193 Q13 202 25 213 Q42 228 56 244.5 Q70 261 84 278 Q110 310 132.5 345 Q155 380 174 416 Q183 434 190.5 452 Q198 470 203 489 Q205 497 207 506 Q209 515 208 523 Q208 528 208 532 Q208 536 206 541 Q201 562 177 562 Q168 562 159.5 560 Q151 558 143 555 Q96 535 69 496 Q66 491 64 487 Q62 483 60 478 Q59 476 59.5 473.5 Q60 471 60 469 Q60 466 57 466 Q52 468 52 474 Q51 482 56 493 Q61 504 68.5 512.5 Q76 521 85 529 Q96 540 109 548.5 Q122 557 137 563 Q155 571 175 569 Q212 567 220 535 Q225 519 222 498 Q217 471 206.5 446 Q196 421 182 396 Q161 359 137 323.5 Q113 288 85 255 Q54 219 15 191 L13 189 Z " />
<glyph glyph-name="three" unicode="3" horiz-adv-x="340" d="M17 232 Q18 234 18 235 Q18 236 19 238 Q21 245 23.5 251 Q26 257 28 263 Q33 274 39.5 285 Q46 296 54 307 Q60 315 68 321 Q73 326 81 326 Q85 326 87 323 Q87 323 87 321 Q84 321 83 322 Q80 324 76 322 Q71 320 68 316.5 Q65 313 63 310 Q54 299 48 287.5 Q42 276 37 265 Q35 260 33.5 256 Q32 252 30 247 Q26 237 28 223 Q31 206 46 192 Q76 164 124 173 Q141 175 154.5 180.5 Q168 186 181 193 Q237 226 251 276 Q258 302 248 324 Q235 354 191 371 Q178 376 163.5 379 Q149 382 134 384 Q126 385 117 386 Q108 387 99 388 L87 391 Q79 394 82 400 Q86 409 92 414 Q103 424 113 433.5 Q123 443 134 453 Q151 469 167.5 484.5 Q184 500 199 517 Q206 525 212 533.5 Q218 542 223 551 Q227 557 226 562 Q226 568 218 567 L200 564 Q187 560 175 554.5 Q163 549 152 543 Q135 532 119.5 521 Q104 510 91 498 Q80 488 71.5 478 Q63 468 56 457 Q49 445 48 435 Q48 433 49 433 Q50 431 47 431 Q44 430 42 433 Q38 437 40 442 Q43 456 51.5 467.5 Q60 479 70 490 Q91 511 120 531 Q135 541 151.5 550 Q168 559 188 566 Q196 568 203.5 570 Q211 572 219 571 Q225 571 230.5 569 Q236 567 237 561 Q238 558 236 552 Q234 544 229.5 538 Q225 532 220 525 Q209 511 195.5 497 Q182 483 168 469 Q154 455 139.5 442.5 Q125 430 111 416 Q107 413 104 409.5 Q101 406 98 402 Q93 395 105 392 Q114 391 122.5 390.5 Q131 390 140 388 Q157 386 174 382 Q191 378 207 372 Q224 365 236.5 356 Q249 347 257 335 Q268 317 268 295 Q265 253 227 218 Q195 188 147 173 Q126 166 104 165 Q64 164 39 185 Q25 197 19 213 Q19 218 18 220 L18 221 Q18 224 17.5 226.5 Q17 229 17 232 Z " />
<glyph glyph-name="four" unicode="4" horiz-adv-x="320" d="M226 431 Q234 433 241.5 435 Q249 437 257 439 Q264 441 270 442 Q276 443 282 445 Q286 447 289 444 Q291 442 289 442 Q285 440 282 440 Q268 436 254.5 432.5 Q241 429 227 426 Q224 424 224 423 Q216 397 209 371 Q202 345 195 319 Q188 294 181.5 269 Q175 244 168 219 Q165 208 162.5 197 Q160 186 157 175 Q157 173 156.5 171.5 Q156 170 156 168 Q156 166 152.5 165 Q149 164 147 165 Q146 166 146 168 Q146 176 147 179 L159 233 Q163 250 166.5 266.5 Q170 283 175 300 L190 360 Q194 374 197.5 389 Q201 404 205 418 L205 421 Q194 417 186 416 Q167 411 148 407 Q129 403 110 398 Q88 393 71 393 Q60 392 46 395 Q30 399 27 412 Q27 423 31 431 Q38 449 53 469 Q73 498 103 526 Q112 534 122 542 Q132 550 144 556 Q148 559 152 560 L155 560 Q157 559 157 559 Q156 558 156 558 Q152 555 148 552.5 Q144 550 140 548 Q122 533 106 517 Q97 507 88.5 497.5 Q80 488 72 477 Q65 468 59 459 Q53 450 48 441 Q41 429 40 420 Q38 411 42 406 Q45 398 57 398 Q65 397 71 397.5 Q77 398 84 399 Q103 402 121 406 Q139 410 156 414 L204 426 Q207 426 207 428 Q214 454 221.5 478.5 Q229 503 238 528 Q242 539 246 549 Q250 559 254 570 Q256 572 257 574 Q258 576 260 578 Q260 580 263 579 Q265 578 265 576 Q262 571 262 566 Q260 559 258.5 552.5 Q257 546 255 539 Q251 525 247 510 Q243 495 239 480 Q236 468 232.5 456 Q229 444 226 432 L226 431 Z " />
<glyph glyph-name="five" unicode="5" horiz-adv-x="320" d="M71 259 Q67 259 64 258 Q53 256 48.5 251.5 Q44 247 41 238 Q39 230 39.5 222.5 Q40 215 42 207 Q43 195 51 186 Q69 165 97 174 Q108 177 117.5 182.5 Q127 188 136 194 Q153 206 165.5 220.5 Q178 235 188 251 Q201 273 211 295.5 Q221 318 227 342 Q229 353 230.5 364.5 Q232 376 231 388 Q229 406 221 420 Q208 438 182 440 Q162 440 141 432 Q109 420 83 400 Q75 395 68.5 389 Q62 383 55 378 Q53 377 52.5 376.5 Q52 376 50 375 Q43 371 38 376 Q35 379 35 381 Q35 391 36 395 Q38 404 40 413 Q42 422 44 431 Q49 452 56 473.5 Q63 495 72 515 Q76 523 82 532 Q90 547 111 553 Q132 560 155 563 Q169 565 182 567 Q195 569 209 571 Q211 572 213 571.5 Q215 571 217 571 Q217 571 219 569 L217 567 Q210 566 204 565.5 Q198 565 191 563 Q174 560 156 556.5 Q138 553 121 548 Q100 542 90 523 Q85 514 81.5 504.5 Q78 495 74 484 Q69 470 65.5 456 Q62 442 57 428 L48 389 Q47 387 47 383 Q51 385 54 387.5 Q57 390 60 392 Q88 415 124 432 Q144 441 164 444 Q190 448 210.5 437.5 Q231 427 240 405 Q246 391 246 377 Q247 360 243 344 Q239 328 234 312 Q226 292 217 273.5 Q208 255 195 237 Q165 195 118 174 Q110 170 101 167.5 Q92 165 82 165 Q65 165 52 174.5 Q39 184 37 198 Q34 210 34 221 Q34 236 39 247 Q45 257 59 260 Q61 260 64 260.5 Q67 261 69 261 Q70 260 71 260 L71 259 Z " />
<glyph glyph-name="six" unicode="6" horiz-adv-x="280" d="M41 230 Q42 236 45 241 Q49 249 52.5 257.5 Q56 266 61 274 Q84 315 110 350 Q117 359 124.5 367 Q132 375 141 381 Q147 385 153 387.5 Q159 390 167 391 Q191 394 200 374 Q205 364 205 354 L205 341 Q205 325 200 308 Q195 287 186.5 267 Q178 247 165 229 Q144 199 116 179 Q109 174 102 171 Q95 168 87 166 Q69 162 54 174 Q49 179 45 184.5 Q41 190 38 196 Q31 210 28 223.5 Q25 237 23 251 Q21 265 21 278.5 Q21 292 22 306 Q27 346 38 383 Q52 429 77 475 Q86 491 96 505.5 Q106 520 118 534 Q125 542 131.5 549 Q138 556 146 563 Q149 566 157 570 Q159 571 163 571 Q165 571 165 570 Q165 569 164 569 Q154 561 146 552.5 Q138 544 130 535 Q119 521 109.5 507 Q100 493 92 478 Q60 418 45 358 Q42 346 40.5 334 Q39 322 37 309 Q35 295 34.5 281 Q34 267 36 253 Q37 248 38 242 Q39 236 40 230 L41 230 Z M194 347 Q193 352 193 356 Q193 360 192 364 Q191 373 184 381 Q178 387 172 385 Q165 384 158 380 Q150 375 143 369.5 Q136 364 130 358 Q122 350 115.5 340.5 Q109 331 102 322 Q91 305 80.5 288.5 Q70 272 61 255 Q51 238 47 224 Q45 213 49 207 Q51 205 50 203 Q50 203 50 202 Q55 190 63 182 Q79 168 98 176 Q103 179 108 182 Q113 185 118 189 Q141 209 156 233 Q167 249 174 266 Q181 283 186 300 Q190 311 191.5 323 Q193 335 194 347 Z " />
<glyph glyph-name="seven" unicode="7" horiz-adv-x="260" d="M109 385 Q104 384 100.5 383.5 Q97 383 92 382 Q88 382 84.5 381.5 Q81 381 77 381 Q72 381 70 382 Q69 382 69 384 Q70 385 71 385 Q75 385 78.5 385.5 Q82 386 87 387 Q92 388 98 388.5 Q104 389 110 389 Q112 391 112 391 Q129 427 147.5 462 Q166 497 185 532 Q189 540 192.5 546.5 Q196 553 200 561 Q201 562 201 563 Q201 564 202 565 Q202 567 200 567 Q195 568 190 567 Q185 566 180 565 Q164 561 148.5 556 Q133 551 118 546 Q100 541 86 536 Q84 536 83 535.5 Q82 535 80 535 Q78 535 76 537 Q75 537 75.5 537.5 Q76 538 77 538 Q89 540 100.5 544.5 Q112 549 124 552 Q139 557 154.5 561.5 Q170 566 185 570 Q190 571 199 571 Q202 571 206 569 Q211 567 209 559 Q207 554 205 549.5 Q203 545 201 540 Q196 531 192 522 Q188 513 184 504 Q173 481 161.5 458.5 Q150 436 139 413 Q137 408 134.5 403 Q132 398 130 393 Q129 392 129 391 Q132 391 135 391.5 Q138 392 141 392 Q147 393 153.5 393 Q160 393 166 394 L181 394 Q186 394 190.5 394 Q195 394 200 393 Q206 393 207 389 Q208 389 208 388 Q208 387 207 387 Q207 386 205 386 Q204 386 202 388 Q200 390 197 390 L177 390 Q167 389 158 388.5 Q149 388 139 387 Q132 387 128 386 Q126 386 126 385 Q121 374 116 364 Q111 354 106 344 Q92 311 77 278 Q62 245 47 212 Q43 204 40 195.5 Q37 187 34 179 Q33 177 33 175.5 Q33 174 32 172 Q32 170 31 170 Q27 168 24 168 Q19 168 21 172 Q23 182 24 186 Q29 202 35 216.5 Q41 231 48 246 Q63 281 78 314.5 Q93 348 108 383 Q109 383 109 385 Z " />
<glyph glyph-name="eight" unicode="8" horiz-adv-x="290" d="M216 463 Q208 442 200 421 Q192 400 184 380 Q182 375 179.5 369.5 Q177 364 175 359 L190 350 Q211 336 218 317 Q226 296 215 273 Q205 254 186 236 Q171 221 154 208 Q137 195 117 184 Q95 171 70 167 Q51 164 34 168 Q12 172 6 191 Q3 199 3 206 Q3 213 4 221 Q7 238 14 254.5 Q21 271 30 288 Q47 320 73 350 Q81 358 88.5 365.5 Q96 373 106 380 L107 380 Q98 386 90 390 Q68 404 70 429 Q72 440 76 449.5 Q80 459 85 469 Q112 511 154 544 Q162 550 170.5 555.5 Q179 561 189 565 Q194 567 199 568.5 Q204 570 210 570 Q221 571 228.5 565.5 Q236 560 238 551 Q241 537 236 522 Q231 507 226 492 Q221 477 216 463 Z M188 337 Q181 345 173 349.5 Q165 354 155 359 Q145 364 135 368 Q125 372 115 377 Q113 377 112 376 Q107 371 102.5 367 Q98 363 94 358 Q82 345 72 331 Q62 317 53 302 Q42 284 34 266 Q26 248 21 228 Q19 220 18.5 212.5 Q18 205 20 197 Q26 172 57 172 Q64 172 67 173 Q77 175 85.5 178 Q94 181 102 185 Q147 210 178 246 Q186 255 192 264 Q198 273 201 284 Q211 314 188 337 Z M169 365 Q174 380 179.5 395.5 Q185 411 190 426 Q198 450 206.5 474 Q215 498 221 522 Q223 529 224 535 Q225 541 225 548 Q225 551 224.5 553.5 Q224 556 223 559 Q222 564 216 563 Q208 563 201 560 Q192 557 184.5 552 Q177 547 170 542 Q131 511 103 470 Q96 460 91.5 449.5 Q87 439 86 427 Q83 412 95 399 Q98 396 100 395 Q104 392 108 389.5 Q112 387 117 385 Q123 382 129 379.5 Q135 377 142 374 Q145 372 148.5 371 Q152 370 155 368 Q157 368 161 366 Q161 366 165 364 Q167 363 168 363 Q168 364 168.5 364 Q169 364 169 365 Z " />
<glyph glyph-name="nine" unicode="9" horiz-adv-x="295" d="M197 491 Q201 497 202 498 Q207 504 214 503 Q221 501 223 495 Q223 492 223.5 489.5 Q224 487 224 485 L224 442 Q223 430 222.5 417.5 Q222 405 220 393 Q215 355 203.5 319.5 Q192 284 172 251 Q153 220 126 197 Q98 175 67 168 Q54 164 37 166 Q14 171 10 189 Q7 196 7 205 Q7 220 22 226 Q25 228 33 230 L35 230 L35 229 Q33 229 32 228 Q26 227 21 223 Q12 218 12 207 Q11 201 13 195.5 Q15 190 18 184 Q20 180 28 176 Q38 170 51 172 Q65 173 77.5 177.5 Q90 182 101 189 Q128 206 148 234 Q168 262 182 300 Q197 338 203 377 Q206 394 207 412.5 Q208 431 209 449 Q209 458 209 467 Q209 476 210 485 L210 491 L209 491 Q208 491 208 490 Q203 482 198 474.5 Q193 467 188 459 Q179 445 170 431.5 Q161 418 151 404 Q140 388 124 370 Q121 368 118.5 366 Q116 364 113 362 Q91 347 74 367 Q66 378 61 394 Q59 403 58.5 412 Q58 421 59 430 Q63 479 91 524 Q96 532 101.5 539.5 Q107 547 115 553 Q121 558 127 562.5 Q133 567 141 569 Q156 574 170 569 Q184 564 192 551 Q199 540 201 527 Q202 522 202 518.5 Q202 515 202 510 Q201 505 200 501 Q199 497 197 492 L197 491 Z M196 488 Q194 489 193.5 488.5 Q193 488 192 489 Q189 489 191 491 Q192 492 192 493 Q192 494 193 495 Q194 500 194.5 504.5 Q195 509 196 514 Q197 523 194 533 Q191 550 178 560 Q166 568 154 567 Q140 564 129 555 Q120 548 113 539.5 Q106 531 100 521 Q87 499 79.5 476 Q72 453 70 428 Q69 419 69.5 409.5 Q70 400 73 391 Q76 376 85 367 Q97 355 109 365 Q113 368 116.5 371.5 Q120 375 124 379 Q135 390 144 402.5 Q153 415 161 428 Q168 439 174 450.5 Q180 462 187 473 L196 488 Z " />
<glyph glyph-name="at" unicode="&#x40;" horiz-adv-x="325" d="M157 296 Q153 291 149.5 286 Q146 281 142 276 Q134 264 121 251 Q116 246 110 243 Q91 236 86 255 Q84 262 85 269 Q86 276 88 283 Q92 299 98.5 314 Q105 329 116 343 Q122 353 132 359 Q142 364 151 364 Q163 364 172 352 Q179 340 179 331 Q180 329 180 327 Q180 325 181 323 L177 323 Q176 323 176 324 Q176 325 175 325 Q173 332 171.5 338.5 Q170 345 166 351 Q160 359 153 360 Q150 360 144 358 Q139 356 136 353 Q133 350 130 347 Q123 339 118.5 329.5 Q114 320 109 310 Q106 301 103.5 292 Q101 283 99 274 Q99 269 98.5 264 Q98 259 100 254 Q102 247 108 251 Q113 256 117 259.5 Q121 263 125 268 Q143 289 157 315 Q160 318 160 320 Q164 325 172 325 Q177 324 177 318 Q175 312 174.5 306 Q174 300 173 294 Q171 283 169 271 Q167 259 168 248 Q168 244 169 241 Q170 238 171 234 Q171 233 172 232 Q175 225 182 228 Q194 233 202 242 Q212 254 219 272 Q228 291 231 315 Q231 320 231.5 325 Q232 330 232 335 L232 354 Q230 375 224.5 394 Q219 413 205 430 Q185 453 156 456 Q142 458 129.5 455.5 Q117 453 105 448 Q87 440 72.5 427.5 Q58 415 46 400 Q14 359 2 311 Q-1 299 -3 287 Q-5 275 -6 262 Q-6 255 -6.5 248 Q-7 241 -6 234 Q-5 216 -2.5 199.5 Q0 183 6 166 Q16 142 32 127 Q48 112 69.5 109 Q91 106 111 115 Q119 119 126 124 Q133 129 140 134 Q154 145 166.5 155.5 Q179 166 192 177 Q193 178 194 178.5 Q195 179 196 181 Q197 181 197 183 Q197 186 200 186 Q201 185 202 185 L203 185 Q204 182 203 181 Q201 178 196 173 Q182 159 166.5 147 Q151 135 135 123 Q113 106 88 103 Q39 97 9 135 Q0 147 -5.5 161 Q-11 175 -15 189 Q-18 200 -19 212 Q-20 224 -21 235 Q-23 309 13 373 Q40 421 89 448 Q108 459 130 462 Q180 467 212 432 Q237 405 242 370 Q243 362 243.5 355 Q244 348 243 340 Q243 317 237 296 Q231 275 220 255 Q213 240 197 229 Q189 223 178 221 Q156 219 153 241 Q151 251 151.5 259.5 Q152 268 154 277 L157 295 L157 296 Z " />
<glyph glyph-name="asciitilde" unicode="&#x7e;" horiz-adv-x="285" d="M86 319 Q84 317 82.5 315.5 Q81 314 79 312 Q67 300 62 287 Q62 285 61 284 Q61 282 59 282 Q52 282 54 288 Q56 291 57 294 Q58 297 60 300 Q64 305 68 310.5 Q72 316 77 321 Q82 326 88.5 325 Q95 324 99 316 Q101 312 102 308 Q103 304 105 300 Q106 293 111 287 Q115 280 120 284 Q127 288 133.5 292 Q140 296 146 300 Q154 306 162 312 Q170 318 178 325 Q180 327 182 328 Q183 329 184 329 Q187 329 189 326 Q191 325 188 322 Q186 318 184 317 Q159 294 132 278 Q123 272 112 275 Q98 278 93 292 Q91 297 90.5 302 Q90 307 88 312 Q88 314 87.5 315 Q87 316 87 318 Q86 318 86 319 Z " />
<glyph glyph-name="grave" unicode="&#x60;" horiz-adv-x="130" d="M40 737 Q45 737 48 730 Q51 718 56 702 Q58 696 60.5 690 Q63 684 66 678 Q67 675 69 672.5 Q71 670 73 667 Q73 666 73.5 665.5 Q74 665 74 664 Q70 664 70 664 Q68 666 65.5 667 Q63 668 61 670 Q57 675 54.5 680 Q52 685 50 690 Q47 700 43.5 709.5 Q40 719 37 729 Q36 730 36 733 Q36 737 40 737 Z " />
<glyph glyph-name="exclam" unicode="&#x21;" horiz-adv-x="180" d="M129 723 Q129 718 128.5 712 Q128 706 128 701 Q127 695 126.5 689 Q126 683 126 677 L120 635 Q116 606 112 577 Q108 548 104 519 Q101 498 98 477.5 Q95 457 92 436 L83 358 Q81 339 79 320 Q77 301 75 281 Q73 261 71 240 Q69 219 67 198 Q65 175 63 153 Q61 131 59 108 Q57 92 56 77 Q55 62 53 46 Q53 43 52.5 39.5 Q52 36 49 33 Q48 32 44 30 Q42 30 42 32 Q43 42 43.5 51.5 Q44 61 45 70 Q46 84 46.5 96.5 Q47 109 49 122 Q50 134 50.5 145.5 Q51 157 52 168 Q54 182 54.5 196.5 Q55 211 57 225 Q59 240 59.5 254.5 Q60 269 62 284 L68 344 Q69 358 70 370.5 Q71 383 73 397 Q74 425 79 456 Q84 501 91.5 546 Q99 591 106 636 L115 705 Q116 710 116.5 715 Q117 720 117 725 Q118 727 117.5 729 Q117 731 117 733 Q117 738 122 736 Q126 734 128 730 Q128 728 128.5 726.5 Q129 725 129 723 Z M38 -42 Q36 -41 36 -41 Q36 -39 37 -39 Q39 -36 42 -34 L45 -34 Q45 -36 44 -37 Q42 -42 38 -42 Z " />
<glyph glyph-name="numbersign" unicode="&#x23;" horiz-adv-x="295" d="M50 254 Q52 256 53 256.5 Q54 257 55 258 Q60 260 65.5 261.5 Q71 263 76 265 Q85 267 93.5 269.5 Q102 272 111 274 Q113 276 113 277 Q115 290 117.5 302.5 Q120 315 122 327 L122 329 Q114 327 107 326.5 Q100 326 93 324 Q81 321 69.5 318.5 Q58 316 46 313 L42 313 Q40 315 39 315 Q41 317 42 317 L51 320 L120 335 Q122 335 124 338 Q126 352 129 365 Q132 378 135 392 Q138 397 139 398 Q139 399 144 401 Q147 401 147 397 Q145 377 141 360 Q140 355 139 349 Q138 343 137 338 Q141 338 149 340 Q154 341 158 341 Q162 341 167 342 Q169 342 169 345 Q172 357 175 369 Q178 381 180 393 Q181 395 181.5 396.5 Q182 398 184 400 Q186 402 188 402 Q192 403 192 399 Q190 391 189.5 383 Q189 375 187 367 Q185 361 184 355.5 Q183 350 181 344 Q185 345 188.5 345 Q192 345 195 346 Q202 347 208.5 347 Q215 347 221 348 Q223 348 224 347.5 Q225 347 227 347 Q227 346 227.5 345.5 Q228 345 228 344 Q228 342 226 342 Q224 340 224 342 Q219 344 210 342 L180 339 Q177 326 174.5 313.5 Q172 301 169 288 Q172 289 175 289 Q178 289 180 290 Q186 292 192 292.5 Q198 293 203 295 Q204 295 208 297 Q210 298 212 298 Q214 298 214 296 Q216 292 211 292 Q206 290 201.5 289 Q197 288 192 287 Q186 285 180.5 284 Q175 283 170 282 Q168 282 168 279 Q165 265 162.5 251.5 Q160 238 157 224 Q156 217 155 210.5 Q154 204 153 196 Q152 194 154 190 Q154 187 152 187 Q150 186 148 187.5 Q146 189 146 191 Q145 197 146 204 Q147 223 152 243 Q153 252 154 261 Q155 270 157 278 Q156 279 156 278 Q148 276 141 274.5 Q134 273 126 271 Q124 271 123 268 Q121 258 119.5 248 Q118 238 116 227 Q114 220 113.5 213 Q113 206 111 199 Q110 194 110 190 Q110 186 109 181 Q109 180 111 178 Q112 177 113 177 Q111 175 111 175 Q101 172 101 181 Q101 187 101 192.5 Q101 198 102 203 Q103 211 104 218 Q105 225 106 233 Q108 241 109 249.5 Q110 258 111 266 Q112 267 112 268 Q107 266 103.5 265.5 Q100 265 96 264 Q86 261 77 258.5 Q68 256 59 253 Q55 252 50 254 Z M168 337 L166 337 Q159 335 152 334 Q145 333 137 332 Q135 332 135 330 L126 285 Q126 280 125 278 Q133 280 141 281.5 Q149 283 157 285 Q159 285 159 288 Q161 294 161.5 300 Q162 306 163 311 Q165 318 165.5 324 Q166 330 168 337 Z " />
<glyph glyph-name="dollar" unicode="&#x24;" horiz-adv-x="390" d="M131 395 Q129 393 125 393 L121 393 Q116 389 112 385.5 Q108 382 104 377 Q81 351 66.5 321 Q52 291 42 258 Q37 240 37 224 Q38 200 51.5 184.5 Q65 169 88 165 Q110 161 134 169 Q136 169 136 171 Q140 188 143 203.5 Q146 219 149 236 Q153 255 157 274 Q161 293 165 312 L189 426 Q190 431 186 433 Q172 441 158.5 448 Q145 455 131 463 Q115 471 100 486 Q75 514 89 550 Q94 562 101.5 572 Q109 582 119 591 Q141 611 165.5 625.5 Q190 640 218 651 Q233 656 247 657 L249 659 L261 701 Q263 709 265.5 717.5 Q268 726 270 735 Q271 739 276 739 Q280 738 279 732 Q274 714 270 695.5 Q266 677 261 659 L261 657 Q263 657 264 656.5 Q265 656 267 656 Q280 653 289 641 Q304 621 307 596 Q309 588 309.5 579 Q310 570 308 562 Q307 546 300 528 Q290 506 276 492 L274 490 Q271 489 269 491 Q269 491 269 494 Q280 507 288 521.5 Q296 536 298 553 Q306 596 287 632 Q285 636 283 638 Q274 650 259 649 Q257 642 255 635 Q253 628 251 621 Q242 586 233 550.5 Q224 515 214 479 Q212 468 209 457.5 Q206 447 204 436 Q203 434 206 431 Q220 424 233.5 416.5 Q247 409 260 400 Q267 395 273.5 389 Q280 383 285 376 Q311 343 300 303 Q296 287 288.5 273.5 Q281 260 270 248 Q246 222 217.5 201.5 Q189 181 155 167 Q151 165 148 164 Q146 164 146 162 Q142 143 139 124.5 Q136 106 132 87 Q131 80 130.5 74 Q130 68 129 62 Q128 60 128.5 57 Q129 54 129 52 Q130 49 128 48 Q124 46 122 48 Q118 52 118 58 L121 85 Q123 100 126 115 Q129 130 131 145 Q132 148 132.5 151.5 Q133 155 134 158 L134 160 Q129 159 124 158 Q119 157 114 157 Q97 155 81 158 Q65 161 50 171 Q27 188 24 216 Q22 230 24 242 Q26 254 30 267 Q46 320 77 360 Q85 370 93 378.5 Q101 387 112 394 Q117 399 124 398 Q128 398 131 395 Z M148 174 L150 174 L156 177 Q212 203 251 248 Q273 273 283 302 Q291 327 285 350 Q281 363 273.5 372.5 Q266 382 256 390 Q244 401 230.5 408.5 Q217 416 203 424 L201 424 Q187 361 174.5 299 Q162 237 148 174 Z M246 648 L244 648 Q238 646 232.5 645 Q227 644 222 642 Q193 631 167 614 Q141 597 120 573 Q106 558 101 543 Q90 513 108 491 Q120 478 133 471 Q147 463 161.5 455.5 Q176 448 191 440 Q191 439 192 439 Q203 493 216.5 544.5 Q230 596 246 648 Z " />
<glyph glyph-name="percent" unicode="&#x25;" horiz-adv-x="255" d="M-110 32 Q-117 32 -112 38 Q-107 46 -102 54.5 Q-97 63 -92 71 Q-72 103 -53 134 Q-34 165 -14 196 Q12 238 38 279 Q64 320 90 362 Q110 393 129.5 423 Q149 453 169 484 Q183 505 196.5 526 Q210 547 224 568 Q241 594 258 620 Q275 646 292 672 Q300 685 309 698 Q318 711 327 724 Q333 732 336 735 Q341 740 346 738 Q348 737 346 734 Q340 728 338 725 Q331 714 324.5 703.5 Q318 693 311 682 Q288 647 266 612.5 Q244 578 221 543 Q192 498 163.5 455 Q135 412 106 367 L25 241 Q8 213 -9.5 186 Q-27 159 -44 132 Q-60 108 -75 83.5 Q-90 59 -105 35 Q-107 32 -110 32 Z M-9 124 Q-6 141 5 152 Q11 160 17.5 167 Q24 174 32 180 Q38 186 46 186 Q47 186 47 185 Q49 183 54 186 Q66 191 74.5 186.5 Q83 182 84 170 Q85 159 81.5 150 Q78 141 73 132 Q66 121 57 111.5 Q48 102 35 97 Q21 91 9 94 Q-13 99 -9 124 Z M45 181 Q45 182 44 182 Q43 180 39 178 Q36 176 33.5 173 Q31 170 29 168 Q21 159 14 149 Q7 139 4 127 Q1 116 5 107 Q9 100 19 100 Q24 100 28.5 102.5 Q33 105 38 108 Q52 119 61 134 Q66 142 69.5 150.5 Q73 159 73 169 Q73 177 69 182 Q65 184 63 183 Q49 179 39 167 Q36 164 33 166 Q31 167 33 171 L37 175 Q39 177 45 181 Z M195 693 Q192 697 197 698 Q205 700 213.5 700 Q222 700 230 696 Q251 688 245 665 Q241 650 232 640 Q223 630 210 622 Q198 614 185 613 Q170 611 162 621.5 Q154 632 158 647 Q164 669 182 686 Q186 692 195 693 Z M198 692 Q200 690 200 690 Q203 687 199 687 Q195 687 194 684 Q178 666 172 646 Q168 635 172 627 Q175 619 185 620 Q201 623 215 638 Q233 654 234 674 Q236 690 221 693 Q218 695 214 694.5 Q210 694 206 695 Q206 693 205 692.5 Q204 692 198 692 Z " />
<glyph glyph-name="asciicircum" unicode="&#x5e;" horiz-adv-x="140" d="M6 649 Q9 654 11.5 659 Q14 664 17 669 Q26 684 36 698.5 Q46 713 57 727 Q58 729 62 733 Q67 739 75 737 Q83 735 85 728 Q88 719 88 709 Q90 701 90.5 692.5 Q91 684 92 676 Q93 671 93.5 665 Q94 659 94 653 Q94 650 94 646.5 Q94 643 95 639 Q95 635 91 637 Q87 637 87 641 Q86 645 84 655 Q83 663 82.5 670.5 Q82 678 80 686 Q79 694 78 701 Q77 708 76 716 L73 728 Q72 729 72 729 L63 720 Q53 708 44.5 695 Q36 682 28 669 L16 648 Q13 642 7 645 Q7 646 6 646 L6 649 Z " />
<glyph glyph-name="ampersand" unicode="&#x26;" horiz-adv-x="300" d="M160 415 Q162 422 162 428 Q162 434 164 440 Q169 462 173 483 Q177 504 182 525 Q191 567 201 607 Q211 647 221 689 Q223 700 225.5 712 Q228 724 231 736 Q231 738 233 740 Q233 742 235 743 Q237 744 239 742 Q241 740 241 739 Q239 733 239 727 Q239 721 238 714 Q232 687 226.5 659.5 Q221 632 214 604 Q209 576 203 549 Q197 522 191 494 Q186 474 181 453.5 Q176 433 171 412 Q172 410 171.5 409.5 Q171 409 171 407 Q169 402 164 401.5 Q159 401 156 406 Q151 411 147 416.5 Q143 422 139 427 Q126 439 114 440 Q103 441 89 436 Q79 432 72 426.5 Q65 421 57 413 Q25 380 12 337 Q10 329 8.5 322 Q7 315 9 307 Q11 299 12 296 Q14 291 18 289 Q22 287 25 289 Q30 291 35 292.5 Q40 294 45 296 Q84 314 114 341 Q117 343 119.5 345 Q122 347 124 349 Q131 352 136 350 Q142 348 139 344 Q136 339 133.5 334 Q131 329 127 324 Q112 298 99.5 271 Q87 244 79 215 Q74 204 71 192.5 Q68 181 66 169 Q66 164 65.5 159 Q65 154 66 149 Q70 143 71 141 Q72 139 75 140 Q78 143 81 146 Q84 149 87 153 Q127 202 162 258 Q166 264 169 270 Q172 276 177 282 Q181 289 188 289 Q197 288 196 281 Q194 274 194 267.5 Q194 261 192 253 Q185 207 178 161 Q171 115 165 68 Q160 36 157 4 Q154 -28 151 -60 Q150 -76 149 -91.5 Q148 -107 147 -124 Q146 -132 146.5 -139.5 Q147 -147 147 -155 Q147 -159 149 -161 L149 -163 Q146 -168 140 -166 Q134 -164 134 -160 Q134 -155 133.5 -149.5 Q133 -144 133 -139 Q134 -116 135 -93.5 Q136 -71 138 -48 Q139 -25 141 -3 Q143 19 146 42 Q147 61 149 79 Q151 97 153 115 Q156 140 160.5 164.5 Q165 189 170 214 Q172 225 173 236 Q174 247 176 258 Q177 259 176 261 Q172 255 171 252 Q157 232 144 212.5 Q131 193 117 174 Q112 166 105.5 158 Q99 150 94 142 Q89 137 84 134 Q79 131 72 130 Q63 128 56.5 131.5 Q50 135 48 146 Q45 163 50 180 Q54 203 61 224 Q68 245 77 265 Q85 279 92 292.5 Q99 306 107 319 Q107 320 107.5 320.5 Q108 321 108 322 Q106 320 106 320 Q93 312 80 304 Q67 296 52 289 Q47 286 40.5 283.5 Q34 281 26 281 Q18 281 14 282 Q-4 287 -6 307 Q-7 323 -3 338 Q11 394 56 428 Q72 442 94 445 Q130 451 155 422 Q156 420 157 418.5 Q158 417 160 415 Z " />
<glyph glyph-name="asterisk" unicode="&#x2a;" horiz-adv-x="170" d="M85 672 Q80 667 74.5 663 Q69 659 63 655 Q59 651 54.5 648 Q50 645 45 642 Q43 640 39 642 Q35 642 38 645 Q40 647 41.5 647.5 Q43 648 45 650 Q53 656 62 662 Q71 668 79 675 Q79 675 81 677 Q76 677 73 676 L46 673 L36 673 Q34 673 32 675 L32 676 Q33 677 35 677 Q48 679 60 680 Q72 681 84 683 L88 683 L85 686 Q80 694 75 701 Q70 708 65 716 Q64 717 63.5 718.5 Q63 720 62 721 Q59 725 64 725 Q68 726 72 723 Q74 720 76 717.5 Q78 715 80 712 Q82 708 84.5 704.5 Q87 701 90 696 Q91 699 91 701.5 Q91 704 92 707 Q94 714 95.5 721 Q97 728 99 735 Q99 739 103 739 Q109 739 107 734 Q106 727 105 721 Q104 715 102 709 Q101 704 100 699 Q99 694 98 689 L100 691 Q108 697 115.5 702.5 Q123 708 131 714 L137 717 L144 717 Q145 717 145 716 Q145 714 146 714 Q145 714 144 713.5 Q143 713 142 713 Q140 713 139 712 Q130 705 120.5 698.5 Q111 692 102 685 L118 685 Q125 685 131.5 685 Q138 685 144 683 Q147 683 148 682 Q150 681 152 679 L152 674 Q148 674 147 676 Q146 680 142 680 L113 680 Q111 680 108 679.5 Q105 679 102 679 Q102 678 102.5 677.5 Q103 677 103 676 Q109 668 114.5 659 Q120 650 126 641 Q127 640 127 639 Q127 638 128 636 Q128 632 126 631 Q123 629 121 633 Q114 643 108 652.5 Q102 662 95 673 L94 673 Q92 664 90 655 Q88 646 86 637 Q84 630 83 623 Q82 616 80 609 Q80 607 79 605 Q78 603 77 601 Q76 598 72 600 Q72 600 72 603 Q73 608 74 611.5 Q75 615 76 619 Q77 626 78 633 Q79 640 80 647 Q81 652 82 657.5 Q83 663 84 668 Q85 669 85 672 Z " />
<glyph glyph-name="hyphen" unicode="&#x2d;" horiz-adv-x="230" d="M64 299 Q66 302 72 302 L123 305 Q133 306 142.5 306 Q152 306 161 306 Q163 306 169 304 L169 303 Q170 301 170 301 Q170 300 169 300 L167 300 L160 300 Q144 299 129 298.5 Q114 298 98 297 Q91 296 85 296 Q79 296 72 296 Q66 296 64 299 Z " />
<glyph glyph-name="plus" unicode="&#x2b;" horiz-adv-x="260" d="M131 304 Q131 297 130.5 291 Q130 285 130 279 Q129 269 128.5 259.5 Q128 250 127 239 Q127 231 126.5 223 Q126 215 126 207 Q126 202 129 200 Q129 199 128 198 Q125 196 121 197 Q117 198 117 202 Q116 210 116 218.5 Q116 227 116 235 Q116 243 116.5 252 Q117 261 117 269 Q118 278 118 286.5 Q118 295 118 304 L116 304 Q102 304 89 303 Q76 302 62 300 Q60 299 57 299.5 Q54 300 52 300 Q52 300 49 303 Q51 304 51 304.5 Q51 305 53 305 Q69 308 85 310 Q101 312 118 311 L119 311 L119 315 Q120 326 120 337 Q120 348 121 359 Q121 366 121.5 373 Q122 380 123 387 Q123 394 129 396 Q135 396 135 391 Q136 385 136 379 Q136 373 136 367 Q136 361 135.5 354.5 Q135 348 134 342 Q133 334 133 327.5 Q133 321 132 313 L132 311 L134 311 Q147 311 159 310.5 Q171 310 183 310 Q188 310 190 309 Q192 309 192 307 Q192 305 190 305 Q188 305 185.5 304.5 Q183 304 181 304 L134 304 L131 304 Z " />
<glyph glyph-name="equal" unicode="&#x3d;" horiz-adv-x="250" d="M69 317 Q59 317 54 321 L53 322 Q49 326 54 326 L62 326 Q70 327 77.5 327.5 Q85 328 93 328 L116 328 Q130 327 143 327 Q156 327 170 327 Q172 327 178 325 Q179 324 179.5 323 Q180 322 181 321 Q177 319 177 319 L158 319 Q144 318 131 318 Q118 318 104 317 L69 317 Z M82 274 Q77 276 73 276.5 Q69 277 64 278 Q63 279 62 279.5 Q61 280 60 281 Q57 282 60 284 Q61 284 61.5 284.5 Q62 285 64 285 L102 285 L143 285 Q148 284 154 284 Q160 284 166 283 Q168 283 174 281 Q176 279 176 278 Q174 276 173 276 L156 276 Q142 275 128.5 275 Q115 275 101 275 L82 275 L82 274 Z " />
<glyph glyph-name="braceleft" unicode="&#x7b;" horiz-adv-x="205" d="M146 741 L143 741 Q140 741 137 738 Q135 734 134 730 Q133 726 131 722 Q126 703 123 683.5 Q120 664 117 644 Q114 617 110.5 589.5 Q107 562 105 535 Q103 515 100 496.5 Q97 478 92 460 Q88 445 83.5 431 Q79 417 74 403 Q72 397 69.5 391.5 Q67 386 66 380 Q66 375 67 372 Q67 365 73 364 Q76 363 78 362.5 Q80 362 82 361 Q93 357 94 342 Q94 328 93 315 Q92 302 90 288 Q89 267 87 246 Q85 225 83 205 Q82 191 81.5 177 Q81 163 80 149 Q79 136 79 123 Q79 110 79 97 Q78 85 78.5 73 Q79 61 81 48 Q82 39 83.5 29.5 Q85 20 88 10 Q92 -2 100 -11 Q105 -17 110 -22 Q115 -27 122 -31 Q124 -32 130 -34 Q132 -35 134 -32 Q134 -32 136 -28 Q136 -28 136 -25 Q140 -23 141 -24 Q143 -25 142.5 -26 Q142 -27 143 -29 Q139 -42 129 -42 Q120 -42 110 -35 Q94 -25 82 -9 Q77 -4 75.5 2 Q74 8 72 15 Q67 29 66 41.5 Q65 54 65 68 Q64 78 64.5 87.5 Q65 97 65 106 Q65 117 65 127 Q65 137 66 148 Q68 162 68 176 Q68 190 70 204 Q71 221 73 237.5 Q75 254 77 271 Q79 288 79.5 303.5 Q80 319 82 336 Q83 339 82 342 Q81 345 82 349 Q82 353 76 355 Q74 356 72.5 356.5 Q71 357 69 358 Q54 364 57 380 Q58 384 58.5 388 Q59 392 61 396 Q65 411 69.5 426 Q74 441 78 456 Q83 474 85.5 492.5 Q88 511 90 529 Q97 596 108 665 Q111 679 113.5 692 Q116 705 120 718 Q123 728 129 739 Q135 746 142 744 Q142 744 146 742 L146 741 Z " />
<glyph glyph-name="braceright" unicode="&#x7d;" horiz-adv-x="191" d="M77 744 Q80 745 83 744 Q95 741 100 726 Q106 705 106 682 Q107 655 105.5 628.5 Q104 602 101 575 Q99 549 95.5 522.5 Q92 496 90 470 Q86 445 89 416 Q91 405 94 394.5 Q97 384 102 374 Q103 372 103.5 370.5 Q104 369 105 367 Q109 362 105 359 Q104 357 103 356.5 Q102 356 100 354 Q99 353 98 352.5 Q97 352 96 350 Q91 345 91 339 Q92 331 92.5 322 Q93 313 94 305 Q95 285 96 264 Q97 243 98 222 Q99 204 98.5 186 Q98 168 98 150 Q98 106 92 66 Q90 50 85 35 Q80 20 74 5 Q71 -4 67.5 -13 Q64 -22 60 -30 Q59 -33 55 -39 Q54 -40 52.5 -40.5 Q51 -41 49 -42 L48 -41 Q47 -41 47 -40 Q46 -39 46.5 -38.5 Q47 -38 46 -37 L48 -35 Q52 -34 52 -30 Q63 -4 70 22.5 Q77 49 80 78 Q85 113 83 149 Q83 169 82.5 189 Q82 209 82 229 Q82 246 81 263.5 Q80 281 79 298 Q78 308 78 318 Q78 328 78 338 Q79 343 81.5 347.5 Q84 352 87 355 Q89 357 90.5 357.5 Q92 358 94 360 Q96 362 96 362.5 Q96 363 94 366 Q92 371 90 374.5 Q88 378 85 383 Q79 395 76.5 408 Q74 421 72 435 Q72 455 74.5 473.5 Q77 492 79 511 Q83 541 86 571.5 Q89 602 91 632 Q92 645 93 658 Q94 671 95 684 Q95 695 94.5 705.5 Q94 716 91 727 Q91 729 90.5 730.5 Q90 732 90 734 Q88 740 80 742 Q78 742 77 743 L77 744 Z " />
<glyph glyph-name="question" unicode="&#x3f;" horiz-adv-x="310" d="M59 612 Q60 614 60 616 Q60 618 61 620 Q63 630 67.5 639 Q72 648 77 656 Q104 699 145 725 Q156 732 167.5 736.5 Q179 741 191 743 Q208 745 223 739.5 Q238 734 249 718 Q263 698 263 670 Q263 657 261 645 Q259 633 256 621 Q250 601 242.5 581.5 Q235 562 227 542 Q208 497 190 452 Q172 407 155 361 Q138 315 123.5 269 Q109 223 95 175 Q90 159 86.5 144 Q83 129 79 113 Q78 110 78 107.5 Q78 105 77 102 Q77 96 78 94 Q81 91 77 89 Q73 87 69.5 89.5 Q66 92 66 97 Q65 102 65.5 106 Q66 110 67 115 Q70 135 75 153.5 Q80 172 85 191 Q97 233 109 273.5 Q121 314 134 355 Q143 384 153.5 411.5 Q164 439 175 467 Q187 497 199 526.5 Q211 556 223 586 Q229 602 234.5 618 Q240 634 243 651 Q245 660 246 669 Q247 678 246 687 Q246 695 244.5 702.5 Q243 710 239 716 Q231 729 215 732 Q196 736 174 726 Q144 713 117 686 Q105 674 94.5 660.5 Q84 647 76 631 Q73 625 70.5 619.5 Q68 614 67 607 Q65 605 67 603 Q67 600 65 600 Q60 600 60 606 Q59 607 59 607 L59 612 Z M71 -32 Q68 -42 63 -40 Q63 -35 66 -32.5 Q69 -30 71 -32 Z " />
<glyph glyph-name="underscore" unicode="&#x5f;" horiz-adv-x="350" d="M31 227 Q41 229 47 229 Q59 231 71.5 232 Q84 233 97 233 Q115 233 133 232.5 Q151 232 169 232 Q189 231 207.5 231 Q226 231 245 230 L264 230 Q268 230 270 229 Q274 227 270 225 Q266 223 263 223 L229 223 Q214 223 199 223.5 Q184 224 169 224 L142 224 Q131 225 119.5 225 Q108 225 96 225 Q83 224 70 223.5 Q57 223 43 222 Q35 222 31 225 L31 227 Z " />
<glyph glyph-name="bracketleft" unicode="&#x5b;" horiz-adv-x="170" d="M59 137 Q59 138 59.5 138.5 Q60 139 60 140 Q58 158 57.5 175.5 Q57 193 56 210 Q56 226 56 241 Q56 256 57 272 Q57 290 57.5 308.5 Q58 327 59 346 Q59 362 59.5 377 Q60 392 60 409 Q61 422 61.5 434.5 Q62 447 63 461 Q64 479 65 497 Q66 515 68 534 L77 627 Q80 650 84 672.5 Q88 695 93 718 Q93 720 93.5 720.5 Q94 721 94 722 Q97 739 114 741 Q116 742 120 741.5 Q124 741 127 741 Q128 741 132 739 Q135 736 133 733 L132 733 Q130 733 130 733 Q127 735 121 733 Q113 730 112 723 Q110 713 108.5 703.5 Q107 694 104 684 Q95 624 89 564 Q87 547 85.5 530.5 Q84 514 82 497 L79 434 Q78 422 77.5 409.5 Q77 397 77 385 Q76 375 76 365.5 Q76 356 76 347 Q75 333 74.5 320.5 Q74 308 74 294 Q73 282 73.5 270 Q74 258 74 246 L74 184 Q75 163 76 142 Q77 121 79 99 Q80 82 82 64.5 Q84 47 86 30 Q88 15 92.5 1 Q97 -13 107 -25 Q109 -27 110.5 -28 Q112 -29 114 -31 Q115 -34 118 -31 Q119 -30 120 -30 Q121 -30 122 -29 Q125 -29 124 -32 Q124 -34 122 -36 Q112 -44 102 -38 Q97 -34 94 -30 Q91 -26 87 -21 Q81 -12 76.5 -2 Q72 8 70 19 Q68 30 67 41.5 Q66 53 65 64 Q63 72 63.5 81 Q64 90 63 98 Q63 99 62.5 99.5 Q62 100 62 101 L59 137 Z " />
<glyph glyph-name="bracketright" unicode="&#x5d;" horiz-adv-x="170" d="M89 641 Q90 633 90 625.5 Q90 618 90 610 Q90 600 90 591 Q90 582 89 573 Q90 565 89.5 557 Q89 549 89 541 Q88 524 88 508.5 Q88 493 87 476 Q86 459 85.5 441.5 Q85 424 83 407 Q83 395 82 383 Q81 371 81 358 Q80 343 79.5 328 Q79 313 79 298 Q78 285 77.5 272.5 Q77 260 77 247 Q78 224 77.5 201 Q77 178 77 155 Q78 132 78.5 108 Q79 84 80 61 Q79 50 79.5 38.5 Q80 27 78 16 Q75 0 64 -13 Q57 -19 51.5 -24.5 Q46 -30 38 -35 Q30 -39 25 -40 Q22 -43 20 -40 Q15 -40 15 -35 Q15 -30 21 -30 Q21 -30 23 -32 Q24 -35 28 -33 Q29 -32 30 -31.5 Q31 -31 32 -30 Q38 -26 44 -20.5 Q50 -15 55 -9 Q63 1 65 17 Q67 30 67 42.5 Q67 55 67 68 Q66 90 66 112 Q66 134 65 157 Q65 182 64.5 206.5 Q64 231 65 256 Q65 273 65 290 Q65 307 66 324 Q67 341 67.5 358.5 Q68 376 69 394 Q70 408 70.5 421.5 Q71 435 71 449 Q72 465 72.5 481 Q73 497 73 513 Q74 524 74 533.5 Q74 543 74 553 Q75 564 75 574.5 Q75 585 75 596 L75 639 Q75 647 75 653.5 Q75 660 74 668 Q73 676 72 684 Q71 691 70.5 698 Q70 705 69 711 Q69 713 68 719 Q67 725 63 729 Q61 733 51 735 Q43 735 39 736 Q38 736 34 738 L34 739 Q34 739 34 740 Q34 743 36 741 Q41 741 47 740.5 Q53 740 58 739 Q76 734 81 714 Q83 708 84 702 Q85 696 86 689 Q89 665 89 641 Z " />
<glyph glyph-name="bar" unicode="&#x7c;" horiz-adv-x="177" d="M76 -24 Q77 -16 76.5 -7.5 Q76 1 76 9 Q76 17 75.5 24.5 Q75 32 75 40 Q75 50 75 60 Q75 70 74 80 Q75 88 74.5 96 Q74 104 74 112 Q74 123 73.5 133 Q73 143 73 154 L73 185 Q73 196 72.5 206 Q72 216 73 227 Q72 236 72 244.5 Q72 253 72 262 L72 302 Q71 310 71.5 318.5 Q72 327 71 335 Q72 345 71.5 355 Q71 365 72 375 L72 408 Q72 419 72 428.5 Q72 438 73 449 Q73 460 73 471 Q73 482 74 493 Q74 505 74 517.5 Q74 530 75 542 Q76 554 76 566.5 Q76 579 77 591 Q78 605 78.5 620 Q79 635 80 649 Q81 663 82 676 Q83 689 84 703 L87 742 Q87 747 91 745 Q92 745 92 743 Q94 733 93 726 L93 709 Q93 704 93 700 Q93 696 92 691 Q93 686 92.5 682 Q92 678 92 674 Q91 667 91.5 660.5 Q92 654 91 648 Q91 638 90.5 629 Q90 620 90 610 Q89 599 88.5 588 Q88 577 88 566 Q87 557 87 548 Q87 539 87 530 Q87 520 86.5 511 Q86 502 86 492 Q85 481 85 471 Q85 461 84 450 Q84 440 84 430 Q84 420 83 410 Q84 401 83.5 392 Q83 383 83 374 Q82 365 82.5 355.5 Q83 346 82 336 L82 301 Q81 290 81.5 280 Q82 270 81 259 Q81 248 81.5 238.5 Q82 229 81 218 Q82 207 81.5 196.5 Q81 186 82 175 L82 137 L82 93 Q82 84 82 75 Q82 66 83 56 Q83 47 83 37.5 Q83 28 84 18 Q83 7 83.5 -4 Q84 -15 84 -26 Q85 -28 85 -29 Q85 -30 87 -32 L87 -34 Q84 -37 81 -36 Q80 -35 78 -31 Q78 -27 76 -24 Z " />
<glyph glyph-name="slash" unicode="&#x2f;" horiz-adv-x="345" d="M-67 -39 Q-62 -31 -58.5 -22.5 Q-55 -14 -51 -6 Q-43 12 -35 25 Q-30 35 -25.5 45 Q-21 55 -16 65 Q-12 73 -8.5 81 Q-5 89 -1 97 Q4 108 10 118.5 Q16 129 21 140 Q25 148 28.5 155 Q32 162 37 170 Q42 181 47.5 191 Q53 201 58 212 Q63 221 67 229.5 Q71 238 75 247 Q80 258 86 267.5 Q92 277 97 287 Q101 295 105 303.5 Q109 312 114 320 Q119 330 124 340 Q129 350 135 360 Q139 368 143 376.5 Q147 385 152 393 Q157 404 162.5 413.5 Q168 423 173 434 Q179 445 185 456 Q191 467 197 478 Q204 490 210.5 502.5 Q217 515 224 527 Q232 539 238 551.5 Q244 564 252 576 Q260 590 268.5 605 Q277 620 286 634 Q293 648 301 661 Q309 674 317 688 L341 727 Q343 733 346 730 Q347 729 347 728 Q345 723 343 719.5 Q341 716 339 711 Q333 702 329 694 Q327 689 324.5 685 Q322 681 319 676 Q317 671 314.5 667 Q312 663 310 659 Q306 652 302.5 645.5 Q299 639 295 633 Q290 623 284.5 614 Q279 605 274 595 Q263 574 249 551 Q244 542 239.5 533 Q235 524 230 515 Q225 505 219.5 496 Q214 487 209 477 Q203 466 197 456 Q191 446 186 435 Q181 425 175.5 415 Q170 405 164 395 Q159 386 154.5 377 Q150 368 145 359 Q140 349 135 340 Q130 331 125 321 Q120 313 115.5 304 Q111 295 106 286 Q101 275 95 265 Q89 255 84 244 Q79 233 73 223.5 Q67 214 62 203 Q57 192 51 181.5 Q45 171 40 160 Q35 150 30.5 141 Q26 132 21 122 Q15 111 9.5 100 Q4 89 -2 78 Q-7 69 -11 60 Q-15 51 -20 41 Q-25 32 -29.5 22.5 Q-34 13 -39 3 Q-44 -8 -49.5 -19 Q-55 -30 -60 -41 Q-62 -45 -61 -47 L-62 -48 Q-63 -49 -63 -49 Q-66 -52 -69 -51 Q-72 -49 -69 -46 Q-69 -45 -67 -39 Z " />
<glyph glyph-name="backslash" unicode="&#x5c;" horiz-adv-x="270" d="M194 -24 Q192 -16 190 -7.5 Q188 1 186 9 Q184 17 183 24.5 Q182 32 180 40 Q178 50 175.5 60 Q173 70 171 80 Q169 88 168 96 Q167 104 165 112 L156 154 Q154 162 153 169.5 Q152 177 150 185 Q148 196 146 206 Q144 216 142 227 Q140 236 138.5 244.5 Q137 253 135 262 Q133 273 131 282.5 Q129 292 127 302 L121 335 Q119 345 117 355 Q115 365 113 375 L107 408 Q105 419 103.5 428.5 Q102 438 100 449 Q98 460 96 471 Q94 482 92 493 Q90 505 88.5 517.5 Q87 530 85 542 Q83 555 81 567 Q79 579 77 591 Q75 605 73.5 620 Q72 635 70 649 Q68 663 66.5 676 Q65 689 63 703 Q62 713 61 722.5 Q60 732 59 742 Q59 746 62 745 Q64 745 64 743 Q66 736 68 726 Q69 721 69.5 717.5 Q70 714 71 709 L74 691 Q75 686 75.5 682 Q76 678 77 674 Q78 667 78.5 660.5 Q79 654 81 648 Q83 638 83.5 629 Q84 620 86 610 Q88 599 89.5 588 Q91 577 93 566 L99 530 Q101 520 102 511 Q103 502 105 492 Q107 481 108.5 471 Q110 461 112 450 Q114 440 115 430 Q116 420 118 410 L124 374 Q126 365 127.5 355.5 Q129 346 131 336 Q133 328 134 319 Q135 310 137 301 Q139 290 141 280 Q143 270 145 259 Q147 248 148.5 238.5 Q150 229 152 218 Q154 207 156.5 196.5 Q159 186 161 175 Q163 165 164.5 156 Q166 147 168 137 Q170 126 172.5 115 Q175 104 177 93 Q179 84 180.5 75 Q182 66 184 57 Q186 47 188 37.5 Q190 28 192 18 Q194 7 197 -4 Q200 -15 202 -26 Q202 -29 205 -32 L205 -33 L205 -34 Q203 -37 200 -36 Q197 -35 196 -31 Q195 -29 195 -27.5 Q195 -26 194 -24 Z " />
<glyph glyph-name="quotedbl" unicode="&#x22;" horiz-adv-x="120" d="M75 728 Q75 724 74.5 721 Q74 718 73 714 Q72 709 71.5 705 Q71 701 69 696 Q69 693 65 687 Q61 681 57 687 L57 689 L60 704 Q61 711 61.5 717 Q62 723 64 730 Q64 734 69 734 Q76 732 75 728 Z M106 734 Q104 729 103.5 725.5 Q103 722 101 718 Q99 710 97.5 702 Q96 694 94 686 Q92 680 91 678 Q90 675 86 677 Q85 677 85 680 Q87 688 88 695 Q89 702 91 709 Q93 716 94 722 Q95 728 97 734 Q99 739 103 737 L106 734 Z " />
<glyph glyph-name="quotesingle" unicode="&#x27;" horiz-adv-x="95" d="M62 679 Q64 687 65 695 Q66 703 68 711 Q71 725 75 733 Q75 734 75.5 734.5 Q76 735 76 737 Q78 739 79 738.5 Q80 738 81 738 Q83 737 83 734 Q80 724 77 715 Q74 706 72 696 Q70 691 70 687 Q70 683 68 678 Q68 674 64 676 Q63 677 63 677.5 Q63 678 62 679 Z " />
<glyph glyph-name="colon" unicode="&#x3a;" horiz-adv-x="130" d="M57 270 L55 270 Q53 271 54 274 Q55 275 56 275 Q60 277 63 277 Q63 277 66 277 Q66 274 65 274 Q62 270 57 270 Z M62 324 L61 324 Q57 324 56 327 Q56 330 58 330 L64 330 Q65 329 65 329 Q66 328 66 327.5 Q66 327 67 326 Q66 325 65 325 Q64 325 63 324 L62 324 Z " />
<glyph glyph-name="semicolon" unicode="&#x3b;" horiz-adv-x="135" d="M47 197 Q49 206 51 214.5 Q53 223 55 231 Q56 235 56.5 239 Q57 243 58 247 Q60 253 65 251 Q69 251 68 248 Q67 244 67 240.5 Q67 237 65 233 Q63 226 61.5 219 Q60 212 58 204 Q56 197 52 197 Q50 196 49 196.5 Q48 197 47 197 Z M68 330 Q70 329 72 329 Q74 329 75 327 Q75 324 70 322 Q65 320 62 324 Q61 326 63 328 Q65 329 66 329 Q67 329 68 330 Z " />
<glyph glyph-name="less" unicode="&#x3c;" horiz-adv-x="245" d="M52 284 Q53 289 58 294 Q64 299 70 303.5 Q76 308 82 313 Q100 327 118.5 338.5 Q137 350 157 362 Q163 367 169.5 370.5 Q176 374 183 379 Q188 383 193 381 Q195 380 197 378 Q197 377 194 374 Q187 369 180 364.5 Q173 360 166 355 Q147 341 128 327.5 Q109 314 90 300 Q86 298 82.5 294.5 Q79 291 76 288 Q69 279 75 274 Q78 272 80.5 270 Q83 268 87 266 Q101 259 115.5 253 Q130 247 145 241 Q150 239 155 236.5 Q160 234 165 232 Q169 230 170 229 Q172 227 171 225.5 Q170 224 168 224 Q163 224 161 225 Q146 230 130.5 236 Q115 242 100 248 Q92 251 84.5 254 Q77 257 69 261 Q61 265 55 274 Q52 278 52 284 Z " />
<glyph glyph-name="greater" unicode="&#x3e;" horiz-adv-x="220" d="M176 306 Q175 304 174.5 302.5 Q174 301 172 299 Q164 291 152 284 Q135 275 118.5 266 Q102 257 85 248 Q73 242 61 235.5 Q49 229 38 223 Q35 221 31 223 Q27 225 25 227 Q25 230 26 230 Q30 232 33 235 Q36 238 40 240 Q63 253 84.5 265.5 Q106 278 129 291 Q134 295 139 298.5 Q144 302 149 306 Q151 307 155 311 Q159 319 152 323 Q138 332 126 339 Q116 345 106 350.5 Q96 356 86 361 Q83 363 80.5 364.5 Q78 366 75 368 Q74 370 72.5 370.5 Q71 371 73 373 Q74 375 78 373 Q82 371 85.5 369.5 Q89 368 92 366 Q108 358 123.5 350 Q139 342 153 333 Q161 329 169 321 Q176 314 176 306 Z " />
<glyph glyph-name="parenleft" unicode="&#x28;" horiz-adv-x="185" d="M120 -39 Q118 -42 114 -42 Q106 -40 103 -34 Q97 -26 91.5 -17 Q86 -8 81 1 Q51 55 27 112 Q19 129 14.5 146.5 Q10 164 6 182 Q3 199 1 215 Q-1 231 -2 248 Q-4 267 -3.5 285.5 Q-3 304 -2 323 Q2 380 13.5 433.5 Q25 487 44 541 Q64 595 90 644 Q99 662 109.5 680 Q120 698 133 715 Q138 722 143.5 728.5 Q149 735 156 740 Q162 744 167 742 Q172 739 168 735 Q158 728 151.5 719 Q145 710 138 700 Q118 671 101.5 639 Q85 607 71 573 Q61 548 52.5 523 Q44 498 37 472 Q32 452 27.5 432 Q23 412 20 392 Q17 375 15 357 Q13 339 12 322 Q11 307 10.5 292 Q10 277 11 262 Q11 249 12 236 Q13 223 15 210 Q18 185 23.5 161 Q29 137 38 114 Q44 100 50 85.5 Q56 71 63 57 Q71 40 80 22.5 Q89 5 98 -12 Q100 -17 103.5 -22 Q107 -27 110 -32 Q114 -38 118 -38 Q119 -38 119 -38.5 Q119 -39 120 -39 Z " />
<glyph glyph-name="parenright" unicode="&#x29;" horiz-adv-x="190" d="M105 446 Q105 440 104 437 Q104 428 104 419 Q104 410 103 401 Q102 390 101.5 380 Q101 370 99 359 Q97 348 95.5 336.5 Q94 325 92 314 Q86 276 74 240 Q69 221 62.5 202.5 Q56 184 48 166 Q39 146 30 126 Q21 106 12 86 Q1 64 -9 42.5 Q-19 21 -30 0 Q-35 -9 -40 -17.5 Q-45 -26 -50 -34 Q-55 -40 -61 -40 Q-65 -42 -67 -38 Q-65 -37 -65 -37 Q-61 -37 -57 -31 Q-52 -23 -47.5 -15 Q-43 -7 -39 2 Q-30 19 -21.5 37 Q-13 55 -5 73 Q4 93 13 112 Q22 131 30 151 Q55 212 68 271 Q76 302 80 330 Q82 344 84 358 Q86 372 87 386 Q91 432 90 477 Q89 494 88 509.5 Q87 525 84 542 Q79 581 69 619 Q59 657 42 694 Q32 714 21 729 Q17 735 16 738 Q14 742 16 743 Q19 746 21 741 Q27 732 33 723.5 Q39 715 44 705 Q53 690 60 674 Q67 658 73 641 Q80 621 85.5 600.5 Q91 580 95 559 Q97 546 98.5 533.5 Q100 521 102 508 Q103 495 103.5 482.5 Q104 470 105 458 L105 456 L105 446 Z " />
<glyph glyph-name="comma" unicode="&#x2c;" horiz-adv-x="130" d="M50 197 Q52 206 53.5 214 Q55 222 57 230 Q58 235 59 239 Q60 243 61 247 Q63 253 68 251 Q71 251 71 248 L68 233 Q66 225 64.5 218.5 Q63 212 61 204 Q59 197 54 197 Q54 197 50 197 Z " />
<glyph glyph-name="period" unicode="&#x2e;" horiz-adv-x="125" d="M61 251 Q64 251 66.5 250.5 Q69 250 69 245 Q71 240 64 236 Q58 233 53 240 Q51 243 55 247 Q59 251 61 251 Z " />
<glyph glyph-name="quotedblleft" unicode="&#x201c;" horiz-adv-x="127" d="M75 728 Q75 724 74.5 721 Q74 718 73 714 Q72 709 71.5 705 Q71 701 69 696 Q69 693 65 687 Q61 681 57 687 L57 689 L60 704 Q61 711 61.5 717 Q62 723 64 730 Q64 734 69 734 Q76 732 75 728 Z M106 734 L101 718 L94 686 L91 678 Q90 675 86 677 Q85 677 85 680 L91 709 L97 734 Q99 739 103 737 L106 734 Z " />
<glyph glyph-name="quotedblright" unicode="&#x201d;" horiz-adv-x="124" d="M75 728 Q75 724 74.5 721 Q74 718 73 714 Q72 709 71.5 705 Q71 701 69 696 Q69 693 65 687 Q61 681 57 687 L57 689 L60 704 Q61 711 61.5 717 Q62 723 64 730 Q64 734 69 734 Q76 732 75 728 Z M106 734 L101 718 L94 686 L91 678 Q90 675 86 677 Q85 677 85 680 L91 709 L97 734 Q99 739 103 737 L106 734 Z " />
<glyph glyph-name="quoteright" unicode="&#x2019;" horiz-adv-x="102" d="M62 679 L68 711 Q71 725 75 733 Q75 734 75.5 734.5 Q76 735 76 737 Q78 739 79 738.5 Q80 738 81 738 Q83 737 83 734 Q80 724 77 715 Q74 706 72 696 Q70 691 70 687 Q70 683 68 678 Q68 674 64 676 L62 679 Z " />
<glyph glyph-name="quoteleft" unicode="&#x2018;" horiz-adv-x="105" d="M62 679 L68 711 Q71 725 75 733 Q75 734 75.5 734.5 Q76 735 76 737 Q78 739 79 738.5 Q80 738 81 738 Q83 737 83 734 Q80 724 77 715 Q74 706 72 696 Q70 691 70 687 Q70 683 68 678 Q68 674 64 676 L62 679 Z " />
<glyph glyph-name="a" unicode="a" horiz-adv-x="223" d="M227 344 Q228 342 227 339.5 Q226 337 225 335 Q220 328 216 321.5 Q212 315 207 309 Q199 298 190 288.5 Q181 279 171 270 Q161 261 150.5 253.5 Q140 246 127 242 Q105 234 84 240 Q64 245 52 263 Q40 281 35 300 Q20 279 7 266 Q-4 255 -15.5 249 Q-27 243 -33 255 Q-37 264 -35.5 274.5 Q-34 285 -30 294 Q-27 303 -22 312.5 Q-17 322 -12 330 Q-10 333 -7 338 Q-4 343 -0.5 346.5 Q3 350 7 351 Q11 352 15 347 Q21 341 18 333 Q17 331 16 329 Q15 327 13 325 Q12 323 11.5 322.5 Q11 322 10 320 Q3 310 -3 295 Q-7 287 -9 282 Q-10 280 -12.5 274 Q-15 268 -11 268 Q-10 268 -9 269 Q-4 273 -0.5 277 Q3 281 6 285 Q10 290 13.5 294 Q17 298 20 303 Q22 305 23.5 307.5 Q25 310 27 312 Q31 318 38 319 Q39 319 40 318.5 Q41 318 43 318 L44 317 Q48 315 49.5 311 Q51 307 51 305 L51 304 Q53 294 55 289 Q60 270 72 262 Q86 251 105 253 Q118 253 134 260 Q148 266 160.5 275.5 Q173 285 184 296 Q195 307 204 319.5 Q213 332 223 347 Q225 346 227 344 Z " />
<glyph glyph-name="b" unicode="b" horiz-adv-x="402" d="M402 347 Q404 347 405 345 Q407 341 402 335 Q399 332 386 319.5 Q373 307 350.5 293 Q328 279 297 268 Q266 257 227 256 Q220 256 213 256.5 Q206 257 199 257 Q195 253 191.5 249.5 Q188 246 183 243 Q173 235 161.5 230 Q150 225 136 223 Q110 218 84 229 Q75 234 69 238.5 Q63 243 57 251 Q55 253 55 254 L53 256 Q51 252 48 248.5 Q45 245 42 241 Q31 224 22 207.5 Q13 191 5 172 Q3 167 1 157 Q-1 152 -7.5 152.5 Q-14 153 -18 158 Q-19 160 -19 163 Q-11 192 -9.5 222.5 Q-8 253 -5 284 Q-2 318 0.5 351 Q3 384 6 418 L6 426 L8 452 Q13 507 17 561.5 Q21 616 26 670 Q27 704 32 739 Q37 738 41 737 Q50 733 50 728 Q48 712 47.5 696 Q47 680 45 664 Q42 622 38.5 581.5 Q35 541 32 499 Q31 485 30 470.5 Q29 456 28 442 Q28 441 27.5 440 Q27 439 27 437 L26 417 Q22 371 18.5 326 Q15 281 12 235 L12 232 Q19 244 27 253 Q53 288 83 317 Q113 346 150 367 Q158 372 167.5 375.5 Q177 379 188 380 Q206 382 221 369 Q240 354 238 333 Q238 328 236 318 Q234 313 232.5 308.5 Q231 304 228 299 L222 287 Q216 279 214 275 L242 275 Q267 275 290 281 Q322 289 351.5 305.5 Q381 322 402 347 Z M167 251 Q171 253 174 256 Q177 259 181 261 Q178 262 174 262 Q160 264 147 268 Q134 272 120 275 Q100 280 83 272 Q78 270 74 266 Q70 262 71 256 Q71 251 74.5 247 Q78 243 83 240 Q93 235 103.5 233.5 Q114 232 125 234 Q149 237 167 251 Z M200 283 Q205 291 210 299 Q215 307 218 317 Q220 325 221.5 333 Q223 341 221 351 Q218 366 205 367 Q197 369 189.5 367 Q182 365 175 363 Q161 357 148 348.5 Q135 340 124 330 Q113 321 102 311 Q91 301 81 290 Q92 293 105.5 293 Q119 293 138 288 Q172 280 195 277 L198 281 L200 283 Z " />
<glyph glyph-name="B" unicode="B" horiz-adv-x="602" d="M602 347 Q605 347 606.5 343.5 Q608 340 606 338 Q568 297 515 266 Q485 248 453 235 Q465 224 476 209 Q487 194 495 177 Q503 154 502 131 Q502 113 497.5 96.5 Q493 80 486 64 Q471 34 452 11 Q433 -12 410 -32 Q347 -87 276 -105 Q244 -113 212 -113 Q180 -113 148 -99 Q133 -92 120 -81.5 Q107 -71 98 -54 Q83 -29 83 2 Q83 11 84 19.5 Q85 28 87 37 Q93 59 105.5 78 Q118 97 132.5 111 Q147 125 161 135 Q175 145 184 151 L196 157 Q222 171 250.5 182 Q279 193 308 201 Q337 209 365 215.5 Q393 222 420 232 Q427 235 433 237 Q431 239 429 240.5 Q427 242 425 243 Q424 244 423.5 244 Q423 244 422 245 Q421 245 421 246 Q419 248 418 248 Q393 265 367 275 Q341 285 314 292 Q246 309 180 309 L121 309 Q112 309 105 316 Q100 322 105 328 Q108 331 111.5 334 Q115 337 119 340 Q152 366 185 392 Q218 418 251 445 Q283 471 312.5 499 Q342 527 371 559 Q384 574 396 590.5 Q408 607 417 627 Q425 645 428 662 Q432 680 426 691.5 Q420 703 409 708 Q397 713 385 714.5 Q373 716 360 714 Q309 706 265 679 Q221 652 180 613 Q152 587 128 555 Q104 523 83 488 Q46 429 19 358 Q-16 264 -34 164 Q-42 110 -46.5 55.5 Q-51 1 -49 -56 Q-46 -135 -28 -211 Q-25 -218 -23 -224 Q-32 -229 -36 -218 Q-39 -210 -42 -201 Q-45 -192 -47 -182 Q-54 -156 -57 -129.5 Q-60 -103 -62 -76 Q-67 20 -55 111.5 Q-43 203 -17 293 Q7 380 46 454 Q85 530 134.5 589 Q184 648 246 690 Q269 706 294 717 Q319 728 345 733 Q363 736 380 734.5 Q397 733 414 722 Q417 720 420 717.5 Q423 715 426 712 Q441 696 444.5 674.5 Q448 653 438 630 Q428 604 413.5 583.5 Q399 563 383 544 Q354 509 322.5 479 Q291 449 258 422 Q229 399 201 378 Q173 357 145 335 L133 326 L134 323 Q140 323 145.5 323.5 Q151 324 157 324 Q209 325 260 318 Q311 311 362 292 Q376 286 389.5 279.5 Q403 273 417 265 Q419 263 427 257.5 Q435 252 446 242 Q488 259 526.5 284 Q565 309 596 341 L598 343 L601 346 L602 347 Z M459 211 Q454 216 450.5 220 Q447 224 443 228 Q441 230 441 230 Q436 228 430 226 Q424 224 419 222 Q392 212 364 205.5 Q336 199 308 191 Q294 186 279 182 Q264 178 250 172 Q221 161 193.5 145.5 Q166 130 144 107 Q123 85 111 58 Q99 31 98 2 L98 1 Q98 -22 106.5 -41.5 Q115 -61 132 -75 Q149 -89 166.5 -94 Q184 -99 203 -100 Q235 -102 265 -94 Q295 -86 324 -71 Q358 -54 388 -29 Q418 -4 443 32 Q457 51 466.5 71.5 Q476 92 481 118 Q486 156 474 184 L474 185 Q473 186 473 186.5 Q473 187 472 188 Q472 188 471 190 L471 191 Q468 196 465 201 Q462 206 459 211 Z " />
</font>
</svg>
