<?xml version="1.0" encoding="UTF-8"?>
<svg xmlns="http://www.w3.org/2000/svg" xmlns:xlink="http://www.w3.org/1999/xlink" version="1.2" >
<font id="Asturria">
<font-face  font-family="Asturria" units-per-em="1000" ascent="750" descent="-250" font-style="normal" font-weight="400" font-stretch="normal" cap-height="700" x-height="500" underline-position="-75" underline-thickness="50" />
<missing-glyph  horiz-adv-x="231" d="" />
<glyph glyph-name="NULL" d="" />
<glyph glyph-name="nonmarkingreturn" unicode="&#xd;" horiz-adv-x="231" d="" />
<glyph glyph-name="space" unicode="&#x20;" horiz-adv-x="231" d="" />
<glyph glyph-name="E" unicode="E" horiz-adv-x="573" d="M631 692 Q639 680 641.5 666 Q644 652 642 638 Q640 621 635 605 Q630 589 623 573 Q617 559 610.5 545.5 Q604 532 597 519 Q569 466 532 419 Q495 372 450 333 Q427 313 401 295 Q375 277 347 264 Q332 258 317 253.5 Q302 249 286 248 Q270 246 260 253 Q248 262 248 278 Q249 292 257.5 305 Q266 318 275 329 Q286 341 297 351.5 Q308 362 320 373 Q328 380 336.5 386 Q345 392 353 398 Q332 392 311 385 Q290 378 270 370 Q266 368 262.5 370.5 Q259 373 258 376 Q255 384 265 388 Q303 403 342.5 415.5 Q382 428 423 437 Q433 439 435 430 Q437 425 434.5 422.5 Q432 420 429 418 Q402 407 381 393 Q331 363 292 319 Q287 314 283 308.5 Q279 303 276 298 Q273 293 270 287.5 Q267 282 268 276 Q268 267 278 267 Q293 267 305 271 Q334 277 360.5 292.5 Q387 308 410 326 Q454 359 490 400 Q528 442 558.5 490.5 Q589 539 610 592 Q619 615 623 642.5 Q627 670 608 692 Q591 710 568 716 Q545 722 522 720 Q491 718 461.5 709 Q432 700 404 688 Q381 677 358.5 666 Q336 655 315 641 Q225 584 153 506 Q76 425 23 330 Q9 305 -3.5 279.5 Q-16 254 -27 228 Q-39 200 -46.5 170 Q-54 140 -49 109 Q-47 97 -42.5 85 Q-38 73 -29 65 Q-19 55 -7 51.5 Q5 48 18 47 Q47 45 74.5 53.5 Q102 62 127 76 Q140 84 152.5 91.5 Q165 99 177 107 Q212 140 251 168.5 Q290 197 331 223 Q339 228 344 219.5 Q349 211 341 206 Q327 198 314.5 188.5 Q302 179 289 170 Q264 150 240 130.5 Q216 111 190 93 Q179 83 168.5 73 Q158 63 147 52 Q112 15 81 -25 Q50 -65 24 -109 Q15 -126 6.5 -144.5 Q-2 -163 -3 -181 Q-5 -200 3 -210 Q8 -217 16.5 -219 Q25 -221 33 -221 Q53 -221 72 -212.5 Q91 -204 109 -195 Q156 -172 195 -144 Q239 -113 277 -76 Q315 -39 347 3 Q349 6 354 5.5 Q359 5 361 3 Q366 -4 361 -11 Q356 -17 352 -22.5 Q348 -28 343 -33 Q271 -118 179 -178 Q157 -192 134.5 -204 Q112 -216 88 -227 Q70 -235 48.5 -240 Q27 -245 8 -237 Q-13 -228 -19 -207.5 Q-25 -187 -21 -167 Q-17 -147 -7.5 -127.5 Q2 -108 13 -90 Q36 -52 62.5 -17 Q89 18 119 50 Q93 38 68 32 Q40 25 8.5 27.5 Q-23 30 -44 52 Q-65 75 -68.5 106 Q-72 137 -67 166 Q-61 198 -48 229 Q-35 260 -21 289 Q-8 315 6.5 340.5 Q21 366 37 391 Q69 439 106 483.5 Q143 528 186 567 Q227 604 271.5 635.5 Q316 667 365 691 Q394 705 422.5 716.5 Q451 728 482 734 Q510 740 540 739.5 Q570 739 596 725 Q619 714 631 692 Z " />
<glyph glyph-name="F" unicode="F" horiz-adv-x="833" d="M1032 610 Q1042 610 1042 600.5 Q1042 591 1032 590 Q986 588 940 585 Q894 582 848 577 Q767 569 687 559.5 Q607 550 526 536 Q515 534 505.5 533 Q496 532 486 530 Q481 519 474.5 508 Q468 497 463 486 Q449 460 435 435 Q421 410 407 385 Q406 382 405 380 Q404 378 402 376 Q440 383 476.5 388.5 Q513 394 551 399 Q614 407 677.5 413 Q741 419 805 422 Q815 422 815 412.5 Q815 403 805 402 Q770 400 733.5 398 Q697 396 661 392 Q599 386 537.5 377.5 Q476 369 415 358 Q409 357 402.5 356 Q396 355 391 354 Q367 310 344 267 Q321 224 298 179 Q271 127 244.5 75.5 Q218 24 192 -28 Q166 -81 140.5 -132.5 Q115 -184 90 -237 Q88 -241 84 -242 Q80 -243 76 -241 Q69 -236 73 -227 Q79 -215 85 -202.5 Q91 -190 97 -178 Q121 -127 145.5 -77.5 Q170 -28 196 22 Q221 73 246.5 122 Q272 171 298 221 Q315 253 332 285 Q349 317 366 349 Q317 339 270 328 Q223 317 175 303 Q170 301 167 304 Q164 307 163 312 Q155 304 148 296.5 Q141 289 133 281 Q117 265 99 252 Q81 239 58 236 Q33 231 22 253 Q17 263 16 274.5 Q15 286 16 298 Q18 324 26 349 Q34 374 45 399 Q63 442 88 481.5 Q113 521 143 556 Q174 591 210 621 Q246 651 286 676 Q331 704 378 720 Q390 725 402 728.5 Q414 732 427 734 Q439 737 451.5 739 Q464 741 476 740 Q488 739 500 734.5 Q512 730 520 721 Q535 704 535 680 Q535 658 527 632 Q524 619 520 607 Q516 595 511 583 Q507 575 504 567 Q501 559 497 551 Q600 569 704 581 Q786 592 868 598.5 Q950 605 1032 610 Z M455 514 Q458 518 462 526 Q399 515 337 502 Q275 489 212 474 Q207 473 204 475.5 Q201 478 200 481.5 Q199 485 200.5 488.5 Q202 492 207 493 Q251 504 294.5 513 Q338 522 383 531 Q406 535 428 539 Q450 543 473 547 Q481 562 487.5 576.5 Q494 591 499 606 Q504 618 507 630 Q510 642 513 655 Q515 665 515.5 674.5 Q516 684 514 693 Q511 704 503 710 Q495 716 485.5 718 Q476 720 465.5 719.5 Q455 719 446 718 Q398 710 354 689.5 Q310 669 269 642 Q196 592 140 522 Q113 487 91 448.5 Q69 410 53 368 Q48 356 44.5 344 Q41 332 39 319 Q37 308 35.5 296 Q34 284 36 273 Q36 266 41 259 Q45 254 52 254 Q63 256 72.5 260 Q82 264 90 269 Q98 274 105.5 281 Q113 288 120 295 Q128 303 135.5 311 Q143 319 151 327 Q187 366 217 408 Q223 417 230 412 Q239 406 234 399 Q220 379 201 356 Q195 347 188 339 Q181 331 173 323 Q205 332 238 340 Q271 348 303 356 L378 371 Q384 383 390.5 395 Q397 407 403 418 Q417 442 429.5 466 Q442 490 455 514 Z " />
<glyph glyph-name="G" unicode="G" horiz-adv-x="668" d="M623 434 Q628 439 634.5 435.5 Q641 432 639 425 Q637 417 634 410 Q631 403 629 395 Q607 334 581 275.5 Q555 217 523 160 Q495 109 463.5 60 Q432 11 397 -35 Q427 -33 456 -42 Q465 -45 462.5 -54.5 Q460 -64 451 -61 Q435 -56 422 -55 Q399 -53 380 -56 Q341 -107 297 -154 Q276 -177 251.5 -198 Q227 -219 196 -230 Q183 -235 167.5 -236 Q152 -237 140 -229 Q128 -220 126 -205.5 Q124 -191 129 -177 Q138 -149 160.5 -128 Q183 -107 209 -93 Q235 -78 263.5 -68 Q292 -58 321 -50 Q346 -42 370 -38 Q377 -30 383 -21.5 Q389 -13 396 -4 Q432 46 464 98 Q496 150 525 204 Q574 299 608 395 Q604 391 600 387.5 Q596 384 592 380 Q546 338 500.5 297.5 Q455 257 409 216 Q364 175 318.5 136 Q273 97 225 60 Q202 43 179 26.5 Q156 10 130 -1 Q119 -6 106.5 -9.5 Q94 -13 82 -13.5 Q70 -14 58 -11 Q46 -8 36 0 Q21 12 13 27.5 Q5 43 2 61 Q-1 79 0 97.5 Q1 116 4 133 Q10 173 23.5 211 Q37 249 53 286 Q71 328 90.5 369 Q110 410 133 450 Q159 496 190 538.5 Q221 581 256 619 Q274 639 293.5 656 Q313 673 333 689 Q354 705 378 716.5 Q402 728 428 733 Q454 738 480 733.5 Q506 729 527 712 Q545 698 553 676.5 Q561 655 561 632 Q562 609 556.5 586 Q551 563 543 541 Q530 502 505 463 Q500 455 492 460 Q484 465 489 473 Q494 481 498 489 Q502 497 507 506 Q517 526 524.5 546.5 Q532 567 537 588 Q542 608 542.5 628.5 Q543 649 535 669 Q527 689 508.5 701 Q490 713 469 715 Q444 718 420 711.5 Q396 705 375 693 Q352 681 333 665 Q314 649 296 632 Q278 615 261.5 596.5 Q245 578 229 558 Q197 519 171 476.5 Q145 434 122 389 Q103 354 87 317 Q71 280 57 243 Q43 208 32 170 Q21 132 19 94 Q19 78 21.5 63 Q24 48 32 34 Q36 28 40 23 Q44 18 51 13 Q59 8 69 6.5 Q79 5 89 7 Q115 11 137.5 24 Q160 37 181 51 Q204 67 225.5 84.5 Q247 102 269 120 Q314 158 357.5 197 Q401 236 446 275 L623 434 Z M320 -100 Q328 -90 335.5 -81 Q343 -72 351 -62 Q337 -65 323 -69 Q309 -73 295 -78 Q269 -86 244.5 -96.5 Q220 -107 198 -123 Q173 -139 159 -161 Q153 -169 147.5 -181.5 Q142 -194 146 -205 Q151 -217 163 -216.5 Q175 -216 184 -213 Q198 -209 211 -202 Q224 -195 235 -186 Q259 -167 279.5 -145 Q300 -123 320 -100 Z " />
<glyph glyph-name="H" unicode="H" horiz-adv-x="603" d="M802 744 Q807 746 811.5 741.5 Q816 737 814 732 Q812 727 809.5 721.5 Q807 716 804 711 Q793 693 777 674 Q769 666 762.5 657 Q756 648 748 640 Q734 623 719 606.5 Q704 590 688 573 Q658 541 626.5 510 Q595 479 563 450 Q552 433 541.5 415.5 Q531 398 520 381 Q491 333 465 285 Q439 237 413 187 Q387 136 363 85.5 Q339 35 316 -16 Q292 -70 271 -124.5 Q250 -179 235 -236 Q234 -241 230.5 -242 Q227 -243 223.5 -242.5 Q220 -242 217.5 -239 Q215 -236 217 -231 Q219 -223 220.5 -216.5 Q222 -210 224 -203 Q241 -145 263 -90 Q285 -35 311 19 Q357 122 410 223 Q458 316 512 406 Q490 387 467.5 369.5 Q445 352 422 335 Q387 309 350.5 284.5 Q314 260 276 237 Q257 226 238 215.5 Q219 205 199 194 Q191 190 186 188 Q179 175 172.5 162.5 Q166 150 160 138 Q136 91 113 45.5 Q90 0 67 -48 Q44 -96 22.5 -143 Q1 -190 -20 -238 Q-22 -242 -26 -243 Q-30 -244 -33 -242 Q-41 -236 -36 -228 Q-31 -217 -26.5 -205.5 Q-22 -194 -17 -183 Q3 -137 24 -92 Q45 -47 68 -2 Q90 43 112 86.5 Q134 130 157 174 L157 175 Q146 171 134 168.5 Q122 166 109 167 Q100 167 100 177 Q100 187 109 187 Q115 186 120.5 186.5 Q126 187 131 188 Q142 190 151.5 193.5 Q161 197 171 202 Q191 239 211 276 Q231 313 251 349 Q275 393 299 436 Q323 479 348 523 Q360 545 372 566.5 Q384 588 397 610 Q406 627 416 644.5 Q426 662 426 682 Q427 699 416 708.5 Q405 718 390 720 Q374 722 358.5 717.5 Q343 713 329 708 Q288 690 251.5 665 Q215 640 183 611 Q151 581 121 547.5 Q91 514 68 476 Q51 447 38.5 414.5 Q26 382 24 350 L24 334 Q24 330 24.5 328 Q25 326 26 322 Q26 321 28 315 Q28 313 29 312 L29 310 Q31 306 33 304 Q33 303 33.5 303 Q34 303 34 302 Q35 301 35 300 Q45 289 57 286 Q74 281 82 295 Q84 299 88 299.5 Q92 300 95 298.5 Q98 297 99.5 293.5 Q101 290 99 286 Q94 276 85 271 Q76 266 65 265 Q48 264 34 275 Q20 286 12 301 Q6 315 5 331 Q4 347 6 362 Q11 400 26 435.5 Q41 471 62 503 Q88 542 120.5 576.5 Q153 611 189 641 Q207 656 226 670 Q245 684 265 696 Q283 707 301.5 716.5 Q320 726 340 732 Q356 737 374 739.5 Q392 742 409 735 Q427 729 438 712 Q444 703 445.5 692.5 Q447 682 445 671 Q441 650 430.5 630.5 Q420 611 409 592 Q396 569 383.5 546.5 Q371 524 358 501 Q332 456 307 411 Q282 366 257 320 Q243 294 229.5 269 Q216 244 202 218 Q210 222 213 224 Q232 235 250.5 245.5 Q269 256 287 267 Q324 290 359.5 314.5 Q395 339 430 365 Q460 388 489.5 412.5 Q519 437 548 463 Q571 498 595.5 531.5 Q620 565 646 598 Q663 619 680.5 639 Q698 659 717 679 Q735 699 755.5 717.5 Q776 736 802 744 Z M773 701 Q776 704 778.5 707.5 Q781 711 783 714 Q772 706 763 697.5 Q754 689 745 681 L709 642 Q691 622 674 601.5 Q657 581 641 560 Q634 552 627.5 543 Q621 534 615 526 Q634 544 652 562.5 Q670 581 687 600 Q702 617 716.5 633.5 Q731 650 745 667 Q759 683 773 701 Z " />
<glyph glyph-name="I" unicode="I" horiz-adv-x="538" d="M588 683 Q591 660 586.5 636.5 Q582 613 574 590 Q566 564 555.5 539 Q545 514 533 489 Q521 463 508.5 437 Q496 411 483 385 Q457 333 430.5 281.5 Q404 230 378 179 Q351 126 324 74.5 Q297 23 271 -30 Q244 -83 217 -134.5 Q190 -186 163 -239 Q160 -245 151.5 -243.5 Q143 -242 145 -234 Q156 -148 209 -79 Q211 -76 215.5 -76.5 Q220 -77 223 -79 L223 -80 Q236 -54 248.5 -29.5 Q261 -5 274 20 Q327 121 377 220 Q403 269 428 318 Q453 367 477 418 Q489 442 501 466.5 Q513 491 525 516 Q536 540 545 564 Q554 588 561 613 Q566 633 569 653 Q572 673 566 692 Q559 710 546 717 Q535 722 523 722.5 Q511 723 500 723 Q451 721 405.5 704 Q360 687 318 663 Q280 640 246 613 Q212 586 184 553 Q170 536 158 519 Q146 502 137 482 Q132 473 128.5 463 Q125 453 122 443 Q119 434 117 425 Q115 416 115 406 Q115 398 116.5 390 Q118 382 123 375 Q126 370 133 367 Q138 365 144 366 Q150 367 155 369 Q165 373 174.5 379 Q184 385 193 391 Q209 402 226 417 Q291 476 320 559 Q323 568 332 566 Q342 562 339 554 Q335 543 331 532.5 Q327 522 322 511 Q302 470 272 435.5 Q242 401 204 375 Q195 369 183.5 362 Q172 355 160.5 350.5 Q149 346 137 346.5 Q125 347 114 356 Q99 369 96.5 389.5 Q94 410 98 428 Q107 473 130.5 512.5 Q154 552 186 584 Q218 618 256 645.5 Q294 673 336 695 Q359 707 382.5 716.5 Q406 726 431 732 Q456 739 482 741.5 Q508 744 534 740 Q545 738 555.5 733 Q566 728 573 719 Q585 704 588 683 Z " />
<glyph glyph-name="J" unicode="J" horiz-adv-x="673" d="M657 677 Q674 640 670 599 Q666 558 656 520 Q637 440 600 361 Q583 323 562.5 287 Q542 251 521 215 Q513 201 504.5 187 Q496 173 487 159 L488 158 Q490 148 481 146 L479 146 Q469 130 459.5 115 Q450 100 439 84 Q396 20 347 -39 Q298 -98 240 -149 Q225 -162 210 -174 Q195 -186 178 -197 Q163 -208 147.5 -218 Q132 -228 115 -235 Q98 -241 79 -242.5 Q60 -244 44 -233 Q31 -224 25.5 -210 Q20 -196 19 -180 Q19 -152 32 -121 Q39 -104 48.5 -88.5 Q58 -73 69 -58 Q92 -29 119 -4.5 Q146 20 176 42 Q242 89 315 119.5 Q388 150 467 164 Q485 193 503 223 Q521 253 538 283 Q558 318 575.5 355 Q593 392 608 430 Q615 449 621.5 467.5 Q628 486 633 506 Q638 524 642 542.5 Q646 561 649 579 Q651 595 651 612.5 Q651 630 647 646 Q643 662 635 676 Q627 690 612 700 Q587 718 556 721.5 Q525 725 495 723 Q419 719 344 691 Q276 666 215 624.5 Q154 583 106 528 Q84 501 65 470 Q56 453 47.5 436.5 Q39 420 34 402 Q30 386 30.5 369 Q31 352 43 339 Q53 329 65.5 326.5 Q78 324 91 326 Q107 328 121 334 Q135 340 149 347 Q162 355 174 362.5 Q186 370 198 379 Q228 402 253 430.5 Q278 459 297 491 Q299 495 302.5 495.5 Q306 496 309 494.5 Q312 493 313.5 489.5 Q315 486 313 482 Q296 449 269 419 Q246 393 218 370.5 Q190 348 159 331 Q145 324 129.5 317.5 Q114 311 98 308 Q82 305 66 307 Q50 309 36 319 Q22 330 15.5 347.5 Q9 365 11 383 Q13 404 21 423.5 Q29 443 38 461 Q73 528 130 581 Q187 635 256 673 Q325 711 401 729 Q421 734 442 737 Q463 740 483 742 Q501 743 518.5 743 Q536 743 554 741 Q585 736 614 721.5 Q643 707 657 677 Z M283 -81 Q331 -30 373 26 Q415 82 453 141 Q441 139 428.5 136 Q416 133 404 130 Q332 110 265.5 74.5 Q199 39 142 -10 Q115 -33 92.5 -59.5 Q70 -86 55 -118 Q48 -131 44 -144 Q40 -157 39 -171 Q38 -183 41 -195 Q44 -207 53 -215 Q66 -226 83 -223 Q100 -220 114 -214 Q130 -207 145 -197 Q160 -187 174 -176 Q203 -155 230 -131 Q257 -107 283 -81 Z " />
<glyph glyph-name="K" unicode="K" horiz-adv-x="528" d="M412 378 Q330 295 254 208 Q242 196 232 183 Q256 163 280 143 Q304 123 329 103 Q381 60 433 19.5 Q485 -21 539 -62 Q593 -102 647 -140 Q701 -178 757 -216 Q764 -221 759.5 -229.5 Q755 -238 747 -233 Q715 -212 684.5 -190.5 Q654 -169 623 -146 Q568 -107 515 -67.5 Q462 -28 408 14 Q360 52 313 90.5 Q266 129 219 169 Q190 134 162.5 99.5 Q135 65 108 29 Q101 19 94 9.5 Q87 0 80 -10 Q59 -49 38 -88.5 Q17 -128 -4 -168 Q-8 -176 -16 -172 Q-24 -169 -22 -160 Q-20 -153 -18.5 -146.5 Q-17 -140 -15 -133 Q-7 -106 8 -81.5 Q23 -57 39 -34 Q45 -26 51 -17 Q57 -8 63 0 Q90 51 117 102.5 Q144 154 170 206 Q207 281 248 353 Q289 425 321 503 Q329 523 336 543 Q343 563 348 583 Q353 601 352 620.5 Q351 640 342 657 Q330 678 307 684 Q285 689 261 684 Q234 678 209 666 Q184 654 161 637 Q132 617 108.5 592 Q85 567 65 538 Q55 523 46.5 507.5 Q38 492 31 475 Q24 459 18.5 442 Q13 425 11 408 Q8 391 11 374 Q14 357 25 344 Q34 333 48.5 326 Q63 319 77 328 Q81 330 84.5 328.5 Q88 327 90 324 Q92 321 91.5 317 Q91 313 87 311 Q72 302 52 305 Q35 308 20.5 321 Q6 334 -2 350 Q-10 369 -10 388.5 Q-10 408 -5 428 Q-1 447 5.5 464.5 Q12 482 20 499 Q37 533 58 563 Q103 623 167 664 Q191 680 217.5 691 Q244 702 273 705 Q287 707 300.5 705 Q314 703 326 697 Q340 691 349.5 680 Q359 669 364 655 Q372 635 371 612.5 Q370 590 365 569 Q359 548 351 527 Q343 506 335 486 Q318 445 298 406 Q278 367 257 329 Q236 290 215 250.5 Q194 211 174 171 Q164 153 155 134.5 Q146 116 136 98 Q168 139 204 181 Q203 182 202.5 183 Q202 184 200 185 Q197 187 197.5 191.5 Q198 196 200 199 Q206 205 214 199 L217 196 Q227 207 236.5 218 Q246 229 255 240 Q294 284 334.5 326 Q375 368 417 410 Q458 452 500 492 Q542 532 585 572 Q606 592 627.5 612 Q649 632 671 652 Q693 672 714 693 Q735 714 753 737 Q755 740 760 739.5 Q765 739 767 737 Q773 731 767 723 Q762 718 757.5 712 Q753 706 748 701 Q728 678 707 658 Q686 638 664 618 Q620 579 579 539 Q536 499 494.5 459.5 Q453 420 412 378 Z " />
<glyph glyph-name="L" unicode="L" horiz-adv-x="688" d="M858 35 Q862 36 865.5 33.5 Q869 31 869.5 27.5 Q870 24 868.5 20.5 Q867 17 863 16 Q827 8 791 -2 Q755 -12 720 -24 Q660 -44 602 -68 Q544 -92 487 -120 Q432 -147 378.5 -176.5 Q325 -206 271 -237 Q264 -241 259 -235.5 Q254 -230 258 -224 Q263 -213 268.5 -202.5 Q274 -192 280 -181 Q325 -94 369 -9 Q413 76 458 163 Q480 206 501.5 248 Q523 290 544 333 Q564 374 582 414.5 Q600 455 614 499 Q628 543 634 585 Q636 605 636 624 Q636 643 629 661 Q618 696 584 712 Q568 720 550.5 722 Q533 724 516 722 Q497 720 479.5 715.5 Q462 711 445 705 Q427 698 410.5 689.5 Q394 681 378 670 Q347 649 321.5 621.5 Q296 594 280 561 Q266 531 262 498 Q258 465 270 434 Q283 401 311 382 Q325 373 341.5 367.5 Q358 362 374 368 Q378 370 381.5 367 Q385 364 386 361 Q388 352 379 349 Q371 346 361.5 345.5 Q352 345 343 347 Q305 355 279 384 Q253 413 245 450 Q237 486 246 522 Q255 558 273 589 Q293 624 323 651.5 Q353 679 388 699 Q421 719 460 731.5 Q499 744 538 742 Q557 741 575.5 736 Q594 731 609 720 Q643 694 652 653 Q657 632 656 610.5 Q655 589 651 568 Q644 524 628 478 Q612 433 592 389.5 Q572 346 551 303 Q529 258 506.5 214.5 Q484 171 461 126 L368 -54 Q348 -92 329 -128.5 Q310 -165 290 -203 Q313 -190 336 -177.5 Q359 -165 382 -152 Q492 -92 608 -45 Q669 -19 731 1 Q793 21 858 35 Z " />
<glyph glyph-name="M" unicode="M" horiz-adv-x="1013" d="M1104 650 Q1111 645 1111.5 637 Q1112 629 1109 621 Q1106 613 1101.5 605 Q1097 597 1094 593 Q1078 568 1063 544 Q1048 520 1032 495 Q1003 449 974.5 403.5 Q946 358 917 312 Q890 267 863.5 224 Q837 181 811 136 Q785 91 761 46 Q737 1 717 -47 Q696 -93 679 -140.5 Q662 -188 650 -238 Q649 -243 645.5 -244 Q642 -245 638.5 -244.5 Q635 -244 632.5 -241 Q630 -238 631 -233 Q634 -221 637 -209 Q640 -197 644 -186 Q658 -137 677 -90.5 Q696 -44 717 2 Q739 47 763 91 Q787 135 813 179 Q839 223 865.5 265 Q892 307 918 350 Q947 397 975.5 442.5 Q1004 488 1033 534 Q1041 546 1048.5 558 Q1056 570 1064 582 Q1070 592 1077 602 Q1084 612 1089 623 Q1090 625 1090 626 Q1090 627 1091 629 Q1091 630 1091.5 631 Q1092 632 1092 633 L1091 633 L1090 633 Q1089 633 1088 632.5 Q1087 632 1085 632 Q1083 630 1080 630 Q1079 629 1078 629 Q1077 629 1077 628.5 Q1077 628 1076 628 Q1068 625 1063 621 Q1050 614 1037 604 Q993 572 952 537 Q911 502 872.5 465.5 Q834 429 798 390 Q760 350 725.5 309 Q691 268 657 226 Q625 185 595 143.5 Q565 102 533 60 Q504 21 475.5 -19.5 Q447 -60 427 -105 Q425 -109 421 -110 Q417 -111 414 -109 Q407 -105 411 -95 Q429 -53 447.5 -11.5 Q466 30 486 72 Q557 217 635 358 Q665 413 695.5 467 Q726 521 757 575 Q728 546 700 516 Q672 486 645 456 Q573 376 504 294 Q434 210 370 127 Q337 84 305 40.5 Q273 -3 241 -47 Q210 -92 179.5 -137 Q149 -182 120 -228 Q115 -235 108 -231 Q105 -230 102.5 -226.5 Q100 -223 102 -220 Q107 -207 112.5 -194.5 Q118 -182 124 -168 Q147 -116 170 -65 Q193 -14 219 37 Q244 88 269 137.5 Q294 187 320 237 Q345 285 370.5 332 Q396 379 420 427 Q444 475 465.5 524 Q487 573 504 624 Q512 647 515 666 Q516 670 516 674 Q516 678 516 683 Q516 687 516 689 Q516 691 515 696 L512 702 L512 703 Q511 704 511 705 Q510 706 510 706.5 Q510 707 509 708 Q509 708 508 710 L507 711 L505 713 L503 715 L502 716 Q498 718 498 718 Q497 719 496.5 719 Q496 719 495 720 L494 720 Q490 722 488 722 Q486 723 485 723 Q484 723 482 724 L480 724 L478 724 Q475 725 471.5 725 Q468 725 465 725 Q460 725 458 724 L455 724 L452 724 Q449 723 445 722.5 Q441 722 438 720 Q421 716 405.5 709 Q390 702 375 693 Q295 645 237 577 Q208 542 184 503.5 Q160 465 143 423 Q130 391 122 358.5 Q114 326 114 292 Q114 277 116 262 Q118 247 125 233 Q140 205 168 195 Q177 193 175 183 Q173 180 169.5 177.5 Q166 175 163 177 Q154 180 146.5 184.5 Q139 189 131 194 Q105 217 98.5 252 Q92 287 96 319 Q100 357 111.5 393 Q123 429 140 463 Q181 550 249 618 Q265 635 282.5 650.5 Q300 666 320 680 Q337 693 355.5 704.5 Q374 716 394 726 Q410 733 426 737.5 Q442 742 459 744 Q473 745 486.5 743 Q500 741 511 733 Q528 721 533 703 Q538 685 535.5 665.5 Q533 646 526.5 627 Q520 608 514 593 Q495 541 472 491 Q449 441 424 391 Q398 342 372 293.5 Q346 245 320 195 Q294 143 268 91.5 Q242 40 216 -13 Q202 -41 189.5 -69 Q177 -97 164 -126 Q183 -98 201.5 -70.5 Q220 -43 240 -15 Q272 30 304.5 73 Q337 116 370 160 Q403 202 437 243.5 Q471 285 506 327 Q541 369 576.5 408.5 Q612 448 648 488 Q684 528 721 566.5 Q758 605 796 643 Q802 649 809 644 Q816 639 811 631 Q788 591 766 552 Q744 513 721 473 Q681 402 642.5 331.5 Q604 261 567 189 Q547 151 528 112.5 Q509 74 490 34 Q504 54 519 72.5 Q534 91 548 111 Q580 156 612.5 199.5 Q645 243 680 285 Q715 328 751.5 368.5 Q788 409 827 448 Q865 487 906 523 Q947 559 990 593 Q1007 606 1023.5 618.5 Q1040 631 1058 641 Q1067 646 1080 651.5 Q1093 657 1104 650 Z " />
<glyph glyph-name="N" unicode="N" horiz-adv-x="753" d="M803 649 Q805 635 803 621 Q801 607 797 593 Q793 579 788 566 Q783 553 777 539 Q771 524 764.5 509.5 Q758 495 751 481 Q737 452 723.5 424.5 Q710 397 696 368 Q682 339 667.5 310 Q653 281 639 252 Q610 195 580.5 137.5 Q551 80 521 22 Q492 -35 463 -92 Q434 -149 406 -208 Q404 -212 400 -212.5 Q396 -213 393 -211 Q386 -207 389 -198 Q396 -184 402.5 -170.5 Q409 -157 416 -143 Q445 -86 473.5 -30 Q502 26 531 83 Q560 140 588.5 195.5 Q617 251 645 308 Q659 337 672.5 365 Q686 393 700 421 Q714 449 727.5 476.5 Q741 504 753 533 Q764 558 774.5 584.5 Q785 611 784 639 Q784 642 783.5 645 Q783 648 783 651 Q782 652 782 653 L782 654 L782 653 L781 653 Q781 653 781 653 Q779 653 778 652.5 Q777 652 775 652 Q774 651 773 651 L772 651 Q771 650 770 649.5 Q769 649 768 648 Q763 646 758 643 Q752 639 746 635.5 Q740 632 735 628 Q722 619 710.5 609.5 Q699 600 686 589 Q667 573 648.5 556.5 Q630 540 612 523 Q570 483 531 442 Q492 401 454 358 Q414 313 376.5 266.5 Q339 220 303 172 Q266 124 232 74.5 Q198 25 166 -26 Q98 -128 43 -236 Q41 -241 37 -241.5 Q33 -242 30 -240 Q27 -238 25.5 -234.5 Q24 -231 26 -227 Q32 -215 38 -203.5 Q44 -192 49 -180 Q73 -132 97.5 -85.5 Q122 -39 147 9 Q196 104 245 196 Q269 244 293.5 290 Q318 336 342 384 Q362 422 381 461 Q400 500 420 539 Q428 553 434 567.5 Q440 582 445 597 Q450 612 453.5 626.5 Q457 641 455 657 Q455 669 448 680 Q441 693 431 699 Q417 709 401 711.5 Q385 714 368 711 Q350 707 333 700 Q316 693 299 683 Q268 665 240 642 Q205 613 175 580.5 Q145 548 119 512 Q106 494 94.5 475.5 Q83 457 72 437 Q64 421 57.5 404 Q51 387 47 369 Q41 334 51 305 Q57 288 68.5 274.5 Q80 261 95 250 Q103 246 98 237 Q96 234 92 233 Q88 232 85 234 Q77 240 69 246.5 Q61 253 54 261 Q42 275 35 292.5 Q28 310 26 329 Q23 364 36 401 Q42 421 51 438.5 Q60 456 71 473 Q95 513 126 553 Q180 622 251 675 Q267 686 284 697 Q301 708 319 716 Q337 724 356 729 Q375 734 394 732 Q412 730 429 723 Q446 716 457 702 Q468 689 472 674 Q476 659 475 643 Q473 609 459.5 577.5 Q446 546 431 517 Q412 480 394 443 Q369 394 344 346 Q319 298 294.5 249.5 Q270 201 244 153 Q230 124 215 96.5 Q200 69 185 40 Q219 91 254.5 139.5 Q290 188 327 236 Q366 285 406 332 Q446 379 489 425 Q519 457 550 488.5 Q581 520 613 550 Q636 570 658.5 590 Q681 610 705 629 Q716 638 728 646.5 Q740 655 753 663 Q761 668 771.5 672 Q782 676 792 671 Q798 668 800 661.5 Q802 655 803 649 Z " />
<glyph glyph-name="O" unicode="O" horiz-adv-x="702" d="M693 632 Q699 609 698.5 584.5 Q698 560 695 536 Q689 490 675 441 Q661 395 642.5 351.5 Q624 308 603 266 Q583 225 559 186.5 Q535 148 509 111 Q483 75 454.5 40.5 Q426 6 394 -26 Q331 -91 257 -145 Q222 -171 184 -193.5 Q146 -216 104 -231 Q93 -235 80.5 -238 Q68 -241 55 -241.5 Q42 -242 30 -238.5 Q18 -235 8 -227 Q-9 -213 -16 -192.5 Q-23 -172 -25 -151 Q-27 -126 -24 -101.5 Q-21 -77 -15 -53 Q-7 -22 6 6.5 Q19 35 36 62 L51 86 Q28 97 10.5 117 Q-7 137 -12 163 Q-17 183 -15 204 Q-13 225 -10 245 Q-6 267 0.5 287.5 Q7 308 15 328 Q32 368 55 404.5 Q78 441 105 475 Q159 542 226 596 Q260 623 296 646 Q332 669 371 687 Q402 701 434 712.5 Q466 724 500 729 Q529 734 559 733.5 Q589 733 616 722 Q645 711 663 690 Q674 677 681 662.5 Q688 648 693 632 Z M674 522 Q680 559 678.5 599.5 Q677 640 653 672 Q636 693 612.5 702.5 Q589 712 563 714 Q534 716 506 711 Q478 706 451 698 Q415 687 380.5 670.5 Q346 654 314 634 Q243 591 183 533 Q123 475 78 406 Q55 371 38.5 334 Q22 297 12 257 Q7 235 6 216 Q4 207 3.5 197 Q3 187 5 177 Q8 146 32 122 Q44 110 63 102 Q101 152 149 191 Q158 196 163 191 Q166 189 166 184 Q166 179 163 177 Q133 154 105 123 Q99 116 93.5 110 Q88 104 83 96 L87 96 Q107 94 126.5 97.5 Q146 101 165 106 Q207 118 245 138 Q283 158 320 181 Q328 186 332.5 177.5 Q337 169 329 164 Q293 140 255 121 Q235 111 214 102.5 Q193 94 171 88 Q151 82 129.5 78.5 Q108 75 88 77 Q83 77 79 77.5 Q75 78 70 79 Q66 74 62.5 68.5 Q59 63 55 57 L34 21 Q32 16 29.5 11.5 Q27 7 25 2 Q23 -2 21 -8 Q20 -9 20 -9.5 Q20 -10 19 -11 L19 -12 Q14 -23 11 -33 Q8 -43 5 -54 Q3 -60 2 -66 Q1 -72 0 -77 Q-1 -80 -1.5 -83.5 Q-2 -87 -3 -90 Q-3 -94 -4 -95 L-4 -98 L-4 -100 Q-7 -125 -6 -146 Q-6 -154 -5 -158 L-5 -160 L-5 -161 Q-4 -163 -4 -166 Q-3 -171 -2 -175.5 Q-1 -180 1 -185 Q1 -186 1.5 -186.5 Q2 -187 2 -188 Q2 -188 3 -189 Q3 -190 3.5 -190.5 Q4 -191 4 -192 Q5 -194 6 -196 Q7 -198 8 -200 L11 -203 Q12 -204 12 -204.5 Q12 -205 13 -206 Q17 -210 19 -211 L19 -212 L20 -212 Q20 -213 21 -213 Q23 -214 25 -216 Q27 -216 29 -218 L30 -218 Q30 -218 31 -219 Q33 -220 36 -220 Q39 -220 41 -221 L43 -221 Q43 -221 44 -222 L49 -222 Q63 -223 75 -220 Q87 -217 100 -212 Q120 -204 138 -195.5 Q156 -187 174 -176 Q212 -154 247.5 -128.5 Q283 -103 316 -74 Q381 -16 437 49.5 Q493 115 538 189 Q584 264 619 345 Q637 388 651.5 432 Q666 476 674 522 Z " />
<glyph glyph-name="P" unicode="P" horiz-adv-x="858" d="M875 662 Q895 631 895.5 595 Q896 559 882 527 Q868 495 847 466.5 Q826 438 802 413 Q778 388 751.5 365.5 Q725 343 699 320 Q670 295 640.5 270.5 Q611 246 579 223 Q547 200 514.5 179.5 Q482 159 448 139 Q428 128 408.5 117 Q389 106 369 96 Q347 85 323 77 Q299 69 275 68 Q253 68 237 77 Q159 -78 84 -235 Q82 -238 77.5 -239 Q73 -240 70 -238 Q64 -233 67 -225 Q111 -133 155 -43 Q172 -9 188.5 24 Q205 57 222 90 Q210 103 207 122 Q205 139 210 155.5 Q215 172 225 186 Q234 200 245.5 211.5 Q257 223 270 234 Q288 249 311 264 Q313 267 315 270.5 Q317 274 319 278 Q361 358 403.5 437 Q446 516 491 595 Q496 603 504 598 Q512 593 507 585 Q483 540 458.5 496 Q434 452 410 407 Q393 375 376 343 Q359 311 342 279 Q356 285 370 289.5 Q384 294 398 298 Q407 300 410 291 Q412 281 403 279 Q369 271 342 258 Q337 256 333.5 254 Q330 252 326 250 Q306 211 286 172 Q266 133 246 95 Q248 93 249 93 L251 92 L252 92 Q256 90 256 90 Q258 90 259 89.5 Q260 89 261 89 L264 89 Q275 87 284 89 Q294 90 305.5 92.5 Q317 95 327 100 Q348 108 367.5 118 Q387 128 407 139 Q434 154 460.5 169.5 Q487 185 513 202 Q577 243 634 290 Q660 312 685.5 334 Q711 356 737 379 Q762 401 785.5 424.5 Q809 448 829 474 Q849 501 863 531.5 Q877 562 875 597 Q874 625 860.5 648 Q847 671 824 685 Q803 699 779 706 Q755 713 731 716 Q706 719 681 719.5 Q656 720 630 719 Q569 717 510 704.5 Q451 692 394 671 Q335 650 281 619.5 Q227 589 178 551 Q130 513 88.5 467 Q47 421 15 367 Q6 352 -0.5 336.5 Q-7 321 -10 303 Q-16 270 1 237 Q8 224 18 213.5 Q28 203 42 198 Q69 187 98 198 Q102 200 105.5 197.5 Q109 195 110 191 Q113 183 103 179 Q72 168 41 178 Q7 189 -12 220.5 Q-31 252 -31 287 Q-31 323 -14 354.5 Q3 386 23 415 Q61 469 107.5 514.5 Q154 560 208 597 Q262 635 321.5 662.5 Q381 690 444 708 Q502 725 561.5 733 Q621 741 681 739 Q707 739 735 735.5 Q763 732 789 723.5 Q815 715 837.5 700 Q860 685 875 662 Z M231 110 Q231 110 232 109 Q247 139 262 168.5 Q277 198 292 227 Q291 226 285 222 Q273 212 262 201 Q251 190 243 177 Q235 165 229 151 Q223 137 226 122 Q227 118 231 110 Z " />
<glyph glyph-name="Q" unicode="Q" horiz-adv-x="683" d="M653 631 Q667 590 666 546.5 Q665 503 655 461 Q647 419 632 380 Q617 341 599 303 Q581 265 559.5 230 Q538 195 514 161 Q464 92 406 32 Q380 5 351 -20 Q322 -45 291 -68 Q301 -76 310.5 -83.5 Q320 -91 329 -99 Q369 -131 408.5 -163 Q448 -195 488 -227 Q491 -229 490.5 -233.5 Q490 -238 488 -240 Q481 -247 474 -240 Q455 -225 437 -210 Q419 -195 400 -180 Q368 -155 337.5 -130 Q307 -105 275 -80 Q240 -106 202.5 -128 Q165 -150 123 -162 Q101 -169 78 -172.5 Q55 -176 32 -174 Q12 -172 -5.5 -167 Q-23 -162 -38 -150 Q-61 -131 -67.5 -102 Q-74 -73 -64 -46 Q-53 -12 -23 11 Q7 34 42 40 Q81 47 119 35.5 Q157 24 191 4 Q214 -9 235 -24 Q256 -39 276 -56 Q324 -21 366.5 20 Q409 61 447 106 Q498 166 539 234 Q580 302 609 376 Q624 414 634 453.5 Q644 493 646 534 Q648 570 640 608.5 Q632 647 606 674 Q578 704 542.5 711 Q507 718 469.5 711.5 Q432 705 396 688.5 Q360 672 331 656 Q293 635 258 610.5 Q223 586 191 557 Q159 530 131.5 499.5 Q104 469 79 435 Q54 400 33.5 363 Q13 326 1 284 Q-10 248 -10 214 Q-10 199 -7.5 184.5 Q-5 170 2 156 Q10 142 22 132.5 Q34 123 50 121 Q70 119 88.5 125.5 Q107 132 123 143 Q157 166 185.5 195.5 Q214 225 236 260 Q241 267 249.5 262 Q258 257 253 250 Q230 214 202 184 Q172 153 135 128 Q118 116 97.5 108 Q77 100 56 101 Q15 103 -9 136 Q-19 150 -23.5 166.5 Q-28 183 -29 200 Q-33 240 -21 280 Q-9 320 8 355 Q28 395 53 431.5 Q78 468 107 501 Q136 534 168.5 563.5 Q201 593 236 619 Q274 645 313.5 669 Q353 693 396 710 Q434 724 474.5 731.5 Q515 739 554 728 Q588 719 615 694 Q629 681 638 665 Q647 649 653 631 Z M205 -103 Q219 -95 232.5 -86 Q246 -77 260 -68 Q258 -66 255.5 -64.5 Q253 -63 251 -61 Q222 -38 190.5 -18.5 Q159 1 124 13 Q107 18 89.5 21 Q72 24 54 22 Q17 17 -11 -5 Q-22 -13 -31 -24.5 Q-40 -36 -45 -48 Q-46 -52 -47 -55.5 Q-48 -59 -49 -62 Q-50 -66 -50 -72 Q-52 -87 -49 -97 Q-44 -120 -25 -136 Q-11 -147 6 -150.5 Q23 -154 40 -154 Q85 -156 126 -141 Q167 -126 205 -103 Z " />
<glyph glyph-name="R" unicode="R" horiz-adv-x="723" d="M529 -19 Q580 -68 629 -118.5 Q678 -169 726 -221 Q733 -229 726 -235.5 Q719 -242 713 -235 Q690 -211 667 -186.5 Q644 -162 621 -138 Q580 -96 538 -55 Q496 -14 453 27 Q431 47 409.5 66.5 Q388 86 366 106 Q364 108 363 108.5 Q362 109 360 111 Q352 108 345.5 105 Q339 102 331 100 Q316 96 300 98 Q284 100 273 111 Q269 115 266.5 119 Q264 123 262 128 Q262 128 261 126 Q222 51 186 -24.5 Q150 -100 116 -178 Q114 -181 110 -182 Q106 -183 103 -181 Q96 -177 99 -168 Q118 -124 138 -81.5 Q158 -39 178 4 Q214 80 253.5 154 Q293 228 335 301 Q377 375 422 446 Q467 517 515 587 Q520 595 528.5 590 Q537 585 532 577 Q505 538 479.5 498.5 Q454 459 428 418 Q390 355 353.5 292.5 Q317 230 282 165 L291 165 Q305 163 320 159 Q331 154 341.5 148 Q352 142 362 134 Q381 144 399.5 154.5 Q418 165 435 176 Q511 225 571 289 Q602 321 628 356 Q654 391 674 430 Q693 465 705 504.5 Q717 544 715 586 Q713 605 707 623.5 Q701 642 689 657 Q678 672 662.5 682.5 Q647 693 630 700 Q592 714 552 714.5 Q512 715 474 709 Q376 694 288 652 Q252 635 217.5 613.5 Q183 592 151 566 Q122 543 95.5 515.5 Q69 488 53 454 Q45 438 41 422 Q37 406 38 389 Q38 371 44 353.5 Q50 336 60 320 Q63 316 61.5 312.5 Q60 309 57 307.5 Q54 306 50 306.5 Q46 307 43 311 Q30 332 22 358 Q16 383 19 407.5 Q22 432 31.5 454.5 Q41 477 56 497.5 Q71 518 88 536 Q106 555 126 571.5 Q146 588 167 603 Q190 619 213 633.5 Q236 648 261 660 Q318 689 380.5 708 Q443 727 508 733 Q533 735 560 734 Q587 733 612.5 726 Q638 719 661 706.5 Q684 694 701 673 Q720 650 727.5 623.5 Q735 597 734.5 569 Q734 541 727 513 Q720 485 710 460 Q687 406 653 357.5 Q619 309 578 267 Q536 225 488.5 189.5 Q441 154 389 126 Q385 124 379 120 Q390 110 402 100 Q414 90 425 79 Q477 31 529 -19 Z M284 128 Q294 114 310.5 116 Q327 118 342 125 Q328 134 313.5 140.5 Q299 147 282 145 Q282 145 280 143 L280 141 L280 139 L280 138 L280 137 Q280 136 280.5 135.5 Q281 135 281 133 Q281 132 282 131 Q283 130 284 128 Z " />
<glyph glyph-name="S" unicode="S" horiz-adv-x="707" d="M773 674 Q784 653 784.5 632 Q785 611 778.5 591 Q772 571 760 552 Q748 533 735 517 Q721 499 705 483 Q689 467 673 450 Q656 434 639 418.5 Q622 403 605 389 Q570 359 533 331 Q496 303 456 279 Q436 268 415.5 258 Q395 248 373 244 Q362 242 351.5 242 Q341 242 330 245 Q325 247 318.5 250 Q312 253 312 260 Q311 269 314 281 Q319 304 332.5 323.5 Q346 343 360 360 Q389 398 418 430 Q448 464 480.5 495 Q513 526 548 554 Q557 559 562 554 Q570 548 562 540 Q531 515 500 487 Q474 462 449 435.5 Q424 409 401 381 Q390 367 379 352.5 Q368 338 357 324 Q348 310 340 296 Q332 282 331 266 Q346 260 362.5 262.5 Q379 265 393 270 Q413 277 431 287 Q449 297 466 308 Q483 319 499 331 Q515 343 532 355 Q598 405 656 461 Q670 475 684.5 490 Q699 505 712 520 Q726 535 737 551 Q748 567 756 585 Q763 602 764.5 619 Q766 636 761 653 Q756 668 745.5 680 Q735 692 721 700 Q704 711 685.5 715.5 Q667 720 648 722 Q628 724 608.5 722.5 Q589 721 569 719 Q531 715 493.5 705 Q456 695 420 681 Q346 652 281 607 Q249 586 219 562 Q189 538 163 511 Q137 485 115.5 455.5 Q94 426 80 393 Q73 376 67.5 358 Q62 340 60 321 Q58 302 61 284 Q64 266 74 250 Q93 221 125 206.5 Q157 192 189 184 Q230 173 271.5 167.5 Q313 162 355 156 Q376 152 397 148.5 Q418 145 439 140 Q456 137 473.5 130.5 Q491 124 498 107 Q502 97 500.5 87.5 Q499 78 494.5 69.5 Q490 61 483.5 53 Q477 45 471 38 Q444 8 415 -21 Q386 -50 354.5 -76 Q323 -102 291 -128 L225 -176 Q208 -187 191 -198 Q174 -209 155 -218 Q137 -226 117.5 -232 Q98 -238 78 -237 Q56 -235 49 -218 Q46 -210 46.5 -202 Q47 -194 49 -186 Q54 -168 64.5 -151.5 Q75 -135 88 -121 Q101 -106 115.5 -93 Q130 -80 145 -68 Q205 -19 274.5 13.5 Q344 46 420 59 Q429 61 432 52 Q434 42 425 40 Q405 37 385.5 32 Q366 27 346 21 Q264 -6 194 -55 Q160 -78 127 -109 Q112 -123 98 -139 Q84 -155 74 -175 Q71 -183 67.5 -191.5 Q64 -200 66 -208 Q68 -215 71 -216 Q76 -218 81 -217.5 Q86 -217 91 -217 Q114 -215 134 -206 Q154 -197 173 -186 Q193 -175 211.5 -162 Q230 -149 248 -135 Q267 -121 285 -107 Q303 -93 320 -79 Q355 -50 388.5 -18.5 Q422 13 453 47 Q457 52 464 59.5 Q471 67 476 76 Q481 85 481.5 93.5 Q482 102 473 108 Q466 114 456.5 116.5 Q447 119 438 121 Q427 123 415 125.5 Q403 128 391 130 Q344 138 297.5 144 Q251 150 204 161 Q166 169 127 184.5 Q88 200 63 232 Q49 250 44 270.5 Q39 291 40 313 Q41 335 47 356 Q53 377 61 397 Q77 435 102 469 Q127 503 156 532 Q187 563 221.5 589.5 Q256 616 293 639 Q331 662 371 681 Q411 700 454 714 Q496 728 538.5 735 Q581 742 626 742 Q647 742 668.5 739 Q690 736 709.5 728 Q729 720 745.5 707 Q762 694 773 674 Z " />
<glyph glyph-name="T" unicode="T" horiz-adv-x="620" d="M1211 715 Q1221 715 1221 705 Q1221 697 1211 695 Q1201 694 1192 693.5 Q1183 693 1173 692 Q1098 686 1023 686 Q948 686 872 690 Q815 692 759 695.5 Q703 699 646 701 Q644 696 642 691.5 Q640 687 638 682 Q579 530 509 385 Q440 239 357 99 Q325 45 291 -7 Q257 -59 217 -108 Q246 -106 275 -106 Q304 -106 333 -101 Q344 -99 345 -108 Q347 -112 345 -116 Q343 -120 339 -120 Q328 -122 318.5 -123 Q309 -124 299 -125 Q273 -127 248.5 -127 Q224 -127 199 -129 Q195 -133 191.5 -137 Q188 -141 184 -145 Q171 -159 158 -172 Q145 -185 131 -197 Q117 -209 100.5 -219.5 Q84 -230 66 -232 Q54 -234 42.5 -228.5 Q31 -223 28 -209 Q24 -194 31 -181 Q38 -168 49 -158 Q75 -135 107 -125.5 Q139 -116 171 -111 Q176 -110 180.5 -110 Q185 -110 190 -109 Q195 -103 200.5 -96.5 Q206 -90 211 -84 Q257 -27 295.5 35 Q334 97 370 161 Q408 230 444 298.5 Q480 367 513 439 Q544 504 571.5 569.5 Q599 635 625 702 Q611 703 597.5 703.5 Q584 704 570 704 Q532 706 494.5 706 Q457 706 419 705 Q382 704 345.5 701.5 Q309 699 273 691 Q241 684 210.5 673.5 Q180 663 152 646 Q126 629 102.5 607.5 Q79 586 65 558 Q52 532 57.5 503.5 Q63 475 83 455 Q104 435 134 430.5 Q164 426 190 439 Q194 441 197.5 439 Q201 437 203 434 Q205 431 204.5 427.5 Q204 424 200 422 Q187 415 170 412 Q138 406 108 417 Q78 428 58 454 Q38 480 36.5 512 Q35 544 50 572 Q66 601 91 624 Q116 647 144 664 Q173 681 205.5 692.5 Q238 704 271 711 Q309 719 347.5 721 Q386 723 424 725 Q464 726 503 725.5 Q542 725 581 723 Q660 721 738.5 716 Q817 711 896 708 Q975 705 1053.5 706 Q1132 707 1211 715 Z M170 -131 Q158 -133 150 -135 Q119 -140 92 -153 Q80 -159 67 -168 Q54 -177 48 -191 Q44 -200 47 -206 Q46 -204 48 -207 Q50 -210 48 -208 Q49 -208 49 -208.5 Q49 -209 50 -209 L50 -210 Q52 -211 53 -211.5 Q54 -212 57 -213 Q62 -214 69 -211.5 Q76 -209 82 -206 Q99 -197 111 -187 Q125 -176 138 -164 Q151 -152 163 -138 L170 -131 Z " />
<glyph glyph-name="U" unicode="U" horiz-adv-x="888" d="M1076 731 Q1082 725 1076 718 Q1072 713 1069 708.5 Q1066 704 1062 699 Q1032 660 1003 621.5 Q974 583 945 543 Q916 503 888.5 463 Q861 423 835 381 Q809 340 783.5 298.5 Q758 257 735 214 Q712 171 690.5 127.5 Q669 84 650 39 Q611 -51 583 -144 Q580 -152 570.5 -149.5 Q561 -147 564 -138 Q566 -133 567.5 -127 Q569 -121 571 -115 Q586 -67 604 -21.5 Q622 24 642 69 Q683 161 730 244 Q754 288 779.5 329.5 Q805 371 832 413 Q846 435 860.5 456 Q875 477 890 499 Q868 473 846.5 447 Q825 421 803 395 Q749 331 698.5 266 Q648 201 599 133 Q550 66 503.5 -2 Q457 -70 409 -138 Q398 -154 386.5 -169 Q375 -184 362 -198 Q349 -212 334.5 -223.5 Q320 -235 303 -241 Q286 -246 271 -241 Q256 -236 248 -219 Q240 -205 239.5 -188 Q239 -171 241 -155 Q248 -76 276 -1.5 Q304 73 335 145 Q351 182 366.5 219.5 Q382 257 398 294 Q415 332 432.5 369.5 Q450 407 468 445 Q484 478 500.5 511 Q517 544 534 576 Q541 589 547.5 601.5 Q554 614 560 628 Q565 640 569 653.5 Q573 667 573 681 Q573 692 569 701 Q565 710 555 715 Q545 720 535 720 Q529 721 523 720.5 Q517 720 512 719 Q498 717 484.5 712.5 Q471 708 457 703 Q440 698 425 691 Q410 684 394 676 Q331 645 275.5 601 Q220 557 175 503 Q164 489 152.5 474.5 Q141 460 134 443 Q125 420 128 397 Q130 385 134 375 Q138 365 145 358 Q147 356 149 355 Q149 354 150 354 Q151 353 152 353 Q154 351 155 351 Q156 350 157 350 L159 350 Q166 348 178 351 Q187 354 189.5 344.5 Q192 335 183 332 Q158 324 139 338 Q118 353 111.5 379.5 Q105 406 110 429 Q113 446 121.5 461.5 Q130 477 140 491 Q151 506 163 519.5 Q175 533 188 547 Q237 599 295 640 Q353 681 419 709 Q449 722 484 733 Q496 737 508.5 739 Q521 741 534 740 Q547 739 559.5 734.5 Q572 730 580 720 Q589 709 591 695 Q593 681 591 667 Q589 653 584.5 639 Q580 625 574 611 Q568 597 561 584.5 Q554 572 547 558 Q528 524 511.5 490 Q495 456 478 421 Q460 383 442.5 345 Q425 307 408 269 Q392 232 376.5 194.5 Q361 157 345 120 Q329 83 314.5 46 Q300 9 288 -29 Q275 -66 267 -106 Q264 -124 261.5 -142.5 Q259 -161 259 -179 Q259 -191 263 -206 Q267 -221 281 -224 Q289 -225 296 -222.5 Q303 -220 309 -217 Q317 -212 323.5 -207 Q330 -202 337 -196 Q366 -169 388 -136 Q410 -103 432 -71 Q480 -2 528 67.5 Q576 137 627 205 Q678 273 731.5 338.5 Q785 404 840 469 Q896 535 951 600 Q1006 665 1062 731 Q1065 735 1069.5 734.5 Q1074 734 1076 731 Z " />
<glyph glyph-name="V" unicode="V" horiz-adv-x="728" d="M802 660 Q806 643 802.5 626.5 Q799 610 793 594 Q779 556 759 519.5 Q739 483 719 448 Q699 412 677.5 377 Q656 342 633 307 Q588 238 541 171.5 Q494 105 443 40 Q418 8 393 -22.5 Q368 -53 341 -82 Q315 -111 287 -138.5 Q259 -166 229 -190 Q213 -202 197 -213.5 Q181 -225 163 -234 Q146 -242 128 -242.5 Q110 -243 96 -229 Q84 -216 79.5 -198.5 Q75 -181 74 -164 Q74 -143 78.5 -122.5 Q83 -102 89 -82 Q103 -42 119 -3.5 Q135 35 152 74 Q168 112 185.5 148.5 Q203 185 220 223 Q257 298 294.5 371.5 Q332 445 368 520 Q377 539 386 557.5 Q395 576 403 595 Q408 604 412 613.5 Q416 623 421 633 Q425 641 429 650 Q433 659 436 667 Q441 678 443.5 693.5 Q446 709 438 718 Q432 724 424 724 Q416 724 408 723 Q399 721 389.5 718 Q380 715 372 711 Q340 696 312.5 674 Q285 652 260 628 Q236 604 214.5 576.5 Q193 549 176 519 Q158 489 143.5 456.5 Q129 424 119 390 Q114 375 111 359 Q108 343 109 327 Q109 313 112.5 299 Q116 285 127 274 Q134 267 127.5 260 Q121 253 114 260 Q103 271 97.5 285.5 Q92 300 90 315 Q86 349 96 382.5 Q106 416 118 447 Q132 479 148.5 510 Q165 541 186 570 Q206 598 229 623 Q252 648 278 671 Q305 694 334 711 Q350 722 367.5 730.5 Q385 739 405 742 Q414 744 424 744 Q434 744 443 739 Q456 732 461 714 Q465 699 461 682.5 Q457 666 451 652 Q434 614 416.5 577.5 Q399 541 382 504 Q346 430 308.5 357 Q271 284 236 209 Q218 172 201 135 Q184 98 167 60 Q159 41 151 22.5 Q143 4 135 -15 Q127 -35 120 -54 Q113 -73 106 -93 Q100 -113 96 -133 Q92 -153 94 -173 Q96 -186 100.5 -201 Q105 -216 119 -221 Q127 -224 135 -222.5 Q143 -221 151 -218 Q159 -214 167 -209 Q175 -204 183 -199 Q199 -188 214 -176.5 Q229 -165 243 -153 Q272 -127 298.5 -98.5 Q325 -70 351 -41 Q377 -11 402 19.5 Q427 50 451 82 Q551 212 636 348 Q679 417 720 489 Q730 506 739.5 524 Q749 542 758 561 Q766 578 773 594.5 Q780 611 783 630 Q785 641 783 656 Q781 671 768 676 Q761 679 753.5 677.5 Q746 676 739 674 Q731 671 724.5 667 Q718 663 711 658 Q683 638 662.5 610 Q642 582 628 550 Q624 540 617 543 Q613 544 610.5 547.5 Q608 551 610 555 Q617 572 625 587.5 Q633 603 644 617 Q666 646 693 668 Q707 679 722.5 687.5 Q738 696 755 697 Q772 699 785 688 Q798 677 802 660 Z " />
<glyph glyph-name="W" unicode="W" horiz-adv-x="1018" d="M1011 593 Q1014 573 1012.5 553 Q1011 533 1007 513 Q1002 491 995.5 469.5 Q989 448 981 427 Q965 381 947.5 337 Q930 293 908 250 Q867 167 815 95 Q789 58 760.5 23.5 Q732 -11 700 -43 Q686 -58 669 -73 Q652 -88 629 -90 Q614 -92 600.5 -84 Q587 -76 579 -64 Q571 -53 568.5 -40.5 Q566 -28 565 -15 Q564 -1 566 13.5 Q568 28 571 42 Q577 75 587 106.5 Q597 138 607 170 Q622 218 638.5 264 Q655 310 674 357 Q683 380 692.5 403 Q702 426 712 449 Q714 453 714 453 L711 450 Q665 396 621 341.5 Q577 287 533 231 Q489 175 445.5 119.5 Q402 64 357 10 Q312 -44 264.5 -96.5 Q217 -149 166 -198 Q154 -209 140.5 -220 Q127 -231 111 -239 Q103 -242 94.5 -242.5 Q86 -243 80 -235 Q72 -226 72 -209 Q72 -192 76.5 -174.5 Q81 -157 86 -140 Q91 -123 97.5 -107 Q104 -91 111 -74 Q140 -3 172.5 65 Q205 133 240 201 Q275 269 310 335.5 Q345 402 378 471 Q393 501 407 530.5 Q421 560 435 590 Q441 603 446 616 Q451 629 455 643 Q457 654 457.5 666 Q458 678 453 689 Q443 713 418 720 Q398 725 373 717 Q348 709 326.5 694 Q305 679 284 664 Q228 625 183.5 575 Q139 525 104 466 Q87 437 74 406.5 Q61 376 53 343 Q39 275 60 210 Q63 202 53.5 199 Q44 196 41 205 Q31 236 28 272 Q26 306 32.5 339.5 Q39 373 52 404.5 Q65 436 82 466 Q99 496 118 524 Q138 552 160 578.5 Q182 605 208 628 Q252 668 305 702 Q327 717 352 729.5 Q377 742 404 742 Q433 741 453.5 721.5 Q474 702 476 674 Q479 646 468.5 619 Q458 592 446 567 Q431 536 416 505 Q401 474 386 443 Q351 374 316 306.5 Q281 239 246 171 Q229 136 212 102.5 Q195 69 178 34 Q162 -1 148 -35 Q134 -69 120 -104 Q105 -139 97 -172 Q93 -188 91 -206 Q91 -214 92 -218 Q92 -218 94 -222 L95 -223 Q98 -224 101.5 -222 Q105 -220 107 -219 Q111 -217 114.5 -215 Q118 -213 121 -210 Q128 -205 134.5 -199.5 Q141 -194 147 -189 Q160 -177 172.5 -164.5 Q185 -152 198 -139 Q247 -88 293 -34.5 Q339 19 384 74 Q429 129 472.5 184.5 Q516 240 561 297 Q605 353 649.5 407.5 Q694 462 742 515 Q748 522 755 516 Q762 510 757 503 Q756 501 748 482.5 Q740 464 730.5 442 Q721 420 712.5 401 Q704 382 703 379 Q696 362 689.5 345 Q683 328 677 311 Q660 266 645 222 Q630 178 616 133 Q608 106 600 79 Q592 52 587 24 Q585 13 584 0 Q583 -13 585 -25 Q587 -29 587 -36 Q588 -38 588 -39 Q588 -40 589 -42 Q589 -43 589.5 -43.5 Q590 -44 590 -45 Q590 -45 591 -46 Q592 -49 596 -55 Q596 -55 597 -56 Q597 -57 597.5 -57 Q598 -57 598 -58 L602 -62 Q604 -63 603.5 -63 Q603 -63 605 -64 Q607 -65 609 -67 Q615 -69 620 -70 Q628 -72 636.5 -69 Q645 -66 653 -61 Q661 -55 668 -48 Q675 -41 682 -34 Q690 -26 697 -18 Q704 -10 712 -2 Q771 63 816 130 Q864 202 902 281 Q921 322 937 363 Q953 404 967 447 Q974 467 980 487.5 Q986 508 990 529 Q992 540 993 550 Q994 560 994 571 Q993 576 993 586 L993 588 Q992 588 992 589 Q992 593 991 595 Q990 601 988 607.5 Q986 614 984 620 Q983 622 981.5 625.5 Q980 629 978 631 Q979 630 978 631.5 Q977 633 976 633 Q975 634 974 634 Q975 634 973 634.5 Q971 635 973 635 Q972 635 971 634 Q969 633 968 632 Q967 631 965 630 Q963 627 960.5 624 Q958 621 956 618 Q951 610 948 601.5 Q945 593 945 584 Q945 579 942.5 576.5 Q940 574 936 574 Q932 574 929 576.5 Q926 579 926 584 Q926 602 936 622 Q941 630 947.5 639 Q954 648 963 652 Q978 659 992 645 Q1001 634 1005 620.5 Q1009 607 1011 593 Z " />
<glyph glyph-name="X" unicode="X" horiz-adv-x="573" d="M790 644 Q792 636 787.5 629.5 Q783 623 775 619 Q765 615 762 623 Q760 626 760.5 630 Q761 634 765 636 Q769 638 770 639 Q770 639 771 639 Q770 641 770 643 Q769 644 768.5 645 Q768 646 767 647 Q760 657 752 661 Q742 665 736 665 Q725 665 715.5 662 Q706 659 697 654 Q677 644 659.5 629.5 Q642 615 626 599 Q578 551 538.5 497 Q499 443 467 384 Q435 324 410 259.5 Q385 195 371 128 Q356 52 360 -20 Q362 -47 365 -73.5 Q368 -100 375 -126 Q383 -153 396 -176 Q402 -187 410.5 -197 Q419 -207 431 -212 Q443 -218 456.5 -215.5 Q470 -213 481 -205 Q495 -196 505 -182.5 Q515 -169 523 -155 Q528 -147 536.5 -151.5 Q545 -156 540 -164 Q535 -172 530 -179.5 Q525 -187 519 -195 Q508 -209 495 -219.5 Q482 -230 464 -234 Q430 -240 404 -217 Q382 -197 370.5 -169.5 Q359 -142 352 -114 Q345 -84 342.5 -53 Q340 -22 339 9 Q339 50 344.5 89.5 Q350 129 360 167 Q362 176 364.5 185 Q367 194 370 203 Q338 146 299 87 Q282 62 265.5 38 Q249 14 231 -9 Q214 -31 198 -52.5 Q182 -74 164 -94 Q147 -113 127.5 -130.5 Q108 -148 85 -162 Q66 -174 42.5 -181 Q19 -188 -3 -178 Q-14 -173 -21 -165 Q-28 -157 -32 -147 Q-39 -129 -34 -106 Q-31 -86 -20 -68 Q-9 -50 6 -37 Q14 -31 20 -37 Q23 -39 23 -43.5 Q23 -48 20 -51 Q8 -60 -2 -77 Q-11 -91 -15.5 -109.5 Q-20 -128 -12 -144 Q-2 -163 17.5 -163.5 Q37 -164 54 -156 Q76 -147 95 -132 Q114 -117 131 -100 Q148 -83 164 -64 Q180 -45 195 -25 Q229 20 261 66 Q293 112 322 160 Q351 207 375.5 254.5 Q400 302 423 352 Q434 377 444 402 Q454 427 464 453 Q474 479 482.5 506 Q491 533 496 561 Q501 584 500.5 607 Q500 630 492 652 Q479 686 451 702 Q437 711 420.5 715 Q404 719 387 719 Q367 719 348.5 714.5 Q330 710 312 702 Q273 687 237.5 664.5 Q202 642 170 615 Q137 587 109 553.5 Q81 520 61 482 Q42 446 33 406.5 Q24 367 30 326 Q30 316 20 316 Q12 316 10 326 Q8 336 8 346 Q8 356 8 367 Q10 412 26 453.5 Q42 495 67 531 Q93 569 126 601.5 Q159 634 197 661 Q215 674 234.5 685.5 Q254 697 274 706 Q293 716 312.5 723.5 Q332 731 353 735 Q391 743 429.5 733 Q468 723 492 691 Q508 670 514 646 Q520 622 519.5 597 Q519 572 513 546.5 Q507 521 500 499 Q496 487 492.5 474.5 Q489 462 484 451 Q501 477 519 502.5 Q537 528 557 552 Q576 575 596 597 Q616 619 639 638 Q659 654 682 668 Q705 682 731 684 Q756 686 774 669 Q779 664 783.5 657.5 Q788 651 790 644 Z " />
<glyph glyph-name="Z" unicode="Z" horiz-adv-x="583" d="M684 673 Q690 653 684.5 632 Q679 611 669 593 Q657 568 640 546.5 Q623 525 605 505 Q586 483 567.5 461 Q549 439 529 417 Q489 372 448 328 Q407 284 365 242 Q323 200 280 160.5 Q237 121 191 84 Q173 70 155 56.5 Q137 43 119 29 Q142 35 165 38 Q179 40 193.5 39 Q208 38 222 33 Q246 23 255 1 Q260 -11 258.5 -24 Q257 -37 252 -48 Q244 -69 230.5 -87.5 Q217 -106 201 -123 Q234 -132 262 -145 Q266 -147 266.5 -151 Q267 -155 265 -158 Q261 -165 252 -162 Q245 -159 239 -156 Q233 -153 226 -151 Q216 -147 206 -144 Q196 -141 185 -138 Q167 -155 147 -168.5 Q127 -182 106 -194 Q83 -206 60 -215.5 Q37 -225 12 -231 Q-1 -234 -13.5 -235.5 Q-26 -237 -38 -232 Q-49 -228 -58.5 -220.5 Q-68 -213 -70 -201 Q-74 -187 -67.5 -174 Q-61 -161 -51 -151 Q-39 -139 -24.5 -132.5 Q-10 -126 5 -121 Q48 -108 92 -107.5 Q136 -107 179 -117 Q185 -112 190 -106.5 Q195 -101 200 -96 Q208 -87 214 -78 Q220 -69 226 -59 Q231 -50 235 -40 Q239 -30 239 -19 Q239 0 224 10 Q215 17 203.5 18.5 Q192 20 181 19 Q165 19 150 16.5 Q135 14 120 9 Q112 7 104.5 4.5 Q97 2 89 -1 Q85 -3 81.5 -3.5 Q78 -4 74 -6 Q71 -7 67 -9 Q66 -9 66 -9.5 Q66 -10 65 -10 L64 -10 Q63 -10 59 -12 L50 -18 Q38 -26 24.5 -34 Q11 -42 -4 -41 Q-13 -40 -13 -30.5 Q-13 -21 -4 -21 L-2 -21 L1 -21 Q3 -20 4 -19.5 Q5 -19 7 -18 Q18 -13 27 -7.5 Q36 -2 46 3 Q47 4 48 4 Q139 64 221 135 Q264 172 304.5 210.5 Q345 249 384 290 Q426 332 466 375.5 Q506 419 544 464 Q561 484 578.5 504 Q596 524 613 545 Q629 564 642.5 584.5 Q656 605 663 629 Q668 644 667 662 L667 663 Q667 664 666.5 664 Q666 664 666 665 L666 669 Q664 673 664 674 Q664 675 663.5 675.5 Q663 676 663 677 Q662 678 662 678.5 Q662 679 661 680 Q660 682 657 685 L657 686 Q656 686 656 687 Q654 689 654 689 L649 694 L647 695 Q645 697 644 697 Q642 699 638 701 Q625 708 612 712 Q595 717 580 718.5 Q565 720 548 720 Q525 721 503 719 Q481 717 458 713 Q353 693 262 638 Q221 613 184 583 Q147 553 115 516 Q101 499 88 480.5 Q75 462 65 441 Q57 424 52.5 407.5 Q48 391 48 374 Q48 358 51.5 342.5 Q55 327 63 313 Q67 308 71.5 303 Q76 298 83 295 Q85 294 88 293 Q94 291 95 291 L96 291 L97 291 L98 291 L103 291 L111 291 Q116 292 118.5 288.5 Q121 285 121 281 Q121 272 111 272 Q93 269 76 277 Q59 284 49.5 298 Q40 312 35 329 Q25 363 31 401 Q35 421 44 441 Q53 461 64 479 Q77 500 93 519.5 Q109 539 126 556 Q161 591 200.5 620.5 Q240 650 284 673 Q335 700 390.5 716.5 Q446 733 504 738 Q523 740 541 740 Q559 740 578 738 Q595 736 612 732 Q629 728 644 720 Q658 712 669 700.5 Q680 689 684 673 Z M39 -203 Q106 -178 161 -133 Q148 -131 135.5 -129.5 Q123 -128 109 -128 Q79 -126 50 -131 Q35 -133 20 -136.5 Q5 -140 -9 -146 Q-21 -151 -32.5 -160 Q-44 -169 -50 -182 Q-53 -190 -51 -198 Q-50 -203 -42 -209 Q-34 -214 -23.5 -215.5 Q-13 -217 -3 -215 L39 -203 Z " />
<glyph glyph-name="Y" unicode="Y" horiz-adv-x="785" d="M796 554 Q801 558 807 556 Q813 554 813 547 Q812 540 810 533.5 Q808 527 806 521 Q792 489 774 459 Q756 429 742 397 Q723 358 705 319 Q687 280 668 241 Q635 173 602 106 Q569 39 530 -26 Q512 -56 492.5 -85 Q473 -114 450 -142 Q490 -163 524 -195 Q531 -202 524 -208.5 Q517 -215 510 -209 Q498 -198 485 -187 Q462 -171 437 -157 Q415 -183 388.5 -205.5 Q362 -228 329 -238 Q314 -242 298.5 -241.5 Q283 -241 268.5 -235.5 Q254 -230 243 -219.5 Q232 -209 227 -193 Q219 -166 235 -144 Q243 -133 254 -126.5 Q265 -120 277 -115 Q306 -103 337 -106.5 Q368 -110 397 -119 Q406 -122 415 -125.5 Q424 -129 432 -133 Q441 -122 449.5 -111 Q458 -100 466 -88 Q487 -59 506 -28.5 Q525 2 542 34 Q560 66 576 98 Q592 130 608 162 Q625 195 640.5 228 Q656 261 672 295 Q690 333 708 370 Q726 407 743 445 Q748 453 752 462 Q756 471 761 479 Q766 487 770 495 Q774 503 779 511 Q773 506 768 501 Q763 496 757 491 Q705 439 657.5 383 Q610 327 563 270 Q539 241 515.5 213 Q492 185 467 156 Q454 141 441.5 126 Q429 111 415 96 Q404 83 393 70.5 Q382 58 370 46 Q359 35 346.5 26.5 Q334 18 319 13 Q310 11 301.5 11.5 Q293 12 285 19 Q279 24 277 31.5 Q275 39 274 47 Q273 64 276 84 Q282 112 293 143 Q305 178 321.5 211.5 Q338 245 356 277 Q393 341 433 401.5 Q473 462 508 527 Q523 555 536.5 584 Q550 613 558 644 Q561 655 563.5 667.5 Q566 680 564 691 Q559 715 539 722 Q528 726 516 725.5 Q504 725 492 723 Q463 717 438 705 Q411 694 384.5 680.5 Q358 667 333 651 Q309 634 286.5 615.5 Q264 597 244 575 Q239 569 234 563 Q229 557 224 551 Q222 548 222 547.5 Q222 547 220 545 Q218 542 214 538 Q211 533 208 529.5 Q205 526 202 521 Q190 504 178.5 485.5 Q167 467 157 447 Q146 427 138 408 Q130 389 125 368 Q123 363 122.5 358.5 Q122 354 121 349 L121 347 Q120 346 120 345 L120 341 Q120 339 119.5 336.5 Q119 334 119 332 Q119 328 119 324.5 Q119 321 120 316 L121 313 L121 309 Q122 306 124 302 Q124 300 124.5 299.5 Q125 299 125 298 L125 297 Q126 297 126 296 Q127 291 130 289 Q130 288 132 286 L132 285 Q133 285 133 284 Q137 280 138 278 Q140 277 142 275 L143 275 Q143 274 144 274 Q145 273 151 269 Q155 266 159 265 L160 265 Q161 264 162 264 Q166 262 167 262 Q176 259 173.5 249.5 Q171 240 162 243 Q142 249 128 262 Q113 275 106.5 292 Q100 309 100 328 Q100 347 104.5 366 Q109 385 115 402 Q130 443 153 480.5 Q176 518 202 553 Q224 583 247 606 Q299 656 362 691 Q385 704 412 715 Q426 721 439 726.5 Q452 732 466 736 Q490 744 519 745 Q548 746 568 726 Q577 716 580.5 703.5 Q584 691 583.5 677.5 Q583 664 580 650.5 Q577 637 573 626 Q562 594 547.5 563 Q533 532 516 502 Q481 437 440 376 Q399 315 364 250 Q348 221 334 192 Q320 163 309 132 Q307 124 305 117 Q303 110 301 103 Q297 92 296 84 Q296 82 295.5 79.5 Q295 77 295 75 Q295 74 294.5 74 Q294 74 294 73 L294 72 L294 68 Q293 63 293 59 Q293 55 293 50 L293 46 L294 45 L294 44 Q294 42 294.5 41 Q295 40 295 38 Q296 37 296 36 L297 35 Q297 35 298 33 Q299 33 299 32 Q299 32 301 31 L303 31 L304 31 L308 31 L309 31 L311 31 Q312 31 313 31.5 Q314 32 315 32 Q318 34 321 34.5 Q324 35 327 37 Q339 44 351 54 Q363 65 373.5 77.5 Q384 90 395 103 Q421 132 446.5 162 Q472 192 498 222 Q522 251 545.5 279.5 Q569 308 593 337 Q641 394 690.5 449 Q740 504 796 554 Z M374 -192 Q387 -182 397.5 -171 Q408 -160 419 -148 Q405 -142 390 -137 Q375 -132 359 -129 Q351 -127 342.5 -126.5 Q334 -126 326 -125 Q321 -125 316 -125.5 Q311 -126 306 -127 Q282 -132 264 -143 Q260 -146 256 -149.5 Q252 -153 250 -157 Q244 -165 244 -174 Q243 -185 249 -195.5 Q255 -206 266 -213 Q293 -229 322 -219.5 Q351 -210 374 -192 Z M294 45 L293 46 Q294 45 294 45 Z " />
<glyph glyph-name="a" unicode="a" horiz-adv-x="144" d="M142 382 Q149 389 156 382 Q163 375 156 368 Q141 354 126 339 Q111 324 96 310 Q83 297 71 284.5 Q59 272 46 260 Q39 255 32.5 250 Q26 245 19 241 Q8 234 -1 234 Q-11 235 -13.5 242 Q-16 249 -14.5 258 Q-13 267 -10 276 Q-7 285 -5 290 Q-4 292 -3 293.5 Q-2 295 -2 297 Q-5 294 -8 292 Q-13 287 -19 282.5 Q-25 278 -32 276 Q-48 271 -52 287 Q-54 293 -52 300 Q-50 307 -48 313 Q-46 321 -43 327 Q-40 333 -36 340 Q-28 352 -19.5 363.5 Q-11 375 0 384 Q5 389 11.5 392.5 Q18 396 25 397 Q34 399 38.5 393.5 Q43 388 45 380 Q46 375 43.5 372 Q41 369 37.5 368.5 Q34 368 30.5 369 Q27 370 26 375 Q26 376 25 377 Q24 377 20 375 Q18 373 15.5 371.5 Q13 370 11 368 Q6 363 2 358.5 Q-2 354 -6 349 Q-24 326 -31 302 Q-32 301 -32 297 L-14 312 Q8 330 28 351 L29 352 Q35 359 43 354.5 Q51 350 46 342 Q36 328 27.5 312.5 Q19 297 13 281 Q11 275 8.5 268.5 Q6 262 5 255 Q6 255 6 255.5 Q6 256 7 256 Q19 263 29.5 272 Q40 281 49 291 Q72 314 95.5 336.5 Q119 359 142 382 Z " />
<glyph glyph-name="b" unicode="b" horiz-adv-x="190" d="M132 522 Q79 453 23 389 Q16 373 9 357.5 Q2 342 -5 326 Q13 348 34 371 Q45 382 57 393.5 Q69 405 84 409 Q94 412 102 406 Q106 402 108 392 Q109 377 101 359 Q99 356 97.5 352.5 Q96 349 94 345 Q119 353 142.5 362 Q166 371 189 384 Q193 386 196.5 384.5 Q200 383 202 380 Q204 377 203.5 373 Q203 369 199 367 Q171 351 141.5 341 Q112 331 82 321 Q81 320 80 320 Q79 320 77 319 Q74 315 71 311 Q68 307 64 303 Q54 290 43 280 Q38 275 31.5 270.5 Q25 266 17 264 Q7 262 2 268.5 Q-3 275 -3 284 Q-3 300 10 311 Q17 316 24 319.5 Q31 323 39 326 Q46 328 52 330.5 Q58 333 65 335 Q72 345 78 356 Q84 367 87 378 Q88 382 88 390 Q87 390 86 389 Q80 387 75 383.5 Q70 380 65 375 Q55 365 45.5 354.5 Q36 344 27 333 Q-11 291 -39 243 Q-43 235 -51.5 238.5 Q-60 242 -56 250 Q-54 256 -51.5 262 Q-49 268 -47 275 Q-39 294 -31 313 Q-23 332 -15 352 Q-5 374 4.5 394 Q14 414 17 422 Q29 445 40 468 Q64 516 90 561.5 Q116 607 145 652 Q152 663 159.5 673.5 Q167 684 175 694 Q183 704 190.5 713.5 Q198 723 207 731 Q213 736 221.5 739 Q230 742 238 739 Q247 734 248 726 Q250 718 247.5 712 Q245 706 243 700 Q220 652 191.5 608 Q163 564 132 522 Z M229 722 Q229 721 229 721 L229 722 Z M140 607 Q118 571 97.5 534.5 Q77 498 58 460 Q75 481 92 502.5 Q109 524 126 547 Q140 567 154 587.5 Q168 608 182 630 Q194 649 207 673 Q210 678 213 683.5 Q216 689 218 695 Q221 700 224 705.5 Q227 711 229 717 L229 721 Q228 721 227 720 Q225 720 226 720 Q227 720 225 719 Q224 719 223.5 718.5 Q223 718 222 718 L221 717 L218 714 L210 706 Q201 697 194 687 Q178 668 165.5 647.5 Q153 627 140 607 Z M23 289 Q32 296 41 306 Q36 303 31 301 Q19 296 16 286 L16 285 Q18 285 18 286 Q22 288 23 289 Z " />
<glyph glyph-name="c" unicode="c" horiz-adv-x="100" d="M98 382 Q105 389 111.5 382 Q118 375 111 369 Q92 351 73 333.5 Q54 316 34 298 Q26 291 18 284.5 Q10 278 1 271 Q-7 266 -16.5 261.5 Q-26 257 -36 260 Q-48 264 -49.5 275.5 Q-51 287 -49 297 Q-45 317 -35 338 Q-30 347 -24.5 355.5 Q-19 364 -12 372 Q-7 378 -1 383.5 Q5 389 12 393 Q20 398 28 398 Q36 398 43 391 Q50 384 50 374 Q50 364 42 358 Q34 352 28 358 Q26 361 25.5 365.5 Q25 370 28 372 Q31 375 30 378 L28 378 L27 378 L25 378 Q20 376 15 371.5 Q10 367 6 363 Q-15 339 -26 308 Q-27 304 -28 300 Q-29 296 -30 292 Q-31 290 -31.5 285.5 Q-32 281 -30 279 L-30 278 L-28 278 Q-27 278 -27 279 Q-23 279 -22 280 Q-17 282 -9 288 Q5 298 17.5 309.5 Q30 321 43 333 Q57 345 70.5 357.5 Q84 370 98 382 Z " />
<glyph glyph-name="d" unicode="d" horiz-adv-x="174" d="M285 724 Q289 722 290 718 Q291 714 289 711 Q287 708 284.5 704.5 Q282 701 280 698 Q254 663 231 626 Q208 589 185 551 Q165 518 146 485 Q127 452 106 419 Q97 402 88 384 Q79 366 70 348 Q64 336 58 324 Q52 312 47 299 Q47 299 44.5 293 Q42 287 40 279 Q38 271 35.5 262 Q33 253 33 246 L33 245 Q35 247 36.5 247.5 Q38 248 39 249 Q46 254 52.5 259.5 Q59 265 65 271 Q93 298 119.5 326 Q146 354 173 382 Q180 389 186.5 382 Q193 375 187 368 Q170 351 153 333.5 Q136 316 119 298 Q105 283 91 268.5 Q77 254 61 240 Q53 235 43 228 Q33 221 24 226 Q18 229 17 233 Q14 239 14.5 249 Q15 259 16.5 268.5 Q18 278 20.5 286.5 Q23 295 24 298 L24 300 Q20 294 15.5 287.5 Q11 281 6 276 Q1 269 -7.5 263 Q-16 257 -26 260 Q-35 263 -38 273 Q-41 283 -41 291 Q-40 300 -37.5 309 Q-35 318 -32 326 Q-26 347 -16 362 Q-12 369 -6 376.5 Q0 384 7 390 Q14 396 22.5 398.5 Q31 401 40 398 Q54 392 56 378 Q65 391 73 403 Q81 415 89 428 Q97 444 105.5 459.5 Q114 475 123 490 Q155 547 190 601 Q225 655 263 708 Q265 711 267.5 714.5 Q270 718 272 721 Q278 728 285 724 Z M37 366 Q38 372 37 376 Q37 377 36 378 L34 379 Q26 381 20 376 Q13 371 8.5 364.5 Q4 358 0 351 Q-9 334 -15 317 Q-17 309 -19.5 302 Q-22 295 -21 287 Q-21 285 -20.5 283.5 Q-20 282 -20 280 Q-20 280 -19 279 Q-17 279 -15 281.5 Q-13 284 -11 285 Q0 297 8.5 310.5 Q17 324 27 337 L36 349 Q34 353 35 356 Q37 362 37 366 Z " />
<glyph glyph-name="e" unicode="e" horiz-adv-x="114" d="M113 382 Q120 389 127 382 Q134 375 127 368 Q104 345 78 324.5 Q52 304 25 285 Q14 277 3.5 270 Q-7 263 -19 258 Q-25 256 -31.5 254.5 Q-38 253 -44 255 Q-57 258 -62 271 Q-65 280 -61 292 Q-60 303 -55 314 Q-45 341 -25 362 Q-16 372 -5 380.5 Q6 389 19 394 Q24 396 30.5 397 Q37 398 42 394 Q48 390 48 383 Q48 376 46 371 Q42 359 33.5 349 Q25 339 15 331 Q10 326 4 323 Q-2 320 -10 322 Q-20 324 -23 334 Q-26 329 -29 324.5 Q-32 320 -34 314 Q-36 309 -37.5 304 Q-39 299 -41 294 Q-43 286 -43 281 Q-45 275 -40 274 Q-37 272 -33.5 273 Q-30 274 -27 276 Q-18 280 -9.5 285.5 Q-1 291 7 296 Q17 303 26.5 309.5 Q36 316 45 323 Q81 350 113 382 Z M22 375 Q13 370 5 363.5 Q-3 357 -11 349 L-11 348 Q-10 348 -9 347.5 Q-8 347 -7 347 Q-4 344 -3 342 L-1 342 Q1 344 2 345.5 Q3 347 5 349 Q10 353 13.5 356.5 Q17 360 21 364 Q23 367 24.5 370 Q26 373 28 377 Q24 375 22 375 Z " />
<glyph glyph-name="f" unicode="f" horiz-adv-x="153" d="M-45 257 Q-50 247 -55 237.5 Q-60 228 -65 218 Q-75 198 -84 179 Q-93 160 -103 140 Q-98 145 -94 148.5 Q-90 152 -85 157 L152 382 Q159 389 165.5 382 Q172 375 165 369 Q148 352 131 335.5 Q114 319 97 302 Q66 273 36 244.5 Q6 216 -25 187 Q-40 173 -55 158.5 Q-70 144 -86 130 L-110 106 Q-112 104 -114.5 101.5 Q-117 99 -120 97 Q-114 86 -114 73 Q-113 61 -114 49 Q-115 37 -117 25 Q-120 -1 -126 -26 Q-136 -69 -155 -115 Q-173 -158 -202 -195 Q-210 -205 -217.5 -214 Q-225 -223 -235 -230 Q-240 -233 -245.5 -234 Q-251 -235 -256 -231 Q-256 -230 -257 -230 Q-260 -227 -261 -224 Q-265 -216 -263.5 -202.5 Q-262 -189 -258 -177 L-255 -168 Q-252 -157 -248.5 -147 Q-245 -137 -241 -127 Q-231 -98 -220.5 -70 Q-210 -42 -198 -14 Q-185 15 -172 43 Q-159 71 -145 100 Q-145 103 -141 107 Q-133 125 -124 142 Q-115 159 -107 176 L-56 278 Q-54 282 -53 285 Q-49 291 -46 297 Q-43 303 -40 309 Q-34 321 -27.5 333 Q-21 345 -14 358 Q-11 364 -7.5 370 Q-4 376 -1 382 Q4 395 6 397 Q11 409 17 420.5 Q23 432 29 444 Q53 492 78.5 537.5 Q104 583 133 628 Q141 639 148 649 Q155 659 163 670 Q171 679 178.5 688.5 Q186 698 195 706 Q201 711 209.5 714.5 Q218 718 226 714 Q234 711 236 701 Q238 694 236 688 Q234 682 231 675 Q208 627 180 583 Q152 539 120 497 Q108 481 95.5 465.5 Q83 450 71 435 Q62 424 52 412.5 Q42 401 33 390 Q22 378 12 366 L2 345 L-45 257 Z M128 582 Q106 546 86 509.5 Q66 473 46 435 Q64 457 80.5 478 Q97 499 114 522 Q145 564 170 605 Q177 616 183 626.5 Q189 637 195 648 Q198 654 201 659.5 Q204 665 207 670 Q209 675 212 681 Q215 687 217 692 L217 696 L215 696 L213 695 Q211 693 211 693 Q210 693 209 692 L206 689 Q201 686 198 681 Q193 676 189.5 672 Q186 668 182 663 Q167 644 154 623.5 Q141 603 128 582 Z M-135 41 Q-134 49 -133.5 56.5 Q-133 64 -133 72 Q-134 74 -134 77 Q-149 46 -163.5 15 Q-178 -16 -191 -48 Q-199 -65 -205 -82.5 Q-211 -100 -217 -117 Q-224 -135 -230 -152.5 Q-236 -170 -241 -188 Q-243 -193 -244.5 -199.5 Q-246 -206 -245 -212 Q-244 -212 -243 -211 Q-239 -209 -236.5 -205.5 Q-234 -202 -231 -199 Q-210 -178 -194 -148 Q-177 -120 -166 -90.5 Q-155 -61 -147 -29 Q-138 6 -135 41 Z " />
<glyph glyph-name="g" unicode="g" horiz-adv-x="146" d="M159 382 Q166 375 159 368 Q154 361 148 354.5 Q142 348 137 341 Q91 286 46 231.5 Q1 177 -44 122 L-76 83 Q-77 82 -77 81.5 Q-77 81 -78 80 L-141 -52 Q-157 -84 -173 -115.5 Q-189 -147 -207 -178 Q-214 -189 -223.5 -200.5 Q-233 -212 -247 -215 Q-263 -219 -272 -205 Q-275 -199 -276 -192 Q-277 -185 -277 -178 Q-275 -146 -259 -118.5 Q-243 -91 -226 -68 Q-204 -39 -181.5 -12 Q-159 15 -136 42 Q-125 55 -114.5 68 Q-104 81 -93 94 Q-88 103 -84 112 Q-80 121 -76 131 Q-60 163 -45 195 Q-30 227 -15 259 L8 305 L-6 291 Q-11 286 -16.5 282 Q-22 278 -29 276 Q-45 271 -49 287 Q-51 293 -50 300 Q-49 307 -47 313 Q-45 321 -42 327 Q-39 333 -35 340 Q-28 352 -20 363.5 Q-12 375 -1 384 Q4 389 10 392.5 Q16 396 23 397 Q32 399 37 393.5 Q42 388 44 380 Q46 371 37 368.5 Q28 366 25 375 L25 377 Q22 377 20 375 Q17 373 14.5 371.5 Q12 370 10 368 Q1 359 -6 349 Q-14 338 -20 326.5 Q-26 315 -29 302 Q-29 301 -29.5 300 Q-30 299 -30 297 L-12 312 Q-1 321 9 330.5 Q19 340 28 351 L29 352 Q34 359 42 355 Q50 351 47 343 L46 342 L36 320 Q16 278 -2.5 238 Q-21 198 -41 157 L145 382 Q151 390 159 382 Z M-137 3 Q-132 11 -129 19 Q-131 17 -131.5 16 Q-132 15 -134 13 Q-155 -13 -177 -38.5 Q-199 -64 -219 -92 Q-227 -104 -235 -117 Q-243 -130 -249 -144 Q-254 -155 -256.5 -167.5 Q-259 -180 -256 -192 Q-256 -195 -255 -196 L-254 -196 Q-252 -197 -247 -194 Q-239 -189 -230 -177 Q-222 -168 -215 -152 Q-210 -144 -206.5 -137 Q-203 -130 -198 -122 Q-182 -91 -167 -60 Q-152 -29 -137 3 Z " />
<glyph glyph-name="h" unicode="h" horiz-adv-x="185" d="M128 514 Q102 480 75.5 448 Q49 416 21 384 L-2 336 Q26 369 64 400 Q71 406 78.5 412 Q86 418 95 422 Q103 424 109 421 Q115 418 117 410 Q118 399 113 385 Q110 377 107 370 Q104 363 100 356 Q81 318 62 280 Q43 242 29 202 Q28 202 28 201 L37 213 Q56 236 74.5 259.5 Q93 283 111 306 Q128 328 145.5 347.5 Q163 367 185 384 Q189 386 193 384.5 Q197 383 199 380 Q202 372 195 367 Q171 348 153 327 Q136 307 119.5 286 Q103 265 86 243 Q78 232 69 221 Q60 210 51 199 Q46 194 42 188 Q38 182 33 176 Q31 174 29.5 172 Q28 170 26 168 Q24 166 24 166 Q21 162 14.5 157.5 Q8 153 1 158 Q-4 164 -2 173 Q-2 173 -1 175 Q1 183 2 186 Q16 227 34 265 Q52 303 71 341 Q78 355 85.5 369.5 Q93 384 97 399 L97 401 Q89 396 82 389.5 Q75 383 67 377 Q51 363 36 348 Q21 333 7 317 Q-5 303 -17 287 Q-29 271 -37 253 Q-41 244 -49 247 Q-53 248 -55.5 251.5 Q-58 255 -56 259 Q-53 265 -50.5 271 Q-48 277 -46 283 Q-42 291 -38.5 299.5 Q-35 308 -31 317 L17 421 Q22 432 26.5 441.5 Q31 451 36 461 Q83 553 141 645 Q154 666 171 687 Q186 708 203 724 Q209 729 217.5 732 Q226 735 234 732 Q243 727 244 718 Q246 711 243.5 705 Q241 699 239 693 Q216 645 188 600.5 Q160 556 128 514 Z M136 600 Q114 564 93.5 527 Q73 490 54 452 Q71 474 88 495.5 Q105 517 122 540 Q137 560 150.5 580.5 Q164 601 178 622 Q185 633 191 644 Q197 655 203 666 Q206 671 209 676.5 Q212 682 214 688 Q217 693 220 698.5 Q223 704 225 710 L225 714 L225 713 Q221 712 217.5 709.5 Q214 707 212 705 Q210 702 206 698 Q201 693 197.5 689 Q194 685 190 680 Q175 661 162 640.5 Q149 620 136 600 Z " />
<glyph glyph-name="i" unicode="i" horiz-adv-x="84" d="M83 383 Q86 386 90 385 Q94 384 96.5 381 Q99 378 99 374 Q99 370 96 367 Q72 343 47 321 Q36 311 24.5 301.5 Q13 292 1 283 Q-2 281 -4.5 278.5 Q-7 276 -10 274 Q-18 268 -23 267 Q-30 265 -35 269 Q-40 273 -41 281 Q-43 288 -40.5 294.5 Q-38 301 -36 307 Q-31 324 -26 335 Q-19 349 -12 362.5 Q-5 376 3 389 Q6 393 9.5 393 Q13 393 16 390.5 Q19 388 20.5 384.5 Q22 381 19 377 Q11 364 4 351 Q-3 338 -9 324 Q-11 318 -13.5 312 Q-16 306 -18 301 Q-19 299 -20 296 Q-21 293 -22 291 Q-16 295 -13 298 Q-8 302 -3.5 305.5 Q1 309 6 314 Q26 330 45 347.5 Q64 365 83 383 Z M40 436 Q35 436 33 439.5 Q31 443 31 446.5 Q31 450 33.5 453 Q36 456 41 456 Q45 456 47.5 452.5 Q50 449 49.5 445 Q49 441 46.5 438.5 Q44 436 40 436 Z " />
<glyph glyph-name="j" unicode="j" horiz-adv-x="102" d="M114 382 Q121 375 114 369 Q109 361 103 354.5 Q97 348 91 341 L-98 122 Q-106 112 -114.5 102.5 Q-123 93 -132 83 Q-132 82 -132.5 81.5 Q-133 81 -133 80 L-202 -52 Q-219 -84 -235.5 -116 Q-252 -148 -272 -179 Q-279 -190 -289 -201.5 Q-299 -213 -313 -215 Q-320 -217 -327 -214.5 Q-334 -212 -338 -205 Q-341 -199 -341.5 -192 Q-342 -185 -341 -178 Q-339 -146 -322 -119 Q-305 -92 -286 -68 Q-264 -39 -240 -12 Q-216 15 -193 42 Q-182 55 -170.5 68 Q-159 81 -148 94 Q-143 103 -138.5 112 Q-134 121 -129 131 Q-96 195 -63.5 258.5 Q-31 322 1 387 Q5 395 13.5 390 Q22 385 18 377 Q13 369 9.5 360.5 Q6 352 2 344 Q-22 296 -46 250 Q-70 204 -94 157 L101 382 Q103 385 107.5 385 Q112 385 114 382 Z M-195 3 Q-193 7 -190.5 11 Q-188 15 -186 20 Q-188 17 -192 13 Q-215 -13 -237.5 -38.5 Q-260 -64 -280 -92 Q-301 -118 -312 -144 Q-317 -155 -320.5 -167.5 Q-324 -180 -322 -192 Q-321 -193 -321 -194 Q-321 -195 -320 -196 L-319 -197 Q-316 -197 -313 -194 Q-308 -192 -303.5 -187.5 Q-299 -183 -295 -178 Q-290 -172 -286.5 -165.5 Q-283 -159 -278 -152 Q-274 -144 -270 -137 Q-266 -130 -261 -122 Q-244 -91 -228 -60 Q-212 -29 -195 3 Z M31 429 Q22 429 22 439 Q22 449 31 449 Q41 449 41 439 Q41 429 31 429 Z " />
<glyph glyph-name="k" unicode="k" horiz-adv-x="143" d="M130 515 Q80 453 28 395 L-5 329 Q47 390 109 436 Q112 438 116 437 Q120 436 122 432 Q127 425 119 419 Q108 411 98 403 Q88 395 78 386 Q50 362 26 334 Q25 326 25 318 Q25 310 25 302 Q25 291 28 282 Q35 284 41.5 289 Q48 294 53 298 Q61 305 68.5 311.5 Q76 318 84 325 Q99 339 113.5 353 Q128 367 142 382 Q149 389 156 382 Q163 375 156 368 Q146 357 136.5 347.5 Q127 338 117 328 Q107 320 98 311.5 Q89 303 80 295 Q75 291 70 287 Q65 283 60 279 Q55 276 50.5 272 Q46 268 41 266 Q36 264 28.5 262 Q21 260 16 264 Q11 268 9.5 274 Q8 280 7 285 Q6 292 5.5 298 Q5 304 6 311 Q-19 282 -41 247 Q-46 240 -53 243 Q-56 245 -58.5 248 Q-61 251 -59 254 Q-56 261 -53.5 267 Q-51 273 -48 280 Q-43 292 -37.5 304.5 Q-32 317 -26 329 Q-25 333 -18 347 Q-11 361 -2.5 378 Q6 395 14 412 Q22 429 27 438 Q36 457 47 475 Q73 523 100.5 569.5 Q128 616 159 661 Q167 672 174.5 682.5 Q182 693 190 703 Q198 713 207 722.5 Q216 732 227 740 Q238 749 251 743 Q260 738 260 726 Q261 715 255 704 Q249 693 244 684 Q219 639 190.5 597 Q162 555 130 515 Z M152 616 Q106 543 63 465 Q79 483 94.5 501.5 Q110 520 125 540 Q154 578 181 618.5 Q208 659 231 702 Q238 712 240 720 Q241 722 241 726 Q240 725 239 725 Q238 724 237 723.5 Q236 723 235 722 Q233 720 231 718 Q229 716 227 714 Q222 709 218 705 Q214 701 210 696 Q193 677 179.5 656.5 Q166 636 152 616 Z " />
<glyph glyph-name="l" unicode="l" horiz-adv-x="106" d="M248 726 Q250 718 247.5 712 Q245 706 243 700 Q220 652 191.5 608 Q163 564 132 522 Q79 453 23 389 L14 368 L-4 326 Q-11 310 -17 295 Q-23 280 -28 263 Q-30 255 -32 247.5 Q-34 240 -35 232 L-35 227 Q-33 227 -31 228.5 Q-29 230 -28 231 Q-22 235 -17 241 Q-12 247 -7 252 Q-2 258 4 264.5 Q10 271 16 278 Q39 304 61 330 Q83 356 105 382 Q113 390 119 382 Q125 376 119 368 Q113 361 107.5 354 Q102 347 96 340 Q73 312 48.5 284.5 Q24 257 0 231 Q-5 225 -10.5 219.5 Q-16 214 -24 211 Q-31 207 -38.5 207.5 Q-46 208 -51 216 Q-56 223 -55 231.5 Q-54 240 -52 248 Q-50 257 -47.5 266 Q-45 275 -42 283 Q-35 303 -27 322 Q-19 341 -11 360 L-11 361 Q-11 361 -9 365 Q-7 368 -2.5 378.5 Q2 389 4 393 Q9 403 12 410.5 Q15 418 17 422 Q29 445 40 468 Q64 516 90 561.5 Q116 607 145 652 Q152 663 159.5 673.5 Q167 684 175 694 Q183 704 190.5 713.5 Q198 723 207 731 Q213 736 221.5 739 Q230 742 238 739 Q247 734 248 726 Z M229 721 Q228 721 227 720 Q225 720 226 720 Q227 720 225 719 Q224 719 223.5 718.5 Q223 718 222 718 L221 717 L218 714 L210 706 Q201 697 194 687 Q178 668 165.5 647.5 Q153 627 140 607 Q118 571 97.5 534.5 Q77 498 58 460 Q75 481 92 502.5 Q109 524 126 547 Q141 567 154.5 587.5 Q168 608 182 630 Q194 649 207 673 Q210 678 213 683.5 Q216 689 219 695 Q221 700 224 705.5 Q227 711 229 717 L229 721 Z M229 721 L229 722 Q229 721 229 721 Z " />
<glyph glyph-name="m" unicode="m" horiz-adv-x="259" d="M258 382 Q265 389 272 382 Q279 375 272 368 Q267 363 262 358.5 Q257 354 252 349 Q232 329 213 310 Q194 291 174 272 Q165 263 156.5 254.5 Q148 246 137 238 Q130 233 120 230.5 Q110 228 103 236 Q100 240 100 244.5 Q100 249 101 254 Q103 260 105.5 266 Q108 272 111 277 Q121 298 135 320 Q138 325 141 330 Q144 335 147 340 Q149 344 149 345 Q149 344 148 344 L130 329 Q113 313 96.5 297 Q80 281 63 266 Q58 261 51.5 256.5 Q45 252 38 257 Q33 260 32.5 265 Q32 270 33.5 275.5 Q35 281 37.5 286.5 Q40 292 42 295 Q50 312 60 327 Q70 342 78 359 Q78 361 80 365 L80 366 L81 366 L81 367 Q79 366 78.5 365.5 Q78 365 76 364 Q56 350 39.5 332.5 Q23 315 7 297 Q-10 277 -26.5 256 Q-43 235 -59 215 Q-64 210 -70.5 213 Q-77 216 -76 222 Q-74 234 -69.5 244 Q-65 254 -60 265 L-39 307 Q-28 329 -17 350.5 Q-6 372 5 393 Q7 397 10.5 397.5 Q14 398 17 396.5 Q20 395 22 391 Q24 387 22 383 Q11 363 1 342.5 Q-9 322 -20 301 Q-22 297 -23.5 293.5 Q-25 290 -27 286 Q-18 297 -9 307.5 Q0 318 10 329 Q18 338 26.5 346.5 Q35 355 45 363 Q53 371 62 377.5 Q71 384 81 389 Q88 392 95 390.5 Q102 389 104 381 Q105 375 102.5 368.5 Q100 362 98 356 Q91 341 82.5 327 Q74 313 66 298 Q64 296 62 292 Q71 300 80.5 308.5 Q90 317 99 326 Q108 334 116.5 342 Q125 350 135 358 Q138 361 143.5 364 Q149 367 154 369 Q159 371 164.5 370 Q170 369 173 363 Q176 358 174.5 353 Q173 348 171 343 L159 322 Q152 311 146 301 Q140 291 134 280 Q132 275 129 270 Q126 265 124 259 Q123 257 121 251 Q123 253 124 253 Q129 256 133.5 260 Q138 264 142 268 Q152 277 161 286 Q170 295 179 304 Q199 324 218.5 343 Q238 362 258 382 Z M92 373 L91 372 Q92 373 92 373 Z M161 351 L160 351 L161 351 L161 351 Z M120 245 L120 246 L120 245 L120 245 Z " />
<glyph glyph-name="n" unicode="n" horiz-adv-x="169" d="M167 382 Q175 389 181.5 382 Q188 375 181 368 Q160 348 139 328 Q118 308 95 288 Q89 283 82.5 278 Q76 273 68 270 Q61 267 53 270 Q47 274 45 285 Q43 296 47 307 Q51 318 56 328 Q58 333 60.5 337.5 Q63 342 65 347 Q66 350 66.5 352.5 Q67 355 68 358 Q69 358 69 361 L68 361 Q65 359 60 354 Q55 349 50 345.5 Q45 342 40 337 Q31 329 21.5 320 Q12 311 4 301 Q-35 261 -62 219 Q-65 215 -68.5 214.5 Q-72 214 -75 215.5 Q-78 217 -79.5 220.5 Q-81 224 -79 228 L8 399 Q10 403 14 403.5 Q18 404 21 402 Q24 400 25.5 396.5 Q27 393 25 389 L-17 308 Q-13 312 -10 315.5 Q-7 319 -3 322 Q6 332 15.5 341 Q25 350 35 358 Q44 367 55 375 Q60 379 66 381 Q72 383 78 381 Q91 376 89 362.5 Q87 349 83 340 Q78 329 73 319 Q68 309 66 298 Q64 292 64 289 Q71 293 76 297 Q81 301 86 306 Q106 325 126.5 344 Q147 363 167 382 Z M72 363 Q74 364 73.5 363.5 Q73 363 72 363 Z " />
<glyph glyph-name="o" unicode="o" horiz-adv-x="123" d="M134 379 Q135 370 127 367 Q85 350 41 346 Q43 338 41 329 Q39 320 36 312 Q30 295 18.5 280 Q7 265 -10 257 Q-24 250 -35 257 Q-40 260 -42 266 Q-44 272 -45 277 Q-46 288 -43.5 298.5 Q-41 309 -38 319 Q-30 339 -18.5 357 Q-7 375 5 392 Q11 400 18 396 Q27 391 22 382 Q19 377 15.5 372.5 Q12 368 8 363 Q12 364 16 364 Q20 364 23 364 Q74 367 122 385 Q126 387 129.5 384.5 Q133 382 134 379 Z M22 341 Q22 343 21 344 Q18 343 14.5 343 Q11 343 8 343 Q1 343 -1 349 Q-12 332 -19 315 Q-20 311 -21 307.5 Q-22 304 -23 300 Q-24 298 -24 295.5 Q-24 293 -25 291 L-25 290 L-25 288 L-25 284 L-25 279 L-25 277 Q-25 276 -24.5 275.5 Q-24 275 -24 274 L-24 273 L-23 273 L-22 273 Q-21 273 -20.5 273.5 Q-20 274 -18 274 Q-5 279 3.5 290.5 Q12 302 17 315 Q19 320 21.5 327 Q24 334 22 341 Z " />
<glyph glyph-name="p" unicode="p" horiz-adv-x="165" d="M163 383 Q171 388 175.5 379.5 Q180 371 173 366 Q147 349 119 336 Q91 323 61 312 L59 312 Q57 309 51 303 Q29 282 6 271 Q-4 265 -19 259.5 Q-34 254 -44 263 Q-48 255 -51 251 Q-82 191 -112.5 132.5 Q-143 74 -172 14 Q-202 -46 -230.5 -105.5 Q-259 -165 -287 -226 Q-293 -235 -301 -229 Q-305 -227 -305.5 -223.5 Q-306 -220 -304 -216 L-241 -81 Q-212 -21 -182 38 Q-152 97 -122 157 Q-91 217 -59.5 275 Q-28 333 4 393 Q6 397 10 397.5 Q14 398 17 396 Q20 394 21.5 390.5 Q23 387 21 383 Q17 376 13.5 369 Q10 362 6 355 Q8 357 9 357.5 Q10 358 12 360 Q19 365 25.5 369 Q32 373 39 377 Q47 382 55.5 386 Q64 390 72 390 Q80 390 86.5 386.5 Q93 383 95 375 Q97 367 94 360 Q91 353 87 347 Q86 345 85 344 Q84 343 83 341 Q104 350 124 360 Q144 370 163 383 Z M54 363 Q12 341 -19 305 Q-15 307 -14 307 Q1 313 16.5 318.5 Q32 324 48 329 Q60 341 71 358 Q72 360 75 365 Q78 370 74 370 Q69 371 64 368 Q59 365 54 363 Z M6 293 Q7 294 7.5 294 Q8 294 9 295 L8 295 Q-2 291 -12 287 Q-22 283 -30 278 Q-28 277 -27.5 277.5 Q-27 278 -26 278 Q-20 280 -16 282 Q-10 284 -4.5 287 Q1 290 6 293 Z " />
<glyph glyph-name="q" unicode="q" horiz-adv-x="122" d="M136 384 Q139 382 140.5 378 Q142 374 139 370 L118 343 Q97 317 75.5 291 Q54 265 31 239 Q20 226 8 213.5 Q-4 201 -15 188 Q-21 182 -27 175.5 Q-33 169 -38 163 Q-44 157 -49.5 151.5 Q-55 146 -60 140 Q-65 133 -66.5 126 Q-68 119 -70 111 Q-71 103 -72 95 Q-73 87 -75 79 Q-79 62 -82.5 46.5 Q-86 31 -90 14 Q-99 -18 -110.5 -49.5 Q-122 -81 -136 -113 Q-150 -143 -165.5 -172 Q-181 -201 -202 -226 Q-207 -232 -214.5 -235 Q-222 -238 -228 -231 Q-233 -226 -233.5 -219 Q-234 -212 -233 -205 Q-231 -188 -225.5 -172 Q-220 -156 -214 -140 Q-189 -76 -162 -13.5 Q-135 49 -105 111 Q-90 142 -75 172 Q-60 202 -43 233 Q-35 248 -27 263 Q-19 278 -10 293 Q-9 295 -9 295.5 Q-9 296 -8 298 Q-9 296 -10 295.5 Q-11 295 -12 293 Q-17 288 -23 284 Q-29 280 -37 278 Q-45 276 -51 282 Q-57 288 -56 296 Q-55 310 -48 324 Q-41 338 -33 349 Q-25 360 -14.5 371.5 Q-4 383 8 392 Q14 397 21.5 399 Q29 401 35 395 Q41 390 40 383 Q39 376 33 371 Q30 369 26 370 Q22 371 20 374 Q20 375 19 376 Q17 374 15.5 373 Q14 372 12 370 Q7 365 2.5 360.5 Q-2 356 -7 351 Q-15 341 -22 331 Q-29 321 -33 309 Q-34 307 -35 304.5 Q-36 302 -36 300 Q-32 302 -29 305 Q-26 307 -23.5 309.5 Q-21 312 -18 314 Q1 331 17 354 Q20 359 26 359 Q33 359 36 356 Q40 353 38 347 Q36 339 32.5 332 Q29 325 26 318 Q18 303 9.5 288.5 Q1 274 -7 260 Q-15 246 -22.5 231 Q-30 216 -38 202 Q-40 197 -43 191.5 Q-46 186 -49 180 Q-4 228 39 278 Q82 328 122 380 Q130 388 136 384 Z M-220 -216 Q-219 -215 -219 -215 Q-220 -216 -220 -216 Z M-98 67 Q-96 73 -95 79.5 Q-94 86 -92 92 Q-94 90 -94.5 87.5 Q-95 85 -97 83 Q-126 23 -151 -37 Q-164 -68 -176.5 -98.5 Q-189 -129 -200 -160 Q-203 -168 -205.5 -176 Q-208 -184 -210 -192 Q-212 -196 -212.5 -200 Q-213 -204 -214 -209 L-214 -210 Q-212 -208 -210 -205.5 Q-208 -203 -206 -200 Q-196 -187 -189 -174 Q-172 -146 -158.5 -117 Q-145 -88 -134 -58 Q-111 5 -98 67 Z " />
<glyph glyph-name="r" unicode="r" horiz-adv-x="165" d="M163 382 Q170 389 176.5 382 Q183 375 177 368 Q165 356 153 344 Q141 332 129 321 Q109 301 88.5 281 Q68 261 45 245 Q41 242 36 239.5 Q31 237 26 236 Q14 234 9 246 Q6 252 6.5 259 Q7 266 9 272 Q11 280 14.5 287 Q18 294 21 302 Q26 313 32.5 324 Q39 335 44 346 Q39 347 33.5 347 Q28 347 23 348 Q7 350 -4 362 Q-13 373 -13.5 387 Q-14 401 -9 414 Q-5 422 -1 428 Q3 434 8 441 Q13 446 17.5 451 Q22 456 29 458 Q45 462 54 451 Q60 444 58.5 436 Q57 428 53 420 Q48 408 40.5 397.5 Q33 387 24 376 L18 369 Q28 365 38.5 365.5 Q49 366 59 362 Q63 361 65.5 358 Q68 355 66 351 Q61 336 54 322.5 Q47 309 40 295 Q36 288 33 281 Q31 276 30 271.5 Q29 267 28 264 Q27 260 27 257 L29 257 L38 263 L56 278 Q74 293 91 310 Q110 328 127.5 346 Q145 364 163 382 Z M6 396 Q4 391 6 386 Q23 405 35 427 Q36 429 38 432 Q40 435 40 437 Q40 437 38 439 Q35 440 32 437.5 Q29 435 27 433 Q20 425 14 416 Q8 407 6 396 Z " />
<glyph glyph-name="s" unicode="s" horiz-adv-x="122" d="M133 382 Q141 376 133 368 Q110 349 86 332.5 Q62 316 38 299 L38 297 Q40 278 33.5 261 Q27 244 19 228 Q11 213 1 199.5 Q-9 186 -22 175 Q-33 165 -47.5 158.5 Q-62 152 -77 152 Q-99 152 -101 174 Q-101 182 -98 190.5 Q-95 199 -90 207 Q-81 222 -69 235 Q-57 248 -45 259 Q-32 271 -18 281.5 Q-4 292 10 303 Q12 304 13 305 Q14 306 16 307 Q14 311 12.5 314.5 Q11 318 9 322 Q4 328 -0.5 334.5 Q-5 341 -7 349 Q-11 368 0 383.5 Q11 399 28 406 Q36 409 43.5 406 Q51 403 53 394 Q55 385 52 375.5 Q49 366 45 358 Q42 354 38.5 353.5 Q35 353 32 355 Q29 357 27.5 360.5 Q26 364 28 368 Q32 377 34 386 L34 388 Q34 387 33 387 Q25 384 19.5 377.5 Q14 371 12 362 Q10 354 15 347 Q20 340 25 333 Q29 326 32 319 Q55 334 77 349.5 Q99 365 120 382 Q126 388 133 382 Z M-3 229 Q5 242 11 256 Q17 270 19 285 Q13 281 10 278 Q-4 268 -17 257.5 Q-30 247 -42 235 Q-53 224 -64 210.5 Q-75 197 -80 181 Q-81 179 -81.5 176 Q-82 173 -80 171 Q-78 170 -75 170.5 Q-72 171 -70 172 Q-55 175 -44 183 Q-31 191 -21 203.5 Q-11 216 -3 229 Z " />
<glyph glyph-name="t" unicode="t" horiz-adv-x="112" d="M336 586 Q345 586 345 576.5 Q345 567 336 567 Q311 567 286.5 566.5 Q262 566 236 565 Q176 562 114 556 Q111 551 107.5 545.5 Q104 540 101 534 L100 532 Q99 531 97 527 L86 506 Q84 502 82 500 L81 497 Q60 459 40.5 420 Q21 381 2 341 Q-2 333 -6 325 Q-10 317 -14 309 Q-20 296 -25 284.5 Q-30 273 -35 260 Q-37 255 -38.5 249 Q-40 243 -42 237 Q-44 231 -45 227 L-45 226 L-45 225 L-45 222 Q-43 224 -42 224 Q-37 229 -34 231 L-16 246 Q19 277 49 312.5 Q79 348 111 382 Q117 389 124 382 Q131 375 124 368 Q120 363 116.5 359.5 Q113 356 108 351 Q76 314 43.5 277.5 Q11 241 -27 212 Q-34 207 -42.5 202.5 Q-51 198 -59 206 Q-63 209 -64 213.5 Q-65 218 -65 223 Q-64 234 -60.5 245.5 Q-57 257 -52 268 Q-44 290 -34.5 310.5 Q-25 331 -15 352 Q2 387 19 421 Q36 455 54 489 L76 529 Q80 537 86 546 Q87 548 88 550 Q89 552 90 554 Q39 548 -12 540.5 Q-63 533 -114 522 Q-123 520 -126 529 Q-128 539 -119 541 Q-70 551 -20 559 Q10 564 40.5 567.5 Q71 571 102 575 Q125 616 149 656 Q173 696 197 736 Q202 744 210.5 739 Q219 734 214 726 Q207 714 200 704 Q181 672 162.5 640.5 Q144 609 126 577 Q179 582 231 584.5 Q283 587 336 586 Z " />
<glyph glyph-name="u" unicode="u" horiz-adv-x="168" d="M166 382 Q173 389 179.5 382 Q186 375 180 368 Q145 331 109 295.5 Q73 260 37 224 Q30 218 23 225 Q15 234 17.5 244.5 Q20 255 24 265 Q28 276 31.5 286 Q35 296 40 306 Q42 311 44.5 315.5 Q47 320 49 325 Q39 316 30 307 Q21 298 12 289 Q7 284 2 279.5 Q-3 275 -10 276 Q-23 276 -26 290 Q-29 299 -25 312 Q-23 318 -22 324.5 Q-21 331 -19 338 Q-15 351 -10 363 Q-5 375 1 387 Q5 395 13.5 389.5 Q22 384 18 376 Q5 351 -3 323 Q-5 317 -6.5 310.5 Q-8 304 -8 298 L-8 297 L-4 301 Q19 323 40.5 344.5 Q62 366 84 387 Q90 393 97 387.5 Q104 382 99 375 Q88 358 78.5 340.5 Q69 323 60 304 L45 268 Q43 260 41 257 Q104 319 166 382 Z " />
<glyph glyph-name="v" unicode="v" horiz-adv-x="147" d="M147 384 Q156 387 158.5 378 Q161 369 152 366 Q138 361 124 356.5 Q110 352 96 347 Q92 346 88.5 345 Q85 344 82 345 Q76 347 72 352 Q60 337 46 323 Q37 312 27.5 301.5 Q18 291 8 280 Q4 275 -0.5 271.5 Q-5 268 -11 267 Q-16 266 -20 266.5 Q-24 267 -26 272 Q-28 275 -30 283 Q-32 296 -28.5 308.5 Q-25 321 -21 332 L0 386 Q2 395 12 393 Q15 391 17.5 388 Q20 385 18 381 Q13 367 8 353.5 Q3 340 -2 326 Q-5 318 -9 308 Q-13 298 -11 288 L-8 291 Q-5 294 -2 297 Q1 300 4 304 Q9 311 15 317.5 Q21 324 27 331 Q39 345 51.5 358.5 Q64 372 76 386 Q79 390 85 388.5 Q91 387 92 382 Q93 375 91 369 L91 366 Q93 367 96 368 Q99 369 102 370 Q113 374 124.5 377.5 Q136 381 147 384 Z " />
<glyph glyph-name="w" unicode="w" horiz-adv-x="180" d="M180 385 Q190 385 190 375 Q190 366 180 366 Q164 364 148 363 Q132 362 116 360 Q118 349 114.5 338.5 Q111 328 106 318 Q94 292 76 270 Q71 265 66.5 260.5 Q62 256 57 251 Q49 245 46 242 Q39 235 32 234 Q23 233 17.5 240 Q12 247 12 255 Q12 259 13 263 Q14 267 16 272 Q17 276 18 279.5 Q19 283 20 287 L29 317 Q23 311 17.5 305.5 Q12 300 7 294 Q1 288 -5 281.5 Q-11 275 -17 269 Q-23 263 -29.5 259.5 Q-36 256 -45 257 Q-49 258 -51 262 Q-53 266 -51 269 Q-41 301 -28 330 Q-15 359 2 388 Q4 392 8 392.5 Q12 393 15 391 Q18 389 19.5 385.5 Q21 382 19 378 Q-7 336 -23 291 Q-23 292 -22 292 Q-17 297 -11.5 303 Q-6 309 -1 314 Q10 325 20 336 Q30 347 41 358 Q46 363 53 359.5 Q60 356 58 349 L40 286 Q38 280 36.5 273.5 Q35 267 33 260 Q33 257 32 256 Q33 257 34 257 Q35 257 36 258 Q44 266 52 273.5 Q60 281 67 290 Q81 309 90 328 Q93 335 96.5 345.5 Q100 356 95 362 Q90 367 92.5 372.5 Q95 378 102 378 Q122 380 141 381.5 Q160 383 180 385 Z " />
<glyph glyph-name="x" unicode="x" horiz-adv-x="160" d="M158 382 Q166 389 171.5 382 Q177 375 169 369 L97 309 Q89 302 81.5 296 Q74 290 66 283 Q58 277 50.5 271 Q43 265 35 260 Q27 256 18.5 256.5 Q10 257 4 264 Q-1 269 -2 274 Q-22 238 -55 212 Q-62 206 -68.5 211 Q-75 216 -69 223 Q-53 245 -35 262 Q-32 266 -29 266 Q-18 280 -10 297 Q0 317 5 340 Q7 347 8.5 357 Q10 367 2 371 Q-5 376 0 385 Q5 392 14 388 Q23 383 25.5 373 Q28 363 26 352 Q26 353 27 353 Q32 358 39 364.5 Q46 371 54 375.5 Q62 380 69.5 381 Q77 382 83 376 Q90 369 82.5 362.5 Q75 356 68 362 Q69 360 68.5 361 Q68 362 66 361 Q65 360 64 359.5 Q63 359 62 358 Q54 354 50 350 Q39 341 32 329 Q24 318 20 307 Q18 302 16.5 295 Q15 288 17 283 Q19 274 28 277 Q35 281 41 286 Q47 291 52 296 Q78 318 105 339.5 Q132 361 158 382 Z " />
<glyph glyph-name="y" unicode="y" horiz-adv-x="146" d="M146 382 Q153 389 159.5 382 Q166 375 160 368 Q154 363 148.5 357 Q143 351 137 345 Q98 303 60.5 261.5 Q23 220 -12 175 Q-26 147 -40.5 119.5 Q-55 92 -69 65 Q-86 31 -103 -2 Q-120 -35 -137 -68 Q-146 -85 -154.5 -100.5 Q-163 -116 -172 -133 Q-180 -147 -188 -161.5 Q-196 -176 -206 -190 Q-211 -197 -216 -203.5 Q-221 -210 -227 -216 Q-233 -222 -241 -227 Q-249 -232 -257 -224 Q-263 -219 -263 -210 Q-263 -201 -262 -194 Q-261 -178 -254 -161 Q-248 -144 -239.5 -129 Q-231 -114 -223 -99 Q-215 -84 -206.5 -69.5 Q-198 -55 -189 -41 Q-154 17 -114.5 72 Q-75 127 -33 180 Q-32 182 -29 185 L37 314 Q34 311 31 308 Q28 305 25 303 Q18 297 9 290.5 Q0 284 -10 284 Q-22 284 -26 293.5 Q-30 303 -29 313 Q-28 333 -19 352 Q-10 371 1 387 Q6 395 14.5 390 Q23 385 18 378 Q7 361 -3 340 Q-6 332 -8 324 Q-10 316 -10 308 L-10 306 Q-9 305 -9 304 Q-8 304 -8 304.5 Q-8 305 -7 305 L-6 305 Q-5 305 -5 305.5 Q-5 306 -4 306 Q-3 307 -2.5 307 Q-2 307 -1 308 Q1 310 3 310.5 Q5 311 7 313 Q7 313 8 314 Q8 314 10 315 Q11 317 13 319 Q19 323 21 326 Q37 341 52 357 Q57 362 61 367 Q65 372 70 377 Q76 383 82.5 378 Q89 373 85 366 Q81 357 77 349 Q73 341 69 333 Q58 313 48.5 293.5 Q39 274 28 254 Q57 287 86 318.5 Q115 350 146 382 Z M-197 -138 Q-165 -81 -136 -24.5 Q-107 32 -78 90 Q-105 52 -131 13.5 Q-157 -25 -181 -65 Q-189 -79 -197 -93.5 Q-205 -108 -213 -122 Q-221 -136 -228.5 -151 Q-236 -166 -240 -182 Q-241 -186 -242 -189.5 Q-243 -193 -243 -197 L-243 -204 Q-243 -204 -241 -202 Q-237 -199 -231 -191 Q-221 -179 -213 -165.5 Q-205 -152 -197 -138 Z " />
<glyph glyph-name="z" unicode="z" horiz-adv-x="192" d="M192 382 Q199 389 206 382 Q213 375 206 369 Q200 363 194 357.5 Q188 352 182 346 Q137 304 93 262.5 Q49 221 5 177 Q3 171 0.5 165 Q-2 159 -4 154 Q-18 121 -34.5 89 Q-51 57 -69 26 Q-88 -6 -108 -36 Q-128 -66 -148 -96 Q-168 -125 -188.5 -154 Q-209 -183 -235 -208 Q-240 -213 -246 -217.5 Q-252 -222 -260 -224 Q-279 -227 -284 -210 Q-286 -202 -285 -194 Q-284 -186 -282 -179 Q-280 -171 -277 -162.5 Q-274 -154 -271 -146 Q-257 -113 -237 -83 Q-217 -53 -196 -24 Q-154 33 -107.5 85 Q-61 137 -12 188 Q-11 190 -10 193 Q-9 196 -8 198 Q-6 206 -3.5 214 Q-1 222 0 230 Q1 236 0.5 242 Q0 248 -4 253 Q-12 263 -22 256 Q-30 252 -35 258.5 Q-40 265 -34 272 Q-24 283 -14.5 293 Q-5 303 6 314 Q15 324 24 333 Q33 342 42 352 Q47 357 51 361.5 Q55 366 59 371 Q68 378 72 386 Q71 386 70 385.5 Q69 385 68 385 Q62 384 56.5 383 Q51 382 45 380 Q33 376 21.5 372.5 Q10 369 -1 364 Q-11 360 -15 367 Q-17 371 -16 375 Q-15 379 -11 381 Q21 394 51 401 Q58 403 65 404.5 Q72 406 78 405 Q94 403 92 387 Q92 381 89 376 Q86 371 82 366 Q77 361 72 355.5 Q67 350 62 345 Q46 328 30 310.5 Q14 293 -3 276 Q-3 276 -2 275 Q15 268 18 252 Q21 236 18 219 Q18 219 17 217 Q60 259 103.5 300 Q147 341 192 382 Z M-78 49 Q-52 93 -31 140 Q-71 98 -108.5 54 Q-146 10 -181 -37 Q-201 -64 -219.5 -92 Q-238 -120 -252 -151 Q-255 -159 -257.5 -166 Q-260 -173 -262 -181 Q-263 -185 -264 -188.5 Q-265 -192 -266 -197 Q-266 -199 -266.5 -201 Q-267 -203 -266 -205 Q-264 -205 -263 -204 Q-258 -203 -252 -197 Q-246 -192 -240.5 -186 Q-235 -180 -230 -174 Q-208 -149 -189 -122 Q-170 -95 -152 -67 Q-133 -38 -114 -9.5 Q-95 19 -78 49 Z " />
<glyph glyph-name="D" unicode="D" horiz-adv-x="693" d="M662 611 Q676 581 679 548.5 Q682 516 677 484 Q670 442 653 404 Q636 366 614 331 Q593 296 569.5 264 Q546 232 521 200 Q473 139 419.5 83 Q366 27 306 -23 Q246 -72 179.5 -111.5 Q113 -151 41 -178 Q3 -192 -36 -202 Q-75 -212 -116 -214 Q-118 -214 -119.5 -214.5 Q-121 -215 -123 -215 Q-126 -221 -129.5 -227.5 Q-133 -234 -136 -241 Q-138 -245 -142 -246 Q-146 -247 -149 -245 Q-157 -240 -153 -232 L-144 -214 Q-171 -212 -192 -204 Q-209 -196 -219.5 -182 Q-230 -168 -231 -149 Q-232 -133 -225.5 -119 Q-219 -105 -208 -93.5 Q-197 -82 -183.5 -72.5 Q-170 -63 -158 -56 Q-104 -25 -40 -5 Q-4 67 32.5 138 Q69 209 106 281 Q116 301 126 320.5 Q136 340 147 360 Q145 359 141 359 Q112 364 92 385 Q72 406 67.5 435 Q63 464 68 491 Q73 522 88 550.5 Q103 579 123 602 Q165 650 224 680 Q283 710 345 725 Q375 733 406.5 737.5 Q438 742 469 740 Q501 737 530.5 727 Q560 717 586 700 Q611 683 630.5 660.5 Q650 638 662 611 Z M-135 -195 Q-99 -121 -61 -47 Q-59 -42 -57 -38 Q-55 -34 -53 -30 Q-58 -32 -64 -34 Q-70 -36 -75 -38 Q-92 -45 -108.5 -53 Q-125 -61 -142 -69 Q-155 -76 -167 -84 Q-179 -92 -189 -102 Q-199 -112 -205.5 -123 Q-212 -134 -212 -147 Q-211 -162 -201.5 -173 Q-192 -184 -178 -189 Q-157 -195 -135 -195 Z M110 -127 Q166 -100 216.5 -65.5 Q267 -31 314 10 Q294 12 275.5 14 Q257 16 238 17 Q103 21 -26 -21 L-113 -195 Q-111 -194 -106 -194 Q-69 -191 -29 -180 Q7 -170 41.5 -157 Q76 -144 110 -127 Z M630 401 Q645 434 654 469 Q663 504 660 541 Q658 568 647.5 594.5 Q637 621 620 642 Q585 686 532 706 Q476 727 413 719 Q384 715 355.5 708 Q327 701 299 691 Q243 671 191.5 636.5 Q140 602 110 550 Q96 526 89 499 Q82 472 86 444 Q87 439 88.5 432.5 Q90 426 92 421 Q94 416 97 410.5 Q100 405 103 402 Q118 383 146 378 Q151 377 153 372 Q184 431 215 489 Q246 547 278 606 Q280 610 284 610.5 Q288 611 291 609.5 Q294 608 295.5 604.5 Q297 601 295 597 Q270 551 246 505.5 Q222 460 198 414 Q154 333 112 251.5 Q70 170 28 88 L-14 4 L-13 4 Q68 28 151.5 34.5 Q235 41 319 29 Q326 27 326 20 Q332 25 338 31 Q344 37 351 43 Q405 94 453 149.5 Q501 205 546 265 Q569 297 591 331 Q613 365 630 401 Z " />
<glyph glyph-name="exclam" unicode="&#x21;" horiz-adv-x="120" d="M-77 114 Q-68 114 -68 104 Q-68 94 -77 94 Q-87 94 -87 104 Q-87 114 -77 114 Z M241 744 Q245 752 253.5 747 Q262 742 258 734 Q241 702 225.5 671.5 Q210 641 193 609 L79 387 L-35 165 Q-37 161 -41 160.5 Q-45 160 -48 162 Q-51 164 -52.5 167.5 Q-54 171 -52 175 Q-36 206 -20 237 Q-4 268 12 300 Q41 356 69.5 411 Q98 466 127 522 L241 744 Z " />
<glyph glyph-name="asciitilde" unicode="&#x7e;" horiz-adv-x="173" d="M137 370 Q146 365 141 356 Q130 341 114 325 Q106 319 98 312.5 Q90 306 80 303 Q70 300 61.5 304.5 Q53 309 51 320 Q51 325 51.5 329 Q52 333 53 338 L53 341 L51 339 Q47 337 39 331 Q32 327 26.5 322 Q21 317 16 312 Q13 309 9.5 309.5 Q6 310 3 312.5 Q0 315 -0.5 319 Q-1 323 2 326 Q12 336 23.5 344 Q35 352 47 359 Q53 363 61 366 Q69 369 74 361 Q77 356 75.5 349.5 Q74 343 72 338 Q72 335 71.5 332 Q71 329 71 326 Q71 325 70.5 324 Q70 323 71 321 Q76 321 79.5 323.5 Q83 326 87 328 Q109 346 124 366 Q130 374 137 370 Z " />
<glyph glyph-name="at" unicode="&#x40;" horiz-adv-x="219" d="M166 461 Q185 447 188.5 425 Q192 403 187 382 Q182 364 172.5 347.5 Q163 331 151 317 Q146 312 141 307.5 Q136 303 131 298 Q126 294 120 290.5 Q114 287 107 287 Q99 287 94.5 292 Q90 297 88 305 Q88 304 87.5 304 Q87 304 87 303 Q79 296 66 288.5 Q53 281 42 290 Q33 298 36.5 308.5 Q40 319 45 327 Q57 351 75 369 Q83 377 94 385.5 Q105 394 117 386 Q123 382 122 377 Q122 371 117 367 Q110 360 102 369 Q100 367 98 365 Q96 363 94 361 Q89 356 85.5 352 Q82 348 78 343 Q72 335 65.5 325 Q59 315 56 306 Q57 306 57.5 306.5 Q58 307 59 307 Q67 311 76 320 Q84 328 89.5 337 Q95 346 102 355 Q107 363 115 358.5 Q123 354 118 345 Q112 334 110 324 Q109 320 108 315.5 Q107 311 108 307 Q110 307 110 307 Q112 308 112.5 308.5 Q113 309 115 310 Q120 313 124 317 Q128 321 133 326 Q135 328 137 330.5 Q139 333 141 335 Q142 336 142 336.5 Q142 337 143 338 L145 340 Q146 341 146.5 342 Q147 343 148 344 Q159 359 165.5 377 Q172 395 170 414 Q169 431 159 441 Q149 451 132 453 Q115 455 99.5 448.5 Q84 442 70 432 Q55 421 42.5 406.5 Q30 392 19 377 Q8 362 0 345 Q-8 328 -13 309 Q-18 292 -17 274 Q-16 256 -5 242 Q5 228 20.5 226 Q36 224 50 230 Q68 238 83.5 250.5 Q99 263 113 277 Q120 283 127 276.5 Q134 270 127 263 Q122 259 118.5 255.5 Q115 252 110 248 Q94 234 74.5 221 Q55 208 32 206 Q10 204 -6.5 216.5 Q-23 229 -31 249 Q-39 269 -36 292 Q-33 315 -25 335 Q-17 357 -5 376 Q7 395 21 412 Q36 429 53.5 443.5 Q71 458 91 466 Q108 473 128.5 473 Q149 473 166 461 Z " />
<glyph glyph-name="numbersign" unicode="&#x23;" horiz-adv-x="213" d="M156 340 Q166 340 166 330 Q166 322 156 320 Q142 318 128.5 317 Q115 316 101 314 Q97 306 93.5 299.5 Q90 293 86 285 Q81 277 77.5 270 Q74 263 72 255 Q69 247 59.5 249.5 Q50 252 53 261 Q58 274 64 286.5 Q70 299 77 311 Q71 311 67 310 L58 292 Q56 288 52 287.5 Q48 287 45 289 Q42 291 40.5 294.5 Q39 298 41 302 L44 308 Q38 307 32.5 306.5 Q27 306 21 305 Q12 305 12 315 Q12 323 21 325 Q29 326 38 326.5 Q47 327 55 329 Q55 331 57 333 L24 330 Q20 329 17 332.5 Q14 336 14 339 Q14 347 24 349 Q35 351 46 351.5 Q57 352 68 354 L80 378 Q82 382 86 382.5 Q90 383 93 381.5 Q96 380 97.5 376 Q99 372 97 368 L91 356 Q94 357 96.5 357 Q99 357 102 358 Q107 366 111 374.5 Q115 383 120 392 Q122 396 126 396.5 Q130 397 133 395 Q136 393 137.5 389.5 Q139 386 137 382 Q134 377 131.5 371 Q129 365 126 360 Q134 361 142.5 362 Q151 363 159 364 Q163 365 166 361.5 Q169 358 169 354 Q169 346 159 344 Q148 343 137 342 Q126 341 115 340 Q113 336 112 335 Q123 337 134 337.5 Q145 338 156 340 Z M80 336 Q79 334 79 333.5 Q79 333 78 331 Q81 332 89 332 Q89 333 91 337 Q88 337 85.5 336.5 Q83 336 80 336 Z " />
<glyph glyph-name="dollar" unicode="&#x24;" horiz-adv-x="258" d="M233 473 Q241 467 247 457 Q253 447 251 436 Q250 424 242.5 415.5 Q235 407 227 399 Q219 389 210 380 Q201 371 193 362 Q186 355 179 362 Q172 369 179 376 Q184 381 188 385 Q192 389 196 394 L214 412 Q218 416 221.5 419.5 Q225 423 228 428 Q233 436 231 444 Q229 452 221 457 Q213 463 202.5 464.5 Q192 466 182 466 L179 466 Q165 439 150.5 411.5 Q136 384 122 357 Q129 353 135 350 Q141 347 147 342 Q156 336 163.5 328.5 Q171 321 175 310 Q178 299 177 288.5 Q176 278 172 268 Q163 248 145.5 234.5 Q128 221 108 212 Q86 200 64 193 Q56 190 48.5 187.5 Q41 185 33 183 Q16 151 0 119.5 Q-16 88 -33 56 Q-35 52 -38.5 51.5 Q-42 51 -45 53 Q-48 55 -49.5 58.5 Q-51 62 -49 66 Q-35 94 -20.5 122 Q-6 150 9 179 Q-11 177 -21 191 Q-27 199 -26 209.5 Q-25 220 -22 229 Q-14 251 -2 270.5 Q10 290 25 307 Q32 314 38.5 307 Q45 300 39 293 Q35 288 31.5 284.5 Q28 281 25 276 Q10 256 2 237 Q-2 230 -5 218 Q-6 215 -7 211 Q-8 207 -6 203 Q-3 197 5 197.5 Q13 198 20 200 Q39 238 58 275 Q77 312 96 349 Q85 356 74.5 362 Q64 368 53 375 Q48 378 42 381 Q36 384 31 387 Q19 394 13 400 Q6 409 9 421 Q13 429 23 438 Q41 452 61.5 461 Q82 470 103 476 Q118 481 134 483 Q150 485 167 486 L230 609 Q232 613 236 613.5 Q240 614 243 612 Q246 610 247.5 606.5 Q249 603 247 599 Q232 570 217.5 542 Q203 514 188 485 L190 485 Q201 484 212 482 Q223 480 233 473 Z M139 324 Q128 332 113 339 Q104 322 95 304 Q86 286 77 268 Q69 253 61.5 237.5 Q54 222 46 207 Q52 209 58 211.5 Q64 214 71 216 Q91 224 111 234 Q131 244 145 261 Q158 276 158 295 Q157 305 152 312 Q147 319 139 324 Z M105 367 Q110 375 113.5 382 Q117 389 121 397 L157 466 Q152 465 148 465 Q144 465 139 464 Q93 456 57 436 Q47 431 38 425 Q36 423 31.5 420 Q27 417 27 414 Q28 411 32.5 409 Q37 407 39 405 Q44 402 50 399 Q56 396 61 392 Q72 386 83 379.5 Q94 373 105 367 Z " />
<glyph glyph-name="percent" unicode="&#x25;" horiz-adv-x="168" d="M241 654 Q246 656 249.5 652.5 Q253 649 253 644 Q253 642 251 638 Q233 611 215 584 Q197 557 180 530 L54 338 L-27 215 Q-15 224 -2.5 231.5 Q10 239 23 247 Q26 251 32 251 Q38 260 49.5 258.5 Q61 257 68 249 Q76 241 73.5 230.5 Q71 220 65 211 Q53 194 31 184 Q26 182 19.5 181.5 Q13 181 8 185 Q-1 194 3 206 Q3 208 3.5 209.5 Q4 211 4 213 Q-41 184 -73 144 Q-79 137 -85 143 Q-88 145 -89.5 148.5 Q-91 152 -89 156 Q-71 183 -53 210 Q-35 237 -18 264 Q14 312 45 360 Q76 408 108 456 Q137 500 164.5 542.5 Q192 585 221 628 Q211 626 201 624 Q191 622 180 621 Q181 614 180 607 Q178 596 169.5 586.5 Q161 577 150 573 Q138 568 129 573 Q117 581 122 597 L128 609 Q130 611 131.5 614 Q133 617 135 620 Q141 626 149 623 Q145 632 153 636 Q159 638 161 638 L162 638 Q204 643 241 654 Z M55 236 Q54 236 53 237 Q52 238 51 238 Q50 239 47 239 Q43 235 39 235 Q39 233 36 232 Q32 226 28.5 219.5 Q25 213 23 205 Q22 205 22 204 L22 201 Q26 203 29.5 205 Q33 207 37 209 Q42 214 47.5 220 Q53 226 55 233 L55 236 Z M160 608 Q162 613 161 617 L161 618 L155 618 Q157 616 157 615 Q159 609 155.5 605.5 Q152 602 147 603 L147 602 Q146 600 145.5 599.5 Q145 599 144 597 Q143 595 142 594 Q141 593 141 591 L140 590 L141 590 Q145 591 149 594 Q157 599 160 608 Z " />
<glyph glyph-name="ampersand" unicode="&#x26;" horiz-adv-x="188" d="M220 615 Q222 619 226 619.5 Q230 620 233 618 Q236 616 237.5 612.5 Q239 609 237 605 Q226 585 215.5 564.5 Q205 544 194 524 Q184 505 174.5 487 Q165 469 155 451 Q150 442 145 433 Q140 424 135 415 Q129 405 118 405 Q114 405 110.5 406 Q107 407 103 407 Q75 410 58 387 Q57 385 55.5 383 Q54 381 54 379 Q54 378 54.5 377.5 Q55 377 55 376 Q59 372 65 372 Q73 370 82 370 Q91 370 99 372 Q106 373 110 366 Q114 359 106 354 Q105 354 105 353.5 Q105 353 104 353 L100 349 Q92 343 85 336 Q78 329 72 321 Q60 307 50 288 Q46 283 43 275 Q43 273 42 269.5 Q41 266 43 264 Q45 263 47.5 265 Q50 267 52 268 L73 280 Q91 293 106 310 Q111 317 118 311.5 Q125 306 121 299 Q113 285 106 271 Q99 257 91 243 Q65 192 41.5 141.5 Q18 91 -5 39 Q-7 35 -11 34 Q-15 33 -19 35 Q-26 39 -22 49 Q-10 77 4 107 Q21 146 39.5 184 Q58 222 78 260 Q74 258 72 256 Q61 250 48 245.5 Q35 241 26 255 Q20 264 23 275 Q26 286 31 295 Q40 311 50 325 Q60 339 73 351 Q63 351 51 356 Q38 361 35 373 Q33 380 36 386.5 Q39 393 43 398 Q57 418 78 424 Q87 427 99 427 Q103 427 111 425 Q113 425 114.5 424.5 Q116 424 118 424 Q144 472 169 519.5 Q194 567 220 615 Z " />
<glyph glyph-name="asciicircum" unicode="&#x5e;" horiz-adv-x="193" d="M200 698 Q204 703 210.5 700 Q217 697 216 691 Q214 675 213 659.5 Q212 644 210 629 Q210 619 201 619 Q197 619 193.5 621.5 Q190 624 191 629 Q192 637 192.5 645 Q193 653 194 661 Q187 653 180 645 Q173 637 166 629 Q164 626 159 626 Q154 626 152 629 Q146 635 152 642 Q164 656 176 670 Q188 684 200 698 Z " />
<glyph glyph-name="asterisk" unicode="&#x2a;" horiz-adv-x="188" d="M246 651 Q256 651 256 641.5 Q256 632 246 631 Q235 631 225 630.5 Q215 630 204 630 Q209 622 214.5 615 Q220 608 226 601 Q233 594 226 587 Q219 580 213 587 Q206 595 199.5 603.5 Q193 612 188 620 Q184 613 180.5 606 Q177 599 173 592 Q171 588 167 587.5 Q163 587 160 588.5 Q157 590 155.5 593.5 Q154 597 156 602 Q158 604 159 607 Q160 610 162 612 Q152 605 143 598.5 Q134 592 125 585 Q117 580 111 588 Q106 597 115 602 Q124 609 133 615.5 Q142 622 152 629 Q147 629 143.5 629 Q140 629 135 628 Q125 628 125 638 Q125 648 135 648 L171 648 Q168 655 165 661 Q162 667 159 674 Q157 678 159.5 681.5 Q162 685 166 686 Q175 688 178 679 Q180 674 182.5 669.5 Q185 665 187 660 Q189 664 190 667 Q193 671 195.5 675 Q198 679 200 683 Q202 687 203.5 691 Q205 695 208 698 Q212 702 217.5 701.5 Q223 701 226 696 Q228 692 226.5 688 Q225 684 221 682 Q221 681 220 681 Q219 679 218.5 677.5 Q218 676 217 674 Q216 673 215.5 672 Q215 671 214 670 Q221 674 227.5 678 Q234 682 241 686 Q245 688 248.5 686.5 Q252 685 254 682 Q256 679 255.5 675 Q255 671 251 669 Q243 664 235 659.5 Q227 655 219 650 Q226 650 232.5 650 Q239 650 246 651 Z " />
<glyph glyph-name="parenleft" unicode="&#x28;" horiz-adv-x="110" d="M312 744 Q314 741 313.5 737 Q313 733 309 731 Q274 716 245.5 692 Q217 668 192 640 Q168 614 147 585 Q126 556 107 526 Q65 461 36 394 Q21 359 9.5 323.5 Q-2 288 -10 251 Q-14 233 -16 215 Q-18 197 -20 179 Q-21 170 -21 161 Q-21 152 -21 143 Q-21 139 -20.5 129.5 Q-20 120 -13 120 Q-3 120 -3 110 Q-3 100 -13 100 Q-25 100 -31.5 108.5 Q-38 117 -40 128 Q-42 139 -41.5 149.5 Q-41 160 -40 171 Q-39 193 -36.5 214.5 Q-34 236 -29 257 Q-12 335 20.5 407.5 Q53 480 96 546 Q116 577 139 607 Q162 637 188 664 Q212 690 239.5 711.5 Q267 733 299 747 Q308 751 312 744 Z " />
<glyph glyph-name="parenright" unicode="&#x29;" horiz-adv-x="110" d="M142 742 Q150 703 151 663.5 Q152 624 147 585 Q137 514 106 448 Q90 414 70 383 Q50 352 27 322 Q-18 262 -69 208 Q-120 154 -177 104 Q-181 101 -185 101.5 Q-189 102 -191.5 105 Q-194 108 -194.5 111.5 Q-195 115 -191 118 Q-129 172 -73 233 Q-48 260 -25 287.5 Q-2 315 19 344 Q41 373 60.5 404 Q80 435 94 469 Q121 532 129.5 600.5 Q138 669 124 736 Q122 746 131 748.5 Q140 751 142 742 Z " />
<glyph glyph-name="underscore" unicode="&#x5f;" horiz-adv-x="214" d="M131 300 Q141 300 141 290.5 Q141 281 131 281 L0 281 Q-10 281 -10 290.5 Q-10 300 0 300 L131 300 L131 300 Z " />
<glyph glyph-name="grave" unicode="&#x60;" horiz-adv-x="242" d="M263 690 Q265 686 262 682.5 Q259 679 256 678 Q248 675 244 685 Q233 709 223 736 Q220 744 230 748 Q239 750 242 741 L263 690 L263 690 Z " />
<glyph glyph-name="plus" unicode="&#x2b;" horiz-adv-x="182" d="M123 334 Q132 334 132 324.5 Q132 315 123 315 L78 315 Q65 289 50 262 Q48 258 44 257.5 Q40 257 37 259 Q34 261 32.5 264.5 Q31 268 33 272 Q45 293 56 315 L18 315 Q8 315 8 324.5 Q8 334 18 334 L66 334 Q74 349 81.5 364 Q89 379 97 393 Q99 397 103 397.5 Q107 398 110 396 Q113 394 114.5 390.5 Q116 387 114 383 Q107 371 101 359 Q95 347 88 334 L123 334 L123 334 Z " />
<glyph glyph-name="equal" unicode="&#x3d;" horiz-adv-x="175" d="M117 353 Q127 353 127 343.5 Q127 334 117 334 L44 334 Q34 334 34 343.5 Q34 353 44 353 L117 353 Z M97 314 Q106 314 106 304.5 Q106 295 97 295 L24 295 Q15 295 15 304.5 Q15 314 24 314 L97 314 Z " />
<glyph glyph-name="braceleft" unicode="&#x7b;" horiz-adv-x="107" d="M264 749 Q273 748 273 738.5 Q273 729 264 729 Q256 729 249.5 724.5 Q243 720 238 714 Q231 706 226.5 697.5 Q222 689 217 681 Q196 646 177 610 Q158 574 140 538 Q132 521 123.5 504.5 Q115 488 104 472 Q93 454 80 443 Q84 440 86 435 Q88 429 85.5 424 Q83 419 81 414 Q79 409 76.5 404.5 Q74 400 72 395 Q54 359 33.5 324.5 Q13 290 -6 254 Q-15 236 -23.5 217.5 Q-32 199 -40 181 Q-45 171 -48.5 162 Q-52 153 -56 144 Q-58 139 -59 135 Q-60 131 -60 126 Q-60 122 -59 121 L-58 121 Q-55 121 -54 120 Q-50 120 -48 116 Q-46 112 -47 108 Q-50 100 -59 102 Q-71 104 -76 111 Q-81 120 -79 133 Q-77 144 -73 154 Q-69 164 -64 174 Q-33 246 7 317 Q17 335 26.5 352.5 Q36 370 46 387 Q51 396 55 404.5 Q59 413 64 422 Q65 423 65 424 Q65 426 66 427 Q62 427 60 426 L58 426 Q56 425 54 425.5 Q52 426 50 426 Q44 428 42.5 434 Q41 440 46 444 Q47 444 47.5 444.5 Q48 445 49 445 Q65 453 75.5 466.5 Q86 480 96 494 L114 530 Q119 539 123.5 548.5 Q128 558 133 567 Q142 585 151.5 603 Q161 621 171 639 Q181 657 191 675 Q201 693 212 710 Q220 724 233 736.5 Q246 749 264 749 Z " />
<glyph glyph-name="braceright" unicode="&#x7d;" horiz-adv-x="107" d="M199 749 Q209 747 213.5 740 Q218 733 217 724 Q217 716 214 708 Q211 700 208 692 Q194 655 177 620.5 Q160 586 141 552 Q132 534 122.5 517 Q113 500 104 483 Q101 478 98.5 473.5 Q96 469 94 464 Q92 462 91 459 Q90 456 88 454 Q93 455 96.5 455.5 Q100 456 105 455 Q112 453 112 445 Q112 438 105 436 Q86 428 73.5 410.5 Q61 393 52 376 Q41 357 32 338 Q23 319 13 300 Q2 280 -8 260 Q-18 240 -29 220 Q-40 200 -50.5 181 Q-61 162 -72 143 Q-80 129 -94 114.5 Q-108 100 -126 102 Q-136 104 -136 112 Q-136 122 -126 122 Q-117 121 -110.5 126.5 Q-104 132 -99 138 Q-92 146 -86.5 155.5 Q-81 165 -76 174 Q-54 213 -33.5 252.5 Q-13 292 7 331 Q16 349 25 367.5 Q34 386 45 403 Q51 413 58 421.5 Q65 430 74 438 Q71 440 69 446 Q66 454 70.5 462 Q75 470 78 477 Q97 512 116.5 546.5 Q136 581 153 617 Q161 634 169 651 Q177 668 184 685 Q188 693 191 700.5 Q194 708 196 716 Q198 724 198 728 Q198 728 197 730 L196 730 Q194 730 194 731 Q190 731 188 735 Q186 739 187 742 Q190 751 199 749 Z " />
<glyph glyph-name="bracketright" unicode="&#x5d;" horiz-adv-x="95" d="M229 749 Q234 749 238.5 744.5 Q243 740 240 734 Q222 699 204 664.5 Q186 630 168 595 Q136 534 105 473 Q74 412 42 350 Q10 289 -21.5 228 Q-53 167 -85 105 Q-87 100 -92 100 Q-93 99 -97 99 L-142 99 Q-152 99 -152 108.5 Q-152 118 -142 118 L-100 118 Q-83 152 -65 185.5 Q-47 219 -30 254 Q2 315 33 376 Q64 437 96 499 Q126 557 156 614 Q186 671 215 729 L190 729 Q180 729 180 739 Q180 749 190 749 L229 749 L229 749 Z " />
<glyph glyph-name="bracketleft" unicode="&#x5b;" horiz-adv-x="97" d="M258 749 Q268 749 268 739 Q268 729 258 729 L226 729 Q208 695 190.5 661 Q173 627 156 593 Q125 532 94 471 Q63 410 32 349 Q2 291 -27.5 233.5 Q-57 176 -87 118 L-58 118 Q-48 118 -48 108 Q-48 98 -58 98 L-101 98 Q-106 98 -109 101.5 Q-112 105 -111 110 Q-111 114 -110 116 Q-92 150 -74.5 184 Q-57 218 -40 253 Q-8 314 22.5 374.5 Q53 435 85 496 Q116 557 147 618 Q178 679 209 740 Q209 740 211 742 Q213 749 220 749 L258 749 L258 749 Z " />
<glyph glyph-name="bar" unicode="&#x7c;" horiz-adv-x="202" d="M120 740 Q120 749 130 749 Q140 749 140 740 L140 600 L140 352 L140 103 Q140 93 130 93 Q120 93 120 103 L120 243 L120 491 L120 740 L120 740 Z " />
<glyph glyph-name="slash" unicode="&#x2f;" horiz-adv-x="127" d="M239 743 Q243 751 251 746 Q259 741 255 733 Q238 698 220 662.5 Q202 627 184 592 Q152 530 120.5 468.5 Q89 407 57 345 Q25 282 -6.5 220.5 Q-38 159 -70 96 Q-72 92 -76 91.5 Q-80 91 -83 92.5 Q-86 94 -87.5 97.5 Q-89 101 -87 106 Q-69 141 -51 176 Q-33 211 -15 246 Q17 309 48 370 Q79 431 111 494 Q143 557 175 618.5 Q207 680 239 743 Z " />
<glyph glyph-name="colon" unicode="&#x3a;" horiz-adv-x="84" d="M40 365 Q50 365 50 355 Q50 345 40 345 Q31 345 31 355 Q31 365 40 365 Z M17 319 Q27 319 27 309.5 Q27 300 17 300 Q8 300 8 309.5 Q8 319 17 319 Z " />
<glyph glyph-name="semicolon" unicode="&#x3b;" horiz-adv-x="87" d="M42 366 Q52 366 52 356 Q52 346 42 346 Q33 346 33 356 Q33 366 42 366 Z M10 314 Q14 323 22.5 318 Q31 313 27 305 Q23 297 20 290.5 Q17 284 13 276 Q11 272 7 271.5 Q3 271 0 273 Q-3 275 -4.5 278.5 Q-6 282 -4 286 Q0 293 3 300 Q6 307 10 314 Z " />
<glyph glyph-name="period" unicode="&#x2e;" horiz-adv-x="87" d="M16 308 Q25 308 25 298.5 Q25 289 16 289 Q6 289 6 298.5 Q6 308 16 308 Z " />
<glyph glyph-name="comma" unicode="&#x2c;" horiz-adv-x="117" d="M18 302 Q20 306 24 307 Q28 308 31 306 Q34 304 35.5 300.5 Q37 297 35 293 Q31 285 28 278.5 Q25 272 21 264 Q19 260 15 259.5 Q11 259 8 261 Q5 263 3.5 266.5 Q2 270 4 274 Q12 288 18 302 Z " />
<glyph glyph-name="quotedbl" unicode="&#x22;" horiz-adv-x="217" d="M212 741 Q214 745 218 745.5 Q222 746 225 744 Q228 742 229.5 738.5 Q231 735 229 731 Q224 721 219.5 711.5 Q215 702 210 692 Q208 688 204 687.5 Q200 687 197 689 Q194 691 192.5 694.5 Q191 698 193 702 Q198 712 202.5 721.5 Q207 731 212 741 Z M243 742 Q245 746 249 747 Q253 748 256 746 Q259 744 260.5 740 Q262 736 260 732 Q253 719 246.5 706 Q240 693 233 680 Q231 676 227.5 675.5 Q224 675 221 677 Q218 679 216.5 682.5 Q215 686 217 690 Q229 716 243 742 Z " />
<glyph glyph-name="quotesingle" unicode="&#x27;" horiz-adv-x="250" d="M255 743 Q257 747 261 748 Q265 749 268 747 Q271 745 272.5 741 Q274 737 272 733 Q265 720 259 707 Q253 694 246 681 Q244 677 240 676.5 Q236 676 233 678 Q230 680 228.5 683.5 Q227 687 229 691 Q243 717 255 743 Z " />
<glyph glyph-name="less" unicode="&#x3c;" horiz-adv-x="170" d="M144 416 Q152 421 156.5 412.5 Q161 404 154 399 Q137 389 121 379 Q105 369 89 358 Q81 353 73 348 Q65 343 57 338 Q52 335 48.5 332.5 Q45 330 41 328 L32 322 Q33 321 33.5 320 Q34 319 35 318 L41 309 Q44 305 47 301 Q50 297 53 292 Q59 284 65.5 275 Q72 266 78 258 Q83 249 74 244 Q71 242 67 243.5 Q63 245 61 248 Q53 259 44.5 271 Q36 283 28 295 Q24 300 20 305 Q16 310 13 315 Q7 326 18 335 Q23 340 28.5 343 Q34 346 39 349 Q44 353 49 356 Q54 359 59 362 Q80 376 101.5 389 Q123 402 144 416 Z " />
<glyph glyph-name="greater" unicode="&#x3e;" horiz-adv-x="157" d="M90 374 Q96 365 102 354 Q108 343 104 332 Q100 321 86 314 Q81 310 75 307 Q69 304 64 301 Q17 274 -26 244 Q-30 241 -33.5 242.5 Q-37 244 -38.5 247 Q-40 250 -39.5 254 Q-39 258 -35 261 Q14 295 68 326 Q71 328 74 329.5 Q77 331 80 333 Q82 335 84 336.5 Q86 338 86 340 Q86 342 85 344 Q84 346 83 348 Q81 351 79.5 354 Q78 357 76 360 Q69 371 60.5 381 Q52 391 42 400 Q35 407 42 414 Q49 421 56 414 Q66 405 74.5 395 Q83 385 90 374 Z " />
<glyph glyph-name="question" unicode="&#x3f;" horiz-adv-x="217" d="M327 708 Q329 690 323.5 672.5 Q318 655 310 639 Q297 614 281.5 591.5 Q266 569 249 546 Q217 500 184.5 455 Q152 410 124 362 Q110 336 97 311 Q84 286 71 260 Q57 234 43.5 207.5 Q30 181 16 155 Q14 151 10.5 150.5 Q7 150 4 152 Q1 154 -0.5 157.5 Q-2 161 0 165 Q3 171 6 177.5 Q9 184 12 190 Q25 215 37.5 239.5 Q50 264 64 289 Q76 314 89 338.5 Q102 363 116 386 Q143 432 174 474.5 Q205 517 236 560 Q251 582 266 604 Q281 626 294 650 Q302 666 306 682 Q307 687 307.5 689 Q308 691 308 696 L308 703 L308 706 L308 707 Q307 707 307 708 Q307 710 306.5 711 Q306 712 306 714 Q306 714 305 716 Q305 716 304 718 Q304 718 303 720 L302 721 Q300 723 299 723 L299 724 Q293 727 288 727 Q281 729 274 727 Q261 724 250.5 719 Q240 714 229 708 Q219 703 210 697.5 Q201 692 192 685 Q174 673 157.5 658 Q141 643 127 626 Q116 612 107.5 595 Q99 578 98 559 Q98 554 95 552 Q92 550 88 550 Q84 550 81.5 552 Q79 554 79 559 Q79 569 82 580 Q87 601 99 619 Q111 637 125 654 Q156 687 198 713 Q208 719 218.5 725 Q229 731 240 736 Q251 741 262.5 744.5 Q274 748 286 747 Q303 747 315 735 Q325 725 327 708 Z M-10 98 Q-9 97 -9 95 Q-8 92 -9 91 L-9 89 Q-10 88 -10.5 87 Q-11 86 -12 85 Q-12 85 -14 84 Q-16 82 -19 82 Q-20 82 -21 83 Q-24 83 -25 84 Q-26 85 -26 85.5 Q-26 86 -27 87 Q-28 88 -28 91 Q-28 91 -28 95 L-28 96 Q-27 98 -25 100 L-23 102 Q-22 103 -18 103 L-16 103 Q-12 101 -12 101 Q-10 99 -10 98 Z " />
<glyph glyph-name="backslash" unicode="&#x5c;" horiz-adv-x="295" d="M274 108 Q275 103 272.5 100 Q270 97 266 96 Q262 95 259 96 Q256 97 255 102 Q247 137 239.5 172 Q232 207 224 242 Q210 304 197.5 365 Q185 426 171 489 Q157 551 144 612.5 Q131 674 117 736 Q116 741 118.5 744 Q121 747 124.5 748 Q128 749 131.5 747.5 Q135 746 136 741 Q144 706 151 671.5 Q158 637 166 602 Q180 540 193 479 Q206 418 220 355 Q234 293 247 231.5 Q260 170 274 108 Z " />
<glyph glyph-name="zero" unicode="0" horiz-adv-x="157" d="M138 444 Q152 429 149 407 Q146 385 139 368 Q128 336 113 306.5 Q98 277 75 251 Q64 240 51.5 229.5 Q39 219 24 213 Q12 208 -2.5 207 Q-17 206 -28 216 Q-35 222 -37.5 230 Q-40 238 -39 247 Q-38 256 -35.5 264.5 Q-33 273 -30 281 Q-25 298 -18.5 314 Q-12 330 -4 346 Q28 409 80 456 Q85 460 89.5 458.5 Q94 457 96 453 Q107 458 118.5 455.5 Q130 453 138 444 Z M129 400 Q130 407 130 414.5 Q130 422 126 428 Q120 436 112 436 L108 436 Q105 436 104 435 Q101 435 99 431 Q97 427 93 426.5 Q89 426 86 428 Q82 422 76 424 Q38 385 12 334 Q-2 308 -11 279 Q-13 271 -15 263.5 Q-17 256 -19 248 Q-19 245 -19.5 241.5 Q-20 238 -18 235 Q-17 231 -14 230 Q-8 225 2 227 Q8 228 13.5 230 Q19 232 24 234 Q35 241 45.5 250 Q56 259 65 270 Q84 292 96.5 318 Q109 344 119 370 Q122 378 124.5 385 Q127 392 129 400 Z " />
<glyph glyph-name="one" unicode="1" horiz-adv-x="102" d="M88 451 Q95 456 101.5 452 Q108 448 104 440 Q97 427 90.5 414.5 Q84 402 78 389 Q32 301 -14 211 Q-16 206 -20 205.5 Q-24 205 -27 207 Q-30 209 -31.5 212.5 Q-33 216 -31 220 Q-25 233 -18.5 245.5 Q-12 258 -5 271 Q13 306 30.5 339.5 Q48 373 66 408 Q64 408 64 406 Q56 400 50 406 Q42 414 50 420 Q60 428 69 435.5 Q78 443 88 451 Z " />
<glyph glyph-name="two" unicode="2" horiz-adv-x="148" d="M91 347 Q69 317 45.5 289 Q22 261 -4 235 Q21 238 45.5 234.5 Q70 231 92 218 Q96 216 96.5 212 Q97 208 95 205 Q93 202 89.5 200.5 Q86 199 82 201 Q55 217 24 217 Q-7 217 -36 205 Q-43 203 -47 210 Q-51 217 -46 222 Q-13 250 15 283 Q42 313 64 344 Q75 359 86 374.5 Q97 390 105 407 L111 425 L114 434 L114 436 Q107 436 105 434 Q100 433 92 427 Q79 418 67 401 L55 386 Q53 381 50 378 L50 377 Q50 377 51 375 Q52 366 44 363 Q36 360 32 365.5 Q28 371 29 377 Q30 383 33.5 388.5 Q37 394 40 399 Q48 410 56 420 Q64 430 74 438 Q82 445 91.5 450 Q101 455 112 456 Q125 456 131 449 Q135 444 134.5 438 Q134 432 132 426 Q126 404 115 384.5 Q104 365 91 347 Z M49 376 Q48 374 48.5 374 Q49 374 49 376 Z " />
<glyph glyph-name="three" unicode="3" horiz-adv-x="157" d="M122 407 Q114 395 104 384.5 Q94 374 84 363 Q80 359 74 351 Q84 355 93.5 352.5 Q103 350 108 340 Q113 332 111.5 322.5 Q110 313 107 304 Q104 296 100 288 Q96 280 91 272 Q81 256 68 241.5 Q55 227 39 216 Q32 211 23.5 207.5 Q15 204 6 206 Q-10 208 -17 224 Q-24 238 -24.5 254 Q-25 270 -12 281 Q-4 287 2 281 Q4 279 4.5 274.5 Q5 270 2 267 Q-6 261 -4 248 Q-4 243 -2.5 238 Q-1 233 2 229 Q6 224 11 224.5 Q16 225 21.5 228 Q27 231 32 234.5 Q37 238 40 241 Q51 251 60 262 Q69 273 77 286 Q80 292 83.5 298 Q87 304 89 311 Q91 316 92 322 Q93 328 90 332 Q86 336 80 333.5 Q74 331 70 329 L40 314 Q32 310 27 316.5 Q22 323 28 330 Q38 341 48 352.5 Q58 364 69 375 Q77 384 85.5 393.5 Q94 403 102 413 Q105 417 107.5 420.5 Q110 424 112 428 Q94 415 78 400 Q62 385 48 368 Q46 365 41.5 365 Q37 365 35 368 Q28 375 35 382 Q45 394 56 405 Q67 416 79 427 Q84 432 90 436 Q96 440 102 445 Q107 449 113.5 453 Q120 457 127 452 Q133 449 134.5 443 Q136 437 134 430.5 Q132 424 128.5 417.5 Q125 411 122 407 Z " />
<glyph glyph-name="four" unicode="4" horiz-adv-x="143" d="M128 435 Q130 439 134 439.5 Q138 440 141 438.5 Q144 437 145.5 433.5 Q147 430 145 426 Q138 413 132 401 Q126 389 119 377 Q119 373 116 370 Q96 332 76.5 294 Q57 256 38 218 L38 212 Q37 205 31.5 202 Q26 199 20 200 Q15 202 14 206.5 Q13 211 15 215 Q31 247 46.5 278 Q62 309 79 341 Q74 338 68 334 L44 322 Q38 320 31.5 318 Q25 316 18 320 Q11 324 9.5 329.5 Q8 335 8.5 342 Q9 349 12 355.5 Q15 362 17 367 Q29 391 45 412 Q61 433 80 451 Q87 458 94 451 Q101 444 94 438 Q85 429 77 420 Q69 411 61 400 Q54 392 48 382.5 Q42 373 37 363 Q35 358 32.5 353.5 Q30 349 28 344 Q28 342 27.5 340.5 Q27 339 28 337 L30 337 Q35 339 39.5 341.5 Q44 344 49 346 Q54 349 58.5 351.5 Q63 354 68 357 Q76 362 84 368.5 Q92 375 100 382 Q107 395 114 408 Q121 421 128 435 Z M28 337 Q28 335 28.5 336 Q29 337 28 337 Z " />
<glyph glyph-name="five" unicode="5" horiz-adv-x="160" d="M151 451 Q155 450 157 446 Q159 442 158 439 Q155 430 146 432 Q130 434 114.5 434.5 Q99 435 83 434 Q72 417 63 400 Q54 383 46 365 Q56 372 67 376.5 Q78 381 89 379 Q109 377 115 361 Q118 352 116 342.5 Q114 333 110 325 Q102 306 90.5 289 Q79 272 65 257 Q54 243 37 228 Q29 221 20.5 215 Q12 209 2 207 Q-7 205 -16.5 207 Q-26 209 -31 218 Q-35 227 -32 236 Q-29 245 -23 252 Q-17 259 -10 252.5 Q-3 246 -9 239 Q-14 234 -13 228 L-13 227 Q-12 226 -11.5 226 Q-11 226 -10 225 Q-3 223 4.5 228 Q12 233 17 237 Q30 247 41 259 Q52 271 62 283 L80 310 Q89 323 95 337 Q97 342 97.5 348 Q98 354 95 357 Q93 360 87.5 360 Q82 360 77 359 Q63 355 50.5 344.5 Q38 334 27 324 Q22 319 15 322.5 Q8 326 11 334 Q31 383 57 428 Q61 436 63 439 Q65 442 67 445 Q69 448 71 450 Q73 453 77 453 Q81 453 85 454 L99 454 Q124 454 151 451 Z " />
<glyph glyph-name="six" unicode="6" horiz-adv-x="150" d="M129 446 Q131 434 124 427 Q117 422 112 427 Q68 395 38 352 Q21 330 7 301 Q5 297 3 293.5 Q1 290 -1 285 Q4 293 10 300 Q16 307 22 315 Q28 322 34.5 328.5 Q41 335 49 340 Q57 346 66.5 349.5 Q76 353 84 345 Q96 334 93.5 316.5 Q91 299 86 287 Q74 258 49 234 Q44 229 38 224.5 Q32 220 26 216 Q19 211 12.5 208 Q6 205 -2 203 Q-21 199 -30 214 Q-37 227 -34 243 Q-32 260 -25.5 276.5 Q-19 293 -11 308 Q5 340 23 365 Q42 391 64.5 413 Q87 435 114 451 Q119 454 123 452.5 Q127 451 129 446 Z M27 290 Q10 268 -5 239 Q-6 236 -9.5 234.5 Q-13 233 -16 234 Q-16 232 -14 226 Q-12 221 -8 221.5 Q-4 222 0 224 Q6 226 11.5 229.5 Q17 233 22 237 Q27 241 31.5 244.5 Q36 248 41 253 Q60 272 69 296 Q74 311 74 322 Q74 326 72 330 L71 331 Q70 331 69.5 330.5 Q69 330 68 330 Q62 327 56.5 322 Q51 317 46 312 Q41 307 36.5 301.5 Q32 296 27 290 Z " />
<glyph glyph-name="seven" unicode="7" horiz-adv-x="118" d="M119 453 Q129 450 130 441.5 Q131 433 126 425 Q120 417 113 410.5 Q106 404 99 397 Q73 368 47 336 Q-2 273 -36 207 Q-38 203 -42 202.5 Q-46 202 -49 204 Q-52 206 -53.5 209.5 Q-55 213 -53 217 Q-44 234 -34 251 Q-24 268 -13 285 Q7 316 29 344.5 Q51 373 75 399 Q82 407 88 413.5 Q94 420 101 427 Q103 429 104.5 430.5 Q106 432 108 434 Q88 431 68.5 428 Q49 425 29 421 Q20 421 17 428 Q15 438 24 440 Q36 442 48 444 Q60 446 73 448 Q78 449 84 449.5 Q90 450 96 452 Q101 453 107 454 Q113 455 119 453 Z " />
<glyph glyph-name="eight" unicode="8" horiz-adv-x="143" d="M148 438 Q149 430 145.5 423 Q142 416 137 410 Q131 402 125.5 395 Q120 388 115 380 Q104 366 94.5 352.5 Q85 339 74 325 L75 324 Q79 317 81.5 309.5 Q84 302 83 294 Q83 278 74 265.5 Q65 253 54 243 Q41 232 27 222 Q13 212 -3 207 Q-11 205 -19 203.5 Q-27 202 -34 207 Q-42 212 -42 220.5 Q-42 229 -40 237 Q-37 245 -33.5 252.5 Q-30 260 -26 267 Q-19 281 -9 296 Q7 322 28 346 Q24 351 22.5 357.5 Q21 364 23 370 Q26 378 31.5 384 Q37 390 43 395 Q70 419 97 436 Q103 441 110 445.5 Q117 450 125 453 Q133 457 140 452.5 Q147 448 148 438 Z M129 437 Q129 438 128 438 L129 437 Z M33 251 Q44 259 54 270 Q64 281 64 296 Q64 308 56.5 316 Q49 324 41 332 Q30 319 20 305 Q10 291 1 276 Q-4 268 -7.5 260 Q-11 252 -16 244 Q-18 240 -19.5 236.5 Q-21 233 -22 228 Q-22 227 -22.5 226 Q-23 225 -23 224 L-21 224 Q-18 225 -14.5 225 Q-11 225 -7 227 Q-3 228 0 229.5 Q3 231 6 233 Q21 240 33 251 Z M116 414 Q119 419 122 422.5 Q125 426 127 430 Q127 431 128 432 Q127 432 126 431 L125 431 Q123 429 121 428.5 Q119 428 117 426 Q87 407 64 387 Q60 384 57 381 Q54 378 51 375 Q49 373 46.5 371 Q44 369 43 366 Q40 360 45 355 Q50 350 54 346 Q57 344 61 340 Q72 354 82.5 368.5 Q93 383 104 398 Q107 402 110 406 Q113 410 116 414 Z " />
<glyph glyph-name="nine" unicode="9" horiz-adv-x="153" d="M126 404 Q134 400 131 393 Q118 356 104 325 Q97 310 89 295.5 Q81 281 73 267 Q65 252 56 239 Q52 234 47.5 228.5 Q43 223 38 218 Q33 213 26.5 210 Q20 207 12 207 Q5 206 -1 209.5 Q-7 213 -11 218 Q-22 231 -17.5 246 Q-13 261 -2 271 Q5 278 12 271 Q19 264 12 257 Q1 248 1 237 Q3 227 10 226 Q20 224 27.5 234 Q35 244 40 251 Q48 263 55 274.5 Q62 286 69 298 Q74 308 78.5 317.5 Q83 327 88 337 Q83 332 78.5 327.5 Q74 323 69 319 Q61 312 52.5 307 Q44 302 34 304 Q23 305 17 313 Q11 321 12 332 Q14 342 17.5 350.5 Q21 359 26 368 Q33 384 44 401 Q49 409 54.5 416 Q60 423 66 430 Q73 437 81.5 443.5 Q90 450 100 452 Q110 455 118 450 Q126 445 129 435 Q131 427 129.5 419.5 Q128 412 126 404 Z M72 348 Q81 359 90 369.5 Q99 380 107 391 Q104 394 105 400 Q106 405 107 409.5 Q108 414 110 419 Q112 427 109 431 Q107 436 100 431.5 Q93 427 89 424 Q78 415 69.5 403.5 Q61 392 53 379 Q49 372 46 365.5 Q43 359 40 352 Q38 349 37 345.5 Q36 342 34 339 Q33 336 32 332.5 Q31 329 32 326 Q34 321 39.5 323 Q45 325 48 327 Q55 331 60.5 337 Q66 343 72 348 Z " />
<glyph glyph-name="hyphen" unicode="&#x2d;" horiz-adv-x="155" d="M99 334 Q109 334 109 324 Q109 314 99 314 L20 314 Q10 314 10 324 Q10 334 20 334 L99 334 L99 334 Z " />
<glyph glyph-name="quotedblleft" unicode="&#x201c;" horiz-adv-x="235" d="M212 741 Q214 745 218 745.5 Q222 746 225 744 Q228 742 229.5 738.5 Q231 735 229 731 Q224 721 219.5 711.5 Q215 702 210 692 Q208 688 204 687.5 Q200 687 197 689 Q194 691 192.5 694.5 Q191 698 193 702 L212 741 Z M243 742 Q245 746 249 747 Q253 748 256 746 Q259 744 260.5 740 Q262 736 260 732 L233 680 Q231 676 227.5 675.5 Q224 675 221 677 Q218 679 216.5 682.5 Q215 686 217 690 L243 742 Z " />
<glyph glyph-name="quotedblright" unicode="&#x201d;" horiz-adv-x="236" d="M212 741 Q214 745 218 745.5 Q222 746 225 744 Q228 742 229.5 738.5 Q231 735 229 731 Q224 721 219.5 711.5 Q215 702 210 692 Q208 688 204 687.5 Q200 687 197 689 Q194 691 192.5 694.5 Q191 698 193 702 L212 741 Z M243 742 Q245 746 249 747 Q253 748 256 746 Q259 744 260.5 740 Q262 736 260 732 L233 680 Q231 676 227.5 675.5 Q224 675 221 677 Q218 679 216.5 682.5 Q215 686 217 690 L243 742 Z " />
<glyph glyph-name="quoteright" unicode="&#x2019;" horiz-adv-x="255" d="M255 743 Q257 747 261 748 Q265 749 268 747 Q271 745 272.5 741 Q274 737 272 733 L246 681 Q244 677 240 676.5 Q236 676 233 678 Q230 680 228.5 683.5 Q227 687 229 691 L255 743 L255 743 Z " />
<glyph glyph-name="quoteleft" unicode="&#x2018;" horiz-adv-x="257" d="M255 743 Q257 747 261 748 Q265 749 268 747 Q271 745 272.5 741 Q274 737 272 733 L246 681 Q244 677 240 676.5 Q236 676 233 678 Q230 680 228.5 683.5 Q227 687 229 691 L255 743 L255 743 Z " />
<glyph glyph-name="B" unicode="B" horiz-adv-x="835" d="M766 204 Q773 184 770.5 162 Q768 140 760 119 Q750 93 735 69.5 Q720 46 703 24 Q668 -20 631 -60 Q611 -80 591 -98 Q571 -116 549 -133 Q528 -150 505 -166 Q482 -182 459 -195 Q412 -220 359 -230 Q306 -240 260 -221 Q242 -213 226.5 -200.5 Q211 -188 201 -171 Q193 -157 192 -141 Q191 -125 193 -108 Q200 -72 223 -40 Q246 -8 274 18 Q293 34 313.5 48 Q334 62 354 74 Q377 88 400.5 99 Q424 110 447 120 Q547 160 648 164 Q652 164 654 161.5 Q656 159 655.5 155 Q655 151 652 148 Q649 145 645 145 Q633 144 621.5 143.5 Q610 143 598 141 Q551 134 504.5 120.5 Q458 107 413 85 Q370 64 327 35 Q310 24 294.5 11 Q279 -2 265 -17 Q253 -30 242.5 -44.5 Q232 -59 225 -74 Q222 -81 219 -88.5 Q216 -96 214 -103 L211 -118 Q210 -123 210.5 -125 Q211 -127 211 -131 Q212 -147 219 -159.5 Q226 -172 237 -182 Q252 -196 271.5 -203 Q291 -210 311 -212 Q360 -217 407.5 -198 Q455 -179 498 -150 Q584 -90 651 -11 Q668 9 684.5 29.5 Q701 50 715 72 Q729 93 739 116 Q749 139 751 163 Q754 197 735 218 Q726 229 713 235.5 Q700 242 686 246 Q651 254 613.5 249 Q576 244 539 235 Q518 230 497 223.5 Q476 217 456 208 Q441 202 427 195 Q422 191 415.5 187.5 Q409 184 403 179 Q403 177 397 173 Q394 171 390 170 Q386 169 383 167 Q381 165 379 165 Q369 163 369 172 Q368 174 370 179 Q373 182 375 183 L376 183 Q389 195 408 205 Q410 207 413.5 208.5 Q417 210 420 212 Q430 219 440.5 226 Q451 233 461 240 Q505 271 546 305 Q587 339 625 376 Q645 394 663.5 412.5 Q682 431 700 450 Q717 468 733 486.5 Q749 505 764 525 Q778 544 790.5 564.5 Q803 585 809 608 Q811 618 812.5 628 Q814 638 813 648 Q813 653 812 655 L812 658 Q811 658 811 659 Q810 662 809 665 Q808 668 807 670 Q807 671 806 671 Q806 672 805.5 672 Q805 672 805 673 Q804 674 803 674.5 Q802 675 801 676 Q802 677 801 677 Q801 677 799 678 Q798 679 797 679.5 Q796 680 795 681 L794 681 Q793 681 792 682 Q790 682 790 682.5 Q790 683 788 683 L786 683 L785 683 L779 683 L774 683 L771 683 L770 683 Q765 682 757 680 Q754 679 751 678 Q748 677 744 676 Q739 674 733 671 Q719 665 704.5 657.5 Q690 650 676 642 Q669 637 663 633.5 Q657 630 650 625 Q643 620 638 617 Q633 614 627 609 Q595 586 565 562 Q535 538 506 512 Q504 510 502.5 509 Q501 508 499 506 Q483 464 460 424 Q437 384 411 345 Q378 294 342 246 Q306 198 269 150 Q250 125 231 100.5 Q212 76 192 53 Q183 42 174 30 Q165 18 154 8 Q147 1 137.5 -3.5 Q128 -8 119 -7 Q104 -6 103 7.5 Q102 21 106 33 Q109 44 113 54.5 Q117 65 123 76 Q137 99 151 121 Q165 143 180 166 Q196 189 212 212 Q228 235 246 258 Q281 305 319 348.5 Q357 392 398 434 Q418 455 439 475.5 Q460 496 482 516 Q501 564 502 610 Q502 627 499 644 Q496 661 486 675 Q477 689 462 697 Q447 705 429 708 Q391 716 349.5 707 Q308 698 270 681 Q235 666 202 646.5 Q169 627 140 601 Q114 578 89.5 550.5 Q65 523 45 493 Q35 479 27.5 464 Q20 449 15 432 L15 431 L13 429 L13 425 Q12 423 12 418 Q11 416 11 411 Q11 410 10.5 409 Q10 408 10 407 L10 405 Q10 392 15 380 Q19 367 30 358 Q45 346 63 343 Q84 340 105 344 Q126 348 146 355 Q186 366 222 391.5 Q258 417 272 459 Q277 467 285 465 Q294 463 290 453 Q283 433 269 414.5 Q255 396 238 382 Q219 366 198.5 355.5 Q178 345 156 338 Q133 330 110.5 325.5 Q88 321 66 323 Q45 325 28 334.5 Q11 344 0 361 Q-7 374 -8.5 389.5 Q-10 405 -8 421 Q-1 457 20.5 490.5 Q42 524 67 553 Q91 580 118 605 Q145 630 176 650 Q214 676 256 695 Q298 714 341 724 Q363 729 384.5 730.5 Q406 732 427 729 Q447 726 464.5 718.5 Q482 711 496 697 Q508 684 514 666.5 Q520 649 521.5 629.5 Q523 610 520.5 590 Q518 570 514 551 Q512 549 512 546 Q512 543 510 541 Q526 554 541 566.5 Q556 579 573 591 Q596 608 619.5 625 Q643 642 667 657 Q695 676 724 688 Q738 694 752 698 Q766 702 781 703 Q793 703 804 699 Q815 695 822 686 Q831 672 833 655 Q835 638 831 621 Q826 596 815 573.5 Q804 551 790 530 Q775 509 758.5 489.5 Q742 470 725 451 Q687 409 647 370.5 Q607 332 565 297 Q547 283 529.5 269 Q512 255 493 242 Q539 256 581 263 Q619 270 657 269.5 Q695 269 727 251 Q741 243 751 231.5 Q761 220 766 204 Z M445 436 Q450 446 455 455.5 Q460 465 465 475 Q404 417 348 355 Q311 313 277.5 269.5 Q244 226 212 181 Q197 158 182 135.5 Q167 113 153 90 Q150 85 147.5 80 Q145 75 141 70 L140 69 Q138 65 138 65 L129 44 Q125 36 124 32 Q124 30 123 29 Q122 29 122 28 L122 27 Q122 24 121 22 Q121 18 120 16 Q120 15 120.5 15 Q121 15 121 14 L121 13 Q121 13 122 12 L124 12 L125 12 Q129 14 131.5 15 Q134 16 138 18 Q143 23 147 27.5 Q151 32 156 37 Q161 42 165 48 Q169 54 174 59 Q212 105 247.5 151 Q283 197 318 245 Q353 291 385 338.5 Q417 386 445 436 Z " />
<glyph glyph-name="C" unicode="C" horiz-adv-x="633" d="M625 680 Q636 653 634 623 Q632 590 619.5 559 Q607 528 590 501 Q550 442 492 396 Q478 385 463 375.5 Q448 366 432 359 Q419 354 404 352 Q389 350 377 358 Q367 364 363.5 373.5 Q360 383 360.5 393.5 Q361 404 364 414.5 Q367 425 370 433 Q375 447 383 460.5 Q391 474 399 486 Q410 502 421 516.5 Q432 531 446 544 Q450 547 454 546.5 Q458 546 460.5 543 Q463 540 463.5 536.5 Q464 533 460 530 Q448 518 437 505 Q426 492 417 478 Q412 471 408 464 Q404 457 399 449 Q397 445 395.5 442 Q394 439 392 435 Q392 435 390 431 Q389 431 389 430 L389 428 Q385 421 383 411 Q382 408 381.5 405.5 Q381 403 380 400 L380 398 L380 393 L380 388 L380 387 L380 386 L380 387 L380 386 Q380 385 380.5 384.5 Q381 384 381 382 L381 381 Q381 381 382 381 L382 380 L382 381 L382 380 Q382 378 384 378 Q383 378 384 377 Q384 376 385 376 L385 375 L387 375 Q388 374 389 374 L389 373 Q394 372 398.5 371.5 Q403 371 408 373 Q417 374 425 377.5 Q433 381 441 386 Q499 420 543 471 Q564 496 581 524 Q598 552 608 584 Q615 609 615 635.5 Q615 662 600 684 Q591 697 578 704.5 Q565 712 550 716 Q535 720 519 720.5 Q503 721 489 720 Q456 716 424.5 703 Q393 690 365 671 Q335 651 308 628 Q281 605 256 579 Q154 475 87 352 Q70 320 55.5 288.5 Q41 257 29 224 Q15 190 3.5 155 Q-8 120 -17 85 Q-27 49 -33 12.5 Q-39 -24 -39 -61 Q-39 -96 -31 -134 Q-27 -150 -22 -166 Q-17 -182 -6 -194 Q3 -206 17 -212 Q25 -216 33 -216.5 Q41 -217 49 -217 Q64 -216 79 -212 Q94 -208 108 -203 Q134 -194 159 -180.5 Q184 -167 207 -151 Q256 -117 298.5 -74.5 Q341 -32 379 13 Q417 58 452.5 103 Q488 148 526 193 Q533 200 540 193 Q546 188 540 180 Q531 169 522 158.5 Q513 148 505 137 Q465 88 426.5 39.5 Q388 -9 345 -55 Q303 -100 255.5 -139.5 Q208 -179 152 -205 Q139 -212 125 -217 Q111 -222 97 -227 Q80 -232 62.5 -235 Q45 -238 28 -235 Q11 -233 -3 -222.5 Q-17 -212 -27 -198 Q-37 -183 -42.5 -165 Q-48 -147 -52 -130 Q-60 -91 -59 -52.5 Q-58 -14 -51 24.5 Q-44 63 -33 101 Q-22 139 -10 175 Q3 210 16 244.5 Q29 279 46 313 Q78 381 118 441 Q139 472 161.5 501 Q184 530 209 558 Q235 586 262.5 612.5 Q290 639 320 662 Q349 685 381 703.5 Q413 722 449 732 Q482 741 518 740.5 Q554 740 584 723 Q611 708 625 680 Z " />
<glyph glyph-name="A" unicode="A" horiz-adv-x="749" d="M629 281 Q607 241 585.5 201 Q564 161 543 120 Q517 69 493 18 Q469 -33 447 -86 Q443 -96 435 -93 Q431 -92 428.5 -88.5 Q426 -85 428 -81 Q433 -68 439 -55.5 Q445 -43 450 -30 Q473 21 497.5 71 Q522 121 548 171 Q564 203 580.5 233.5 Q597 264 614 295 Q510 283 411 253 Q391 247 371 240 Q351 233 331 225 Q310 197 288 164 Q256 116 225 69 Q194 22 164 -27 Q138 -71 112.5 -114.5 Q87 -158 64 -203 Q57 -216 51 -229 Q49 -232 45 -233 Q41 -234 38 -232 Q30 -228 34 -221 Q34 -218 35 -217 Q35 -216 37 -214 Q37 -213 37.5 -212.5 Q38 -212 38 -211 Q38 -210 39 -210 Q41 -205 43 -201.5 Q45 -198 47 -193 Q51 -185 55 -177 Q59 -169 63 -161 Q122 -45 190 69 Q209 102 229 134.5 Q249 167 269 199 Q226 180 189 160 Q185 158 181.5 159 Q178 160 176.5 163 Q175 166 175.5 170 Q176 174 180 176 Q206 191 233 204 Q260 217 287 229 Q297 245 307 260.5 Q317 276 327 292 Q362 346 396.5 399 Q431 452 462 509 Q477 536 490 564.5 Q503 593 514 622 Q518 633 521.5 644.5 Q525 656 527 667 Q528 676 527.5 685.5 Q527 695 523 703 Q518 713 507.5 717 Q497 721 486 722 Q460 723 431 717 Q405 712 379.5 702.5 Q354 693 330 680 Q285 657 245.5 627 Q206 597 171 563 Q177 561 181 559 Q193 554 200.5 543 Q208 532 211 520 Q215 506 213.5 491.5 Q212 477 209 463 Q206 450 202 438 Q198 426 194 414 Q184 388 172 363.5 Q160 339 143 318 Q127 296 104 281 Q92 273 78 267 Q64 261 49 264 Q30 268 22.5 284 Q15 300 14 317 Q13 336 16.5 354.5 Q20 373 26 390 Q34 416 46 439 Q58 462 74 482 Q82 493 89.5 502.5 Q97 512 105 521 Q97 527 103 534 Q108 545 116.5 551.5 Q125 558 136 562 Q138 563 140.5 563 Q143 563 145 564 L151 570 Q194 612 242.5 648.5 Q291 685 346 709 Q372 721 400 729.5 Q428 738 457 741 Q473 743 489 742 Q505 741 519 733 Q540 722 545 698 Q551 672 543 646.5 Q535 621 525 598 Q500 535 468 479 Q435 420 398 364.5 Q361 309 325 252 L319 243 Q348 283 379 321.5 Q410 360 442 398 Q477 440 514.5 480 Q552 520 591 559 Q611 578 631 596.5 Q651 615 671 634 Q691 652 712 670 Q733 688 756 702 Q762 705 770 709 Q778 713 786 715 Q794 717 801.5 715 Q809 713 814 706 Q822 695 820.5 681.5 Q819 668 817 657 Q815 644 810.5 631.5 Q806 619 801 606 Q794 590 785 574 Q779 561 772.5 549 Q766 537 760 524 Q733 473 706 423 Q679 373 651 322 Q650 321 650 320 Q650 319 649 318 L637 297 L631 285 L629 281 Z M180 537 Q169 547 154 545 Q153 544 152 543.5 Q151 543 150 541 Q116 506 85.5 465.5 Q55 425 42 376 Q40 368 38 359 Q36 350 35 343 Q34 338 34 334 Q34 330 34 325 L34 316 L34 312 L34 310 Q35 308 35 306 Q35 304 36 302 Q36 301 36.5 300.5 Q37 300 37 299 L38 296 Q39 291 44 287 L45 287 L45 286 Q46 286 46.5 285.5 Q47 285 48 285 Q49 285 49 284 L50 284 Q51 284 51.5 283.5 Q52 283 53 283 L55 283 L56 283 L62 283 Q69 283 75 286 Q86 291 96 298.5 Q106 306 115 315 Q124 324 131 333.5 Q138 343 145 354 Q158 376 167 399 Q176 422 184 446 Q188 458 190.5 470.5 Q193 483 194 495 Q195 506 192 517.5 Q189 529 180 537 Z M539 303 Q560 307 581.5 310 Q603 313 625 316 Q633 330 640 342.5 Q647 355 655 369 Q682 419 708.5 468 Q735 517 761 568 Q766 579 771.5 589.5 Q777 600 782 611 Q782 612 782.5 613 Q783 614 783 615 L784 615 L784 617 Q786 620 786.5 623 Q787 626 789 628 Q793 639 796 654 Q799 660 799 667 Q800 669 800 671 L800 672 Q800 674 800.5 675 Q801 676 801 678 L801 684 L801 687 L801 688 Q800 689 800 690 L800 692 L799 693 L799 694 L798 695 L799 694 L798 695 Q797 696 796.5 696 Q796 696 798 696 L795 696 L793 696 L791 696 Q781 694 772.5 689 Q764 684 756 679 Q735 666 715 647 Q674 612 635.5 574.5 Q597 537 559 498 Q521 460 486 420 Q451 380 416 338 Q399 317 383 296 Q367 275 351 254 Q397 270 444 282.5 Q491 295 539 303 Z " />
</font>
</svg>
