<?xml version="1.0" encoding="UTF-8"?>
<svg xmlns="http://www.w3.org/2000/svg" xmlns:xlink="http://www.w3.org/1999/xlink" version="1.2" >
<font id="Aaron Black">
<font-face  font-family="Aaron" units-per-em="1024" ascent="853" descent="-100" font-style="normal" font-weight="900" font-stretch="normal" cap-height="567" x-height="436" underline-position="0" underline-thickness="0" />
<missing-glyph  horiz-adv-x="472" d="M0 700 C0 700 432 700 432 700 C432 700 432 0 432 0 C432 0 0 0 0 0 C0 0 0 700 0 700 L0 700 Z M50 50 C50 50 382 50 382 50 C382 50 382 650 382 650 C382 650 50 650 50 650 C50 650 50 50 50 50 L50 50 Z " />
<glyph glyph-name="NULL" d="" />
<glyph glyph-name="CR" unicode="&#xd;" horiz-adv-x="256" d="" />
<glyph glyph-name="space" unicode="&#x20;" horiz-adv-x="251" d="" />
<glyph glyph-name="exclam" unicode="&#x21;" horiz-adv-x="310" d="M168 -5 C139 -5 118 1 106 13 C94 25 88 46 88 75 C88 105 94 125 106 137 C118 149 139 155 168 155 C198 155 218 149 230 137 C242 125 248 105 248 75 C248 46 242 25 230 13 C218 1 198 -5 168 -5 L168 -5 Z M250 467 C250 467 178 230 178 230 C178 230 158 230 158 230 C158 230 67 467 67 467 C52 505 51 532 65 548 C79 564 110 572 158 572 C204 572 232 564 246 548 C260 532 262 505 250 467 L250 467 Z " />
<glyph glyph-name="quotedbl" unicode="&#x22;" horiz-adv-x="416" d="M223 567 C223 567 376 567 376 567 C376 567 309 307 309 307 C309 307 289 307 289 307 C289 307 223 567 223 567 L223 567 Z M39 567 C39 567 193 567 193 567 C193 567 126 307 126 307 C126 307 106 307 106 307 C106 307 39 567 39 567 L39 567 Z " />
<glyph glyph-name="numbersign" unicode="&#x23;" horiz-adv-x="576" d="M400 578 C400 578 458 578 458 578 C458 578 438 454 438 454 C438 454 557 454 557 454 C557 454 540 338 540 338 C540 338 419 338 419 338 C419 338 407 258 407 258 C407 258 515 258 515 258 C515 258 499 142 499 142 C499 142 388 142 388 142 C388 142 365 0 365 0 C365 0 306 0 306 0 C306 0 329 142 329 142 C329 142 204 142 204 142 C204 142 181 0 181 0 C181 0 123 0 123 0 C123 0 146 142 146 142 C146 142 14 142 14 142 C14 142 30 258 30 258 C30 258 165 258 165 258 C165 258 177 338 177 338 C177 338 50 338 50 338 C50 338 66 454 66 454 C66 454 196 454 196 454 C196 454 216 578 216 578 C216 578 274 578 274 578 C274 578 254 454 254 454 C254 454 380 454 380 454 C380 454 400 578 400 578 L400 578 Z M235 338 C235 338 223 258 223 258 C223 258 348 258 348 258 C348 258 361 338 361 338 C361 338 235 338 235 338 L235 338 Z " />
<glyph glyph-name="dollar" unicode="&#x24;" horiz-adv-x="530" d="M289 642 C289 642 329 642 329 642 C329 642 329 563 329 563 C341 561 355 558 372 555 C390 553 409 549 431 545 C431 545 439 416 439 416 C438 416 436 415 433 415 C433 415 426 415 426 415 C423 421 420 425 416 429 C413 433 410 438 406 443 C399 455 390 464 377 473 C365 483 349 491 329 498 C329 498 329 346 329 346 C386 333 425 314 449 288 C473 262 485 226 485 178 C485 124 474 83 450 55 C426 27 386 9 329 1 C329 1 329 -75 329 -75 C329 -75 289 -75 289 -75 C289 -75 289 -3 289 -3 C283 -3 277 -3 270 -4 C264 -4 257 -5 249 -5 C249 -5 249 -75 249 -75 C249 -75 209 -75 209 -75 C209 -75 209 -3 209 -3 C193 -1 172 1 145 5 C119 9 84 15 42 22 C42 22 34 151 34 151 C38 151 40 152 41 152 C41 152 47 152 47 152 C51 149 53 146 55 142 C57 139 80 77 89 71 C90 70 87 62 89 61 C138 43 172 45 181 43 C182 42 205 41 211 40 C211 40 209 215 209 215 C206 216 203 217 200 217 C198 218 195 219 191 219 C134 233 94 251 69 275 C45 300 32 335 32 379 C32 440 45 484 72 514 C100 544 145 563 209 569 C209 569 209 642 209 642 C209 642 249 642 249 642 C249 642 249 572 249 572 C249 572 276 572 276 572 C277 572 278 572 279 571 C283 571 286 571 289 570 C289 570 289 642 289 642 L289 642 Z M249 42 C249 42 249 42 249 42 C249 42 249 37 249 37 C263 37 277 38 289 40 C289 40 289 190 289 190 C283 193 277 195 270 197 C264 199 257 202 249 204 C249 204 249 42 249 42 L249 42 Z M289 511 C289 511 289 511 289 511 C287 512 286 513 283 513 C281 514 278 515 275 515 C270 517 266 517 261 518 C257 520 253 521 249 522 C249 522 249 367 249 367 C255 365 262 364 268 362 C275 360 282 358 289 356 C289 356 289 511 289 511 L289 511 Z M209 381 C209 381 209 525 209 525 C188 520 173 511 163 498 C153 486 148 468 148 445 C148 433 152 422 162 411 C172 401 188 391 209 381 L209 381 Z M249 531 C249 531 249 530 249 530 C250 531 251 531 253 531 C253 531 249 531 249 531 L249 531 Z M329 170 C329 170 329 49 329 49 C355 61 367 81 367 110 C367 122 364 132 358 142 C352 152 343 162 329 170 L329 170 Z " />
<glyph glyph-name="ampersand" unicode="&#x26;" horiz-adv-x="727" d="M619 338 C619 338 619 323 619 323 C619 323 610 323 610 323 C600 323 592 324 585 324 C579 325 574 324 570 319 C567 315 565 307 563 293 C562 280 561 260 561 232 C561 232 561 206 561 206 C561 167 555 133 543 105 C575 72 599 49 616 35 C634 21 647 14 659 11 C671 9 682 10 691 14 C701 19 713 23 727 25 C727 25 727 0 727 0 C695 -6 666 -11 642 -18 C618 -24 596 -28 575 -30 C555 -31 534 -28 513 -22 C493 -15 469 -1 443 19 C397 3 333 -5 253 -5 C179 -5 128 6 96 27 C65 49 49 85 49 135 C49 179 59 216 79 244 C100 273 134 298 182 319 C167 343 158 362 154 376 C150 391 148 407 148 423 C148 477 160 516 185 538 C211 561 253 572 311 572 C371 572 414 565 438 550 C463 536 475 511 475 475 C475 444 466 418 444 398 C423 378 387 361 337 346 C347 335 356 323 367 309 C379 296 391 281 404 265 C427 239 447 215 465 193 C484 172 501 153 516 135 C524 155 528 178 528 206 C528 206 528 232 528 232 C528 260 529 279 527 292 C526 306 525 314 521 318 C518 323 514 325 508 324 C502 324 495 323 485 323 C485 323 476 323 476 323 C476 323 476 338 476 338 C476 338 619 338 619 338 L619 338 Z M315 375 C315 375 315 375 315 375 C331 385 341 397 348 412 C356 428 359 446 359 467 C359 494 355 512 346 523 C338 535 323 540 302 540 C288 540 279 537 273 529 C267 521 264 508 264 489 C264 482 264 476 265 468 C267 461 268 453 272 444 C276 436 282 427 288 415 C295 404 304 391 315 375 L315 375 Z M393 65 C393 65 393 65 393 65 C379 79 364 95 348 113 C332 131 315 152 295 174 C259 218 231 253 210 280 C198 262 192 232 192 192 C192 145 203 112 225 92 C247 72 284 62 336 62 C358 62 377 63 393 65 L393 65 Z " />
<glyph glyph-name="quotesingle" unicode="&#x27;" horiz-adv-x="232" d="M39 567 C39 567 193 567 193 567 C193 567 126 307 126 307 C126 307 106 307 106 307 C106 307 39 567 39 567 L39 567 Z " />
<glyph glyph-name="parenleft" unicode="&#x28;" horiz-adv-x="320" d="M298 597 C298 597 310 575 310 575 C286 561 267 549 249 535 C232 522 218 505 207 484 C197 464 190 438 184 406 C179 375 176 334 176 282 C176 232 178 191 183 159 C189 127 197 102 207 81 C218 61 231 44 248 30 C266 17 286 3 310 -11 C310 -11 298 -33 298 -33 C255 -7 219 15 188 35 C158 55 134 77 114 99 C95 122 81 148 72 176 C64 205 59 240 59 282 C59 324 64 360 72 388 C81 417 94 443 113 465 C133 488 157 509 187 529 C218 550 255 573 298 597 L298 597 Z " />
<glyph glyph-name="parenright" unicode="&#x29;" horiz-adv-x="320" d="M10 -33 C10 -33 -3 -11 -3 -11 C22 3 42 17 59 30 C77 44 91 60 101 80 C112 101 119 126 124 158 C130 190 132 232 132 282 C132 333 131 373 125 405 C120 437 112 463 101 483 C91 504 78 521 60 534 C43 548 22 561 -3 575 C-3 575 10 597 10 597 C54 573 90 551 120 530 C151 510 175 488 194 465 C214 443 228 417 236 388 C245 360 249 324 249 282 C249 240 245 205 236 176 C228 148 215 122 195 99 C176 77 152 55 121 35 C91 15 54 -7 10 -33 L10 -33 Z " />
<glyph glyph-name="asterisk" unicode="&#x2a;" horiz-adv-x="300" d="M127 447 C127 447 23 467 23 467 C10 470 4 476 2 484 C1 493 6 506 16 524 C27 543 35 554 43 557 C51 561 60 557 69 547 C69 547 140 465 140 465 C140 465 104 567 104 567 C100 580 100 589 107 594 C115 600 129 602 150 602 C172 602 185 600 192 594 C200 589 201 580 196 567 C196 567 160 465 160 465 C160 465 231 547 231 547 C241 557 248 561 256 557 C264 554 274 543 284 524 C295 506 301 493 299 484 C298 476 291 470 277 467 C277 467 173 447 173 447 C173 447 277 427 277 427 C291 425 297 419 298 410 C300 402 295 388 284 369 C274 351 265 341 257 337 C249 334 241 337 231 347 C231 347 160 429 160 429 C160 429 196 327 196 327 C201 315 201 306 193 300 C186 295 172 292 150 292 C129 292 116 295 108 300 C101 306 100 315 104 327 C104 327 140 429 140 429 C140 429 69 347 69 347 C60 337 52 334 44 337 C36 341 27 351 16 369 C6 388 0 402 1 410 C3 419 10 425 23 427 C23 427 127 447 127 447 L127 447 Z " />
<glyph glyph-name="plus" unicode="&#x2b;" horiz-adv-x="503" d="M213 395 C213 395 286 395 286 395 C286 395 286 254 286 254 C286 254 424 254 424 254 C424 254 424 187 424 187 C424 187 286 187 286 187 C286 187 286 46 286 46 C286 46 213 46 213 46 C213 46 213 187 213 187 C213 187 75 187 75 187 C75 187 75 254 75 254 C75 254 213 254 213 254 C213 254 213 395 213 395 L213 395 Z " />
<glyph glyph-name="comma" unicode="&#x2c;" horiz-adv-x="282" d="M208 22 C208 22 208 22 208 22 C225 6 233 5 233 18 C233 -32 223 -71 201 -101 C179 -130 142 -154 89 -174 C89 -174 83 -157 83 -157 C114 -145 136 -131 148 -113 C161 -94 167 -69 167 -37 C167 -46 164 -49 155 -44 C147 -38 132 -25 112 -3 C94 1 80 8 72 20 C64 33 60 51 60 74 C60 104 66 124 78 136 C90 148 111 154 139 154 C169 154 189 148 201 136 C213 124 219 104 219 74 C219 52 216 35 208 22 L208 22 Z " />
<glyph glyph-name="hyphen" unicode="&#x2d;" horiz-adv-x="287" d="M20 147 C20 147 20 263 20 263 C20 263 268 263 268 263 C268 263 268 147 268 147 C268 147 20 147 20 147 L20 147 Z " />
<glyph glyph-name="period" unicode="&#x2e;" horiz-adv-x="265" d="M125 -5 C96 -5 75 1 63 13 C51 25 45 46 45 75 C45 105 51 125 63 137 C75 149 96 155 125 155 C155 155 175 149 187 137 C199 125 205 105 205 75 C205 46 199 25 187 13 C175 1 155 -5 125 -5 L125 -5 Z " />
<glyph glyph-name="slash" unicode="&#x2f;" horiz-adv-x="376" d="M0 -32 C0 -32 310 617 310 617 C310 617 377 617 377 617 C377 617 67 -32 67 -32 C67 -32 0 -32 0 -32 L0 -32 Z " />
<glyph glyph-name="zero" unicode="0" horiz-adv-x="568" d="M284 28 C309 28 326 42 336 71 C347 101 352 150 352 218 C352 288 348 337 337 365 C327 394 309 408 284 408 C260 408 244 394 233 365 C223 337 217 288 217 218 C217 150 222 102 232 72 C243 43 260 28 284 28 L284 28 Z M50 218 C50 259 54 293 62 321 C71 350 85 372 103 390 C122 408 145 421 175 429 C205 437 242 441 284 441 C327 441 362 437 392 429 C422 421 447 409 465 391 C484 373 498 351 506 322 C515 294 519 259 519 218 C519 178 515 144 506 115 C498 87 484 64 465 46 C447 28 423 15 393 7 C363 -1 327 -5 284 -5 C242 -5 206 -1 176 7 C146 15 122 27 103 45 C85 63 72 86 63 114 C55 143 50 178 50 218 L50 218 Z " />
<glyph glyph-name="one" unicode="1" horiz-adv-x="346" d="M291 436 C291 436 291 421 291 421 C291 421 285 421 285 421 C270 421 260 418 255 410 C251 402 248 384 248 356 C248 356 248 80 248 80 C248 52 251 35 255 27 C260 19 270 15 285 15 C285 15 291 15 291 15 C291 15 291 0 291 0 C291 0 248 0 248 0 C248 0 173 0 173 0 C173 0 98 0 98 0 C98 0 55 0 55 0 C55 0 55 15 55 15 C55 15 61 15 61 15 C77 15 87 19 91 27 C96 35 98 53 98 80 C98 80 98 356 98 356 C98 384 97 401 92 409 C88 417 77 421 61 421 C61 421 55 421 55 421 C55 421 55 436 55 436 C55 436 98 436 98 436 C98 436 173 436 173 436 C173 436 248 436 248 436 C248 436 291 436 291 436 L291 436 Z " />
<glyph glyph-name="two" unicode="2" horiz-adv-x="499" d="M459 75 C459 75 451 0 451 0 C451 0 25 0 25 0 C25 0 52 14 25 0 C25 0 25 33 25 33 C73 58 113 77 147 90 C181 104 208 117 229 130 C251 144 265 160 275 179 C285 199 290 227 290 263 C290 288 285 305 272 315 C260 326 238 331 208 331 C172 331 145 328 127 318 C109 309 96 294 87 272 C87 272 68 283 68 283 C80 312 93 336 106 356 C120 376 134 393 151 405 C169 418 187 426 209 432 C231 438 256 441 283 441 C347 441 392 432 418 412 C445 393 458 360 458 314 C458 294 456 277 451 261 C447 246 439 232 429 219 C419 207 407 196 391 184 C375 173 357 162 335 150 C335 150 387 150 387 150 C403 150 415 150 423 151 C432 153 439 154 443 157 C448 161 450 164 452 170 C454 176 456 184 457 193 C457 193 472 193 472 193 C470 172 468 152 466 134 C464 116 462 97 459 75 L459 75 Z " />
<glyph glyph-name="three" unicode="3" horiz-adv-x="484" d="M23 -47 C23 -47 21 -21 21 -21 C68 -19 107 -15 139 -9 C172 -2 198 7 218 18 C239 30 254 44 263 60 C273 77 277 97 277 120 C277 136 270 146 252 152 C235 158 205 161 163 161 C155 161 146 160 136 158 C132 157 127 156 122 154 C118 152 113 151 107 149 C107 149 107 174 107 174 C174 199 213 216 227 226 C241 236 231 241 197 241 C206 241 213 241 221 241 C229 241 237 241 244 240 C258 254 264 270 264 288 C264 304 258 316 244 322 C231 329 208 332 175 332 C135 332 104 328 81 319 C59 311 40 296 25 275 C25 275 8 288 8 288 C28 316 46 340 64 359 C83 379 102 394 121 406 C141 418 161 426 182 432 C204 438 227 441 251 441 C311 441 353 434 377 418 C402 402 414 375 414 337 C414 318 408 300 394 283 C380 267 357 250 325 232 C365 225 392 213 409 196 C427 180 435 157 435 128 C435 100 429 77 413 56 C398 36 374 18 341 4 C309 -10 267 -21 214 -29 C162 -37 98 -43 23 -47 L23 -47 Z " />
<glyph glyph-name="four" unicode="4" horiz-adv-x="499" d="M90 67 C90 67 226 67 226 67 C226 67 226 223 226 223 C226 223 227 224 227 224 C227 224 90 67 90 67 L90 67 Z M226 0 C226 0 32 0 32 0 C32 0 -5 0 -5 0 C-5 0 -5 26 -5 26 C-5 26 351 441 351 441 C351 441 376 441 376 441 C376 441 376 396 376 396 C376 396 376 67 376 67 C376 67 489 67 489 67 C489 67 489 0 489 0 C489 0 376 0 376 0 C376 0 376 -33 376 -33 C376 -33 226 -33 226 -33 C226 -33 226 0 226 0 L226 0 Z " />
<glyph glyph-name="five" unicode="5" horiz-adv-x="471" d="M61 111 C61 111 82 436 82 436 C82 436 127 436 127 436 C127 436 112 259 112 259 C112 259 172 259 172 259 C218 259 255 258 287 253 C319 249 345 241 365 231 C385 221 399 209 408 193 C418 178 422 159 422 137 C422 107 416 83 401 61 C387 40 365 22 333 8 C302 -6 262 -16 212 -24 C162 -32 102 -37 31 -40 C31 -40 30 -11 30 -11 C74 -9 111 -7 141 -3 C172 2 197 8 216 16 C236 24 250 33 258 45 C267 57 271 72 271 88 C271 97 259 103 233 106 C207 110 163 111 100 111 C100 111 61 111 61 111 L61 111 Z M325 436 C339 436 350 436 359 437 C369 439 375 441 381 443 C387 446 392 450 395 454 C399 459 402 465 405 473 C405 473 408 479 408 479 C408 479 423 479 423 479 C414 457 406 437 398 418 C391 400 383 379 373 357 C373 357 373 357 373 357 C373 357 340 278 340 278 C340 278 114 278 114 278 C114 278 127 436 127 436 C127 436 325 436 325 436 L325 436 Z " />
<glyph glyph-name="six" unicode="6" horiz-adv-x="573" d="M484 652 C484 652 485 627 485 627 C440 625 401 620 368 608 C336 597 309 581 287 558 C266 536 250 507 238 472 C227 438 220 396 218 347 C230 359 244 366 260 371 C276 377 296 379 319 379 C357 379 388 377 414 369 C440 362 461 352 477 336 C494 321 506 301 513 277 C521 253 524 224 524 190 C526 155 524 125 515 100 C507 76 493 56 472 40 C452 24 426 14 392 6 C359 -1 318 -5 270 -5 C229 -5 195 0 165 9 C136 19 112 34 94 54 C76 75 64 102 55 134 C47 167 42 207 42 253 C42 323 50 382 66 431 C82 481 108 520 143 552 C179 584 224 608 280 624 C336 640 404 650 484 652 L484 652 Z M217 298 C217 298 217 298 217 298 C217 264 218 233 217 203 C217 174 216 142 216 107 C216 82 222 64 232 53 C243 43 261 37 287 37 C319 37 340 48 352 70 C364 92 369 129 366 181 C366 239 362 278 350 302 C339 326 320 338 294 338 C276 338 262 336 250 329 C238 323 227 312 217 298 L217 298 Z " />
<glyph glyph-name="seven" unicode="7" horiz-adv-x="452" d="M14 283 C14 283 13 283 13 283 C13 283 30 436 30 436 C30 436 431 436 431 436 C431 436 442 422 442 422 C414 346 387 271 358 196 C330 122 301 46 273 -30 C273 -30 106 -30 106 -30 C106 -30 365 283 365 283 C365 283 93 283 93 283 C66 283 49 282 40 277 C32 273 26 262 24 246 C24 246 24 240 24 240 C24 240 9 240 9 240 C11 248 11 254 11 261 C12 269 13 276 14 283 L14 283 Z " />
<glyph glyph-name="eight" unicode="8" horiz-adv-x="545" d="M328 344 C328 344 328 344 328 344 C334 364 337 391 337 424 C337 466 331 495 319 513 C307 531 287 540 258 540 C235 540 219 535 209 525 C200 515 195 498 195 473 C195 445 202 423 216 405 C230 388 254 373 288 360 C296 358 303 356 309 353 C316 351 322 348 328 344 L328 344 Z M387 317 C387 317 387 317 387 317 C427 296 455 274 471 248 C488 223 496 193 496 159 C496 129 493 104 484 83 C476 63 462 47 444 33 C426 20 404 10 374 4 C345 -2 310 -5 268 -5 C186 -5 128 5 93 27 C59 49 41 86 41 136 C41 172 48 201 62 222 C77 244 101 259 133 268 C111 286 95 306 85 330 C75 354 70 383 70 415 C70 473 85 512 115 536 C145 560 196 572 266 572 C338 572 387 563 417 544 C447 526 462 494 462 448 C462 417 457 391 445 369 C433 348 414 331 387 317 L387 317 Z M191 232 C191 232 191 232 191 232 C185 216 182 192 182 160 C182 112 189 79 203 58 C218 38 242 27 276 27 C305 27 325 33 337 45 C349 57 355 78 355 108 C355 131 346 150 328 166 C310 182 279 198 235 214 C227 218 220 221 212 223 C205 226 198 229 191 232 L191 232 Z " />
<glyph glyph-name="nine" unicode="9" horiz-adv-x="573" d="M90 -215 C90 -215 89 -190 89 -190 C135 -188 174 -182 206 -171 C239 -159 266 -143 287 -121 C309 -99 325 -70 336 -36 C348 -1 354 41 356 89 C344 78 330 71 314 65 C298 60 279 57 255 57 C218 57 186 60 160 67 C134 75 114 85 97 100 C81 116 69 135 61 159 C54 183 50 213 50 247 C48 283 51 313 59 337 C68 362 82 382 102 397 C123 413 149 423 182 430 C216 438 256 441 304 441 C346 441 380 437 409 427 C439 418 462 403 480 382 C498 362 511 335 519 302 C528 270 532 230 532 183 C532 114 524 56 508 6 C492 -43 467 -83 431 -115 C396 -147 350 -171 294 -187 C238 -203 170 -212 90 -215 L90 -215 Z M357 139 C357 139 357 139 357 139 C357 173 357 204 357 233 C358 263 358 295 357 329 C358 355 354 373 342 383 C331 394 313 399 287 399 C256 399 234 388 222 366 C210 344 206 307 208 255 C208 198 213 158 224 134 C236 110 254 98 279 98 C298 98 312 102 324 108 C336 115 347 125 357 139 L357 139 Z " />
<glyph glyph-name="colon" unicode="&#x3a;" horiz-adv-x="265" d="M125 343 C96 343 75 349 63 361 C51 373 45 394 45 423 C45 453 51 473 63 485 C75 497 96 503 125 503 C155 503 175 497 187 485 C199 473 205 453 205 423 C205 394 199 373 187 361 C175 349 155 343 125 343 L125 343 Z M125 -5 C96 -5 75 1 63 13 C51 25 45 46 45 75 C45 105 51 125 63 137 C75 149 96 155 125 155 C155 155 175 149 187 137 C199 125 205 105 205 75 C205 46 199 25 187 13 C175 1 155 -5 125 -5 L125 -5 Z " />
<glyph glyph-name="semicolon" unicode="&#x3b;" horiz-adv-x="282" d="M139 368 C111 368 90 374 78 386 C66 398 60 419 60 448 C60 477 66 497 78 509 C90 521 111 527 139 527 C169 527 189 521 201 509 C213 497 219 477 219 448 C219 419 213 398 201 386 C189 374 169 368 139 368 L139 368 Z M208 22 C208 22 208 22 208 22 C225 6 223 -71 201 -101 C179 -130 142 -154 89 -174 C89 -174 83 -157 83 -157 C114 -145 136 -131 148 -113 C161 -94 167 -69 167 -37 C167 -46 170 -26 161 -21 C153 -15 148 -16 114 -8 C96 -4 80 8 72 20 C64 33 60 51 60 74 C60 104 66 124 78 136 C90 148 111 154 139 154 C169 154 189 148 201 136 C213 124 219 104 219 74 C219 52 216 35 208 22 L208 22 Z " />
<glyph glyph-name="less" unicode="&#x3c;" horiz-adv-x="546" d="M471 436 C471 436 471 361 471 361 C471 361 119 243 119 243 C119 243 471 125 471 125 C471 125 471 50 471 50 C471 50 50 199 50 199 C50 199 40 203 40 203 C40 203 40 284 40 284 C40 284 50 287 50 287 C50 287 471 436 471 436 L471 436 Z " />
<glyph glyph-name="equal" unicode="&#x3d;" horiz-adv-x="549" d="M93 201 C93 201 479 201 479 201 C479 201 479 135 479 135 C479 135 93 135 93 135 C93 135 93 201 93 201 L93 201 Z M93 301 C93 301 479 301 479 301 C479 301 479 235 479 235 C479 235 93 235 93 235 C93 235 93 301 93 301 L93 301 Z " />
<glyph glyph-name="greater" unicode="&#x3e;" horiz-adv-x="536" d="M413 243 C413 243 75 361 75 361 C75 361 75 436 75 436 C75 436 479 287 479 287 C479 287 496 281 496 281 C496 281 496 205 496 205 C496 205 479 199 479 199 C479 199 75 50 75 50 C75 50 75 125 75 125 C75 125 413 243 413 243 L413 243 Z " />
<glyph glyph-name="question" unicode="&#x3f;" horiz-adv-x="380" d="M139 -5 C110 -5 89 1 77 13 C65 25 59 46 59 75 C59 105 65 125 77 137 C89 149 110 155 139 155 C169 155 189 149 201 137 C213 125 219 105 219 75 C219 46 213 25 201 13 C189 1 169 -5 139 -5 L139 -5 Z M110 369 C110 369 145 369 145 369 C189 369 222 369 244 369 C267 370 283 371 293 371 C303 372 308 372 309 373 C311 375 311 376 311 376 C311 404 301 424 278 436 C256 448 217 454 163 454 C155 454 150 452 144 448 C139 444 134 441 130 436 C126 432 123 427 117 423 C112 419 105 417 97 417 C74 417 57 421 47 431 C37 441 32 458 32 481 C32 515 39 537 51 551 C64 565 86 572 116 572 C116 572 116 571 116 571 C116 572 116 572 116 572 C158 572 193 569 222 561 C252 553 275 542 293 524 C312 507 325 486 333 458 C342 431 346 398 346 359 C346 348 346 337 344 324 C343 312 338 301 328 290 C319 280 305 271 284 264 C264 258 234 254 196 254 C196 254 161 254 161 254 C161 254 149 224 149 224 C149 224 129 224 129 224 C129 224 96 309 96 309 C88 331 84 346 86 355 C89 365 97 369 110 369 L110 369 Z " />
<glyph glyph-name="at" unicode="&#x40;" horiz-adv-x="1207" d="M1045 0 C1045 0 1095 0 1095 0 C1073 -49 1048 -91 1019 -126 C991 -160 958 -188 921 -210 C885 -232 844 -248 796 -258 C749 -268 695 -273 634 -273 C530 -273 441 -264 367 -246 C294 -228 234 -199 188 -159 C142 -119 110 -67 88 -4 C67 60 56 137 56 227 C56 318 66 395 86 458 C106 522 137 573 181 613 C225 653 282 682 351 700 C421 718 505 727 604 727 C704 727 788 720 857 704 C927 688 982 663 1026 629 C1070 595 1102 552 1122 497 C1142 443 1152 377 1152 299 C1152 238 1147 186 1135 143 C1124 101 1107 67 1082 39 C1058 12 1026 -7 986 -20 C947 -32 899 -39 843 -39 C789 -39 749 -31 721 -15 C693 1 677 28 673 65 C652 42 625 26 591 15 C557 5 515 -1 464 -1 C396 -1 347 11 318 35 C290 60 275 101 275 158 C275 207 281 248 293 282 C305 316 325 343 351 365 C378 387 412 402 454 412 C497 422 549 427 609 427 C646 427 675 424 696 416 C718 409 733 397 742 379 C742 379 754 419 754 419 C754 419 896 419 896 419 C896 419 833 200 833 200 C814 132 806 85 812 56 C818 28 838 13 870 13 C900 13 925 18 946 28 C968 39 985 55 998 78 C1012 102 1021 131 1027 167 C1033 203 1036 247 1036 299 C1036 369 1029 429 1013 478 C997 528 973 568 938 598 C904 629 860 651 804 665 C749 679 682 686 604 686 C526 686 460 678 405 661 C351 645 307 619 272 582 C238 546 213 499 197 440 C181 382 173 311 173 227 C173 144 182 74 198 15 C215 -43 242 -90 278 -127 C315 -163 363 -190 421 -207 C480 -223 551 -232 634 -232 C690 -232 738 -228 780 -220 C823 -211 861 -197 893 -179 C926 -160 955 -136 979 -107 C1004 -77 1026 -42 1045 0 L1045 0 Z M723 311 C723 339 714 358 696 369 C678 381 648 386 606 386 C546 386 504 372 478 341 C453 311 440 259 440 187 C440 149 448 122 463 106 C479 90 505 82 541 82 C583 82 616 90 638 108 C661 126 679 157 691 200 C691 200 723 311 723 311 L723 311 Z " />
<glyph glyph-name="A" unicode="A" horiz-adv-x="706" d="M698 15 C698 15 698 0 698 0 C698 0 663 0 663 0 C663 0 572 0 572 0 C572 0 482 0 482 0 C482 0 427 0 427 0 C427 0 427 15 427 15 C427 15 434 15 434 15 C451 15 459 18 459 26 C460 34 453 52 437 80 C437 80 437 80 437 80 C437 80 372 196 372 196 C372 196 175 196 175 196 C175 196 132 95 132 95 C132 95 132 95 132 95 C118 61 110 40 112 30 C114 20 126 15 146 15 C146 15 154 15 154 15 C154 15 154 0 154 0 C154 0 91 0 91 0 C91 0 64 0 64 0 C64 0 36 0 36 0 C36 0 0 0 0 0 C0 0 0 15 0 15 C0 15 6 15 6 15 C14 15 20 15 26 17 C32 19 38 23 42 27 C47 32 52 38 56 46 C61 55 66 66 72 80 C72 80 72 80 72 80 C72 80 298 580 298 580 C298 580 339 580 339 580 C339 580 618 80 618 80 C618 80 619 80 619 80 C627 66 634 56 639 47 C645 39 650 32 655 27 C661 23 666 20 671 18 C677 16 683 15 691 15 C691 15 698 15 698 15 L698 15 Z M349 236 C349 236 260 395 260 395 C260 395 192 237 192 237 C192 237 349 236 349 236 L349 236 Z " />
<glyph glyph-name="B" unicode="B" horiz-adv-x="706" d="M23 552 C23 552 23 567 23 567 C23 567 66 567 66 567 C66 567 150 567 150 567 C150 567 233 567 233 567 C233 567 349 567 349 567 C400 567 442 566 478 560 C514 555 543 547 565 535 C588 523 604 508 614 490 C624 472 629 450 629 424 C629 392 620 367 600 348 C580 330 547 316 501 307 C568 299 615 285 643 261 C672 238 686 205 686 161 C686 132 681 108 669 87 C658 67 641 51 615 37 C590 24 558 15 518 9 C479 3 431 0 374 0 C374 0 233 0 233 0 C233 0 150 0 150 0 C150 0 66 0 66 0 C66 0 23 0 23 0 C23 0 23 15 23 15 C23 15 30 15 30 15 C46 15 55 19 59 27 C64 35 66 53 66 80 C66 80 66 487 66 487 C66 515 65 532 60 540 C56 548 46 552 30 552 C30 552 23 552 23 552 L23 552 Z M233 319 C233 319 326 319 326 319 C376 319 411 327 431 343 C452 359 462 386 462 424 C462 461 455 487 437 502 C420 518 391 525 349 525 C349 525 233 525 233 525 C233 525 233 319 233 319 L233 319 Z M233 281 C233 281 233 42 233 42 C233 42 357 42 357 42 C414 42 453 51 476 69 C500 87 511 118 511 161 C511 205 497 235 467 253 C438 272 388 281 318 281 C318 281 233 281 233 281 L233 281 Z " />
<glyph glyph-name="C" unicode="C" horiz-adv-x="767" d="M707 26 C707 26 704 47 704 47 C704 47 704 47 704 47 C704 47 707 26 707 26 L707 26 Z M707 26 C644 16 593 9 555 3 C517 -2 485 -5 457 -5 C380 -5 314 0 260 10 C206 21 162 37 128 60 C94 84 70 114 54 150 C39 187 31 231 31 283 C31 336 39 381 54 417 C70 454 94 483 128 506 C162 530 206 546 260 556 C314 567 380 572 457 572 C485 572 517 570 555 565 C593 561 644 553 707 541 C707 541 704 520 704 520 C704 520 704 520 704 520 C704 520 707 541 707 541 C707 541 714 427 714 427 C712 427 710 427 708 426 C708 426 702 426 702 426 C699 430 696 433 694 436 C692 440 690 443 687 447 C670 472 648 490 620 502 C593 514 555 523 507 527 C507 527 507 527 507 527 C489 529 472 530 457 530 C413 530 376 527 345 517 C315 508 290 494 270 474 C251 454 237 429 228 397 C220 366 215 328 215 283 C215 239 220 202 228 170 C237 139 251 114 270 94 C290 74 315 61 345 51 C376 42 413 37 457 37 C469 37 482 38 498 39 C514 41 533 43 554 45 C587 51 613 60 634 72 C656 84 673 100 687 120 C690 124 692 128 694 131 C696 135 699 138 702 141 C705 141 707 141 708 140 C708 140 714 140 714 140 C714 140 707 26 707 26 L707 26 Z " />
<glyph glyph-name="D" unicode="D" horiz-adv-x="799" d="M23 552 C23 552 23 567 23 567 C23 567 66 567 66 567 C66 567 150 567 150 567 C150 567 233 567 233 567 C233 567 339 567 339 567 C413 567 476 563 528 552 C580 542 623 525 655 502 C688 480 711 450 726 414 C742 378 749 335 749 283 C749 232 743 188 729 152 C715 116 694 88 664 65 C634 43 596 27 548 16 C501 6 443 0 375 0 C375 0 233 0 233 0 C233 0 150 0 150 0 C150 0 66 0 66 0 C66 0 23 0 23 0 C23 0 23 15 23 15 C23 15 30 15 30 15 C46 15 55 19 59 27 C64 35 66 53 66 80 C66 80 66 487 66 487 C66 515 65 532 60 540 C56 548 46 552 30 552 C30 552 23 552 23 552 L23 552 Z M233 42 C233 42 375 42 375 42 C413 42 444 47 470 55 C497 64 519 78 535 97 C552 117 564 141 571 171 C579 202 582 239 582 283 C582 327 578 365 569 395 C561 426 547 451 527 470 C507 490 482 504 451 512 C421 521 383 525 339 525 C339 525 233 525 233 525 C233 525 233 42 233 42 L233 42 Z " />
<glyph glyph-name="E" unicode="E" horiz-adv-x="632" d="M472 366 C472 366 484 366 484 366 C484 366 484 323 484 323 C484 323 484 302 484 302 C484 302 484 282 484 282 C484 282 484 233 484 233 C484 233 472 233 472 233 C468 243 464 252 459 258 C455 265 449 270 441 273 C433 277 423 279 411 280 C399 282 384 282 364 282 C364 282 250 282 250 282 C250 282 250 42 250 42 C250 42 411 42 411 42 C411 42 431 42 431 42 C449 42 463 43 475 45 C487 47 497 50 507 55 C517 61 527 68 535 76 C544 85 553 96 563 108 C563 108 572 119 572 119 C572 119 583 119 583 119 C579 102 576 87 572 71 C569 56 565 39 561 21 C560 15 559 8 557 0 C557 0 549 0 549 0 C549 0 477 0 477 0 C477 0 250 0 250 0 C250 0 166 0 166 0 C166 0 83 0 83 0 C83 0 40 0 40 0 C40 0 40 15 40 15 C40 15 46 15 46 15 C62 15 72 19 76 27 C81 35 83 53 83 80 C83 80 83 487 83 487 C83 515 82 532 77 540 C73 548 62 552 46 552 C46 552 40 552 40 552 C40 552 40 567 40 567 C40 567 83 567 83 567 C83 567 166 567 166 567 C166 567 250 567 250 567 C250 567 484 567 484 567 C484 567 539 567 539 567 C539 567 564 567 564 567 C565 564 565 561 565 557 C565 554 566 550 566 546 C568 528 569 513 569 497 C570 482 571 466 572 448 C572 448 561 448 561 448 C561 448 554 459 554 459 C546 473 537 485 529 493 C521 502 513 509 502 513 C492 518 479 520 465 522 C451 524 434 525 412 525 C412 525 250 525 250 525 C250 525 250 323 250 323 C250 323 364 323 364 323 C384 323 399 323 411 324 C423 326 433 328 440 331 C448 335 454 338 458 344 C463 350 468 358 472 366 L472 366 Z " />
<glyph glyph-name="F" unicode="F" horiz-adv-x="579" d="M462 362 C462 362 474 362 474 362 C474 362 474 319 474 319 C474 319 474 298 474 298 C474 298 474 277 474 277 C474 277 474 228 474 228 C474 228 462 228 462 228 C458 239 454 247 449 253 C445 260 439 264 431 268 C423 272 413 274 401 275 C389 277 374 277 354 277 C354 277 250 277 250 277 C250 277 250 80 250 80 C250 53 253 35 258 27 C264 19 276 15 295 15 C295 15 303 15 303 15 C303 15 303 0 303 0 C303 0 250 0 250 0 C250 0 166 0 166 0 C166 0 83 0 83 0 C83 0 40 0 40 0 C40 0 40 15 40 15 C40 15 46 15 46 15 C62 15 72 19 76 27 C81 35 83 53 83 80 C83 80 83 487 83 487 C83 515 82 532 77 540 C73 548 62 552 46 552 C46 552 40 552 40 552 C40 552 40 567 40 567 C40 567 83 567 83 567 C83 567 166 567 166 567 C166 567 250 567 250 567 C250 567 514 567 514 567 C514 567 569 567 569 567 C569 567 594 567 594 567 C595 564 595 561 595 557 C595 554 596 550 596 546 C598 528 599 513 599 497 C600 482 601 466 602 448 C602 448 591 448 591 448 C591 448 584 459 584 459 C576 473 567 485 559 493 C551 502 543 509 532 513 C522 518 509 520 495 522 C481 524 464 525 442 525 C442 525 250 525 250 525 C250 525 250 319 250 319 C250 319 354 319 354 319 C374 319 389 319 401 320 C413 322 422 323 430 326 C438 330 444 333 448 339 C453 345 458 353 462 362 L462 362 Z " />
<glyph glyph-name="G" unicode="G" horiz-adv-x="832" d="M504 251 C504 251 504 266 504 266 C504 266 547 266 547 266 C547 266 622 266 622 266 C622 266 697 266 697 266 C697 266 740 266 740 266 C740 266 740 264 740 259 C739 254 739 251 740 251 C740 251 733 251 733 251 C720 252 712 249 706 243 C701 237 698 225 697 205 C697 205 697 186 697 186 C697 186 697 51 697 51 C662 31 625 17 587 8 C549 0 503 -5 447 -5 C372 -5 309 0 255 10 C202 21 160 37 126 60 C93 84 70 114 54 150 C39 187 31 231 31 283 C31 336 38 381 53 417 C69 454 92 483 125 506 C159 530 201 546 254 556 C308 567 372 572 447 572 C471 572 501 570 537 565 C574 561 624 553 687 541 C687 541 684 520 684 520 C684 520 684 520 684 520 C684 520 687 541 687 541 C687 541 694 427 694 427 C692 427 690 427 688 426 C688 426 682 426 682 426 C679 430 676 433 674 436 C672 440 670 443 667 447 C652 469 634 484 612 496 C591 508 562 517 526 523 C508 526 493 527 480 528 C468 530 457 530 447 530 C405 530 370 527 340 517 C311 508 287 494 268 474 C250 454 237 429 228 397 C220 366 215 328 215 283 C215 239 219 202 227 170 C236 139 250 114 268 94 C287 74 311 61 340 51 C370 42 405 37 447 37 C485 37 519 39 547 43 C547 43 547 186 547 186 C547 214 546 232 541 240 C537 248 526 252 510 251 C510 251 504 251 504 251 L504 251 Z " />
<glyph glyph-name="H" unicode="H" horiz-adv-x="738" d="M699 567 C699 567 699 552 699 552 C699 552 692 552 692 552 C677 552 668 548 663 540 C659 532 656 515 656 487 C656 487 656 80 656 80 C656 53 658 35 662 27 C667 19 677 15 692 15 C692 15 699 15 699 15 C699 15 699 0 699 0 C699 0 656 0 656 0 C656 0 572 0 572 0 C572 0 489 0 489 0 C489 0 446 0 446 0 C446 0 446 15 446 15 C446 15 452 15 452 15 C468 15 478 19 482 27 C487 35 489 53 489 80 C489 80 489 279 489 279 C489 279 250 279 250 279 C250 279 250 80 250 80 C250 53 252 35 256 27 C261 19 271 15 286 15 C286 15 293 15 293 15 C293 15 293 0 293 0 C293 0 250 0 250 0 C250 0 166 0 166 0 C166 0 83 0 83 0 C83 0 40 0 40 0 C40 0 40 15 40 15 C40 15 46 15 46 15 C62 15 72 19 76 27 C81 35 83 53 83 80 C83 80 83 487 83 487 C83 515 82 532 77 540 C73 548 62 552 46 552 C46 552 40 552 40 552 C40 552 40 567 40 567 C40 567 83 567 83 567 C83 567 166 567 166 567 C166 567 250 567 250 567 C250 567 293 567 293 567 C293 567 293 552 293 552 C293 552 286 552 286 552 C271 552 262 548 257 540 C253 532 250 515 250 487 C250 487 250 321 250 321 C250 321 489 321 489 321 C489 321 489 487 489 487 C489 515 488 532 483 540 C479 548 468 552 452 552 C452 552 446 552 446 552 C446 552 446 567 446 567 C446 567 489 567 489 567 C489 567 572 567 572 567 C572 567 656 567 656 567 C656 567 699 567 699 567 L699 567 Z " />
<glyph glyph-name="I" unicode="I" horiz-adv-x="332" d="M293 567 C293 567 293 552 293 552 C293 552 286 552 286 552 C271 552 262 548 257 540 C253 532 250 515 250 487 C250 487 250 80 250 80 C250 53 252 35 256 27 C261 19 271 15 286 15 C286 15 293 15 293 15 C293 15 293 0 293 0 C293 0 250 0 250 0 C250 0 166 0 166 0 C166 0 83 0 83 0 C83 0 40 0 40 0 C40 0 40 15 40 15 C40 15 46 15 46 15 C62 15 72 19 76 27 C81 35 83 53 83 80 C83 80 83 487 83 487 C83 515 82 532 77 540 C73 548 62 552 46 552 C46 552 40 552 40 552 C40 552 40 567 40 567 C40 567 83 567 83 567 C83 567 166 567 166 567 C166 567 250 567 250 567 C250 567 293 567 293 567 L293 567 Z " />
<glyph glyph-name="J" unicode="J" horiz-adv-x="477" d="M437 567 C437 567 437 552 437 552 C437 552 431 552 431 552 C417 552 408 549 403 543 C399 537 396 524 394 504 C394 504 395 312 395 312 C395 242 393 187 387 144 C382 102 372 69 354 46 C337 24 313 9 281 1 C249 -6 207 -10 154 -10 C102 -10 66 -3 42 11 C19 25 5 49 0 83 C-3 108 0 125 10 135 C20 145 39 150 66 150 C90 150 108 145 119 135 C131 125 138 108 141 83 C145 62 150 48 158 38 C166 29 179 24 195 24 C203 24 208 26 212 29 C217 33 220 39 222 49 C225 60 227 74 227 94 C228 114 228 140 228 172 C228 172 228 487 228 487 C228 515 227 532 222 540 C218 548 207 552 191 552 C191 552 185 552 185 552 C185 552 185 567 185 567 C185 567 228 567 228 567 C228 567 311 567 311 567 C311 567 394 567 394 567 C394 567 437 567 437 567 L437 567 Z " />
<glyph glyph-name="K" unicode="K" horiz-adv-x="698" d="M449 552 C449 552 449 567 449 567 C449 567 492 567 492 567 C492 567 522 567 522 567 C522 567 553 567 553 567 C553 567 581 567 581 567 C581 567 581 552 581 552 C581 552 575 552 575 552 C567 552 561 552 554 550 C548 548 541 545 533 540 C526 536 518 530 508 521 C499 513 488 501 474 487 C474 487 474 487 474 487 C474 487 374 386 374 386 C374 386 485 210 485 210 C511 171 531 139 548 115 C566 91 581 74 595 60 C609 47 623 38 636 34 C650 30 665 28 683 28 C683 28 688 28 688 28 C688 28 688 -5 688 -5 C688 -5 633 -5 633 -5 C589 -5 552 -4 524 -2 C496 1 473 6 454 12 C436 19 420 28 407 41 C395 55 382 72 368 92 C368 92 233 305 233 305 C233 305 233 80 233 80 C233 52 236 35 240 27 C245 19 255 15 270 15 C270 15 276 15 276 15 C276 15 276 0 276 0 C276 0 233 0 233 0 C233 0 150 0 150 0 C150 0 66 0 66 0 C66 0 23 0 23 0 C23 0 23 15 23 15 C23 15 30 15 30 15 C46 15 55 19 59 27 C64 35 66 53 66 80 C66 80 66 487 66 487 C66 515 65 532 60 540 C56 548 46 552 30 552 C30 552 23 552 23 552 C23 552 23 567 23 567 C23 567 66 567 66 567 C66 567 150 567 150 567 C150 567 233 567 233 567 C233 567 276 567 276 567 C276 567 276 552 276 552 C276 552 270 552 270 552 C255 552 245 549 240 541 C236 533 233 515 233 487 C233 487 233 305 233 305 C233 305 421 495 421 495 C445 519 457 534 461 541 C465 549 463 552 453 552 C453 552 449 552 449 552 L449 552 Z " />
<glyph glyph-name="L" unicode="L" horiz-adv-x="632" d="M293 567 C293 567 293 552 293 552 C293 552 286 552 286 552 C271 552 262 548 257 540 C253 532 250 515 250 487 C250 487 250 42 250 42 C250 42 421 42 421 42 C421 42 438 42 438 42 C454 42 466 43 477 45 C489 48 499 52 507 57 C516 63 523 70 531 79 C539 89 548 101 557 115 C557 115 565 128 565 128 C565 128 570 127 580 124 C583 124 584 124 584 124 C580 105 576 88 572 72 C569 57 565 40 561 21 C560 15 559 8 557 0 C557 0 549 0 549 0 C549 0 477 0 477 0 C477 0 250 0 250 0 C250 0 166 0 166 0 C166 0 83 0 83 0 C83 0 40 0 40 0 C40 0 40 15 40 15 C40 15 46 15 46 15 C62 15 72 19 76 27 C81 35 83 53 83 80 C83 80 83 487 83 487 C83 515 82 532 77 540 C73 548 62 552 46 552 C46 552 40 552 40 552 C40 552 40 567 40 567 C40 567 83 567 83 567 C83 567 166 567 166 567 C166 567 250 567 250 567 C250 567 293 567 293 567 L293 567 Z " />
<glyph glyph-name="M" unicode="M" horiz-adv-x="870" d="M834 567 C834 567 834 552 834 552 C834 552 828 552 828 552 C813 552 803 549 799 541 C795 533 794 515 796 487 C796 487 795 487 795 487 C795 487 817 80 817 80 C817 80 817 80 817 80 C819 53 821 35 826 27 C832 19 842 15 857 15 C857 15 864 15 864 15 C864 15 864 0 864 0 C864 0 821 0 821 0 C821 0 738 0 738 0 C738 0 655 0 655 0 C655 0 612 0 612 0 C612 0 612 15 612 15 C612 15 618 15 618 15 C634 15 643 18 647 26 C652 34 654 52 653 80 C653 80 653 80 653 80 C653 80 644 451 644 451 C644 451 424 -5 424 -5 C424 -5 382 -5 382 -5 C382 -5 641 567 641 567 C641 567 700 567 700 567 C700 567 716 567 716 567 C716 567 791 567 791 567 C791 567 834 567 834 567 L834 567 Z M52 552 C52 552 52 567 52 567 C52 567 95 567 95 567 C95 567 120 567 120 567 C120 567 145 567 145 567 C145 567 224 567 224 567 C224 567 450 188 450 188 C450 188 461 170 461 170 C461 170 382 -5 382 -5 C382 -5 336 66 336 66 C336 66 137 380 137 380 C137 380 124 95 124 95 C124 95 125 95 125 95 C125 79 125 65 125 54 C126 44 127 36 131 30 C135 24 141 20 147 18 C154 16 163 15 174 15 C174 15 184 15 184 15 C184 15 184 0 184 0 C184 0 120 0 120 0 C120 0 95 0 95 0 C95 0 70 0 70 0 C70 0 28 0 28 0 C28 0 28 15 28 15 C28 15 34 15 34 15 C48 15 57 17 62 23 C68 29 71 42 73 61 C73 61 92 509 92 509 C92 527 91 539 86 544 C82 550 73 552 59 552 C59 552 52 552 52 552 L52 552 Z " />
<glyph glyph-name="N" unicode="N" horiz-adv-x="672" d="M637 567 C637 567 637 552 637 552 C637 552 631 552 631 552 C616 552 606 549 601 541 C597 533 594 515 594 487 C594 487 594 127 594 127 C594 127 594 -20 594 -20 C594 -20 548 -20 548 -20 C548 -20 468 66 468 66 C468 66 128 431 128 431 C128 431 128 80 128 80 C128 53 130 35 134 27 C139 19 149 15 164 15 C164 15 171 15 171 15 C171 15 171 0 171 0 C171 0 128 0 128 0 C128 0 103 0 103 0 C103 0 78 0 78 0 C78 0 34 0 34 0 C35 0 35 3 34 8 C35 13 35 15 34 15 C34 15 41 15 41 15 C57 15 67 19 71 27 C76 35 78 53 78 80 C78 80 78 487 78 487 C78 515 77 532 72 540 C68 548 57 552 41 552 C41 552 34 552 34 552 C35 552 35 555 34 559 C35 565 35 567 34 567 C34 567 78 567 78 567 C78 567 103 567 103 567 C103 567 128 567 128 567 C128 567 227 567 227 567 C227 567 544 229 544 229 C544 229 544 487 544 487 C544 515 543 532 538 540 C534 548 523 552 507 552 C507 552 501 552 501 552 C501 552 501 567 501 567 C501 567 544 567 544 567 C544 567 569 567 569 567 C569 567 594 567 594 567 C594 567 637 567 637 567 L637 567 Z " />
<glyph glyph-name="O" unicode="O" horiz-adv-x="765" d="M373 37 C405 37 431 43 451 53 C472 64 488 80 500 100 C512 121 521 147 525 177 C530 208 532 243 532 283 C532 323 530 358 525 389 C521 421 512 447 500 467 C488 488 473 504 452 514 C432 525 405 530 373 530 C342 530 317 525 296 514 C276 504 259 488 247 467 C235 447 227 422 222 390 C218 359 215 323 215 283 C215 243 218 208 222 177 C227 147 235 121 247 100 C259 80 275 64 295 53 C316 43 342 37 373 37 L373 37 Z M31 283 C31 331 36 372 46 408 C56 444 73 474 99 498 C125 523 160 541 204 553 C249 566 305 572 373 572 C441 572 497 567 541 554 C586 542 620 524 646 499 C672 475 690 444 700 408 C710 372 715 331 715 283 C715 237 710 195 700 159 C690 123 673 94 647 69 C621 45 587 27 542 14 C498 2 441 -5 373 -5 C305 -5 250 1 205 13 C161 26 126 44 100 68 C74 93 56 123 46 159 C36 195 31 237 31 283 L31 283 Z " />
<glyph glyph-name="P" unicode="P" horiz-adv-x="603" d="M23 552 C23 552 23 567 23 567 C23 567 66 567 66 567 C66 567 150 567 150 567 C150 567 233 567 233 567 C233 567 322 567 322 567 C370 567 410 565 443 559 C477 553 503 545 524 532 C546 520 561 503 570 483 C580 463 584 439 584 410 C584 381 579 357 569 336 C559 316 544 300 521 286 C499 273 470 264 434 258 C398 252 355 249 304 249 C304 249 233 249 233 249 C233 249 233 80 233 80 C233 52 236 35 240 27 C245 19 255 15 270 15 C270 15 276 15 276 15 C276 15 276 0 276 0 C276 0 233 0 233 0 C233 0 150 0 150 0 C150 0 66 0 66 0 C66 0 23 0 23 0 C23 0 23 15 23 15 C23 15 30 15 30 15 C46 15 55 19 59 27 C64 35 66 53 66 80 C66 80 66 487 66 487 C66 515 65 532 60 540 C56 548 46 552 30 552 C30 552 23 552 23 552 L23 552 Z M233 291 C233 291 304 291 304 291 C342 291 369 300 385 318 C401 336 409 367 409 410 C409 452 404 482 390 499 C377 517 354 525 322 525 C322 525 233 525 233 525 C233 525 233 291 233 291 L233 291 Z " />
<glyph glyph-name="Q" unicode="Q" horiz-adv-x="765" d="M813 111 C793 57 768 18 738 -6 C708 -29 667 -41 615 -41 C620 -41 607 -39 576 -33 C546 -27 493 -17 417 -4 C410 -4 403 -5 395 -5 C388 -5 381 -5 373 -5 C305 -5 250 1 205 13 C161 26 126 44 100 68 C74 93 56 123 46 159 C36 195 31 237 31 283 C31 331 36 372 46 408 C56 444 73 474 99 498 C125 523 160 541 204 553 C249 566 305 572 373 572 C441 572 497 567 541 554 C586 542 620 524 646 499 C672 475 690 444 700 408 C710 372 715 331 715 283 C715 236 710 195 700 159 C690 123 672 93 646 68 C694 69 730 72 752 80 C775 88 789 101 795 118 C795 118 813 111 813 111 L813 111 Z M280 62 C280 62 280 62 280 62 C301 64 327 64 359 65 C391 67 429 67 473 67 C496 87 511 114 519 150 C528 186 532 231 532 283 C532 323 530 358 525 389 C521 421 512 447 500 467 C488 488 473 504 452 514 C432 525 405 530 373 530 C342 530 317 525 296 514 C276 504 259 488 247 467 C235 447 227 422 222 390 C218 359 215 323 215 283 C215 229 219 184 228 146 C238 109 255 81 280 62 L280 62 Z " />
<glyph glyph-name="R" unicode="R" horiz-adv-x="765" d="M23 552 C23 552 23 567 23 567 C23 567 66 567 66 567 C66 567 150 567 150 567 C150 567 233 567 233 567 C233 567 349 567 349 567 C401 567 445 565 481 559 C518 554 547 546 570 534 C594 523 610 508 620 489 C631 471 636 448 636 422 C636 382 626 350 603 326 C581 303 543 286 491 276 C491 276 664 74 664 74 C674 62 682 54 686 48 C691 42 695 39 700 36 C706 34 713 32 721 32 C730 33 743 33 761 33 C761 33 766 33 766 33 C766 33 766 0 766 0 C766 0 711 0 711 0 C676 0 647 1 624 0 C602 0 584 -1 569 0 C555 2 544 4 534 7 C525 11 516 16 507 24 C499 32 489 42 478 55 C468 69 454 86 436 106 C436 106 302 264 302 264 C302 264 233 264 233 264 C233 264 233 80 233 80 C233 52 236 35 240 27 C245 19 255 15 270 15 C270 15 276 15 276 15 C276 15 276 0 276 0 C276 0 233 0 233 0 C233 0 150 0 150 0 C150 0 66 0 66 0 C66 0 23 0 23 0 C23 0 23 15 23 15 C23 15 30 15 30 15 C46 15 55 19 59 27 C64 35 66 53 66 80 C66 80 66 487 66 487 C66 515 65 532 60 540 C56 548 46 552 30 552 C30 552 23 552 23 552 L23 552 Z M326 306 C376 306 410 314 430 332 C451 350 461 380 461 422 C461 460 454 487 436 502 C419 518 390 525 349 525 C349 525 233 525 233 525 C233 525 233 306 233 306 C233 306 266 306 266 306 C266 306 326 306 326 306 L326 306 Z " />
<glyph glyph-name="S" unicode="S" horiz-adv-x="530" d="M172 509 C156 496 148 475 148 445 C148 425 161 407 187 392 C214 378 259 363 321 348 C381 335 422 315 447 289 C473 263 485 226 485 178 C485 145 482 117 472 93 C463 70 449 52 429 37 C409 23 384 12 352 5 C321 -1 283 -5 238 -5 C224 -5 202 -3 172 1 C142 6 99 13 42 22 C42 22 34 151 34 151 C38 151 40 152 41 152 C41 152 47 152 47 152 C51 149 112 79 114 75 C116 72 322 44 340 55 C358 67 367 85 367 110 C367 135 354 156 327 172 C301 189 255 205 191 219 C134 233 94 251 69 275 C45 300 32 335 32 379 C32 415 37 444 45 468 C54 493 67 513 87 528 C107 544 132 554 163 561 C195 569 232 572 276 572 C286 570 298 568 312 566 C325 564 341 561 360 557 C380 554 403 550 431 545 C431 545 439 416 439 416 C438 416 436 415 433 415 C433 415 426 415 426 415 C423 421 393 481 373 492 C353 504 333 509 296 519 C255 529 188 523 172 509 L172 509 Z " />
<glyph glyph-name="T" unicode="T" horiz-adv-x="626" d="M656 439 C656 439 644 439 644 439 C644 439 635 452 635 452 C624 468 614 479 605 489 C597 499 588 507 578 512 C568 518 558 520 546 522 C535 524 521 525 503 525 C503 525 396 525 396 525 C396 525 396 80 396 80 C397 53 399 35 403 27 C408 19 418 15 433 15 C433 15 439 15 439 15 C440 15 440 13 439 8 C440 3 440 0 439 0 C439 0 396 0 396 0 C396 0 313 0 313 0 C313 0 230 0 230 0 C230 0 187 0 187 0 C187 0 187 15 187 15 C187 15 193 15 193 15 C209 15 219 19 223 27 C228 35 230 53 230 80 C230 80 230 525 230 525 C230 525 123 525 123 525 C107 525 93 525 81 523 C69 521 59 518 49 512 C39 507 30 500 21 490 C13 480 3 468 -9 452 C-9 452 -18 439 -18 439 C-18 439 -30 439 -30 439 C-26 459 -24 476 -22 492 C-19 509 -16 527 -14 546 C-12 550 -12 554 -12 557 C-12 561 -11 564 -10 567 C-10 567 40 567 40 567 C40 567 70 567 70 567 C70 567 556 567 556 567 C556 567 586 567 586 567 C586 567 636 567 636 567 C638 564 638 561 638 557 C638 554 639 550 640 546 C643 527 645 510 647 493 C650 477 653 459 656 439 L656 439 Z " />
<glyph glyph-name="U" unicode="U" horiz-adv-x="672" d="M652 567 C652 567 652 552 652 552 C652 552 645 552 645 552 C630 552 620 550 614 543 C608 537 605 522 604 499 C604 499 604 477 604 477 C604 477 604 168 604 168 C604 137 601 110 595 88 C589 66 578 49 558 35 C539 21 512 12 476 5 C441 -1 394 -5 335 -5 C275 -5 226 -1 189 6 C153 14 125 24 105 40 C85 56 73 77 66 102 C60 128 56 158 56 194 C56 194 56 487 56 487 C56 515 55 532 50 540 C46 548 36 552 20 552 C20 552 13 552 13 552 C13 552 13 567 13 567 C13 567 56 567 56 567 C56 567 140 567 140 567 C140 567 223 567 223 567 C223 567 266 567 266 567 C266 567 266 552 266 552 C266 552 260 552 260 552 C245 552 235 549 230 541 C226 533 223 515 223 487 C223 487 223 161 223 161 C223 142 224 126 227 112 C231 98 236 87 246 78 C256 70 270 63 288 59 C306 55 330 53 360 53 C402 53 436 56 461 60 C487 65 505 73 519 83 C533 94 542 108 546 124 C551 141 553 161 553 185 C553 185 554 493 554 493 C553 519 550 534 544 541 C539 549 528 552 510 552 C510 552 502 552 502 552 C502 552 502 567 502 567 C502 567 554 567 554 567 C554 567 579 567 579 567 C579 567 604 567 604 567 C604 567 652 567 652 567 L652 567 Z " />
<glyph glyph-name="V" unicode="V" horiz-adv-x="688" d="M682 567 C682 567 682 552 682 552 C682 552 676 552 676 552 C668 552 662 552 656 550 C651 548 646 545 641 540 C637 536 633 530 627 521 C622 513 616 501 610 487 C610 487 610 487 610 487 C610 487 384 -15 384 -15 C384 -15 342 -15 342 -15 C342 -15 55 495 55 495 C42 519 32 534 24 541 C16 549 6 552 -6 552 C-6 552 -11 552 -11 552 C-11 552 -11 567 -11 567 C-11 567 15 567 15 567 C15 567 107 567 107 567 C107 567 198 567 198 567 C198 567 256 567 256 567 C256 567 256 565 256 559 C256 555 256 552 256 552 C256 552 248 552 248 552 C233 552 225 549 222 543 C220 537 224 524 234 503 C234 503 423 170 423 170 C423 170 549 458 549 458 C558 478 564 494 568 506 C572 519 575 529 573 535 C572 542 568 546 562 548 C556 551 548 552 536 552 C536 552 527 552 527 552 C527 552 527 567 527 567 C527 567 596 567 596 567 C596 567 621 567 621 567 C621 567 646 567 646 567 C646 567 682 567 682 567 L682 567 Z " />
<glyph glyph-name="W" unicode="W" horiz-adv-x="1022" d="M867 552 C867 552 867 567 867 567 C867 567 927 567 927 567 C927 567 952 567 952 567 C952 567 977 567 977 567 C977 567 1015 567 1015 567 C1015 567 1015 565 1015 559 C1015 555 1015 552 1015 552 C1015 552 1008 552 1008 552 C994 552 983 549 975 541 C967 533 958 517 948 491 C948 491 759 -15 759 -15 C759 -15 717 -15 717 -15 C717 -15 499 347 499 347 C499 347 355 -15 355 -15 C355 -15 313 -15 313 -15 C313 -15 71 487 71 487 C71 487 71 487 71 487 C65 501 59 512 54 520 C50 529 46 536 41 540 C37 545 32 547 27 549 C23 551 17 552 11 552 C11 552 6 552 6 552 C6 552 6 567 6 567 C6 567 33 567 33 567 C33 567 125 567 125 567 C125 567 216 567 216 567 C216 567 268 567 268 567 C268 567 268 552 268 552 C268 552 261 552 261 552 C245 552 238 549 236 541 C235 533 241 515 254 487 C254 487 253 487 253 487 C253 487 394 188 394 188 C394 188 549 577 549 577 C549 577 591 577 591 577 C591 577 796 203 796 203 C796 203 898 487 898 487 C898 487 898 487 898 487 C908 515 913 532 909 540 C906 548 895 552 875 552 C875 552 867 552 867 552 L867 552 Z " />
<glyph glyph-name="X" unicode="X" horiz-adv-x="730" d="M676 567 C676 567 676 552 676 552 C676 552 669 552 669 552 C661 552 654 552 648 550 C642 548 637 545 629 540 C622 536 615 530 605 521 C596 513 585 501 571 487 C571 487 571 487 571 487 C571 487 419 328 419 328 C419 328 618 80 618 80 C618 80 618 80 618 80 C630 66 639 56 646 47 C654 39 659 32 665 27 C671 23 677 20 681 18 C686 16 691 15 697 15 C697 15 702 15 702 15 C702 15 702 0 702 0 C702 0 682 0 682 0 C682 0 587 0 587 0 C587 0 492 0 492 0 C492 0 435 0 435 0 C435 0 435 15 435 15 C435 15 442 15 442 15 C458 15 465 18 464 25 C464 33 454 48 434 72 C434 72 310 228 310 228 C310 228 181 78 181 78 C159 52 147 35 145 27 C144 19 152 15 169 15 C169 15 177 15 177 15 C177 15 177 0 177 0 C177 0 113 0 113 0 C113 0 82 0 82 0 C82 0 51 0 51 0 C51 0 21 0 21 0 C21 0 21 15 21 15 C21 15 28 15 28 15 C36 15 43 15 49 17 C55 19 61 23 68 27 C76 32 83 38 91 46 C100 55 111 66 123 80 C123 80 124 80 124 80 C124 80 285 258 285 258 C285 258 285 258 285 258 C285 258 76 520 76 520 C64 534 56 542 48 546 C41 550 33 552 24 552 C24 552 19 552 19 552 C19 552 19 567 19 567 C19 567 38 567 38 567 C38 567 133 567 133 567 C133 567 228 567 228 567 C228 567 286 567 286 567 C286 567 286 552 286 552 C286 552 279 552 279 552 C263 552 255 549 257 541 C259 533 271 515 293 487 C293 487 292 487 292 487 C292 487 395 358 395 358 C395 358 510 487 510 487 C510 487 510 487 510 487 C535 515 548 532 550 540 C552 548 544 552 525 552 C525 552 518 552 518 552 C518 552 518 567 518 567 C518 567 581 567 581 567 C581 567 614 567 614 567 C614 567 647 567 647 567 C647 567 676 567 676 567 L676 567 Z " />
<glyph glyph-name="Y" unicode="Y" horiz-adv-x="675" d="M455 15 C455 15 455 0 455 0 C455 0 412 0 412 0 C412 0 329 0 329 0 C329 0 245 0 245 0 C245 0 202 0 202 0 C202 0 202 15 202 15 C202 15 209 15 209 15 C225 15 234 19 238 27 C243 35 245 53 245 80 C245 80 245 259 245 259 C245 259 75 487 75 487 C75 487 75 487 75 487 C65 501 58 512 50 520 C43 529 37 536 31 540 C26 545 21 547 16 549 C12 551 6 552 0 552 C0 552 -5 552 -5 552 C-4 552 -4 555 -5 559 C-4 565 -4 567 -5 567 C-5 567 16 567 16 567 C16 567 116 567 116 567 C116 567 216 567 216 567 C216 567 268 567 268 567 C268 567 268 552 268 552 C268 552 261 552 261 552 C247 552 240 549 241 541 C243 533 253 515 273 487 C273 487 273 487 273 487 C273 487 389 324 389 324 C389 324 526 489 526 489 C548 516 559 532 559 540 C560 548 552 552 536 552 C536 552 528 552 528 552 C528 552 528 567 528 567 C528 567 591 567 591 567 C591 567 616 567 616 567 C616 567 641 567 641 567 C641 567 666 567 666 567 C666 567 666 552 666 552 C666 552 660 552 660 552 C654 552 648 552 642 550 C636 548 630 545 624 540 C618 536 611 530 603 521 C595 513 585 501 573 487 C573 487 573 487 573 487 C573 487 412 299 412 299 C412 299 412 299 412 299 C412 299 412 80 412 80 C412 53 414 35 418 27 C423 19 433 15 449 15 C449 15 455 15 455 15 L455 15 Z " />
<glyph glyph-name="Z" unicode="Z" horiz-adv-x="589" d="M500 22 C499 18 499 15 498 11 C498 8 497 4 495 0 C495 0 488 0 488 0 C488 0 415 0 415 0 C415 0 208 0 208 0 C208 0 115 0 115 0 C115 0 21 0 21 0 C21 0 322 525 322 525 C322 525 177 525 177 525 C161 525 146 525 134 523 C122 522 112 520 101 515 C91 511 81 505 71 497 C61 489 50 479 36 467 C36 467 26 456 26 456 C26 456 14 456 14 456 C14 456 44 546 44 546 C47 554 49 561 51 567 C51 567 101 567 101 567 C101 567 131 567 131 567 C131 567 346 567 346 567 C346 567 441 567 441 567 C441 567 536 567 536 567 C536 567 233 43 233 43 C233 43 360 43 360 43 C380 43 396 44 408 46 C421 48 431 52 441 57 C451 63 460 70 468 79 C477 89 486 101 496 117 C496 117 504 129 504 129 C504 131 509 130 519 126 C522 126 523 126 523 125 C519 107 515 90 511 74 C508 58 504 41 500 22 L500 22 Z " />
<glyph glyph-name="bracketleft" unicode="&#x5b;" horiz-adv-x="289" d="M175 534 C175 534 175 -87 175 -87 C175 -87 280 -87 280 -87 C280 -87 280 -120 280 -120 C280 -120 175 -120 175 -120 C175 -120 58 -120 58 -120 C58 -120 58 567 58 567 C58 567 175 567 175 567 C175 567 280 567 280 567 C280 567 280 534 280 534 C280 534 175 534 175 534 L175 534 Z " />
<glyph glyph-name="backslash" unicode="&#x5c;" horiz-adv-x="294" d="M242 -32 C242 -32 -60 617 -60 617 C-60 617 -8 617 -8 617 C-8 617 294 -32 294 -32 C294 -32 242 -32 242 -32 L242 -32 Z " />
<glyph glyph-name="bracketright" unicode="&#x5d;" horiz-adv-x="295" d="M109 534 C109 534 4 534 4 534 C4 534 4 567 4 567 C4 567 109 567 109 567 C109 567 226 567 226 567 C226 567 226 -120 226 -120 C226 -120 109 -120 109 -120 C109 -120 4 -120 4 -120 C4 -120 4 -87 4 -87 C4 -87 109 -87 109 -87 C109 -87 109 534 109 534 L109 534 Z " />
<glyph glyph-name="underscore" unicode="&#x5f;" horiz-adv-x="468" d="M5 -50 C5 -50 464 -50 464 -50 C464 -50 464 -133 464 -133 C464 -133 5 -133 5 -133 C5 -133 5 -50 5 -50 L5 -50 Z " />
<glyph glyph-name="a" unicode="a" horiz-adv-x="533" d="M512 84 C512 84 529 64 529 64 C521 51 514 40 506 30 C499 21 491 13 479 7 C468 1 454 -3 436 -6 C419 -8 396 -10 368 -10 C346 -10 328 -8 315 -4 C303 1 293 8 286 18 C258 3 215 -5 158 -5 C114 -5 84 3 65 17 C47 32 37 57 37 92 C37 132 52 162 81 182 C111 203 160 218 228 228 C228 228 271 234 271 234 C271 234 271 318 271 318 C271 348 270 369 264 381 C259 394 250 400 237 400 C237 400 32 400 32 400 C144 414 218 424 257 430 C297 437 306 441 284 441 C337 440 374 427 396 403 C419 379 430 340 430 284 C430 284 430 134 430 134 C430 108 431 91 435 79 C439 68 451 62 470 62 C484 62 492 64 497 67 C503 71 508 76 512 84 L512 84 Z M284 441 C284 441 284 441 284 441 C284 441 271 441 271 441 C271 441 284 441 284 441 L284 441 Z M271 193 C271 193 228 182 228 182 C213 178 202 174 195 166 C189 159 185 149 185 135 C185 121 189 110 196 104 C204 98 216 95 233 95 C241 95 247 95 253 95 C260 95 266 96 271 96 C271 96 271 117 271 117 C271 117 271 193 271 193 L271 193 Z " />
<glyph glyph-name="b" unicode="b" horiz-adv-x="577" d="M198 359 C198 359 198 174 198 174 C198 124 204 89 214 68 C225 48 243 37 268 37 C300 37 322 48 335 68 C349 89 355 124 355 174 C355 247 346 298 326 328 C307 359 274 374 228 374 C232 374 232 374 226 371 C221 369 212 365 198 359 L198 359 Z M198 384 C225 394 247 403 265 410 C284 418 299 424 311 428 C325 434 336 438 344 441 C376 441 404 438 426 429 C449 421 467 408 481 389 C496 371 506 348 512 318 C519 289 522 254 522 212 C522 173 518 140 508 112 C499 85 484 63 464 45 C444 28 419 15 386 7 C354 -1 314 -5 268 -5 C250 -5 234 -4 222 0 C210 4 200 9 190 13 C180 18 171 21 161 25 C152 29 140 31 126 31 C112 31 101 29 91 24 C82 20 73 12 64 0 C64 0 48 0 48 0 C48 0 48 506 48 506 C48 506 48 560 48 560 C47 569 44 574 39 576 C35 579 25 584 11 592 C11 592 4 595 4 595 C5 596 5 599 4 604 C4 604 168 656 168 656 C168 656 198 656 198 656 C198 656 198 617 198 617 C198 617 198 546 198 546 C198 546 198 384 198 384 L198 384 Z " />
<glyph glyph-name="c" unicode="c" horiz-adv-x="552" d="M503 99 C459 62 420 35 385 19 C351 3 315 -5 277 -5 C236 -5 201 -1 172 6 C144 14 120 25 102 41 C84 57 72 78 63 103 C55 129 50 159 50 195 C50 240 54 277 64 308 C74 340 89 364 110 384 C132 404 158 418 192 427 C226 437 267 441 315 441 C381 441 427 434 455 419 C484 405 500 380 503 344 C503 320 498 302 488 292 C478 282 461 277 436 277 C412 277 394 282 382 293 C371 305 364 324 361 351 C360 369 355 381 345 388 C335 396 320 399 298 399 C266 399 244 388 230 366 C216 344 209 307 209 253 C209 193 224 150 253 124 C283 99 332 86 402 86 C422 86 437 88 450 92 C464 97 477 105 489 116 C489 116 503 99 503 99 L503 99 Z " />
<glyph glyph-name="d" unicode="d" horiz-adv-x="625" d="M323 595 C323 595 323 604 323 604 C323 604 486 656 486 656 C486 656 516 656 516 656 C516 656 516 617 516 617 C516 617 516 546 516 546 C516 546 516 150 516 150 C516 150 516 91 516 91 C518 85 520 82 525 79 C531 77 540 72 552 64 C552 64 559 61 559 61 C559 61 559 59 559 53 C559 53 559 52 559 52 C559 52 396 0 396 0 C396 0 366 0 366 0 C366 0 366 39 366 39 C366 39 366 84 366 84 C343 68 324 55 307 43 C291 32 277 23 267 15 C255 7 245 1 237 -5 C204 -5 176 -2 152 5 C129 13 111 24 96 39 C82 55 71 74 64 98 C58 122 54 152 54 186 C54 232 58 271 67 303 C77 336 91 362 111 382 C131 403 157 418 189 427 C221 437 260 441 306 441 C314 441 323 440 333 437 C344 435 355 431 366 426 C366 426 366 506 366 506 C366 506 366 560 366 560 C365 569 362 574 357 576 C353 579 343 584 329 592 C329 592 323 595 323 595 L323 595 Z M366 110 C366 110 366 381 366 381 C338 394 315 400 298 400 C266 400 245 389 231 365 C218 341 211 301 211 243 C211 187 219 147 235 123 C252 99 280 87 320 87 C336 87 351 92 366 102 C366 102 366 110 366 110 L366 110 Z " />
<glyph glyph-name="e" unicode="e" horiz-adv-x="558" d="M509 99 C465 62 426 35 390 19 C355 3 318 -5 280 -5 C238 -5 204 -1 174 6 C145 14 122 25 103 41 C85 57 72 78 63 103 C55 129 50 159 50 195 C50 240 54 277 63 308 C73 340 87 364 107 384 C127 404 152 418 184 427 C216 437 255 441 300 441 C338 441 370 437 396 429 C423 421 444 409 460 391 C477 374 488 352 496 324 C504 297 508 264 508 224 C508 224 367 224 367 224 C367 224 210 224 210 224 C215 174 232 140 262 118 C292 97 340 86 405 86 C425 86 441 88 455 92 C469 97 483 105 495 116 C495 116 509 99 509 99 L509 99 Z M367 279 C367 279 367 279 367 279 C367 279 297 268 297 268 C323 273 341 280 351 292 C362 304 368 323 368 348 C368 348 368 351 368 351 C368 369 363 381 351 388 C340 396 320 399 292 399 C262 399 241 388 228 366 C216 344 209 307 209 253 C209 253 367 279 367 279 L367 279 Z " />
<glyph glyph-name="f" unicode="f" horiz-adv-x="484" d="M268 15 C268 15 268 0 268 0 C268 0 225 0 225 0 C225 0 150 0 150 0 C150 0 75 0 75 0 C75 0 32 0 32 0 C32 0 32 15 32 15 C32 15 38 15 38 15 C54 15 64 19 68 27 C73 35 75 53 75 80 C75 80 75 378 75 378 C75 378 13 378 13 378 C13 378 13 436 13 436 C13 436 75 436 75 436 C75 436 83 499 83 499 C87 528 95 552 107 572 C119 592 136 608 158 620 C180 633 207 641 241 647 C275 653 316 656 362 656 C414 656 451 650 473 636 C496 623 509 600 512 567 C512 543 507 526 497 516 C487 506 470 501 445 501 C420 501 402 506 390 516 C379 526 372 543 370 567 C368 588 364 602 356 610 C349 619 337 623 320 623 C286 623 262 612 247 588 C233 564 225 524 225 466 C225 466 225 436 225 436 C225 436 364 436 364 436 C364 436 364 378 364 378 C364 378 225 378 225 378 C225 378 225 80 225 80 C225 53 227 35 231 27 C236 19 246 15 261 15 C261 15 268 15 268 15 L268 15 Z " />
<glyph glyph-name="g" unicode="g" horiz-adv-x="490" d="M491 436 C491 436 491 353 491 353 C491 353 394 350 394 350 C398 334 399 317 399 299 C399 247 387 211 359 189 C332 167 286 156 222 156 C222 156 165 156 165 156 C146 156 136 152 136 143 C136 145 140 146 148 146 C157 147 171 148 191 149 C191 149 287 153 287 153 C354 153 401 148 429 137 C457 127 471 108 471 82 C471 56 466 33 455 14 C445 -4 428 -19 404 -31 C380 -43 350 -51 312 -57 C274 -62 228 -65 174 -65 C114 -65 72 -63 47 -58 C23 -52 10 -44 10 -33 C10 -18 14 -6 24 2 C34 11 51 17 74 20 C48 32 35 53 35 85 C35 112 40 132 51 146 C63 161 81 171 106 176 C85 187 70 201 60 221 C51 241 46 267 46 299 C46 351 60 386 86 408 C113 430 158 441 222 441 C255 441 283 439 305 433 C328 428 346 419 360 407 C360 407 491 436 491 436 L491 436 Z M187 299 C187 259 190 231 195 214 C201 198 210 189 222 189 C235 189 244 198 249 214 C255 231 257 259 257 299 C257 339 255 367 249 383 C244 400 235 408 222 408 C210 408 201 401 195 384 C190 368 187 339 187 299 L187 299 Z M131 8 C131 8 131 8 131 8 C117 4 110 -4 110 -16 C110 -19 116 -20 128 -22 C140 -23 161 -24 191 -24 C254 -24 298 -21 324 -17 C350 -12 363 -4 363 7 C363 9 355 9 337 9 C319 10 289 10 246 10 C246 10 198 8 198 8 C172 6 150 6 131 8 L131 8 Z " />
<glyph glyph-name="h" unicode="h" horiz-adv-x="586" d="M547 15 C547 15 547 0 547 0 C547 0 504 0 504 0 C504 0 429 0 429 0 C429 0 354 0 354 0 C354 0 311 0 311 0 C311 0 311 15 311 15 C311 15 317 15 317 15 C333 15 343 19 347 27 C352 35 354 53 354 80 C354 80 354 278 354 278 C354 290 354 299 352 307 C350 315 348 321 342 326 C337 332 330 335 320 337 C311 340 299 341 283 341 C278 341 273 340 265 337 C258 335 249 330 237 323 C237 323 237 80 237 80 C237 52 240 35 244 27 C249 19 259 15 274 15 C274 15 280 15 280 15 C280 15 280 0 280 0 C280 0 237 0 237 0 C237 0 162 0 162 0 C162 0 87 0 87 0 C87 0 44 0 44 0 C44 0 44 15 44 15 C44 15 51 15 51 15 C67 15 76 19 80 27 C85 35 87 53 87 80 C87 80 87 506 87 506 C87 506 87 560 87 560 C86 569 83 574 78 576 C74 579 65 584 51 592 C51 592 44 595 44 595 C44 595 44 604 44 604 C44 604 207 656 207 656 C207 656 237 656 237 656 C237 656 237 617 237 617 C237 617 237 546 237 546 C237 546 237 340 237 340 C267 359 291 375 311 387 C332 400 349 410 362 418 C378 428 390 435 399 441 C422 441 439 439 453 433 C467 428 477 420 485 408 C493 396 498 381 500 362 C503 344 504 321 504 294 C504 294 504 80 504 80 C504 53 506 35 510 27 C515 19 525 15 540 15 C540 15 547 15 547 15 L547 15 Z " />
<glyph glyph-name="i" unicode="i" horiz-adv-x="326" d="M45 375 C45 375 45 384 45 384 C45 384 208 436 208 436 C208 436 238 436 238 436 C238 436 238 397 238 397 C238 397 238 326 238 326 C238 326 238 80 238 80 C238 52 241 35 245 27 C250 19 260 15 275 15 C275 15 281 15 281 15 C281 15 281 0 281 0 C281 0 238 0 238 0 C238 0 163 0 163 0 C163 0 88 0 88 0 C88 0 45 0 45 0 C45 0 45 15 45 15 C45 15 51 15 51 15 C67 15 77 19 81 27 C86 35 88 53 88 80 C88 80 88 286 88 286 C88 286 88 340 88 340 C87 349 84 354 79 356 C75 359 65 364 51 372 C51 372 45 375 45 375 L45 375 Z M155 506 C126 506 105 512 93 524 C81 536 75 557 75 586 C75 616 81 636 93 648 C105 660 126 666 155 666 C185 666 205 660 217 648 C229 636 235 616 235 586 C235 557 229 536 217 524 C205 512 185 506 155 506 L155 506 Z " />
<glyph glyph-name="j" unicode="j" horiz-adv-x="327" d="M46 375 C46 375 46 384 46 384 C46 384 209 436 209 436 C209 436 239 436 239 436 C239 436 239 397 239 397 C239 397 240 35 240 35 C240 29 239 23 233 17 C228 11 218 5 200 -3 C183 -11 158 -20 124 -32 C91 -44 46 -60 -11 -80 C-11 -80 -26 -60 -26 -60 C0 -51 20 -44 35 -39 C51 -33 61 -30 69 -26 C77 -22 82 -19 84 -16 C87 -12 88 -9 88 -5 C88 -5 89 342 89 342 C88 350 85 355 80 357 C76 360 67 365 53 372 C53 372 46 375 46 375 L46 375 Z M156 506 C127 506 106 512 94 524 C82 536 76 557 76 586 C76 616 82 636 94 648 C106 660 127 666 156 666 C186 666 206 660 218 648 C230 636 236 616 236 586 C236 557 230 536 218 524 C206 512 186 506 156 506 L156 506 Z " />
<glyph glyph-name="k" unicode="k" horiz-adv-x="590" d="M620 15 C620 15 620 0 620 0 C620 0 588 0 588 0 C588 0 495 0 495 0 C495 0 401 0 401 0 C401 0 358 0 358 0 C358 0 358 15 358 15 C358 15 363 15 363 15 C375 15 380 18 377 26 C375 34 363 52 341 80 C341 80 341 80 341 80 C341 80 222 240 222 240 C222 240 222 80 222 80 C222 80 222 61 222 61 C223 42 225 30 230 24 C236 18 245 15 258 15 C258 15 265 15 265 15 C265 15 265 13 265 8 C265 3 265 0 265 0 C265 0 222 0 222 0 C222 0 147 0 147 0 C147 0 72 0 72 0 C72 0 28 0 28 0 C29 0 29 3 28 8 C29 13 29 15 28 15 C28 15 35 15 35 15 C51 15 61 19 65 27 C70 35 72 53 72 80 C72 80 72 506 72 506 C72 506 72 560 72 560 C71 569 68 574 63 576 C59 579 49 584 35 592 C35 592 28 595 28 595 C29 596 29 599 28 604 C28 604 192 656 192 656 C192 656 222 656 222 656 C222 656 222 617 222 617 C222 617 222 546 222 546 C222 546 222 240 222 240 C222 240 356 358 356 358 C387 386 405 403 411 410 C417 418 416 421 406 421 C406 421 402 421 402 421 C402 421 402 436 402 436 C402 436 445 436 445 436 C445 436 478 436 478 436 C478 436 512 436 512 436 C512 436 536 436 536 436 C536 436 536 434 536 429 C536 424 536 421 536 421 C536 421 529 421 529 421 C517 421 505 419 493 414 C482 410 465 399 443 382 C443 382 354 312 354 312 C354 312 535 71 535 71 C545 59 552 50 558 42 C565 35 570 29 576 25 C582 21 587 19 593 17 C599 16 606 15 613 15 C613 15 620 15 620 15 L620 15 Z " />
<glyph glyph-name="l" unicode="l" horiz-adv-x="326" d="M45 595 C45 595 45 604 45 604 C45 604 208 656 208 656 C208 656 238 656 238 656 C238 656 238 617 238 617 C238 617 238 546 238 546 C238 546 238 80 238 80 C238 52 241 35 245 27 C250 19 260 15 275 15 C275 15 281 15 281 15 C281 15 281 0 281 0 C281 0 238 0 238 0 C238 0 163 0 163 0 C163 0 88 0 88 0 C88 0 45 0 45 0 C45 0 45 15 45 15 C45 15 51 15 51 15 C67 15 77 19 81 27 C86 35 88 53 88 80 C88 80 88 506 88 506 C88 506 88 560 88 560 C87 569 84 574 79 576 C75 579 65 584 51 592 C51 592 45 595 45 595 L45 595 Z " />
<glyph glyph-name="m" unicode="m" horiz-adv-x="873" d="M833 15 C833 15 833 0 833 0 C833 0 790 0 790 0 C790 0 715 0 715 0 C715 0 640 0 640 0 C640 0 597 0 597 0 C597 0 597 15 597 15 C597 15 603 15 603 15 C619 15 629 19 633 27 C638 35 640 53 640 80 C640 80 640 278 640 278 C640 302 635 318 622 327 C610 337 590 341 564 341 C553 341 536 336 513 324 C514 319 514 314 514 309 C514 305 514 300 514 294 C514 294 514 80 514 80 C514 53 516 35 520 27 C525 19 535 15 550 15 C550 15 557 15 557 15 C557 15 557 0 557 0 C557 0 514 0 514 0 C514 0 439 0 439 0 C439 0 364 0 364 0 C364 0 321 0 321 0 C321 0 321 15 321 15 C321 15 327 15 327 15 C343 15 353 19 357 27 C362 35 364 53 364 80 C364 80 364 278 364 278 C364 304 359 322 346 333 C334 345 314 350 288 350 C286 350 281 349 271 343 C262 338 248 329 228 317 C228 317 237 317 237 317 C237 317 237 80 237 80 C237 52 240 35 244 27 C249 19 259 15 274 15 C274 15 280 15 280 15 C280 15 280 0 280 0 C280 0 237 0 237 0 C237 0 162 0 162 0 C162 0 87 0 87 0 C87 0 44 0 44 0 C44 0 44 15 44 15 C44 15 51 15 51 15 C67 15 76 19 80 27 C85 35 87 53 87 80 C87 80 87 286 87 286 C87 286 87 317 87 317 C87 317 87 317 87 317 C87 328 88 335 87 340 C87 346 86 349 83 352 C81 356 77 358 72 360 C68 363 61 367 51 372 C51 372 44 375 44 375 C44 375 44 384 44 384 C44 384 207 436 207 436 C207 436 237 436 237 436 C237 436 237 340 237 340 C268 358 293 374 314 386 C336 399 353 410 366 418 C382 428 395 435 405 441 C436 441 460 434 477 419 C495 405 506 380 511 346 C542 364 568 378 589 390 C611 402 628 412 641 419 C657 429 670 436 680 441 C718 441 745 430 763 408 C781 386 790 348 790 294 C790 294 790 80 790 80 C790 52 793 35 797 27 C802 19 812 15 827 15 C827 15 833 15 833 15 L833 15 Z M221 322 C221 322 203 317 203 317 C203 317 221 317 221 317 C221 317 221 322 221 322 L221 322 Z " />
<glyph glyph-name="n" unicode="n" horiz-adv-x="586" d="M547 15 C547 15 547 0 547 0 C547 0 504 0 504 0 C504 0 429 0 429 0 C429 0 354 0 354 0 C354 0 311 0 311 0 C311 0 311 15 311 15 C311 15 317 15 317 15 C333 15 343 19 347 27 C352 35 354 53 354 80 C354 80 354 278 354 278 C354 290 354 299 352 307 C350 315 348 321 342 326 C337 332 330 335 320 337 C311 340 299 341 283 341 C277 341 270 340 261 336 C253 332 241 326 227 317 C227 317 237 317 237 317 C237 317 237 80 237 80 C237 52 240 35 244 27 C249 19 259 15 274 15 C274 15 280 15 280 15 C280 15 280 0 280 0 C280 0 237 0 237 0 C237 0 162 0 162 0 C162 0 87 0 87 0 C87 0 44 0 44 0 C44 0 44 15 44 15 C44 15 51 15 51 15 C67 15 76 19 80 27 C85 35 87 53 87 80 C87 80 87 286 87 286 C87 286 87 317 87 317 C87 317 87 317 87 317 C87 328 88 335 87 340 C87 346 86 349 83 352 C81 356 77 358 72 360 C68 363 61 367 51 372 C51 372 44 375 44 375 C44 375 44 384 44 384 C44 384 207 436 207 436 C207 436 237 436 237 436 C237 436 237 340 237 340 C267 359 291 375 311 387 C332 400 349 410 362 418 C378 428 390 435 399 441 C422 441 439 439 453 433 C467 428 477 420 485 408 C493 396 498 381 500 362 C503 344 504 321 504 294 C504 294 504 80 504 80 C504 53 506 35 510 27 C515 19 525 15 540 15 C540 15 547 15 547 15 L547 15 Z M221 322 C221 322 203 317 203 317 C203 317 221 317 221 317 C221 317 221 322 221 322 L221 322 Z " />
<glyph glyph-name="o" unicode="o" horiz-adv-x="622" d="M311 28 C346 28 370 42 384 71 C399 101 406 150 406 218 C406 288 400 337 385 365 C371 394 346 408 311 408 C277 408 254 394 239 365 C225 337 217 288 217 218 C217 150 224 102 238 72 C253 43 277 28 311 28 L311 28 Z M50 218 C50 259 55 293 64 321 C74 350 88 372 109 390 C131 408 157 421 190 429 C224 437 264 441 311 441 C359 441 399 437 432 429 C466 421 492 409 513 391 C535 373 550 351 559 322 C569 294 573 259 573 218 C573 178 569 144 559 115 C550 87 536 64 514 46 C493 28 466 15 432 7 C399 -1 359 -5 311 -5 C264 -5 225 -1 191 7 C158 15 132 27 110 45 C89 63 74 86 64 114 C55 143 50 178 50 218 L50 218 Z " />
<glyph glyph-name="p" unicode="p" horiz-adv-x="635" d="M44 375 C44 375 44 384 44 384 C44 384 186 436 186 436 C186 436 216 436 216 436 C216 436 234 340 234 340 C264 359 289 375 310 387 C332 400 349 410 363 418 C379 428 391 435 401 441 C434 441 462 438 484 430 C507 423 525 412 539 395 C554 379 565 357 571 331 C578 305 581 274 581 236 C581 192 576 156 566 125 C556 95 541 70 519 50 C497 31 469 17 434 8 C400 0 358 -5 308 -5 C308 -5 239 -5 239 -5 C241 -17 244 -25 249 -29 C255 -33 263 -35 274 -35 C274 -35 280 -35 280 -35 C280 -35 280 -50 280 -50 C280 -50 237 -50 237 -50 C237 -50 162 -50 162 -50 C162 -50 87 -50 87 -50 C87 -50 44 -50 44 -50 C44 -50 44 -35 44 -35 C44 -35 51 -35 51 -35 C67 -35 76 -31 80 -23 C85 -15 87 3 87 30 C87 30 87 286 87 286 C87 286 87 317 87 317 C87 317 87 317 87 317 C87 328 88 335 87 340 C87 346 86 349 83 352 C81 356 77 358 72 360 C68 363 61 367 51 372 C51 372 44 375 44 375 L44 375 Z M221 322 C221 322 203 317 203 317 C203 317 221 317 221 317 C221 317 221 322 221 322 L221 322 Z M237 99 C237 99 237 99 237 99 C261 77 278 61 288 51 C299 42 306 37 308 37 C348 37 375 46 391 62 C407 79 415 108 415 148 C415 218 406 268 386 297 C366 327 333 341 285 341 C282 341 278 340 270 336 C263 332 252 326 237 317 C237 317 237 99 237 99 L237 99 Z " />
<glyph glyph-name="q" unicode="q" horiz-adv-x="587" d="M306 -50 C306 -50 306 -35 306 -35 C306 -35 313 -35 313 -35 C329 -35 338 -31 342 -23 C347 -15 349 3 349 30 C349 30 349 90 349 90 C324 73 302 58 284 46 C266 34 252 25 240 17 C227 8 216 1 207 -5 C147 -5 104 10 78 39 C52 69 39 118 39 186 C39 232 44 271 52 303 C61 336 74 362 93 382 C113 403 137 418 167 427 C197 437 234 441 277 441 C290 441 301 440 309 438 C317 436 324 435 330 431 C337 428 342 426 348 423 C354 421 360 418 366 416 C373 414 381 413 389 413 C414 413 433 415 447 418 C461 422 473 427 481 434 C481 434 483 436 483 436 C483 436 499 436 499 436 C499 436 499 30 499 30 C500 3 502 -15 506 -23 C511 -31 521 -35 536 -35 C536 -35 542 -35 542 -35 C543 -35 543 -37 542 -42 C543 -47 543 -50 542 -50 C542 -50 499 -50 499 -50 C499 -50 424 -50 424 -50 C424 -50 349 -50 349 -50 C349 -50 306 -50 306 -50 L306 -50 Z M349 112 C349 112 349 307 349 307 C349 341 345 364 333 378 C322 392 303 399 277 399 C247 399 227 388 214 364 C202 340 195 300 195 243 C195 187 202 147 216 123 C231 99 255 87 289 87 C297 87 305 88 314 92 C324 96 335 103 349 112 L349 112 Z " />
<glyph glyph-name="r" unicode="r" horiz-adv-x="451" d="M44 375 C44 375 44 384 44 384 C44 384 186 436 186 436 C186 436 216 436 216 436 C216 436 234 340 234 340 C258 359 279 375 295 387 C312 400 326 410 336 418 C348 428 358 435 366 441 C382 441 395 440 405 436 C415 433 423 428 428 420 C434 412 436 403 438 391 C440 379 441 365 441 347 C441 321 437 304 425 292 C414 281 395 275 369 275 C356 275 345 277 335 283 C326 289 317 295 308 302 C300 310 291 315 281 321 C271 327 260 330 246 330 C245 330 244 329 242 327 C238 325 234 321 229 317 C229 317 237 317 237 317 C237 317 237 80 237 80 C237 52 240 35 244 27 C249 19 259 15 274 15 C274 15 280 15 280 15 C280 15 280 0 280 0 C280 0 237 0 237 0 C237 0 162 0 162 0 C162 0 87 0 87 0 C87 0 44 0 44 0 C44 0 44 15 44 15 C44 15 51 15 51 15 C67 15 76 19 80 27 C85 35 87 53 87 80 C87 80 87 286 87 286 C87 286 87 317 87 317 C87 317 87 317 87 317 C87 328 88 335 87 340 C87 346 86 349 83 352 C81 356 77 358 72 360 C68 363 61 367 51 372 C51 372 44 375 44 375 L44 375 Z M221 322 C221 322 203 317 203 317 C203 317 221 317 221 317 C221 317 221 322 221 322 L221 322 Z " />
<glyph glyph-name="s" unicode="s" horiz-adv-x="429" d="M41 81 C41 81 52 81 52 81 C54 79 56 77 58 75 C60 73 62 71 64 68 C78 54 92 44 110 38 C128 32 152 29 182 29 C209 29 227 34 238 43 C250 53 255 69 255 91 C255 107 250 120 238 131 C227 143 207 154 179 165 C131 186 96 206 76 227 C56 249 46 274 46 304 C46 354 61 388 92 409 C124 431 176 441 248 441 C274 441 295 441 312 441 C330 442 343 443 353 443 C353 443 353 443 353 443 C353 443 356 443 356 443 C356 443 361 356 361 356 C361 356 349 356 349 356 C348 358 347 360 345 362 C344 364 343 366 341 368 C332 382 321 391 309 397 C297 404 281 408 261 408 C261 408 248 408 248 408 C216 408 195 405 181 397 C168 389 161 376 161 356 C161 344 171 332 189 319 C208 307 240 291 285 271 C320 257 344 240 358 221 C373 203 380 178 380 147 C380 93 365 54 333 30 C302 7 249 -5 173 -5 C145 -5 122 -4 101 -5 C81 -5 47 -7 47 -7 C47 -7 41 81 41 81 L41 81 Z M50 -7 C50 -7 50 -7 50 -7 L50 -7 Z M47 -7 C6 -9 47 -7 47 -7 L47 -7 Z M356 443 C369 445 356 443 356 443 L356 443 Z " />
<glyph glyph-name="t" unicode="t" horiz-adv-x="398" d="M366 436 C366 436 366 378 366 378 C366 378 231 378 231 378 C231 378 231 116 231 116 C231 104 232 94 232 86 C233 79 235 74 238 70 C242 67 247 66 253 64 C260 63 269 62 281 62 C296 62 307 63 316 63 C326 64 333 64 339 66 C346 68 351 71 355 73 C359 76 364 79 368 82 C368 82 379 70 379 70 C363 57 349 46 336 36 C324 26 311 18 298 12 C286 6 273 2 258 -1 C244 -3 227 -5 207 -5 C177 -5 154 -4 137 -2 C121 1 109 6 100 16 C92 26 86 40 84 60 C82 80 81 108 81 142 C81 142 81 378 81 378 C81 378 25 378 25 378 C25 378 25 394 25 394 C53 400 80 415 107 440 C135 466 167 505 203 559 C204 561 204 561 204 561 C205 562 206 563 206 564 C206 564 231 564 231 564 C231 564 231 436 231 436 C231 436 366 436 366 436 L366 436 Z " />
<glyph glyph-name="u" unicode="u" horiz-adv-x="564" d="M517 61 C517 61 517 52 517 52 C517 52 354 0 354 0 C354 0 324 0 324 0 C324 0 324 39 324 39 C324 39 324 97 324 97 C299 79 278 63 260 50 C242 38 228 27 216 18 C203 9 192 1 184 -5 C159 -5 139 -3 122 3 C106 9 93 19 83 31 C73 44 67 60 63 80 C59 100 57 125 57 153 C57 153 57 356 57 356 C57 384 56 401 51 409 C47 417 37 421 21 421 C21 421 14 421 14 421 C14 421 14 436 14 436 C14 436 57 436 57 436 C57 436 132 436 132 436 C132 436 207 436 207 436 C207 436 207 169 207 169 C207 143 214 124 226 112 C239 100 264 94 302 94 C298 94 306 101 324 115 C324 115 324 356 324 356 C324 384 323 401 318 409 C314 417 303 421 287 421 C287 421 281 421 281 421 C281 421 281 436 281 436 C281 436 324 436 324 436 C324 436 399 436 399 436 C399 436 474 436 474 436 C474 436 474 150 474 150 C474 150 474 91 474 91 C476 85 478 82 483 79 C489 77 498 72 510 64 C510 64 517 61 517 61 L517 61 Z " />
<glyph glyph-name="v" unicode="v" horiz-adv-x="602" d="M226 436 C226 436 226 421 226 421 C226 421 221 421 221 421 C211 421 206 420 204 414 C203 409 207 397 216 379 C216 379 346 157 346 157 C346 157 449 372 449 372 C459 394 464 406 462 412 C461 418 455 421 443 421 C443 421 437 421 437 421 C438 421 438 424 437 429 C438 434 438 436 437 436 C437 436 480 436 480 436 C480 436 505 436 505 436 C505 436 530 436 530 436 C530 436 565 436 565 436 C566 436 566 434 565 429 C566 424 566 421 565 421 C565 421 559 421 559 421 C545 421 535 419 526 412 C518 406 507 391 494 369 C494 369 291 -10 291 -10 C291 -10 266 -10 266 -10 C266 -10 47 374 47 374 C35 394 25 406 16 412 C8 418 -3 421 -17 421 C-17 421 -23 421 -23 421 C-23 421 -23 424 -23 429 C-23 434 -23 436 -23 436 C-23 436 11 436 11 436 C11 436 97 436 97 436 C97 436 183 436 183 436 C183 436 226 436 226 436 L226 436 Z " />
<glyph glyph-name="w" unicode="w" horiz-adv-x="975" d="M930 436 C930 436 930 421 930 421 C930 421 921 421 921 421 C914 421 909 422 905 422 C902 423 898 421 893 415 C893 415 664 -10 664 -10 C664 -10 639 -10 639 -10 C639 -10 452 318 452 318 C452 318 291 -10 291 -10 C291 -10 266 -10 266 -10 C266 -10 45 377 45 377 C37 391 31 401 26 407 C22 414 19 418 15 420 C12 422 9 423 6 422 C4 422 0 421 -5 421 C-5 421 -15 421 -15 421 C-15 421 -15 436 -15 436 C-15 436 11 436 11 436 C11 436 183 436 183 436 C183 436 233 436 233 436 C233 436 233 421 233 421 C233 421 223 421 223 421 C217 421 211 422 206 422 C202 423 199 421 199 417 C199 413 202 407 207 396 C213 386 222 369 234 347 C234 347 234 347 234 347 C234 347 343 155 343 155 C343 155 434 349 434 349 C434 349 434 349 434 349 C422 371 413 386 406 396 C400 407 395 413 391 417 C388 421 385 423 382 422 C380 422 376 421 371 421 C371 421 362 421 362 421 C362 421 362 436 362 436 C362 436 385 436 385 436 C385 436 556 436 556 436 C556 436 611 436 611 436 C611 436 611 421 611 421 C611 421 601 421 601 421 C594 421 589 422 583 422 C578 423 576 421 575 417 C575 413 576 407 581 396 C587 386 596 369 608 347 C608 347 608 347 608 347 C608 347 719 156 719 156 C719 156 815 354 815 354 C825 374 831 388 834 398 C838 408 839 415 837 418 C835 422 832 423 826 422 C820 422 813 421 804 421 C804 421 794 421 794 421 C794 421 794 436 794 436 C794 436 854 436 854 436 C854 436 904 436 904 436 C904 436 930 436 930 436 L930 436 Z " />
<glyph glyph-name="x" unicode="x" horiz-adv-x="532" d="M343 421 C343 421 343 436 343 436 C343 436 401 436 401 436 C401 436 426 436 426 436 C426 436 451 436 451 436 C451 436 479 436 479 436 C480 436 480 434 479 429 C480 424 480 421 479 421 C479 421 473 421 473 421 C465 421 459 421 452 419 C446 417 440 415 432 410 C425 406 417 399 407 390 C398 382 386 370 372 356 C372 356 372 356 372 356 C372 356 299 282 299 282 C299 282 435 71 435 71 C451 48 462 34 470 26 C478 19 487 15 496 15 C496 15 500 15 500 15 C500 15 500 0 500 0 C500 0 481 0 481 0 C481 0 390 0 390 0 C390 0 298 0 298 0 C298 0 255 0 255 0 C255 0 255 15 255 15 C255 15 260 15 260 15 C272 15 278 18 276 26 C274 34 264 52 246 80 C246 80 246 80 246 80 C246 80 194 160 194 160 C194 160 124 72 124 72 C106 48 98 34 98 26 C99 19 109 15 129 15 C129 15 137 15 137 15 C137 15 137 0 137 0 C137 0 68 0 68 0 C68 0 43 0 43 0 C43 0 18 0 18 0 C18 0 -19 0 -19 0 C-19 0 -19 15 -19 15 C-19 15 -12 15 -12 15 C-3 15 5 16 11 17 C18 19 25 22 31 26 C38 31 44 37 52 45 C60 53 70 64 80 76 C80 76 175 190 175 190 C175 190 57 371 57 371 C43 393 33 406 25 412 C17 418 8 421 -4 421 C-4 421 -9 421 -9 421 C-9 421 -9 424 -9 429 C-9 434 -9 436 -9 436 C-9 436 15 436 15 436 C15 436 107 436 107 436 C107 436 199 436 199 436 C199 436 250 436 250 436 C250 436 250 421 250 421 C250 421 244 421 244 421 C232 421 224 419 222 414 C220 410 224 399 233 383 C233 383 283 305 283 305 C283 305 329 356 329 356 C355 384 368 401 370 409 C373 417 366 421 350 421 C350 421 343 421 343 421 L343 421 Z " />
<glyph glyph-name="y" unicode="y" horiz-adv-x="641" d="M265 436 C265 436 265 421 265 421 C265 421 260 421 260 421 C250 421 245 420 243 414 C242 409 246 397 255 379 C255 379 385 157 385 157 C385 157 488 372 488 372 C498 394 503 406 501 412 C500 418 494 421 482 421 C482 421 476 421 476 421 C477 421 477 424 476 429 C477 434 477 436 476 436 C476 436 519 436 519 436 C519 436 544 436 544 436 C544 436 569 436 569 436 C569 436 604 436 604 436 C605 436 605 434 604 429 C605 424 605 421 604 421 C604 421 598 421 598 421 C584 421 574 419 565 412 C557 406 546 391 533 369 C533 369 330 -10 330 -10 C330 -10 296 -72 296 -72 C299 -66 299 -63 294 -60 C290 -56 278 -54 260 -53 C260 -53 294 10 294 10 C294 10 86 374 86 374 C74 394 64 406 55 412 C47 418 36 421 22 421 C22 421 16 421 16 421 C16 421 16 424 16 429 C16 434 16 436 16 436 C16 436 50 436 50 436 C50 436 136 436 136 436 C136 436 222 436 222 436 C222 436 265 436 265 436 L265 436 Z M260 -53 C260 -53 260 -53 260 -53 C260 -54 260 -54 259 -55 C259 -55 258 -56 257 -58 C257 -58 260 -53 260 -53 L260 -53 Z M260 -53 C244 -51 223 -51 194 -51 C166 -50 128 -50 82 -50 C52 -50 31 -45 18 -36 C6 -26 -1 -11 -1 11 C-1 35 5 50 16 60 C28 70 47 75 75 75 C85 75 93 74 101 71 C109 69 116 66 124 62 C132 59 140 56 148 53 C156 51 165 49 174 49 C204 49 228 49 245 46 C263 44 274 39 280 31 C286 24 288 14 284 0 C280 -13 272 -31 260 -53 L260 -53 Z " />
<glyph glyph-name="z" unicode="z" horiz-adv-x="463" d="M386 120 C388 120 390 120 392 119 C397 119 401 118 404 116 C400 98 398 83 394 67 C391 52 387 35 383 17 C381 12 380 6 379 0 C379 0 370 0 370 0 C370 0 299 0 299 0 C299 0 178 0 178 0 C178 0 89 0 89 0 C89 0 1 0 1 0 C1 0 221 402 221 402 C221 402 162 402 162 402 C162 402 162 401 162 401 C146 401 131 402 119 400 C107 399 97 398 87 394 C77 391 68 386 58 380 C49 374 38 367 26 357 C26 357 17 349 17 349 C17 349 5 349 5 349 C9 363 12 374 16 384 C20 395 24 407 28 419 C30 423 31 425 31 427 C32 430 33 433 34 436 C34 436 84 436 84 436 C84 436 114 436 114 436 C114 436 240 436 240 436 C240 436 327 436 327 436 C327 436 413 436 413 436 C413 436 196 33 196 33 C196 33 241 34 241 34 C241 34 241 34 241 34 C261 34 276 34 289 36 C303 38 313 42 323 47 C333 53 342 59 350 69 C359 79 368 92 378 107 C378 107 386 120 386 120 L386 120 Z " />
<glyph glyph-name="braceleft" unicode="&#x7b;" horiz-adv-x="265" d="M250 -26 C250 -26 210 -26 210 -26 C156 -26 118 -15 95 7 C73 29 62 66 62 118 C62 118 62 251 62 251 C62 254 58 255 50 256 C42 258 29 258 10 258 C10 258 5 258 5 258 C5 258 5 283 5 283 C5 283 10 283 10 283 C29 283 41 290 49 302 C57 315 62 337 62 367 C62 367 62 423 62 423 C62 475 73 512 95 534 C118 556 156 567 210 567 C210 567 250 567 250 567 C250 567 250 542 250 542 C250 542 244 542 244 542 C220 542 203 533 193 515 C183 497 178 467 178 423 C178 423 178 451 178 451 C178 395 171 354 157 325 C143 297 120 279 88 271 C120 267 143 258 157 241 C171 225 178 200 178 168 C178 168 178 118 178 118 C178 75 183 44 193 26 C203 8 220 -1 244 -1 C244 -1 250 -1 250 -1 C250 -1 250 -26 250 -26 L250 -26 Z " />
<glyph glyph-name="bar" unicode="&#x7c;" horiz-adv-x="236" d="M60 706 C60 706 177 706 177 706 C177 706 177 -90 177 -90 C177 -90 60 -90 60 -90 C60 -90 60 706 60 706 L60 706 Z " />
<glyph glyph-name="braceright" unicode="&#x7d;" horiz-adv-x="265" d="M5 567 C5 567 45 567 45 567 C99 567 138 556 160 534 C183 512 194 475 194 423 C194 423 194 289 194 289 C194 287 197 287 205 285 C213 284 227 283 245 283 C245 283 250 283 250 283 C250 283 250 258 250 258 C250 258 245 258 245 258 C227 258 214 252 206 239 C198 227 194 205 194 174 C194 174 194 118 194 118 C194 66 183 29 160 7 C138 -15 99 -26 45 -26 C45 -26 5 -26 5 -26 C5 -26 5 -1 5 -1 C5 -1 12 -1 12 -1 C36 -1 52 8 62 26 C72 44 77 75 77 118 C77 118 77 90 77 90 C77 146 84 188 98 216 C112 245 136 263 168 270 C136 274 112 284 98 300 C84 317 77 341 77 373 C77 373 77 423 77 423 C77 467 72 497 62 515 C52 533 36 542 12 542 C12 542 5 542 5 542 C5 542 5 567 5 567 L5 567 Z " />
<glyph glyph-name="PaddingCharacter" unicode="&#x80;" horiz-adv-x="40" d="" />
<glyph glyph-name="[namenotfound]" unicode="&#xa0;" horiz-adv-x="226" d="" />
<glyph glyph-name="exclamdown" unicode="&#xa1;" horiz-adv-x="310" d="M142 441 C172 441 192 435 204 423 C216 411 222 391 222 361 C222 332 216 311 204 299 C192 287 172 281 142 281 C113 281 92 287 80 299 C68 311 62 332 62 361 C62 391 68 411 80 423 C92 435 113 441 142 441 L142 441 Z M60 -31 C60 -31 132 206 132 206 C132 206 152 206 152 206 C152 206 243 -31 243 -31 C259 -69 259 -96 245 -112 C231 -128 200 -136 152 -136 C107 -136 78 -128 64 -112 C50 -96 49 -69 60 -31 L60 -31 Z " />
<glyph glyph-name="cent" unicode="&#xa2;" horiz-adv-x="552" d="M280 511 C280 511 320 511 320 511 C320 511 320 441 320 441 C384 441 428 433 456 418 C484 404 500 379 503 344 C503 320 498 302 488 292 C478 282 461 277 436 277 C412 277 394 282 382 293 C371 305 364 324 361 351 C359 378 346 393 320 397 C320 397 320 93 320 93 C342 89 369 86 402 86 C422 86 437 88 450 92 C464 97 477 105 489 116 C489 116 503 99 503 99 C467 69 435 46 406 30 C378 14 349 4 320 -1 C320 -1 320 -75 320 -75 C320 -75 280 -75 280 -75 C280 -75 280 -5 280 -5 C280 -5 277 -5 277 -5 C236 -5 201 -1 172 6 C144 14 120 25 102 41 C84 57 72 78 63 103 C55 129 50 159 50 195 C50 237 54 273 62 303 C71 333 84 357 102 377 C121 397 145 412 174 422 C204 432 239 438 280 440 C280 440 280 511 280 511 L280 511 Z M280 107 C280 107 280 398 280 398 C255 394 238 382 226 359 C215 337 209 301 209 253 C209 215 214 185 225 161 C237 137 255 119 280 107 L280 107 Z " />
<glyph glyph-name="guillemotleft" unicode="&#xab;" horiz-adv-x="473" d="M334 219 C334 219 428 49 428 49 C428 49 412 33 412 33 C412 33 188 210 188 210 C188 210 188 226 188 226 C188 226 408 403 408 403 C408 403 424 387 424 387 C424 387 334 219 334 219 L334 219 Z M167 219 C167 219 260 49 260 49 C260 49 244 33 244 33 C244 33 20 210 20 210 C20 210 20 226 20 226 C20 226 240 403 240 403 C240 403 256 387 256 387 C256 387 167 219 167 219 L167 219 Z " />
<glyph glyph-name="guillemotright" unicode="&#xbb;" horiz-adv-x="473" d="M139 219 C139 219 49 387 49 387 C49 387 66 403 66 403 C66 403 285 226 285 226 C285 226 285 210 285 210 C285 210 61 33 61 33 C61 33 45 49 45 49 C45 49 139 219 139 219 L139 219 Z M307 219 C307 219 217 387 217 387 C217 387 233 403 233 403 C233 403 453 226 453 226 C453 226 453 210 453 210 C453 210 229 33 229 33 C229 33 213 49 213 49 C213 49 307 219 307 219 L307 219 Z " />
<glyph glyph-name="questiondown" unicode="&#xbf;" horiz-adv-x="380" d="M241 441 C271 441 292 435 304 423 C316 411 322 391 321 361 C322 332 316 311 304 299 C292 287 271 281 241 281 C213 281 192 287 180 299 C168 311 162 332 161 361 C162 391 168 411 180 423 C192 435 213 441 241 441 L241 441 Z M219 182 C219 182 231 212 231 212 C231 212 251 212 251 212 C251 212 285 127 285 127 C293 106 297 91 294 81 C292 72 284 68 270 68 C270 68 235 68 235 68 C193 68 162 68 139 67 C117 67 101 66 90 65 C80 65 74 64 72 63 C70 63 69 62 69 61 C70 33 81 12 103 0 C126 -12 164 -18 218 -18 C226 -18 232 -16 237 -12 C243 -8 247 -3 251 1 C255 6 259 10 264 14 C270 18 276 20 284 20 C308 20 324 15 334 5 C344 -5 349 -21 349 -45 C349 -78 343 -101 330 -115 C318 -129 296 -136 265 -136 C265 -136 264 -135 264 -135 C264 -135 265 -136 265 -136 C223 -136 189 -133 159 -125 C130 -117 107 -105 88 -88 C70 -70 57 -49 48 -22 C40 6 35 39 35 77 C35 89 36 100 37 112 C39 125 43 136 52 146 C62 157 77 166 97 172 C118 179 147 182 185 182 C185 182 219 182 219 182 L219 182 Z " />
<glyph glyph-name="Agrave" unicode="&#xc0;" horiz-adv-x="706" d="M698 15 C698 15 698 0 698 0 C698 0 663 0 663 0 C663 0 572 0 572 0 C572 0 482 0 482 0 C482 0 427 0 427 0 C427 0 427 15 427 15 C427 15 434 15 434 15 C451 15 459 18 459 26 C460 34 453 52 437 80 C437 80 437 80 437 80 C437 80 372 196 372 196 C372 196 175 196 175 196 C175 196 132 95 132 95 C132 95 132 95 132 95 C118 61 110 40 112 30 C114 20 126 15 146 15 C146 15 154 15 154 15 C154 15 154 0 154 0 C154 0 91 0 91 0 C91 0 64 0 64 0 C64 0 36 0 36 0 C36 0 0 0 0 0 C0 0 0 15 0 15 C0 15 6 15 6 15 C14 15 20 15 26 17 C32 19 38 23 42 27 C47 32 52 38 56 46 C61 55 66 66 72 80 C72 80 72 80 72 80 C72 80 298 580 298 580 C298 580 339 580 339 580 C339 580 618 80 618 80 C618 80 619 80 619 80 C627 66 634 56 639 47 C645 39 650 32 655 27 C661 23 666 20 671 18 C677 16 683 15 691 15 C691 15 698 15 698 15 L698 15 Z M343 777 C343 777 406 609 406 609 C406 609 389 596 389 596 C389 596 267 717 267 717 C255 729 247 737 241 743 C236 750 233 756 233 761 C233 767 236 773 242 780 C248 788 255 794 264 800 C274 807 282 812 292 816 C302 821 311 823 319 823 C323 823 326 821 329 813 C333 806 337 794 343 777 L343 777 Z M349 236 C349 236 260 395 260 395 C260 395 192 237 192 237 C192 237 349 236 349 236 L349 236 Z " />
<glyph glyph-name="Aacute" unicode="&#xc1;" horiz-adv-x="706" d="M259 596 C259 596 242 609 242 609 C242 609 302 777 302 777 C308 794 313 805 316 812 C320 820 323 823 325 823 C333 823 341 822 351 817 C361 813 370 808 379 801 C389 795 396 788 402 780 C408 773 411 767 411 761 C411 757 410 751 404 745 C399 739 390 730 378 717 C378 717 259 596 259 596 L259 596 Z M698 15 C698 15 698 0 698 0 C698 0 663 0 663 0 C663 0 572 0 572 0 C572 0 482 0 482 0 C482 0 427 0 427 0 C427 0 427 15 427 15 C427 15 434 15 434 15 C451 15 459 18 459 26 C460 34 453 52 437 80 C437 80 437 80 437 80 C437 80 372 196 372 196 C372 196 175 196 175 196 C175 196 132 95 132 95 C132 95 132 95 132 95 C118 61 110 40 112 30 C114 20 126 15 146 15 C146 15 154 15 154 15 C154 15 154 0 154 0 C154 0 91 0 91 0 C91 0 64 0 64 0 C64 0 36 0 36 0 C36 0 0 0 0 0 C0 0 0 15 0 15 C0 15 6 15 6 15 C14 15 20 15 26 17 C32 19 38 23 42 27 C47 32 52 38 56 46 C61 55 66 66 72 80 C72 80 72 80 72 80 C72 80 298 580 298 580 C298 580 339 580 339 580 C339 580 618 80 618 80 C618 80 619 80 619 80 C627 66 634 56 639 47 C645 39 650 32 655 27 C661 23 666 20 671 18 C677 16 683 15 691 15 C691 15 698 15 698 15 L698 15 Z M349 236 C349 236 260 395 260 395 C260 395 192 237 192 237 C192 237 349 236 349 236 L349 236 Z " />
<glyph glyph-name="Acircumflex" unicode="&#xc2;" horiz-adv-x="706" d="M698 15 C698 15 698 0 698 0 C698 0 663 0 663 0 C663 0 572 0 572 0 C572 0 482 0 482 0 C482 0 427 0 427 0 C427 0 427 15 427 15 C427 15 434 15 434 15 C451 15 459 18 459 26 C460 34 453 52 437 80 C437 80 437 80 437 80 C437 80 372 196 372 196 C372 196 175 196 175 196 C175 196 132 95 132 95 C132 95 132 95 132 95 C118 61 110 40 112 30 C114 20 126 15 146 15 C146 15 154 15 154 15 C154 15 154 0 154 0 C154 0 91 0 91 0 C91 0 64 0 64 0 C64 0 36 0 36 0 C36 0 0 0 0 0 C0 0 0 15 0 15 C0 15 6 15 6 15 C14 15 20 15 26 17 C32 19 38 23 42 27 C47 32 52 38 56 46 C61 55 66 66 72 80 C72 80 72 80 72 80 C72 80 298 580 298 580 C298 580 339 580 339 580 C339 580 618 80 618 80 C618 80 619 80 619 80 C627 66 634 56 639 47 C645 39 650 32 655 27 C661 23 666 20 671 18 C677 16 683 15 691 15 C691 15 698 15 698 15 L698 15 Z M318 684 C318 684 208 597 208 597 C208 597 193 610 193 610 C193 610 271 769 271 769 C275 777 280 786 286 796 C293 806 304 811 318 811 C334 811 345 807 351 796 C358 786 363 777 366 769 C366 769 444 610 444 610 C444 610 428 597 428 597 C428 597 318 684 318 684 L318 684 Z M349 236 C349 236 260 395 260 395 C260 395 192 237 192 237 C192 237 349 236 349 236 L349 236 Z " />
<glyph glyph-name="Atilde" unicode="&#xc3;" horiz-adv-x="706" d="M176 662 C176 662 151 662 151 662 C151 717 158 756 172 778 C187 801 212 812 246 812 C264 812 279 809 292 802 C306 796 318 789 330 781 C343 773 356 766 369 759 C383 753 398 749 415 749 C432 749 444 754 450 763 C457 773 460 788 460 809 C460 809 485 809 485 809 C485 751 478 709 462 685 C447 661 421 649 383 649 C366 649 351 653 337 659 C324 666 311 672 298 680 C286 688 274 696 260 702 C247 709 232 712 214 712 C200 712 191 709 185 701 C179 693 176 680 176 662 L176 662 Z M698 15 C698 15 698 0 698 0 C698 0 663 0 663 0 C663 0 572 0 572 0 C572 0 482 0 482 0 C482 0 427 0 427 0 C427 0 427 15 427 15 C427 15 434 15 434 15 C451 15 459 18 459 26 C460 34 453 52 437 80 C437 80 437 80 437 80 C437 80 372 196 372 196 C372 196 175 196 175 196 C175 196 132 95 132 95 C132 95 132 95 132 95 C118 61 110 40 112 30 C114 20 126 15 146 15 C146 15 154 15 154 15 C154 15 154 0 154 0 C154 0 91 0 91 0 C91 0 64 0 64 0 C64 0 36 0 36 0 C36 0 0 0 0 0 C0 0 0 15 0 15 C0 15 6 15 6 15 C14 15 20 15 26 17 C32 19 38 23 42 27 C47 32 52 38 56 46 C61 55 66 66 72 80 C72 80 72 80 72 80 C72 80 298 580 298 580 C298 580 339 580 339 580 C339 580 618 80 618 80 C618 80 619 80 619 80 C627 66 634 56 639 47 C645 39 650 32 655 27 C661 23 666 20 671 18 C677 16 683 15 691 15 C691 15 698 15 698 15 L698 15 Z M349 236 C349 236 260 395 260 395 C260 395 192 237 192 237 C192 237 349 236 349 236 L349 236 Z " />
<glyph glyph-name="Adieresis" unicode="&#xc4;" horiz-adv-x="706" d="M426 637 C397 637 376 643 364 655 C352 667 346 688 346 717 C346 747 352 767 364 779 C376 791 397 797 426 797 C456 797 476 791 488 779 C500 767 506 747 506 717 C506 688 500 667 488 655 C476 643 456 637 426 637 L426 637 Z M211 637 C182 637 161 643 149 655 C137 667 131 688 131 717 C131 747 137 767 149 779 C161 791 182 797 211 797 C241 797 261 791 273 779 C285 767 291 747 291 717 C291 688 285 667 273 655 C261 643 241 637 211 637 L211 637 Z M698 15 C698 15 698 0 698 0 C698 0 663 0 663 0 C663 0 572 0 572 0 C572 0 482 0 482 0 C482 0 427 0 427 0 C427 0 427 15 427 15 C427 15 434 15 434 15 C451 15 459 18 459 26 C460 34 453 52 437 80 C437 80 437 80 437 80 C437 80 372 196 372 196 C372 196 175 196 175 196 C175 196 132 95 132 95 C132 95 132 95 132 95 C118 61 110 40 112 30 C114 20 126 15 146 15 C146 15 154 15 154 15 C154 15 154 0 154 0 C154 0 91 0 91 0 C91 0 64 0 64 0 C64 0 36 0 36 0 C36 0 0 0 0 0 C0 0 0 15 0 15 C0 15 6 15 6 15 C14 15 20 15 26 17 C32 19 38 23 42 27 C47 32 52 38 56 46 C61 55 66 66 72 80 C72 80 72 80 72 80 C72 80 298 580 298 580 C298 580 339 580 339 580 C339 580 618 80 618 80 C618 80 619 80 619 80 C627 66 634 56 639 47 C645 39 650 32 655 27 C661 23 666 20 671 18 C677 16 683 15 691 15 C691 15 698 15 698 15 L698 15 Z M349 236 C349 236 260 395 260 395 C260 395 192 237 192 237 C192 237 349 236 349 236 L349 236 Z " />
<glyph glyph-name="Aring" unicode="&#xc5;" horiz-adv-x="706" d="M318 635 C356 635 374 655 374 694 C374 716 371 731 362 740 C354 750 339 754 318 754 C298 754 285 751 276 741 C268 732 263 716 263 694 C263 655 282 635 318 635 L318 635 Z M221 694 C221 728 229 752 243 766 C258 780 283 787 318 787 C354 787 379 780 393 766 C408 752 415 728 415 694 C415 633 383 602 318 602 C254 602 221 633 221 694 L221 694 Z M698 15 C698 15 698 0 698 0 C698 0 663 0 663 0 C663 0 572 0 572 0 C572 0 482 0 482 0 C482 0 427 0 427 0 C427 0 427 15 427 15 C427 15 434 15 434 15 C451 15 459 18 459 26 C460 34 453 52 437 80 C437 80 437 80 437 80 C437 80 372 196 372 196 C372 196 175 196 175 196 C175 196 132 95 132 95 C132 95 132 95 132 95 C118 61 110 40 112 30 C114 20 126 15 146 15 C146 15 154 15 154 15 C154 15 154 0 154 0 C154 0 91 0 91 0 C91 0 64 0 64 0 C64 0 36 0 36 0 C36 0 0 0 0 0 C0 0 0 15 0 15 C0 15 6 15 6 15 C14 15 20 15 26 17 C32 19 38 23 42 27 C47 32 52 38 56 46 C61 55 66 66 72 80 C72 80 72 80 72 80 C72 80 298 580 298 580 C298 580 339 580 339 580 C339 580 618 80 618 80 C618 80 619 80 619 80 C627 66 634 56 639 47 C645 39 650 32 655 27 C661 23 666 20 671 18 C677 16 683 15 691 15 C691 15 698 15 698 15 L698 15 Z M349 236 C349 236 260 395 260 395 C260 395 192 237 192 237 C192 237 349 236 349 236 L349 236 Z " />
<glyph glyph-name="Ccedilla" unicode="&#xc7;" horiz-adv-x="767" d="M707 26 C707 26 704 47 704 47 C704 47 704 47 704 47 C704 47 707 26 707 26 L707 26 Z M707 26 C644 16 593 9 555 3 C517 -2 485 -5 457 -5 C380 -5 314 0 260 10 C206 21 162 37 128 60 C94 84 70 114 54 150 C39 187 31 231 31 283 C31 336 39 381 54 417 C70 454 94 483 128 506 C162 530 206 546 260 556 C314 567 380 572 457 572 C485 572 517 570 555 565 C593 561 644 553 707 541 C707 541 704 520 704 520 C704 520 704 520 704 520 C704 520 707 541 707 541 C707 541 714 427 714 427 C712 427 710 427 708 426 C708 426 702 426 702 426 C699 430 696 433 694 436 C692 440 690 443 687 447 C670 472 648 490 620 502 C593 514 555 523 507 527 C507 527 507 527 507 527 C489 529 472 530 457 530 C413 530 376 527 345 517 C315 508 290 494 270 474 C251 454 237 429 228 397 C220 366 215 328 215 283 C215 239 220 202 228 170 C237 139 251 114 270 94 C290 74 315 61 345 51 C376 42 413 37 457 37 C469 37 482 38 498 39 C514 41 533 43 554 45 C587 51 613 60 634 72 C656 84 673 100 687 120 C690 124 692 128 694 131 C696 135 699 138 702 141 C705 141 707 141 708 140 C708 140 714 140 714 140 C714 140 707 26 707 26 L707 26 Z " />
<glyph glyph-name="Egrave" unicode="&#xc8;" horiz-adv-x="632" d="M472 366 C472 366 484 366 484 366 C484 366 484 323 484 323 C484 323 484 302 484 302 C484 302 484 282 484 282 C484 282 484 233 484 233 C484 233 472 233 472 233 C468 243 464 252 459 258 C455 265 449 270 441 273 C433 277 423 279 411 280 C399 282 384 282 364 282 C364 282 250 282 250 282 C250 282 250 42 250 42 C250 42 411 42 411 42 C411 42 431 42 431 42 C449 42 463 43 475 45 C487 47 497 50 507 55 C517 61 527 68 535 76 C544 85 553 96 563 108 C563 108 572 119 572 119 C572 119 583 119 583 119 C579 102 576 87 572 71 C569 56 565 39 561 21 C560 15 559 8 557 0 C557 0 549 0 549 0 C549 0 477 0 477 0 C477 0 250 0 250 0 C250 0 166 0 166 0 C166 0 83 0 83 0 C83 0 40 0 40 0 C40 0 40 15 40 15 C40 15 46 15 46 15 C62 15 72 19 76 27 C81 35 83 53 83 80 C83 80 83 487 83 487 C83 515 82 532 77 540 C73 548 62 552 46 552 C46 552 40 552 40 552 C40 552 40 567 40 567 C40 567 83 567 83 567 C83 567 166 567 166 567 C166 567 250 567 250 567 C250 567 484 567 484 567 C484 567 539 567 539 567 C539 567 564 567 564 567 C565 564 565 561 565 557 C565 554 566 550 566 546 C568 528 569 513 569 497 C570 482 571 466 572 448 C572 448 561 448 561 448 C561 448 554 459 554 459 C546 473 537 485 529 493 C521 502 513 509 502 513 C492 518 479 520 465 522 C451 524 434 525 412 525 C412 525 250 525 250 525 C250 525 250 323 250 323 C250 323 364 323 364 323 C384 323 399 323 411 324 C423 326 433 328 440 331 C448 335 454 338 458 344 C463 350 468 358 472 366 L472 366 Z M320 777 C320 777 383 609 383 609 C383 609 367 596 367 596 C367 596 244 717 244 717 C232 729 224 737 218 743 C213 750 210 756 210 761 C210 767 213 773 219 780 C225 788 232 794 241 800 C251 807 259 812 269 816 C279 821 288 823 296 823 C300 823 303 821 306 813 C310 806 314 794 320 777 L320 777 Z " />
<glyph glyph-name="Eacute" unicode="&#xc9;" horiz-adv-x="632" d="M282 596 C282 596 265 609 265 609 C265 609 325 777 325 777 C332 794 336 805 339 812 C343 820 346 823 349 823 C357 823 365 822 375 817 C385 813 395 808 403 801 C412 795 419 788 425 780 C431 773 434 767 434 761 C434 757 433 751 427 745 C422 739 414 730 402 717 C402 717 282 596 282 596 L282 596 Z M472 366 C472 366 484 366 484 366 C484 366 484 323 484 323 C484 323 484 302 484 302 C484 302 484 282 484 282 C484 282 484 233 484 233 C484 233 472 233 472 233 C468 243 464 252 459 258 C455 265 449 270 441 273 C433 277 423 279 411 280 C399 282 384 282 364 282 C364 282 250 282 250 282 C250 282 250 42 250 42 C250 42 411 42 411 42 C411 42 431 42 431 42 C449 42 463 43 475 45 C487 47 497 50 507 55 C517 61 527 68 535 76 C544 85 553 96 563 108 C563 108 572 119 572 119 C572 119 583 119 583 119 C579 102 576 87 572 71 C569 56 565 39 561 21 C560 15 559 8 557 0 C557 0 549 0 549 0 C549 0 477 0 477 0 C477 0 250 0 250 0 C250 0 166 0 166 0 C166 0 83 0 83 0 C83 0 40 0 40 0 C40 0 40 15 40 15 C40 15 46 15 46 15 C62 15 72 19 76 27 C81 35 83 53 83 80 C83 80 83 487 83 487 C83 515 82 532 77 540 C73 548 62 552 46 552 C46 552 40 552 40 552 C40 552 40 567 40 567 C40 567 83 567 83 567 C83 567 166 567 166 567 C166 567 250 567 250 567 C250 567 484 567 484 567 C484 567 539 567 539 567 C539 567 564 567 564 567 C565 564 565 561 565 557 C565 554 566 550 566 546 C568 528 569 513 569 497 C570 482 571 466 572 448 C572 448 561 448 561 448 C561 448 554 459 554 459 C546 473 537 485 529 493 C521 502 513 509 502 513 C492 518 479 520 465 522 C451 524 434 525 412 525 C412 525 250 525 250 525 C250 525 250 323 250 323 C250 323 364 323 364 323 C384 323 399 323 411 324 C423 326 433 328 440 331 C448 335 454 338 458 344 C463 350 468 358 472 366 L472 366 Z " />
<glyph glyph-name="Ecircumflex" unicode="&#xca;" horiz-adv-x="632" d="M472 366 C472 366 484 366 484 366 C484 366 484 323 484 323 C484 323 484 302 484 302 C484 302 484 282 484 282 C484 282 484 233 484 233 C484 233 472 233 472 233 C468 243 464 252 459 258 C455 265 449 270 441 273 C433 277 423 279 411 280 C399 282 384 282 364 282 C364 282 250 282 250 282 C250 282 250 42 250 42 C250 42 411 42 411 42 C411 42 431 42 431 42 C449 42 463 43 475 45 C487 47 497 50 507 55 C517 61 527 68 535 76 C544 85 553 96 563 108 C563 108 572 119 572 119 C572 119 583 119 583 119 C579 102 576 87 572 71 C569 56 565 39 561 21 C560 15 559 8 557 0 C557 0 549 0 549 0 C549 0 477 0 477 0 C477 0 250 0 250 0 C250 0 166 0 166 0 C166 0 83 0 83 0 C83 0 40 0 40 0 C40 0 40 15 40 15 C40 15 46 15 46 15 C62 15 72 19 76 27 C81 35 83 53 83 80 C83 80 83 487 83 487 C83 515 82 532 77 540 C73 548 62 552 46 552 C46 552 40 552 40 552 C40 552 40 567 40 567 C40 567 83 567 83 567 C83 567 166 567 166 567 C166 567 250 567 250 567 C250 567 484 567 484 567 C484 567 539 567 539 567 C539 567 564 567 564 567 C565 564 565 561 565 557 C565 554 566 550 566 546 C568 528 569 513 569 497 C570 482 571 466 572 448 C572 448 561 448 561 448 C561 448 554 459 554 459 C546 473 537 485 529 493 C521 502 513 509 502 513 C492 518 479 520 465 522 C451 524 434 525 412 525 C412 525 250 525 250 525 C250 525 250 323 250 323 C250 323 364 323 364 323 C384 323 399 323 411 324 C423 326 433 328 440 331 C448 335 454 338 458 344 C463 350 468 358 472 366 L472 366 Z M311 684 C311 684 201 597 201 597 C201 597 186 610 186 610 C186 610 264 769 264 769 C268 777 273 786 279 796 C286 806 297 811 311 811 C326 811 337 807 343 796 C350 786 355 777 359 769 C359 769 437 610 437 610 C437 610 421 597 421 597 C421 597 311 684 311 684 L311 684 Z " />
<glyph glyph-name="Edieresis" unicode="&#xcb;" horiz-adv-x="632" d="M418 637 C389 637 368 643 356 655 C344 667 338 688 338 717 C338 747 344 767 356 779 C368 791 389 797 418 797 C448 797 468 791 480 779 C492 767 498 747 498 717 C498 688 492 667 480 655 C468 643 448 637 418 637 L418 637 Z M204 637 C175 637 154 643 142 655 C130 667 124 688 124 717 C124 747 130 767 142 779 C154 791 175 797 204 797 C234 797 254 791 266 779 C278 767 284 747 284 717 C284 688 278 667 266 655 C254 643 234 637 204 637 L204 637 Z M472 366 C472 366 484 366 484 366 C484 366 484 323 484 323 C484 323 484 302 484 302 C484 302 484 282 484 282 C484 282 484 233 484 233 C484 233 472 233 472 233 C468 243 464 252 459 258 C455 265 449 270 441 273 C433 277 423 279 411 280 C399 282 384 282 364 282 C364 282 250 282 250 282 C250 282 250 42 250 42 C250 42 411 42 411 42 C411 42 431 42 431 42 C449 42 463 43 475 45 C487 47 497 50 507 55 C517 61 527 68 535 76 C544 85 553 96 563 108 C563 108 572 119 572 119 C572 119 583 119 583 119 C579 102 576 87 572 71 C569 56 565 39 561 21 C560 15 559 8 557 0 C557 0 549 0 549 0 C549 0 477 0 477 0 C477 0 250 0 250 0 C250 0 166 0 166 0 C166 0 83 0 83 0 C83 0 40 0 40 0 C40 0 40 15 40 15 C40 15 46 15 46 15 C62 15 72 19 76 27 C81 35 83 53 83 80 C83 80 83 487 83 487 C83 515 82 532 77 540 C73 548 62 552 46 552 C46 552 40 552 40 552 C40 552 40 567 40 567 C40 567 83 567 83 567 C83 567 166 567 166 567 C166 567 250 567 250 567 C250 567 484 567 484 567 C484 567 539 567 539 567 C539 567 564 567 564 567 C565 564 565 561 565 557 C565 554 566 550 566 546 C568 528 569 513 569 497 C570 482 571 466 572 448 C572 448 561 448 561 448 C561 448 554 459 554 459 C546 473 537 485 529 493 C521 502 513 509 502 513 C492 518 479 520 465 522 C451 524 434 525 412 525 C412 525 250 525 250 525 C250 525 250 323 250 323 C250 323 364 323 364 323 C384 323 399 323 411 324 C423 326 433 328 440 331 C448 335 454 338 458 344 C463 350 468 358 472 366 L472 366 Z " />
<glyph glyph-name="Igrave" unicode="&#xcc;" horiz-adv-x="332" d="M293 567 C293 567 293 552 293 552 C293 552 286 552 286 552 C271 552 262 548 257 540 C253 532 250 515 250 487 C250 487 250 80 250 80 C250 53 252 35 256 27 C261 19 271 15 286 15 C286 15 293 15 293 15 C293 15 293 0 293 0 C293 0 250 0 250 0 C250 0 166 0 166 0 C166 0 83 0 83 0 C83 0 40 0 40 0 C40 0 40 15 40 15 C40 15 46 15 46 15 C62 15 72 19 76 27 C81 35 83 53 83 80 C83 80 83 487 83 487 C83 515 82 532 77 540 C73 548 62 552 46 552 C46 552 40 552 40 552 C40 552 40 567 40 567 C40 567 83 567 83 567 C83 567 166 567 166 567 C166 567 250 567 250 567 C250 567 293 567 293 567 L293 567 Z M191 777 C191 777 254 609 254 609 C254 609 237 596 237 596 C237 596 115 717 115 717 C103 729 95 737 89 743 C84 750 81 756 81 761 C81 767 84 773 90 780 C96 788 103 794 112 800 C122 807 130 812 140 816 C150 821 159 823 167 823 C171 823 174 821 177 813 C181 806 185 794 191 777 L191 777 Z " />
<glyph glyph-name="Iacute" unicode="&#xcd;" horiz-adv-x="332" d="M107 596 C107 596 90 609 90 609 C90 609 150 777 150 777 C156 794 161 805 164 812 C168 820 171 823 173 823 C181 823 189 822 199 817 C209 813 218 808 227 801 C237 795 244 788 250 780 C256 773 259 767 259 761 C259 757 258 751 252 745 C247 739 238 730 226 717 C226 717 107 596 107 596 L107 596 Z M293 567 C293 567 293 552 293 552 C293 552 286 552 286 552 C271 552 262 548 257 540 C253 532 250 515 250 487 C250 487 250 80 250 80 C250 53 252 35 256 27 C261 19 271 15 286 15 C286 15 293 15 293 15 C293 15 293 0 293 0 C293 0 250 0 250 0 C250 0 166 0 166 0 C166 0 83 0 83 0 C83 0 40 0 40 0 C40 0 40 15 40 15 C40 15 46 15 46 15 C62 15 72 19 76 27 C81 35 83 53 83 80 C83 80 83 487 83 487 C83 515 82 532 77 540 C73 548 62 552 46 552 C46 552 40 552 40 552 C40 552 40 567 40 567 C40 567 83 567 83 567 C83 567 166 567 166 567 C166 567 250 567 250 567 C250 567 293 567 293 567 L293 567 Z " />
<glyph glyph-name="Icircumflex" unicode="&#xce;" horiz-adv-x="332" d="M293 567 C293 567 293 552 293 552 C293 552 286 552 286 552 C271 552 262 548 257 540 C253 532 250 515 250 487 C250 487 250 80 250 80 C250 53 252 35 256 27 C261 19 271 15 286 15 C286 15 293 15 293 15 C293 15 293 0 293 0 C293 0 250 0 250 0 C250 0 166 0 166 0 C166 0 83 0 83 0 C83 0 40 0 40 0 C40 0 40 15 40 15 C40 15 46 15 46 15 C62 15 72 19 76 27 C81 35 83 53 83 80 C83 80 83 487 83 487 C83 515 82 532 77 540 C73 548 62 552 46 552 C46 552 40 552 40 552 C40 552 40 567 40 567 C40 567 83 567 83 567 C83 567 166 567 166 567 C166 567 250 567 250 567 C250 567 293 567 293 567 L293 567 Z M166 684 C166 684 56 597 56 597 C56 597 41 610 41 610 C41 610 119 769 119 769 C123 777 128 786 134 796 C141 806 152 811 166 811 C182 811 193 807 199 796 C206 786 211 777 214 769 C214 769 292 610 292 610 C292 610 276 597 276 597 C276 597 166 684 166 684 L166 684 Z " />
<glyph glyph-name="Idieresis" unicode="&#xcf;" horiz-adv-x="332" d="M274 637 C245 637 224 643 212 655 C200 667 194 688 194 717 C194 747 200 767 212 779 C224 791 245 797 274 797 C304 797 324 791 336 779 C348 767 354 747 354 717 C354 688 348 667 336 655 C324 643 304 637 274 637 L274 637 Z M59 637 C30 637 9 643 -3 655 C-15 667 -21 688 -21 717 C-21 747 -15 767 -3 779 C9 791 30 797 59 797 C89 797 109 791 121 779 C133 767 139 747 139 717 C139 688 133 667 121 655 C109 643 89 637 59 637 L59 637 Z M293 567 C293 567 293 552 293 552 C293 552 286 552 286 552 C271 552 262 548 257 540 C253 532 250 515 250 487 C250 487 250 80 250 80 C250 53 252 35 256 27 C261 19 271 15 286 15 C286 15 293 15 293 15 C293 15 293 0 293 0 C293 0 250 0 250 0 C250 0 166 0 166 0 C166 0 83 0 83 0 C83 0 40 0 40 0 C40 0 40 15 40 15 C40 15 46 15 46 15 C62 15 72 19 76 27 C81 35 83 53 83 80 C83 80 83 487 83 487 C83 515 82 532 77 540 C73 548 62 552 46 552 C46 552 40 552 40 552 C40 552 40 567 40 567 C40 567 83 567 83 567 C83 567 166 567 166 567 C166 567 250 567 250 567 C250 567 293 567 293 567 L293 567 Z " />
<glyph glyph-name="Ntilde" unicode="&#xd1;" horiz-adv-x="672" d="M194 662 C194 662 169 662 169 662 C169 717 176 756 190 778 C205 801 229 812 263 812 C281 812 296 809 309 802 C323 796 336 789 348 781 C361 773 374 766 387 759 C401 753 416 749 433 749 C449 749 460 754 467 763 C475 773 478 788 478 809 C478 809 503 809 503 809 C503 751 496 709 480 685 C465 661 438 649 400 649 C383 649 368 653 354 659 C341 666 329 672 316 680 C304 688 291 696 277 702 C264 709 249 712 231 712 C218 712 209 709 203 701 C197 693 194 680 194 662 L194 662 Z M637 567 C637 567 637 552 637 552 C637 552 631 552 631 552 C616 552 606 549 601 541 C597 533 594 515 594 487 C594 487 594 127 594 127 C594 127 594 -20 594 -20 C594 -20 548 -20 548 -20 C548 -20 468 66 468 66 C468 66 128 431 128 431 C128 431 128 80 128 80 C128 53 130 35 134 27 C139 19 149 15 164 15 C164 15 171 15 171 15 C171 15 171 0 171 0 C171 0 128 0 128 0 C128 0 103 0 103 0 C103 0 78 0 78 0 C78 0 34 0 34 0 C35 0 35 3 34 8 C35 13 35 15 34 15 C34 15 41 15 41 15 C57 15 67 19 71 27 C76 35 78 53 78 80 C78 80 78 487 78 487 C78 515 77 532 72 540 C68 548 57 552 41 552 C41 552 34 552 34 552 C35 552 35 555 34 559 C35 565 35 567 34 567 C34 567 78 567 78 567 C78 567 103 567 103 567 C103 567 128 567 128 567 C128 567 227 567 227 567 C227 567 544 229 544 229 C544 229 544 487 544 487 C544 515 543 532 538 540 C534 548 523 552 507 552 C507 552 501 552 501 552 C501 552 501 567 501 567 C501 567 544 567 544 567 C544 567 569 567 569 567 C569 567 594 567 594 567 C594 567 637 567 637 567 L637 567 Z " />
<glyph glyph-name="Ograve" unicode="&#xd2;" horiz-adv-x="765" d="M373 37 C405 37 431 43 451 53 C472 64 488 80 500 100 C512 121 521 147 525 177 C530 208 532 243 532 283 C532 323 530 358 525 389 C521 421 512 447 500 467 C488 488 473 504 452 514 C432 525 405 530 373 530 C342 530 317 525 296 514 C276 504 259 488 247 467 C235 447 227 422 222 390 C218 359 215 323 215 283 C215 243 218 208 222 177 C227 147 235 121 247 100 C259 80 275 64 295 53 C316 43 342 37 373 37 L373 37 Z M31 283 C31 331 36 372 46 408 C56 444 73 474 99 498 C125 523 160 541 204 553 C249 566 305 572 373 572 C441 572 497 567 541 554 C586 542 620 524 646 499 C672 475 690 444 700 408 C710 372 715 331 715 283 C715 237 710 195 700 159 C690 123 673 94 647 69 C621 45 587 27 542 14 C498 2 441 -5 373 -5 C305 -5 250 1 205 13 C161 26 126 44 100 68 C74 93 56 123 46 159 C36 195 31 237 31 283 L31 283 Z M398 777 C398 777 461 609 461 609 C461 609 444 596 444 596 C444 596 321 717 321 717 C309 729 301 737 295 743 C290 750 288 756 288 761 C288 767 291 773 297 780 C303 788 311 794 319 800 C328 807 336 812 346 816 C356 821 365 823 373 823 C377 823 379 821 383 813 C387 806 392 794 398 777 L398 777 Z " />
<glyph glyph-name="Oacute" unicode="&#xd3;" horiz-adv-x="765" d="M351 596 C351 596 335 609 335 609 C335 609 395 777 395 777 C401 794 406 805 409 812 C413 820 416 823 418 823 C426 823 434 822 444 817 C454 813 463 808 472 801 C482 795 489 788 495 780 C501 773 504 767 504 761 C504 757 503 751 497 745 C492 739 483 730 471 717 C471 717 351 596 351 596 L351 596 Z M373 37 C405 37 431 43 451 53 C472 64 488 80 500 100 C512 121 521 147 525 177 C530 208 532 243 532 283 C532 323 530 358 525 389 C521 421 512 447 500 467 C488 488 473 504 452 514 C432 525 405 530 373 530 C342 530 317 525 296 514 C276 504 259 488 247 467 C235 447 227 422 222 390 C218 359 215 323 215 283 C215 243 218 208 222 177 C227 147 235 121 247 100 C259 80 275 64 295 53 C316 43 342 37 373 37 L373 37 Z M31 283 C31 331 36 372 46 408 C56 444 73 474 99 498 C125 523 160 541 204 553 C249 566 305 572 373 572 C441 572 497 567 541 554 C586 542 620 524 646 499 C672 475 690 444 700 408 C710 372 715 331 715 283 C715 237 710 195 700 159 C690 123 673 94 647 69 C621 45 587 27 542 14 C498 2 441 -5 373 -5 C305 -5 250 1 205 13 C161 26 126 44 100 68 C74 93 56 123 46 159 C36 195 31 237 31 283 L31 283 Z " />
<glyph glyph-name="Ocircumflex" unicode="&#xd4;" horiz-adv-x="765" d="M373 37 C405 37 431 43 451 53 C472 64 488 80 500 100 C512 121 521 147 525 177 C530 208 532 243 532 283 C532 323 530 358 525 389 C521 421 512 447 500 467 C488 488 473 504 452 514 C432 525 405 530 373 530 C342 530 317 525 296 514 C276 504 259 488 247 467 C235 447 227 422 222 390 C218 359 215 323 215 283 C215 243 218 208 222 177 C227 147 235 121 247 100 C259 80 275 64 295 53 C316 43 342 37 373 37 L373 37 Z M31 283 C31 331 36 372 46 408 C56 444 73 474 99 498 C125 523 160 541 204 553 C249 566 305 572 373 572 C441 572 497 567 541 554 C586 542 620 524 646 499 C672 475 690 444 700 408 C710 372 715 331 715 283 C715 237 710 195 700 159 C690 123 673 94 647 69 C621 45 587 27 542 14 C498 2 441 -5 373 -5 C305 -5 250 1 205 13 C161 26 126 44 100 68 C74 93 56 123 46 159 C36 195 31 237 31 283 L31 283 Z M373 684 C373 684 263 597 263 597 C263 597 248 610 248 610 C248 610 326 769 326 769 C330 777 335 786 341 796 C348 806 359 811 373 811 C388 811 399 807 405 796 C412 786 417 777 421 769 C421 769 498 610 498 610 C498 610 483 597 483 597 C483 597 373 684 373 684 L373 684 Z " />
<glyph glyph-name="Otilde" unicode="&#xd5;" horiz-adv-x="765" d="M231 662 C231 662 206 662 206 662 C206 717 213 756 227 778 C242 801 267 812 301 812 C319 812 334 809 347 802 C361 796 373 789 385 781 C398 773 411 766 424 759 C438 753 453 749 470 749 C487 749 499 754 505 763 C512 773 515 788 515 809 C515 809 540 809 540 809 C540 751 533 709 517 685 C502 661 475 649 437 649 C420 649 405 653 391 659 C378 666 366 672 353 680 C341 688 328 696 314 702 C301 709 286 712 268 712 C255 712 246 709 240 701 C234 693 231 680 231 662 L231 662 Z M373 37 C405 37 431 43 451 53 C472 64 488 80 500 100 C512 121 521 147 525 177 C530 208 532 243 532 283 C532 323 530 358 525 389 C521 421 512 447 500 467 C488 488 473 504 452 514 C432 525 405 530 373 530 C342 530 317 525 296 514 C276 504 259 488 247 467 C235 447 227 422 222 390 C218 359 215 323 215 283 C215 243 218 208 222 177 C227 147 235 121 247 100 C259 80 275 64 295 53 C316 43 342 37 373 37 L373 37 Z M31 283 C31 331 36 372 46 408 C56 444 73 474 99 498 C125 523 160 541 204 553 C249 566 305 572 373 572 C441 572 497 567 541 554 C586 542 620 524 646 499 C672 475 690 444 700 408 C710 372 715 331 715 283 C715 237 710 195 700 159 C690 123 673 94 647 69 C621 45 587 27 542 14 C498 2 441 -5 373 -5 C305 -5 250 1 205 13 C161 26 126 44 100 68 C74 93 56 123 46 159 C36 195 31 237 31 283 L31 283 Z " />
<glyph glyph-name="Odieresis" unicode="&#xd6;" horiz-adv-x="765" d="M480 637 C451 637 430 643 418 655 C406 667 400 688 400 717 C400 747 406 767 418 779 C430 791 451 797 480 797 C510 797 530 791 542 779 C554 767 560 747 560 717 C560 688 554 667 542 655 C530 643 510 637 480 637 L480 637 Z M266 637 C237 637 216 643 204 655 C192 667 186 688 186 717 C186 747 192 767 204 779 C216 791 237 797 266 797 C296 797 316 791 328 779 C340 767 346 747 346 717 C346 688 340 667 328 655 C316 643 296 637 266 637 L266 637 Z M373 37 C405 37 431 43 451 53 C472 64 488 80 500 100 C512 121 521 147 525 177 C530 208 532 243 532 283 C532 323 530 358 525 389 C521 421 512 447 500 467 C488 488 473 504 452 514 C432 525 405 530 373 530 C342 530 317 525 296 514 C276 504 259 488 247 467 C235 447 227 422 222 390 C218 359 215 323 215 283 C215 243 218 208 222 177 C227 147 235 121 247 100 C259 80 275 64 295 53 C316 43 342 37 373 37 L373 37 Z M31 283 C31 331 36 372 46 408 C56 444 73 474 99 498 C125 523 160 541 204 553 C249 566 305 572 373 572 C441 572 497 567 541 554 C586 542 620 524 646 499 C672 475 690 444 700 408 C710 372 715 331 715 283 C715 237 710 195 700 159 C690 123 673 94 647 69 C621 45 587 27 542 14 C498 2 441 -5 373 -5 C305 -5 250 1 205 13 C161 26 126 44 100 68 C74 93 56 123 46 159 C36 195 31 237 31 283 L31 283 Z " />
<glyph glyph-name="Oslash" unicode="&#xd8;" horiz-adv-x="765" d="M55 -34 C55 -34 7 24 7 24 C7 24 82 87 82 87 C63 111 50 140 42 172 C35 205 31 242 31 283 C31 331 36 372 46 408 C56 444 73 474 99 498 C125 523 160 541 204 553 C249 566 305 572 373 572 C426 572 471 569 509 561 C547 554 579 543 605 528 C605 528 691 601 691 601 C691 601 739 543 739 543 C739 543 664 479 664 479 C684 456 697 428 704 395 C712 363 715 325 715 283 C715 237 710 195 700 159 C690 123 673 94 647 69 C621 45 587 27 542 14 C498 2 441 -5 373 -5 C321 -5 275 -1 237 6 C199 14 167 25 141 39 C141 39 55 -34 55 -34 L55 -34 Z M373 37 C373 37 373 37 373 37 C405 37 431 43 451 53 C472 64 488 80 500 100 C512 121 521 147 525 177 C530 208 532 243 532 283 C532 299 532 313 531 326 C531 340 530 353 528 365 C528 365 237 120 237 120 C249 92 264 72 286 58 C308 44 337 37 373 37 L373 37 Z M219 203 C219 203 509 448 509 448 C498 476 482 495 460 509 C439 523 410 530 373 530 C342 530 317 525 296 514 C276 504 259 488 247 467 C235 447 227 422 222 390 C218 359 215 323 215 283 C215 269 216 255 216 241 C217 228 218 215 219 203 L219 203 Z " />
<glyph glyph-name="Ugrave" unicode="&#xd9;" horiz-adv-x="672" d="M652 567 C652 567 652 552 652 552 C652 552 645 552 645 552 C630 552 620 550 614 543 C608 537 605 522 604 499 C604 499 604 477 604 477 C604 477 604 168 604 168 C604 137 601 110 595 88 C589 66 578 49 558 35 C539 21 512 12 476 5 C441 -1 394 -5 335 -5 C275 -5 226 -1 189 6 C153 14 125 24 105 40 C85 56 73 77 66 102 C60 128 56 158 56 194 C56 194 56 487 56 487 C56 515 55 532 50 540 C46 548 36 552 20 552 C20 552 13 552 13 552 C13 552 13 567 13 567 C13 567 56 567 56 567 C56 567 140 567 140 567 C140 567 223 567 223 567 C223 567 266 567 266 567 C266 567 266 552 266 552 C266 552 260 552 260 552 C245 552 235 549 230 541 C226 533 223 515 223 487 C223 487 223 161 223 161 C223 142 224 126 227 112 C231 98 236 87 246 78 C256 70 270 63 288 59 C306 55 330 53 360 53 C402 53 436 56 461 60 C487 65 505 73 519 83 C533 94 542 108 546 124 C551 141 553 161 553 185 C553 185 554 493 554 493 C553 519 550 534 544 541 C539 549 528 552 510 552 C510 552 502 552 502 552 C502 552 502 567 502 567 C502 567 554 567 554 567 C554 567 579 567 579 567 C579 567 604 567 604 567 C604 567 652 567 652 567 L652 567 Z M355 777 C355 777 418 609 418 609 C418 609 401 596 401 596 C401 596 278 717 278 717 C266 729 258 737 252 743 C247 750 245 756 245 761 C245 767 247 773 253 780 C259 788 266 794 275 800 C285 807 293 812 303 816 C313 821 322 823 330 823 C334 823 337 821 340 813 C344 806 349 794 355 777 L355 777 Z " />
<glyph glyph-name="Uacute" unicode="&#xda;" horiz-adv-x="672" d="M331 596 C331 596 314 609 314 609 C314 609 375 777 375 777 C381 794 386 805 389 812 C393 820 396 823 398 823 C406 823 414 822 424 817 C434 813 443 808 452 801 C462 795 469 788 475 780 C481 773 484 767 484 761 C484 757 483 751 477 745 C472 739 463 730 451 717 C451 717 331 596 331 596 L331 596 Z M652 567 C652 567 652 552 652 552 C652 552 645 552 645 552 C630 552 620 550 614 543 C608 537 605 522 604 499 C604 499 604 477 604 477 C604 477 604 168 604 168 C604 137 601 110 595 88 C589 66 578 49 558 35 C539 21 512 12 476 5 C441 -1 394 -5 335 -5 C275 -5 226 -1 189 6 C153 14 125 24 105 40 C85 56 73 77 66 102 C60 128 56 158 56 194 C56 194 56 487 56 487 C56 515 55 532 50 540 C46 548 36 552 20 552 C20 552 13 552 13 552 C13 552 13 567 13 567 C13 567 56 567 56 567 C56 567 140 567 140 567 C140 567 223 567 223 567 C223 567 266 567 266 567 C266 567 266 552 266 552 C266 552 260 552 260 552 C245 552 235 549 230 541 C226 533 223 515 223 487 C223 487 223 161 223 161 C223 142 224 126 227 112 C231 98 236 87 246 78 C256 70 270 63 288 59 C306 55 330 53 360 53 C402 53 436 56 461 60 C487 65 505 73 519 83 C533 94 542 108 546 124 C551 141 553 161 553 185 C553 185 554 493 554 493 C553 519 550 534 544 541 C539 549 528 552 510 552 C510 552 502 552 502 552 C502 552 502 567 502 567 C502 567 554 567 554 567 C554 567 579 567 579 567 C579 567 604 567 604 567 C604 567 652 567 652 567 L652 567 Z " />
<glyph glyph-name="Ucircumflex" unicode="&#xdb;" horiz-adv-x="672" d="M652 567 C652 567 652 552 652 552 C652 552 645 552 645 552 C630 552 620 550 614 543 C608 537 605 522 604 499 C604 499 604 477 604 477 C604 477 604 168 604 168 C604 137 601 110 595 88 C589 66 578 49 558 35 C539 21 512 12 476 5 C441 -1 394 -5 335 -5 C275 -5 226 -1 189 6 C153 14 125 24 105 40 C85 56 73 77 66 102 C60 128 56 158 56 194 C56 194 56 487 56 487 C56 515 55 532 50 540 C46 548 36 552 20 552 C20 552 13 552 13 552 C13 552 13 567 13 567 C13 567 56 567 56 567 C56 567 140 567 140 567 C140 567 223 567 223 567 C223 567 266 567 266 567 C266 567 266 552 266 552 C266 552 260 552 260 552 C245 552 235 549 230 541 C226 533 223 515 223 487 C223 487 223 161 223 161 C223 142 224 126 227 112 C231 98 236 87 246 78 C256 70 270 63 288 59 C306 55 330 53 360 53 C402 53 436 56 461 60 C487 65 505 73 519 83 C533 94 542 108 546 124 C551 141 553 161 553 185 C553 185 554 493 554 493 C553 519 550 534 544 541 C539 549 528 552 510 552 C510 552 502 552 502 552 C502 552 502 567 502 567 C502 567 554 567 554 567 C554 567 579 567 579 567 C579 567 604 567 604 567 C604 567 652 567 652 567 L652 567 Z M330 684 C330 684 220 597 220 597 C220 597 205 610 205 610 C205 610 282 769 282 769 C286 777 292 786 298 796 C305 806 316 811 330 811 C345 811 356 807 362 796 C369 786 374 777 378 769 C378 769 455 610 455 610 C455 610 440 597 440 597 C440 597 330 684 330 684 L330 684 Z " />
<glyph glyph-name="Udieresis" unicode="&#xdc;" horiz-adv-x="672" d="M437 637 C408 637 387 643 375 655 C363 667 357 688 357 717 C357 747 363 767 375 779 C387 791 408 797 437 797 C467 797 487 791 499 779 C511 767 517 747 517 717 C517 688 511 667 499 655 C487 643 467 637 437 637 L437 637 Z M223 637 C194 637 173 643 161 655 C149 667 143 688 143 717 C143 747 149 767 161 779 C173 791 194 797 223 797 C253 797 273 791 285 779 C297 767 303 747 303 717 C303 688 297 667 285 655 C273 643 253 637 223 637 L223 637 Z M652 567 C652 567 652 552 652 552 C652 552 645 552 645 552 C630 552 620 550 614 543 C608 537 605 522 604 499 C604 499 604 477 604 477 C604 477 604 168 604 168 C604 137 601 110 595 88 C589 66 578 49 558 35 C539 21 512 12 476 5 C441 -1 394 -5 335 -5 C275 -5 226 -1 189 6 C153 14 125 24 105 40 C85 56 73 77 66 102 C60 128 56 158 56 194 C56 194 56 487 56 487 C56 515 55 532 50 540 C46 548 36 552 20 552 C20 552 13 552 13 552 C13 552 13 567 13 567 C13 567 56 567 56 567 C56 567 140 567 140 567 C140 567 223 567 223 567 C223 567 266 567 266 567 C266 567 266 552 266 552 C266 552 260 552 260 552 C245 552 235 549 230 541 C226 533 223 515 223 487 C223 487 223 161 223 161 C223 142 224 126 227 112 C231 98 236 87 246 78 C256 70 270 63 288 59 C306 55 330 53 360 53 C402 53 436 56 461 60 C487 65 505 73 519 83 C533 94 542 108 546 124 C551 141 553 161 553 185 C553 185 554 493 554 493 C553 519 550 534 544 541 C539 549 528 552 510 552 C510 552 502 552 502 552 C502 552 502 567 502 567 C502 567 554 567 554 567 C554 567 579 567 579 567 C579 567 604 567 604 567 C604 567 652 567 652 567 L652 567 Z " />
<glyph glyph-name="Yacute" unicode="&#xdd;" horiz-adv-x="675" d="M330 596 C330 596 313 609 313 609 C313 609 373 777 373 777 C379 794 384 805 387 812 C391 820 394 823 397 823 C405 823 413 822 423 817 C433 813 443 808 451 801 C460 795 467 788 473 780 C479 773 482 767 482 761 C482 757 481 751 475 745 C470 739 462 730 450 717 C450 717 330 596 330 596 L330 596 Z M455 15 C455 15 455 0 455 0 C455 0 412 0 412 0 C412 0 329 0 329 0 C329 0 245 0 245 0 C245 0 202 0 202 0 C202 0 202 15 202 15 C202 15 209 15 209 15 C225 15 234 19 238 27 C243 35 245 53 245 80 C245 80 245 259 245 259 C245 259 75 487 75 487 C75 487 75 487 75 487 C65 501 58 512 50 520 C43 529 37 536 31 540 C26 545 21 547 16 549 C12 551 6 552 0 552 C0 552 -5 552 -5 552 C-4 552 -4 555 -5 559 C-4 565 -4 567 -5 567 C-5 567 16 567 16 567 C16 567 116 567 116 567 C116 567 216 567 216 567 C216 567 268 567 268 567 C268 567 268 552 268 552 C268 552 261 552 261 552 C247 552 240 549 241 541 C243 533 253 515 273 487 C273 487 273 487 273 487 C273 487 389 324 389 324 C389 324 526 489 526 489 C548 516 559 532 559 540 C560 548 552 552 536 552 C536 552 528 552 528 552 C528 552 528 567 528 567 C528 567 591 567 591 567 C591 567 616 567 616 567 C616 567 641 567 641 567 C641 567 666 567 666 567 C666 567 666 552 666 552 C666 552 660 552 660 552 C654 552 648 552 642 550 C636 548 630 545 624 540 C618 536 611 530 603 521 C595 513 585 501 573 487 C573 487 573 487 573 487 C573 487 412 299 412 299 C412 299 412 299 412 299 C412 299 412 80 412 80 C412 53 414 35 418 27 C423 19 433 15 449 15 C449 15 455 15 455 15 L455 15 Z " />
<glyph glyph-name="agrave" unicode="&#xe0;" horiz-adv-x="533" d="M512 84 C512 84 529 64 529 64 C521 51 514 40 506 30 C499 21 491 13 479 7 C468 1 454 -3 436 -6 C419 -8 396 -10 368 -10 C346 -10 328 -8 315 -4 C303 1 293 8 286 18 C258 3 215 -5 158 -5 C114 -5 84 3 65 17 C47 32 37 57 37 92 C37 132 52 162 81 182 C111 203 160 218 228 228 C228 228 271 234 271 234 C271 234 271 318 271 318 C271 348 270 369 264 381 C259 394 250 400 237 400 C237 400 32 400 32 400 C144 414 218 424 257 430 C297 437 306 441 284 441 C337 440 374 427 396 403 C419 379 430 340 430 284 C430 284 430 134 430 134 C430 108 431 91 435 79 C439 68 451 62 470 62 C484 62 492 64 497 67 C503 71 508 76 512 84 L512 84 Z M255 646 C255 646 319 478 319 478 C319 478 302 465 302 465 C302 465 179 586 179 586 C167 598 159 607 153 613 C148 619 145 625 145 630 C145 636 148 642 154 649 C160 657 167 663 176 669 C186 676 194 681 204 685 C214 690 223 692 231 692 C235 692 238 690 241 682 C245 675 249 663 255 646 L255 646 Z M284 441 C284 441 284 441 284 441 C284 441 271 441 271 441 C271 441 284 441 284 441 L284 441 Z M271 193 C271 193 228 182 228 182 C213 178 202 174 195 166 C189 159 185 149 185 135 C185 121 189 110 196 104 C204 98 216 95 233 95 C241 95 247 95 253 95 C260 95 266 96 271 96 C271 96 271 117 271 117 C271 117 271 193 271 193 L271 193 Z " />
<glyph glyph-name="aacute" unicode="&#xe1;" horiz-adv-x="533" d="M201 465 C201 465 185 478 185 478 C185 478 245 646 245 646 C251 663 255 674 258 681 C262 689 265 692 268 692 C276 692 284 691 294 686 C304 682 313 677 322 670 C332 664 339 657 345 649 C351 642 354 636 354 630 C354 626 353 620 347 614 C342 608 333 599 321 586 C321 586 201 465 201 465 L201 465 Z M512 84 C512 84 529 64 529 64 C521 51 514 40 506 30 C499 21 491 13 479 7 C468 1 454 -3 436 -6 C419 -8 396 -10 368 -10 C346 -10 328 -8 315 -4 C303 1 293 8 286 18 C258 3 215 -5 158 -5 C114 -5 84 3 65 17 C47 32 37 57 37 92 C37 132 52 162 81 182 C111 203 160 218 228 228 C228 228 271 234 271 234 C271 234 271 318 271 318 C271 348 270 369 264 381 C259 394 250 400 237 400 C237 400 32 400 32 400 C144 414 218 424 257 430 C297 437 306 441 284 441 C337 440 374 427 396 403 C419 379 430 340 430 284 C430 284 430 134 430 134 C430 108 431 91 435 79 C439 68 451 62 470 62 C484 62 492 64 497 67 C503 71 508 76 512 84 L512 84 Z M284 441 C284 441 284 441 284 441 C284 441 271 441 271 441 C271 441 284 441 284 441 L284 441 Z M271 193 C271 193 228 182 228 182 C213 178 202 174 195 166 C189 159 185 149 185 135 C185 121 189 110 196 104 C204 98 216 95 233 95 C241 95 247 95 253 95 C260 95 266 96 271 96 C271 96 271 117 271 117 C271 117 271 193 271 193 L271 193 Z " />
<glyph glyph-name="acircumflex" unicode="&#xe2;" horiz-adv-x="533" d="M512 84 C512 84 529 64 529 64 C521 51 514 40 506 30 C499 21 491 13 479 7 C468 1 454 -3 436 -6 C419 -8 396 -10 368 -10 C346 -10 328 -8 315 -4 C303 1 293 8 286 18 C258 3 215 -5 158 -5 C114 -5 84 3 65 17 C47 32 37 57 37 92 C37 132 52 162 81 182 C111 203 160 218 228 228 C228 228 271 234 271 234 C271 234 271 318 271 318 C271 348 270 369 264 381 C259 394 250 400 237 400 C237 400 32 400 32 400 C144 414 218 424 257 430 C297 437 306 441 284 441 C337 440 374 427 396 403 C419 379 430 340 430 284 C430 284 430 134 430 134 C430 108 431 91 435 79 C439 68 451 62 470 62 C484 62 492 64 497 67 C503 71 508 76 512 84 L512 84 Z M231 553 C231 553 121 466 121 466 C121 466 105 479 105 479 C105 479 183 639 183 639 C187 647 193 655 199 665 C206 675 217 680 231 680 C246 680 257 676 263 665 C270 655 275 646 279 638 C279 638 356 479 356 479 C356 479 341 466 341 466 C341 466 231 553 231 553 L231 553 Z M284 441 C284 441 284 441 284 441 C284 441 271 441 271 441 C271 441 284 441 284 441 L284 441 Z M271 193 C271 193 228 182 228 182 C213 178 202 174 195 166 C189 159 185 149 185 135 C185 121 189 110 196 104 C204 98 216 95 233 95 C241 95 247 95 253 95 C260 95 266 96 271 96 C271 96 271 117 271 117 C271 117 271 193 271 193 L271 193 Z " />
<glyph glyph-name="atilde" unicode="&#xe3;" horiz-adv-x="603" d="M67 531 C67 531 42 531 42 531 C42 586 49 625 63 647 C78 670 103 681 137 681 C155 681 170 679 183 672 C197 666 209 658 221 650 C234 642 247 636 260 629 C274 623 289 619 306 619 C323 619 335 623 341 632 C348 642 351 657 351 679 C351 679 376 679 376 679 C376 621 369 579 353 555 C338 531 311 519 273 519 C256 519 241 522 227 528 C214 535 202 542 189 550 C177 558 164 565 150 571 C137 578 122 581 104 581 C91 581 82 578 76 570 C70 562 67 549 67 531 L67 531 Z M472 31 C472 31 369 -5 369 -5 C369 -5 344 -5 344 -5 C344 -5 344 0 344 0 C344 0 344 96 344 96 C320 78 300 62 282 49 C265 37 251 26 240 18 C228 9 217 1 209 -5 C153 -5 114 10 90 39 C66 69 54 118 54 186 C54 232 58 271 66 303 C74 336 86 362 104 382 C122 403 145 418 173 427 C202 437 237 441 277 441 C293 441 308 440 322 435 C337 431 351 425 364 417 C364 417 344 380 344 380 C344 380 452 436 452 436 C452 436 494 436 494 436 C494 436 494 150 494 150 C494 150 494 91 494 91 C496 85 498 82 503 79 C509 77 518 72 530 64 C530 64 537 61 537 61 C537 61 537 59 537 53 C537 53 537 52 537 52 C537 52 472 31 472 31 L472 31 Z M344 114 C344 114 344 380 344 380 C334 386 323 390 310 394 C298 398 284 400 270 400 C249 400 235 389 225 365 C216 341 211 301 211 243 C211 187 217 147 229 123 C241 99 262 87 292 87 C302 87 319 96 344 114 L344 114 Z " />
<glyph glyph-name="adieresis" unicode="&#xe4;" horiz-adv-x="533" d="M338 506 C309 506 288 512 276 524 C264 536 258 557 258 586 C258 616 264 636 276 648 C288 660 309 666 338 666 C368 666 388 660 400 648 C412 636 418 616 418 586 C418 557 412 536 400 524 C388 512 368 506 338 506 L338 506 Z M123 506 C94 506 73 512 61 524 C49 536 43 557 43 586 C43 616 49 636 61 648 C73 660 94 666 123 666 C153 666 173 660 185 648 C197 636 203 616 203 586 C203 557 197 536 185 524 C173 512 153 506 123 506 L123 506 Z M512 84 C512 84 529 64 529 64 C521 51 514 40 506 30 C499 21 491 13 479 7 C468 1 454 -3 436 -6 C419 -8 396 -10 368 -10 C346 -10 328 -8 315 -4 C303 1 293 8 286 18 C258 3 215 -5 158 -5 C114 -5 84 3 65 17 C47 32 37 57 37 92 C37 132 52 162 81 182 C111 203 160 218 228 228 C228 228 271 234 271 234 C271 234 271 318 271 318 C271 348 270 369 264 381 C259 394 250 400 237 400 C237 400 32 400 32 400 C144 414 218 424 257 430 C297 437 306 441 284 441 C337 440 374 427 396 403 C419 379 430 340 430 284 C430 284 430 134 430 134 C430 108 431 91 435 79 C439 68 451 62 470 62 C484 62 492 64 497 67 C503 71 508 76 512 84 L512 84 Z M284 441 C284 441 284 441 284 441 C284 441 271 441 271 441 C271 441 284 441 284 441 L284 441 Z M271 193 C271 193 228 182 228 182 C213 178 202 174 195 166 C189 159 185 149 185 135 C185 121 189 110 196 104 C204 98 216 95 233 95 C241 95 247 95 253 95 C260 95 266 96 271 96 C271 96 271 117 271 117 C271 117 271 193 271 193 L271 193 Z " />
<glyph glyph-name="aring" unicode="&#xe5;" horiz-adv-x="533" d="M231 504 C268 504 286 524 286 564 C286 586 283 600 274 609 C266 619 251 623 231 623 C211 623 197 620 188 610 C180 601 175 586 175 564 C175 524 194 504 231 504 L231 504 Z M134 564 C134 598 142 621 156 635 C171 649 196 656 231 656 C267 656 292 650 306 636 C321 622 328 598 328 564 C328 502 296 471 231 471 C167 471 134 502 134 564 L134 564 Z M512 84 C512 84 529 64 529 64 C521 51 514 40 506 30 C499 21 491 13 479 7 C468 1 454 -3 436 -6 C419 -8 396 -10 368 -10 C346 -10 328 -8 315 -4 C303 1 293 8 286 18 C258 3 215 -5 158 -5 C114 -5 84 3 65 17 C47 32 37 57 37 92 C37 132 52 162 81 182 C111 203 160 218 228 228 C228 228 271 234 271 234 C271 234 271 318 271 318 C271 348 270 369 264 381 C259 394 250 400 237 400 C237 400 32 400 32 400 C144 414 218 424 257 430 C297 437 306 441 284 441 C337 440 374 427 396 403 C419 379 430 340 430 284 C430 284 430 134 430 134 C430 108 431 91 435 79 C439 68 451 62 470 62 C484 62 492 64 497 67 C503 71 508 76 512 84 L512 84 Z M284 441 C284 441 284 441 284 441 C284 441 271 441 271 441 C271 441 284 441 284 441 L284 441 Z M271 193 C271 193 228 182 228 182 C213 178 202 174 195 166 C189 159 185 149 185 135 C185 121 189 110 196 104 C204 98 216 95 233 95 C241 95 247 95 253 95 C260 95 266 96 271 96 C271 96 271 117 271 117 C271 117 271 193 271 193 L271 193 Z " />
<glyph glyph-name="ccedilla" unicode="&#xe7;" horiz-adv-x="552" d="M503 99 C459 62 420 35 385 19 C351 3 315 -5 277 -5 C236 -5 201 -1 172 6 C144 14 120 25 102 41 C84 57 72 78 63 103 C55 129 50 159 50 195 C50 240 54 277 64 308 C74 340 89 364 110 384 C132 404 158 418 192 427 C226 437 267 441 315 441 C381 441 427 434 455 419 C484 405 500 380 503 344 C503 320 498 302 488 292 C478 282 461 277 436 277 C412 277 394 282 382 293 C371 305 364 324 361 351 C360 369 355 381 345 388 C335 396 320 399 298 399 C266 399 244 388 230 366 C216 344 209 307 209 253 C209 193 224 150 253 124 C283 99 332 86 402 86 C422 86 437 88 450 92 C464 97 477 105 489 116 C489 116 503 99 503 99 L503 99 Z " />
<glyph glyph-name="egrave" unicode="&#xe8;" horiz-adv-x="558" d="M509 99 C465 62 426 35 390 19 C355 3 318 -5 280 -5 C238 -5 204 -1 174 6 C145 14 122 25 103 41 C85 57 72 78 63 103 C55 129 50 159 50 195 C50 240 54 277 63 308 C73 340 87 364 107 384 C127 404 152 418 184 427 C216 437 255 441 300 441 C338 441 370 437 396 429 C423 421 444 409 460 391 C477 374 488 352 496 324 C504 297 508 264 508 224 C508 224 367 224 367 224 C367 224 210 224 210 224 C215 174 232 140 262 118 C292 97 340 86 405 86 C425 86 441 88 455 92 C469 97 483 105 495 116 C495 116 509 99 509 99 L509 99 Z M324 646 C324 646 388 478 388 478 C388 478 371 465 371 465 C371 465 248 586 248 586 C236 598 228 607 222 613 C217 619 214 625 214 630 C214 636 217 642 223 649 C229 657 236 663 245 669 C255 676 263 681 273 685 C283 690 292 692 300 692 C304 692 307 690 310 682 C314 675 318 663 324 646 L324 646 Z M367 279 C367 279 367 279 367 279 C367 279 297 268 297 268 C323 273 341 280 351 292 C362 304 368 323 368 348 C368 348 368 351 368 351 C368 369 363 381 351 388 C340 396 320 399 292 399 C262 399 241 388 228 366 C216 344 209 307 209 253 C209 253 367 279 367 279 L367 279 Z " />
<glyph glyph-name="eacute" unicode="&#xe9;" horiz-adv-x="558" d="M270 465 C270 465 254 478 254 478 C254 478 314 646 314 646 C320 663 324 674 327 681 C331 689 334 692 337 692 C345 692 353 691 363 686 C373 682 382 677 391 670 C401 664 408 657 414 649 C420 642 423 636 423 630 C423 626 422 620 416 614 C411 608 402 599 390 586 C390 586 270 465 270 465 L270 465 Z M509 99 C465 62 426 35 390 19 C355 3 318 -5 280 -5 C238 -5 204 -1 174 6 C145 14 122 25 103 41 C85 57 72 78 63 103 C55 129 50 159 50 195 C50 240 54 277 63 308 C73 340 87 364 107 384 C127 404 152 418 184 427 C216 437 255 441 300 441 C338 441 370 437 396 429 C423 421 444 409 460 391 C477 374 488 352 496 324 C504 297 508 264 508 224 C508 224 367 224 367 224 C367 224 210 224 210 224 C215 174 232 140 262 118 C292 97 340 86 405 86 C425 86 441 88 455 92 C469 97 483 105 495 116 C495 116 509 99 509 99 L509 99 Z M367 279 C367 279 367 279 367 279 C367 279 297 268 297 268 C323 273 341 280 351 292 C362 304 368 323 368 348 C368 348 368 351 368 351 C368 369 363 381 351 388 C340 396 320 399 292 399 C262 399 241 388 228 366 C216 344 209 307 209 253 C209 253 367 279 367 279 L367 279 Z " />
<glyph glyph-name="ecircumflex" unicode="&#xea;" horiz-adv-x="558" d="M509 99 C465 62 426 35 390 19 C355 3 318 -5 280 -5 C238 -5 204 -1 174 6 C145 14 122 25 103 41 C85 57 72 78 63 103 C55 129 50 159 50 195 C50 240 54 277 63 308 C73 340 87 364 107 384 C127 404 152 418 184 427 C216 437 255 441 300 441 C338 441 370 437 396 429 C423 421 444 409 460 391 C477 374 488 352 496 324 C504 297 508 264 508 224 C508 224 367 224 367 224 C367 224 210 224 210 224 C215 174 232 140 262 118 C292 97 340 86 405 86 C425 86 441 88 455 92 C469 97 483 105 495 116 C495 116 509 99 509 99 L509 99 Z M300 553 C300 553 190 466 190 466 C190 466 174 479 174 479 C174 479 252 639 252 639 C256 647 262 655 268 665 C275 675 286 680 300 680 C315 680 326 676 332 665 C339 655 344 646 348 638 C348 638 425 479 425 479 C425 479 410 466 410 466 C410 466 300 553 300 553 L300 553 Z M367 279 C367 279 367 279 367 279 C367 279 297 268 297 268 C323 273 341 280 351 292 C362 304 368 323 368 348 C368 348 368 351 368 351 C368 369 363 381 351 388 C340 396 320 399 292 399 C262 399 241 388 228 366 C216 344 209 307 209 253 C209 253 367 279 367 279 L367 279 Z " />
<glyph glyph-name="edieresis" unicode="&#xeb;" horiz-adv-x="558" d="M407 506 C378 506 357 512 345 524 C333 536 327 557 327 586 C327 616 333 636 345 648 C357 660 378 666 407 666 C437 666 457 660 469 648 C481 636 487 616 487 586 C487 557 481 536 469 524 C457 512 437 506 407 506 L407 506 Z M192 506 C163 506 142 512 130 524 C118 536 112 557 112 586 C112 616 118 636 130 648 C142 660 163 666 192 666 C222 666 242 660 254 648 C266 636 272 616 272 586 C272 557 266 536 254 524 C242 512 222 506 192 506 L192 506 Z M509 99 C465 62 426 35 390 19 C355 3 318 -5 280 -5 C238 -5 204 -1 174 6 C145 14 122 25 103 41 C85 57 72 78 63 103 C55 129 50 159 50 195 C50 240 54 277 63 308 C73 340 87 364 107 384 C127 404 152 418 184 427 C216 437 255 441 300 441 C338 441 370 437 396 429 C423 421 444 409 460 391 C477 374 488 352 496 324 C504 297 508 264 508 224 C508 224 367 224 367 224 C367 224 210 224 210 224 C215 174 232 140 262 118 C292 97 340 86 405 86 C425 86 441 88 455 92 C469 97 483 105 495 116 C495 116 509 99 509 99 L509 99 Z M367 279 C367 279 367 279 367 279 C367 279 297 268 297 268 C323 273 341 280 351 292 C362 304 368 323 368 348 C368 348 368 351 368 351 C368 369 363 381 351 388 C340 396 320 399 292 399 C262 399 241 388 228 366 C216 344 209 307 209 253 C209 253 367 279 367 279 L367 279 Z " />
<glyph glyph-name="igrave" unicode="&#xec;" horiz-adv-x="326" d="M238 0 C238 0 88 0 88 0 C88 10 86 14 82 14 C78 15 69 15 54 15 C54 15 45 15 45 15 C45 15 45 0 45 0 C45 0 88 0 88 0 C88 0 88 313 88 313 C88 325 89 333 88 338 C88 344 87 348 86 350 C86 353 85 355 83 355 C81 356 79 357 77 358 C77 358 52 377 52 377 C52 377 52 387 52 387 C52 387 230 441 230 441 C230 441 238 441 238 441 C238 441 238 356 238 356 C238 356 238 0 238 0 C238 10 240 14 244 14 C248 15 258 15 273 15 C273 15 281 15 281 15 C281 15 281 0 281 0 C281 0 238 0 238 0 L238 0 Z M188 646 C188 646 251 478 251 478 C251 478 234 465 234 465 C234 465 111 586 111 586 C99 598 91 607 85 613 C80 619 78 625 78 630 C78 636 81 642 87 649 C93 657 101 663 109 669 C118 676 126 681 136 685 C146 690 155 692 163 692 C167 692 169 690 173 682 C177 675 182 663 188 646 L188 646 Z " />
<glyph glyph-name="iacute" unicode="&#xed;" horiz-adv-x="326" d="M88 465 C88 465 71 478 71 478 C71 478 131 646 131 646 C138 663 143 674 146 681 C150 689 153 692 155 692 C163 692 171 691 181 686 C191 682 200 677 209 670 C219 664 226 657 232 649 C238 642 241 636 241 630 C241 626 240 620 234 614 C229 608 220 599 208 586 C208 586 88 465 88 465 L88 465 Z M238 0 C238 0 88 0 88 0 C88 10 86 14 82 14 C78 15 69 15 54 15 C54 15 45 15 45 15 C45 15 45 0 45 0 C45 0 88 0 88 0 C88 0 88 313 88 313 C88 325 89 333 88 338 C88 344 87 348 86 350 C86 353 85 355 83 355 C81 356 79 357 77 358 C77 358 52 377 52 377 C52 377 52 387 52 387 C52 387 230 441 230 441 C230 441 238 441 238 441 C238 441 238 356 238 356 C238 356 238 0 238 0 C238 10 240 14 244 14 C248 15 258 15 273 15 C273 15 281 15 281 15 C281 15 281 0 281 0 C281 0 238 0 238 0 L238 0 Z " />
<glyph glyph-name="icircumflex" unicode="&#xee;" horiz-adv-x="326" d="M238 0 C238 0 88 0 88 0 C88 10 86 14 82 14 C78 15 69 15 54 15 C54 15 45 15 45 15 C45 15 45 0 45 0 C45 0 88 0 88 0 C88 0 88 313 88 313 C88 325 89 333 88 338 C88 344 87 348 86 350 C86 353 85 355 83 355 C81 356 79 357 77 358 C77 358 52 377 52 377 C52 377 52 387 52 387 C52 387 230 441 230 441 C230 441 238 441 238 441 C238 441 238 356 238 356 C238 356 238 0 238 0 C238 10 240 14 244 14 C248 15 258 15 273 15 C273 15 281 15 281 15 C281 15 281 0 281 0 C281 0 238 0 238 0 L238 0 Z M163 615 C163 615 211 638 211 638 C211 638 288 479 288 479 C288 479 273 466 273 466 C273 466 163 553 163 553 C163 553 53 466 53 466 C53 466 38 479 38 479 C38 479 116 639 116 639 C116 639 163 615 163 615 L163 615 Z M115 591 C115 591 211 590 211 590 C211 590 163 553 163 553 C163 553 115 591 115 591 L115 591 Z M211 638 C211 638 116 639 116 639 C120 647 125 655 131 665 C138 675 149 680 163 680 C178 680 189 676 195 665 C202 655 207 646 211 638 L211 638 Z " />
<glyph glyph-name="idieresis" unicode="&#xef;" horiz-adv-x="326" d="M270 506 C241 506 220 512 208 524 C196 536 190 557 190 586 C190 616 196 636 208 648 C220 660 241 666 270 666 C300 666 320 660 332 648 C344 636 350 616 350 586 C350 557 344 536 332 524 C320 512 300 506 270 506 L270 506 Z M56 506 C27 506 6 512 -6 524 C-18 536 -24 557 -24 586 C-24 616 -18 636 -6 648 C6 660 27 666 56 666 C86 666 106 660 118 648 C130 636 136 616 136 586 C136 557 130 536 118 524 C106 512 86 506 56 506 L56 506 Z M238 0 C238 0 88 0 88 0 C88 10 86 14 82 14 C78 15 69 15 54 15 C54 15 45 15 45 15 C45 15 45 0 45 0 C45 0 88 0 88 0 C88 0 88 313 88 313 C88 325 89 333 88 338 C88 344 87 348 86 350 C86 353 85 355 83 355 C81 356 79 357 77 358 C77 358 52 377 52 377 C52 377 52 387 52 387 C52 387 230 441 230 441 C230 441 238 441 238 441 C238 441 238 356 238 356 C238 356 238 0 238 0 C238 10 240 14 244 14 C248 15 258 15 273 15 C273 15 281 15 281 15 C281 15 281 0 281 0 C281 0 238 0 238 0 L238 0 Z " />
<glyph glyph-name="ntilde" unicode="&#xf1;" horiz-adv-x="586" d="M154 531 C154 531 129 531 129 531 C129 586 136 625 150 647 C165 670 189 681 223 681 C241 681 256 679 269 672 C283 666 295 658 307 650 C320 642 333 636 346 629 C360 623 375 619 392 619 C409 619 421 623 427 632 C434 642 437 657 437 679 C437 679 462 679 462 679 C462 621 455 579 439 555 C424 531 398 519 360 519 C343 519 328 522 314 528 C301 535 289 542 276 550 C264 558 251 565 237 571 C224 578 209 581 191 581 C178 581 169 578 163 570 C157 562 154 549 154 531 L154 531 Z M547 15 C547 15 547 0 547 0 C547 0 504 0 504 0 C504 0 429 0 429 0 C429 0 354 0 354 0 C354 0 311 0 311 0 C311 0 311 15 311 15 C311 15 317 15 317 15 C333 15 343 19 347 27 C352 35 354 53 354 80 C354 80 354 278 354 278 C354 290 354 299 352 307 C350 315 348 321 342 326 C337 332 330 335 320 337 C311 340 299 341 283 341 C277 341 270 340 261 336 C253 332 241 326 227 317 C227 317 237 317 237 317 C237 317 237 80 237 80 C237 52 240 35 244 27 C249 19 259 15 274 15 C274 15 280 15 280 15 C280 15 280 0 280 0 C280 0 237 0 237 0 C237 0 162 0 162 0 C162 0 87 0 87 0 C87 0 44 0 44 0 C44 0 44 15 44 15 C44 15 51 15 51 15 C67 15 76 19 80 27 C85 35 87 53 87 80 C87 80 87 286 87 286 C87 286 87 317 87 317 C87 317 87 317 87 317 C87 328 88 335 87 340 C87 346 86 349 83 352 C81 356 77 358 72 360 C68 363 61 367 51 372 C51 372 44 375 44 375 C44 375 44 384 44 384 C44 384 207 436 207 436 C207 436 237 436 237 436 C237 436 237 340 237 340 C267 359 291 375 311 387 C332 400 349 410 362 418 C378 428 390 435 399 441 C422 441 439 439 453 433 C467 428 477 420 485 408 C493 396 498 381 500 362 C503 344 504 321 504 294 C504 294 504 80 504 80 C504 53 506 35 510 27 C515 19 525 15 540 15 C540 15 547 15 547 15 L547 15 Z M221 322 C221 322 203 317 203 317 C203 317 221 317 221 317 C221 317 221 322 221 322 L221 322 Z " />
<glyph glyph-name="ograve" unicode="&#xf2;" horiz-adv-x="622" d="M311 28 C346 28 370 42 384 71 C399 101 406 150 406 218 C406 288 400 337 385 365 C371 394 346 408 311 408 C277 408 254 394 239 365 C225 337 217 288 217 218 C217 150 224 102 238 72 C253 43 277 28 311 28 L311 28 Z M50 218 C50 259 55 293 64 321 C74 350 88 372 109 390 C131 408 157 421 190 429 C224 437 264 441 311 441 C359 441 399 437 432 429 C466 421 492 409 513 391 C535 373 550 351 559 322 C569 294 573 259 573 218 C573 178 569 144 559 115 C550 87 536 64 514 46 C493 28 466 15 432 7 C399 -1 359 -5 311 -5 C264 -5 225 -1 191 7 C158 15 132 27 110 45 C89 63 74 86 64 114 C55 143 50 178 50 218 L50 218 Z M336 646 C336 646 399 478 399 478 C399 478 382 465 382 465 C382 465 259 586 259 586 C247 598 240 607 234 613 C229 619 226 625 226 630 C226 636 229 642 235 649 C241 657 248 663 257 669 C267 676 275 681 285 685 C295 690 304 692 312 692 C316 692 319 690 322 682 C326 675 330 663 336 646 L336 646 Z " />
<glyph glyph-name="oacute" unicode="&#xf3;" horiz-adv-x="622" d="M282 465 C282 465 265 478 265 478 C265 478 325 646 325 646 C332 663 336 674 339 681 C343 689 346 692 349 692 C357 692 365 691 375 686 C385 682 394 677 403 670 C413 664 420 657 426 649 C432 642 435 636 435 630 C435 626 432 620 427 614 C423 608 414 599 402 586 C402 586 282 465 282 465 L282 465 Z M311 28 C346 28 370 42 384 71 C399 101 406 150 406 218 C406 288 400 337 385 365 C371 394 346 408 311 408 C277 408 254 394 239 365 C225 337 217 288 217 218 C217 150 224 102 238 72 C253 43 277 28 311 28 L311 28 Z M50 218 C50 259 55 293 64 321 C74 350 88 372 109 390 C131 408 157 421 190 429 C224 437 264 441 311 441 C359 441 399 437 432 429 C466 421 492 409 513 391 C535 373 550 351 559 322 C569 294 573 259 573 218 C573 178 569 144 559 115 C550 87 536 64 514 46 C493 28 466 15 432 7 C399 -1 359 -5 311 -5 C264 -5 225 -1 191 7 C158 15 132 27 110 45 C89 63 74 86 64 114 C55 143 50 178 50 218 L50 218 Z " />
<glyph glyph-name="ocircumflex" unicode="&#xf4;" horiz-adv-x="622" d="M311 28 C346 28 370 42 384 71 C399 101 406 150 406 218 C406 288 400 337 385 365 C371 394 346 408 311 408 C277 408 254 394 239 365 C225 337 217 288 217 218 C217 150 224 102 238 72 C253 43 277 28 311 28 L311 28 Z M50 218 C50 259 55 293 64 321 C74 350 88 372 109 390 C131 408 157 421 190 429 C224 437 264 441 311 441 C359 441 399 437 432 429 C466 421 492 409 513 391 C535 373 550 351 559 322 C569 294 573 259 573 218 C573 178 569 144 559 115 C550 87 536 64 514 46 C493 28 466 15 432 7 C399 -1 359 -5 311 -5 C264 -5 225 -1 191 7 C158 15 132 27 110 45 C89 63 74 86 64 114 C55 143 50 178 50 218 L50 218 Z M311 553 C311 553 201 466 201 466 C201 466 186 479 186 479 C186 479 264 639 264 639 C268 647 273 655 279 665 C286 675 297 680 311 680 C327 680 338 676 344 665 C351 655 356 646 359 638 C359 638 437 479 437 479 C437 479 421 466 421 466 C421 466 311 553 311 553 L311 553 Z " />
<glyph glyph-name="otilde" unicode="&#xf5;" horiz-adv-x="622" d="M169 531 C169 531 144 531 144 531 C144 586 151 625 165 647 C180 670 205 681 239 681 C257 681 272 679 285 672 C299 666 311 658 323 650 C336 642 349 636 362 629 C376 623 391 619 408 619 C425 619 437 623 443 632 C450 642 453 657 453 679 C453 679 478 679 478 679 C478 621 471 579 455 555 C440 531 414 519 376 519 C359 519 344 522 330 528 C317 535 304 542 291 550 C279 558 267 565 253 571 C240 578 225 581 207 581 C193 581 184 578 178 570 C172 562 169 549 169 531 L169 531 Z M311 28 C346 28 370 42 384 71 C399 101 406 150 406 218 C406 288 400 337 385 365 C371 394 346 408 311 408 C277 408 254 394 239 365 C225 337 217 288 217 218 C217 150 224 102 238 72 C253 43 277 28 311 28 L311 28 Z M50 218 C50 259 55 293 64 321 C74 350 88 372 109 390 C131 408 157 421 190 429 C224 437 264 441 311 441 C359 441 399 437 432 429 C466 421 492 409 513 391 C535 373 550 351 559 322 C569 294 573 259 573 218 C573 178 569 144 559 115 C550 87 536 64 514 46 C493 28 466 15 432 7 C399 -1 359 -5 311 -5 C264 -5 225 -1 191 7 C158 15 132 27 110 45 C89 63 74 86 64 114 C55 143 50 178 50 218 L50 218 Z " />
<glyph glyph-name="odieresis" unicode="&#xf6;" horiz-adv-x="622" d="M419 506 C390 506 369 512 357 524 C345 536 339 557 339 586 C339 616 345 636 357 648 C369 660 390 666 419 666 C449 666 469 660 481 648 C493 636 499 616 499 586 C499 557 493 536 481 524 C469 512 449 506 419 506 L419 506 Z M204 506 C175 506 154 512 142 524 C130 536 124 557 124 586 C124 616 130 636 142 648 C154 660 175 666 204 666 C234 666 254 660 266 648 C278 636 284 616 284 586 C284 557 278 536 266 524 C254 512 234 506 204 506 L204 506 Z M311 28 C346 28 370 42 384 71 C399 101 406 150 406 218 C406 288 400 337 385 365 C371 394 346 408 311 408 C277 408 254 394 239 365 C225 337 217 288 217 218 C217 150 224 102 238 72 C253 43 277 28 311 28 L311 28 Z M50 218 C50 259 55 293 64 321 C74 350 88 372 109 390 C131 408 157 421 190 429 C224 437 264 441 311 441 C359 441 399 437 432 429 C466 421 492 409 513 391 C535 373 550 351 559 322 C569 294 573 259 573 218 C573 178 569 144 559 115 C550 87 536 64 514 46 C493 28 466 15 432 7 C399 -1 359 -5 311 -5 C264 -5 225 -1 191 7 C158 15 132 27 110 45 C89 63 74 86 64 114 C55 143 50 178 50 218 L50 218 Z " />
<glyph glyph-name="oslash" unicode="&#xf8;" horiz-adv-x="622" d="M66 -24 C66 -24 34 14 34 14 C34 14 92 64 92 64 C64 98 50 150 50 218 C50 259 55 293 64 321 C74 350 88 372 109 390 C131 408 157 421 190 429 C224 437 264 441 311 441 C351 441 385 439 415 433 C445 427 471 418 492 405 C492 405 556 460 556 460 C556 460 589 422 589 422 C589 422 531 372 531 372 C559 338 573 287 573 218 C573 178 569 144 559 115 C550 87 536 64 514 46 C493 28 466 15 432 7 C399 -1 359 -5 311 -5 C271 -5 237 -3 207 3 C177 9 152 19 130 31 C130 31 66 -24 66 -24 L66 -24 Z M311 28 C311 28 311 28 311 28 C346 28 370 42 384 71 C399 101 406 150 406 218 C406 227 406 234 406 242 C406 250 406 258 405 265 C405 265 225 112 225 112 C232 82 241 62 255 48 C269 35 288 28 311 28 L311 28 Z M218 171 C218 171 398 325 398 325 C392 355 381 377 367 389 C353 402 335 408 311 408 C277 408 254 394 239 365 C225 337 217 288 217 218 C217 210 217 202 217 194 C217 186 218 179 218 171 L218 171 Z " />
<glyph glyph-name="ugrave" unicode="&#xf9;" horiz-adv-x="551" d="M517 61 C517 61 517 52 517 52 C517 52 354 0 354 0 C354 0 324 0 324 0 C324 0 324 39 324 39 C324 39 324 97 324 97 C299 79 278 63 260 50 C242 38 228 27 216 18 C203 9 192 1 184 -5 C159 -5 139 -3 122 3 C106 9 93 19 83 31 C73 44 67 60 63 80 C59 100 57 125 57 153 C57 153 57 356 57 356 C57 384 56 401 51 409 C47 417 37 421 21 421 C21 421 14 421 14 421 C14 421 14 436 14 436 C14 436 57 436 57 436 C57 436 132 436 132 436 C132 436 207 436 207 436 C207 436 207 169 207 169 C207 143 214 124 226 112 C239 100 264 94 302 94 C298 94 306 101 324 115 C324 115 324 356 324 356 C324 384 323 401 318 409 C314 417 303 421 287 421 C287 421 281 421 281 421 C281 421 281 436 281 436 C281 436 324 436 324 436 C324 436 399 436 399 436 C399 436 474 436 474 436 C474 436 474 150 474 150 C474 150 474 91 474 91 C476 85 478 82 483 79 C489 77 498 72 510 64 C510 64 517 61 517 61 L517 61 Z M290 646 C290 646 353 478 353 478 C353 478 337 465 337 465 C337 465 214 586 214 586 C202 598 194 607 188 613 C183 619 180 625 180 630 C180 636 183 642 189 649 C195 657 202 663 211 669 C221 676 229 681 239 685 C249 690 258 692 266 692 C270 692 273 690 276 682 C280 675 284 663 290 646 L290 646 Z " />
<glyph glyph-name="uacute" unicode="&#xfa;" horiz-adv-x="551" d="M236 465 C236 465 219 478 219 478 C219 478 280 646 280 646 C286 663 290 674 293 681 C297 689 300 692 303 692 C311 692 319 691 329 686 C339 682 348 677 357 670 C367 664 374 657 380 649 C386 642 389 636 389 630 C389 626 388 620 382 614 C377 608 368 599 356 586 C356 586 236 465 236 465 L236 465 Z M517 61 C517 61 517 52 517 52 C517 52 354 0 354 0 C354 0 324 0 324 0 C324 0 324 39 324 39 C324 39 324 97 324 97 C299 79 278 63 260 50 C242 38 228 27 216 18 C203 9 192 1 184 -5 C159 -5 139 -3 122 3 C106 9 93 19 83 31 C73 44 67 60 63 80 C59 100 57 125 57 153 C57 153 57 356 57 356 C57 384 56 401 51 409 C47 417 37 421 21 421 C21 421 14 421 14 421 C14 421 14 436 14 436 C14 436 57 436 57 436 C57 436 132 436 132 436 C132 436 207 436 207 436 C207 436 207 169 207 169 C207 143 214 124 226 112 C239 100 264 94 302 94 C298 94 306 101 324 115 C324 115 324 356 324 356 C324 384 323 401 318 409 C314 417 303 421 287 421 C287 421 281 421 281 421 C281 421 281 436 281 436 C281 436 324 436 324 436 C324 436 399 436 399 436 C399 436 474 436 474 436 C474 436 474 150 474 150 C474 150 474 91 474 91 C476 85 478 82 483 79 C489 77 498 72 510 64 C510 64 517 61 517 61 L517 61 Z " />
<glyph glyph-name="ucircumflex" unicode="&#xfb;" horiz-adv-x="551" d="M517 61 C517 61 517 52 517 52 C517 52 354 0 354 0 C354 0 324 0 324 0 C324 0 324 39 324 39 C324 39 324 97 324 97 C299 79 278 63 260 50 C242 38 228 27 216 18 C203 9 192 1 184 -5 C159 -5 139 -3 122 3 C106 9 93 19 83 31 C73 44 67 60 63 80 C59 100 57 125 57 153 C57 153 57 356 57 356 C57 384 56 401 51 409 C47 417 37 421 21 421 C21 421 14 421 14 421 C14 421 14 436 14 436 C14 436 57 436 57 436 C57 436 132 436 132 436 C132 436 207 436 207 436 C207 436 207 169 207 169 C207 143 214 124 226 112 C239 100 264 94 302 94 C298 94 306 101 324 115 C324 115 324 356 324 356 C324 384 323 401 318 409 C314 417 303 421 287 421 C287 421 281 421 281 421 C281 421 281 436 281 436 C281 436 324 436 324 436 C324 436 399 436 399 436 C399 436 474 436 474 436 C474 436 474 150 474 150 C474 150 474 91 474 91 C476 85 478 82 483 79 C489 77 498 72 510 64 C510 64 517 61 517 61 L517 61 Z M266 553 C266 553 155 466 155 466 C155 466 140 479 140 479 C140 479 218 639 218 639 C222 647 227 655 233 665 C240 675 251 680 265 680 C281 680 292 676 298 665 C305 655 310 646 313 638 C313 638 391 479 391 479 C391 479 376 466 376 466 C376 466 266 553 266 553 L266 553 Z " />
<glyph glyph-name="udieresis" unicode="&#xfc;" horiz-adv-x="551" d="M373 506 C344 506 323 512 311 524 C299 536 293 557 293 586 C293 616 299 636 311 648 C323 660 344 666 373 666 C403 666 423 660 435 648 C447 636 453 616 453 586 C453 557 447 536 435 524 C423 512 403 506 373 506 L373 506 Z M158 506 C129 506 108 512 96 524 C84 536 78 557 78 586 C78 616 84 636 96 648 C108 660 129 666 158 666 C188 666 208 660 220 648 C232 636 238 616 238 586 C238 557 232 536 220 524 C208 512 188 506 158 506 L158 506 Z M517 61 C517 61 517 52 517 52 C517 52 354 0 354 0 C354 0 324 0 324 0 C324 0 324 39 324 39 C324 39 324 97 324 97 C299 79 278 63 260 50 C242 38 228 27 216 18 C203 9 192 1 184 -5 C159 -5 139 -3 122 3 C106 9 93 19 83 31 C73 44 67 60 63 80 C59 100 57 125 57 153 C57 153 57 356 57 356 C57 384 56 401 51 409 C47 417 37 421 21 421 C21 421 14 421 14 421 C14 421 14 436 14 436 C14 436 57 436 57 436 C57 436 132 436 132 436 C132 436 207 436 207 436 C207 436 207 169 207 169 C207 143 214 124 226 112 C239 100 264 94 302 94 C298 94 306 101 324 115 C324 115 324 356 324 356 C324 384 323 401 318 409 C314 417 303 421 287 421 C287 421 281 421 281 421 C281 421 281 436 281 436 C281 436 324 436 324 436 C324 436 399 436 399 436 C399 436 474 436 474 436 C474 436 474 150 474 150 C474 150 474 91 474 91 C476 85 478 82 483 79 C489 77 498 72 510 64 C510 64 517 61 517 61 L517 61 Z " />
<glyph glyph-name="ydieresis" unicode="&#xff;" horiz-adv-x="511" d="M378 506 C349 506 328 512 316 524 C304 536 298 557 298 586 C298 616 304 636 316 648 C328 660 349 666 378 666 C408 666 428 660 440 648 C452 636 458 616 458 586 C458 557 452 536 440 524 C428 512 408 506 378 506 L378 506 Z M163 506 C134 506 113 512 101 524 C89 536 83 557 83 586 C83 616 89 636 101 648 C113 660 134 666 163 666 C193 666 213 660 225 648 C237 636 243 616 243 586 C243 557 237 536 225 524 C213 512 193 506 163 506 L163 506 Z M226 436 C226 436 226 421 226 421 C226 421 221 421 221 421 C211 421 206 420 204 414 C203 409 207 397 216 379 C216 379 346 157 346 157 C346 157 449 372 449 372 C459 394 464 406 462 412 C461 418 455 421 443 421 C443 421 437 421 437 421 C438 421 438 424 437 429 C438 434 438 436 437 436 C437 436 480 436 480 436 C480 436 505 436 505 436 C505 436 530 436 530 436 C530 436 565 436 565 436 C566 436 566 434 565 429 C566 424 566 421 565 421 C565 421 559 421 559 421 C545 421 535 419 526 412 C518 406 507 391 494 369 C494 369 291 -10 291 -10 C291 -10 257 -72 257 -72 C260 -66 260 -63 255 -60 C251 -56 239 -54 221 -53 C221 -53 255 10 255 10 C255 10 47 374 47 374 C35 394 25 406 16 412 C8 418 -3 421 -17 421 C-17 421 -23 421 -23 421 C-23 421 -23 424 -23 429 C-23 434 -23 436 -23 436 C-23 436 11 436 11 436 C11 436 97 436 97 436 C97 436 183 436 183 436 C183 436 226 436 226 436 L226 436 Z M221 -53 C221 -53 221 -53 221 -53 C221 -54 221 -54 220 -55 C220 -55 219 -56 218 -58 C218 -58 221 -53 221 -53 L221 -53 Z M221 -53 C205 -51 184 -51 155 -51 C127 -50 89 -50 43 -50 C13 -50 -8 -45 -21 -36 C-33 -26 -40 -11 -40 11 C-40 35 -34 50 -23 60 C-11 70 8 75 36 75 C46 75 54 74 62 71 C70 69 77 66 85 62 C93 59 101 56 109 53 C117 51 126 49 135 49 C165 49 189 49 206 46 C224 44 235 39 241 31 C247 24 249 14 245 0 C241 -13 233 -31 221 -53 L221 -53 Z " />
<glyph glyph-name="Amacron" unicode="&#x100;" horiz-adv-x="706" d="M165 663 C165 663 165 746 165 746 C165 746 471 746 471 746 C471 746 471 663 471 663 C471 663 165 663 165 663 L165 663 Z M698 15 C698 15 698 0 698 0 C698 0 663 0 663 0 C663 0 572 0 572 0 C572 0 482 0 482 0 C482 0 427 0 427 0 C427 0 427 15 427 15 C427 15 434 15 434 15 C451 15 459 18 459 26 C460 34 453 52 437 80 C437 80 437 80 437 80 C437 80 372 196 372 196 C372 196 175 196 175 196 C175 196 132 95 132 95 C132 95 132 95 132 95 C118 61 110 40 112 30 C114 20 126 15 146 15 C146 15 154 15 154 15 C154 15 154 0 154 0 C154 0 91 0 91 0 C91 0 64 0 64 0 C64 0 36 0 36 0 C36 0 0 0 0 0 C0 0 0 15 0 15 C0 15 6 15 6 15 C14 15 20 15 26 17 C32 19 38 23 42 27 C47 32 52 38 56 46 C61 55 66 66 72 80 C72 80 72 80 72 80 C72 80 298 580 298 580 C298 580 339 580 339 580 C339 580 618 80 618 80 C618 80 619 80 619 80 C627 66 634 56 639 47 C645 39 650 32 655 27 C661 23 666 20 671 18 C677 16 683 15 691 15 C691 15 698 15 698 15 L698 15 Z M349 236 C349 236 260 395 260 395 C260 395 192 237 192 237 C192 237 349 236 349 236 L349 236 Z " />
<glyph glyph-name="amacron" unicode="&#x101;" horiz-adv-x="533" d="M78 532 C78 532 78 616 78 616 C78 616 384 616 384 616 C384 616 384 532 384 532 C384 532 78 532 78 532 L78 532 Z M512 84 C512 84 529 64 529 64 C521 51 514 40 506 30 C499 21 491 13 479 7 C468 1 454 -3 436 -6 C419 -8 396 -10 368 -10 C346 -10 328 -8 315 -4 C303 1 293 8 286 18 C258 3 215 -5 158 -5 C114 -5 84 3 65 17 C47 32 37 57 37 92 C37 132 52 162 81 182 C111 203 160 218 228 228 C228 228 271 234 271 234 C271 234 271 318 271 318 C271 348 270 369 264 381 C259 394 250 400 237 400 C237 400 32 400 32 400 C144 414 218 424 257 430 C297 437 306 441 284 441 C337 440 374 427 396 403 C419 379 430 340 430 284 C430 284 430 134 430 134 C430 108 431 91 435 79 C439 68 451 62 470 62 C484 62 492 64 497 67 C503 71 508 76 512 84 L512 84 Z M284 441 C284 441 284 441 284 441 C284 441 271 441 271 441 C271 441 284 441 284 441 L284 441 Z M271 193 C271 193 228 182 228 182 C213 178 202 174 195 166 C189 159 185 149 185 135 C185 121 189 110 196 104 C204 98 216 95 233 95 C241 95 247 95 253 95 C260 95 266 96 271 96 C271 96 271 117 271 117 C271 117 271 193 271 193 L271 193 Z " />
<glyph glyph-name="Abreve" unicode="&#x102;" horiz-adv-x="706" d="M174 776 C174 776 197 789 197 789 C211 766 226 750 244 740 C263 730 288 725 318 725 C350 725 374 729 392 739 C410 749 426 766 439 789 C439 789 463 776 463 776 C432 722 405 684 383 660 C361 637 340 625 318 625 C298 625 276 636 254 659 C232 683 206 722 174 776 L174 776 Z M698 15 C698 15 698 0 698 0 C698 0 663 0 663 0 C663 0 572 0 572 0 C572 0 482 0 482 0 C482 0 427 0 427 0 C427 0 427 15 427 15 C427 15 434 15 434 15 C451 15 459 18 459 26 C460 34 453 52 437 80 C437 80 437 80 437 80 C437 80 372 196 372 196 C372 196 175 196 175 196 C175 196 132 95 132 95 C132 95 132 95 132 95 C118 61 110 40 112 30 C114 20 126 15 146 15 C146 15 154 15 154 15 C154 15 154 0 154 0 C154 0 91 0 91 0 C91 0 64 0 64 0 C64 0 36 0 36 0 C36 0 0 0 0 0 C0 0 0 15 0 15 C0 15 6 15 6 15 C14 15 20 15 26 17 C32 19 38 23 42 27 C47 32 52 38 56 46 C61 55 66 66 72 80 C72 80 72 80 72 80 C72 80 298 580 298 580 C298 580 339 580 339 580 C339 580 618 80 618 80 C618 80 619 80 619 80 C627 66 634 56 639 47 C645 39 650 32 655 27 C661 23 666 20 671 18 C677 16 683 15 691 15 C691 15 698 15 698 15 L698 15 Z M349 236 C349 236 260 395 260 395 C260 395 192 237 192 237 C192 237 349 236 349 236 L349 236 Z " />
<glyph glyph-name="abreve" unicode="&#x103;" horiz-adv-x="533" d="M87 615 C87 615 110 628 110 628 C124 605 139 589 157 579 C176 569 201 564 231 564 C262 564 286 568 304 578 C323 588 339 605 352 628 C352 628 375 615 375 615 C344 561 317 523 295 499 C273 476 252 464 231 464 C211 464 189 475 167 498 C145 522 119 561 87 615 L87 615 Z M512 84 C512 84 529 64 529 64 C521 51 514 40 506 30 C499 21 491 13 479 7 C468 1 454 -3 436 -6 C419 -8 396 -10 368 -10 C346 -10 328 -8 315 -4 C303 1 293 8 286 18 C258 3 215 -5 158 -5 C114 -5 84 3 65 17 C47 32 37 57 37 92 C37 132 52 162 81 182 C111 203 160 218 228 228 C228 228 271 234 271 234 C271 234 271 318 271 318 C271 348 270 369 264 381 C259 394 250 400 237 400 C237 400 32 400 32 400 C144 414 218 424 257 430 C297 437 306 441 284 441 C337 440 374 427 396 403 C419 379 430 340 430 284 C430 284 430 134 430 134 C430 108 431 91 435 79 C439 68 451 62 470 62 C484 62 492 64 497 67 C503 71 508 76 512 84 L512 84 Z M284 441 C284 441 284 441 284 441 C284 441 271 441 271 441 C271 441 284 441 284 441 L284 441 Z M271 193 C271 193 228 182 228 182 C213 178 202 174 195 166 C189 159 185 149 185 135 C185 121 189 110 196 104 C204 98 216 95 233 95 C241 95 247 95 253 95 C260 95 266 96 271 96 C271 96 271 117 271 117 C271 117 271 193 271 193 L271 193 Z " />
<glyph glyph-name="Aogonek" unicode="&#x104;" horiz-adv-x="706" d="M698 15 C698 15 698 0 698 0 C698 0 663 0 663 0 C663 0 572 0 572 0 C572 0 482 0 482 0 C474 -3 464 -8 452 -16 C441 -24 430 -33 420 -45 C410 -56 402 -68 395 -84 C389 -99 385 -116 385 -134 C385 -156 393 -172 407 -182 C422 -191 447 -196 483 -196 C495 -196 504 -194 510 -192 C517 -189 523 -184 529 -178 C529 -178 539 -191 539 -191 C525 -208 511 -219 497 -227 C484 -234 468 -238 450 -238 C393 -238 353 -231 329 -218 C305 -204 293 -182 293 -150 C293 -134 297 -119 305 -104 C313 -88 324 -75 336 -61 C349 -47 363 -35 379 -23 C395 -11 411 0 427 8 C427 8 427 15 427 15 C427 15 434 15 434 15 C434 15 441 15 441 15 C441 15 459 24 459 24 C461 29 460 36 456 44 C452 53 446 65 437 80 C437 80 437 80 437 80 C437 80 372 196 372 196 C372 196 175 196 175 196 C175 196 132 95 132 95 C132 95 132 95 132 95 C118 61 110 40 112 30 C114 20 126 15 146 15 C146 15 154 15 154 15 C154 15 154 0 154 0 C154 0 91 0 91 0 C91 0 64 0 64 0 C64 0 36 0 36 0 C36 0 0 0 0 0 C0 0 0 15 0 15 C0 15 6 15 6 15 C14 15 20 15 26 17 C32 19 38 23 42 27 C47 32 52 38 56 46 C61 55 66 66 72 80 C72 80 72 80 72 80 C72 80 298 580 298 580 C298 580 339 580 339 580 C339 580 618 80 618 80 C618 80 619 80 619 80 C627 66 634 56 639 47 C645 39 650 32 655 27 C661 23 666 20 671 18 C677 16 683 15 691 15 C691 15 698 15 698 15 L698 15 Z M349 236 C349 236 260 395 260 395 C260 395 192 237 192 237 C192 237 349 236 349 236 L349 236 Z " />
<glyph glyph-name="aogonek" unicode="&#x105;" horiz-adv-x="533" d="M512 84 C512 84 529 64 529 64 C523 54 518 45 512 37 C506 29 501 22 493 16 C486 10 478 6 468 2 C458 -2 446 -5 432 -7 C420 -19 411 -34 401 -52 C392 -70 387 -90 387 -113 C387 -143 395 -164 409 -177 C424 -189 449 -196 485 -196 C497 -196 506 -194 512 -192 C519 -189 525 -184 531 -178 C531 -178 541 -191 541 -191 C527 -208 513 -219 499 -227 C486 -234 470 -238 452 -238 C395 -238 355 -230 331 -214 C307 -197 295 -169 295 -130 C295 -107 301 -86 314 -66 C328 -46 344 -27 363 -10 C342 -9 326 -7 314 -3 C302 2 293 9 286 18 C258 3 215 -5 158 -5 C114 -5 84 3 65 17 C47 32 37 57 37 92 C37 132 52 162 81 182 C111 203 160 218 228 228 C228 228 271 234 271 234 C271 234 271 318 271 318 C271 348 270 369 264 381 C259 394 250 400 237 400 C237 400 32 400 32 400 C144 414 218 424 257 430 C297 437 306 441 284 441 C337 440 374 427 396 403 C419 379 430 340 430 284 C430 284 430 134 430 134 C430 108 431 91 435 79 C439 68 451 62 470 62 C476 62 481 63 483 63 C483 63 484 63 484 63 C484 63 484 63 484 63 C492 65 497 66 501 69 C505 73 509 78 512 84 L512 84 Z M284 441 C284 441 284 441 284 441 C284 441 271 441 271 441 C271 441 284 441 284 441 L284 441 Z M271 193 C271 193 228 182 228 182 C213 178 202 174 195 166 C189 159 185 149 185 135 C185 121 189 110 196 104 C204 98 216 95 233 95 C241 95 247 95 253 95 C260 95 266 96 271 96 C271 96 271 117 271 117 C271 117 271 193 271 193 L271 193 Z " />
<glyph glyph-name="Cacute" unicode="&#x106;" horiz-adv-x="767" d="M413 596 C413 596 396 609 396 609 C396 609 456 777 456 777 C463 794 467 805 470 812 C474 820 477 823 480 823 C488 823 496 822 506 817 C516 813 526 808 534 801 C543 795 550 788 556 780 C562 773 565 767 565 761 C565 757 564 751 558 745 C553 739 545 730 533 717 C533 717 413 596 413 596 L413 596 Z M707 26 C707 26 704 47 704 47 C704 47 704 47 704 47 C704 47 707 26 707 26 L707 26 Z M707 26 C644 16 593 9 555 3 C517 -2 485 -5 457 -5 C380 -5 314 0 260 10 C206 21 162 37 128 60 C94 84 70 114 54 150 C39 187 31 231 31 283 C31 336 39 381 54 417 C70 454 94 483 128 506 C162 530 206 546 260 556 C314 567 380 572 457 572 C485 572 517 570 555 565 C593 561 644 553 707 541 C707 541 704 520 704 520 C704 520 704 520 704 520 C704 520 707 541 707 541 C707 541 714 427 714 427 C712 427 710 427 708 426 C708 426 702 426 702 426 C699 430 696 433 694 436 C692 440 690 443 687 447 C670 472 648 490 620 502 C593 514 555 523 507 527 C507 527 507 527 507 527 C489 529 472 530 457 530 C413 530 376 527 345 517 C315 508 290 494 270 474 C251 454 237 429 228 397 C220 366 215 328 215 283 C215 239 220 202 228 170 C237 139 251 114 270 94 C290 74 315 61 345 51 C376 42 413 37 457 37 C469 37 482 38 498 39 C514 41 533 43 554 45 C587 51 613 60 634 72 C656 84 673 100 687 120 C690 124 692 128 694 131 C696 135 699 138 702 141 C705 141 707 141 708 140 C708 140 714 140 714 140 C714 140 707 26 707 26 L707 26 Z " />
<glyph glyph-name="cacute" unicode="&#x107;" horiz-adv-x="552" d="M240 465 C240 465 224 478 224 478 C224 478 284 646 284 646 C290 663 295 674 298 681 C302 689 305 692 307 692 C315 692 323 691 333 686 C343 682 352 677 361 670 C371 664 378 657 384 649 C390 642 393 636 393 630 C393 626 392 620 386 614 C381 608 372 599 360 586 C360 586 240 465 240 465 L240 465 Z M503 99 C459 62 420 35 385 19 C351 3 315 -5 277 -5 C236 -5 201 -1 172 6 C144 14 120 25 102 41 C84 57 72 78 63 103 C55 129 50 159 50 195 C50 240 54 277 64 308 C74 340 89 364 110 384 C132 404 158 418 192 427 C226 437 267 441 315 441 C381 441 427 434 455 419 C484 405 500 380 503 344 C503 320 498 302 488 292 C478 282 461 277 436 277 C412 277 394 282 382 293 C371 305 364 324 361 351 C360 369 355 381 345 388 C335 396 320 399 298 399 C266 399 244 388 230 366 C216 344 209 307 209 253 C209 193 224 150 253 124 C283 99 332 86 402 86 C422 86 437 88 450 92 C464 97 477 105 489 116 C489 116 503 99 503 99 L503 99 Z " />
<glyph glyph-name="Ccircumflex" unicode="&#x108;" horiz-adv-x="767" d="M457 684 C457 684 347 597 347 597 C347 597 332 610 332 610 C332 610 410 769 410 769 C414 777 419 786 425 796 C432 806 443 811 457 811 C472 811 483 807 489 796 C496 786 501 777 505 769 C505 769 583 610 583 610 C583 610 567 597 567 597 C567 597 457 684 457 684 L457 684 Z M707 26 C707 26 704 47 704 47 C704 47 704 47 704 47 C704 47 707 26 707 26 L707 26 Z M707 26 C644 16 593 9 555 3 C517 -2 485 -5 457 -5 C380 -5 314 0 260 10 C206 21 162 37 128 60 C94 84 70 114 54 150 C39 187 31 231 31 283 C31 336 39 381 54 417 C70 454 94 483 128 506 C162 530 206 546 260 556 C314 567 380 572 457 572 C485 572 517 570 555 565 C593 561 644 553 707 541 C707 541 704 520 704 520 C704 520 704 520 704 520 C704 520 707 541 707 541 C707 541 714 427 714 427 C712 427 710 427 708 426 C708 426 702 426 702 426 C699 430 696 433 694 436 C692 440 690 443 687 447 C670 472 648 490 620 502 C593 514 555 523 507 527 C507 527 507 527 507 527 C489 529 472 530 457 530 C413 530 376 527 345 517 C315 508 290 494 270 474 C251 454 237 429 228 397 C220 366 215 328 215 283 C215 239 220 202 228 170 C237 139 251 114 270 94 C290 74 315 61 345 51 C376 42 413 37 457 37 C469 37 482 38 498 39 C514 41 533 43 554 45 C587 51 613 60 634 72 C656 84 673 100 687 120 C690 124 692 128 694 131 C696 135 699 138 702 141 C705 141 707 141 708 140 C708 140 714 140 714 140 C714 140 707 26 707 26 L707 26 Z " />
<glyph glyph-name="Cdotaccent" unicode="&#x10a;" horiz-adv-x="767" d="M457 637 C428 637 407 643 395 655 C383 667 377 688 377 717 C377 747 383 767 395 779 C407 791 428 797 457 797 C487 797 507 791 519 779 C531 767 537 747 537 717 C537 688 531 667 519 655 C507 643 487 637 457 637 L457 637 Z M707 26 C707 26 704 47 704 47 C704 47 704 47 704 47 C704 47 707 26 707 26 L707 26 Z M707 26 C644 16 593 9 555 3 C517 -2 485 -5 457 -5 C380 -5 314 0 260 10 C206 21 162 37 128 60 C94 84 70 114 54 150 C39 187 31 231 31 283 C31 336 39 381 54 417 C70 454 94 483 128 506 C162 530 206 546 260 556 C314 567 380 572 457 572 C485 572 517 570 555 565 C593 561 644 553 707 541 C707 541 704 520 704 520 C704 520 704 520 704 520 C704 520 707 541 707 541 C707 541 714 427 714 427 C712 427 710 427 708 426 C708 426 702 426 702 426 C699 430 696 433 694 436 C692 440 690 443 687 447 C670 472 648 490 620 502 C593 514 555 523 507 527 C507 527 507 527 507 527 C489 529 472 530 457 530 C413 530 376 527 345 517 C315 508 290 494 270 474 C251 454 237 429 228 397 C220 366 215 328 215 283 C215 239 220 202 228 170 C237 139 251 114 270 94 C290 74 315 61 345 51 C376 42 413 37 457 37 C469 37 482 38 498 39 C514 41 533 43 554 45 C587 51 613 60 634 72 C656 84 673 100 687 120 C690 124 692 128 694 131 C696 135 699 138 702 141 C705 141 707 141 708 140 C708 140 714 140 714 140 C714 140 707 26 707 26 L707 26 Z " />
<glyph glyph-name="cdotaccent" unicode="&#x10b;" horiz-adv-x="552" d="M315 506 C286 506 265 512 253 524 C241 536 235 557 235 586 C235 616 241 636 253 648 C265 660 286 666 315 666 C345 666 365 660 377 648 C389 636 395 616 395 586 C395 557 389 536 377 524 C365 512 345 506 315 506 L315 506 Z M503 99 C459 62 420 35 385 19 C351 3 315 -5 277 -5 C236 -5 201 -1 172 6 C144 14 120 25 102 41 C84 57 72 78 63 103 C55 129 50 159 50 195 C50 240 54 277 64 308 C74 340 89 364 110 384 C132 404 158 418 192 427 C226 437 267 441 315 441 C381 441 427 434 455 419 C484 405 500 380 503 344 C503 320 498 302 488 292 C478 282 461 277 436 277 C412 277 394 282 382 293 C371 305 364 324 361 351 C360 369 355 381 345 388 C335 396 320 399 298 399 C266 399 244 388 230 366 C216 344 209 307 209 253 C209 193 224 150 253 124 C283 99 332 86 402 86 C422 86 437 88 450 92 C464 97 477 105 489 116 C489 116 503 99 503 99 L503 99 Z " />
<glyph glyph-name="Ccaron" unicode="&#x10c;" horiz-adv-x="767" d="M457 750 C457 750 347 837 347 837 C347 837 332 824 332 824 C332 824 410 664 410 664 C414 657 419 648 425 638 C432 628 443 623 457 623 C472 623 483 628 489 638 C496 649 501 658 505 665 C505 665 583 824 583 824 C583 824 567 837 567 837 C567 837 457 750 457 750 L457 750 Z M707 26 C707 26 704 47 704 47 C704 47 704 47 704 47 C704 47 707 26 707 26 L707 26 Z M707 26 C644 16 593 9 555 3 C517 -2 485 -5 457 -5 C380 -5 314 0 260 10 C206 21 162 37 128 60 C94 84 70 114 54 150 C39 187 31 231 31 283 C31 336 39 381 54 417 C70 454 94 483 128 506 C162 530 206 546 260 556 C314 567 380 572 457 572 C485 572 517 570 555 565 C593 561 644 553 707 541 C707 541 704 520 704 520 C704 520 704 520 704 520 C704 520 707 541 707 541 C707 541 714 427 714 427 C712 427 710 427 708 426 C708 426 702 426 702 426 C699 430 696 433 694 436 C692 440 690 443 687 447 C670 472 648 490 620 502 C593 514 555 523 507 527 C507 527 507 527 507 527 C489 529 472 530 457 530 C413 530 376 527 345 517 C315 508 290 494 270 474 C251 454 237 429 228 397 C220 366 215 328 215 283 C215 239 220 202 228 170 C237 139 251 114 270 94 C290 74 315 61 345 51 C376 42 413 37 457 37 C469 37 482 38 498 39 C514 41 533 43 554 45 C587 51 613 60 634 72 C656 84 673 100 687 120 C690 124 692 128 694 131 C696 135 699 138 702 141 C705 141 707 141 708 140 C708 140 714 140 714 140 C714 140 707 26 707 26 L707 26 Z " />
<glyph glyph-name="ccaron" unicode="&#x10d;" horiz-adv-x="552" d="M503 99 C459 62 420 35 385 19 C351 3 315 -5 277 -5 C236 -5 201 -1 172 6 C144 14 120 25 102 41 C84 57 72 78 63 103 C55 129 50 159 50 195 C50 240 54 277 64 308 C74 340 89 364 110 384 C132 404 158 418 192 427 C226 437 267 441 315 441 C381 441 427 434 455 419 C484 405 500 380 503 344 C503 320 498 302 488 292 C478 282 461 277 436 277 C412 277 394 282 382 293 C371 305 364 324 361 351 C360 369 355 381 345 388 C335 396 320 399 298 399 C266 399 244 388 230 366 C216 344 209 307 209 253 C209 193 224 150 253 124 C283 99 332 86 402 86 C422 86 437 88 450 92 C464 97 477 105 489 116 C489 116 503 99 503 99 L503 99 Z M315 619 C315 619 205 706 205 706 C205 706 190 693 190 693 C190 693 268 534 268 534 C272 527 277 519 283 508 C290 498 301 492 315 492 C331 492 342 497 348 507 C355 518 360 527 363 534 C363 534 441 693 441 693 C441 693 425 706 425 706 C425 706 315 619 315 619 L315 619 Z " />
<glyph glyph-name="Dcaron" unicode="&#x10e;" horiz-adv-x="799" d="M23 552 C23 552 23 567 23 567 C23 567 66 567 66 567 C66 567 150 567 150 567 C150 567 233 567 233 567 C233 567 339 567 339 567 C413 567 476 563 528 552 C580 542 623 525 655 502 C688 480 711 450 726 414 C742 378 749 335 749 283 C749 232 743 188 729 152 C715 116 694 88 664 65 C634 43 596 27 548 16 C501 6 443 0 375 0 C375 0 233 0 233 0 C233 0 150 0 150 0 C150 0 66 0 66 0 C66 0 23 0 23 0 C23 0 23 15 23 15 C23 15 30 15 30 15 C46 15 55 19 59 27 C64 35 66 53 66 80 C66 80 66 487 66 487 C66 515 65 532 60 540 C56 548 46 552 30 552 C30 552 23 552 23 552 L23 552 Z M324 750 C324 750 214 837 214 837 C214 837 199 824 199 824 C199 824 277 664 277 664 C281 657 286 648 292 638 C299 628 310 623 324 623 C340 623 351 628 357 638 C364 649 369 658 372 665 C372 665 450 824 450 824 C450 824 434 837 434 837 C434 837 324 750 324 750 L324 750 Z M233 42 C233 42 375 42 375 42 C413 42 444 47 470 55 C497 64 519 78 535 97 C552 117 564 141 571 171 C579 202 582 239 582 283 C582 327 578 365 569 395 C561 426 547 451 527 470 C507 490 482 504 451 512 C421 521 383 525 339 525 C339 525 233 525 233 525 C233 525 233 42 233 42 L233 42 Z " />
<glyph glyph-name="dcaron" unicode="&#x10f;" horiz-adv-x="625" d="M323 595 C323 595 323 604 323 604 C323 604 486 656 486 656 C486 656 516 656 516 656 C516 656 516 617 516 617 C516 617 516 546 516 546 C516 546 516 150 516 150 C516 150 516 91 516 91 C518 85 520 82 525 79 C531 77 540 72 552 64 C552 64 559 61 559 61 C559 61 559 59 559 53 C559 53 559 52 559 52 C559 52 396 0 396 0 C396 0 366 0 366 0 C366 0 366 39 366 39 C366 39 366 84 366 84 C343 68 324 55 307 43 C291 32 277 23 267 15 C255 7 245 1 237 -5 C204 -5 176 -2 152 5 C129 13 111 24 96 39 C82 55 71 74 64 98 C58 122 54 152 54 186 C54 232 58 271 67 303 C77 336 91 362 111 382 C131 403 157 418 189 427 C221 437 260 441 306 441 C314 441 323 440 333 437 C344 435 355 431 366 426 C366 426 366 506 366 506 C366 506 366 560 366 560 C365 569 362 574 357 576 C353 579 343 584 329 592 C329 592 323 595 323 595 L323 595 Z M677 542 C677 542 580 403 580 403 C580 403 561 409 561 409 C561 409 583 576 583 576 C585 590 587 604 589 617 C591 631 594 642 598 652 C602 663 607 671 613 677 C620 684 628 687 637 687 C646 687 656 687 666 686 C677 686 686 684 696 681 C706 679 715 675 721 670 C728 666 731 660 731 652 C731 646 728 634 719 614 C711 594 697 570 677 542 L677 542 Z M366 110 C366 110 366 381 366 381 C338 394 315 400 298 400 C266 400 245 389 231 365 C218 341 211 301 211 243 C211 187 219 147 235 123 C252 99 280 87 320 87 C336 87 351 92 366 102 C366 102 366 110 366 110 L366 110 Z " />
<glyph glyph-name="Emacron" unicode="&#x112;" horiz-adv-x="632" d="M158 663 C158 663 158 746 158 746 C158 746 464 746 464 746 C464 746 464 663 464 663 C464 663 158 663 158 663 L158 663 Z M472 366 C472 366 484 366 484 366 C484 366 484 323 484 323 C484 323 484 302 484 302 C484 302 484 282 484 282 C484 282 484 233 484 233 C484 233 472 233 472 233 C468 243 464 252 459 258 C455 265 449 270 441 273 C433 277 423 279 411 280 C399 282 384 282 364 282 C364 282 250 282 250 282 C250 282 250 42 250 42 C250 42 411 42 411 42 C411 42 431 42 431 42 C449 42 463 43 475 45 C487 47 497 50 507 55 C517 61 527 68 535 76 C544 85 553 96 563 108 C563 108 572 119 572 119 C572 119 583 119 583 119 C579 102 576 87 572 71 C569 56 565 39 561 21 C560 15 559 8 557 0 C557 0 549 0 549 0 C549 0 477 0 477 0 C477 0 250 0 250 0 C250 0 166 0 166 0 C166 0 83 0 83 0 C83 0 40 0 40 0 C40 0 40 15 40 15 C40 15 46 15 46 15 C62 15 72 19 76 27 C81 35 83 53 83 80 C83 80 83 487 83 487 C83 515 82 532 77 540 C73 548 62 552 46 552 C46 552 40 552 40 552 C40 552 40 567 40 567 C40 567 83 567 83 567 C83 567 166 567 166 567 C166 567 250 567 250 567 C250 567 484 567 484 567 C484 567 539 567 539 567 C539 567 564 567 564 567 C565 564 565 561 565 557 C565 554 566 550 566 546 C568 528 569 513 569 497 C570 482 571 466 572 448 C572 448 561 448 561 448 C561 448 554 459 554 459 C546 473 537 485 529 493 C521 502 513 509 502 513 C492 518 479 520 465 522 C451 524 434 525 412 525 C412 525 250 525 250 525 C250 525 250 323 250 323 C250 323 364 323 364 323 C384 323 399 323 411 324 C423 326 433 328 440 331 C448 335 454 338 458 344 C463 350 468 358 472 366 L472 366 Z " />
<glyph glyph-name="emacron" unicode="&#x113;" horiz-adv-x="558" d="M147 532 C147 532 147 616 147 616 C147 616 453 616 453 616 C453 616 453 532 453 532 C453 532 147 532 147 532 L147 532 Z M509 99 C465 62 426 35 390 19 C355 3 318 -5 280 -5 C238 -5 204 -1 174 6 C145 14 122 25 103 41 C85 57 72 78 63 103 C55 129 50 159 50 195 C50 240 54 277 63 308 C73 340 87 364 107 384 C127 404 152 418 184 427 C216 437 255 441 300 441 C338 441 370 437 396 429 C423 421 444 409 460 391 C477 374 488 352 496 324 C504 297 508 264 508 224 C508 224 367 224 367 224 C367 224 210 224 210 224 C215 174 232 140 262 118 C292 97 340 86 405 86 C425 86 441 88 455 92 C469 97 483 105 495 116 C495 116 509 99 509 99 L509 99 Z M367 279 C367 279 367 279 367 279 C367 279 297 268 297 268 C323 273 341 280 351 292 C362 304 368 323 368 348 C368 348 368 351 368 351 C368 369 363 381 351 388 C340 396 320 399 292 399 C262 399 241 388 228 366 C216 344 209 307 209 253 C209 253 367 279 367 279 L367 279 Z " />
<glyph glyph-name="Ebreve" unicode="&#x114;" horiz-adv-x="632" d="M167 776 C167 776 190 789 190 789 C204 766 219 750 237 740 C256 730 281 725 311 725 C342 725 366 729 384 739 C403 749 419 766 432 789 C432 789 455 776 455 776 C424 722 397 684 375 660 C353 637 332 625 311 625 C291 625 269 636 247 659 C225 683 199 722 167 776 L167 776 Z M472 366 C472 366 484 366 484 366 C484 366 484 323 484 323 C484 323 484 302 484 302 C484 302 484 282 484 282 C484 282 484 233 484 233 C484 233 472 233 472 233 C468 243 464 252 459 258 C455 265 449 270 441 273 C433 277 423 279 411 280 C399 282 384 282 364 282 C364 282 250 282 250 282 C250 282 250 42 250 42 C250 42 411 42 411 42 C411 42 431 42 431 42 C449 42 463 43 475 45 C487 47 497 50 507 55 C517 61 527 68 535 76 C544 85 553 96 563 108 C563 108 572 119 572 119 C572 119 583 119 583 119 C579 102 576 87 572 71 C569 56 565 39 561 21 C560 15 559 8 557 0 C557 0 549 0 549 0 C549 0 477 0 477 0 C477 0 250 0 250 0 C250 0 166 0 166 0 C166 0 83 0 83 0 C83 0 40 0 40 0 C40 0 40 15 40 15 C40 15 46 15 46 15 C62 15 72 19 76 27 C81 35 83 53 83 80 C83 80 83 487 83 487 C83 515 82 532 77 540 C73 548 62 552 46 552 C46 552 40 552 40 552 C40 552 40 567 40 567 C40 567 83 567 83 567 C83 567 166 567 166 567 C166 567 250 567 250 567 C250 567 484 567 484 567 C484 567 539 567 539 567 C539 567 564 567 564 567 C565 564 565 561 565 557 C565 554 566 550 566 546 C568 528 569 513 569 497 C570 482 571 466 572 448 C572 448 561 448 561 448 C561 448 554 459 554 459 C546 473 537 485 529 493 C521 502 513 509 502 513 C492 518 479 520 465 522 C451 524 434 525 412 525 C412 525 250 525 250 525 C250 525 250 323 250 323 C250 323 364 323 364 323 C384 323 399 323 411 324 C423 326 433 328 440 331 C448 335 454 338 458 344 C463 350 468 358 472 366 L472 366 Z " />
<glyph glyph-name="ebreve" unicode="&#x115;" horiz-adv-x="558" d="M156 645 C156 645 179 658 179 658 C193 635 208 619 226 609 C245 599 270 594 300 594 C331 594 355 598 373 608 C392 618 408 635 421 658 C421 658 444 645 444 645 C413 591 386 553 364 529 C342 506 321 494 300 494 C280 494 258 505 236 528 C214 552 188 591 156 645 L156 645 Z M509 99 C465 62 426 35 390 19 C355 3 318 -5 280 -5 C238 -5 204 -1 174 6 C145 14 122 25 103 41 C85 57 72 78 63 103 C55 129 50 159 50 195 C50 240 54 277 63 308 C73 340 87 364 107 384 C127 404 152 418 184 427 C216 437 255 441 300 441 C338 441 370 437 396 429 C423 421 444 409 460 391 C477 374 488 352 496 324 C504 297 508 264 508 224 C508 224 367 224 367 224 C367 224 210 224 210 224 C215 174 232 140 262 118 C292 97 340 86 405 86 C425 86 441 88 455 92 C469 97 483 105 495 116 C495 116 509 99 509 99 L509 99 Z M367 279 C367 279 367 279 367 279 C367 279 297 268 297 268 C323 273 341 280 351 292 C362 304 368 323 368 348 C368 348 368 351 368 351 C368 369 363 381 351 388 C340 396 320 399 292 399 C262 399 241 388 228 366 C216 344 209 307 209 253 C209 253 367 279 367 279 L367 279 Z " />
<glyph glyph-name="Edotaccent" unicode="&#x116;" horiz-adv-x="632" d="M311 637 C282 637 261 643 249 655 C237 667 231 688 231 717 C231 747 237 767 249 779 C261 791 282 797 311 797 C341 797 361 791 373 779 C385 767 391 747 391 717 C391 688 385 667 373 655 C361 643 341 637 311 637 L311 637 Z M472 366 C472 366 484 366 484 366 C484 366 484 323 484 323 C484 323 484 302 484 302 C484 302 484 282 484 282 C484 282 484 233 484 233 C484 233 472 233 472 233 C468 243 464 252 459 258 C455 265 449 270 441 273 C433 277 423 279 411 280 C399 282 384 282 364 282 C364 282 250 282 250 282 C250 282 250 42 250 42 C250 42 411 42 411 42 C411 42 431 42 431 42 C449 42 463 43 475 45 C487 47 497 50 507 55 C517 61 527 68 535 76 C544 85 553 96 563 108 C563 108 572 119 572 119 C572 119 583 119 583 119 C579 102 576 87 572 71 C569 56 565 39 561 21 C560 15 559 8 557 0 C557 0 549 0 549 0 C549 0 477 0 477 0 C477 0 250 0 250 0 C250 0 166 0 166 0 C166 0 83 0 83 0 C83 0 40 0 40 0 C40 0 40 15 40 15 C40 15 46 15 46 15 C62 15 72 19 76 27 C81 35 83 53 83 80 C83 80 83 487 83 487 C83 515 82 532 77 540 C73 548 62 552 46 552 C46 552 40 552 40 552 C40 552 40 567 40 567 C40 567 83 567 83 567 C83 567 166 567 166 567 C166 567 250 567 250 567 C250 567 484 567 484 567 C484 567 539 567 539 567 C539 567 564 567 564 567 C565 564 565 561 565 557 C565 554 566 550 566 546 C568 528 569 513 569 497 C570 482 571 466 572 448 C572 448 561 448 561 448 C561 448 554 459 554 459 C546 473 537 485 529 493 C521 502 513 509 502 513 C492 518 479 520 465 522 C451 524 434 525 412 525 C412 525 250 525 250 525 C250 525 250 323 250 323 C250 323 364 323 364 323 C384 323 399 323 411 324 C423 326 433 328 440 331 C448 335 454 338 458 344 C463 350 468 358 472 366 L472 366 Z " />
<glyph glyph-name="edotaccent" unicode="&#x117;" horiz-adv-x="558" d="M300 506 C271 506 250 512 238 524 C226 536 220 557 220 586 C220 616 226 636 238 648 C250 660 271 666 300 666 C330 666 350 660 362 648 C374 636 380 616 380 586 C380 557 374 536 362 524 C350 512 330 506 300 506 L300 506 Z M509 99 C465 62 426 35 390 19 C355 3 318 -5 280 -5 C238 -5 204 -1 174 6 C145 14 122 25 103 41 C85 57 72 78 63 103 C55 129 50 159 50 195 C50 240 54 277 63 308 C73 340 87 364 107 384 C127 404 152 418 184 427 C216 437 255 441 300 441 C338 441 370 437 396 429 C423 421 444 409 460 391 C477 374 488 352 496 324 C504 297 508 264 508 224 C508 224 367 224 367 224 C367 224 210 224 210 224 C215 174 232 140 262 118 C292 97 340 86 405 86 C425 86 441 88 455 92 C469 97 483 105 495 116 C495 116 509 99 509 99 L509 99 Z M367 279 C367 279 367 279 367 279 C367 279 297 268 297 268 C323 273 341 280 351 292 C362 304 368 323 368 348 C368 348 368 351 368 351 C368 369 363 381 351 388 C340 396 320 399 292 399 C262 399 241 388 228 366 C216 344 209 307 209 253 C209 253 367 279 367 279 L367 279 Z " />
<glyph glyph-name="Eogonek" unicode="&#x118;" horiz-adv-x="632" d="M472 366 C472 366 484 366 484 366 C484 366 484 323 484 323 C484 323 484 302 484 302 C484 302 484 282 484 282 C484 282 484 233 484 233 C484 233 472 233 472 233 C468 243 464 252 459 258 C455 265 449 270 441 273 C433 277 423 279 411 280 C399 282 384 282 364 282 C364 282 250 282 250 282 C250 282 250 42 250 42 C250 42 411 42 411 42 C411 42 431 42 431 42 C449 42 463 43 475 45 C487 47 497 50 507 55 C517 61 527 68 535 76 C544 85 553 96 563 108 C563 108 572 119 572 119 C572 119 583 119 583 119 C579 102 576 87 572 71 C569 56 565 39 561 21 C560 15 559 8 557 0 C557 0 549 0 549 0 C541 -3 531 -8 519 -16 C508 -24 497 -33 487 -45 C477 -56 469 -68 462 -84 C456 -99 452 -116 452 -134 C452 -156 460 -172 474 -182 C489 -191 514 -196 550 -196 C562 -196 570 -194 577 -192 C585 -189 591 -184 596 -178 C596 -178 607 -191 607 -191 C593 -208 579 -219 565 -227 C551 -234 536 -238 518 -238 C460 -238 420 -231 396 -218 C372 -204 360 -182 360 -150 C360 -135 363 -121 370 -107 C378 -93 387 -80 398 -67 C410 -53 423 -42 437 -31 C452 -19 467 -9 481 0 C481 0 477 0 477 0 C477 0 250 0 250 0 C250 0 166 0 166 0 C166 0 83 0 83 0 C83 0 40 0 40 0 C40 0 40 15 40 15 C40 15 46 15 46 15 C62 15 72 19 76 27 C81 35 83 53 83 80 C83 80 83 487 83 487 C83 515 82 532 77 540 C73 548 62 552 46 552 C46 552 40 552 40 552 C40 552 40 567 40 567 C40 567 83 567 83 567 C83 567 166 567 166 567 C166 567 250 567 250 567 C250 567 484 567 484 567 C484 567 539 567 539 567 C539 567 564 567 564 567 C565 564 565 561 565 557 C565 554 566 550 566 546 C568 528 569 513 569 497 C570 482 571 466 572 448 C572 448 561 448 561 448 C561 448 554 459 554 459 C546 473 537 485 529 493 C521 502 513 509 502 513 C492 518 479 520 465 522 C451 524 434 525 412 525 C412 525 250 525 250 525 C250 525 250 323 250 323 C250 323 364 323 364 323 C384 323 399 323 411 324 C423 326 433 328 440 331 C448 335 454 338 458 344 C463 350 468 358 472 366 L472 366 Z " />
<glyph glyph-name="eogonek" unicode="&#x119;" horiz-adv-x="558" d="M344 2 C336 -1 326 -6 314 -14 C303 -21 292 -30 282 -42 C272 -54 264 -66 257 -82 C251 -97 247 -114 247 -132 C247 -155 255 -171 269 -181 C284 -191 309 -196 345 -196 C357 -196 366 -194 372 -192 C379 -189 385 -184 390 -178 C390 -178 401 -191 401 -191 C387 -208 373 -219 359 -227 C346 -234 330 -238 312 -238 C255 -238 215 -232 191 -218 C167 -204 155 -180 155 -148 C155 -134 158 -121 164 -108 C170 -94 178 -82 188 -70 C199 -57 210 -45 223 -35 C237 -24 250 -14 264 -5 C226 -4 193 0 165 8 C138 16 117 28 99 44 C82 60 70 80 62 105 C54 131 50 161 50 195 C50 240 54 277 63 308 C73 340 87 364 107 384 C127 404 152 418 184 427 C216 437 255 441 300 441 C338 441 370 437 396 429 C423 421 444 409 460 391 C477 374 488 352 496 324 C504 297 508 264 508 224 C508 224 367 224 367 224 C367 224 210 224 210 224 C215 174 232 140 262 118 C292 97 340 86 405 86 C425 86 441 88 455 92 C469 97 483 105 495 116 C495 116 509 99 509 99 C477 73 449 52 422 36 C396 21 370 10 344 3 C344 3 344 2 344 2 L344 2 Z M367 279 C367 279 367 279 367 279 C367 279 297 268 297 268 C323 273 341 280 351 292 C362 304 368 323 368 348 C368 348 368 351 368 351 C368 369 363 381 351 388 C340 396 320 399 292 399 C262 399 241 388 228 366 C216 344 209 307 209 253 C209 253 367 279 367 279 L367 279 Z " />
<glyph glyph-name="Ecaron" unicode="&#x11a;" horiz-adv-x="632" d="M472 366 C472 366 484 366 484 366 C484 366 484 323 484 323 C484 323 484 302 484 302 C484 302 484 282 484 282 C484 282 484 233 484 233 C484 233 472 233 472 233 C468 243 464 252 459 258 C455 265 449 270 441 273 C433 277 423 279 411 280 C399 282 384 282 364 282 C364 282 250 282 250 282 C250 282 250 42 250 42 C250 42 411 42 411 42 C411 42 431 42 431 42 C449 42 463 43 475 45 C487 47 497 50 507 55 C517 61 527 68 535 76 C544 85 553 96 563 108 C563 108 572 119 572 119 C572 119 583 119 583 119 C579 102 576 87 572 71 C569 56 565 39 561 21 C560 15 559 8 557 0 C557 0 549 0 549 0 C549 0 477 0 477 0 C477 0 250 0 250 0 C250 0 166 0 166 0 C166 0 83 0 83 0 C83 0 40 0 40 0 C40 0 40 15 40 15 C40 15 46 15 46 15 C62 15 72 19 76 27 C81 35 83 53 83 80 C83 80 83 487 83 487 C83 515 82 532 77 540 C73 548 62 552 46 552 C46 552 40 552 40 552 C40 552 40 567 40 567 C40 567 83 567 83 567 C83 567 166 567 166 567 C166 567 250 567 250 567 C250 567 484 567 484 567 C484 567 539 567 539 567 C539 567 564 567 564 567 C565 564 565 561 565 557 C565 554 566 550 566 546 C568 528 569 513 569 497 C570 482 571 466 572 448 C572 448 561 448 561 448 C561 448 554 459 554 459 C546 473 537 485 529 493 C521 502 513 509 502 513 C492 518 479 520 465 522 C451 524 434 525 412 525 C412 525 250 525 250 525 C250 525 250 323 250 323 C250 323 364 323 364 323 C384 323 399 323 411 324 C423 326 433 328 440 331 C448 335 454 338 458 344 C463 350 468 358 472 366 L472 366 Z M311 750 C311 750 201 837 201 837 C201 837 186 824 186 824 C186 824 264 664 264 664 C268 657 273 648 279 638 C286 628 297 623 311 623 C326 623 337 628 343 638 C350 649 355 658 359 665 C359 665 437 824 437 824 C437 824 421 837 421 837 C421 837 311 750 311 750 L311 750 Z " />
<glyph glyph-name="ecaron" unicode="&#x11b;" horiz-adv-x="558" d="M509 99 C465 62 426 35 390 19 C355 3 318 -5 280 -5 C238 -5 204 -1 174 6 C145 14 122 25 103 41 C85 57 72 78 63 103 C55 129 50 159 50 195 C50 240 54 277 63 308 C73 340 87 364 107 384 C127 404 152 418 184 427 C216 437 255 441 300 441 C338 441 370 437 396 429 C423 421 444 409 460 391 C477 374 488 352 496 324 C504 297 508 264 508 224 C508 224 367 224 367 224 C367 224 210 224 210 224 C215 174 232 140 262 118 C292 97 340 86 405 86 C425 86 441 88 455 92 C469 97 483 105 495 116 C495 116 509 99 509 99 L509 99 Z M300 619 C300 619 190 706 190 706 C190 706 174 693 174 693 C174 693 252 534 252 534 C256 527 262 519 268 508 C275 498 286 492 300 492 C315 492 326 497 332 507 C339 518 344 527 348 534 C348 534 425 693 425 693 C425 693 410 706 410 706 C410 706 300 619 300 619 L300 619 Z M367 279 C367 279 367 279 367 279 C367 279 297 268 297 268 C323 273 341 280 351 292 C362 304 368 323 368 348 C368 348 368 351 368 351 C368 369 363 381 351 388 C340 396 320 399 292 399 C262 399 241 388 228 366 C216 344 209 307 209 253 C209 253 367 279 367 279 L367 279 Z " />
<glyph glyph-name="Gcircumflex" unicode="&#x11c;" horiz-adv-x="832" d="M504 251 C504 251 504 266 504 266 C504 266 547 266 547 266 C547 266 622 266 622 266 C622 266 697 266 697 266 C697 266 740 266 740 266 C740 266 740 264 740 259 C739 254 739 251 740 251 C740 251 733 251 733 251 C720 252 712 249 706 243 C701 237 698 225 697 205 C697 205 697 186 697 186 C697 186 697 51 697 51 C662 31 625 17 587 8 C549 0 503 -5 447 -5 C372 -5 309 0 255 10 C202 21 160 37 126 60 C93 84 70 114 54 150 C39 187 31 231 31 283 C31 336 38 381 53 417 C69 454 92 483 125 506 C159 530 201 546 254 556 C308 567 372 572 447 572 C471 572 501 570 537 565 C574 561 624 553 687 541 C687 541 684 520 684 520 C684 520 684 520 684 520 C684 520 687 541 687 541 C687 541 694 427 694 427 C692 427 690 427 688 426 C688 426 682 426 682 426 C679 430 676 433 674 436 C672 440 670 443 667 447 C652 469 634 484 612 496 C591 508 562 517 526 523 C508 526 493 527 480 528 C468 530 457 530 447 530 C405 530 370 527 340 517 C311 508 287 494 268 474 C250 454 237 429 228 397 C220 366 215 328 215 283 C215 239 219 202 227 170 C236 139 250 114 268 94 C287 74 311 61 340 51 C370 42 405 37 447 37 C485 37 519 39 547 43 C547 43 547 186 547 186 C547 214 546 232 541 240 C537 248 526 252 510 251 C510 251 504 251 504 251 L504 251 Z M447 684 C447 684 337 597 337 597 C337 597 322 610 322 610 C322 610 400 769 400 769 C404 777 409 786 415 796 C422 806 433 811 447 811 C462 811 473 807 479 796 C486 786 491 777 495 769 C495 769 573 610 573 610 C573 610 557 597 557 597 C557 597 447 684 447 684 L447 684 Z " />
<glyph glyph-name="Gbreve" unicode="&#x11e;" horiz-adv-x="832" d="M303 776 C303 776 326 789 326 789 C340 766 355 750 373 740 C392 730 417 725 447 725 C478 725 502 729 520 739 C539 749 555 766 568 789 C568 789 591 776 591 776 C560 722 533 684 511 660 C489 637 468 625 447 625 C427 625 405 636 383 659 C361 683 335 722 303 776 L303 776 Z M504 251 C504 251 504 266 504 266 C504 266 547 266 547 266 C547 266 622 266 622 266 C622 266 697 266 697 266 C697 266 740 266 740 266 C740 266 740 264 740 259 C739 254 739 251 740 251 C740 251 733 251 733 251 C720 252 712 249 706 243 C701 237 698 225 697 205 C697 205 697 186 697 186 C697 186 697 51 697 51 C662 31 625 17 587 8 C549 0 503 -5 447 -5 C372 -5 309 0 255 10 C202 21 160 37 126 60 C93 84 70 114 54 150 C39 187 31 231 31 283 C31 336 38 381 53 417 C69 454 92 483 125 506 C159 530 201 546 254 556 C308 567 372 572 447 572 C471 572 501 570 537 565 C574 561 624 553 687 541 C687 541 684 520 684 520 C684 520 684 520 684 520 C684 520 687 541 687 541 C687 541 694 427 694 427 C692 427 690 427 688 426 C688 426 682 426 682 426 C679 430 676 433 674 436 C672 440 670 443 667 447 C652 469 634 484 612 496 C591 508 562 517 526 523 C508 526 493 527 480 528 C468 530 457 530 447 530 C405 530 370 527 340 517 C311 508 287 494 268 474 C250 454 237 429 228 397 C220 366 215 328 215 283 C215 239 219 202 227 170 C236 139 250 114 268 94 C287 74 311 61 340 51 C370 42 405 37 447 37 C485 37 519 39 547 43 C547 43 547 186 547 186 C547 214 546 232 541 240 C537 248 526 252 510 251 C510 251 504 251 504 251 L504 251 Z " />
<glyph glyph-name="gbreve" unicode="&#x11f;" horiz-adv-x="490" d="M78 645 C78 645 101 658 101 658 C115 635 130 619 148 609 C167 599 192 594 222 594 C253 594 277 598 295 608 C314 618 330 635 343 658 C343 658 366 645 366 645 C335 591 308 553 286 529 C264 506 243 494 222 494 C202 494 180 505 158 528 C136 552 110 591 78 645 L78 645 Z M491 436 C491 436 491 353 491 353 C491 353 394 350 394 350 C398 334 399 317 399 299 C399 247 387 211 359 189 C332 167 286 156 222 156 C222 156 165 156 165 156 C146 156 136 152 136 143 C136 145 140 146 148 146 C157 147 171 148 191 149 C191 149 287 153 287 153 C354 153 401 148 429 137 C457 127 471 108 471 82 C471 56 466 33 455 14 C445 -4 428 -19 404 -31 C380 -43 350 -51 312 -57 C274 -62 228 -65 174 -65 C114 -65 72 -63 47 -58 C23 -52 10 -44 10 -33 C10 5 21 31 43 47 C38 58 35 71 35 85 C35 112 40 132 51 146 C63 161 81 171 106 176 C85 187 70 201 60 221 C51 241 46 267 46 299 C46 351 60 386 86 408 C113 430 158 441 222 441 C255 441 283 439 305 433 C328 428 346 419 360 407 C360 407 491 436 491 436 L491 436 Z M187 299 C187 259 190 231 195 214 C201 198 210 189 222 189 C235 189 244 198 249 214 C255 231 257 259 257 299 C257 339 255 367 249 383 C244 400 235 408 222 408 C210 408 201 401 195 384 C190 368 187 339 187 299 L187 299 Z M112 10 C112 10 112 10 112 10 C112 6 112 2 111 -2 C111 -6 110 -10 110 -16 C110 -19 116 -20 128 -22 C140 -23 161 -24 191 -24 C254 -24 298 -21 324 -17 C350 -12 363 -4 363 7 C363 9 355 9 337 9 C319 10 289 10 246 10 C246 10 198 8 198 8 C181 7 166 6 151 6 C137 7 124 8 112 10 L112 10 Z " />
<glyph glyph-name="Gdotaccent" unicode="&#x120;" horiz-adv-x="832" d="M447 637 C418 637 397 643 385 655 C373 667 367 688 367 717 C367 747 373 767 385 779 C397 791 418 797 447 797 C477 797 497 791 509 779 C521 767 527 747 527 717 C527 688 521 667 509 655 C497 643 477 637 447 637 L447 637 Z M504 251 C504 251 504 266 504 266 C504 266 547 266 547 266 C547 266 622 266 622 266 C622 266 697 266 697 266 C697 266 740 266 740 266 C740 266 740 264 740 259 C739 254 739 251 740 251 C740 251 733 251 733 251 C720 252 712 249 706 243 C701 237 698 225 697 205 C697 205 697 186 697 186 C697 186 697 51 697 51 C662 31 625 17 587 8 C549 0 503 -5 447 -5 C372 -5 309 0 255 10 C202 21 160 37 126 60 C93 84 70 114 54 150 C39 187 31 231 31 283 C31 336 38 381 53 417 C69 454 92 483 125 506 C159 530 201 546 254 556 C308 567 372 572 447 572 C471 572 501 570 537 565 C574 561 624 553 687 541 C687 541 684 520 684 520 C684 520 684 520 684 520 C684 520 687 541 687 541 C687 541 694 427 694 427 C692 427 690 427 688 426 C688 426 682 426 682 426 C679 430 676 433 674 436 C672 440 670 443 667 447 C652 469 634 484 612 496 C591 508 562 517 526 523 C508 526 493 527 480 528 C468 530 457 530 447 530 C405 530 370 527 340 517 C311 508 287 494 268 474 C250 454 237 429 228 397 C220 366 215 328 215 283 C215 239 219 202 227 170 C236 139 250 114 268 94 C287 74 311 61 340 51 C370 42 405 37 447 37 C485 37 519 39 547 43 C547 43 547 186 547 186 C547 214 546 232 541 240 C537 248 526 252 510 251 C510 251 504 251 504 251 L504 251 Z " />
<glyph glyph-name="gdotaccent" unicode="&#x121;" horiz-adv-x="490" d="M222 506 C193 506 172 512 160 524 C148 536 142 557 142 586 C142 616 148 636 160 648 C172 660 193 666 222 666 C252 666 272 660 284 648 C296 636 302 616 302 586 C302 557 296 536 284 524 C272 512 252 506 222 506 L222 506 Z M491 436 C491 436 491 353 491 353 C491 353 394 350 394 350 C398 334 399 317 399 299 C399 247 387 211 359 189 C332 167 286 156 222 156 C222 156 165 156 165 156 C146 156 136 152 136 143 C136 145 140 146 148 146 C157 147 171 148 191 149 C191 149 287 153 287 153 C354 153 401 148 429 137 C457 127 471 108 471 82 C471 56 466 33 455 14 C445 -4 428 -19 404 -31 C380 -43 350 -51 312 -57 C274 -62 228 -65 174 -65 C114 -65 72 -63 47 -58 C23 -52 10 -44 10 -33 C10 5 21 31 43 47 C38 58 35 71 35 85 C35 112 40 132 51 146 C63 161 81 171 106 176 C85 187 70 201 60 221 C51 241 46 267 46 299 C46 351 60 386 86 408 C113 430 158 441 222 441 C255 441 283 439 305 433 C328 428 346 419 360 407 C360 407 491 436 491 436 L491 436 Z M187 299 C187 259 190 231 195 214 C201 198 210 189 222 189 C235 189 244 198 249 214 C255 231 257 259 257 299 C257 339 255 367 249 383 C244 400 235 408 222 408 C210 408 201 401 195 384 C190 368 187 339 187 299 L187 299 Z M112 10 C112 10 112 10 112 10 C112 6 112 2 111 -2 C111 -6 110 -10 110 -16 C110 -19 116 -20 128 -22 C140 -23 161 -24 191 -24 C254 -24 298 -21 324 -17 C350 -12 363 -4 363 7 C363 9 355 9 337 9 C319 10 289 10 246 10 C246 10 198 8 198 8 C181 7 166 6 151 6 C137 7 124 8 112 10 L112 10 Z " />
<glyph glyph-name="Hcircumflex" unicode="&#x124;" horiz-adv-x="738" d="M699 567 C699 567 699 552 699 552 C699 552 692 552 692 552 C677 552 668 548 663 540 C659 532 656 515 656 487 C656 487 656 80 656 80 C656 53 658 35 662 27 C667 19 677 15 692 15 C692 15 699 15 699 15 C699 15 699 0 699 0 C699 0 656 0 656 0 C656 0 572 0 572 0 C572 0 489 0 489 0 C489 0 446 0 446 0 C446 0 446 15 446 15 C446 15 452 15 452 15 C468 15 478 19 482 27 C487 35 489 53 489 80 C489 80 489 279 489 279 C489 279 250 279 250 279 C250 279 250 80 250 80 C250 53 252 35 256 27 C261 19 271 15 286 15 C286 15 293 15 293 15 C293 15 293 0 293 0 C293 0 250 0 250 0 C250 0 166 0 166 0 C166 0 83 0 83 0 C83 0 40 0 40 0 C40 0 40 15 40 15 C40 15 46 15 46 15 C62 15 72 19 76 27 C81 35 83 53 83 80 C83 80 83 487 83 487 C83 515 82 532 77 540 C73 548 62 552 46 552 C46 552 40 552 40 552 C40 552 40 567 40 567 C40 567 83 567 83 567 C83 567 166 567 166 567 C166 567 250 567 250 567 C250 567 293 567 293 567 C293 567 293 552 293 552 C293 552 286 552 286 552 C271 552 262 548 257 540 C253 532 250 515 250 487 C250 487 250 321 250 321 C250 321 489 321 489 321 C489 321 489 487 489 487 C489 515 488 532 483 540 C479 548 468 552 452 552 C452 552 446 552 446 552 C446 552 446 567 446 567 C446 567 489 567 489 567 C489 567 572 567 572 567 C572 567 656 567 656 567 C656 567 699 567 699 567 L699 567 Z M369 684 C369 684 259 597 259 597 C259 597 244 610 244 610 C244 610 322 769 322 769 C326 777 331 786 337 796 C344 806 355 811 369 811 C385 811 396 807 402 796 C409 786 414 777 417 769 C417 769 495 610 495 610 C495 610 479 597 479 597 C479 597 369 684 369 684 L369 684 Z " />
<glyph glyph-name="Itilde" unicode="&#x128;" horiz-adv-x="332" d="M24 662 C24 662 -1 662 -1 662 C-1 717 6 756 20 778 C35 801 60 812 94 812 C112 812 127 809 140 802 C154 796 166 789 178 781 C191 773 204 766 217 759 C231 753 246 749 263 749 C280 749 292 754 298 763 C305 773 308 788 308 809 C308 809 333 809 333 809 C333 751 326 709 310 685 C295 661 269 649 231 649 C214 649 199 653 185 659 C172 666 159 672 146 680 C134 688 122 696 108 702 C95 709 80 712 62 712 C48 712 39 709 33 701 C27 693 24 680 24 662 L24 662 Z M293 567 C293 567 293 552 293 552 C293 552 286 552 286 552 C271 552 262 548 257 540 C253 532 250 515 250 487 C250 487 250 80 250 80 C250 53 252 35 256 27 C261 19 271 15 286 15 C286 15 293 15 293 15 C293 15 293 0 293 0 C293 0 250 0 250 0 C250 0 166 0 166 0 C166 0 83 0 83 0 C83 0 40 0 40 0 C40 0 40 15 40 15 C40 15 46 15 46 15 C62 15 72 19 76 27 C81 35 83 53 83 80 C83 80 83 487 83 487 C83 515 82 532 77 540 C73 548 62 552 46 552 C46 552 40 552 40 552 C40 552 40 567 40 567 C40 567 83 567 83 567 C83 567 166 567 166 567 C166 567 250 567 250 567 C250 567 293 567 293 567 L293 567 Z " />
<glyph glyph-name="itilde" unicode="&#x129;" horiz-adv-x="326" d="M21 531 C21 531 -4 531 -4 531 C-4 586 3 625 17 647 C32 670 57 681 91 681 C109 681 124 679 137 672 C151 666 163 658 175 650 C188 642 201 636 214 629 C228 623 243 619 260 619 C277 619 289 623 295 632 C302 642 305 657 305 679 C305 679 330 679 330 679 C330 621 323 579 307 555 C292 531 265 519 227 519 C210 519 195 522 181 528 C168 535 156 542 143 550 C131 558 118 565 104 571 C91 578 76 581 58 581 C45 581 36 578 30 570 C24 562 21 549 21 531 L21 531 Z M238 0 C238 0 88 0 88 0 C88 10 86 14 82 14 C78 15 69 15 54 15 C54 15 45 15 45 15 C45 15 45 0 45 0 C45 0 88 0 88 0 C88 0 88 313 88 313 C88 325 89 333 88 338 C88 344 87 348 86 350 C86 353 85 355 83 355 C81 356 79 357 77 358 C77 358 52 377 52 377 C52 377 52 387 52 387 C52 387 230 441 230 441 C230 441 238 441 238 441 C238 441 238 356 238 356 C238 356 238 0 238 0 C238 10 240 14 244 14 C248 15 258 15 273 15 C273 15 281 15 281 15 C281 15 281 0 281 0 C281 0 238 0 238 0 L238 0 Z " />
<glyph glyph-name="Imacron" unicode="&#x12a;" horiz-adv-x="332" d="M13 663 C13 663 13 746 13 746 C13 746 319 746 319 746 C319 746 319 663 319 663 C319 663 13 663 13 663 L13 663 Z M293 567 C293 567 293 552 293 552 C293 552 286 552 286 552 C271 552 262 548 257 540 C253 532 250 515 250 487 C250 487 250 80 250 80 C250 53 252 35 256 27 C261 19 271 15 286 15 C286 15 293 15 293 15 C293 15 293 0 293 0 C293 0 250 0 250 0 C250 0 166 0 166 0 C166 0 83 0 83 0 C83 0 40 0 40 0 C40 0 40 15 40 15 C40 15 46 15 46 15 C62 15 72 19 76 27 C81 35 83 53 83 80 C83 80 83 487 83 487 C83 515 82 532 77 540 C73 548 62 552 46 552 C46 552 40 552 40 552 C40 552 40 567 40 567 C40 567 83 567 83 567 C83 567 166 567 166 567 C166 567 250 567 250 567 C250 567 293 567 293 567 L293 567 Z " />
<glyph glyph-name="imacron" unicode="&#x12b;" horiz-adv-x="326" d="M10 532 C10 532 10 616 10 616 C10 616 316 616 316 616 C316 616 316 532 316 532 C316 532 10 532 10 532 L10 532 Z M238 0 C238 0 88 0 88 0 C88 10 86 14 82 14 C78 15 69 15 54 15 C54 15 45 15 45 15 C45 15 45 0 45 0 C45 0 88 0 88 0 C88 0 88 313 88 313 C88 325 89 333 88 338 C88 344 87 348 86 350 C86 353 85 355 83 355 C81 356 79 357 77 358 C77 358 52 377 52 377 C52 377 52 387 52 387 C52 387 230 441 230 441 C230 441 238 441 238 441 C238 441 238 356 238 356 C238 356 238 0 238 0 C238 10 240 14 244 14 C248 15 258 15 273 15 C273 15 281 15 281 15 C281 15 281 0 281 0 C281 0 238 0 238 0 L238 0 Z " />
<glyph glyph-name="Ibreve" unicode="&#x12c;" horiz-adv-x="332" d="M22 776 C22 776 45 789 45 789 C59 766 74 750 92 740 C111 730 136 725 166 725 C198 725 222 729 240 739 C258 749 274 766 287 789 C287 789 311 776 311 776 C280 722 253 684 231 660 C209 637 188 625 166 625 C146 625 124 636 102 659 C80 683 54 722 22 776 L22 776 Z M293 567 C293 567 293 552 293 552 C293 552 286 552 286 552 C271 552 262 548 257 540 C253 532 250 515 250 487 C250 487 250 80 250 80 C250 53 252 35 256 27 C261 19 271 15 286 15 C286 15 293 15 293 15 C293 15 293 0 293 0 C293 0 250 0 250 0 C250 0 166 0 166 0 C166 0 83 0 83 0 C83 0 40 0 40 0 C40 0 40 15 40 15 C40 15 46 15 46 15 C62 15 72 19 76 27 C81 35 83 53 83 80 C83 80 83 487 83 487 C83 515 82 532 77 540 C73 548 62 552 46 552 C46 552 40 552 40 552 C40 552 40 567 40 567 C40 567 83 567 83 567 C83 567 166 567 166 567 C166 567 250 567 250 567 C250 567 293 567 293 567 L293 567 Z " />
</font>
</svg>
