<?xml version="1.0" encoding="UTF-8"?>
<svg xmlns="http://www.w3.org/2000/svg" xmlns:xlink="http://www.w3.org/1999/xlink" version="1.2" >
<font id="Aaron Light">
<font-face  font-family="Aaron" units-per-em="1024" ascent="853" descent="-100" font-style="normal" font-weight="300" font-stretch="normal" cap-height="567" x-height="436" underline-position="0" underline-thickness="0" />
<missing-glyph  horiz-adv-x="472" d="M0 700 L432 700 L432 0 L0 0 L0 700 L0 700 Z M50 50 L382 50 L382 650 L50 650 L50 50 L50 50 Z " />
<glyph glyph-name="NULL" d="" />
<glyph glyph-name="CR" unicode="&#xd;" horiz-adv-x="256" d="" />
<glyph glyph-name="space" unicode="&#x20;" horiz-adv-x="251" d="" />
<glyph glyph-name="exclam" unicode="&#x21;" horiz-adv-x="183" d="M96 -5 C83 -5 74 -2 68 3 C63 9 60 18 60 31 C60 45 63 54 68 59 C74 65 83 67 96 67 C110 67 119 65 124 59 C130 54 132 45 132 31 C132 18 130 9 124 3 C119 -2 110 -5 96 -5 L96 -5 Z M123 527 L99 142 L93 142 L62 527 C61 544 63 556 67 562 C72 569 81 572 93 572 C105 572 114 569 118 562 C123 556 125 544 123 527 L123 527 Z " />
<glyph glyph-name="quotedbl" unicode="&#x22;" horiz-adv-x="237" d="M134 567 L197 567 L170 378 L161 378 L134 567 L134 567 Z M40 567 L104 567 L76 378 L67 378 L40 567 L40 567 Z " />
<glyph glyph-name="numbersign" unicode="&#x23;" horiz-adv-x="533" d="M387 617 L406 617 L377 415 L513 415 L508 377 L372 377 L349 219 L477 219 L472 181 L344 181 L318 0 L299 0 L325 181 L175 181 L149 0 L129 0 L155 181 L19 181 L25 219 L160 219 L183 377 L50 377 L55 415 L188 415 L217 617 L236 617 L208 415 L358 415 L387 617 L387 617 Z M202 377 L180 219 L330 219 L353 377 L202 377 L202 377 Z " />
<glyph glyph-name="dollar" unicode="&#x24;" horiz-adv-x="512" d="M273 642 L290 642 L290 572 C325 572 352 571 374 569 C396 568 415 566 431 563 L437 472 L430 472 C429 472 427 471 424 471 C421 477 418 481 414 485 C411 489 408 494 404 499 C391 518 378 532 364 540 C351 549 335 554 315 556 C311 557 307 557 303 557 C299 557 295 557 290 557 L290 302 C354 288 399 269 426 245 C454 221 467 188 467 146 C467 94 455 56 427 32 C400 9 354 -3 290 -5 L290 -75 L273 -75 L273 -5 L210 -5 L210 -75 L193 -75 L193 -4 C155 -3 125 -3 101 -2 C78 0 59 2 44 4 L46 14 L46 14 L44 4 L38 95 L45 95 C48 95 50 96 51 96 C55 93 57 90 59 86 C61 83 64 80 66 76 C81 56 98 40 117 30 C137 20 162 14 193 10 L193 272 C142 286 106 304 84 325 C62 347 51 375 51 411 C51 463 61 501 83 525 C105 550 142 565 193 570 L193 642 L210 642 L210 571 C216 572 220 572 226 572 C232 572 238 572 244 572 L273 572 L273 642 L273 642 Z M210 322 L210 322 C228 317 249 312 273 306 L273 558 L241 558 C236 558 232 558 226 558 C221 558 216 558 210 557 L210 322 L210 322 Z M193 327 L193 555 C156 550 130 538 114 519 C98 501 90 472 90 434 C90 410 98 390 114 372 C130 355 157 340 193 327 L193 327 Z M210 268 L210 10 C220 10 230 9 240 9 C251 9 262 9 273 9 L273 253 C267 255 262 255 255 257 C249 259 242 261 235 262 C231 264 226 265 222 265 C218 266 214 267 210 268 L210 268 Z M290 249 L290 9 C340 11 375 19 396 37 C418 55 428 84 428 124 C428 155 419 180 397 199 C376 219 340 235 290 249 L290 249 Z " />
<glyph glyph-name="ampersand" unicode="&#x26;" horiz-adv-x="688" d="M613 338 L613 323 L605 323 C595 323 587 324 580 324 C574 325 569 324 565 319 C562 315 560 307 558 293 C557 280 556 260 556 232 L556 206 C556 137 538 86 501 53 C526 29 545 13 561 4 C577 -4 592 -8 604 -9 C617 -9 629 -7 641 -3 C654 2 670 6 688 8 L688 0 C664 -4 644 -8 626 -14 C609 -20 592 -22 576 -23 C560 -23 545 -21 527 -14 C510 -6 489 8 465 29 C442 17 414 9 380 3 C346 -2 306 -5 260 -5 C184 -5 130 6 98 28 C66 50 50 88 50 140 C50 186 62 222 86 250 C111 278 152 302 209 322 C200 336 193 348 187 358 C181 368 178 378 174 386 C171 395 169 403 168 410 C168 418 167 426 167 434 C167 484 178 519 200 540 C222 562 259 572 311 572 C364 572 401 566 423 550 C445 535 456 509 456 473 C456 437 442 407 412 385 C382 363 332 345 262 330 C273 316 286 300 300 282 C315 264 332 244 351 220 C381 184 407 154 430 128 C454 102 474 81 491 63 C511 79 524 98 532 121 C541 145 545 173 545 206 L545 232 C545 260 546 279 544 292 C543 306 542 314 538 318 C535 323 531 325 525 324 C519 324 512 323 502 323 L493 323 L493 338 L613 338 L613 338 Z M257 337 L257 337 C315 350 356 366 380 386 C405 407 417 435 417 471 C417 504 410 526 393 540 C377 554 348 561 308 561 C271 561 245 553 229 537 C214 521 206 494 206 456 C206 448 206 441 207 433 C209 425 210 418 214 408 C218 399 224 390 230 378 C237 367 246 353 257 337 L257 337 Z M451 41 L451 41 C434 57 414 77 392 101 C370 126 345 156 315 190 C292 218 273 242 256 262 C240 282 226 300 214 315 C172 300 142 280 124 256 C106 232 97 200 97 159 C97 108 111 72 140 50 C170 28 219 17 288 17 C324 17 354 18 381 22 C409 26 432 33 451 41 L451 41 Z " />
<glyph glyph-name="quoteright" unicode="&#x27;" horiz-adv-x="143" d="M40 567 L104 567 L76 378 L67 378 L40 567 L40 567 Z " />
<glyph glyph-name="parenleft" unicode="&#x28;" horiz-adv-x="203" d="M187 597 L194 592 C177 572 162 553 150 535 C138 517 129 497 121 475 C113 453 108 428 104 397 C101 367 99 328 99 282 C99 236 101 199 104 168 C108 138 112 111 120 89 C128 67 138 48 150 30 C162 13 177 -6 194 -27 L187 -33 C165 -5 146 19 129 41 C113 63 99 85 89 108 C79 132 72 157 67 184 C63 212 60 244 60 282 C60 321 63 354 67 381 C72 409 79 434 89 456 C99 479 112 501 128 523 C145 545 165 570 187 597 L187 597 Z " />
<glyph glyph-name="parenright" unicode="&#x29;" horiz-adv-x="203" d="M10 -33 L4 -27 C22 -6 35 13 47 30 C59 48 68 67 76 89 C84 111 89 137 93 167 C97 198 99 236 99 282 C99 328 98 366 94 396 C90 427 85 453 77 475 C69 497 60 516 48 534 C36 552 22 572 4 592 L10 597 C34 569 53 545 69 523 C85 501 98 480 108 456 C118 433 125 408 130 380 C136 353 138 320 138 282 C138 244 137 212 131 184 C126 157 118 133 108 109 C98 86 85 64 69 42 C53 20 34 -5 10 -33 L10 -33 Z " />
<glyph glyph-name="asterisk" unicode="&#x2a;" horiz-adv-x="268" d="M147 447 L38 494 C27 499 24 507 29 517 C36 527 44 528 54 520 L149 450 L135 567 C133 580 138 586 150 586 C162 586 167 580 165 567 L151 450 L246 520 C258 528 266 527 271 517 C278 507 275 499 262 494 L153 447 L262 400 C275 396 278 388 271 377 C266 367 258 366 246 374 L151 444 L165 327 C167 314 162 307 150 307 C138 307 133 314 135 327 L149 444 L54 374 C44 366 36 367 29 377 C24 388 27 396 38 400 L147 447 L147 447 Z " />
<glyph glyph-name="plus" unicode="&#x2b;" horiz-adv-x="503" d="M237 395 L262 395 L262 232 L424 232 L424 210 L262 210 L262 46 L237 46 L237 210 L75 210 L75 232 L237 232 L237 395 L237 395 Z " />
<glyph glyph-name="comma" unicode="&#x2c;" horiz-adv-x="188" d="M120 0 L120 0 C133 -12 139 -14 139 -6 C139 -28 134 -46 124 -60 C114 -74 98 -86 74 -98 L70 -90 C84 -83 94 -75 100 -67 C106 -58 109 -46 109 -31 C109 -37 106 -38 99 -33 C93 -27 81 -15 64 3 L67 5 C63 11 60 19 60 31 C60 45 63 54 68 59 C74 65 83 67 96 67 C110 67 119 65 124 59 C130 54 132 45 132 31 C132 17 128 6 120 0 L120 0 Z " />
<glyph glyph-name="hyphen" unicode="&#x2d;" horiz-adv-x="287" d="M20 186 L20 224 L268 224 L268 186 L20 186 L20 186 Z " />
<glyph glyph-name="period" unicode="&#x2e;" horiz-adv-x="221" d="M125 -5 C112 -5 103 -2 97 3 C92 9 89 18 89 31 C89 45 92 54 97 59 C103 65 112 67 125 67 C139 67 148 65 153 59 C159 54 161 45 161 31 C161 18 159 9 153 3 C148 -2 139 -5 125 -5 L125 -5 Z " />
<glyph glyph-name="slash" unicode="&#x2f;" horiz-adv-x="332" d="M0 -32 L310 617 L332 617 L22 -32 L0 -32 L0 -32 Z " />
<glyph glyph-name="zero" unicode="0" horiz-adv-x="541" d="M271 6 C301 6 327 9 347 17 C368 25 384 37 397 54 C411 72 420 94 426 120 C432 147 435 180 435 218 C435 257 432 290 426 316 C420 343 412 364 398 381 C385 399 368 410 347 418 C327 426 301 430 271 430 C241 430 217 427 195 419 C174 411 158 400 144 382 C131 365 121 343 115 316 C109 290 106 257 106 218 C106 180 109 147 115 120 C121 94 130 73 143 55 C157 38 173 26 194 18 C216 10 241 6 271 6 L271 6 Z M50 218 C50 259 54 293 62 321 C70 350 82 372 100 390 C118 408 141 421 169 429 C197 437 231 441 271 441 C311 441 344 437 372 429 C400 421 422 409 440 391 C458 373 471 351 479 322 C487 294 491 259 491 218 C491 178 487 144 479 115 C471 87 459 64 441 46 C423 28 401 15 373 7 C345 -1 311 -5 271 -5 C231 -5 197 -1 169 7 C141 15 119 27 101 45 C83 63 70 86 62 114 C54 143 50 178 50 218 L50 218 Z " />
<glyph glyph-name="one" unicode="1" horiz-adv-x="246" d="M191 436 L191 421 L185 421 C170 421 160 418 155 410 C151 402 148 384 148 356 L148 80 C148 52 151 35 155 27 C160 19 170 15 185 15 L191 15 L191 0 L148 0 L123 0 L98 0 L55 0 L55 15 L61 15 C77 15 87 19 91 27 C96 35 98 53 98 80 L98 356 C98 384 97 401 92 409 C88 417 77 421 61 421 L55 421 L55 436 L98 436 L123 436 L148 436 L191 436 L191 436 Z " />
<glyph glyph-name="two" unicode="2" horiz-adv-x="488" d="M454 25 L451 0 L25 0 L25 11 C89 44 142 69 186 87 C231 106 266 123 294 140 C322 158 343 177 355 198 C368 220 374 250 374 288 C374 330 365 359 345 377 C325 395 292 404 244 404 C200 404 167 397 141 379 C116 362 95 332 78 290 L71 294 C93 348 119 385 149 407 C179 430 219 441 269 441 C328 441 369 431 393 410 C418 390 430 355 430 305 C430 271 426 245 414 223 C403 202 386 184 361 166 C337 149 306 133 267 115 C229 98 182 76 127 50 L376 50 C392 50 404 50 412 51 C421 53 428 54 432 57 C437 61 439 64 441 70 C443 76 445 84 446 93 L461 93 C460 81 460 69 458 59 C457 49 456 38 454 25 L454 25 L454 25 Z " />
<glyph glyph-name="three" unicode="3" horiz-adv-x="462" d="M26 -47 L25 -38 C86 -35 138 -31 180 -23 C223 -15 258 -5 284 8 C311 22 330 37 342 56 C354 76 360 98 360 124 C360 158 348 180 322 194 C296 208 252 215 190 215 C179 215 169 215 159 214 C150 214 141 212 133 210 C130 209 126 209 122 207 C118 206 115 205 111 203 L111 211 C139 221 160 229 173 233 C187 238 195 241 199 241 C241 257 271 272 289 286 C308 301 317 317 317 333 C317 359 308 377 290 388 C272 400 242 405 199 405 C157 405 123 398 95 383 C67 369 41 344 16 308 L11 312 C43 360 76 393 108 412 C141 432 180 441 224 441 C276 441 312 435 334 421 C356 407 367 384 367 350 C367 331 356 314 334 296 C312 279 276 261 225 241 C293 240 341 231 369 213 C398 195 412 167 412 127 C412 99 405 76 391 55 C377 35 355 18 324 4 C294 -10 255 -21 205 -29 C156 -37 96 -43 26 -47 L26 -47 Z " />
<glyph glyph-name="four" unicode="4" horiz-adv-x="499" d="M50 22 L326 22 L326 364 L326 364 L50 22 L50 22 Z M326 0 L32 0 L31 0 L20 0 L20 9 L368 441 L376 441 L376 426 L376 22 L489 22 L489 0 L376 0 L376 -33 L326 -33 L326 0 L326 0 Z " />
<glyph glyph-name="five" unicode="5" horiz-adv-x="446" d="M391 436 L369 383 L99 383 L103 436 L85 235 L160 235 C204 235 240 234 270 229 C300 225 325 218 343 208 C362 198 376 187 384 171 C393 156 397 137 397 115 C397 89 391 68 377 49 C364 31 344 16 314 3 C285 -9 247 -19 200 -26 C154 -32 97 -37 31 -40 L31 -30 C89 -28 136 -25 176 -19 C216 -13 249 -5 274 5 C300 16 318 29 329 44 C341 60 346 78 346 99 C346 131 330 152 298 165 C266 179 212 185 134 185 L81 185 L68 185 L88 436 L103 436 L311 436 C325 436 336 436 345 437 C355 439 361 441 367 443 C373 446 378 450 381 454 C385 459 388 465 391 473 L394 479 L409 479 C406 471 404 464 400 457 C397 451 394 444 391 436 L391 436 L391 436 Z " />
<glyph glyph-name="six" unicode="6" horiz-adv-x="576" d="M513 652 L514 643 C445 641 386 633 337 618 C289 604 249 583 218 553 C188 524 165 488 151 442 C137 397 130 342 130 278 C130 274 130 269 130 265 C130 261 130 257 129 253 C146 296 169 327 200 345 C232 364 273 373 325 373 C362 373 392 370 418 363 C444 357 465 346 481 331 C497 317 509 298 516 274 C524 250 527 222 527 188 C529 154 527 124 519 99 C511 75 499 55 480 39 C462 24 437 14 407 6 C377 -1 341 -5 297 -5 C257 -5 222 -1 193 9 C165 19 141 34 123 55 C105 77 93 104 84 138 C76 172 71 213 71 261 C71 329 79 387 95 435 C111 483 137 523 172 554 C208 586 253 608 309 624 C365 640 433 650 513 652 L513 652 Z M127 210 L127 210 C127 174 131 144 137 118 C144 92 154 71 168 55 C182 39 200 28 222 20 C244 13 271 9 303 9 C369 9 414 22 440 49 C466 77 478 122 474 185 C474 249 462 293 438 319 C414 346 374 359 316 359 C264 359 222 348 192 325 C162 303 141 264 127 210 L127 210 Z " />
<glyph glyph-name="seven" unicode="7" horiz-adv-x="444" d="M27 409 L27 409 L27 411 L27 411 L30 436 L431 436 L435 431 C393 355 353 278 312 201 C272 125 231 48 189 -30 L134 -30 L402 385 L104 385 C77 385 60 384 51 379 C43 375 37 364 35 348 L35 342 L20 342 C22 350 22 358 22 364 C23 371 24 378 25 385 L24 385 L27 409 L27 409 Z " />
<glyph glyph-name="eight" unicode="8" horiz-adv-x="545" d="M331 301 L331 301 C365 310 388 325 402 346 C416 368 423 398 423 436 C423 482 413 515 390 533 C368 552 329 561 275 561 C223 561 187 553 165 535 C143 517 132 487 132 444 C132 406 143 378 165 358 C187 338 225 323 278 313 C288 311 297 309 305 307 C314 305 323 303 331 301 L331 301 Z M339 299 L339 299 C396 284 436 266 460 242 C484 219 496 188 496 150 C496 122 493 99 485 79 C477 59 465 44 447 31 C430 19 408 10 380 4 C353 -2 320 -5 280 -5 C241 -5 208 -2 180 3 C153 9 131 17 113 28 C96 40 84 55 76 73 C68 92 64 114 64 140 C64 184 75 216 96 238 C118 260 153 274 203 279 C163 293 135 310 117 333 C100 357 91 387 91 425 C91 479 105 516 133 538 C162 561 210 572 278 572 C346 572 394 563 422 543 C451 524 465 491 465 444 C465 402 457 370 437 347 C418 325 385 309 339 299 L339 299 Z M212 276 L212 276 C176 271 151 258 135 238 C119 218 111 188 111 148 C111 97 124 61 150 39 C176 17 221 6 283 6 C344 6 386 16 411 35 C437 55 449 87 449 133 C449 167 436 193 408 213 C380 233 334 250 268 262 C258 264 248 266 238 268 C229 271 220 274 212 276 L212 276 Z " />
<glyph glyph-name="nine" unicode="9" horiz-adv-x="576" d="M63 -215 L63 -207 C133 -204 192 -196 240 -182 C289 -167 329 -146 359 -117 C390 -87 412 -51 426 -6 C440 40 447 94 447 158 C447 163 447 167 447 171 C448 176 448 181 448 185 C432 141 409 110 377 91 C346 73 304 64 252 64 C216 64 185 67 159 73 C133 80 112 91 96 105 C80 120 69 138 61 162 C54 186 50 215 50 248 C48 284 51 313 58 337 C66 362 78 382 96 397 C115 413 139 423 169 430 C200 438 237 441 280 441 C321 441 356 437 384 427 C413 417 436 403 454 381 C472 360 485 332 493 298 C501 264 505 223 505 175 C505 107 498 49 482 1 C466 -47 441 -85 405 -117 C370 -148 325 -171 268 -187 C212 -203 143 -212 63 -215 L63 -215 Z M450 228 L450 228 C450 300 437 351 409 381 C382 412 337 427 274 427 C209 427 163 414 137 387 C111 361 100 315 103 251 C103 189 115 144 139 117 C163 91 204 77 260 77 C314 77 355 89 385 112 C415 136 437 174 450 228 L450 228 Z " />
<glyph glyph-name="colon" unicode="&#x3a;" horiz-adv-x="221" d="M125 322 C112 322 103 325 97 330 C92 336 89 345 89 358 C89 372 92 381 97 386 C103 392 112 394 125 394 C139 394 148 392 153 386 C159 381 161 372 161 358 C161 345 159 336 153 330 C148 325 139 322 125 322 L125 322 Z M125 -5 C112 -5 103 -2 97 3 C92 9 89 18 89 31 C89 45 92 54 97 59 C103 65 112 67 125 67 C139 67 148 65 153 59 C159 54 161 45 161 31 C161 18 159 9 153 3 C148 -2 139 -5 125 -5 L125 -5 Z " />
<glyph glyph-name="semicolon" unicode="&#x3b;" horiz-adv-x="188" d="M96 322 C83 322 74 325 68 330 C63 336 60 345 60 358 C60 372 63 381 68 386 C74 392 83 394 96 394 C110 394 119 392 124 386 C130 381 132 372 132 358 C132 345 130 336 124 330 C119 325 110 322 96 322 L96 322 Z M120 0 L120 0 C133 -12 139 -14 139 -6 C139 -28 134 -46 124 -60 C114 -74 98 -86 74 -98 L70 -90 C84 -83 94 -75 100 -67 C106 -58 109 -46 109 -31 C109 -37 106 -38 99 -33 C93 -27 81 -15 64 3 L67 5 C63 11 60 19 60 31 C60 45 63 54 68 59 C74 65 83 67 96 67 C110 67 119 65 124 59 C130 54 132 45 132 31 C132 17 128 6 120 0 L120 0 Z " />
<glyph glyph-name="less" unicode="&#x3c;" horiz-adv-x="541" d="M467 436 L467 411 L64 243 L467 75 L467 50 L46 228 L40 231 L40 255 L46 258 L467 436 L467 436 Z " />
<glyph glyph-name="equal" unicode="&#x3d;" horiz-adv-x="533" d="M78 179 L464 179 L464 157 L78 157 L78 179 L78 179 Z M78 279 L464 279 L464 257 L78 257 L78 279 L78 279 Z " />
<glyph glyph-name="greater" unicode="&#x3e;" horiz-adv-x="536" d="M468 243 L75 411 L75 436 L486 258 L496 253 L496 233 L486 228 L75 50 L75 75 L468 243 L468 243 Z " />
<glyph glyph-name="question" unicode="&#x3f;" horiz-adv-x="372" d="M142 -5 C129 -5 120 -2 114 3 C109 9 106 18 106 31 C106 45 109 54 114 59 C120 65 129 67 142 67 C156 67 165 65 170 59 C176 54 178 45 178 31 C178 18 176 9 170 3 C165 -2 156 -5 142 -5 L142 -5 Z M127 309 C127 315 131 317 137 317 L172 317 C212 317 242 319 262 323 C283 328 297 334 307 340 C317 347 323 354 324 362 C326 370 326 378 326 385 C326 439 313 477 285 499 C257 522 210 533 142 533 C134 533 127 532 121 527 C116 523 112 519 106 513 C101 508 96 504 90 499 C85 495 78 492 69 492 C51 492 41 497 41 505 C41 530 47 547 60 557 C74 567 96 572 127 572 C165 572 197 570 224 562 C252 555 274 544 290 528 C307 513 318 494 326 469 C334 445 338 415 338 379 C338 369 338 358 336 346 C335 334 330 323 320 313 C311 303 296 296 276 289 C256 283 227 279 189 279 L154 279 L145 137 L138 137 L127 309 L127 309 Z " />
<glyph glyph-name="at" unicode="&#x40;" horiz-adv-x="1148" d="M1053 0 L1070 0 C1049 -46 1025 -85 996 -117 C968 -149 935 -175 895 -195 C856 -215 812 -228 760 -238 C709 -247 650 -252 582 -252 C487 -252 407 -243 339 -226 C272 -208 217 -181 175 -143 C133 -104 104 -54 84 6 C65 67 55 141 55 227 C55 315 65 389 83 449 C102 510 131 559 173 597 C215 636 268 664 334 681 C400 699 480 707 574 707 C668 707 747 700 813 685 C879 671 932 647 974 614 C1016 582 1047 540 1065 488 C1084 436 1093 373 1093 299 C1093 243 1089 195 1080 155 C1072 116 1058 85 1038 59 C1019 34 994 16 963 4 C933 -7 895 -13 851 -13 C779 -13 727 -3 694 17 C662 37 646 71 647 117 C629 80 607 53 579 37 C552 21 517 13 474 13 C412 13 367 25 340 49 C314 74 300 115 300 172 C300 218 305 257 315 289 C325 322 341 348 363 368 C386 389 414 404 450 413 C486 423 530 427 580 427 C620 427 649 422 668 408 C688 395 699 373 702 341 L725 419 L772 419 L709 200 C689 130 690 79 713 49 C737 19 786 4 860 4 C896 4 926 10 950 20 C975 31 994 47 1010 71 C1026 95 1037 126 1044 163 C1052 201 1055 246 1055 299 C1055 371 1047 431 1029 481 C1012 531 985 572 946 603 C908 635 859 657 797 671 C736 686 662 693 574 693 C488 693 415 686 353 668 C292 651 243 625 204 587 C166 550 138 503 120 443 C103 384 94 312 94 227 C94 143 102 72 120 12 C138 -47 166 -94 205 -132 C245 -169 294 -195 356 -213 C418 -230 494 -239 582 -239 C648 -239 704 -234 754 -226 C804 -217 847 -204 885 -185 C923 -165 955 -141 982 -111 C1010 -80 1033 -43 1053 0 L1053 0 Z M694 310 L693 310 C693 348 685 374 667 390 C650 406 620 414 578 414 C538 414 504 411 475 402 C447 394 424 380 406 361 C388 343 375 319 367 289 C359 260 355 224 355 182 C355 131 366 95 388 73 C410 52 448 41 500 41 C542 41 576 53 600 77 C625 102 646 143 662 200 L694 310 L694 310 Z " />
<glyph glyph-name="A" unicode="A" horiz-adv-x="588" d="M579 15 L579 0 L545 0 L515 0 L484 0 L428 0 L428 15 L435 15 C454 15 463 18 465 26 C467 34 462 52 450 80 L450 80 L398 203 L144 203 L92 70 C84 47 81 32 85 25 C89 19 100 15 118 15 L127 15 L127 0 L64 0 L54 0 L45 0 L8 0 L8 15 L15 15 C23 15 30 15 35 17 C41 19 45 23 49 27 C54 32 58 38 62 46 C67 55 72 66 77 80 L77 80 L278 580 L292 580 L516 68 C526 46 534 32 541 25 C549 19 559 15 573 15 L579 15 L579 15 Z M393 216 L266 514 L149 217 L393 216 L393 216 Z " />
<glyph glyph-name="B" unicode="B" horiz-adv-x="568" d="M51 552 L51 567 L94 567 L122 567 L150 567 L297 567 C369 567 420 558 450 538 C481 518 496 485 496 437 C496 397 487 367 465 346 C444 326 409 312 360 304 C428 298 476 284 505 260 C535 237 549 202 549 156 C549 128 545 104 537 84 C529 64 516 49 498 36 C480 24 457 15 428 9 C400 3 365 0 323 0 L150 0 L122 0 L94 0 L51 0 L51 15 L58 15 C74 15 83 19 87 27 C92 35 94 53 94 80 L94 487 C94 515 93 532 88 540 C84 548 74 552 58 552 L51 552 L51 552 Z M297 308 L297 308 C349 311 385 322 407 342 C429 362 440 394 440 437 C440 479 430 508 408 526 C386 544 349 553 297 553 L150 553 L150 307 L210 307 L270 308 L297 308 L297 308 Z M150 297 L150 14 L317 14 C380 14 424 24 450 46 C477 68 490 105 490 156 C490 182 486 203 477 221 C469 239 455 254 436 265 C418 277 393 284 363 289 C333 295 297 297 253 297 L150 297 L150 297 Z " />
<glyph glyph-name="C" unicode="C" horiz-adv-x="723" d="M663 5 L662 13 L662 13 L663 5 L663 5 Z M663 5 C653 3 640 3 625 1 C611 0 594 0 572 -2 C551 -3 527 -3 499 -4 C471 -4 439 -5 401 -5 C340 -5 289 0 245 10 C202 21 168 37 140 60 C113 84 94 114 81 150 C69 187 62 231 62 283 C62 336 68 381 80 417 C93 454 112 483 139 506 C167 530 201 546 244 556 C288 567 340 572 401 572 C439 572 470 573 498 572 C526 572 550 572 571 570 C593 569 611 569 625 567 C640 566 653 564 663 562 L662 554 L662 554 L663 562 L669 476 C667 476 665 475 662 475 L656 475 C654 479 651 482 649 485 C647 489 645 492 642 495 C626 517 606 533 584 542 C562 552 533 557 496 557 L496 557 C482 558 468 558 452 558 C436 558 419 558 401 558 C351 558 308 553 272 543 C237 533 208 518 186 496 C164 474 148 447 138 411 C128 376 123 333 123 283 C123 233 128 191 138 156 C148 122 164 94 186 72 C208 50 237 34 272 24 C308 14 351 9 401 9 L464 9 C514 11 551 15 578 25 C606 35 627 51 642 72 C645 76 647 79 649 82 C651 86 654 89 656 92 L662 92 C665 92 667 92 669 91 L663 5 L663 5 Z " />
<glyph glyph-name="D" unicode="D" horiz-adv-x="665" d="M51 552 L51 567 L94 567 L122 567 L150 567 L275 567 C337 567 389 563 432 552 C476 542 511 525 538 502 C566 480 585 450 597 414 C610 378 616 335 616 283 C616 232 611 188 600 152 C590 116 572 88 548 65 C524 43 493 27 455 16 C417 6 371 0 316 0 L150 0 L122 0 L94 0 L51 0 L51 15 L58 15 C74 15 83 19 87 27 C92 35 94 53 94 80 L94 487 C94 515 93 532 88 540 C84 548 74 552 58 552 L51 552 L51 552 Z M150 14 L316 14 C360 14 397 18 428 28 C460 38 484 53 504 75 C524 97 539 125 547 159 C556 193 560 235 560 283 C560 333 556 374 545 408 C535 442 518 469 495 491 C473 513 443 528 407 538 C371 548 327 553 275 553 L150 553 L150 14 L150 14 Z " />
<glyph glyph-name="E" unicode="E" horiz-adv-x="521" d="M373 247 L361 247 L357 254 C353 263 350 270 345 275 C341 281 335 284 327 287 C319 291 310 292 298 293 C286 295 271 295 253 295 L139 295 L139 14 L289 14 C311 14 328 14 342 16 C357 18 370 22 380 26 C391 31 401 38 410 46 C420 55 430 66 440 80 L450 91 C450 92 454 92 460 91 C460 92 460 92 460 92 C461 92 461 92 461 91 C458 76 456 62 452 49 C449 37 446 23 442 7 C442 5 441 3 441 0 L438 0 L361 0 L139 0 L111 0 L83 0 L40 0 L40 15 L46 15 C62 15 72 19 76 27 C81 35 83 53 83 80 L83 487 C83 515 82 532 77 540 C73 548 62 552 46 552 L40 552 L40 567 L83 567 L111 567 L139 567 L357 567 L428 567 L437 567 L437 560 C439 545 439 532 439 518 C440 505 441 491 442 475 L431 475 L424 487 C416 501 407 513 399 521 C391 530 382 537 372 541 C362 546 351 548 336 550 C322 552 304 553 282 553 L139 553 L139 309 L253 309 C271 309 285 309 297 310 C309 312 318 314 326 316 C334 319 340 323 344 327 C349 332 353 338 357 346 L361 352 C361 353 365 353 371 352 C373 354 373 354 373 352 L373 309 L373 302 L373 295 L373 247 L373 247 Z " />
<glyph glyph-name="F" unicode="F" horiz-adv-x="468" d="M351 348 L363 348 L363 305 L363 298 L363 291 L363 242 L351 242 C347 252 343 260 338 266 C334 273 328 277 320 281 C313 285 303 288 291 289 C279 291 263 291 243 291 L139 291 L139 80 L139 63 C140 43 143 30 149 24 C155 18 167 15 184 15 L192 15 C192 15 192 13 192 8 C192 3 192 0 192 0 L139 0 L111 0 L83 0 L40 0 L40 15 L46 15 C62 15 72 19 76 27 C81 35 83 53 83 80 L83 487 C83 515 82 532 77 540 C73 548 62 552 46 552 L40 552 L40 567 L83 567 L111 567 L139 567 L387 567 L458 567 L467 567 L467 560 C469 545 469 532 469 518 C470 505 471 491 472 475 L461 475 L454 487 C446 501 437 513 429 521 C421 530 412 537 402 541 C392 546 381 548 366 550 C352 552 334 553 312 553 L139 553 L139 305 L243 305 C261 305 275 305 287 306 C299 308 308 309 316 311 C324 314 330 317 334 322 C339 328 343 334 347 342 L351 348 L351 348 Z " />
<glyph glyph-name="G" unicode="G" horiz-adv-x="785" d="M693 266 L693 251 L686 251 C671 252 662 248 657 240 C653 232 650 214 650 186 L650 57 C631 46 612 37 592 29 C573 21 553 16 532 10 C512 5 490 2 466 -1 C443 -3 417 -5 389 -5 C330 -5 280 0 238 10 C197 21 163 37 137 60 C111 84 92 114 80 150 C68 187 62 231 62 283 C62 336 68 381 80 417 C92 454 111 483 137 506 C163 530 197 546 238 556 C280 567 330 572 389 572 C461 572 516 572 554 570 C593 568 623 566 643 562 L642 554 L642 554 L643 562 L649 476 C647 476 645 475 642 475 L636 475 C634 479 631 482 629 485 C627 489 625 492 622 495 C607 515 589 529 569 539 C549 549 523 555 491 557 C477 558 462 558 444 558 C427 558 409 558 389 558 C341 558 300 553 266 543 C232 533 206 518 184 496 C163 474 148 447 138 411 C128 376 123 333 123 283 C123 233 127 191 137 156 C147 122 162 94 183 72 C205 50 232 34 266 24 C300 14 341 9 389 9 C433 9 471 12 504 18 C538 24 570 34 600 48 L600 186 C600 214 599 232 594 240 C590 248 579 252 563 251 L557 251 L557 266 L600 266 L625 266 L650 266 L693 266 L693 266 Z " />
<glyph glyph-name="H" unicode="H" horiz-adv-x="711" d="M671 567 L671 552 L665 552 C649 552 640 548 635 540 C631 532 628 515 628 487 L628 80 C628 53 630 35 634 27 C639 19 649 15 665 15 L671 15 L671 0 L628 0 L600 0 L572 0 L529 0 L529 15 L536 15 C552 15 561 19 565 27 C570 35 572 53 572 80 L572 293 L139 293 L139 80 L139 61 C140 42 142 30 147 24 C153 18 162 15 175 15 L182 15 C182 15 182 13 182 8 C182 3 182 0 182 0 L139 0 L111 0 L83 0 L40 0 L40 15 L46 15 C62 15 72 19 76 27 C81 35 83 53 83 80 L83 487 C83 515 82 532 77 540 C73 548 62 552 46 552 L40 552 L40 567 L83 567 L111 567 L139 567 L182 567 C182 567 182 565 182 559 C182 555 182 552 182 552 L175 552 C162 552 154 550 148 544 C143 538 140 526 139 506 L139 487 L139 307 L572 307 L572 487 C572 515 571 532 566 540 C562 548 552 552 536 552 L529 552 L529 567 L572 567 L600 567 L628 567 L671 567 L671 567 Z " />
<glyph glyph-name="I" unicode="I" horiz-adv-x="221" d="M40 552 L40 567 L83 567 L111 567 L139 567 L182 567 C182 567 182 565 182 559 C182 555 182 552 182 552 L175 552 C162 552 154 550 148 544 C143 538 140 526 139 506 L139 487 L139 80 L139 61 C140 42 142 30 147 24 C153 18 162 15 175 15 L182 15 C182 15 182 13 182 8 C182 3 182 0 182 0 L139 0 L111 0 L83 0 L40 0 L40 15 L46 15 C62 15 72 19 76 27 C81 35 83 53 83 80 L83 487 C83 515 82 532 77 540 C73 548 62 552 46 552 L40 552 L40 552 Z " />
<glyph glyph-name="J" unicode="J" horiz-adv-x="340" d="M300 567 L300 552 L294 552 C279 552 269 549 264 541 C260 533 257 515 257 487 L257 219 C257 169 256 129 252 99 C248 69 242 46 230 30 C219 14 204 4 182 -2 C161 -7 133 -10 99 -10 C69 -10 47 -5 31 4 C16 14 6 29 0 50 C-4 65 4 72 22 72 C30 72 34 71 38 67 C42 64 45 58 47 50 C52 32 59 20 69 12 C79 5 94 1 113 1 C133 1 147 3 159 7 C171 11 180 19 186 31 C193 43 197 60 199 82 C201 105 202 135 202 172 L202 487 C202 515 201 532 196 540 C192 548 181 552 165 552 L159 552 L159 567 L202 567 L229 567 L257 567 L300 567 L300 567 Z " />
<glyph glyph-name="K" unicode="K" horiz-adv-x="619" d="M444 552 L444 567 L487 567 L497 567 L507 567 L531 567 C532 567 532 565 531 559 C532 555 532 552 531 552 L525 552 C517 552 510 552 503 550 C497 548 490 545 481 540 C473 536 463 530 451 521 C439 513 425 502 407 488 L204 329 L335 210 C384 166 424 132 454 104 C485 77 509 57 528 42 C548 28 563 18 573 13 C584 9 594 6 604 6 L609 6 L609 -5 L587 -5 C567 -5 548 -3 530 1 C513 5 495 14 473 26 C452 39 427 57 399 81 C371 105 336 137 292 176 L161 295 L159 294 L150 305 L150 80 C150 53 152 35 156 27 C161 19 171 15 186 15 L193 15 L193 0 L150 0 L122 0 L94 0 L51 0 L51 15 L58 15 C74 15 83 19 87 27 C92 35 94 53 94 80 L94 487 C94 515 93 532 88 540 C84 548 74 552 58 552 L51 552 L51 567 L94 567 L122 567 L150 567 L193 567 L193 552 L186 552 C171 552 162 548 157 540 C153 532 150 515 150 487 L150 305 L193 339 L193 339 L384 487 L384 487 C386 489 387 489 387 489 C388 490 389 491 390 492 L418 514 C438 530 450 539 453 544 C457 550 455 552 447 552 L444 552 L444 552 Z " />
<glyph glyph-name="L" unicode="L" horiz-adv-x="521" d="M443 100 L443 100 C445 100 448 99 450 98 C455 98 459 97 462 96 C459 80 456 66 452 52 C449 38 446 23 442 7 C442 5 441 3 441 0 L438 0 L361 0 L139 0 L111 0 L83 0 L40 0 L40 15 L46 15 C62 15 72 19 76 27 C81 35 83 53 83 80 L83 487 C83 515 82 532 77 540 C73 548 62 552 46 552 L40 552 L40 567 L83 567 L111 567 L139 567 L182 567 C182 567 182 565 182 559 C182 555 182 552 182 552 L175 552 C162 552 154 550 148 544 C143 538 140 526 139 506 L139 487 L139 14 L299 14 C319 14 335 14 347 16 C360 18 370 22 380 27 C390 33 399 39 407 49 C416 59 425 72 435 87 L443 100 L443 100 Z " />
<glyph glyph-name="M" unicode="M" horiz-adv-x="761" d="M725 567 L725 552 L719 552 C705 552 696 549 692 542 C688 536 687 521 687 497 L709 80 L709 80 C711 53 714 35 718 27 C723 19 733 15 749 15 L755 15 L755 0 L713 0 L685 0 L658 0 L614 0 L614 15 L621 15 C637 15 646 18 650 26 C654 34 656 52 654 80 L654 80 L635 528 L387 -5 L373 -5 L359 22 L117 502 L99 95 L100 95 C100 79 100 65 100 54 C101 44 102 36 106 30 C110 24 116 20 122 18 C129 16 138 15 149 15 L159 15 L159 0 L95 0 L87 0 L79 0 L36 0 L36 15 L43 15 C59 15 69 19 73 27 C78 35 81 53 82 80 L83 80 L100 487 L100 487 C102 515 100 532 96 540 C92 548 83 552 67 552 L61 552 L61 567 L104 567 L112 567 L120 567 L147 567 L397 63 L401 56 L633 567 L653 567 L658 567 L683 567 L725 567 L725 567 Z " />
<glyph glyph-name="N" unicode="N" horiz-adv-x="639" d="M604 567 L604 552 L597 552 C582 552 573 548 568 540 C564 532 561 515 561 487 L561 42 L561 -11 L546 -11 L519 22 L103 519 L103 80 C103 53 105 35 109 27 C114 19 124 15 139 15 L146 15 L146 0 L103 0 L94 0 L86 0 L43 0 L43 15 L49 15 C65 15 75 19 79 27 C84 35 86 53 86 80 L86 487 C86 515 85 532 80 540 C76 548 65 552 49 552 L43 552 L43 567 L86 567 L94 567 L103 567 L136 567 L544 79 L544 487 C544 515 543 532 538 540 C534 548 523 552 507 552 L501 552 L501 567 L544 567 L552 567 L561 567 L604 567 L604 567 Z " />
<glyph glyph-name="O" unicode="O" horiz-adv-x="765" d="M388 9 C442 9 485 14 519 26 C554 38 581 55 601 78 C621 102 634 130 642 164 C650 199 654 239 654 283 C654 329 651 368 643 402 C635 436 621 465 601 488 C581 512 555 528 520 540 C486 552 442 558 388 558 C336 558 293 553 258 541 C224 529 196 512 176 488 C156 465 143 436 135 402 C127 368 123 329 123 283 C123 239 126 200 134 165 C142 131 156 103 176 79 C196 56 223 39 257 27 C292 15 336 9 388 9 L388 9 Z M62 283 C62 331 66 372 76 408 C86 444 103 474 127 498 C152 523 185 541 227 553 C270 566 324 572 388 572 C454 572 507 567 549 554 C592 542 625 524 649 499 C674 475 690 444 700 408 C710 372 715 331 715 283 C715 237 711 195 701 159 C691 123 675 94 650 69 C626 45 593 27 550 14 C508 2 454 -5 388 -5 C324 -5 271 1 228 13 C186 26 153 44 128 68 C104 93 87 123 77 159 C67 195 62 237 62 283 L62 283 Z " />
<glyph glyph-name="P" unicode="P" horiz-adv-x="543" d="M51 552 L51 567 L94 567 L122 567 L150 567 L310 567 C349 567 382 565 409 559 C437 553 458 545 475 532 C493 520 504 503 512 483 C520 463 524 439 524 410 C524 382 521 359 511 339 C502 319 488 303 468 291 C448 279 424 271 392 265 C361 259 323 256 278 256 L150 256 L150 80 C150 53 152 35 156 27 C161 19 171 15 186 15 L193 15 L193 0 L150 0 L122 0 L94 0 L51 0 L51 15 L58 15 C74 15 83 19 87 27 C92 35 94 53 94 80 L94 487 C94 515 93 532 88 540 C84 548 74 552 58 552 L51 552 L51 552 Z M150 270 L278 270 C346 270 395 281 423 302 C452 324 466 360 466 410 C466 462 455 498 431 520 C407 542 367 553 310 553 L150 553 L150 270 L150 270 Z " />
<glyph glyph-name="Q" unicode="Q" horiz-adv-x="765" d="M810 55 C787 27 762 8 736 -4 C710 -16 678 -22 639 -22 C615 -22 592 -21 572 -21 C552 -20 533 -19 515 -18 C497 -16 480 -15 462 -13 C445 -11 427 -8 407 -5 L388 -5 C324 -5 271 1 228 13 C186 26 153 44 128 68 C104 93 87 123 77 159 C67 195 62 237 62 283 C62 331 66 372 76 408 C86 444 103 474 127 498 C152 523 185 541 227 553 C270 566 324 572 388 572 C454 572 507 567 549 554 C592 542 625 524 649 499 C674 475 690 444 700 408 C710 372 715 331 715 283 C715 248 713 217 707 187 C702 158 694 133 681 110 C669 88 652 68 630 52 C609 36 582 24 550 14 L645 14 C689 14 723 18 747 24 C772 31 791 43 805 59 L810 55 L810 55 Z M367 9 L367 9 C372 11 381 11 395 11 C409 12 430 13 458 13 C497 19 528 28 553 42 C579 56 598 75 613 97 C629 120 639 146 645 177 C651 209 654 244 654 283 C654 329 651 368 643 402 C635 436 621 465 601 488 C581 512 555 528 520 540 C486 552 442 558 388 558 C336 558 293 553 258 541 C224 529 196 512 176 488 C156 465 143 436 135 402 C127 368 123 329 123 283 C123 240 127 202 134 168 C142 135 154 108 172 84 C191 61 216 44 247 31 C279 19 319 11 367 9 L367 9 Z " />
<glyph glyph-name="R" unicode="R" horiz-adv-x="624" d="M51 552 L51 567 L94 567 L122 567 L150 567 L297 567 C371 567 423 556 453 534 C484 512 499 475 499 422 C499 374 487 338 459 314 C432 291 386 277 321 273 L508 95 C534 71 553 53 565 41 C578 29 586 22 592 17 C598 13 602 10 605 10 C609 11 614 11 620 11 L625 11 L625 0 L603 0 C587 0 575 1 567 0 C559 0 552 2 542 7 C533 13 521 22 505 37 C489 53 465 76 432 106 L256 271 L150 271 L150 80 C150 53 152 35 156 27 C161 19 171 15 186 15 L193 15 L193 0 L150 0 L122 0 L94 0 L51 0 L51 15 L58 15 C74 15 83 19 87 27 C92 35 94 53 94 80 L94 487 C94 515 93 532 88 540 C84 548 74 552 58 552 L51 552 L51 552 Z M268 285 C331 285 375 295 401 316 C427 338 440 373 440 422 C440 470 430 503 408 523 C386 543 349 553 297 553 L150 553 L150 285 L241 285 L268 285 L268 285 Z " />
<glyph glyph-name="S" unicode="S" horiz-adv-x="512" d="M315 556 L315 556 C304 557 293 557 280 557 C268 558 255 558 241 558 C187 558 149 549 125 530 C102 512 90 480 90 434 C90 402 105 376 133 356 C162 336 210 319 278 305 C347 291 396 273 424 248 C453 224 467 190 467 146 C467 92 453 54 423 30 C394 7 345 -5 275 -5 C211 -5 162 -4 126 -3 C91 -1 64 1 44 4 L46 14 L46 14 L44 4 L38 95 L45 95 C48 95 50 96 51 96 C55 93 57 90 59 86 C61 83 64 80 66 76 C82 55 99 40 119 29 C140 19 167 12 201 10 C213 10 224 9 236 9 C249 9 262 9 275 9 C331 9 370 18 393 35 C417 53 428 82 428 124 C428 160 414 187 384 208 C355 230 305 248 235 262 C169 276 121 295 93 317 C65 340 51 371 51 411 C51 470 66 511 95 535 C125 560 174 572 244 572 C294 572 332 572 360 570 C388 569 412 567 431 563 L437 472 L430 472 C429 472 427 471 424 471 C421 477 418 481 414 485 C411 489 408 494 404 499 C391 518 378 532 364 540 C351 549 335 554 315 556 L315 556 Z " />
<glyph glyph-name="T" unicode="T" horiz-adv-x="626" d="M384 15 L384 0 L341 0 L313 0 L285 0 L242 0 L242 15 L249 15 C265 15 274 19 278 27 C283 35 285 53 285 80 L285 553 L161 553 C145 553 130 553 118 551 C106 549 96 546 86 540 C77 535 68 528 59 518 C51 508 41 496 29 480 L20 467 L8 467 C11 484 13 499 15 513 C17 527 20 543 22 560 C23 562 23 565 23 567 L40 567 L103 567 L523 567 L586 567 L603 567 C603 565 604 562 604 560 C607 543 609 527 611 513 C613 499 616 484 618 467 L606 467 L597 480 C587 496 578 507 568 517 C559 527 550 535 540 540 C531 546 521 548 509 550 C497 552 483 553 465 553 L341 553 L341 80 C341 53 343 35 347 27 C352 19 362 15 377 15 L384 15 L384 15 Z " />
<glyph glyph-name="U" unicode="U" horiz-adv-x="625" d="M605 567 L605 552 L598 552 C590 552 583 552 577 550 C572 548 569 545 565 539 C562 533 560 526 558 516 C557 506 556 493 556 477 L556 153 C556 125 554 100 548 80 C543 60 533 44 516 31 C500 19 477 10 446 4 C416 -2 375 -5 325 -5 C273 -5 231 -1 199 5 C167 12 144 23 126 37 C109 52 98 71 92 94 C87 118 84 146 84 179 L84 487 C84 515 83 532 78 540 C74 548 64 552 48 552 L41 552 L41 567 L84 567 L112 567 L140 567 L183 567 L183 552 L176 552 C161 552 152 548 147 540 C143 532 140 515 140 487 L140 168 C140 140 142 117 146 97 C151 77 159 61 173 49 C187 37 207 29 232 23 C258 17 291 14 333 14 C378 14 413 17 440 22 C468 28 489 36 503 47 C518 59 528 74 532 92 C537 111 539 133 539 159 L540 494 C540 519 537 534 531 541 C525 549 514 552 496 552 L488 552 L488 567 L540 567 L548 567 L556 567 L605 567 L605 567 Z " />
<glyph glyph-name="V" unicode="V" horiz-adv-x="588" d="M583 567 L583 552 L577 552 C569 552 563 552 557 550 C552 548 548 545 543 540 C539 536 534 530 530 521 C526 513 522 501 516 487 L516 487 L327 -15 L313 -15 L77 497 C66 521 57 536 50 542 C44 549 35 552 23 552 L18 552 L18 567 L45 567 L76 567 L107 567 L164 567 L164 552 L156 552 C141 552 132 550 128 544 C124 539 126 528 133 510 L339 54 L488 457 L488 457 C496 477 501 494 504 506 C508 519 509 529 507 535 C506 542 502 546 496 548 C490 551 482 552 470 552 L460 552 L460 567 L529 567 L537 567 L546 567 L583 567 L583 567 Z " />
<glyph glyph-name="W" unicode="W" horiz-adv-x="885" d="M878 567 L878 552 L872 552 C864 552 858 552 852 550 C847 548 842 545 838 540 C834 536 830 530 826 521 C822 513 818 501 813 487 L813 487 L643 -15 L629 -15 L797 487 L797 487 C807 515 810 532 806 540 C803 548 792 552 772 552 L763 552 L763 567 L824 567 L832 567 L840 567 L878 567 L878 567 Z M146 567 L146 552 L139 552 C124 552 115 550 112 542 C110 535 113 519 121 494 L279 60 L255 -15 L448 577 L462 577 L655 64 L629 -15 L434 492 L269 -15 L255 -15 L54 512 C47 529 41 539 35 544 C29 550 21 552 10 552 L5 552 L5 567 L33 567 L64 567 L95 567 L146 567 L146 567 Z " />
<glyph glyph-name="X" unicode="X" horiz-adv-x="625" d="M578 567 L578 552 L571 552 C564 552 558 552 552 550 C546 549 540 546 534 542 C528 538 522 533 515 525 C509 518 500 509 490 497 L337 308 L336 308 L524 69 C543 47 556 32 564 25 C573 19 583 15 593 15 L598 15 L598 0 L578 0 L546 0 L514 0 L457 0 L457 15 L464 15 C478 15 484 17 486 22 C488 28 483 39 470 56 L308 264 L184 95 L184 95 C160 61 146 40 144 30 C142 20 151 15 169 15 L177 15 L177 0 L114 0 L103 0 L93 0 L61 0 L61 15 L68 15 C76 15 81 16 87 17 C93 19 99 22 105 26 C111 31 117 37 124 45 C132 53 140 64 150 76 L299 275 L115 510 C101 528 89 539 81 544 C73 550 65 552 55 552 L50 552 L50 567 L70 567 L102 567 L133 567 L191 567 L191 552 L184 552 C168 552 160 549 161 541 C163 533 174 515 196 487 L196 487 L328 318 L473 501 C489 523 497 536 496 542 C496 549 487 552 469 552 L462 552 L462 567 L525 567 L536 567 L547 567 L578 567 L578 567 Z " />
<glyph glyph-name="Y" unicode="Y" horiz-adv-x="566" d="M362 15 L362 0 L319 0 L291 0 L263 0 L220 0 L220 15 L227 15 C243 15 252 19 256 27 C261 35 263 53 263 80 L263 224 L98 489 C90 503 83 513 77 521 C71 530 67 536 61 540 C56 545 52 547 47 549 C43 551 38 552 32 552 L27 552 L27 567 L49 567 L83 567 L116 567 L168 567 L168 552 L161 552 C147 552 141 549 139 543 C138 537 144 524 156 502 L310 252 L468 493 C484 518 491 534 489 541 C488 549 479 552 461 552 L453 552 L453 567 L516 567 L525 567 L533 567 L560 567 L560 552 L555 552 C549 552 543 552 537 550 C532 548 527 545 521 540 C516 536 511 530 504 521 C498 513 490 501 480 487 L480 487 L319 244 L319 244 L319 80 C319 53 321 35 325 27 C330 19 340 15 355 15 L362 15 L362 15 Z " />
<glyph glyph-name="Z" unicode="Z" horiz-adv-x="588" d="M525 101 C527 101 529 100 531 99 C536 98 540 97 543 96 C540 80 537 66 533 52 C530 39 527 24 523 7 C523 6 524 6 523 4 C523 3 522 2 522 0 L519 0 L442 0 L115 0 L84 0 L52 0 L462 553 L251 553 C235 553 220 553 208 551 C196 550 186 548 175 543 C165 539 155 533 145 525 C135 517 124 507 110 494 L100 484 L88 484 C93 498 96 511 100 522 C104 534 109 546 113 560 C115 562 115 562 115 563 C115 565 116 566 116 567 L132 567 L196 567 L472 567 L504 567 L535 567 L125 14 L380 14 C400 14 416 15 428 17 C441 19 451 23 461 28 C471 34 480 40 488 50 C497 60 506 73 516 88 L525 101 L525 101 Z " />
<glyph glyph-name="bracketleft" unicode="&#x5b;" horiz-adv-x="231" d="M116 556 L116 -109 L221 -109 L221 -120 L116 -120 L77 -120 L77 567 L116 567 L221 567 L221 556 L116 556 L116 556 Z " />
<glyph glyph-name="backslash" unicode="&#x5c;" horiz-adv-x="224" d="M207 -32 L-60 617 L-43 617 L225 -32 L207 -32 L207 -32 Z " />
<glyph glyph-name="bracketright" unicode="&#x5d;" horiz-adv-x="218" d="M110 556 L5 556 L5 567 L110 567 L149 567 L149 -120 L110 -120 L5 -120 L5 -109 L110 -109 L110 556 L110 556 Z " />
<glyph glyph-name="underscore" unicode="&#x5f;" horiz-adv-x="468" d="M5 -50 L464 -50 L464 -78 L5 -78 L5 -50 L5 -50 Z " />
<glyph glyph-name="a" unicode="a" horiz-adv-x="488" d="M467 37 L472 30 C465 23 458 18 452 12 C446 7 441 3 434 -1 C428 -4 421 -6 412 -8 C404 -9 393 -10 381 -10 C368 -10 358 -8 350 -6 C342 -3 336 1 332 7 C328 13 327 21 325 30 C324 40 323 51 323 64 C299 39 274 22 247 11 C221 1 189 -5 152 -5 C110 -5 81 2 63 16 C45 30 36 54 36 88 C36 124 48 149 74 167 C100 185 144 198 204 204 L323 218 L323 307 C323 351 318 382 304 400 C291 418 269 427 237 427 L56 427 C96 433 130 436 159 438 C189 440 218 441 248 441 C295 441 328 430 347 408 C367 386 376 349 376 296 L376 73 C376 52 377 38 381 28 C385 19 397 14 415 14 C429 14 438 16 444 19 C450 23 458 29 467 37 L467 37 Z M323 206 L204 188 C161 182 130 174 112 160 C94 147 85 128 85 102 C85 75 91 57 105 45 C119 34 143 28 177 28 C211 28 239 31 261 38 C284 46 305 58 323 74 L323 206 L323 206 Z " />
<glyph glyph-name="b" unicode="b" horiz-adv-x="573" d="M123 386 L123 116 C123 78 134 51 157 34 C181 18 221 9 277 9 C311 9 340 13 364 19 C388 26 407 36 422 50 C438 65 448 84 455 107 C463 131 466 159 466 191 C466 233 463 267 455 296 C448 326 437 349 420 367 C404 385 383 398 357 406 C331 415 300 419 262 419 C257 419 244 418 223 412 C203 407 169 398 123 386 L123 386 Z M123 394 C156 403 183 410 205 416 C228 422 246 427 260 430 C277 435 291 439 301 441 C341 441 373 438 401 429 C429 421 452 407 469 389 C487 371 499 349 507 319 C515 290 519 255 519 213 C519 174 515 141 506 113 C498 85 484 63 464 45 C445 28 420 15 389 7 C359 -1 321 -5 277 -5 C228 -5 191 2 165 14 C157 16 149 18 140 19 C132 21 122 21 111 21 C95 21 84 14 78 0 L73 0 L73 533 L73 587 C72 596 69 601 64 603 C60 606 50 611 36 619 L29 622 C31 622 31 625 29 630 C30 631 30 631 29 631 L113 656 L123 656 L123 643 L123 546 L123 394 L123 394 Z " />
<glyph glyph-name="c" unicode="c" horiz-adv-x="481" d="M430 41 C410 25 386 14 357 6 C329 -1 290 -5 240 -5 C206 -5 176 -2 152 6 C128 14 110 27 94 43 C79 60 69 82 61 108 C54 135 50 167 50 205 C50 248 54 284 63 314 C73 344 87 369 107 387 C127 406 152 420 184 428 C216 437 255 441 300 441 C345 441 377 434 397 420 C417 406 429 382 432 348 C432 333 425 325 409 325 C395 325 386 334 384 350 C382 378 375 397 361 409 C347 421 325 427 294 427 C260 427 230 424 206 416 C182 409 163 398 147 381 C132 365 122 344 114 318 C107 292 103 261 103 224 C103 188 106 158 112 132 C119 107 129 87 143 71 C158 55 177 44 199 36 C222 29 250 25 282 25 C325 25 356 27 378 30 C400 34 416 39 425 47 L430 41 L430 41 Z " />
<glyph glyph-name="d" unicode="d" horiz-adv-x="601" d="M534 34 L534 25 L451 0 L441 0 L441 13 L441 48 C408 39 380 31 356 24 C333 18 314 12 299 7 C282 3 268 -1 257 -5 C221 -5 190 -1 164 6 C138 14 117 25 101 41 C85 57 74 78 66 103 C59 129 55 160 55 196 C55 241 59 278 67 309 C75 341 88 365 106 385 C124 405 148 420 176 428 C205 437 240 441 280 441 C320 441 353 440 379 437 C405 435 426 431 441 427 L441 533 L441 587 C440 596 437 601 432 603 C428 606 419 611 405 619 L398 622 L398 631 L481 656 L491 656 L491 643 L491 546 L491 123 L491 81 C491 73 492 68 493 64 C495 60 496 58 499 55 C503 53 506 50 512 47 C518 45 526 40 534 34 L534 34 Z M441 110 L441 412 C428 417 409 421 382 423 C356 426 321 427 277 427 C247 427 221 424 199 416 C177 408 160 397 146 379 C133 362 124 340 117 313 C111 287 107 254 107 215 C107 181 110 152 116 128 C123 104 133 86 147 70 C162 55 181 45 203 37 C226 30 253 26 285 26 C306 26 327 28 351 32 C375 37 405 44 441 54 L441 110 L441 110 Z " />
<glyph glyph-name="e" unicode="e" horiz-adv-x="488" d="M436 41 C416 25 392 14 362 6 C333 -1 293 -5 243 -5 C209 -5 179 -2 154 6 C130 14 110 27 94 43 C79 60 69 82 61 108 C54 135 50 167 50 205 C50 248 54 284 62 314 C70 344 83 369 100 387 C118 406 140 420 167 428 C195 437 228 441 267 441 C329 441 373 428 399 402 C425 376 438 333 438 271 L105 271 C105 264 105 257 104 249 C104 241 103 233 103 224 C103 188 107 158 113 132 C120 107 130 87 144 71 C159 55 178 44 201 36 C225 29 253 25 285 25 C329 25 362 27 384 30 C407 34 423 39 432 47 L436 41 L436 41 Z M106 281 L391 289 L368 289 C384 289 391 297 391 313 C391 355 383 384 363 401 C344 419 311 427 265 427 C215 427 178 417 152 394 C127 372 112 334 106 281 L106 281 Z " />
<glyph glyph-name="f" unicode="f" horiz-adv-x="338" d="M193 15 L193 0 L150 0 L125 0 L100 0 L57 0 L57 15 L63 15 C79 15 89 19 93 27 C98 35 100 53 100 80 L100 417 L13 417 L13 436 L100 436 L103 477 C108 543 123 588 149 615 C175 643 217 656 274 656 C306 656 328 653 342 644 C356 636 364 622 366 602 C366 587 359 579 344 579 C335 579 329 581 325 584 C322 588 320 594 319 602 C318 618 314 629 304 635 C295 642 280 645 260 645 C220 645 192 633 175 605 C159 578 150 532 150 466 L150 436 L289 436 L289 417 L150 417 L150 80 C150 53 152 35 156 27 C161 19 171 15 186 15 L193 15 L193 15 Z " />
<glyph glyph-name="g" unicode="g" horiz-adv-x="472" d="M473 436 L473 408 L388 410 C403 399 413 386 419 368 C426 351 429 330 429 305 C429 256 416 221 388 200 C361 180 315 169 249 169 L192 169 C154 169 127 168 110 163 C94 159 85 151 85 139 C85 128 93 120 109 116 C126 112 154 111 193 113 L273 116 C339 116 385 111 412 101 C440 91 453 75 453 51 C453 31 448 15 438 1 C428 -13 412 -24 390 -33 C368 -41 341 -48 305 -52 C270 -56 227 -58 177 -58 C123 -58 84 -53 61 -44 C39 -34 27 -19 27 2 C27 14 36 24 54 33 C72 43 103 53 146 65 C112 66 89 71 74 79 C60 88 52 102 52 120 C52 139 61 152 78 161 C96 171 125 176 165 177 C131 185 108 198 92 218 C77 239 69 268 69 305 C69 355 82 390 110 410 C138 431 185 441 249 441 C269 441 287 441 303 439 C319 437 334 434 347 430 L473 436 L473 436 Z M116 305 C116 259 126 227 146 208 C167 190 201 180 249 180 C297 180 331 190 351 208 C372 227 382 259 382 305 C382 351 373 384 352 402 C332 421 297 430 249 430 C201 430 168 421 147 402 C127 384 116 351 116 305 L116 305 Z M169 65 C129 55 102 45 85 36 C69 28 60 18 60 8 C60 -11 70 -25 88 -33 C107 -41 138 -45 182 -45 C268 -45 327 -39 363 -29 C399 -18 417 0 417 25 C417 41 406 52 382 58 C358 65 318 68 260 68 L196 66 C192 66 188 65 183 65 C179 65 174 65 169 65 L169 65 Z " />
<glyph glyph-name="h" unicode="h" horiz-adv-x="562" d="M386 0 L386 15 L393 15 C409 15 418 19 422 27 C427 35 429 53 429 80 L429 286 C429 308 428 326 425 342 C423 358 418 370 409 380 C401 390 389 397 373 401 C358 406 338 408 312 408 C295 408 273 405 246 399 C220 393 184 383 138 369 L138 80 C138 53 140 35 144 27 C149 19 159 15 174 15 L181 15 L181 0 L138 0 L113 0 L88 0 L45 0 L45 15 L51 15 C67 15 77 19 81 27 C86 35 88 53 88 80 L88 533 L88 587 C87 596 84 601 79 603 C75 606 65 611 51 619 L45 622 L45 631 L128 656 L138 656 L138 643 L138 546 L138 375 C177 387 209 397 236 405 C264 414 286 421 303 426 C323 432 339 437 351 441 C379 441 402 439 418 433 C435 428 447 419 456 407 C466 395 471 380 474 361 C478 343 479 320 479 292 L479 80 C480 53 482 35 486 27 C491 19 501 15 516 15 L522 15 C523 15 523 13 522 7 C523 3 523 0 522 0 L479 0 L454 0 L429 0 L386 0 L386 0 Z " />
<glyph glyph-name="i" unicode="i" horiz-adv-x="226" d="M45 402 L45 411 L128 436 L138 436 L138 423 L138 326 L138 80 C138 52 141 35 145 27 C150 19 160 15 175 15 L181 15 L181 0 L138 0 L113 0 L88 0 L45 0 L45 15 L51 15 C67 15 77 19 81 27 C86 35 88 53 88 80 L88 313 L88 367 C87 376 84 381 79 383 C75 386 65 391 51 399 L45 402 L45 402 Z M110 506 C98 506 91 508 85 513 C80 519 77 527 77 539 C77 552 79 560 84 565 C90 571 98 573 110 573 C123 573 131 572 136 566 C142 561 144 552 144 539 C144 527 143 520 137 514 C132 509 123 506 110 506 L110 506 Z " />
<glyph glyph-name="j" unicode="j" horiz-adv-x="227" d="M46 402 L46 411 L129 436 L139 436 L139 423 L140 22 C140 24 140 26 136 24 C133 23 127 20 115 13 C104 7 88 -2 67 -16 C47 -29 18 -47 -18 -70 L-23 -63 C3 -47 23 -35 37 -26 C52 -16 62 -10 70 -5 C78 1 83 3 85 5 C88 7 89 8 89 8 L89 313 L89 367 C88 376 85 381 80 383 C76 386 67 391 53 399 L46 402 L46 402 Z M111 506 C99 506 92 508 86 513 C81 519 78 527 78 539 C78 552 80 560 85 565 C91 571 99 573 111 573 C124 573 132 572 137 566 C143 561 145 552 145 539 C145 527 144 520 138 514 C133 509 124 506 111 506 L111 506 Z " />
<glyph glyph-name="k" unicode="k" horiz-adv-x="485" d="M509 15 L509 0 L482 0 L451 0 L420 0 L377 0 L377 15 L381 15 C390 15 392 18 388 24 C384 30 371 44 347 64 L329 80 L154 234 L152 233 L147 240 L147 80 L147 61 C148 42 150 30 155 24 C161 18 170 15 183 15 L190 15 C190 15 190 13 190 8 C190 3 190 0 190 0 L147 0 L122 0 L97 0 L53 0 C54 0 54 3 53 8 C54 13 54 15 53 15 L60 15 C76 15 86 19 90 27 C95 35 97 53 97 80 L97 533 L97 587 C96 596 93 601 88 603 C84 606 74 611 60 619 L53 622 C55 622 55 625 53 630 C54 631 54 631 53 631 L137 656 L147 656 L147 643 L147 546 L147 240 L304 356 L304 356 C323 370 337 382 348 390 C360 399 367 405 372 409 C378 414 381 416 380 418 C380 420 377 421 373 421 L369 421 L369 436 L413 436 L424 436 L435 436 L457 436 L457 421 L450 421 C438 421 426 420 414 415 C403 411 386 401 364 385 L194 263 L403 72 C417 60 429 51 438 43 C448 36 455 31 462 26 C470 22 476 19 482 17 C488 16 495 15 502 15 L509 15 L509 15 Z " />
<glyph glyph-name="l" unicode="l" horiz-adv-x="226" d="M45 622 L45 631 L128 656 L138 656 L138 643 L138 546 L138 80 C138 52 141 35 145 27 C150 19 160 15 175 15 L181 15 L181 0 L138 0 L113 0 L88 0 L45 0 L45 15 L51 15 C67 15 77 19 81 27 C86 35 88 53 88 80 L88 533 L88 587 C87 596 84 601 79 603 C75 606 65 611 51 619 L45 622 L45 622 Z " />
<glyph glyph-name="m" unicode="m" horiz-adv-x="923" d="M884 15 L884 0 L841 0 L816 0 L791 0 L748 0 L748 15 L754 15 C770 15 780 19 784 27 C789 35 791 53 791 80 L791 286 C791 331 781 362 761 380 C741 399 710 408 667 408 C647 408 624 405 596 399 C568 393 529 383 479 368 C486 348 489 323 489 292 L489 80 C490 53 492 35 496 27 C501 19 511 15 526 15 L532 15 C533 15 533 13 532 7 C533 3 533 0 532 0 L489 0 L464 0 L439 0 L396 0 L396 15 L403 15 C419 15 428 19 432 27 C437 35 439 53 439 80 L439 286 C439 332 430 365 410 383 C391 402 360 411 318 411 C302 411 282 409 254 402 C227 396 188 385 138 369 L138 343 L138 326 L138 80 C138 53 140 35 144 27 C149 19 159 15 174 15 L181 15 L181 0 L138 0 L113 0 L88 0 L45 0 L45 15 L51 15 C67 15 77 19 81 27 C86 35 88 53 88 80 L88 313 L88 343 L88 343 C88 355 89 362 88 367 C88 373 87 376 84 379 C82 383 79 385 73 387 C68 390 61 394 51 399 L45 402 L45 411 L128 436 L138 436 L138 375 C178 387 211 397 239 405 C267 414 290 421 307 426 C328 432 345 437 357 441 C389 441 413 437 433 426 C453 416 468 399 477 375 C519 387 555 397 583 405 C612 414 635 421 653 426 C675 432 692 437 705 441 C753 441 786 430 808 407 C830 385 841 346 841 292 L841 80 C841 53 843 35 847 27 C852 19 862 15 877 15 L884 15 L884 15 Z " />
<glyph glyph-name="n" unicode="n" horiz-adv-x="562" d="M386 0 L386 15 L393 15 C409 15 418 19 422 27 C427 35 429 53 429 80 L429 286 C429 308 428 326 425 342 C423 358 418 370 409 380 C401 390 389 397 373 401 C358 406 338 408 312 408 C295 408 273 405 246 399 C220 393 184 383 138 369 L138 343 L138 326 L138 80 C138 53 140 35 144 27 C149 19 159 15 174 15 L181 15 L181 0 L138 0 L113 0 L88 0 L45 0 L45 15 L51 15 C67 15 77 19 81 27 C86 35 88 53 88 80 L88 313 L88 343 L88 343 C88 355 89 362 88 367 C88 373 87 376 84 379 C82 383 79 385 73 387 C68 390 61 394 51 399 L45 402 L45 411 L128 436 L138 436 L138 375 C177 387 209 397 236 405 C264 414 286 421 303 426 C323 432 339 437 351 441 C379 441 402 439 418 433 C435 428 447 419 456 407 C466 395 471 380 474 361 C478 343 479 320 479 292 L479 80 C480 53 482 35 486 27 C491 19 501 15 516 15 L522 15 C523 15 523 13 522 7 C523 3 523 0 522 0 L479 0 L454 0 L429 0 L386 0 L386 0 Z " />
<glyph glyph-name="o" unicode="o" horiz-adv-x="594" d="M297 6 C332 6 361 9 385 17 C410 25 430 37 445 54 C461 72 471 94 478 120 C486 147 489 180 489 218 C489 257 487 290 479 316 C472 343 461 364 445 381 C430 399 411 410 386 418 C362 426 332 430 297 430 C263 430 233 427 209 419 C185 411 166 400 150 382 C135 365 125 343 117 316 C110 290 106 257 106 218 C106 180 109 147 116 120 C124 94 135 73 150 55 C166 38 185 26 209 18 C233 10 263 6 297 6 L297 6 Z M50 218 C50 259 54 293 63 321 C73 350 86 372 106 390 C126 408 152 421 183 429 C215 437 253 441 297 441 C343 441 381 437 412 429 C444 421 468 409 488 391 C508 373 522 351 531 322 C541 294 545 259 545 218 C545 178 542 144 532 115 C523 87 509 64 489 46 C469 28 444 15 412 7 C381 -1 343 -5 297 -5 C253 -5 215 -1 183 7 C152 15 127 27 107 45 C87 63 74 86 64 114 C55 143 50 178 50 218 L50 218 Z " />
<glyph glyph-name="p" unicode="p" horiz-adv-x="607" d="M45 402 L45 411 L121 436 L131 436 L135 374 C173 386 205 396 231 404 C257 413 279 420 295 426 C315 432 330 437 342 441 C380 441 413 437 439 429 C466 421 488 409 504 391 C521 374 532 352 540 324 C548 297 552 264 552 224 C552 183 548 149 538 119 C529 90 514 67 494 48 C474 30 448 17 416 8 C384 0 345 -5 299 -5 C263 -5 234 -2 208 4 C183 10 160 21 138 35 L138 30 C138 3 140 -15 144 -23 C149 -31 159 -35 174 -35 L181 -35 L181 -50 L138 -50 L113 -50 L88 -50 L45 -50 L45 -35 L51 -35 C67 -35 77 -31 81 -23 C86 -15 88 3 88 30 L88 313 L88 343 L88 343 C88 355 89 362 88 367 C88 373 87 376 84 379 C82 383 79 385 73 387 C68 390 61 394 51 399 L45 402 L45 402 Z M135 366 L137 343 L138 343 L138 326 L138 99 C172 67 201 44 225 30 C250 16 275 9 299 9 C337 9 367 12 393 18 C419 25 440 35 456 49 C473 63 485 81 492 103 C500 126 503 153 503 185 C503 226 500 260 492 288 C485 317 474 339 458 357 C442 375 422 388 396 396 C371 404 340 408 304 408 C290 408 270 406 244 399 C219 393 183 382 135 366 L135 366 Z " />
<glyph glyph-name="q" unicode="q" horiz-adv-x="588" d="M544 -35 L544 -50 L500 -50 L475 -50 L450 -50 L407 -50 L407 -35 L414 -35 C430 -35 439 -31 443 -23 C448 -15 450 3 450 30 L450 61 C416 49 387 40 363 31 C339 23 320 16 305 10 C287 4 273 -1 262 -5 C226 -5 197 -1 171 6 C146 14 126 25 110 41 C94 57 84 78 76 103 C69 129 65 160 65 196 C65 241 69 278 77 309 C86 341 99 365 117 385 C136 405 159 420 188 428 C218 437 253 441 294 441 C320 441 340 440 356 437 C372 435 388 432 403 428 C379 437 343 441 294 441 C322 441 345 441 365 438 C385 436 402 432 415 426 C429 424 443 423 459 423 C477 423 489 428 495 436 L500 436 L500 30 C501 3 503 -15 507 -23 C512 -31 522 -35 537 -35 L544 -35 L544 -35 Z M450 68 L450 365 C450 388 439 404 415 413 C391 423 351 427 294 427 C262 427 236 424 213 416 C191 408 173 397 158 379 C144 362 134 340 127 313 C121 287 117 254 117 215 C117 181 120 152 126 128 C133 104 142 86 156 70 C170 55 187 45 209 37 C231 30 258 26 289 26 C303 26 323 29 347 35 C372 42 406 53 450 68 L450 68 Z " />
<glyph glyph-name="r" unicode="r" horiz-adv-x="388" d="M45 402 L45 411 L121 436 L131 436 L135 374 C164 386 188 396 207 404 C227 413 243 420 255 426 C270 432 282 437 290 441 C310 441 324 441 336 439 C348 438 357 436 363 433 C370 431 374 427 376 422 C378 418 379 412 379 406 C379 390 371 382 355 382 C345 382 337 383 328 385 C320 388 312 391 303 393 C295 396 287 398 278 400 C270 403 260 404 250 404 C239 404 225 402 207 396 C190 390 166 381 135 367 L137 343 L138 343 L138 326 L138 80 C138 53 140 35 144 27 C149 19 159 15 174 15 L181 15 L181 0 L138 0 L113 0 L88 0 L45 0 L45 15 L51 15 C67 15 77 19 81 27 C86 35 88 53 88 80 L88 313 L88 343 L88 343 C88 355 89 362 88 367 C88 373 87 376 84 379 C82 383 79 385 73 387 C68 390 61 394 51 399 L45 402 L45 402 Z " />
<glyph glyph-name="s" unicode="s" horiz-adv-x="429" d="M50 -8 L49 -12 L50 -8 L49 -8 L45 54 C48 54 50 55 51 55 L56 55 L68 43 C81 30 95 21 113 15 C131 9 155 6 185 6 L226 6 C267 6 295 13 312 27 C330 42 338 67 338 101 C338 123 329 142 310 157 C292 173 260 187 215 200 C161 218 124 236 101 255 C79 275 67 299 67 329 C67 370 79 398 101 415 C124 433 163 441 217 441 C262 441 295 441 317 441 C339 442 352 442 355 442 L355 443 L355 442 L355 443 L359 383 C358 383 356 382 353 382 L347 382 C346 384 345 386 343 388 C342 390 341 392 339 394 C331 406 322 415 310 420 C299 426 284 429 264 430 L217 430 C177 430 149 424 131 411 C114 399 105 377 105 346 C105 323 116 303 138 286 C160 270 198 253 250 236 C298 221 330 205 350 187 C370 170 380 148 380 120 C380 74 369 42 345 23 C321 5 281 -5 223 -5 C174 -5 135 -4 107 -5 C79 -5 60 -6 50 -8 L50 -8 Z M49 -8 C41 -8 41 -10 49 -12 L49 -8 L49 -8 Z M355 443 L355 443 L355 443 L355 443 Z " />
<glyph glyph-name="t" unicode="t" horiz-adv-x="356" d="M326 436 L326 417 L156 417 L156 88 C156 72 156 59 157 49 C159 39 162 32 166 27 C171 23 178 21 186 19 C195 18 207 17 223 17 C241 17 255 18 266 19 C278 21 286 22 294 24 C302 27 308 30 314 34 C320 38 327 43 333 48 L337 44 C327 36 317 29 308 22 C300 16 290 10 280 6 C270 2 259 0 246 -2 C234 -4 218 -5 198 -5 C176 -5 160 -5 147 -3 C135 -1 125 4 119 10 C113 17 110 26 108 40 C107 54 106 73 106 97 L106 417 L25 417 L25 422 C57 426 80 433 96 446 C112 460 124 480 132 508 L148 564 L156 564 L156 436 L326 436 L326 436 Z " />
<glyph glyph-name="u" unicode="u" horiz-adv-x="540" d="M356 421 L356 436 L399 436 L424 436 L449 436 L449 123 C449 103 449 89 449 79 C450 70 451 63 453 59 C456 55 459 53 465 50 C471 48 480 42 492 34 C493 34 493 32 492 26 C493 26 493 25 492 25 L409 0 L399 0 L399 13 L399 62 C365 50 338 40 314 31 C291 23 272 16 256 10 C239 4 225 -1 214 -5 C184 -5 159 -3 138 3 C118 9 102 18 90 31 C78 45 70 61 65 81 C61 102 58 127 58 156 L58 356 C58 384 57 401 52 409 C48 417 37 421 21 421 L15 421 L15 436 L58 436 L83 436 L108 436 L108 161 C108 137 110 118 114 100 C119 83 127 70 137 59 C148 49 162 42 181 36 C201 31 225 28 253 28 C269 28 287 30 308 36 C330 42 360 53 399 67 L399 110 L399 356 C399 384 398 401 393 409 C389 417 379 421 363 421 L356 421 L356 421 Z " />
<glyph glyph-name="v" unicode="v" horiz-adv-x="508" d="M376 421 L376 436 L419 436 L428 436 L436 436 L473 436 C473 436 473 434 473 429 C473 424 473 421 473 421 L466 421 C452 421 442 419 434 412 C426 406 417 391 407 369 L241 -10 L233 -10 L75 356 L74 356 C68 370 64 382 59 390 C55 399 50 405 45 409 C41 414 36 416 30 418 C25 420 18 421 10 421 L3 421 L3 436 L40 436 L68 436 L97 436 L140 436 L140 421 L135 421 C122 421 115 418 114 410 C114 402 119 384 130 356 L130 356 L256 46 L393 375 C401 395 404 406 402 412 C400 418 394 421 382 421 L376 421 L376 421 Z " />
<glyph glyph-name="w" unicode="w" horiz-adv-x="767" d="M723 436 L723 421 L714 421 C710 421 706 422 703 422 C701 423 698 423 695 421 C693 420 691 417 687 412 C684 408 680 400 675 390 L500 -10 L492 -10 L367 278 L241 -10 L233 -10 L74 357 C66 377 59 391 54 400 C50 410 46 415 42 418 C39 422 36 423 33 422 C31 422 27 421 21 421 L12 421 L12 436 L40 436 L97 436 L147 436 L147 421 L137 421 C127 421 119 421 113 421 C108 421 108 414 112 399 L257 46 L362 291 L333 357 C325 377 318 391 313 400 C309 410 306 415 302 418 C299 422 297 423 294 422 C292 422 288 421 283 421 L274 421 L274 436 L299 436 L356 436 L411 436 L411 421 L400 421 C394 421 389 421 383 421 C378 422 375 422 372 420 C370 419 369 417 369 411 C370 406 372 398 376 387 L383 369 C385 366 385 363 387 359 C389 355 391 351 393 347 L392 347 L516 46 L635 332 L635 332 C647 359 654 379 658 391 C662 404 665 412 663 416 C662 421 658 423 652 422 C646 422 639 421 629 421 L618 421 L618 436 L679 436 L695 436 L723 436 L723 436 Z " />
<glyph glyph-name="x" unicode="x" horiz-adv-x="529" d="M349 421 L349 436 L406 436 L415 436 L423 436 L454 436 C454 436 454 434 454 429 C454 424 454 421 454 421 L447 421 C433 421 421 419 411 413 C401 407 388 394 370 373 L356 356 L356 356 L356 356 L266 249 L410 80 L410 80 C422 66 432 56 440 47 C448 39 454 32 460 27 C466 23 472 20 476 18 C481 16 486 15 490 15 L494 15 L494 0 L478 0 L448 0 L417 0 L374 0 L374 15 L379 15 C389 15 394 18 393 22 C393 27 386 37 373 52 L236 212 L135 80 L135 80 C114 52 104 35 103 27 C103 19 113 15 134 15 L142 15 L142 0 L73 0 L65 0 L57 0 L19 0 L19 15 L27 15 C36 15 44 15 50 17 C57 19 63 23 69 27 C76 32 83 38 91 46 C99 55 109 66 119 80 L119 80 L229 221 L114 356 L114 356 C102 370 92 382 84 390 C76 399 69 405 63 409 C57 414 52 416 46 418 C41 420 35 421 29 421 L24 421 L24 436 L46 436 L76 436 L107 436 L159 436 L159 421 L153 421 C140 421 134 419 136 411 C138 404 150 387 171 361 L260 256 L341 356 L341 356 C365 384 376 401 378 409 C380 417 373 421 356 421 L349 421 L349 421 Z " />
<glyph glyph-name="y" unicode="y" horiz-adv-x="547" d="M415 421 L415 436 L458 436 L467 436 L475 436 L512 436 C512 436 512 434 512 429 C512 424 512 421 512 421 L505 421 C491 421 481 419 473 412 C465 406 456 391 446 369 L280 -10 L254 -70 C256 -66 257 -64 255 -62 C254 -59 251 -57 245 -56 L269 -3 L114 356 L113 356 C107 370 103 382 98 390 C94 399 89 405 84 409 C80 414 75 416 69 418 C64 420 57 421 49 421 L42 421 L42 436 L79 436 L107 436 L136 436 L179 436 L179 421 L174 421 C161 421 154 418 153 410 C153 402 158 384 169 356 L169 356 L295 46 L432 375 C440 395 443 406 441 412 C439 418 433 421 421 421 L415 421 L415 421 Z M254 -70 L253 -72 C253 -71 253 -71 253 -71 C254 -71 254 -70 254 -70 L254 -70 Z M245 -56 L244 -56 C244 -57 244 -59 243 -61 C243 -63 242 -65 240 -67 L245 -56 L245 -56 Z M244 -56 L244 -56 C236 -53 223 -51 202 -51 C182 -50 152 -50 113 -50 C92 -50 77 -47 67 -42 C58 -36 53 -27 53 -14 C53 0 62 7 78 7 C85 7 91 6 96 3 C102 1 107 -1 111 -5 C116 -8 121 -10 126 -13 C132 -15 138 -17 144 -17 C168 -17 186 -16 200 -18 C215 -19 225 -21 233 -24 C241 -26 246 -30 247 -36 C249 -41 248 -48 244 -56 L244 -56 Z " />
<glyph glyph-name="z" unicode="z" horiz-adv-x="463" d="M404 98 L404 98 C406 98 409 97 411 96 C416 94 420 93 423 93 C420 78 418 64 414 50 C411 37 408 22 404 6 C404 5 403 4 403 3 C403 3 403 2 402 0 L399 0 L322 0 L89 0 L60 0 L30 0 L348 425 L177 424 L177 424 C161 424 146 425 134 423 C122 422 112 421 102 417 C92 414 84 410 74 404 C65 398 54 391 42 381 L32 373 L20 373 C24 384 26 394 29 402 C33 411 36 420 39 430 C41 433 41 435 41 436 L58 436 L121 436 L356 436 L385 436 L414 436 L97 11 L260 11 C280 11 296 12 308 14 C321 16 331 20 341 25 C351 31 360 38 368 47 C377 57 386 69 396 85 L404 98 L404 98 Z " />
<glyph glyph-name="braceleft" unicode="&#x7b;" horiz-adv-x="245" d="M231 -26 L191 -26 C144 -26 111 -16 91 3 C72 23 62 56 62 102 L62 251 C62 257 59 260 51 262 C43 265 30 266 10 266 L5 266 L5 275 L10 275 C30 275 42 281 50 295 C58 309 62 333 62 367 L62 439 C62 486 72 519 91 538 C111 558 144 567 191 567 L231 567 L231 559 L202 559 C166 559 140 550 124 532 C109 514 101 483 101 439 L101 395 C101 356 97 327 88 307 C80 288 65 276 44 271 C65 270 80 266 88 258 C97 251 101 240 101 224 L101 102 C101 58 109 27 124 9 C140 -9 166 -18 202 -18 L231 -18 L231 -26 L231 -26 Z " />
<glyph glyph-name="bar" unicode="&#x7c;" horiz-adv-x="158" d="M60 706 L99 706 L99 -90 L60 -90 L60 706 L60 706 Z " />
<glyph glyph-name="braceright" unicode="&#x7d;" horiz-adv-x="245" d="M5 567 L45 567 C93 567 126 558 145 538 C165 519 174 486 174 439 L174 289 C174 284 177 280 185 278 C193 276 207 275 226 275 L231 275 L231 266 L226 266 C207 266 194 260 186 246 C178 232 174 208 174 174 L174 102 C174 56 165 23 145 3 C126 -16 93 -26 45 -26 L5 -26 L5 -18 L34 -18 C71 -18 97 -9 112 9 C128 27 135 58 135 102 L135 146 C135 186 140 215 148 234 C157 254 172 266 192 270 C172 272 157 276 148 283 C140 291 135 302 135 317 L135 439 C135 483 128 514 112 532 C97 550 71 559 34 559 L5 559 L5 567 L5 567 Z " />
<glyph glyph-name="nbspace" unicode="&#xa0;" horiz-adv-x="226" d="" />
<glyph glyph-name="exclamdown" unicode="&#xa1;" horiz-adv-x="183" d="M87 441 C101 441 110 439 115 433 C121 428 123 419 123 405 C123 392 121 383 115 377 C110 372 101 369 87 369 C74 369 65 372 59 377 C54 383 51 392 51 405 C51 419 54 428 59 433 C65 439 74 441 87 441 L87 441 Z M60 -91 L84 294 L91 294 L121 -91 C123 -107 121 -117 116 -125 C112 -132 103 -136 91 -136 C79 -136 70 -133 65 -126 C61 -118 59 -107 60 -91 L60 -91 Z " />
<glyph glyph-name="cent" unicode="&#xa2;" horiz-adv-x="481" d="M277 511 L293 511 L293 441 L300 441 C345 441 377 434 397 420 C417 406 429 382 432 348 C432 333 425 325 409 325 C395 325 386 334 384 350 C382 378 375 397 361 409 C347 421 325 427 294 427 L293 427 L293 25 C332 26 361 28 381 31 C402 35 417 40 425 47 L430 41 C414 28 396 19 374 11 C353 4 326 -1 293 -3 L293 -75 L277 -75 L277 -4 C271 -4 265 -5 259 -5 C253 -5 247 -5 240 -5 C206 -5 176 -2 152 6 C128 14 110 27 94 43 C79 60 69 82 61 108 C54 135 50 167 50 205 C50 247 54 281 62 310 C71 340 84 363 102 382 C120 402 143 416 172 425 C202 435 237 440 277 441 L277 511 L277 511 Z M277 25 L277 427 C215 425 170 409 143 377 C117 346 103 295 103 224 C103 154 117 103 143 72 C170 42 215 26 277 25 L277 25 Z " />
<glyph glyph-name="guillemotleft" unicode="&#xab;" horiz-adv-x="467" d="M246 218 L423 41 L417 36 L191 215 L191 221 L416 401 L421 395 L246 218 L246 218 Z M75 218 L252 41 L247 36 L20 215 L20 221 L245 401 L251 395 L75 218 L75 218 Z " />
<glyph glyph-name="guillemotright" unicode="&#xbb;" horiz-adv-x="467" d="M222 218 L46 395 L52 401 L277 221 L277 215 L50 36 L45 41 L222 218 L222 218 Z M393 218 L217 395 L222 401 L448 221 L448 215 L221 36 L216 41 L393 218 L393 218 Z " />
<glyph glyph-name="questiondown" unicode="&#xbf;" horiz-adv-x="372" d="M231 441 C245 441 254 439 259 433 C265 428 267 419 267 405 C267 392 265 383 259 377 C254 372 245 369 231 369 C218 369 209 372 203 377 C198 383 195 392 195 405 C195 419 198 428 203 433 C209 439 218 441 231 441 L231 441 Z M235 119 L200 119 C162 119 133 118 111 113 C90 109 75 103 65 96 C56 90 51 82 49 74 C47 66 46 59 46 51 C47 -2 60 -40 88 -63 C116 -85 164 -97 230 -97 C239 -97 245 -95 251 -91 C257 -86 263 -82 267 -77 C272 -71 276 -67 282 -63 C288 -58 296 -56 304 -56 C323 -56 332 -60 332 -69 C332 -93 327 -109 313 -120 C300 -130 278 -136 246 -136 C208 -136 177 -133 149 -126 C122 -118 100 -107 83 -92 C67 -76 55 -56 47 -32 C39 -7 35 23 35 57 C35 69 36 79 37 91 C39 103 43 113 52 123 C62 133 76 141 96 147 C116 154 145 157 183 157 L218 157 L228 300 L234 300 L245 127 C246 122 243 119 235 119 L235 119 Z " />
<glyph glyph-name="Agrave" unicode="&#xc0;" horiz-adv-x="588" d="M579 15 L579 0 L545 0 L515 0 L484 0 L428 0 L428 15 L435 15 C454 15 463 18 465 26 C467 34 462 52 450 80 L450 80 L398 203 L144 203 L92 70 C84 47 81 32 85 25 C89 19 100 15 118 15 L127 15 L127 0 L64 0 L54 0 L45 0 L8 0 L8 15 L15 15 C23 15 30 15 35 17 C41 19 45 23 49 27 C54 32 58 38 62 46 C67 55 72 66 77 80 L77 80 L278 580 L292 580 L516 68 C526 46 534 32 541 25 C549 19 559 15 573 15 L579 15 L579 15 Z M271 747 L364 602 L358 598 L245 727 C230 745 219 757 212 765 C206 773 202 779 202 782 C202 786 205 789 212 794 C220 800 226 802 231 802 C233 802 237 799 243 790 C249 782 259 767 271 747 L271 747 Z M393 216 L266 514 L149 217 L393 216 L393 216 Z " />
<glyph glyph-name="Aacute" unicode="&#xc1;" horiz-adv-x="588" d="M222 598 L217 602 L307 747 C321 767 330 781 335 789 C341 798 344 802 345 802 C351 802 356 801 363 795 C371 790 374 786 374 782 C374 780 372 776 365 767 C359 759 348 745 332 727 L222 598 L222 598 Z M579 15 L579 0 L545 0 L515 0 L484 0 L428 0 L428 15 L435 15 C454 15 463 18 465 26 C467 34 462 52 450 80 L450 80 L398 203 L144 203 L92 70 C84 47 81 32 85 25 C89 19 100 15 118 15 L127 15 L127 0 L64 0 L54 0 L45 0 L8 0 L8 15 L15 15 C23 15 30 15 35 17 C41 19 45 23 49 27 C54 32 58 38 62 46 C67 55 72 66 77 80 L77 80 L278 580 L292 580 L516 68 C526 46 534 32 541 25 C549 19 559 15 573 15 L579 15 L579 15 Z M393 216 L266 514 L149 217 L393 216 L393 216 Z " />
<glyph glyph-name="Acircumflex" unicode="&#xc2;" horiz-adv-x="588" d="M579 15 L579 0 L545 0 L515 0 L484 0 L428 0 L428 15 L435 15 C454 15 463 18 465 26 C467 34 462 52 450 80 L450 80 L398 203 L144 203 L92 70 C84 47 81 32 85 25 C89 19 100 15 118 15 L127 15 L127 0 L64 0 L54 0 L45 0 L8 0 L8 15 L15 15 C23 15 30 15 35 17 C41 19 45 23 49 27 C54 32 58 38 62 46 C67 55 72 66 77 80 L77 80 L278 580 L292 580 L516 68 C526 46 534 32 541 25 C549 19 559 15 573 15 L579 15 L579 15 Z M285 760 L170 600 L165 604 L269 798 C271 801 272 804 274 807 C276 811 280 812 285 812 C290 812 293 811 295 807 C298 804 300 801 301 797 L404 604 L399 600 L285 760 L285 760 Z M393 216 L266 514 L149 217 L393 216 L393 216 Z " />
<glyph glyph-name="Atilde" unicode="&#xc3;" horiz-adv-x="588" d="M139 662 L130 662 C130 698 135 724 145 739 C155 755 172 762 196 762 C215 762 232 759 246 752 C261 746 274 739 288 731 C302 723 317 716 331 709 C346 703 363 699 381 699 C399 699 411 704 419 713 C427 723 431 738 431 759 L439 759 C439 725 435 701 424 687 C414 673 396 666 371 666 C353 666 337 670 321 676 C306 683 292 689 278 697 C264 705 250 713 235 719 C221 726 204 729 185 729 C169 729 158 724 150 714 C143 704 139 687 139 662 L139 662 Z M579 15 L579 0 L545 0 L515 0 L484 0 L428 0 L428 15 L435 15 C454 15 463 18 465 26 C467 34 462 52 450 80 L450 80 L398 203 L144 203 L92 70 C84 47 81 32 85 25 C89 19 100 15 118 15 L127 15 L127 0 L64 0 L54 0 L45 0 L8 0 L8 15 L15 15 C23 15 30 15 35 17 C41 19 45 23 49 27 C54 32 58 38 62 46 C67 55 72 66 77 80 L77 80 L278 580 L292 580 L516 68 C526 46 534 32 541 25 C549 19 559 15 573 15 L579 15 L579 15 Z M393 216 L266 514 L149 217 L393 216 L393 216 Z " />
<glyph glyph-name="Adieresis" unicode="&#xc4;" horiz-adv-x="588" d="M374 637 C363 637 355 639 350 643 C346 648 343 656 343 667 C343 679 346 687 350 691 C355 696 363 698 374 698 C386 698 393 696 397 691 C402 687 404 679 404 667 C404 656 403 649 398 644 C394 640 386 637 374 637 L374 637 Z M196 637 C185 637 177 639 172 643 C168 648 165 656 165 667 C165 679 168 687 172 691 C177 696 185 698 196 698 C208 698 215 696 219 691 C224 687 226 679 226 667 C226 656 225 649 220 644 C216 640 208 637 196 637 L196 637 Z M579 15 L579 0 L545 0 L515 0 L484 0 L428 0 L428 15 L435 15 C454 15 463 18 465 26 C467 34 462 52 450 80 L450 80 L398 203 L144 203 L92 70 C84 47 81 32 85 25 C89 19 100 15 118 15 L127 15 L127 0 L64 0 L54 0 L45 0 L8 0 L8 15 L15 15 C23 15 30 15 35 17 C41 19 45 23 49 27 C54 32 58 38 62 46 C67 55 72 66 77 80 L77 80 L278 580 L292 580 L516 68 C526 46 534 32 541 25 C549 19 559 15 573 15 L579 15 L579 15 Z M393 216 L266 514 L149 217 L393 216 L393 216 Z " />
<glyph glyph-name="Aring" unicode="&#xc5;" horiz-adv-x="588" d="M285 613 C339 613 365 640 365 694 C365 724 359 745 347 757 C335 770 315 776 285 776 C256 776 235 771 223 758 C211 746 205 724 205 694 C205 640 232 613 285 613 L285 613 Z M191 694 C191 728 198 752 212 766 C227 780 251 787 285 787 C319 787 343 780 357 766 C372 752 379 728 379 694 C379 633 348 602 285 602 C223 602 191 633 191 694 L191 694 Z M579 15 L579 0 L545 0 L515 0 L484 0 L428 0 L428 15 L435 15 C454 15 463 18 465 26 C467 34 462 52 450 80 L450 80 L398 203 L144 203 L92 70 C84 47 81 32 85 25 C89 19 100 15 118 15 L127 15 L127 0 L64 0 L54 0 L45 0 L8 0 L8 15 L15 15 C23 15 30 15 35 17 C41 19 45 23 49 27 C54 32 58 38 62 46 C67 55 72 66 77 80 L77 80 L278 580 L292 580 L516 68 C526 46 534 32 541 25 C549 19 559 15 573 15 L579 15 L579 15 Z M393 216 L266 514 L149 217 L393 216 L393 216 Z " />
<glyph glyph-name="Ccedilla" unicode="&#xc7;" horiz-adv-x="723" d="M663 5 L662 13 L662 13 L663 5 L663 5 Z M663 5 C653 3 640 3 625 1 C611 0 594 0 572 -2 C551 -3 527 -3 499 -4 C471 -4 439 -5 401 -5 C340 -5 289 0 245 10 C202 21 168 37 140 60 C113 84 94 114 81 150 C69 187 62 231 62 283 C62 336 68 381 80 417 C93 454 112 483 139 506 C167 530 201 546 244 556 C288 567 340 572 401 572 C439 572 470 573 498 572 C526 572 550 572 571 570 C593 569 611 569 625 567 C640 566 653 564 663 562 L662 554 L662 554 L663 562 L669 476 C667 476 665 475 662 475 L656 475 C654 479 651 482 649 485 C647 489 645 492 642 495 C626 517 606 533 584 542 C562 552 533 557 496 557 L496 557 C482 558 468 558 452 558 C436 558 419 558 401 558 C351 558 308 553 272 543 C237 533 208 518 186 496 C164 474 148 447 138 411 C128 376 123 333 123 283 C123 233 128 191 138 156 C148 122 164 94 186 72 C208 50 237 34 272 24 C308 14 351 9 401 9 L464 9 C514 11 551 15 578 25 C606 35 627 51 642 72 C645 76 647 79 649 82 C651 86 654 89 656 92 L662 92 C665 92 667 92 669 91 L663 5 L663 5 Z " />
<glyph glyph-name="Egrave" unicode="&#xc8;" horiz-adv-x="521" d="M373 247 L361 247 L357 254 C353 263 350 270 345 275 C341 281 335 284 327 287 C319 291 310 292 298 293 C286 295 271 295 253 295 L139 295 L139 14 L289 14 C311 14 328 14 342 16 C357 18 370 22 380 26 C391 31 401 38 410 46 C420 55 430 66 440 80 L450 91 C450 92 454 92 460 91 C460 92 460 92 460 92 C461 92 461 92 461 91 C458 76 456 62 452 49 C449 37 446 23 442 7 C442 5 441 3 441 0 L438 0 L361 0 L139 0 L111 0 L83 0 L40 0 L40 15 L46 15 C62 15 72 19 76 27 C81 35 83 53 83 80 L83 487 C83 515 82 532 77 540 C73 548 62 552 46 552 L40 552 L40 567 L83 567 L111 567 L139 567 L357 567 L428 567 L437 567 L437 560 C439 545 439 532 439 518 C440 505 441 491 442 475 L431 475 L424 487 C416 501 407 513 399 521 C391 530 382 537 372 541 C362 546 351 548 336 550 C322 552 304 553 282 553 L139 553 L139 309 L253 309 C271 309 285 309 297 310 C309 312 318 314 326 316 C334 319 340 323 344 327 C349 332 353 338 357 346 L361 352 C361 353 365 353 371 352 C373 354 373 354 373 352 L373 309 L373 302 L373 295 L373 247 L373 247 Z M226 747 L319 602 L314 598 L201 727 C185 745 174 757 167 765 C161 773 158 779 158 782 C158 786 162 789 168 794 C175 800 181 802 186 802 C189 802 192 799 198 790 C204 782 214 767 226 747 L226 747 Z " />
<glyph glyph-name="Eacute" unicode="&#xc9;" horiz-adv-x="521" d="M224 598 L218 602 L308 747 C322 767 330 781 336 789 C342 798 346 802 347 802 C353 802 359 801 365 795 C372 790 375 786 375 782 C376 780 374 776 367 767 C361 759 350 745 334 727 L224 598 L224 598 Z M373 247 L361 247 L357 254 C353 263 350 270 345 275 C341 281 335 284 327 287 C319 291 310 292 298 293 C286 295 271 295 253 295 L139 295 L139 14 L289 14 C311 14 328 14 342 16 C357 18 370 22 380 26 C391 31 401 38 410 46 C420 55 430 66 440 80 L450 91 C450 92 454 92 460 91 C460 92 460 92 460 92 C461 92 461 92 461 91 C458 76 456 62 452 49 C449 37 446 23 442 7 C442 5 441 3 441 0 L438 0 L361 0 L139 0 L111 0 L83 0 L40 0 L40 15 L46 15 C62 15 72 19 76 27 C81 35 83 53 83 80 L83 487 C83 515 82 532 77 540 C73 548 62 552 46 552 L40 552 L40 567 L83 567 L111 567 L139 567 L357 567 L428 567 L437 567 L437 560 C439 545 439 532 439 518 C440 505 441 491 442 475 L431 475 L424 487 C416 501 407 513 399 521 C391 530 382 537 372 541 C362 546 351 548 336 550 C322 552 304 553 282 553 L139 553 L139 309 L253 309 C271 309 285 309 297 310 C309 312 318 314 326 316 C334 319 340 323 344 327 C349 332 353 338 357 346 L361 352 C361 353 365 353 371 352 C373 354 373 354 373 352 L373 309 L373 302 L373 295 L373 247 L373 247 Z " />
<glyph glyph-name="Ecircumflex" unicode="&#xca;" horiz-adv-x="521" d="M373 247 L361 247 L357 254 C353 263 350 270 345 275 C341 281 335 284 327 287 C319 291 310 292 298 293 C286 295 271 295 253 295 L139 295 L139 14 L289 14 C311 14 328 14 342 16 C357 18 370 22 380 26 C391 31 401 38 410 46 C420 55 430 66 440 80 L450 91 C450 92 454 92 460 91 C460 92 460 92 460 92 C461 92 461 92 461 91 C458 76 456 62 452 49 C449 37 446 23 442 7 C442 5 441 3 441 0 L438 0 L361 0 L139 0 L111 0 L83 0 L40 0 L40 15 L46 15 C62 15 72 19 76 27 C81 35 83 53 83 80 L83 487 C83 515 82 532 77 540 C73 548 62 552 46 552 L40 552 L40 567 L83 567 L111 567 L139 567 L357 567 L428 567 L437 567 L437 560 C439 545 439 532 439 518 C440 505 441 491 442 475 L431 475 L424 487 C416 501 407 513 399 521 C391 530 382 537 372 541 C362 546 351 548 336 550 C322 552 304 553 282 553 L139 553 L139 309 L253 309 C271 309 285 309 297 310 C309 312 318 314 326 316 C334 319 340 323 344 327 C349 332 353 338 357 346 L361 352 C361 353 365 353 371 352 C373 354 373 354 373 352 L373 309 L373 302 L373 295 L373 247 L373 247 Z M256 760 L141 600 L136 604 L240 798 C242 801 243 804 245 807 C247 811 251 812 256 812 C261 812 264 811 266 807 C269 804 271 801 272 797 L375 604 L370 600 L256 760 L256 760 Z " />
<glyph glyph-name="Edieresis" unicode="&#xcb;" horiz-adv-x="521" d="M345 637 C334 637 326 639 321 643 C317 648 314 656 314 667 C314 679 317 687 321 691 C326 696 334 698 345 698 C357 698 364 696 368 691 C373 687 375 679 375 667 C375 656 374 649 369 644 C365 640 357 637 345 637 L345 637 Z M167 637 C156 637 148 639 143 643 C139 648 136 656 136 667 C136 679 139 687 143 691 C148 696 156 698 167 698 C179 698 186 696 190 691 C195 687 197 679 197 667 C197 656 196 649 191 644 C187 640 179 637 167 637 L167 637 Z M373 247 L361 247 L357 254 C353 263 350 270 345 275 C341 281 335 284 327 287 C319 291 310 292 298 293 C286 295 271 295 253 295 L139 295 L139 14 L289 14 C311 14 328 14 342 16 C357 18 370 22 380 26 C391 31 401 38 410 46 C420 55 430 66 440 80 L450 91 C450 92 454 92 460 91 C460 92 460 92 460 92 C461 92 461 92 461 91 C458 76 456 62 452 49 C449 37 446 23 442 7 C442 5 441 3 441 0 L438 0 L361 0 L139 0 L111 0 L83 0 L40 0 L40 15 L46 15 C62 15 72 19 76 27 C81 35 83 53 83 80 L83 487 C83 515 82 532 77 540 C73 548 62 552 46 552 L40 552 L40 567 L83 567 L111 567 L139 567 L357 567 L428 567 L437 567 L437 560 C439 545 439 532 439 518 C440 505 441 491 442 475 L431 475 L424 487 C416 501 407 513 399 521 C391 530 382 537 372 541 C362 546 351 548 336 550 C322 552 304 553 282 553 L139 553 L139 309 L253 309 C271 309 285 309 297 310 C309 312 318 314 326 316 C334 319 340 323 344 327 C349 332 353 338 357 346 L361 352 C361 353 365 353 371 352 C373 354 373 354 373 352 L373 309 L373 302 L373 295 L373 247 L373 247 Z " />
<glyph glyph-name="Igrave" unicode="&#xcc;" horiz-adv-x="221" d="M40 552 L40 567 L83 567 L111 567 L139 567 L182 567 C182 567 182 565 182 559 C182 555 182 552 182 552 L175 552 C162 552 154 550 148 544 C143 538 140 526 139 506 L139 487 L139 80 L139 61 C140 42 142 30 147 24 C153 18 162 15 175 15 L182 15 C182 15 182 13 182 8 C182 3 182 0 182 0 L139 0 L111 0 L83 0 L40 0 L40 15 L46 15 C62 15 72 19 76 27 C81 35 83 53 83 80 L83 487 C83 515 82 532 77 540 C73 548 62 552 46 552 L40 552 L40 552 Z M97 747 L190 602 L184 598 L71 727 C56 745 46 757 39 765 C33 773 29 779 29 782 C29 786 33 789 39 794 C46 800 52 802 57 802 C59 802 63 799 69 790 C75 782 85 767 97 747 L97 747 Z " />
<glyph glyph-name="Iacute" unicode="&#xcd;" horiz-adv-x="221" d="M49 598 L43 602 L133 747 C147 767 155 781 161 789 C167 798 171 802 172 802 C178 802 184 801 190 795 C197 790 200 786 200 782 C200 780 197 776 191 767 C185 759 175 745 159 727 L49 598 L49 598 Z M40 552 L40 567 L83 567 L111 567 L139 567 L182 567 C182 567 182 565 182 559 C182 555 182 552 182 552 L175 552 C162 552 154 550 148 544 C143 538 140 526 139 506 L139 487 L139 80 L139 61 C140 42 142 30 147 24 C153 18 162 15 175 15 L182 15 C182 15 182 13 182 8 C182 3 182 0 182 0 L139 0 L111 0 L83 0 L40 0 L40 15 L46 15 C62 15 72 19 76 27 C81 35 83 53 83 80 L83 487 C83 515 82 532 77 540 C73 548 62 552 46 552 L40 552 L40 552 Z " />
<glyph glyph-name="Icircumflex" unicode="&#xce;" horiz-adv-x="221" d="M40 552 L40 567 L83 567 L111 567 L139 567 L182 567 C182 567 182 565 182 559 C182 555 182 552 182 552 L175 552 C162 552 154 550 148 544 C143 538 140 526 139 506 L139 487 L139 80 L139 61 C140 42 142 30 147 24 C153 18 162 15 175 15 L182 15 C182 15 182 13 182 8 C182 3 182 0 182 0 L139 0 L111 0 L83 0 L40 0 L40 15 L46 15 C62 15 72 19 76 27 C81 35 83 53 83 80 L83 487 C83 515 82 532 77 540 C73 548 62 552 46 552 L40 552 L40 552 Z M111 760 L-3 600 L-8 604 L95 798 C97 801 98 804 100 807 C102 811 106 812 111 812 C116 812 119 811 121 807 C124 804 126 801 127 797 L230 604 L225 600 L111 760 L111 760 Z " />
<glyph glyph-name="Idieresis" unicode="&#xcf;" horiz-adv-x="221" d="M200 637 C189 637 181 639 176 643 C172 648 169 656 169 667 C169 679 172 687 176 691 C181 696 189 698 200 698 C212 698 219 696 223 691 C228 687 230 679 230 667 C230 656 229 649 224 644 C220 640 212 637 200 637 L200 637 Z M22 637 C11 637 3 639 -2 643 C-6 648 -9 656 -9 667 C-9 679 -6 687 -2 691 C3 696 11 698 22 698 C34 698 41 696 45 691 C50 687 52 679 52 667 C52 656 51 649 46 644 C42 640 34 637 22 637 L22 637 Z M40 552 L40 567 L83 567 L111 567 L139 567 L182 567 C182 567 182 565 182 559 C182 555 182 552 182 552 L175 552 C162 552 154 550 148 544 C143 538 140 526 139 506 L139 487 L139 80 L139 61 C140 42 142 30 147 24 C153 18 162 15 175 15 L182 15 C182 15 182 13 182 8 C182 3 182 0 182 0 L139 0 L111 0 L83 0 L40 0 L40 15 L46 15 C62 15 72 19 76 27 C81 35 83 53 83 80 L83 487 C83 515 82 532 77 540 C73 548 62 552 46 552 L40 552 L40 552 Z " />
<glyph glyph-name="Ntilde" unicode="&#xd1;" horiz-adv-x="639" d="M177 662 L169 662 C169 698 174 724 184 739 C194 755 211 762 235 762 C254 762 271 759 285 752 C300 746 313 739 327 731 C341 723 356 716 370 709 C385 703 402 699 420 699 C438 699 451 704 458 713 C466 723 469 738 469 759 L478 759 C478 725 474 701 463 687 C453 673 435 666 409 666 C391 666 374 670 359 676 C345 683 331 689 317 697 C303 705 289 713 274 719 C260 726 243 729 224 729 C207 729 196 724 188 714 C181 704 177 687 177 662 L177 662 Z M604 567 L604 552 L597 552 C582 552 573 548 568 540 C564 532 561 515 561 487 L561 42 L561 -11 L546 -11 L519 22 L103 519 L103 80 C103 53 105 35 109 27 C114 19 124 15 139 15 L146 15 L146 0 L103 0 L94 0 L86 0 L43 0 L43 15 L49 15 C65 15 75 19 79 27 C84 35 86 53 86 80 L86 487 C86 515 85 532 80 540 C76 548 65 552 49 552 L43 552 L43 567 L86 567 L94 567 L103 567 L136 567 L544 79 L544 487 C544 515 543 532 538 540 C534 548 523 552 507 552 L501 552 L501 567 L544 567 L552 567 L561 567 L604 567 L604 567 Z " />
<glyph glyph-name="Ograve" unicode="&#xd2;" horiz-adv-x="765" d="M388 9 C442 9 485 14 519 26 C554 38 581 55 601 78 C621 102 634 130 642 164 C650 199 654 239 654 283 C654 329 651 368 643 402 C635 436 621 465 601 488 C581 512 555 528 520 540 C486 552 442 558 388 558 C336 558 293 553 258 541 C224 529 196 512 176 488 C156 465 143 436 135 402 C127 368 123 329 123 283 C123 239 126 200 134 165 C142 131 156 103 176 79 C196 56 223 39 257 27 C292 15 336 9 388 9 L388 9 Z M62 283 C62 331 66 372 76 408 C86 444 103 474 127 498 C152 523 185 541 227 553 C270 566 324 572 388 572 C454 572 507 567 549 554 C592 542 625 524 649 499 C674 475 690 444 700 408 C710 372 715 331 715 283 C715 237 711 195 701 159 C691 123 675 94 650 69 C626 45 593 27 550 14 C508 2 454 -5 388 -5 C324 -5 271 1 228 13 C186 26 153 44 128 68 C104 93 87 123 77 159 C67 195 62 237 62 283 L62 283 Z M374 747 L467 602 L462 598 L349 727 C334 745 323 757 316 765 C310 773 306 779 306 782 C306 786 309 789 316 794 C324 800 330 802 335 802 C337 802 340 799 346 790 C352 782 362 767 374 747 L374 747 Z " />
<glyph glyph-name="Oacute" unicode="&#xd3;" horiz-adv-x="765" d="M364 598 L358 602 L448 747 C462 767 470 781 476 789 C482 798 486 802 487 802 C493 802 498 801 505 795 C513 790 516 786 516 782 C516 780 512 776 506 767 C500 759 490 745 474 727 L364 598 L364 598 Z M388 9 C442 9 485 14 519 26 C554 38 581 55 601 78 C621 102 634 130 642 164 C650 199 654 239 654 283 C654 329 651 368 643 402 C635 436 621 465 601 488 C581 512 555 528 520 540 C486 552 442 558 388 558 C336 558 293 553 258 541 C224 529 196 512 176 488 C156 465 143 436 135 402 C127 368 123 329 123 283 C123 239 126 200 134 165 C142 131 156 103 176 79 C196 56 223 39 257 27 C292 15 336 9 388 9 L388 9 Z M62 283 C62 331 66 372 76 408 C86 444 103 474 127 498 C152 523 185 541 227 553 C270 566 324 572 388 572 C454 572 507 567 549 554 C592 542 625 524 649 499 C674 475 690 444 700 408 C710 372 715 331 715 283 C715 237 711 195 701 159 C691 123 675 94 650 69 C626 45 593 27 550 14 C508 2 454 -5 388 -5 C324 -5 271 1 228 13 C186 26 153 44 128 68 C104 93 87 123 77 159 C67 195 62 237 62 283 L62 283 Z " />
<glyph glyph-name="Ocircumflex" unicode="&#xd4;" horiz-adv-x="765" d="M388 9 C442 9 485 14 519 26 C554 38 581 55 601 78 C621 102 634 130 642 164 C650 199 654 239 654 283 C654 329 651 368 643 402 C635 436 621 465 601 488 C581 512 555 528 520 540 C486 552 442 558 388 558 C336 558 293 553 258 541 C224 529 196 512 176 488 C156 465 143 436 135 402 C127 368 123 329 123 283 C123 239 126 200 134 165 C142 131 156 103 176 79 C196 56 223 39 257 27 C292 15 336 9 388 9 L388 9 Z M62 283 C62 331 66 372 76 408 C86 444 103 474 127 498 C152 523 185 541 227 553 C270 566 324 572 388 572 C454 572 507 567 549 554 C592 542 625 524 649 499 C674 475 690 444 700 408 C710 372 715 331 715 283 C715 237 711 195 701 159 C691 123 675 94 650 69 C626 45 593 27 550 14 C508 2 454 -5 388 -5 C324 -5 271 1 228 13 C186 26 153 44 128 68 C104 93 87 123 77 159 C67 195 62 237 62 283 L62 283 Z M388 760 L274 600 L269 604 L373 798 C375 801 376 804 378 807 C380 811 384 812 388 812 C394 812 397 811 399 807 C401 804 403 801 404 797 L508 604 L503 600 L388 760 L388 760 Z " />
<glyph glyph-name="Otilde" unicode="&#xd5;" horiz-adv-x="765" d="M242 662 L234 662 C234 698 239 724 249 739 C259 755 276 762 300 762 C319 762 336 759 350 752 C365 746 378 739 392 731 C406 723 421 716 435 709 C450 703 467 699 485 699 C503 699 516 704 523 713 C531 723 534 738 534 759 L543 759 C543 725 539 701 528 687 C518 673 500 666 474 666 C456 666 439 670 424 676 C410 683 396 689 382 697 C368 705 354 713 339 719 C325 726 308 729 289 729 C272 729 261 724 253 714 C246 704 242 687 242 662 L242 662 Z M388 9 C442 9 485 14 519 26 C554 38 581 55 601 78 C621 102 634 130 642 164 C650 199 654 239 654 283 C654 329 651 368 643 402 C635 436 621 465 601 488 C581 512 555 528 520 540 C486 552 442 558 388 558 C336 558 293 553 258 541 C224 529 196 512 176 488 C156 465 143 436 135 402 C127 368 123 329 123 283 C123 239 126 200 134 165 C142 131 156 103 176 79 C196 56 223 39 257 27 C292 15 336 9 388 9 L388 9 Z M62 283 C62 331 66 372 76 408 C86 444 103 474 127 498 C152 523 185 541 227 553 C270 566 324 572 388 572 C454 572 507 567 549 554 C592 542 625 524 649 499 C674 475 690 444 700 408 C710 372 715 331 715 283 C715 237 711 195 701 159 C691 123 675 94 650 69 C626 45 593 27 550 14 C508 2 454 -5 388 -5 C324 -5 271 1 228 13 C186 26 153 44 128 68 C104 93 87 123 77 159 C67 195 62 237 62 283 L62 283 Z " />
<glyph glyph-name="Odieresis" unicode="&#xd6;" horiz-adv-x="765" d="M477 637 C466 637 459 639 454 643 C450 648 447 656 447 667 C447 679 449 687 453 691 C458 696 466 698 477 698 C489 698 497 696 501 691 C506 687 508 679 508 667 C508 656 506 649 501 644 C497 640 489 637 477 637 L477 637 Z M299 637 C288 637 281 639 276 643 C272 648 269 656 269 667 C269 679 271 687 275 691 C280 696 288 698 299 698 C311 698 319 696 323 691 C328 687 330 679 330 667 C330 656 328 649 323 644 C319 640 311 637 299 637 L299 637 Z M388 9 C442 9 485 14 519 26 C554 38 581 55 601 78 C621 102 634 130 642 164 C650 199 654 239 654 283 C654 329 651 368 643 402 C635 436 621 465 601 488 C581 512 555 528 520 540 C486 552 442 558 388 558 C336 558 293 553 258 541 C224 529 196 512 176 488 C156 465 143 436 135 402 C127 368 123 329 123 283 C123 239 126 200 134 165 C142 131 156 103 176 79 C196 56 223 39 257 27 C292 15 336 9 388 9 L388 9 Z M62 283 C62 331 66 372 76 408 C86 444 103 474 127 498 C152 523 185 541 227 553 C270 566 324 572 388 572 C454 572 507 567 549 554 C592 542 625 524 649 499 C674 475 690 444 700 408 C710 372 715 331 715 283 C715 237 711 195 701 159 C691 123 675 94 650 69 C626 45 593 27 550 14 C508 2 454 -5 388 -5 C324 -5 271 1 228 13 C186 26 153 44 128 68 C104 93 87 123 77 159 C67 195 62 237 62 283 L62 283 Z " />
<glyph glyph-name="Oslash" unicode="&#xd8;" horiz-adv-x="765" d="M70 -14 L53 4 L127 69 C103 94 86 124 76 159 C67 195 62 236 62 283 C62 331 66 372 76 408 C86 444 103 474 127 498 C152 523 185 541 227 553 C270 566 324 572 388 572 C447 572 495 568 534 558 C574 548 606 534 631 514 L707 581 L723 563 L650 498 C675 474 692 444 701 408 C711 372 715 331 715 283 C715 237 711 195 701 159 C691 123 675 94 650 69 C626 45 593 27 550 14 C508 2 454 -5 388 -5 C330 -5 283 -1 243 9 C204 19 172 34 146 53 L70 -14 L70 -14 Z M388 9 C442 9 485 14 519 26 C554 38 581 55 601 78 C621 102 634 130 642 164 C650 199 654 239 654 283 C654 323 652 358 646 388 C640 419 630 446 615 468 L176 80 C196 57 223 39 257 27 C291 15 335 9 388 9 L388 9 Z M161 99 L601 487 C581 511 555 528 520 540 C486 552 442 558 388 558 C336 558 293 553 258 541 C224 529 196 512 176 488 C156 465 143 436 135 402 C127 368 123 329 123 283 C123 245 125 211 131 180 C137 150 147 123 161 99 L161 99 Z " />
<glyph glyph-name="Ugrave" unicode="&#xd9;" horiz-adv-x="625" d="M605 567 L605 552 L598 552 C590 552 583 552 577 550 C572 548 569 545 565 539 C562 533 560 526 558 516 C557 506 556 493 556 477 L556 153 C556 125 554 100 548 80 C543 60 533 44 516 31 C500 19 477 10 446 4 C416 -2 375 -5 325 -5 C273 -5 231 -1 199 5 C167 12 144 23 126 37 C109 52 98 71 92 94 C87 118 84 146 84 179 L84 487 C84 515 83 532 78 540 C74 548 64 552 48 552 L41 552 L41 567 L84 567 L112 567 L140 567 L183 567 L183 552 L176 552 C161 552 152 548 147 540 C143 532 140 515 140 487 L140 168 C140 140 142 117 146 97 C151 77 159 61 173 49 C187 37 207 29 232 23 C258 17 291 14 333 14 C378 14 413 17 440 22 C468 28 489 36 503 47 C518 59 528 74 532 92 C537 111 539 133 539 159 L540 494 C540 519 537 534 531 541 C525 549 514 552 496 552 L488 552 L488 567 L540 567 L548 567 L556 567 L605 567 L605 567 Z M306 747 L399 602 L394 598 L281 727 C266 745 255 757 248 765 C242 773 238 779 238 782 C238 786 242 789 248 794 C255 800 261 802 266 802 C269 802 272 799 278 790 C284 782 294 767 306 747 L306 747 Z " />
<glyph glyph-name="Uacute" unicode="&#xda;" horiz-adv-x="625" d="M319 598 L313 602 L403 747 C416 767 424 781 430 789 C436 798 440 802 442 802 C448 802 454 801 460 795 C467 790 470 786 470 782 C470 780 467 776 461 767 C455 759 445 745 429 727 L319 598 L319 598 Z M605 567 L605 552 L598 552 C590 552 583 552 577 550 C572 548 569 545 565 539 C562 533 560 526 558 516 C557 506 556 493 556 477 L556 153 C556 125 554 100 548 80 C543 60 533 44 516 31 C500 19 477 10 446 4 C416 -2 375 -5 325 -5 C273 -5 231 -1 199 5 C167 12 144 23 126 37 C109 52 98 71 92 94 C87 118 84 146 84 179 L84 487 C84 515 83 532 78 540 C74 548 64 552 48 552 L41 552 L41 567 L84 567 L112 567 L140 567 L183 567 L183 552 L176 552 C161 552 152 548 147 540 C143 532 140 515 140 487 L140 168 C140 140 142 117 146 97 C151 77 159 61 173 49 C187 37 207 29 232 23 C258 17 291 14 333 14 C378 14 413 17 440 22 C468 28 489 36 503 47 C518 59 528 74 532 92 C537 111 539 133 539 159 L540 494 C540 519 537 534 531 541 C525 549 514 552 496 552 L488 552 L488 567 L540 567 L548 567 L556 567 L605 567 L605 567 Z " />
<glyph glyph-name="Ucircumflex" unicode="&#xdb;" horiz-adv-x="625" d="M605 567 L605 552 L598 552 C590 552 583 552 577 550 C572 548 569 545 565 539 C562 533 560 526 558 516 C557 506 556 493 556 477 L556 153 C556 125 554 100 548 80 C543 60 533 44 516 31 C500 19 477 10 446 4 C416 -2 375 -5 325 -5 C273 -5 231 -1 199 5 C167 12 144 23 126 37 C109 52 98 71 92 94 C87 118 84 146 84 179 L84 487 C84 515 83 532 78 540 C74 548 64 552 48 552 L41 552 L41 567 L84 567 L112 567 L140 567 L183 567 L183 552 L176 552 C161 552 152 548 147 540 C143 532 140 515 140 487 L140 168 C140 140 142 117 146 97 C151 77 159 61 173 49 C187 37 207 29 232 23 C258 17 291 14 333 14 C378 14 413 17 440 22 C468 28 489 36 503 47 C518 59 528 74 532 92 C537 111 539 133 539 159 L540 494 C540 519 537 534 531 541 C525 549 514 552 496 552 L488 552 L488 567 L540 567 L548 567 L556 567 L605 567 L605 567 Z M320 760 L206 600 L201 604 L304 798 C306 801 307 804 309 807 C312 811 316 812 320 812 C326 812 329 811 331 807 C333 804 335 801 336 797 L440 604 L434 600 L320 760 L320 760 Z " />
<glyph glyph-name="Udieresis" unicode="&#xdc;" horiz-adv-x="625" d="M409 637 C398 637 391 639 386 643 C382 648 379 656 379 667 C379 679 381 687 385 691 C390 696 398 698 409 698 C421 698 429 696 433 691 C438 687 440 679 440 667 C440 656 438 649 433 644 C429 640 421 637 409 637 L409 637 Z M231 637 C220 637 213 639 208 643 C204 648 201 656 201 667 C201 679 203 687 207 691 C212 696 220 698 231 698 C243 698 251 696 255 691 C260 687 262 679 262 667 C262 656 260 649 255 644 C251 640 243 637 231 637 L231 637 Z M605 567 L605 552 L598 552 C590 552 583 552 577 550 C572 548 569 545 565 539 C562 533 560 526 558 516 C557 506 556 493 556 477 L556 153 C556 125 554 100 548 80 C543 60 533 44 516 31 C500 19 477 10 446 4 C416 -2 375 -5 325 -5 C273 -5 231 -1 199 5 C167 12 144 23 126 37 C109 52 98 71 92 94 C87 118 84 146 84 179 L84 487 C84 515 83 532 78 540 C74 548 64 552 48 552 L41 552 L41 567 L84 567 L112 567 L140 567 L183 567 L183 552 L176 552 C161 552 152 548 147 540 C143 532 140 515 140 487 L140 168 C140 140 142 117 146 97 C151 77 159 61 173 49 C187 37 207 29 232 23 C258 17 291 14 333 14 C378 14 413 17 440 22 C468 28 489 36 503 47 C518 59 528 74 532 92 C537 111 539 133 539 159 L540 494 C540 519 537 534 531 541 C525 549 514 552 496 552 L488 552 L488 567 L540 567 L548 567 L556 567 L605 567 L605 567 Z " />
<glyph glyph-name="Yacute" unicode="&#xdd;" horiz-adv-x="566" d="M289 598 L284 602 L374 747 C387 767 395 781 401 789 C407 798 411 802 413 802 C419 802 425 801 431 795 C438 790 441 786 441 782 C441 780 439 776 432 767 C426 759 415 745 399 727 L289 598 L289 598 Z M362 15 L362 0 L319 0 L291 0 L263 0 L220 0 L220 15 L227 15 C243 15 252 19 256 27 C261 35 263 53 263 80 L263 224 L98 489 C90 503 83 513 77 521 C71 530 67 536 61 540 C56 545 52 547 47 549 C43 551 38 552 32 552 L27 552 L27 567 L49 567 L83 567 L116 567 L168 567 L168 552 L161 552 C147 552 141 549 139 543 C138 537 144 524 156 502 L310 252 L468 493 C484 518 491 534 489 541 C488 549 479 552 461 552 L453 552 L453 567 L516 567 L525 567 L533 567 L560 567 L560 552 L555 552 C549 552 543 552 537 550 C532 548 527 545 521 540 C516 536 511 530 504 521 C498 513 490 501 480 487 L480 487 L319 244 L319 244 L319 80 C319 53 321 35 325 27 C330 19 340 15 355 15 L362 15 L362 15 Z " />
<glyph glyph-name="agrave" unicode="&#xe0;" horiz-adv-x="488" d="M467 37 L472 30 C465 23 458 18 452 12 C446 7 441 3 434 -1 C428 -4 421 -6 412 -8 C404 -9 393 -10 381 -10 C368 -10 358 -8 350 -6 C342 -3 336 1 332 7 C328 13 327 21 325 30 C324 40 323 51 323 64 C299 39 274 22 247 11 C221 1 189 -5 152 -5 C110 -5 81 2 63 16 C45 30 36 54 36 88 C36 124 48 149 74 167 C100 185 144 198 204 204 L323 218 L323 307 C323 351 318 382 304 400 C291 418 269 427 237 427 L56 427 C96 433 130 436 159 438 C189 440 218 441 248 441 C295 441 328 430 347 408 C367 386 376 349 376 296 L376 73 C376 52 377 38 381 28 C385 19 397 14 415 14 C429 14 438 16 444 19 C450 23 458 29 467 37 L467 37 Z M202 616 L295 471 L289 467 L176 596 C161 614 151 626 144 634 C138 642 134 648 134 651 C134 655 138 659 144 664 C151 670 157 672 162 672 C164 672 168 669 174 660 C180 652 190 637 202 616 L202 616 Z M323 206 L204 188 C161 182 130 174 112 160 C94 147 85 128 85 102 C85 75 91 57 105 45 C119 34 143 28 177 28 C211 28 239 31 261 38 C284 46 305 58 323 74 L323 206 L323 206 Z " />
<glyph glyph-name="aacute" unicode="&#xe1;" horiz-adv-x="488" d="M184 467 L178 471 L268 616 C282 637 290 651 296 659 C302 668 306 672 307 672 C313 672 318 670 325 664 C333 659 336 655 336 651 C336 649 334 645 327 636 C321 628 310 614 294 596 L184 467 L184 467 Z M467 37 L472 30 C465 23 458 18 452 12 C446 7 441 3 434 -1 C428 -4 421 -6 412 -8 C404 -9 393 -10 381 -10 C368 -10 358 -8 350 -6 C342 -3 336 1 332 7 C328 13 327 21 325 30 C324 40 323 51 323 64 C299 39 274 22 247 11 C221 1 189 -5 152 -5 C110 -5 81 2 63 16 C45 30 36 54 36 88 C36 124 48 149 74 167 C100 185 144 198 204 204 L323 218 L323 307 C323 351 318 382 304 400 C291 418 269 427 237 427 L56 427 C96 433 130 436 159 438 C189 440 218 441 248 441 C295 441 328 430 347 408 C367 386 376 349 376 296 L376 73 C376 52 377 38 381 28 C385 19 397 14 415 14 C429 14 438 16 444 19 C450 23 458 29 467 37 L467 37 Z M323 206 L204 188 C161 182 130 174 112 160 C94 147 85 128 85 102 C85 75 91 57 105 45 C119 34 143 28 177 28 C211 28 239 31 261 38 C284 46 305 58 323 74 L323 206 L323 206 Z " />
<glyph glyph-name="acircumflex" unicode="&#xe2;" horiz-adv-x="488" d="M467 37 L472 30 C465 23 458 18 452 12 C446 7 441 3 434 -1 C428 -4 421 -6 412 -8 C404 -9 393 -10 381 -10 C368 -10 358 -8 350 -6 C342 -3 336 1 332 7 C328 13 327 21 325 30 C324 40 323 51 323 64 C299 39 274 22 247 11 C221 1 189 -5 152 -5 C110 -5 81 2 63 16 C45 30 36 54 36 88 C36 124 48 149 74 167 C100 185 144 198 204 204 L323 218 L323 307 C323 351 318 382 304 400 C291 418 269 427 237 427 L56 427 C96 433 130 436 159 438 C189 440 218 441 248 441 C295 441 328 430 347 408 C367 386 376 349 376 296 L376 73 C376 52 377 38 381 28 C385 19 397 14 415 14 C429 14 438 16 444 19 C450 23 458 29 467 37 L467 37 Z M216 629 L102 469 L97 474 L200 667 C202 670 203 673 205 676 C207 680 211 681 216 681 C221 681 224 680 226 676 C229 673 231 670 232 667 L335 474 L330 469 L216 629 L216 629 Z M323 206 L204 188 C161 182 130 174 112 160 C94 147 85 128 85 102 C85 75 91 57 105 45 C119 34 143 28 177 28 C211 28 239 31 261 38 C284 46 305 58 323 74 L323 206 L323 206 Z " />
<glyph glyph-name="atilde" unicode="&#xe3;" horiz-adv-x="579" d="M94 531 L86 531 C86 568 91 593 101 608 C111 624 128 631 152 631 C171 631 188 629 202 622 C217 616 230 608 244 600 C258 592 273 586 287 579 C302 573 319 569 337 569 C355 569 368 573 375 582 C383 592 386 607 386 629 L395 629 C395 595 391 572 380 557 C370 543 352 535 326 535 C308 535 291 539 276 545 C262 552 248 558 234 566 C220 574 206 582 191 588 C177 595 160 598 141 598 C124 598 113 593 105 583 C98 573 94 556 94 531 L94 531 Z M512 34 L512 25 L462 10 L428 -5 L419 -5 L419 0 L419 110 L419 111 C387 90 359 72 336 57 C314 43 295 31 281 22 C265 11 251 2 240 -5 C207 -5 179 -1 155 6 C131 14 112 25 97 41 C83 57 72 78 65 103 C59 129 55 160 55 196 C55 241 58 278 66 309 C74 341 86 365 102 385 C119 405 140 420 166 428 C193 437 225 441 263 441 C309 441 344 439 370 435 C396 431 415 426 426 420 L419 407 L455 436 L469 436 L469 123 L469 81 C469 73 470 68 471 64 C473 60 474 58 477 55 C481 53 484 50 490 47 C496 45 504 40 512 34 L512 34 Z M419 118 L419 407 C409 413 391 417 365 421 C340 425 305 427 261 427 C233 427 210 424 190 416 C170 408 154 397 142 379 C130 362 122 340 116 313 C110 287 107 254 107 215 C107 147 119 98 143 69 C168 41 210 26 268 26 C272 26 284 32 307 46 C331 60 368 84 419 118 L419 118 Z " />
<glyph glyph-name="adieresis" unicode="&#xe4;" horiz-adv-x="488" d="M305 506 C294 506 286 509 281 513 C277 518 274 526 274 537 C274 549 277 556 281 560 C286 565 294 567 305 567 C317 567 325 566 329 561 C334 557 336 549 336 537 C336 526 334 518 329 513 C325 509 317 506 305 506 L305 506 Z M127 506 C116 506 108 509 103 513 C99 518 96 526 96 537 C96 549 99 556 103 560 C108 565 116 567 127 567 C139 567 146 566 150 561 C155 557 157 549 157 537 C157 526 156 518 151 513 C147 509 139 506 127 506 L127 506 Z M467 37 L472 30 C465 23 458 18 452 12 C446 7 441 3 434 -1 C428 -4 421 -6 412 -8 C404 -9 393 -10 381 -10 C368 -10 358 -8 350 -6 C342 -3 336 1 332 7 C328 13 327 21 325 30 C324 40 323 51 323 64 C299 39 274 22 247 11 C221 1 189 -5 152 -5 C110 -5 81 2 63 16 C45 30 36 54 36 88 C36 124 48 149 74 167 C100 185 144 198 204 204 L323 218 L323 307 C323 351 318 382 304 400 C291 418 269 427 237 427 L56 427 C96 433 130 436 159 438 C189 440 218 441 248 441 C295 441 328 430 347 408 C367 386 376 349 376 296 L376 73 C376 52 377 38 381 28 C385 19 397 14 415 14 C429 14 438 16 444 19 C450 23 458 29 467 37 L467 37 Z M323 206 L204 188 C161 182 130 174 112 160 C94 147 85 128 85 102 C85 75 91 57 105 45 C119 34 143 28 177 28 C211 28 239 31 261 38 C284 46 305 58 323 74 L323 206 L323 206 Z " />
<glyph glyph-name="aring" unicode="&#xe5;" horiz-adv-x="488" d="M216 482 C270 482 296 510 296 564 C296 594 290 615 278 627 C266 639 246 645 216 645 C187 645 166 639 154 627 C142 615 136 594 136 564 C136 510 163 482 216 482 L216 482 Z M122 564 C122 598 129 621 143 635 C158 649 182 656 216 656 C250 656 274 650 288 636 C303 622 310 598 310 564 C310 502 279 471 216 471 C154 471 122 502 122 564 L122 564 Z M467 37 L472 30 C465 23 458 18 452 12 C446 7 441 3 434 -1 C428 -4 421 -6 412 -8 C404 -9 393 -10 381 -10 C368 -10 358 -8 350 -6 C342 -3 336 1 332 7 C328 13 327 21 325 30 C324 40 323 51 323 64 C299 39 274 22 247 11 C221 1 189 -5 152 -5 C110 -5 81 2 63 16 C45 30 36 54 36 88 C36 124 48 149 74 167 C100 185 144 198 204 204 L323 218 L323 307 C323 351 318 382 304 400 C291 418 269 427 237 427 L56 427 C96 433 130 436 159 438 C189 440 218 441 248 441 C295 441 328 430 347 408 C367 386 376 349 376 296 L376 73 C376 52 377 38 381 28 C385 19 397 14 415 14 C429 14 438 16 444 19 C450 23 458 29 467 37 L467 37 Z M323 206 L204 188 C161 182 130 174 112 160 C94 147 85 128 85 102 C85 75 91 57 105 45 C119 34 143 28 177 28 C211 28 239 31 261 38 C284 46 305 58 323 74 L323 206 L323 206 Z " />
<glyph glyph-name="ccedilla" unicode="&#xe7;" horiz-adv-x="481" d="M430 41 C410 25 386 14 357 6 C329 -1 290 -5 240 -5 C206 -5 176 -2 152 6 C128 14 110 27 94 43 C79 60 69 82 61 108 C54 135 50 167 50 205 C50 248 54 284 63 314 C73 344 87 369 107 387 C127 406 152 420 184 428 C216 437 255 441 300 441 C345 441 377 434 397 420 C417 406 429 382 432 348 C432 333 425 325 409 325 C395 325 386 334 384 350 C382 378 375 397 361 409 C347 421 325 427 294 427 C260 427 230 424 206 416 C182 409 163 398 147 381 C132 365 122 344 114 318 C107 292 103 261 103 224 C103 188 106 158 112 132 C119 107 129 87 143 71 C158 55 177 44 199 36 C222 29 250 25 282 25 C325 25 356 27 378 30 C400 34 416 39 425 47 L430 41 L430 41 Z " />
<glyph glyph-name="egrave" unicode="&#xe8;" horiz-adv-x="488" d="M436 41 C416 25 392 14 362 6 C333 -1 293 -5 243 -5 C209 -5 179 -2 154 6 C130 14 110 27 94 43 C79 60 69 82 61 108 C54 135 50 167 50 205 C50 248 54 284 62 314 C70 344 83 369 100 387 C118 406 140 420 167 428 C195 437 228 441 267 441 C329 441 373 428 399 402 C425 376 438 333 438 271 L105 271 C105 264 105 257 104 249 C104 241 103 233 103 224 C103 188 107 158 113 132 C120 107 130 87 144 71 C159 55 178 44 201 36 C225 29 253 25 285 25 C329 25 362 27 384 30 C407 34 423 39 432 47 L436 41 L436 41 Z M253 616 L347 471 L341 467 L228 596 C213 614 202 626 195 634 C189 642 185 648 185 651 C185 655 188 659 195 664 C203 670 209 672 214 672 C216 672 219 669 225 660 C231 652 241 637 253 616 L253 616 Z M106 281 L391 289 L368 289 C384 289 391 297 391 313 C391 355 383 384 363 401 C344 419 311 427 265 427 C215 427 178 417 152 394 C127 372 112 334 106 281 L106 281 Z " />
<glyph glyph-name="eacute" unicode="&#xe9;" horiz-adv-x="488" d="M235 467 L230 471 L320 616 C334 637 342 651 348 659 C354 668 358 672 359 672 C365 672 371 670 377 664 C384 659 387 655 387 651 C387 649 385 645 378 636 C372 628 361 614 345 596 L235 467 L235 467 Z M436 41 C416 25 392 14 362 6 C333 -1 293 -5 243 -5 C209 -5 179 -2 154 6 C130 14 110 27 94 43 C79 60 69 82 61 108 C54 135 50 167 50 205 C50 248 54 284 62 314 C70 344 83 369 100 387 C118 406 140 420 167 428 C195 437 228 441 267 441 C329 441 373 428 399 402 C425 376 438 333 438 271 L105 271 C105 264 105 257 104 249 C104 241 103 233 103 224 C103 188 107 158 113 132 C120 107 130 87 144 71 C159 55 178 44 201 36 C225 29 253 25 285 25 C329 25 362 27 384 30 C407 34 423 39 432 47 L436 41 L436 41 Z M106 281 L391 289 L368 289 C384 289 391 297 391 313 C391 355 383 384 363 401 C344 419 311 427 265 427 C215 427 178 417 152 394 C127 372 112 334 106 281 L106 281 Z " />
<glyph glyph-name="ecircumflex" unicode="&#xea;" horiz-adv-x="488" d="M436 41 C416 25 392 14 362 6 C333 -1 293 -5 243 -5 C209 -5 179 -2 154 6 C130 14 110 27 94 43 C79 60 69 82 61 108 C54 135 50 167 50 205 C50 248 54 284 62 314 C70 344 83 369 100 387 C118 406 140 420 167 428 C195 437 228 441 267 441 C329 441 373 428 399 402 C425 376 438 333 438 271 L105 271 C105 264 105 257 104 249 C104 241 103 233 103 224 C103 188 107 158 113 132 C120 107 130 87 144 71 C159 55 178 44 201 36 C225 29 253 25 285 25 C329 25 362 27 384 30 C407 34 423 39 432 47 L436 41 L436 41 Z M267 629 L153 469 L148 474 L252 667 C254 670 255 673 257 676 C259 680 263 681 267 681 C273 681 276 680 278 676 C280 673 282 670 283 667 L387 474 L382 469 L267 629 L267 629 Z M106 281 L391 289 L368 289 C384 289 391 297 391 313 C391 355 383 384 363 401 C344 419 311 427 265 427 C215 427 178 417 152 394 C127 372 112 334 106 281 L106 281 Z " />
<glyph glyph-name="edieresis" unicode="&#xeb;" horiz-adv-x="488" d="M356 506 C345 506 338 509 333 513 C329 518 326 526 326 537 C326 549 328 556 332 560 C337 565 345 567 356 567 C368 567 376 566 380 561 C385 557 387 549 387 537 C387 526 385 518 380 513 C376 509 368 506 356 506 L356 506 Z M178 506 C167 506 160 509 155 513 C151 518 148 526 148 537 C148 549 150 556 154 560 C159 565 167 567 178 567 C190 567 198 566 202 561 C207 557 209 549 209 537 C209 526 207 518 202 513 C198 509 190 506 178 506 L178 506 Z M436 41 C416 25 392 14 362 6 C333 -1 293 -5 243 -5 C209 -5 179 -2 154 6 C130 14 110 27 94 43 C79 60 69 82 61 108 C54 135 50 167 50 205 C50 248 54 284 62 314 C70 344 83 369 100 387 C118 406 140 420 167 428 C195 437 228 441 267 441 C329 441 373 428 399 402 C425 376 438 333 438 271 L105 271 C105 264 105 257 104 249 C104 241 103 233 103 224 C103 188 107 158 113 132 C120 107 130 87 144 71 C159 55 178 44 201 36 C225 29 253 25 285 25 C329 25 362 27 384 30 C407 34 423 39 432 47 L436 41 L436 41 Z M106 281 L391 289 L368 289 C384 289 391 297 391 313 C391 355 383 384 363 401 C344 419 311 427 265 427 C215 427 178 417 152 394 C127 372 112 334 106 281 L106 281 Z " />
<glyph glyph-name="igrave" unicode="&#xec;" horiz-adv-x="226" d="M138 0 L138 356 L88 356 L88 342 C88 354 89 362 88 367 C88 373 87 377 86 379 C86 382 85 384 83 384 C81 385 79 386 77 387 L52 406 L52 416 L135 441 L138 441 L138 356 L138 0 C138 10 140 14 144 14 C148 15 158 15 173 15 L181 15 L181 0 L138 0 L138 0 Z M88 342 L88 0 L45 0 L45 15 L54 15 C69 15 78 16 82 15 C86 15 88 10 88 0 L88 342 L88 342 Z M99 616 L192 471 L187 467 L74 596 C59 614 48 626 41 634 C35 642 31 648 31 651 C31 655 35 659 41 664 C48 670 54 672 59 672 C61 672 65 669 71 660 C77 652 87 637 99 616 L99 616 Z " />
<glyph glyph-name="iacute" unicode="&#xed;" horiz-adv-x="226" d="M36 467 L30 471 L120 616 C134 637 142 651 148 659 C154 668 158 672 159 672 C165 672 171 670 177 664 C184 659 187 655 187 651 C187 649 184 645 178 636 C172 628 162 614 146 596 L36 467 L36 467 Z M138 0 L138 356 L88 356 L88 342 C88 354 89 362 88 367 C88 373 87 377 86 379 C86 382 85 384 83 384 C81 385 79 386 77 387 L52 406 L52 416 L135 441 L138 441 L138 356 L138 0 C138 10 140 14 144 14 C148 15 158 15 173 15 L181 15 L181 0 L138 0 L138 0 Z M88 342 L88 0 L45 0 L45 15 L54 15 C69 15 78 16 82 15 C86 15 88 10 88 0 L88 342 L88 342 Z " />
<glyph glyph-name="icircumflex" unicode="&#xee;" horiz-adv-x="226" d="M138 0 L138 356 L88 356 L88 342 C88 354 89 362 88 367 C88 373 87 377 86 379 C86 382 85 384 83 384 C81 385 79 386 77 387 L52 406 L52 416 L135 441 L138 441 L138 356 L138 0 C138 10 140 14 144 14 C148 15 158 15 173 15 L181 15 L181 0 L138 0 L138 0 Z M88 342 L88 0 L45 0 L45 15 L54 15 C69 15 78 16 82 15 C86 15 88 10 88 0 L88 342 L88 342 Z M113 659 L129 667 L232 474 L227 469 L113 629 L-1 469 L-6 474 L97 667 L113 659 L113 659 Z M97 651 L113 629 L97 651 L97 651 Z M129 667 L97 667 C99 670 100 673 102 676 C105 680 109 681 113 681 C118 681 121 680 123 676 C126 673 128 670 129 667 L129 667 Z " />
<glyph glyph-name="idieresis" unicode="&#xef;" horiz-adv-x="226" d="M202 506 C191 506 184 509 179 513 C175 518 172 526 172 537 C172 549 174 556 178 560 C183 565 191 567 202 567 C214 567 222 566 226 561 C231 557 233 549 233 537 C233 526 231 518 226 513 C222 509 214 506 202 506 L202 506 Z M24 506 C13 506 5 509 0 513 C-4 518 -7 526 -7 537 C-7 549 -4 556 0 560 C5 565 13 567 24 567 C36 567 44 566 48 561 C53 557 55 549 55 537 C55 526 53 518 48 513 C44 509 36 506 24 506 L24 506 Z M138 0 L138 356 L88 356 L88 342 C88 354 89 362 88 367 C88 373 87 377 86 379 C86 382 85 384 83 384 C81 385 79 386 77 387 L52 406 L52 416 L135 441 L138 441 L138 356 L138 0 C138 10 140 14 144 14 C148 15 158 15 173 15 L181 15 L181 0 L138 0 L138 0 Z M88 342 L88 0 L45 0 L45 15 L54 15 C69 15 78 16 82 15 C86 15 88 10 88 0 L88 342 L88 342 Z " />
<glyph glyph-name="ntilde" unicode="&#xf1;" horiz-adv-x="562" d="M137 531 L129 531 C129 568 134 593 144 608 C154 624 171 631 195 631 C214 631 231 629 245 622 C260 616 273 608 287 600 C301 592 316 586 330 579 C345 573 362 569 380 569 C398 569 410 573 418 582 C426 592 430 607 430 629 L438 629 C438 595 434 572 423 557 C413 543 395 535 369 535 C351 535 334 539 319 545 C305 552 291 558 277 566 C263 574 249 582 234 588 C220 595 203 598 184 598 C167 598 156 593 148 583 C141 573 137 556 137 531 L137 531 Z M386 0 L386 15 L393 15 C409 15 418 19 422 27 C427 35 429 53 429 80 L429 286 C429 308 428 326 425 342 C423 358 418 370 409 380 C401 390 389 397 373 401 C358 406 338 408 312 408 C295 408 273 405 246 399 C220 393 184 383 138 369 L138 343 L138 326 L138 80 C138 53 140 35 144 27 C149 19 159 15 174 15 L181 15 L181 0 L138 0 L113 0 L88 0 L45 0 L45 15 L51 15 C67 15 77 19 81 27 C86 35 88 53 88 80 L88 313 L88 343 L88 343 C88 355 89 362 88 367 C88 373 87 376 84 379 C82 383 79 385 73 387 C68 390 61 394 51 399 L45 402 L45 411 L128 436 L138 436 L138 375 C177 387 209 397 236 405 C264 414 286 421 303 426 C323 432 339 437 351 441 C379 441 402 439 418 433 C435 428 447 419 456 407 C466 395 471 380 474 361 C478 343 479 320 479 292 L479 80 C480 53 482 35 486 27 C491 19 501 15 516 15 L522 15 C523 15 523 13 522 7 C523 3 523 0 522 0 L479 0 L454 0 L429 0 L386 0 L386 0 Z " />
<glyph glyph-name="ograve" unicode="&#xf2;" horiz-adv-x="594" d="M297 6 C332 6 361 9 385 17 C410 25 430 37 445 54 C461 72 471 94 478 120 C486 147 489 180 489 218 C489 257 487 290 479 316 C472 343 461 364 445 381 C430 399 411 410 386 418 C362 426 332 430 297 430 C263 430 233 427 209 419 C185 411 166 400 150 382 C135 365 125 343 117 316 C110 290 106 257 106 218 C106 180 109 147 116 120 C124 94 135 73 150 55 C166 38 185 26 209 18 C233 10 263 6 297 6 L297 6 Z M50 218 C50 259 54 293 63 321 C73 350 86 372 106 390 C126 408 152 421 183 429 C215 437 253 441 297 441 C343 441 381 437 412 429 C444 421 468 409 488 391 C508 373 522 351 531 322 C541 294 545 259 545 218 C545 178 542 144 532 115 C523 87 509 64 489 46 C469 28 444 15 412 7 C381 -1 343 -5 297 -5 C253 -5 215 -1 183 7 C152 15 127 27 107 45 C87 63 74 86 64 114 C55 143 50 178 50 218 L50 218 Z M284 616 L377 471 L371 467 L258 596 C243 614 232 626 225 634 C219 642 215 648 215 651 C215 655 218 659 225 664 C233 670 239 672 244 672 C246 672 249 669 255 660 C261 652 271 637 284 616 L284 616 Z " />
<glyph glyph-name="oacute" unicode="&#xf3;" horiz-adv-x="594" d="M265 467 L260 471 L350 616 C364 637 372 651 378 659 C384 668 388 672 389 672 C395 672 401 670 407 664 C414 659 417 655 417 651 C418 649 415 645 408 636 C402 628 391 614 375 596 L265 467 L265 467 Z M297 6 C332 6 361 9 385 17 C410 25 430 37 445 54 C461 72 471 94 478 120 C486 147 489 180 489 218 C489 257 487 290 479 316 C472 343 461 364 445 381 C430 399 411 410 386 418 C362 426 332 430 297 430 C263 430 233 427 209 419 C185 411 166 400 150 382 C135 365 125 343 117 316 C110 290 106 257 106 218 C106 180 109 147 116 120 C124 94 135 73 150 55 C166 38 185 26 209 18 C233 10 263 6 297 6 L297 6 Z M50 218 C50 259 54 293 63 321 C73 350 86 372 106 390 C126 408 152 421 183 429 C215 437 253 441 297 441 C343 441 381 437 412 429 C444 421 468 409 488 391 C508 373 522 351 531 322 C541 294 545 259 545 218 C545 178 542 144 532 115 C523 87 509 64 489 46 C469 28 444 15 412 7 C381 -1 343 -5 297 -5 C253 -5 215 -1 183 7 C152 15 127 27 107 45 C87 63 74 86 64 114 C55 143 50 178 50 218 L50 218 Z " />
<glyph glyph-name="ocircumflex" unicode="&#xf4;" horiz-adv-x="594" d="M297 6 C332 6 361 9 385 17 C410 25 430 37 445 54 C461 72 471 94 478 120 C486 147 489 180 489 218 C489 257 487 290 479 316 C472 343 461 364 445 381 C430 399 411 410 386 418 C362 426 332 430 297 430 C263 430 233 427 209 419 C185 411 166 400 150 382 C135 365 125 343 117 316 C110 290 106 257 106 218 C106 180 109 147 116 120 C124 94 135 73 150 55 C166 38 185 26 209 18 C233 10 263 6 297 6 L297 6 Z M50 218 C50 259 54 293 63 321 C73 350 86 372 106 390 C126 408 152 421 183 429 C215 437 253 441 297 441 C343 441 381 437 412 429 C444 421 468 409 488 391 C508 373 522 351 531 322 C541 294 545 259 545 218 C545 178 542 144 532 115 C523 87 509 64 489 46 C469 28 444 15 412 7 C381 -1 343 -5 297 -5 C253 -5 215 -1 183 7 C152 15 127 27 107 45 C87 63 74 86 64 114 C55 143 50 178 50 218 L50 218 Z M297 629 L183 469 L178 474 L282 667 C284 670 285 673 287 676 C289 680 293 681 297 681 C303 681 306 680 308 676 C310 673 312 670 313 667 L417 474 L412 469 L297 629 L297 629 Z " />
<glyph glyph-name="otilde" unicode="&#xf5;" horiz-adv-x="594" d="M151 531 L143 531 C143 568 148 593 158 608 C168 624 185 631 209 631 C228 631 245 629 259 622 C274 616 287 608 301 600 C315 592 330 586 344 579 C359 573 376 569 394 569 C412 569 424 573 432 582 C440 592 444 607 444 629 L452 629 C452 595 448 572 437 557 C427 543 409 535 383 535 C365 535 348 539 333 545 C319 552 305 558 291 566 C277 574 263 582 248 588 C234 595 217 598 198 598 C181 598 170 593 162 583 C155 573 151 556 151 531 L151 531 Z M297 6 C332 6 361 9 385 17 C410 25 430 37 445 54 C461 72 471 94 478 120 C486 147 489 180 489 218 C489 257 487 290 479 316 C472 343 461 364 445 381 C430 399 411 410 386 418 C362 426 332 430 297 430 C263 430 233 427 209 419 C185 411 166 400 150 382 C135 365 125 343 117 316 C110 290 106 257 106 218 C106 180 109 147 116 120 C124 94 135 73 150 55 C166 38 185 26 209 18 C233 10 263 6 297 6 L297 6 Z M50 218 C50 259 54 293 63 321 C73 350 86 372 106 390 C126 408 152 421 183 429 C215 437 253 441 297 441 C343 441 381 437 412 429 C444 421 468 409 488 391 C508 373 522 351 531 322 C541 294 545 259 545 218 C545 178 542 144 532 115 C523 87 509 64 489 46 C469 28 444 15 412 7 C381 -1 343 -5 297 -5 C253 -5 215 -1 183 7 C152 15 127 27 107 45 C87 63 74 86 64 114 C55 143 50 178 50 218 L50 218 Z " />
<glyph glyph-name="odieresis" unicode="&#xf6;" horiz-adv-x="594" d="M387 506 C376 506 368 509 363 513 C359 518 356 526 356 537 C356 549 359 556 363 560 C368 565 376 567 387 567 C399 567 406 566 410 561 C415 557 417 549 417 537 C417 526 416 518 411 513 C407 509 399 506 387 506 L387 506 Z M208 506 C197 506 190 509 185 513 C181 518 178 526 178 537 C178 549 180 556 184 560 C189 565 197 567 208 567 C220 567 228 566 232 561 C237 557 239 549 239 537 C239 526 237 518 232 513 C228 509 220 506 208 506 L208 506 Z M297 6 C332 6 361 9 385 17 C410 25 430 37 445 54 C461 72 471 94 478 120 C486 147 489 180 489 218 C489 257 487 290 479 316 C472 343 461 364 445 381 C430 399 411 410 386 418 C362 426 332 430 297 430 C263 430 233 427 209 419 C185 411 166 400 150 382 C135 365 125 343 117 316 C110 290 106 257 106 218 C106 180 109 147 116 120 C124 94 135 73 150 55 C166 38 185 26 209 18 C233 10 263 6 297 6 L297 6 Z M50 218 C50 259 54 293 63 321 C73 350 86 372 106 390 C126 408 152 421 183 429 C215 437 253 441 297 441 C343 441 381 437 412 429 C444 421 468 409 488 391 C508 373 522 351 531 322 C541 294 545 259 545 218 C545 178 542 144 532 115 C523 87 509 64 489 46 C469 28 444 15 412 7 C381 -1 343 -5 297 -5 C253 -5 215 -1 183 7 C152 15 127 27 107 45 C87 63 74 86 64 114 C55 143 50 178 50 218 L50 218 Z " />
<glyph glyph-name="oslash" unicode="&#xf8;" horiz-adv-x="594" d="M56 -11 L44 1 L100 52 C83 70 70 92 62 119 C54 147 50 180 50 218 C50 259 54 293 63 321 C73 350 86 372 106 390 C126 408 152 421 183 429 C215 437 253 441 297 441 C382 441 444 426 482 396 L539 447 L550 435 L494 385 C512 367 525 345 533 317 C541 290 545 257 545 218 C545 178 542 144 532 115 C523 87 509 64 489 46 C469 28 444 15 412 7 C381 -1 343 -5 297 -5 C213 -5 151 10 113 40 L56 -11 L56 -11 Z M297 6 C332 6 361 9 385 17 C410 25 430 37 445 54 C461 72 471 94 478 120 C486 147 489 180 489 218 C489 278 481 324 463 356 L141 65 C156 45 175 30 201 20 C227 11 259 6 297 6 L297 6 Z M132 80 L454 371 C439 392 419 407 393 416 C368 426 336 430 297 430 C263 430 233 427 209 419 C185 411 166 400 150 382 C135 365 125 343 117 316 C110 290 106 257 106 218 C106 158 115 112 132 80 L132 80 Z " />
<glyph glyph-name="ugrave" unicode="&#xf9;" horiz-adv-x="527" d="M356 421 L356 436 L399 436 L424 436 L449 436 L449 123 C449 103 449 89 449 79 C450 70 451 63 453 59 C456 55 459 53 465 50 C471 48 480 42 492 34 C493 34 493 32 492 26 C493 26 493 25 492 25 L409 0 L399 0 L399 13 L399 62 C365 50 338 40 314 31 C291 23 272 16 256 10 C239 4 225 -1 214 -5 C184 -5 159 -3 138 3 C118 9 102 18 90 31 C78 45 70 61 65 81 C61 102 58 127 58 156 L58 356 C58 384 57 401 52 409 C48 417 37 421 21 421 L15 421 L15 436 L58 436 L83 436 L108 436 L108 161 C108 137 110 118 114 100 C119 83 127 70 137 59 C148 49 162 42 181 36 C201 31 225 28 253 28 C269 28 287 30 308 36 C330 42 360 53 399 67 L399 110 L399 356 C399 384 398 401 393 409 C389 417 379 421 363 421 L356 421 L356 421 Z M240 616 L333 471 L327 467 L214 596 C199 614 188 626 181 634 C175 642 171 648 171 651 C171 655 174 659 181 664 C189 670 195 672 200 672 C202 672 205 669 211 660 C217 652 227 637 240 616 L240 616 Z " />
<glyph glyph-name="uacute" unicode="&#xfa;" horiz-adv-x="527" d="M222 467 L216 471 L306 616 C320 637 328 651 334 659 C340 668 344 672 345 672 C351 672 357 670 363 664 C370 659 373 655 373 651 C374 649 372 645 365 636 C359 628 348 614 332 596 L222 467 L222 467 Z M356 421 L356 436 L399 436 L424 436 L449 436 L449 123 C449 103 449 89 449 79 C450 70 451 63 453 59 C456 55 459 53 465 50 C471 48 480 42 492 34 C493 34 493 32 492 26 C493 26 493 25 492 25 L409 0 L399 0 L399 13 L399 62 C365 50 338 40 314 31 C291 23 272 16 256 10 C239 4 225 -1 214 -5 C184 -5 159 -3 138 3 C118 9 102 18 90 31 C78 45 70 61 65 81 C61 102 58 127 58 156 L58 356 C58 384 57 401 52 409 C48 417 37 421 21 421 L15 421 L15 436 L58 436 L83 436 L108 436 L108 161 C108 137 110 118 114 100 C119 83 127 70 137 59 C148 49 162 42 181 36 C201 31 225 28 253 28 C269 28 287 30 308 36 C330 42 360 53 399 67 L399 110 L399 356 C399 384 398 401 393 409 C389 417 379 421 363 421 L356 421 L356 421 Z " />
<glyph glyph-name="ucircumflex" unicode="&#xfb;" horiz-adv-x="527" d="M356 421 L356 436 L399 436 L424 436 L449 436 L449 123 C449 103 449 89 449 79 C450 70 451 63 453 59 C456 55 459 53 465 50 C471 48 480 42 492 34 C493 34 493 32 492 26 C493 26 493 25 492 25 L409 0 L399 0 L399 13 L399 62 C365 50 338 40 314 31 C291 23 272 16 256 10 C239 4 225 -1 214 -5 C184 -5 159 -3 138 3 C118 9 102 18 90 31 C78 45 70 61 65 81 C61 102 58 127 58 156 L58 356 C58 384 57 401 52 409 C48 417 37 421 21 421 L15 421 L15 436 L58 436 L83 436 L108 436 L108 161 C108 137 110 118 114 100 C119 83 127 70 137 59 C148 49 162 42 181 36 C201 31 225 28 253 28 C269 28 287 30 308 36 C330 42 360 53 399 67 L399 110 L399 356 C399 384 398 401 393 409 C389 417 379 421 363 421 L356 421 L356 421 Z M254 629 L139 469 L134 474 L238 667 C240 670 241 673 243 676 C245 680 249 681 254 681 C259 681 262 680 264 676 C267 673 269 670 270 667 L373 474 L368 469 L254 629 L254 629 Z " />
<glyph glyph-name="udieresis" unicode="&#xfc;" horiz-adv-x="527" d="M343 506 C332 506 324 509 319 513 C315 518 312 526 312 537 C312 549 315 556 319 560 C324 565 332 567 343 567 C355 567 362 566 366 561 C371 557 373 549 373 537 C373 526 372 518 367 513 C363 509 355 506 343 506 L343 506 Z M164 506 C153 506 146 509 141 513 C137 518 134 526 134 537 C134 549 136 556 140 560 C145 565 153 567 164 567 C176 567 184 566 188 561 C193 557 195 549 195 537 C195 526 193 518 188 513 C184 509 176 506 164 506 L164 506 Z M356 421 L356 436 L399 436 L424 436 L449 436 L449 123 C449 103 449 89 449 79 C450 70 451 63 453 59 C456 55 459 53 465 50 C471 48 480 42 492 34 C493 34 493 32 492 26 C493 26 493 25 492 25 L409 0 L399 0 L399 13 L399 62 C365 50 338 40 314 31 C291 23 272 16 256 10 C239 4 225 -1 214 -5 C184 -5 159 -3 138 3 C118 9 102 18 90 31 C78 45 70 61 65 81 C61 102 58 127 58 156 L58 356 C58 384 57 401 52 409 C48 417 37 421 21 421 L15 421 L15 436 L58 436 L83 436 L108 436 L108 161 C108 137 110 118 114 100 C119 83 127 70 137 59 C148 49 162 42 181 36 C201 31 225 28 253 28 C269 28 287 30 308 36 C330 42 360 53 399 67 L399 110 L399 356 C399 384 398 401 393 409 C389 417 379 421 363 421 L356 421 L356 421 Z " />
<glyph glyph-name="Ydieresis" unicode="&#xff;" horiz-adv-x="417" d="M327 506 C316 506 308 509 303 513 C299 518 296 526 296 537 C296 549 299 556 303 560 C308 565 316 567 327 567 C339 567 347 566 351 561 C356 557 358 549 358 537 C358 526 356 518 351 513 C347 509 339 506 327 506 L327 506 Z M149 506 C138 506 130 509 125 513 C121 518 118 526 118 537 C118 549 121 556 125 560 C130 565 138 567 149 567 C161 567 168 566 172 561 C177 557 179 549 179 537 C179 526 178 518 173 513 C169 509 161 506 149 506 L149 506 Z M376 421 L376 436 L419 436 L428 436 L436 436 L473 436 C473 436 473 434 473 429 C473 424 473 421 473 421 L466 421 C452 421 442 419 434 412 C426 406 417 391 407 369 L241 -10 L215 -70 C217 -66 218 -64 216 -62 C215 -59 212 -57 206 -56 L230 -3 L75 356 L74 356 C68 370 64 382 59 390 C55 399 50 405 45 409 C41 414 36 416 30 418 C25 420 18 421 10 421 L3 421 L3 436 L40 436 L68 436 L97 436 L140 436 L140 421 L135 421 C122 421 115 418 114 410 C114 402 119 384 130 356 L130 356 L256 46 L393 375 C401 395 404 406 402 412 C400 418 394 421 382 421 L376 421 L376 421 Z M215 -70 L214 -72 C214 -71 214 -71 214 -71 C215 -71 215 -70 215 -70 L215 -70 Z M206 -56 L205 -56 C205 -57 205 -59 204 -61 C204 -63 203 -65 201 -67 L206 -56 L206 -56 Z M205 -56 L205 -56 C197 -53 184 -51 163 -51 C143 -50 113 -50 74 -50 C53 -50 38 -47 28 -42 C19 -36 14 -27 14 -14 C14 0 23 7 39 7 C46 7 52 6 57 3 C63 1 68 -1 72 -5 C77 -8 82 -10 87 -13 C93 -15 99 -17 105 -17 C129 -17 147 -16 161 -18 C176 -19 186 -21 194 -24 C202 -26 207 -30 208 -36 C210 -41 209 -48 205 -56 L205 -56 Z " />
<glyph glyph-name="Amacron" unicode="&#x100;" horiz-adv-x="588" d="M132 677 L132 705 L438 705 L438 677 L132 677 L132 677 Z M579 15 L579 0 L545 0 L515 0 L484 0 L428 0 L428 15 L435 15 C454 15 463 18 465 26 C467 34 462 52 450 80 L450 80 L398 203 L144 203 L92 70 C84 47 81 32 85 25 C89 19 100 15 118 15 L127 15 L127 0 L64 0 L54 0 L45 0 L8 0 L8 15 L15 15 C23 15 30 15 35 17 C41 19 45 23 49 27 C54 32 58 38 62 46 C67 55 72 66 77 80 L77 80 L278 580 L292 580 L516 68 C526 46 534 32 541 25 C549 19 559 15 573 15 L579 15 L579 15 Z M393 216 L266 514 L149 217 L393 216 L393 216 Z " />
<glyph glyph-name="amacron" unicode="&#x101;" horiz-adv-x="488" d="M63 546 L63 574 L369 574 L369 546 L63 546 L63 546 Z M467 37 L472 30 C465 23 458 18 452 12 C446 7 441 3 434 -1 C428 -4 421 -6 412 -8 C404 -9 393 -10 381 -10 C368 -10 358 -8 350 -6 C342 -3 336 1 332 7 C328 13 327 21 325 30 C324 40 323 51 323 64 C299 39 274 22 247 11 C221 1 189 -5 152 -5 C110 -5 81 2 63 16 C45 30 36 54 36 88 C36 124 48 149 74 167 C100 185 144 198 204 204 L323 218 L323 307 C323 351 318 382 304 400 C291 418 269 427 237 427 L56 427 C96 433 130 436 159 438 C189 440 218 441 248 441 C295 441 328 430 347 408 C367 386 376 349 376 296 L376 73 C376 52 377 38 381 28 C385 19 397 14 415 14 C429 14 438 16 444 19 C450 23 458 29 467 37 L467 37 Z M323 206 L204 188 C161 182 130 174 112 160 C94 147 85 128 85 102 C85 75 91 57 105 45 C119 34 143 28 177 28 C211 28 239 31 261 38 C284 46 305 58 323 74 L323 206 L323 206 Z " />
<glyph glyph-name="Abreve" unicode="&#x102;" horiz-adv-x="588" d="M166 779 L175 780 C180 754 191 737 207 725 C224 714 250 708 285 708 C321 708 346 713 362 724 C379 736 390 754 394 780 L403 779 C397 741 384 715 366 699 C348 683 321 675 285 675 C249 675 222 682 204 698 C186 714 174 741 166 779 L166 779 Z M579 15 L579 0 L545 0 L515 0 L484 0 L428 0 L428 15 L435 15 C454 15 463 18 465 26 C467 34 462 52 450 80 L450 80 L398 203 L144 203 L92 70 C84 47 81 32 85 25 C89 19 100 15 118 15 L127 15 L127 0 L64 0 L54 0 L45 0 L8 0 L8 15 L15 15 C23 15 30 15 35 17 C41 19 45 23 49 27 C54 32 58 38 62 46 C67 55 72 66 77 80 L77 80 L278 580 L292 580 L516 68 C526 46 534 32 541 25 C549 19 559 15 573 15 L579 15 L579 15 Z M393 216 L266 514 L149 217 L393 216 L393 216 Z " />
<glyph glyph-name="abreve" unicode="&#x103;" horiz-adv-x="488" d="M98 618 L106 619 C111 593 122 576 138 564 C155 553 181 547 216 547 C252 547 277 552 293 563 C310 575 321 593 325 619 L334 618 C328 580 315 554 297 538 C279 522 252 514 216 514 C180 514 153 521 135 537 C117 553 105 580 98 618 L98 618 Z M467 37 L472 30 C465 23 458 18 452 12 C446 7 441 3 434 -1 C428 -4 421 -6 412 -8 C404 -9 393 -10 381 -10 C368 -10 358 -8 350 -6 C342 -3 336 1 332 7 C328 13 327 21 325 30 C324 40 323 51 323 64 C299 39 274 22 247 11 C221 1 189 -5 152 -5 C110 -5 81 2 63 16 C45 30 36 54 36 88 C36 124 48 149 74 167 C100 185 144 198 204 204 L323 218 L323 307 C323 351 318 382 304 400 C291 418 269 427 237 427 L56 427 C96 433 130 436 159 438 C189 440 218 441 248 441 C295 441 328 430 347 408 C367 386 376 349 376 296 L376 73 C376 52 377 38 381 28 C385 19 397 14 415 14 C429 14 438 16 444 19 C450 23 458 29 467 37 L467 37 Z M323 206 L204 188 C161 182 130 174 112 160 C94 147 85 128 85 102 C85 75 91 57 105 45 C119 34 143 28 177 28 C211 28 239 31 261 38 C284 46 305 58 323 74 L323 206 L323 206 Z " />
<glyph glyph-name="Aogonek" unicode="&#x104;" horiz-adv-x="588" d="M579 15 L579 0 L545 0 L515 0 L484 0 C474 -4 464 -10 450 -19 C437 -27 425 -38 413 -51 C402 -63 392 -78 384 -95 C376 -111 372 -129 372 -149 C372 -174 379 -192 391 -203 C404 -213 425 -219 455 -219 C472 -219 485 -217 495 -213 C505 -209 514 -202 521 -193 L525 -197 C514 -210 502 -219 490 -225 C478 -230 463 -233 445 -233 C407 -233 381 -227 365 -215 C349 -203 341 -183 341 -155 C341 -137 344 -121 352 -105 C360 -89 370 -74 381 -61 C393 -47 405 -36 419 -26 C433 -15 447 -6 459 0 L428 0 L428 15 L435 15 C454 15 463 18 465 26 C467 34 462 52 450 80 L450 80 L398 203 L144 203 L92 70 C84 47 81 32 85 25 C89 19 100 15 118 15 L127 15 L127 0 L64 0 L54 0 L45 0 L8 0 L8 15 L15 15 C23 15 30 15 35 17 C41 19 45 23 49 27 C54 32 58 38 62 46 C67 55 72 66 77 80 L77 80 L278 580 L292 580 L516 68 C526 46 534 32 541 25 C549 19 559 15 573 15 L579 15 L579 15 Z M393 216 L266 514 L149 217 L393 216 L393 216 Z " />
<glyph glyph-name="aogonek" unicode="&#x105;" horiz-adv-x="488" d="M467 37 L472 30 C459 17 448 7 438 1 C428 -5 414 -8 395 -10 C381 -24 370 -40 359 -60 C349 -80 343 -102 343 -128 C343 -161 350 -184 362 -198 C375 -212 396 -219 426 -219 C443 -219 456 -217 466 -213 C476 -209 485 -202 492 -193 L496 -197 C485 -210 473 -219 461 -225 C449 -230 434 -233 415 -233 C377 -233 351 -226 335 -211 C320 -195 312 -169 312 -133 C312 -108 318 -86 330 -65 C342 -43 357 -25 374 -10 C351 -8 337 -2 331 9 C326 21 323 39 323 64 C299 39 274 22 247 11 C221 1 189 -5 152 -5 C110 -5 81 2 63 16 C45 30 36 54 36 88 C36 124 48 149 74 167 C100 185 144 198 204 204 L323 218 L323 307 C323 351 318 382 304 400 C291 418 269 427 237 427 L56 427 C96 433 130 436 159 438 C189 440 218 441 248 441 C295 441 328 430 347 408 C367 386 376 349 376 296 L376 73 C376 54 378 41 380 31 C383 22 391 17 404 15 C414 21 423 27 431 31 C440 36 448 40 455 42 L455 31 C446 28 436 22 424 14 C434 16 440 18 446 21 C452 25 459 30 467 37 L467 37 Z M323 206 L204 188 C161 182 130 174 112 160 C94 147 85 128 85 102 C85 75 91 57 105 45 C119 34 143 28 177 28 C211 28 239 31 261 38 C284 46 305 58 323 74 L323 206 L323 206 Z " />
<glyph glyph-name="Cacute" unicode="&#x106;" horiz-adv-x="723" d="M354 598 L348 602 L438 747 C452 767 460 781 466 789 C472 798 476 802 477 802 C483 802 489 801 495 795 C502 790 505 786 505 782 C505 780 503 776 496 767 C490 759 479 745 463 727 L354 598 L354 598 Z M663 5 L662 13 L662 13 L663 5 L663 5 Z M663 5 C653 3 640 3 625 1 C611 0 594 0 572 -2 C551 -3 527 -3 499 -4 C471 -4 439 -5 401 -5 C340 -5 289 0 245 10 C202 21 168 37 140 60 C113 84 94 114 81 150 C69 187 62 231 62 283 C62 336 68 381 80 417 C93 454 112 483 139 506 C167 530 201 546 244 556 C288 567 340 572 401 572 C439 572 470 573 498 572 C526 572 550 572 571 570 C593 569 611 569 625 567 C640 566 653 564 663 562 L662 554 L662 554 L663 562 L669 476 C667 476 665 475 662 475 L656 475 C654 479 651 482 649 485 C647 489 645 492 642 495 C626 517 606 533 584 542 C562 552 533 557 496 557 L496 557 C482 558 468 558 452 558 C436 558 419 558 401 558 C351 558 308 553 272 543 C237 533 208 518 186 496 C164 474 148 447 138 411 C128 376 123 333 123 283 C123 233 128 191 138 156 C148 122 164 94 186 72 C208 50 237 34 272 24 C308 14 351 9 401 9 L464 9 C514 11 551 15 578 25 C606 35 627 51 642 72 C645 76 647 79 649 82 C651 86 654 89 656 92 L662 92 C665 92 667 92 669 91 L663 5 L663 5 Z " />
<glyph glyph-name="cacute" unicode="&#x107;" horiz-adv-x="481" d="M222 467 L217 471 L307 616 C320 637 329 651 335 659 C341 668 345 672 346 672 C352 672 358 670 364 664 C371 659 374 655 374 651 C374 649 372 645 365 636 C359 628 348 614 332 596 L222 467 L222 467 Z M430 41 C410 25 386 14 357 6 C329 -1 290 -5 240 -5 C206 -5 176 -2 152 6 C128 14 110 27 94 43 C79 60 69 82 61 108 C54 135 50 167 50 205 C50 248 54 284 63 314 C73 344 87 369 107 387 C127 406 152 420 184 428 C216 437 255 441 300 441 C345 441 377 434 397 420 C417 406 429 382 432 348 C432 333 425 325 409 325 C395 325 386 334 384 350 C382 378 375 397 361 409 C347 421 325 427 294 427 C260 427 230 424 206 416 C182 409 163 398 147 381 C132 365 122 344 114 318 C107 292 103 261 103 224 C103 188 106 158 112 132 C119 107 129 87 143 71 C158 55 177 44 199 36 C222 29 250 25 282 25 C325 25 356 27 378 30 C400 34 416 39 425 47 L430 41 L430 41 Z " />
<glyph glyph-name="Ccircumflex" unicode="&#x108;" horiz-adv-x="723" d="M401 760 L286 600 L281 604 L385 798 C387 801 388 804 390 807 C392 811 396 812 401 812 C406 812 409 811 411 807 C414 804 416 801 417 797 L520 604 L515 600 L401 760 L401 760 Z M663 5 L662 13 L662 13 L663 5 L663 5 Z M663 5 C653 3 640 3 625 1 C611 0 594 0 572 -2 C551 -3 527 -3 499 -4 C471 -4 439 -5 401 -5 C340 -5 289 0 245 10 C202 21 168 37 140 60 C113 84 94 114 81 150 C69 187 62 231 62 283 C62 336 68 381 80 417 C93 454 112 483 139 506 C167 530 201 546 244 556 C288 567 340 572 401 572 C439 572 470 573 498 572 C526 572 550 572 571 570 C593 569 611 569 625 567 C640 566 653 564 663 562 L662 554 L662 554 L663 562 L669 476 C667 476 665 475 662 475 L656 475 C654 479 651 482 649 485 C647 489 645 492 642 495 C626 517 606 533 584 542 C562 552 533 557 496 557 L496 557 C482 558 468 558 452 558 C436 558 419 558 401 558 C351 558 308 553 272 543 C237 533 208 518 186 496 C164 474 148 447 138 411 C128 376 123 333 123 283 C123 233 128 191 138 156 C148 122 164 94 186 72 C208 50 237 34 272 24 C308 14 351 9 401 9 L464 9 C514 11 551 15 578 25 C606 35 627 51 642 72 C645 76 647 79 649 82 C651 86 654 89 656 92 L662 92 C665 92 667 92 669 91 L663 5 L663 5 Z " />
<glyph glyph-name="Cdot" unicode="&#x10a;" horiz-adv-x="723" d="M401 637 C390 637 382 639 377 643 C373 648 370 656 370 667 C370 679 373 687 377 691 C382 696 390 698 401 698 C413 698 420 696 424 691 C429 687 431 679 431 667 C431 656 430 649 425 644 C421 640 413 637 401 637 L401 637 Z M663 5 L662 13 L662 13 L663 5 L663 5 Z M663 5 C653 3 640 3 625 1 C611 0 594 0 572 -2 C551 -3 527 -3 499 -4 C471 -4 439 -5 401 -5 C340 -5 289 0 245 10 C202 21 168 37 140 60 C113 84 94 114 81 150 C69 187 62 231 62 283 C62 336 68 381 80 417 C93 454 112 483 139 506 C167 530 201 546 244 556 C288 567 340 572 401 572 C439 572 470 573 498 572 C526 572 550 572 571 570 C593 569 611 569 625 567 C640 566 653 564 663 562 L662 554 L662 554 L663 562 L669 476 C667 476 665 475 662 475 L656 475 C654 479 651 482 649 485 C647 489 645 492 642 495 C626 517 606 533 584 542 C562 552 533 557 496 557 L496 557 C482 558 468 558 452 558 C436 558 419 558 401 558 C351 558 308 553 272 543 C237 533 208 518 186 496 C164 474 148 447 138 411 C128 376 123 333 123 283 C123 233 128 191 138 156 C148 122 164 94 186 72 C208 50 237 34 272 24 C308 14 351 9 401 9 L464 9 C514 11 551 15 578 25 C606 35 627 51 642 72 C645 76 647 79 649 82 C651 86 654 89 656 92 L662 92 C665 92 667 92 669 91 L663 5 L663 5 Z " />
<glyph glyph-name="cdot" unicode="&#x10b;" horiz-adv-x="481" d="M300 506 C289 506 281 509 276 513 C272 518 269 526 269 537 C269 549 272 556 276 560 C281 565 289 567 300 567 C312 567 319 566 323 561 C328 557 330 549 330 537 C330 526 329 518 324 513 C320 509 312 506 300 506 L300 506 Z M430 41 C410 25 386 14 357 6 C329 -1 290 -5 240 -5 C206 -5 176 -2 152 6 C128 14 110 27 94 43 C79 60 69 82 61 108 C54 135 50 167 50 205 C50 248 54 284 63 314 C73 344 87 369 107 387 C127 406 152 420 184 428 C216 437 255 441 300 441 C345 441 377 434 397 420 C417 406 429 382 432 348 C432 333 425 325 409 325 C395 325 386 334 384 350 C382 378 375 397 361 409 C347 421 325 427 294 427 C260 427 230 424 206 416 C182 409 163 398 147 381 C132 365 122 344 114 318 C107 292 103 261 103 224 C103 188 106 158 112 132 C119 107 129 87 143 71 C158 55 177 44 199 36 C222 29 250 25 282 25 C325 25 356 27 378 30 C400 34 416 39 425 47 L430 41 L430 41 Z " />
<glyph glyph-name="Ccaron" unicode="&#x10c;" horiz-adv-x="723" d="M401 674 L286 834 L281 829 L385 636 C387 634 388 631 390 627 C392 624 396 622 401 622 C406 622 409 624 411 627 C414 631 416 634 417 636 L520 829 L515 834 L401 674 L401 674 Z M663 5 L662 13 L662 13 L663 5 L663 5 Z M663 5 C653 3 640 3 625 1 C611 0 594 0 572 -2 C551 -3 527 -3 499 -4 C471 -4 439 -5 401 -5 C340 -5 289 0 245 10 C202 21 168 37 140 60 C113 84 94 114 81 150 C69 187 62 231 62 283 C62 336 68 381 80 417 C93 454 112 483 139 506 C167 530 201 546 244 556 C288 567 340 572 401 572 C439 572 470 573 498 572 C526 572 550 572 571 570 C593 569 611 569 625 567 C640 566 653 564 663 562 L662 554 L662 554 L663 562 L669 476 C667 476 665 475 662 475 L656 475 C654 479 651 482 649 485 C647 489 645 492 642 495 C626 517 606 533 584 542 C562 552 533 557 496 557 L496 557 C482 558 468 558 452 558 C436 558 419 558 401 558 C351 558 308 553 272 543 C237 533 208 518 186 496 C164 474 148 447 138 411 C128 376 123 333 123 283 C123 233 128 191 138 156 C148 122 164 94 186 72 C208 50 237 34 272 24 C308 14 351 9 401 9 L464 9 C514 11 551 15 578 25 C606 35 627 51 642 72 C645 76 647 79 649 82 C651 86 654 89 656 92 L662 92 C665 92 667 92 669 91 L663 5 L663 5 Z " />
<glyph glyph-name="ccaron" unicode="&#x10d;" horiz-adv-x="481" d="M430 41 C410 25 386 14 357 6 C329 -1 290 -5 240 -5 C206 -5 176 -2 152 6 C128 14 110 27 94 43 C79 60 69 82 61 108 C54 135 50 167 50 205 C50 248 54 284 63 314 C73 344 87 369 107 387 C127 406 152 420 184 428 C216 437 255 441 300 441 C345 441 377 434 397 420 C417 406 429 382 432 348 C432 333 425 325 409 325 C395 325 386 334 384 350 C382 378 375 397 361 409 C347 421 325 427 294 427 C260 427 230 424 206 416 C182 409 163 398 147 381 C132 365 122 344 114 318 C107 292 103 261 103 224 C103 188 106 158 112 132 C119 107 129 87 143 71 C158 55 177 44 199 36 C222 29 250 25 282 25 C325 25 356 27 378 30 C400 34 416 39 425 47 L430 41 L430 41 Z M300 543 L186 703 L181 699 L284 505 C286 503 287 500 289 496 C292 493 296 491 300 491 C305 491 308 493 310 496 C313 500 315 503 316 506 L419 699 L414 703 L300 543 L300 543 Z " />
<glyph glyph-name="Dcaron" unicode="&#x10e;" horiz-adv-x="665" d="M51 552 L51 567 L94 567 L122 567 L150 567 L275 567 C337 567 389 563 432 552 C476 542 511 525 538 502 C566 480 585 450 597 414 C610 378 616 335 616 283 C616 232 611 188 600 152 C590 116 572 88 548 65 C524 43 493 27 455 16 C417 6 371 0 316 0 L150 0 L122 0 L94 0 L51 0 L51 15 L58 15 C74 15 83 19 87 27 C92 35 94 53 94 80 L94 487 C94 515 93 532 88 540 C84 548 74 552 58 552 L51 552 L51 552 Z M327 674 L213 834 L208 829 L311 636 C313 634 314 631 316 627 C319 624 323 622 327 622 C333 622 336 624 338 627 C340 631 342 634 343 636 L446 829 L441 834 L327 674 L327 674 Z M150 14 L316 14 C360 14 397 18 428 28 C460 38 484 53 504 75 C524 97 539 125 547 159 C556 193 560 235 560 283 C560 333 556 374 545 408 C535 442 518 469 495 491 C473 513 443 528 407 538 C371 548 327 553 275 553 L150 553 L150 14 L150 14 Z " />
<glyph glyph-name="dcaron" unicode="&#x10f;" horiz-adv-x="601" d="M534 34 L534 25 L451 0 L441 0 L441 13 L441 48 C408 39 380 31 356 24 C333 18 314 12 299 7 C282 3 268 -1 257 -5 C221 -5 190 -1 164 6 C138 14 117 25 101 41 C85 57 74 78 66 103 C59 129 55 160 55 196 C55 241 59 278 67 309 C75 341 88 365 106 385 C124 405 148 420 176 428 C205 437 240 441 280 441 C320 441 353 440 379 437 C405 435 426 431 441 427 L441 533 L441 587 C440 596 437 601 432 603 C428 606 419 611 405 619 L398 622 L398 631 L481 656 L491 656 L491 643 L491 546 L491 123 L491 81 C491 73 492 68 493 64 C495 60 496 58 499 55 C503 53 506 50 512 47 C518 45 526 40 534 34 L534 34 Z M606 571 L546 419 L540 421 L574 583 C577 597 579 609 582 622 C586 636 588 647 591 657 C595 667 597 675 600 681 C604 687 607 690 610 690 C616 690 621 690 629 688 C637 687 641 684 641 678 C641 675 639 665 633 647 C628 629 619 604 606 571 L606 571 Z M441 110 L441 412 C428 417 409 421 382 423 C356 426 321 427 277 427 C247 427 221 424 199 416 C177 408 160 397 146 379 C133 362 124 340 117 313 C111 287 107 254 107 215 C107 181 110 152 116 128 C123 104 133 86 147 70 C162 55 181 45 203 37 C226 30 253 26 285 26 C306 26 327 28 351 32 C375 37 405 44 441 54 L441 110 L441 110 Z " />
<glyph glyph-name="Emacron" unicode="&#x112;" horiz-adv-x="521" d="M103 677 L103 705 L409 705 L409 677 L103 677 L103 677 Z M373 247 L361 247 L357 254 C353 263 350 270 345 275 C341 281 335 284 327 287 C319 291 310 292 298 293 C286 295 271 295 253 295 L139 295 L139 14 L289 14 C311 14 328 14 342 16 C357 18 370 22 380 26 C391 31 401 38 410 46 C420 55 430 66 440 80 L450 91 C450 92 454 92 460 91 C460 92 460 92 460 92 C461 92 461 92 461 91 C458 76 456 62 452 49 C449 37 446 23 442 7 C442 5 441 3 441 0 L438 0 L361 0 L139 0 L111 0 L83 0 L40 0 L40 15 L46 15 C62 15 72 19 76 27 C81 35 83 53 83 80 L83 487 C83 515 82 532 77 540 C73 548 62 552 46 552 L40 552 L40 567 L83 567 L111 567 L139 567 L357 567 L428 567 L437 567 L437 560 C439 545 439 532 439 518 C440 505 441 491 442 475 L431 475 L424 487 C416 501 407 513 399 521 C391 530 382 537 372 541 C362 546 351 548 336 550 C322 552 304 553 282 553 L139 553 L139 309 L253 309 C271 309 285 309 297 310 C309 312 318 314 326 316 C334 319 340 323 344 327 C349 332 353 338 357 346 L361 352 C361 353 365 353 371 352 C373 354 373 354 373 352 L373 309 L373 302 L373 295 L373 247 L373 247 Z " />
<glyph glyph-name="emacron" unicode="&#x113;" horiz-adv-x="488" d="M114 546 L114 574 L420 574 L420 546 L114 546 L114 546 Z M436 41 C416 25 392 14 362 6 C333 -1 293 -5 243 -5 C209 -5 179 -2 154 6 C130 14 110 27 94 43 C79 60 69 82 61 108 C54 135 50 167 50 205 C50 248 54 284 62 314 C70 344 83 369 100 387 C118 406 140 420 167 428 C195 437 228 441 267 441 C329 441 373 428 399 402 C425 376 438 333 438 271 L105 271 C105 264 105 257 104 249 C104 241 103 233 103 224 C103 188 107 158 113 132 C120 107 130 87 144 71 C159 55 178 44 201 36 C225 29 253 25 285 25 C329 25 362 27 384 30 C407 34 423 39 432 47 L436 41 L436 41 Z M106 281 L391 289 L368 289 C384 289 391 297 391 313 C391 355 383 384 363 401 C344 419 311 427 265 427 C215 427 178 417 152 394 C127 372 112 334 106 281 L106 281 Z " />
<glyph glyph-name="Ebreve" unicode="&#x114;" horiz-adv-x="521" d="M137 779 L146 780 C151 754 162 737 178 725 C195 714 221 708 256 708 C292 708 317 713 333 724 C350 736 361 754 365 780 L374 779 C368 741 355 715 337 699 C319 683 292 675 256 675 C220 675 193 682 175 698 C157 714 145 741 137 779 L137 779 Z M373 247 L361 247 L357 254 C353 263 350 270 345 275 C341 281 335 284 327 287 C319 291 310 292 298 293 C286 295 271 295 253 295 L139 295 L139 14 L289 14 C311 14 328 14 342 16 C357 18 370 22 380 26 C391 31 401 38 410 46 C420 55 430 66 440 80 L450 91 C450 92 454 92 460 91 C460 92 460 92 460 92 C461 92 461 92 461 91 C458 76 456 62 452 49 C449 37 446 23 442 7 C442 5 441 3 441 0 L438 0 L361 0 L139 0 L111 0 L83 0 L40 0 L40 15 L46 15 C62 15 72 19 76 27 C81 35 83 53 83 80 L83 487 C83 515 82 532 77 540 C73 548 62 552 46 552 L40 552 L40 567 L83 567 L111 567 L139 567 L357 567 L428 567 L437 567 L437 560 C439 545 439 532 439 518 C440 505 441 491 442 475 L431 475 L424 487 C416 501 407 513 399 521 C391 530 382 537 372 541 C362 546 351 548 336 550 C322 552 304 553 282 553 L139 553 L139 309 L253 309 C271 309 285 309 297 310 C309 312 318 314 326 316 C334 319 340 323 344 327 C349 332 353 338 357 346 L361 352 C361 353 365 353 371 352 C373 354 373 354 373 352 L373 309 L373 302 L373 295 L373 247 L373 247 Z " />
<glyph glyph-name="ebreve" unicode="&#x115;" horiz-adv-x="488" d="M149 648 L158 649 C163 623 173 606 189 594 C206 583 232 577 267 577 C303 577 329 582 345 593 C362 605 373 623 377 649 L386 648 C379 610 367 584 349 568 C331 552 304 544 267 544 C231 544 204 551 186 567 C168 583 156 610 149 648 L149 648 Z M436 41 C416 25 392 14 362 6 C333 -1 293 -5 243 -5 C209 -5 179 -2 154 6 C130 14 110 27 94 43 C79 60 69 82 61 108 C54 135 50 167 50 205 C50 248 54 284 62 314 C70 344 83 369 100 387 C118 406 140 420 167 428 C195 437 228 441 267 441 C329 441 373 428 399 402 C425 376 438 333 438 271 L105 271 C105 264 105 257 104 249 C104 241 103 233 103 224 C103 188 107 158 113 132 C120 107 130 87 144 71 C159 55 178 44 201 36 C225 29 253 25 285 25 C329 25 362 27 384 30 C407 34 423 39 432 47 L436 41 L436 41 Z M106 281 L391 289 L368 289 C384 289 391 297 391 313 C391 355 383 384 363 401 C344 419 311 427 265 427 C215 427 178 417 152 394 C127 372 112 334 106 281 L106 281 Z " />
<glyph glyph-name="Edot" unicode="&#x116;" horiz-adv-x="521" d="M256 637 C245 637 237 639 232 643 C228 648 225 656 225 667 C225 679 228 687 232 691 C237 696 245 698 256 698 C268 698 275 696 279 691 C284 687 286 679 286 667 C286 656 285 649 280 644 C276 640 268 637 256 637 L256 637 Z M373 247 L361 247 L357 254 C353 263 350 270 345 275 C341 281 335 284 327 287 C319 291 310 292 298 293 C286 295 271 295 253 295 L139 295 L139 14 L289 14 C311 14 328 14 342 16 C357 18 370 22 380 26 C391 31 401 38 410 46 C420 55 430 66 440 80 L450 91 C450 92 454 92 460 91 C460 92 460 92 460 92 C461 92 461 92 461 91 C458 76 456 62 452 49 C449 37 446 23 442 7 C442 5 441 3 441 0 L438 0 L361 0 L139 0 L111 0 L83 0 L40 0 L40 15 L46 15 C62 15 72 19 76 27 C81 35 83 53 83 80 L83 487 C83 515 82 532 77 540 C73 548 62 552 46 552 L40 552 L40 567 L83 567 L111 567 L139 567 L357 567 L428 567 L437 567 L437 560 C439 545 439 532 439 518 C440 505 441 491 442 475 L431 475 L424 487 C416 501 407 513 399 521 C391 530 382 537 372 541 C362 546 351 548 336 550 C322 552 304 553 282 553 L139 553 L139 309 L253 309 C271 309 285 309 297 310 C309 312 318 314 326 316 C334 319 340 323 344 327 C349 332 353 338 357 346 L361 352 C361 353 365 353 371 352 C373 354 373 354 373 352 L373 309 L373 302 L373 295 L373 247 L373 247 Z " />
<glyph glyph-name="edot" unicode="&#x117;" horiz-adv-x="488" d="M267 506 C256 506 249 509 244 513 C240 518 237 526 237 537 C237 549 239 556 243 560 C248 565 256 567 267 567 C279 567 287 566 291 561 C296 557 298 549 298 537 C298 526 296 518 291 513 C287 509 279 506 267 506 L267 506 Z M436 41 C416 25 392 14 362 6 C333 -1 293 -5 243 -5 C209 -5 179 -2 154 6 C130 14 110 27 94 43 C79 60 69 82 61 108 C54 135 50 167 50 205 C50 248 54 284 62 314 C70 344 83 369 100 387 C118 406 140 420 167 428 C195 437 228 441 267 441 C329 441 373 428 399 402 C425 376 438 333 438 271 L105 271 C105 264 105 257 104 249 C104 241 103 233 103 224 C103 188 107 158 113 132 C120 107 130 87 144 71 C159 55 178 44 201 36 C225 29 253 25 285 25 C329 25 362 27 384 30 C407 34 423 39 432 47 L436 41 L436 41 Z M106 281 L391 289 L368 289 C384 289 391 297 391 313 C391 355 383 384 363 401 C344 419 311 427 265 427 C215 427 178 417 152 394 C127 372 112 334 106 281 L106 281 Z " />
<glyph glyph-name="Eogonek" unicode="&#x118;" horiz-adv-x="521" d="M373 247 L361 247 L357 254 C353 263 350 270 345 275 C341 281 335 284 327 287 C319 291 310 292 298 293 C286 295 271 295 253 295 L139 295 L139 14 L289 14 C311 14 328 14 342 16 C357 18 370 22 380 26 C391 31 401 38 410 46 C420 55 430 66 440 80 L450 91 C450 92 454 92 460 91 C460 92 460 92 460 92 C461 92 461 92 461 91 C458 76 456 62 452 49 C449 37 446 23 442 7 C442 5 441 3 441 0 L438 0 C428 -4 418 -10 404 -19 C391 -27 379 -38 367 -51 C355 -63 346 -78 338 -95 C330 -111 326 -129 326 -149 C326 -174 333 -192 345 -203 C358 -213 379 -219 409 -219 C426 -219 439 -217 449 -213 C459 -209 468 -202 475 -193 L479 -197 C468 -210 456 -219 444 -225 C432 -230 417 -233 398 -233 C360 -233 334 -227 318 -215 C303 -203 295 -183 295 -155 C295 -137 298 -121 306 -105 C314 -89 324 -74 335 -61 C347 -47 359 -36 373 -26 C387 -15 401 -6 413 0 L361 0 L139 0 L111 0 L83 0 L40 0 L40 15 L46 15 C62 15 72 19 76 27 C81 35 83 53 83 80 L83 487 C83 515 82 532 77 540 C73 548 62 552 46 552 L40 552 L40 567 L83 567 L111 567 L139 567 L357 567 L428 567 L437 567 L437 560 C439 545 439 532 439 518 C440 505 441 491 442 475 L431 475 L424 487 C416 501 407 513 399 521 C391 530 382 537 372 541 C362 546 351 548 336 550 C322 552 304 553 282 553 L139 553 L139 309 L253 309 C271 309 285 309 297 310 C309 312 318 314 326 316 C334 319 340 323 344 327 C349 332 353 338 357 346 L361 352 C361 353 365 353 371 352 C373 354 373 354 373 352 L373 309 L373 302 L373 295 L373 247 L373 247 Z " />
<glyph glyph-name="eogonek" unicode="&#x119;" horiz-adv-x="488" d="M268 -5 L268 -5 C258 -9 248 -14 234 -23 C221 -31 209 -42 197 -55 C185 -67 176 -81 168 -98 C160 -114 156 -132 156 -152 C156 -176 163 -194 175 -204 C188 -214 209 -219 239 -219 C256 -219 269 -217 279 -213 C289 -209 298 -202 305 -193 L309 -197 C298 -210 286 -219 274 -225 C262 -230 247 -233 228 -233 C190 -233 164 -227 148 -216 C133 -204 125 -185 125 -158 C125 -140 128 -125 136 -109 C144 -93 154 -79 165 -66 C177 -52 189 -41 203 -31 C217 -20 231 -11 243 -5 L243 -5 C209 -5 179 -2 154 6 C130 14 110 27 94 43 C79 60 69 82 61 108 C54 135 50 167 50 205 C50 248 54 284 62 314 C70 344 83 369 100 387 C118 406 140 420 167 428 C195 437 228 441 267 441 C329 441 373 428 399 402 C425 376 438 333 438 271 L105 271 C105 264 105 257 104 249 C104 241 103 233 103 224 C103 188 107 158 113 132 C120 107 130 87 144 71 C159 55 178 44 201 36 C225 29 253 25 285 25 C329 25 362 27 384 30 C407 34 423 39 432 47 L436 41 C418 26 396 16 370 8 C344 1 310 -3 268 -5 L268 -5 L268 -5 Z M106 281 L391 289 L368 289 C384 289 391 297 391 313 C391 355 383 384 363 401 C344 419 311 427 265 427 C215 427 178 417 152 394 C127 372 112 334 106 281 L106 281 Z " />
<glyph glyph-name="Ecaron" unicode="&#x11a;" horiz-adv-x="521" d="M373 247 L361 247 L357 254 C353 263 350 270 345 275 C341 281 335 284 327 287 C319 291 310 292 298 293 C286 295 271 295 253 295 L139 295 L139 14 L289 14 C311 14 328 14 342 16 C357 18 370 22 380 26 C391 31 401 38 410 46 C420 55 430 66 440 80 L450 91 C450 92 454 92 460 91 C460 92 460 92 460 92 C461 92 461 92 461 91 C458 76 456 62 452 49 C449 37 446 23 442 7 C442 5 441 3 441 0 L438 0 L361 0 L139 0 L111 0 L83 0 L40 0 L40 15 L46 15 C62 15 72 19 76 27 C81 35 83 53 83 80 L83 487 C83 515 82 532 77 540 C73 548 62 552 46 552 L40 552 L40 567 L83 567 L111 567 L139 567 L357 567 L428 567 L437 567 L437 560 C439 545 439 532 439 518 C440 505 441 491 442 475 L431 475 L424 487 C416 501 407 513 399 521 C391 530 382 537 372 541 C362 546 351 548 336 550 C322 552 304 553 282 553 L139 553 L139 309 L253 309 C271 309 285 309 297 310 C309 312 318 314 326 316 C334 319 340 323 344 327 C349 332 353 338 357 346 L361 352 C361 353 365 353 371 352 C373 354 373 354 373 352 L373 309 L373 302 L373 295 L373 247 L373 247 Z M256 674 L141 834 L136 829 L240 636 C242 634 243 631 245 627 C247 624 251 622 256 622 C261 622 264 624 266 627 C269 631 271 634 272 636 L375 829 L370 834 L256 674 L256 674 Z " />
<glyph glyph-name="ecaron" unicode="&#x11b;" horiz-adv-x="488" d="M436 41 C416 25 392 14 362 6 C333 -1 293 -5 243 -5 C209 -5 179 -2 154 6 C130 14 110 27 94 43 C79 60 69 82 61 108 C54 135 50 167 50 205 C50 248 54 284 62 314 C70 344 83 369 100 387 C118 406 140 420 167 428 C195 437 228 441 267 441 C329 441 373 428 399 402 C425 376 438 333 438 271 L105 271 C105 264 105 257 104 249 C104 241 103 233 103 224 C103 188 107 158 113 132 C120 107 130 87 144 71 C159 55 178 44 201 36 C225 29 253 25 285 25 C329 25 362 27 384 30 C407 34 423 39 432 47 L436 41 L436 41 Z M267 543 L153 703 L148 699 L252 505 C254 503 255 500 257 496 C259 493 263 491 267 491 C273 491 276 493 278 496 C280 500 282 503 283 506 L387 699 L382 703 L267 543 L267 543 Z M106 281 L391 289 L368 289 C384 289 391 297 391 313 C391 355 383 384 363 401 C344 419 311 427 265 427 C215 427 178 417 152 394 C127 372 112 334 106 281 L106 281 Z " />
<glyph glyph-name="Gcircumflex" unicode="&#x11c;" horiz-adv-x="785" d="M693 266 L693 251 L686 251 C671 252 662 248 657 240 C653 232 650 214 650 186 L650 57 C631 46 612 37 592 29 C573 21 553 16 532 10 C512 5 490 2 466 -1 C443 -3 417 -5 389 -5 C330 -5 280 0 238 10 C197 21 163 37 137 60 C111 84 92 114 80 150 C68 187 62 231 62 283 C62 336 68 381 80 417 C92 454 111 483 137 506 C163 530 197 546 238 556 C280 567 330 572 389 572 C461 572 516 572 554 570 C593 568 623 566 643 562 L642 554 L642 554 L643 562 L649 476 C647 476 645 475 642 475 L636 475 C634 479 631 482 629 485 C627 489 625 492 622 495 C607 515 589 529 569 539 C549 549 523 555 491 557 C477 558 462 558 444 558 C427 558 409 558 389 558 C341 558 300 553 266 543 C232 533 206 518 184 496 C163 474 148 447 138 411 C128 376 123 333 123 283 C123 233 127 191 137 156 C147 122 162 94 183 72 C205 50 232 34 266 24 C300 14 341 9 389 9 C433 9 471 12 504 18 C538 24 570 34 600 48 L600 186 C600 214 599 232 594 240 C590 248 579 252 563 251 L557 251 L557 266 L600 266 L625 266 L650 266 L693 266 L693 266 Z M389 760 L275 600 L270 604 L374 798 C376 801 377 804 379 807 C381 811 385 812 389 812 C395 812 398 811 400 807 C402 804 404 801 405 797 L509 604 L504 600 L389 760 L389 760 Z " />
<glyph glyph-name="Gbreve" unicode="&#x11e;" horiz-adv-x="785" d="M271 779 L280 780 C285 754 295 737 311 725 C328 714 354 708 389 708 C425 708 451 713 467 724 C484 736 495 754 499 780 L508 779 C502 741 489 715 471 699 C453 683 426 675 389 675 C353 675 326 682 308 698 C290 714 278 741 271 779 L271 779 Z M693 266 L693 251 L686 251 C671 252 662 248 657 240 C653 232 650 214 650 186 L650 57 C631 46 612 37 592 29 C573 21 553 16 532 10 C512 5 490 2 466 -1 C443 -3 417 -5 389 -5 C330 -5 280 0 238 10 C197 21 163 37 137 60 C111 84 92 114 80 150 C68 187 62 231 62 283 C62 336 68 381 80 417 C92 454 111 483 137 506 C163 530 197 546 238 556 C280 567 330 572 389 572 C461 572 516 572 554 570 C593 568 623 566 643 562 L642 554 L642 554 L643 562 L649 476 C647 476 645 475 642 475 L636 475 C634 479 631 482 629 485 C627 489 625 492 622 495 C607 515 589 529 569 539 C549 549 523 555 491 557 C477 558 462 558 444 558 C427 558 409 558 389 558 C341 558 300 553 266 543 C232 533 206 518 184 496 C163 474 148 447 138 411 C128 376 123 333 123 283 C123 233 127 191 137 156 C147 122 162 94 183 72 C205 50 232 34 266 24 C300 14 341 9 389 9 C433 9 471 12 504 18 C538 24 570 34 600 48 L600 186 C600 214 599 232 594 240 C590 248 579 252 563 251 L557 251 L557 266 L600 266 L625 266 L650 266 L693 266 L693 266 Z " />
<glyph glyph-name="gbreve" unicode="&#x11f;" horiz-adv-x="472" d="M131 648 L139 649 C145 623 155 606 171 594 C188 583 214 577 249 577 C285 577 310 582 326 593 C343 605 354 623 359 649 L367 648 C361 610 349 584 331 568 C313 552 286 544 249 544 C213 544 186 551 168 567 C150 583 138 610 131 648 L131 648 Z M473 436 L473 408 L388 410 C403 399 413 386 419 368 C426 351 429 330 429 305 C429 256 416 221 388 200 C361 180 315 169 249 169 L192 169 C154 169 127 168 110 163 C94 159 85 151 85 139 C85 128 93 120 109 116 C126 112 154 111 193 113 L273 116 C339 116 385 111 412 101 C440 91 453 75 453 51 C453 31 448 15 438 1 C428 -13 412 -24 390 -33 C368 -41 341 -48 305 -52 C270 -56 227 -58 177 -58 C123 -58 84 -53 61 -44 C39 -34 27 -19 27 2 C27 16 33 27 45 37 C58 48 79 58 107 68 C88 72 74 77 65 85 C57 94 52 106 52 120 C52 139 61 152 78 161 C96 171 125 176 165 177 C131 185 108 198 92 218 C77 239 69 268 69 305 C69 355 82 390 110 410 C138 431 185 441 249 441 C269 441 287 441 303 439 C319 437 334 434 347 430 L473 436 L473 436 Z M116 305 C116 259 126 227 146 208 C167 190 201 180 249 180 C297 180 331 190 351 208 C372 227 382 259 382 305 C382 351 373 384 352 402 C332 421 297 430 249 430 C201 430 168 421 147 402 C127 384 116 351 116 305 L116 305 Z M123 66 C101 58 85 50 75 40 C65 31 60 20 60 8 C60 -11 70 -25 88 -33 C107 -41 138 -45 182 -45 C268 -45 327 -39 363 -29 C399 -18 417 0 417 25 C417 41 406 52 382 58 C358 65 318 68 260 68 L196 66 C168 64 143 64 123 66 L123 66 Z " />
<glyph glyph-name="Gdot" unicode="&#x120;" horiz-adv-x="785" d="M389 637 C378 637 371 639 366 643 C362 648 359 656 359 667 C359 679 361 687 365 691 C370 696 378 698 389 698 C401 698 409 696 413 691 C418 687 420 679 420 667 C420 656 418 649 413 644 C409 640 401 637 389 637 L389 637 Z M693 266 L693 251 L686 251 C671 252 662 248 657 240 C653 232 650 214 650 186 L650 57 C631 46 612 37 592 29 C573 21 553 16 532 10 C512 5 490 2 466 -1 C443 -3 417 -5 389 -5 C330 -5 280 0 238 10 C197 21 163 37 137 60 C111 84 92 114 80 150 C68 187 62 231 62 283 C62 336 68 381 80 417 C92 454 111 483 137 506 C163 530 197 546 238 556 C280 567 330 572 389 572 C461 572 516 572 554 570 C593 568 623 566 643 562 L642 554 L642 554 L643 562 L649 476 C647 476 645 475 642 475 L636 475 C634 479 631 482 629 485 C627 489 625 492 622 495 C607 515 589 529 569 539 C549 549 523 555 491 557 C477 558 462 558 444 558 C427 558 409 558 389 558 C341 558 300 553 266 543 C232 533 206 518 184 496 C163 474 148 447 138 411 C128 376 123 333 123 283 C123 233 127 191 137 156 C147 122 162 94 183 72 C205 50 232 34 266 24 C300 14 341 9 389 9 C433 9 471 12 504 18 C538 24 570 34 600 48 L600 186 C600 214 599 232 594 240 C590 248 579 252 563 251 L557 251 L557 266 L600 266 L625 266 L650 266 L693 266 L693 266 Z " />
<glyph glyph-name="gdot" unicode="&#x121;" horiz-adv-x="472" d="M249 506 C238 506 230 509 225 513 C221 518 218 526 218 537 C218 549 221 556 225 560 C230 565 238 567 249 567 C261 567 269 566 273 561 C278 557 280 549 280 537 C280 526 278 518 273 513 C269 509 261 506 249 506 L249 506 Z M473 436 L473 408 L388 410 C403 399 413 386 419 368 C426 351 429 330 429 305 C429 256 416 221 388 200 C361 180 315 169 249 169 L192 169 C154 169 127 168 110 163 C94 159 85 151 85 139 C85 128 93 120 109 116 C126 112 154 111 193 113 L273 116 C339 116 385 111 412 101 C440 91 453 75 453 51 C453 31 448 15 438 1 C428 -13 412 -24 390 -33 C368 -41 341 -48 305 -52 C270 -56 227 -58 177 -58 C123 -58 84 -53 61 -44 C39 -34 27 -19 27 2 C27 16 33 27 45 37 C58 48 79 58 107 68 C88 72 74 77 65 85 C57 94 52 106 52 120 C52 139 61 152 78 161 C96 171 125 176 165 177 C131 185 108 198 92 218 C77 239 69 268 69 305 C69 355 82 390 110 410 C138 431 185 441 249 441 C269 441 287 441 303 439 C319 437 334 434 347 430 L473 436 L473 436 Z M116 305 C116 259 126 227 146 208 C167 190 201 180 249 180 C297 180 331 190 351 208 C372 227 382 259 382 305 C382 351 373 384 352 402 C332 421 297 430 249 430 C201 430 168 421 147 402 C127 384 116 351 116 305 L116 305 Z M123 66 C101 58 85 50 75 40 C65 31 60 20 60 8 C60 -11 70 -25 88 -33 C107 -41 138 -45 182 -45 C268 -45 327 -39 363 -29 C399 -18 417 0 417 25 C417 41 406 52 382 58 C358 65 318 68 260 68 L196 66 C168 64 143 64 123 66 L123 66 Z " />
<glyph glyph-name="Hcircumflex" unicode="&#x124;" horiz-adv-x="711" d="M671 567 L671 552 L665 552 C649 552 640 548 635 540 C631 532 628 515 628 487 L628 80 C628 53 630 35 634 27 C639 19 649 15 665 15 L671 15 L671 0 L628 0 L600 0 L572 0 L529 0 L529 15 L536 15 C552 15 561 19 565 27 C570 35 572 53 572 80 L572 293 L139 293 L139 80 L139 61 C140 42 142 30 147 24 C153 18 162 15 175 15 L182 15 C182 15 182 13 182 8 C182 3 182 0 182 0 L139 0 L111 0 L83 0 L40 0 L40 15 L46 15 C62 15 72 19 76 27 C81 35 83 53 83 80 L83 487 C83 515 82 532 77 540 C73 548 62 552 46 552 L40 552 L40 567 L83 567 L111 567 L139 567 L182 567 C182 567 182 565 182 559 C182 555 182 552 182 552 L175 552 C162 552 154 550 148 544 C143 538 140 526 139 506 L139 487 L139 307 L572 307 L572 487 C572 515 571 532 566 540 C562 548 552 552 536 552 L529 552 L529 567 L572 567 L600 567 L628 567 L671 567 L671 567 Z M356 760 L241 600 L236 604 L340 798 C342 801 343 804 345 807 C347 811 351 812 356 812 C361 812 364 811 366 807 C369 804 371 801 372 797 L475 604 L470 600 L356 760 L356 760 Z " />
<glyph glyph-name="Itilde" unicode="&#x128;" horiz-adv-x="221" d="M-35 662 L-44 662 C-44 698 -39 724 -29 739 C-19 755 -2 762 22 762 C41 762 58 759 72 752 C87 746 100 739 114 731 C128 723 142 716 157 709 C173 703 190 699 208 699 C226 699 237 704 245 713 C253 723 257 738 257 759 L265 759 C265 725 261 701 250 687 C240 673 222 666 197 666 C179 666 162 670 147 676 C133 683 119 689 105 697 C91 705 77 713 62 719 C48 726 31 729 11 729 C-5 729 -16 724 -24 714 C-31 704 -35 687 -35 662 L-35 662 Z M40 552 L40 567 L83 567 L111 567 L139 567 L182 567 C182 567 182 565 182 559 C182 555 182 552 182 552 L175 552 C162 552 154 550 148 544 C143 538 140 526 139 506 L139 487 L139 80 L139 61 C140 42 142 30 147 24 C153 18 162 15 175 15 L182 15 C182 15 182 13 182 8 C182 3 182 0 182 0 L139 0 L111 0 L83 0 L40 0 L40 15 L46 15 C62 15 72 19 76 27 C81 35 83 53 83 80 L83 487 C83 515 82 532 77 540 C73 548 62 552 46 552 L40 552 L40 552 Z " />
<glyph glyph-name="itilde" unicode="&#x129;" horiz-adv-x="226" d="M-33 531 L-41 531 C-41 568 -36 593 -26 608 C-16 624 1 631 24 631 C44 631 61 629 75 622 C90 616 103 608 117 600 C131 592 146 586 160 579 C175 573 192 569 210 569 C228 569 239 573 247 582 C255 592 259 607 259 629 L268 629 C268 595 264 572 253 557 C243 543 225 535 199 535 C181 535 164 539 149 545 C135 552 121 558 107 566 C93 574 79 582 64 588 C50 595 33 598 14 598 C-3 598 -14 593 -22 583 C-29 573 -33 556 -33 531 L-33 531 Z M138 0 L138 356 L88 356 L88 342 C88 354 89 362 88 367 C88 373 87 377 86 379 C86 382 85 384 83 384 C81 385 79 386 77 387 L52 406 L52 416 L135 441 L138 441 L138 356 L138 0 C138 10 140 14 144 14 C148 15 158 15 173 15 L181 15 L181 0 L138 0 L138 0 Z M88 342 L88 0 L45 0 L45 15 L54 15 C69 15 78 16 82 15 C86 15 88 10 88 0 L88 342 L88 342 Z " />
<glyph glyph-name="Imacron" unicode="&#x12a;" horiz-adv-x="221" d="M-42 677 L-42 705 L264 705 L264 677 L-42 677 L-42 677 Z M40 552 L40 567 L83 567 L111 567 L139 567 L182 567 C182 567 182 565 182 559 C182 555 182 552 182 552 L175 552 C162 552 154 550 148 544 C143 538 140 526 139 506 L139 487 L139 80 L139 61 C140 42 142 30 147 24 C153 18 162 15 175 15 L182 15 C182 15 182 13 182 8 C182 3 182 0 182 0 L139 0 L111 0 L83 0 L40 0 L40 15 L46 15 C62 15 72 19 76 27 C81 35 83 53 83 80 L83 487 C83 515 82 532 77 540 C73 548 62 552 46 552 L40 552 L40 552 Z " />
<glyph glyph-name="imacron" unicode="&#x12b;" horiz-adv-x="226" d="M-40 546 L-40 574 L266 574 L266 546 L-40 546 L-40 546 Z M138 0 L138 356 L88 356 L88 342 C88 354 89 362 88 367 C88 373 87 377 86 379 C86 382 85 384 83 384 C81 385 79 386 77 387 L52 406 L52 416 L135 441 L138 441 L138 356 L138 0 C138 10 140 14 144 14 C148 15 158 15 173 15 L181 15 L181 0 L138 0 L138 0 Z M88 342 L88 0 L45 0 L45 15 L54 15 C69 15 78 16 82 15 C86 15 88 10 88 0 L88 342 L88 342 Z " />
<glyph glyph-name="Ibreve" unicode="&#x12c;" horiz-adv-x="221" d="M-8 779 L1 780 C6 754 17 737 33 725 C50 714 76 708 111 708 C147 708 172 713 188 724 C205 736 216 754 220 780 L229 779 C223 741 210 715 192 699 C174 683 147 675 111 675 C75 675 48 682 30 698 C12 714 0 741 -8 779 L-8 779 Z M40 552 L40 567 L83 567 L111 567 L139 567 L182 567 C182 567 182 565 182 559 C182 555 182 552 182 552 L175 552 C162 552 154 550 148 544 C143 538 140 526 139 506 L139 487 L139 80 L139 61 C140 42 142 30 147 24 C153 18 162 15 175 15 L182 15 C182 15 182 13 182 8 C182 3 182 0 182 0 L139 0 L111 0 L83 0 L40 0 L40 15 L46 15 C62 15 72 19 76 27 C81 35 83 53 83 80 L83 487 C83 515 82 532 77 540 C73 548 62 552 46 552 L40 552 L40 552 Z " />
<glyph glyph-name="ibreve" unicode="&#x12d;" horiz-adv-x="226" d="M-5 648 L3 649 C9 623 19 606 35 594 C52 583 78 577 113 577 C149 577 174 582 190 593 C207 605 218 623 223 649 L231 648 C225 610 213 584 195 568 C177 552 150 544 113 544 C77 544 50 551 32 567 C14 583 2 610 -5 648 L-5 648 Z M138 0 L138 356 L88 356 L88 342 C88 354 89 362 88 367 C88 373 87 377 86 379 C86 382 85 384 83 384 C81 385 79 386 77 387 L52 406 L52 416 L135 441 L138 441 L138 356 L138 0 C138 10 140 14 144 14 C148 15 158 15 173 15 L181 15 L181 0 L138 0 L138 0 Z M88 342 L88 0 L45 0 L45 15 L54 15 C69 15 78 16 82 15 C86 15 88 10 88 0 L88 342 L88 342 Z " />
<glyph glyph-name="Idot" unicode="&#x130;" horiz-adv-x="221" d="M111 637 C100 637 92 639 87 643 C83 648 80 656 80 667 C80 679 83 687 87 691 C92 696 100 698 111 698 C123 698 130 696 134 691 C139 687 141 679 141 667 C141 656 140 649 135 644 C131 640 123 637 111 637 L111 637 Z M40 552 L40 567 L83 567 L111 567 L139 567 L182 567 C182 567 182 565 182 559 C182 555 182 552 182 552 L175 552 C162 552 154 550 148 544 C143 538 140 526 139 506 L139 487 L139 80 L139 61 C140 42 142 30 147 24 C153 18 162 15 175 15 L182 15 C182 15 182 13 182 8 C182 3 182 0 182 0 L139 0 L111 0 L83 0 L40 0 L40 15 L46 15 C62 15 72 19 76 27 C81 35 83 53 83 80 L83 487 C83 515 82 532 77 540 C73 548 62 552 46 552 L40 552 L40 552 Z " />
<glyph glyph-name="dotlessi" unicode="&#x131;" horiz-adv-x="226" d="M138 0 L138 356 L88 356 L88 342 C88 354 89 362 88 367 C88 373 87 377 86 379 C86 382 85 384 83 384 C81 385 79 386 77 387 L52 406 L52 416 L135 441 L138 441 L138 356 L138 0 C138 10 140 14 144 14 C148 15 158 15 173 15 L181 15 L181 0 L138 0 L138 0 Z M88 342 L88 0 L45 0 L45 15 L54 15 C69 15 78 16 82 15 C86 15 88 10 88 0 L88 342 L88 342 Z " />
<glyph glyph-name="Jcircumflex" unicode="&#x134;" horiz-adv-x="340" d="M300 567 L300 552 L294 552 C279 552 269 549 264 541 C260 533 257 515 257 487 L257 219 C257 169 256 129 252 99 C248 69 242 46 230 30 C219 14 204 4 182 -2 C161 -7 133 -10 99 -10 C69 -10 47 -5 31 4 C16 14 6 29 0 50 C-4 65 4 72 22 72 C30 72 34 71 38 67 C42 64 45 58 47 50 C52 32 59 20 69 12 C79 5 94 1 113 1 C133 1 147 3 159 7 C171 11 180 19 186 31 C193 43 197 60 199 82 C201 105 202 135 202 172 L202 487 C202 515 201 532 196 540 C192 548 181 552 165 552 L159 552 L159 567 L202 567 L229 567 L257 567 L300 567 L300 567 Z M229 760 L115 600 L110 604 L214 798 C216 801 217 804 219 807 C221 811 225 812 229 812 C235 812 238 811 240 807 C242 804 244 801 245 797 L349 604 L344 600 L229 760 L229 760 Z " />
<glyph glyph-name="Lacute" unicode="&#x139;" horiz-adv-x="521" d="M86 598 L81 602 L171 747 C185 767 193 781 199 789 C205 798 209 802 210 802 C216 802 222 801 228 795 C235 790 238 786 238 782 C238 780 236 776 229 767 C223 759 212 745 196 727 L86 598 L86 598 Z M443 100 L443 100 C445 100 448 99 450 98 C455 98 459 97 462 96 C459 80 456 66 452 52 C449 38 446 23 442 7 C442 5 441 3 441 0 L438 0 L361 0 L139 0 L111 0 L83 0 L40 0 L40 15 L46 15 C62 15 72 19 76 27 C81 35 83 53 83 80 L83 487 C83 515 82 532 77 540 C73 548 62 552 46 552 L40 552 L40 567 L83 567 L111 567 L139 567 L182 567 C182 567 182 565 182 559 C182 555 182 552 182 552 L175 552 C162 552 154 550 148 544 C143 538 140 526 139 506 L139 487 L139 14 L299 14 C319 14 335 14 347 16 C360 18 370 22 380 27 C390 33 399 39 407 49 C416 59 425 72 435 87 L443 100 L443 100 Z " />
<glyph glyph-name="Lcaron" unicode="&#x13d;" horiz-adv-x="521" d="M443 100 L443 100 C445 100 448 99 450 98 C455 98 459 97 462 96 C459 80 456 66 452 52 C449 38 446 23 442 7 C442 5 441 3 441 0 L438 0 L361 0 L139 0 L111 0 L83 0 L40 0 L40 15 L46 15 C62 15 72 19 76 27 C81 35 83 53 83 80 L83 487 C83 515 82 532 77 540 C73 548 62 552 46 552 L40 552 L40 567 L83 567 L111 567 L139 567 L182 567 C182 567 182 565 182 559 C182 555 182 552 182 552 L175 552 C162 552 154 550 148 544 C143 538 140 526 139 506 L139 487 L139 14 L299 14 C319 14 335 14 347 16 C360 18 370 22 380 27 C390 33 399 39 407 49 C416 59 425 72 435 87 L443 100 L443 100 Z M296 482 L236 329 L230 331 L265 494 C268 508 270 521 273 533 C277 546 279 557 282 567 C286 577 288 585 291 591 C295 597 298 600 300 600 C306 600 312 600 320 598 C328 597 332 594 332 589 C332 586 330 576 324 558 C319 540 310 515 296 482 L296 482 Z " />
<glyph glyph-name="lcaron" unicode="&#x13e;" horiz-adv-x="226" d="M45 622 L45 631 L128 656 L138 656 L138 643 L138 546 L138 80 C138 52 141 35 145 27 C150 19 160 15 175 15 L181 15 L181 0 L138 0 L113 0 L88 0 L45 0 L45 15 L51 15 C67 15 77 19 81 27 C86 35 88 53 88 80 L88 533 L88 587 C87 596 84 601 79 603 C75 606 65 611 51 619 L45 622 L45 622 Z M253 541 L193 389 L186 391 L221 553 C224 567 226 579 229 592 C233 606 235 617 238 627 C242 637 244 645 247 651 C251 657 254 660 257 660 C263 660 268 660 276 658 C284 657 288 654 288 648 C288 645 286 635 280 617 C275 599 266 574 253 541 L253 541 Z " />
<glyph glyph-name="Lslash" unicode="&#x141;" horiz-adv-x="521" d="M33 225 L33 242 L83 262 L83 487 C83 515 82 532 77 540 C73 548 62 552 46 552 L40 552 L40 567 L83 567 L111 567 L139 567 L182 567 C182 567 182 565 182 559 C182 555 182 552 182 552 L175 552 C162 552 154 550 148 544 C143 538 140 526 139 506 L139 487 L139 284 L288 342 L288 325 L139 267 L139 14 L299 14 C319 14 335 14 347 16 C360 18 370 22 380 27 C390 33 399 39 407 49 C416 59 425 72 435 87 L443 100 C445 100 448 99 450 98 C455 98 459 97 462 96 C459 80 456 66 452 52 C449 38 446 23 442 7 C442 5 441 3 441 0 L438 0 L361 0 L139 0 L111 0 L83 0 L40 0 L40 15 L46 15 C62 15 72 19 76 27 C81 35 83 53 83 80 L83 245 L33 225 L33 225 Z " />
<glyph glyph-name="lslash" unicode="&#x142;" horiz-adv-x="226" d="M-12 270 L-12 286 L88 326 L88 533 L88 587 C87 596 84 601 79 603 C75 606 65 611 51 619 L45 622 L45 631 L128 656 L138 656 L138 643 L138 546 L138 346 L238 386 L238 370 L138 330 L138 80 C138 52 141 35 145 27 C150 19 160 15 175 15 L181 15 L181 0 L138 0 L113 0 L88 0 L45 0 L45 15 L51 15 C67 15 77 19 81 27 C86 35 88 53 88 80 L88 310 L-12 270 L-12 270 Z " />
<glyph glyph-name="Nacute" unicode="&#x143;" horiz-adv-x="639" d="M291 598 L286 602 L376 747 C389 767 397 781 403 789 C409 798 413 802 415 802 C421 802 427 801 433 795 C440 790 443 786 443 782 C443 780 441 776 434 767 C428 759 417 745 401 727 L291 598 L291 598 Z M604 567 L604 552 L597 552 C582 552 573 548 568 540 C564 532 561 515 561 487 L561 42 L561 -11 L546 -11 L519 22 L103 519 L103 80 C103 53 105 35 109 27 C114 19 124 15 139 15 L146 15 L146 0 L103 0 L94 0 L86 0 L43 0 L43 15 L49 15 C65 15 75 19 79 27 C84 35 86 53 86 80 L86 487 C86 515 85 532 80 540 C76 548 65 552 49 552 L43 552 L43 567 L86 567 L94 567 L103 567 L136 567 L544 79 L544 487 C544 515 543 532 538 540 C534 548 523 552 507 552 L501 552 L501 567 L544 567 L552 567 L561 567 L604 567 L604 567 Z " />
<glyph glyph-name="nacute" unicode="&#x144;" horiz-adv-x="562" d="M206 467 L201 471 L291 616 C304 637 312 651 318 659 C324 668 328 672 329 672 C335 672 340 670 347 664 C355 659 358 655 358 651 C358 649 356 645 349 636 C343 628 332 614 316 596 L206 467 L206 467 Z M386 0 L386 15 L393 15 C409 15 418 19 422 27 C427 35 429 53 429 80 L429 286 C429 308 428 326 425 342 C423 358 418 370 409 380 C401 390 389 397 373 401 C358 406 338 408 312 408 C295 408 273 405 246 399 C220 393 184 383 138 369 L138 343 L138 326 L138 80 C138 53 140 35 144 27 C149 19 159 15 174 15 L181 15 L181 0 L138 0 L113 0 L88 0 L45 0 L45 15 L51 15 C67 15 77 19 81 27 C86 35 88 53 88 80 L88 313 L88 343 L88 343 C88 355 89 362 88 367 C88 373 87 376 84 379 C82 383 79 385 73 387 C68 390 61 394 51 399 L45 402 L45 411 L128 436 L138 436 L138 375 C177 387 209 397 236 405 C264 414 286 421 303 426 C323 432 339 437 351 441 C379 441 402 439 418 433 C435 428 447 419 456 407 C466 395 471 380 474 361 C478 343 479 320 479 292 L479 80 C480 53 482 35 486 27 C491 19 501 15 516 15 L522 15 C523 15 523 13 522 7 C523 3 523 0 522 0 L479 0 L454 0 L429 0 L386 0 L386 0 Z " />
<glyph glyph-name="Ncaron" unicode="&#x147;" horiz-adv-x="639" d="M604 567 L604 552 L597 552 C582 552 573 548 568 540 C564 532 561 515 561 487 L561 42 L561 -11 L546 -11 L519 22 L103 519 L103 80 C103 53 105 35 109 27 C114 19 124 15 139 15 L146 15 L146 0 L103 0 L94 0 L86 0 L43 0 L43 15 L49 15 C65 15 75 19 79 27 C84 35 86 53 86 80 L86 487 C86 515 85 532 80 540 C76 548 65 552 49 552 L43 552 L43 567 L86 567 L94 567 L103 567 L136 567 L544 79 L544 487 C544 515 543 532 538 540 C534 548 523 552 507 552 L501 552 L501 567 L544 567 L552 567 L561 567 L604 567 L604 567 Z M323 674 L209 834 L204 829 L307 636 C309 634 310 631 312 627 C315 624 319 622 323 622 C329 622 332 624 334 627 C336 631 338 634 339 636 L443 829 L437 834 L323 674 L323 674 Z " />
<glyph glyph-name="ncaron" unicode="&#x148;" horiz-adv-x="562" d="M386 0 L386 15 L393 15 C409 15 418 19 422 27 C427 35 429 53 429 80 L429 286 C429 308 428 326 425 342 C423 358 418 370 409 380 C401 390 389 397 373 401 C358 406 338 408 312 408 C295 408 273 405 246 399 C220 393 184 383 138 369 L138 343 L138 326 L138 80 C138 53 140 35 144 27 C149 19 159 15 174 15 L181 15 L181 0 L138 0 L113 0 L88 0 L45 0 L45 15 L51 15 C67 15 77 19 81 27 C86 35 88 53 88 80 L88 313 L88 343 L88 343 C88 355 89 362 88 367 C88 373 87 376 84 379 C82 383 79 385 73 387 C68 390 61 394 51 399 L45 402 L45 411 L128 436 L138 436 L138 375 C177 387 209 397 236 405 C264 414 286 421 303 426 C323 432 339 437 351 441 C379 441 402 439 418 433 C435 428 447 419 456 407 C466 395 471 380 474 361 C478 343 479 320 479 292 L479 80 C480 53 482 35 486 27 C491 19 501 15 516 15 L522 15 C523 15 523 13 522 7 C523 3 523 0 522 0 L479 0 L454 0 L429 0 L386 0 L386 0 Z M284 543 L169 703 L164 699 L268 505 C270 503 271 500 273 496 C275 493 279 491 284 491 C289 491 292 493 294 496 C297 500 299 503 300 506 L403 699 L398 703 L284 543 L284 543 Z " />
<glyph glyph-name="Omacron" unicode="&#x14c;" horiz-adv-x="765" d="M235 677 L235 705 L541 705 L541 677 L235 677 L235 677 Z M388 9 C442 9 485 14 519 26 C554 38 581 55 601 78 C621 102 634 130 642 164 C650 199 654 239 654 283 C654 329 651 368 643 402 C635 436 621 465 601 488 C581 512 555 528 520 540 C486 552 442 558 388 558 C336 558 293 553 258 541 C224 529 196 512 176 488 C156 465 143 436 135 402 C127 368 123 329 123 283 C123 239 126 200 134 165 C142 131 156 103 176 79 C196 56 223 39 257 27 C292 15 336 9 388 9 L388 9 Z M62 283 C62 331 66 372 76 408 C86 444 103 474 127 498 C152 523 185 541 227 553 C270 566 324 572 388 572 C454 572 507 567 549 554 C592 542 625 524 649 499 C674 475 690 444 700 408 C710 372 715 331 715 283 C715 237 711 195 701 159 C691 123 675 94 650 69 C626 45 593 27 550 14 C508 2 454 -5 388 -5 C324 -5 271 1 228 13 C186 26 153 44 128 68 C104 93 87 123 77 159 C67 195 62 237 62 283 L62 283 Z " />
<glyph glyph-name="omacron" unicode="&#x14d;" horiz-adv-x="594" d="M144 546 L144 574 L450 574 L450 546 L144 546 L144 546 Z M297 6 C332 6 361 9 385 17 C410 25 430 37 445 54 C461 72 471 94 478 120 C486 147 489 180 489 218 C489 257 487 290 479 316 C472 343 461 364 445 381 C430 399 411 410 386 418 C362 426 332 430 297 430 C263 430 233 427 209 419 C185 411 166 400 150 382 C135 365 125 343 117 316 C110 290 106 257 106 218 C106 180 109 147 116 120 C124 94 135 73 150 55 C166 38 185 26 209 18 C233 10 263 6 297 6 L297 6 Z M50 218 C50 259 54 293 63 321 C73 350 86 372 106 390 C126 408 152 421 183 429 C215 437 253 441 297 441 C343 441 381 437 412 429 C444 421 468 409 488 391 C508 373 522 351 531 322 C541 294 545 259 545 218 C545 178 542 144 532 115 C523 87 509 64 489 46 C469 28 444 15 412 7 C381 -1 343 -5 297 -5 C253 -5 215 -1 183 7 C152 15 127 27 107 45 C87 63 74 86 64 114 C55 143 50 178 50 218 L50 218 Z " />
<glyph glyph-name="Obreve" unicode="&#x14e;" horiz-adv-x="765" d="M270 779 L279 780 C284 754 294 737 310 725 C327 714 353 708 388 708 C424 708 450 713 466 724 C483 736 494 754 498 780 L507 779 C500 741 488 715 470 699 C452 683 425 675 388 675 C352 675 325 682 307 698 C289 714 277 741 270 779 L270 779 Z M388 9 C442 9 485 14 519 26 C554 38 581 55 601 78 C621 102 634 130 642 164 C650 199 654 239 654 283 C654 329 651 368 643 402 C635 436 621 465 601 488 C581 512 555 528 520 540 C486 552 442 558 388 558 C336 558 293 553 258 541 C224 529 196 512 176 488 C156 465 143 436 135 402 C127 368 123 329 123 283 C123 239 126 200 134 165 C142 131 156 103 176 79 C196 56 223 39 257 27 C292 15 336 9 388 9 L388 9 Z M62 283 C62 331 66 372 76 408 C86 444 103 474 127 498 C152 523 185 541 227 553 C270 566 324 572 388 572 C454 572 507 567 549 554 C592 542 625 524 649 499 C674 475 690 444 700 408 C710 372 715 331 715 283 C715 237 711 195 701 159 C691 123 675 94 650 69 C626 45 593 27 550 14 C508 2 454 -5 388 -5 C324 -5 271 1 228 13 C186 26 153 44 128 68 C104 93 87 123 77 159 C67 195 62 237 62 283 L62 283 Z " />
<glyph glyph-name="obreve" unicode="&#x14f;" horiz-adv-x="594" d="M179 648 L188 649 C193 623 204 606 220 594 C237 583 263 577 297 577 C333 577 359 582 375 593 C392 605 403 623 407 649 L416 648 C410 610 397 584 379 568 C361 552 334 544 297 544 C261 544 234 551 216 567 C198 583 186 610 179 648 L179 648 Z M297 6 C332 6 361 9 385 17 C410 25 430 37 445 54 C461 72 471 94 478 120 C486 147 489 180 489 218 C489 257 487 290 479 316 C472 343 461 364 445 381 C430 399 411 410 386 418 C362 426 332 430 297 430 C263 430 233 427 209 419 C185 411 166 400 150 382 C135 365 125 343 117 316 C110 290 106 257 106 218 C106 180 109 147 116 120 C124 94 135 73 150 55 C166 38 185 26 209 18 C233 10 263 6 297 6 L297 6 Z M50 218 C50 259 54 293 63 321 C73 350 86 372 106 390 C126 408 152 421 183 429 C215 437 253 441 297 441 C343 441 381 437 412 429 C444 421 468 409 488 391 C508 373 522 351 531 322 C541 294 545 259 545 218 C545 178 542 144 532 115 C523 87 509 64 489 46 C469 28 444 15 412 7 C381 -1 343 -5 297 -5 C253 -5 215 -1 183 7 C152 15 127 27 107 45 C87 63 74 86 64 114 C55 143 50 178 50 218 L50 218 Z " />
<glyph glyph-name="Racute" unicode="&#x154;" horiz-adv-x="624" d="M219 598 L213 602 L304 747 C317 767 325 781 331 789 C337 798 341 802 342 802 C348 802 353 801 360 795 C368 790 371 786 371 782 C371 780 369 776 362 767 C356 759 345 745 329 727 L219 598 L219 598 Z M51 552 L51 567 L94 567 L122 567 L150 567 L297 567 C371 567 423 556 453 534 C484 512 499 475 499 422 C499 374 487 338 459 314 C432 291 386 277 321 273 L508 95 C534 71 553 53 565 41 C578 29 586 22 592 17 C598 13 602 10 605 10 C609 11 614 11 620 11 L625 11 L625 0 L603 0 C587 0 575 1 567 0 C559 0 552 2 542 7 C533 13 521 22 505 37 C489 53 465 76 432 106 L256 271 L150 271 L150 80 C150 53 152 35 156 27 C161 19 171 15 186 15 L193 15 L193 0 L150 0 L122 0 L94 0 L51 0 L51 15 L58 15 C74 15 83 19 87 27 C92 35 94 53 94 80 L94 487 C94 515 93 532 88 540 C84 548 74 552 58 552 L51 552 L51 552 Z M268 285 C331 285 375 295 401 316 C427 338 440 373 440 422 C440 470 430 503 408 523 C386 543 349 553 297 553 L150 553 L150 285 L241 285 L268 285 L268 285 Z " />
<glyph glyph-name="Rcaron" unicode="&#x158;" horiz-adv-x="535" d="M51 552 L51 567 L94 567 L122 567 L150 567 L297 567 C371 567 423 556 453 534 C484 512 499 475 499 422 C499 376 487 341 461 317 C436 294 394 280 335 274 L340 274 C356 232 370 195 385 162 C401 130 416 101 432 76 C448 52 465 30 483 12 C501 -6 521 -21 541 -35 L536 -43 C500 -19 468 4 440 27 C412 51 388 74 366 99 C345 125 326 151 310 179 C294 207 280 238 268 271 L150 271 L150 80 C150 53 152 35 156 27 C161 19 171 15 186 15 L193 15 L193 0 L150 0 L122 0 L94 0 L51 0 L51 15 L58 15 C74 15 83 19 87 27 C92 35 94 53 94 80 L94 487 C94 515 93 532 88 540 C84 548 74 552 58 552 L51 552 L51 552 Z M296 674 L182 834 L177 829 L281 636 C283 634 284 631 286 627 C288 624 292 622 297 622 C302 622 305 624 307 627 C309 631 311 634 312 636 L416 829 L411 834 L296 674 L296 674 Z M150 285 L268 285 C331 285 375 295 401 316 C427 338 440 373 440 422 C440 470 430 503 408 523 C386 543 349 553 297 553 L150 553 L150 285 L150 285 Z " />
<glyph glyph-name="rcaron" unicode="&#x159;" horiz-adv-x="388" d="M45 402 L45 411 L121 436 L131 436 L135 374 C164 386 188 396 207 404 C227 413 243 420 255 426 C270 432 282 437 290 441 C310 441 324 441 336 439 C348 438 357 436 363 433 C370 431 374 427 376 422 C378 418 379 412 379 406 C379 390 371 382 355 382 C345 382 337 383 328 385 C320 388 312 391 303 393 C295 396 287 398 278 400 C270 403 260 404 250 404 C239 404 225 402 207 396 C190 390 166 381 135 367 L137 343 L138 343 L138 326 L138 80 C138 53 140 35 144 27 C149 19 159 15 174 15 L181 15 L181 0 L138 0 L113 0 L88 0 L45 0 L45 15 L51 15 C67 15 77 19 81 27 C86 35 88 53 88 80 L88 313 L88 343 L88 343 C88 355 89 362 88 367 C88 373 87 376 84 379 C82 383 79 385 73 387 C68 390 61 394 51 399 L45 402 L45 402 Z M189 543 L75 703 L69 699 L173 505 C175 503 176 500 178 496 C180 493 184 491 189 491 C194 491 197 493 199 496 C202 500 204 503 205 506 L308 699 L303 703 L189 543 L189 543 Z " />
<glyph glyph-name="Sacute" unicode="&#x15a;" horiz-adv-x="512" d="M194 598 L189 602 L279 747 C292 767 300 781 306 789 C312 798 316 802 317 802 C323 802 328 801 335 795 C343 790 346 786 346 782 C346 780 344 776 337 767 C331 759 320 745 304 727 L194 598 L194 598 Z M315 556 L315 556 C304 557 293 557 280 557 C268 558 255 558 241 558 C187 558 149 549 125 530 C102 512 90 480 90 434 C90 402 105 376 133 356 C162 336 210 319 278 305 C347 291 396 273 424 248 C453 224 467 190 467 146 C467 92 453 54 423 30 C394 7 345 -5 275 -5 C211 -5 162 -4 126 -3 C91 -1 64 1 44 4 L46 14 L46 14 L44 4 L38 95 L45 95 C48 95 50 96 51 96 C55 93 57 90 59 86 C61 83 64 80 66 76 C82 55 99 40 119 29 C140 19 167 12 201 10 C213 10 224 9 236 9 C249 9 262 9 275 9 C331 9 370 18 393 35 C417 53 428 82 428 124 C428 160 414 187 384 208 C355 230 305 248 235 262 C169 276 121 295 93 317 C65 340 51 371 51 411 C51 470 66 511 95 535 C125 560 174 572 244 572 C294 572 332 572 360 570 C388 569 412 567 431 563 L437 472 L430 472 C429 472 427 471 424 471 C421 477 418 481 414 485 C411 489 408 494 404 499 C391 518 378 532 364 540 C351 549 335 554 315 556 L315 556 Z " />
<glyph glyph-name="sacute" unicode="&#x15b;" horiz-adv-x="429" d="M140 467 L134 471 L224 616 C238 637 246 651 252 659 C258 668 262 672 263 672 C269 672 275 670 281 664 C288 659 292 655 292 651 C292 649 288 645 282 636 C276 628 266 614 250 596 L140 467 L140 467 Z M50 -8 L49 -12 L50 -8 L49 -8 L45 54 C48 54 50 55 51 55 L56 55 L68 43 C81 30 95 21 113 15 C131 9 155 6 185 6 L226 6 C267 6 295 13 312 27 C330 42 338 67 338 101 C338 123 329 142 310 157 C292 173 260 187 215 200 C161 218 124 236 101 255 C79 275 67 299 67 329 C67 370 79 398 101 415 C124 433 163 441 217 441 C262 441 295 441 317 441 C339 442 352 442 355 442 L355 443 L355 442 L355 443 L359 383 C358 383 356 382 353 382 L347 382 C346 384 345 386 343 388 C342 390 341 392 339 394 C331 406 322 415 310 420 C299 426 284 429 264 430 L217 430 C177 430 149 424 131 411 C114 399 105 377 105 346 C105 323 116 303 138 286 C160 270 198 253 250 236 C298 221 330 205 350 187 C370 170 380 148 380 120 C380 74 369 42 345 23 C321 5 281 -5 223 -5 C174 -5 135 -4 107 -5 C79 -5 60 -6 50 -8 L50 -8 Z M49 -8 C41 -8 41 -10 49 -12 L49 -8 L49 -8 Z M355 443 L355 443 L355 443 L355 443 Z " />
<glyph glyph-name="Scircumflex" unicode="&#x15c;" horiz-adv-x="512" d="M241 760 L127 600 L122 604 L225 798 C227 801 228 804 230 807 C233 811 237 812 241 812 C247 812 250 811 252 807 C254 804 256 801 257 797 L360 604 L355 600 L241 760 L241 760 Z M315 556 L315 556 C304 557 293 557 280 557 C268 558 255 558 241 558 C187 558 149 549 125 530 C102 512 90 480 90 434 C90 402 105 376 133 356 C162 336 210 319 278 305 C347 291 396 273 424 248 C453 224 467 190 467 146 C467 92 453 54 423 30 C394 7 345 -5 275 -5 C211 -5 162 -4 126 -3 C91 -1 64 1 44 4 L46 14 L46 14 L44 4 L38 95 L45 95 C48 95 50 96 51 96 C55 93 57 90 59 86 C61 83 64 80 66 76 C82 55 99 40 119 29 C140 19 167 12 201 10 C213 10 224 9 236 9 C249 9 262 9 275 9 C331 9 370 18 393 35 C417 53 428 82 428 124 C428 160 414 187 384 208 C355 230 305 248 235 262 C169 276 121 295 93 317 C65 340 51 371 51 411 C51 470 66 511 95 535 C125 560 174 572 244 572 C294 572 332 572 360 570 C388 569 412 567 431 563 L437 472 L430 472 C429 472 427 471 424 471 C421 477 418 481 414 485 C411 489 408 494 404 499 C391 518 378 532 364 540 C351 549 335 554 315 556 L315 556 Z " />
<glyph glyph-name="Scedilla" unicode="&#x15e;" horiz-adv-x="512" d="M315 556 L315 556 C304 557 293 557 280 557 C268 558 255 558 241 558 C187 558 149 549 125 530 C102 512 90 480 90 434 C90 402 105 376 133 356 C162 336 210 319 278 305 C347 291 396 273 424 248 C453 224 467 190 467 146 C467 92 453 54 423 30 C394 7 345 -5 275 -5 C211 -5 162 -4 126 -3 C91 -1 64 1 44 4 L46 14 L46 14 L44 4 L38 95 L45 95 C48 95 50 96 51 96 C55 93 57 90 59 86 C61 83 64 80 66 76 C82 55 99 40 119 29 C140 19 167 12 201 10 C213 10 224 9 236 9 C249 9 262 9 275 9 C331 9 370 18 393 35 C417 53 428 82 428 124 C428 160 414 187 384 208 C355 230 305 248 235 262 C169 276 121 295 93 317 C65 340 51 371 51 411 C51 470 66 511 95 535 C125 560 174 572 244 572 C294 572 332 572 360 570 C388 569 412 567 431 563 L437 472 L430 472 C429 472 427 471 424 471 C421 477 418 481 414 485 C411 489 408 494 404 499 C391 518 378 532 364 540 C351 549 335 554 315 556 L315 556 Z " />
<glyph glyph-name="scedilla" unicode="&#x15f;" horiz-adv-x="429" d="M50 -8 L49 -12 L50 -8 L49 -8 L45 54 C48 54 50 55 51 55 L56 55 L68 43 C81 30 95 21 113 15 C131 9 155 6 185 6 L226 6 C267 6 295 13 312 27 C330 42 338 67 338 101 C338 123 329 142 310 157 C292 173 260 187 215 200 C161 218 124 236 101 255 C79 275 67 299 67 329 C67 370 79 398 101 415 C124 433 163 441 217 441 C262 441 295 441 317 441 C339 442 352 442 355 442 L355 443 L355 442 L355 443 L359 383 C358 383 356 382 353 382 L347 382 C346 384 345 386 343 388 C342 390 341 392 339 394 C331 406 322 415 310 420 C299 426 284 429 264 430 L217 430 C177 430 149 424 131 411 C114 399 105 377 105 346 C105 323 116 303 138 286 C160 270 198 253 250 236 C298 221 330 205 350 187 C370 170 380 148 380 120 C380 74 369 42 345 23 C321 5 281 -5 223 -5 C174 -5 135 -4 107 -5 C79 -5 60 -6 50 -8 L50 -8 Z M49 -8 C41 -8 41 -10 49 -12 L49 -8 L49 -8 Z M355 443 L355 443 L355 443 L355 443 Z " />
<glyph glyph-name="Scaron" unicode="&#x160;" horiz-adv-x="512" d="M241 674 L127 834 L122 829 L225 636 C227 634 228 631 230 627 C233 624 237 622 241 622 C247 622 250 624 252 627 C254 631 256 634 257 636 L360 829 L355 834 L241 674 L241 674 Z M315 556 L315 556 C304 557 293 557 280 557 C268 558 255 558 241 558 C187 558 149 549 125 530 C102 512 90 480 90 434 C90 402 105 376 133 356 C162 336 210 319 278 305 C347 291 396 273 424 248 C453 224 467 190 467 146 C467 92 453 54 423 30 C394 7 345 -5 275 -5 C211 -5 162 -4 126 -3 C91 -1 64 1 44 4 L46 14 L46 14 L44 4 L38 95 L45 95 C48 95 50 96 51 96 C55 93 57 90 59 86 C61 83 64 80 66 76 C82 55 99 40 119 29 C140 19 167 12 201 10 C213 10 224 9 236 9 C249 9 262 9 275 9 C331 9 370 18 393 35 C417 53 428 82 428 124 C428 160 414 187 384 208 C355 230 305 248 235 262 C169 276 121 295 93 317 C65 340 51 371 51 411 C51 470 66 511 95 535 C125 560 174 572 244 572 C294 572 332 572 360 570 C388 569 412 567 431 563 L437 472 L430 472 C429 472 427 471 424 471 C421 477 418 481 414 485 C411 489 408 494 404 499 C391 518 378 532 364 540 C351 549 335 554 315 556 L315 556 Z " />
<glyph glyph-name="scaron" unicode="&#x161;" horiz-adv-x="429" d="M217 543 L103 703 L98 699 L202 505 C204 503 205 500 207 496 C209 493 213 491 217 491 C223 491 226 493 228 496 C230 500 232 503 233 506 L337 699 L332 703 L217 543 L217 543 Z M50 -8 L49 -12 L50 -8 L49 -8 L45 54 C48 54 50 55 51 55 L56 55 L68 43 C81 30 95 21 113 15 C131 9 155 6 185 6 L226 6 C267 6 295 13 312 27 C330 42 338 67 338 101 C338 123 329 142 310 157 C292 173 260 187 215 200 C161 218 124 236 101 255 C79 275 67 299 67 329 C67 370 79 398 101 415 C124 433 163 441 217 441 C262 441 295 441 317 441 C339 442 352 442 355 442 L355 443 L355 442 L355 443 L359 383 C358 383 356 382 353 382 L347 382 C346 384 345 386 343 388 C342 390 341 392 339 394 C331 406 322 415 310 420 C299 426 284 429 264 430 L217 430 C177 430 149 424 131 411 C114 399 105 377 105 346 C105 323 116 303 138 286 C160 270 198 253 250 236 C298 221 330 205 350 187 C370 170 380 148 380 120 C380 74 369 42 345 23 C321 5 281 -5 223 -5 C174 -5 135 -4 107 -5 C79 -5 60 -6 50 -8 L50 -8 Z M49 -8 C41 -8 41 -10 49 -12 L49 -8 L49 -8 Z M355 443 L355 443 L355 443 L355 443 Z " />
<glyph glyph-name="Tcaron" unicode="&#x164;" horiz-adv-x="626" d="M384 15 L384 0 L341 0 L313 0 L285 0 L242 0 L242 15 L249 15 C265 15 274 19 278 27 C283 35 285 53 285 80 L285 553 L161 553 C145 553 130 553 118 551 C106 549 96 546 86 540 C77 535 68 528 59 518 C51 508 41 496 29 480 L20 467 L8 467 C11 484 13 499 15 513 C17 527 20 543 22 560 C23 562 23 565 23 567 L40 567 L103 567 L523 567 L586 567 L603 567 C603 565 604 562 604 560 C607 543 609 527 611 513 C613 499 616 484 618 467 L606 467 L597 480 C587 496 578 507 568 517 C559 527 550 535 540 540 C531 546 521 548 509 550 C497 552 483 553 465 553 L341 553 L341 80 C341 53 343 35 347 27 C352 19 362 15 377 15 L384 15 L384 15 Z M313 674 L199 834 L194 829 L297 636 C299 634 300 631 302 627 C305 624 309 622 313 622 C318 622 321 624 323 627 C326 631 328 634 329 636 L432 829 L427 834 L313 674 L313 674 Z " />
<glyph glyph-name="tcaron" unicode="&#x165;" horiz-adv-x="356" d="M326 436 L326 417 L156 417 L156 88 C156 72 156 59 157 49 C159 39 162 32 166 27 C171 23 178 21 186 19 C195 18 207 17 223 17 C241 17 255 18 266 19 C278 21 286 22 294 24 C302 27 308 30 314 34 C320 38 327 43 333 48 L337 44 C327 36 317 29 308 22 C300 16 290 10 280 6 C270 2 259 0 246 -2 C234 -4 218 -5 198 -5 C176 -5 160 -5 147 -3 C135 -1 125 4 119 10 C113 17 110 26 108 40 C107 54 106 73 106 97 L106 417 L25 417 L25 422 C57 426 80 433 96 446 C112 460 124 480 132 508 L148 564 L156 564 L156 436 L326 436 L326 436 Z M440 541 L381 389 L374 391 L409 553 C412 567 414 579 417 592 C421 606 423 617 426 627 C430 637 432 645 435 651 C439 657 442 660 445 660 C451 660 456 660 464 658 C472 657 476 654 476 648 C476 645 474 635 468 617 C463 599 454 574 440 541 L440 541 Z " />
<glyph glyph-name="Utilde" unicode="&#x168;" horiz-adv-x="625" d="M174 662 L166 662 C166 698 171 724 181 739 C191 755 208 762 232 762 C251 762 268 759 282 752 C297 746 310 739 324 731 C338 723 353 716 367 709 C382 703 399 699 417 699 C435 699 448 704 455 713 C463 723 466 738 466 759 L475 759 C475 725 471 701 460 687 C450 673 432 666 406 666 C388 666 371 670 356 676 C342 683 328 689 314 697 C300 705 286 713 271 719 C257 726 240 729 221 729 C204 729 193 724 185 714 C178 704 174 687 174 662 L174 662 Z M605 567 L605 552 L598 552 C590 552 583 552 577 550 C572 548 569 545 565 539 C562 533 560 526 558 516 C557 506 556 493 556 477 L556 153 C556 125 554 100 548 80 C543 60 533 44 516 31 C500 19 477 10 446 4 C416 -2 375 -5 325 -5 C273 -5 231 -1 199 5 C167 12 144 23 126 37 C109 52 98 71 92 94 C87 118 84 146 84 179 L84 487 C84 515 83 532 78 540 C74 548 64 552 48 552 L41 552 L41 567 L84 567 L112 567 L140 567 L183 567 L183 552 L176 552 C161 552 152 548 147 540 C143 532 140 515 140 487 L140 168 C140 140 142 117 146 97 C151 77 159 61 173 49 C187 37 207 29 232 23 C258 17 291 14 333 14 C378 14 413 17 440 22 C468 28 489 36 503 47 C518 59 528 74 532 92 C537 111 539 133 539 159 L540 494 C540 519 537 534 531 541 C525 549 514 552 496 552 L488 552 L488 567 L540 567 L548 567 L556 567 L605 567 L605 567 Z " />
<glyph glyph-name="utilde" unicode="&#x169;" horiz-adv-x="527" d="M107 531 L99 531 C99 568 104 593 114 608 C124 624 141 631 165 631 C184 631 201 629 215 622 C230 616 243 608 257 600 C271 592 286 586 300 579 C315 573 332 569 350 569 C368 569 380 573 388 582 C396 592 400 607 400 629 L408 629 C408 595 404 572 393 557 C383 543 365 535 339 535 C321 535 304 539 289 545 C275 552 261 558 247 566 C233 574 219 582 204 588 C190 595 173 598 154 598 C137 598 126 593 118 583 C111 573 107 556 107 531 L107 531 Z M356 421 L356 436 L399 436 L424 436 L449 436 L449 123 C449 103 449 89 449 79 C450 70 451 63 453 59 C456 55 459 53 465 50 C471 48 480 42 492 34 C493 34 493 32 492 26 C493 26 493 25 492 25 L409 0 L399 0 L399 13 L399 62 C365 50 338 40 314 31 C291 23 272 16 256 10 C239 4 225 -1 214 -5 C184 -5 159 -3 138 3 C118 9 102 18 90 31 C78 45 70 61 65 81 C61 102 58 127 58 156 L58 356 C58 384 57 401 52 409 C48 417 37 421 21 421 L15 421 L15 436 L58 436 L83 436 L108 436 L108 161 C108 137 110 118 114 100 C119 83 127 70 137 59 C148 49 162 42 181 36 C201 31 225 28 253 28 C269 28 287 30 308 36 C330 42 360 53 399 67 L399 110 L399 356 C399 384 398 401 393 409 C389 417 379 421 363 421 L356 421 L356 421 Z " />
<glyph glyph-name="Umacron" unicode="&#x16a;" horiz-adv-x="625" d="M167 677 L167 705 L473 705 L473 677 L167 677 L167 677 Z M605 567 L605 552 L598 552 C590 552 583 552 577 550 C572 548 569 545 565 539 C562 533 560 526 558 516 C557 506 556 493 556 477 L556 153 C556 125 554 100 548 80 C543 60 533 44 516 31 C500 19 477 10 446 4 C416 -2 375 -5 325 -5 C273 -5 231 -1 199 5 C167 12 144 23 126 37 C109 52 98 71 92 94 C87 118 84 146 84 179 L84 487 C84 515 83 532 78 540 C74 548 64 552 48 552 L41 552 L41 567 L84 567 L112 567 L140 567 L183 567 L183 552 L176 552 C161 552 152 548 147 540 C143 532 140 515 140 487 L140 168 C140 140 142 117 146 97 C151 77 159 61 173 49 C187 37 207 29 232 23 C258 17 291 14 333 14 C378 14 413 17 440 22 C468 28 489 36 503 47 C518 59 528 74 532 92 C537 111 539 133 539 159 L540 494 C540 519 537 534 531 541 C525 549 514 552 496 552 L488 552 L488 567 L540 567 L548 567 L556 567 L605 567 L605 567 Z " />
<glyph glyph-name="umacron" unicode="&#x16b;" horiz-adv-x="527" d="M101 546 L101 574 L407 574 L407 546 L101 546 L101 546 Z M356 421 L356 436 L399 436 L424 436 L449 436 L449 123 C449 103 449 89 449 79 C450 70 451 63 453 59 C456 55 459 53 465 50 C471 48 480 42 492 34 C493 34 493 32 492 26 C493 26 493 25 492 25 L409 0 L399 0 L399 13 L399 62 C365 50 338 40 314 31 C291 23 272 16 256 10 C239 4 225 -1 214 -5 C184 -5 159 -3 138 3 C118 9 102 18 90 31 C78 45 70 61 65 81 C61 102 58 127 58 156 L58 356 C58 384 57 401 52 409 C48 417 37 421 21 421 L15 421 L15 436 L58 436 L83 436 L108 436 L108 161 C108 137 110 118 114 100 C119 83 127 70 137 59 C148 49 162 42 181 36 C201 31 225 28 253 28 C269 28 287 30 308 36 C330 42 360 53 399 67 L399 110 L399 356 C399 384 398 401 393 409 C389 417 379 421 363 421 L356 421 L356 421 Z " />
<glyph glyph-name="Ubreve" unicode="&#x16c;" horiz-adv-x="625" d="M202 779 L211 780 C216 754 226 737 242 725 C259 714 285 708 320 708 C356 708 382 713 398 724 C415 736 426 754 430 780 L439 779 C432 741 420 715 402 699 C384 683 357 675 320 675 C284 675 257 682 239 698 C221 714 209 741 202 779 L202 779 Z M605 567 L605 552 L598 552 C590 552 583 552 577 550 C572 548 569 545 565 539 C562 533 560 526 558 516 C557 506 556 493 556 477 L556 153 C556 125 554 100 548 80 C543 60 533 44 516 31 C500 19 477 10 446 4 C416 -2 375 -5 325 -5 C273 -5 231 -1 199 5 C167 12 144 23 126 37 C109 52 98 71 92 94 C87 118 84 146 84 179 L84 487 C84 515 83 532 78 540 C74 548 64 552 48 552 L41 552 L41 567 L84 567 L112 567 L140 567 L183 567 L183 552 L176 552 C161 552 152 548 147 540 C143 532 140 515 140 487 L140 168 C140 140 142 117 146 97 C151 77 159 61 173 49 C187 37 207 29 232 23 C258 17 291 14 333 14 C378 14 413 17 440 22 C468 28 489 36 503 47 C518 59 528 74 532 92 C537 111 539 133 539 159 L540 494 C540 519 537 534 531 541 C525 549 514 552 496 552 L488 552 L488 567 L540 567 L548 567 L556 567 L605 567 L605 567 Z " />
<glyph glyph-name="ubreve" unicode="&#x16d;" horiz-adv-x="527" d="M135 648 L144 649 C149 623 160 606 176 594 C193 583 219 577 254 577 C289 577 315 582 331 593 C348 605 359 623 363 649 L372 648 C366 610 353 584 335 568 C317 552 290 544 254 544 C218 544 190 551 172 567 C154 583 142 610 135 648 L135 648 Z M356 421 L356 436 L399 436 L424 436 L449 436 L449 123 C449 103 449 89 449 79 C450 70 451 63 453 59 C456 55 459 53 465 50 C471 48 480 42 492 34 C493 34 493 32 492 26 C493 26 493 25 492 25 L409 0 L399 0 L399 13 L399 62 C365 50 338 40 314 31 C291 23 272 16 256 10 C239 4 225 -1 214 -5 C184 -5 159 -3 138 3 C118 9 102 18 90 31 C78 45 70 61 65 81 C61 102 58 127 58 156 L58 356 C58 384 57 401 52 409 C48 417 37 421 21 421 L15 421 L15 436 L58 436 L83 436 L108 436 L108 161 C108 137 110 118 114 100 C119 83 127 70 137 59 C148 49 162 42 181 36 C201 31 225 28 253 28 C269 28 287 30 308 36 C330 42 360 53 399 67 L399 110 L399 356 C399 384 398 401 393 409 C389 417 379 421 363 421 L356 421 L356 421 Z " />
<glyph glyph-name="Uring" unicode="&#x16e;" horiz-adv-x="625" d="M320 613 C374 613 400 640 400 694 C400 724 394 745 382 757 C370 770 350 776 320 776 C291 776 270 771 258 758 C246 746 240 724 240 694 C240 640 267 613 320 613 L320 613 Z M226 694 C226 728 233 752 247 766 C262 780 286 787 320 787 C354 787 378 780 392 766 C407 752 414 728 414 694 C414 633 383 602 320 602 C258 602 226 633 226 694 L226 694 Z M605 567 L605 552 L598 552 C590 552 583 552 577 550 C572 548 569 545 565 539 C562 533 560 526 558 516 C557 506 556 493 556 477 L556 153 C556 125 554 100 548 80 C543 60 533 44 516 31 C500 19 477 10 446 4 C416 -2 375 -5 325 -5 C273 -5 231 -1 199 5 C167 12 144 23 126 37 C109 52 98 71 92 94 C87 118 84 146 84 179 L84 487 C84 515 83 532 78 540 C74 548 64 552 48 552 L41 552 L41 567 L84 567 L112 567 L140 567 L183 567 L183 552 L176 552 C161 552 152 548 147 540 C143 532 140 515 140 487 L140 168 C140 140 142 117 146 97 C151 77 159 61 173 49 C187 37 207 29 232 23 C258 17 291 14 333 14 C378 14 413 17 440 22 C468 28 489 36 503 47 C518 59 528 74 532 92 C537 111 539 133 539 159 L540 494 C540 519 537 534 531 541 C525 549 514 552 496 552 L488 552 L488 567 L540 567 L548 567 L556 567 L605 567 L605 567 Z " />
<glyph glyph-name="uring" unicode="&#x16f;" horiz-adv-x="527" d="M254 482 C308 482 334 510 334 564 C334 594 328 615 316 627 C304 639 284 645 254 645 C224 645 203 639 191 627 C179 615 173 594 173 564 C173 510 200 482 254 482 L254 482 Z M160 564 C160 598 167 621 181 635 C196 649 220 656 254 656 C288 656 312 650 326 636 C341 622 348 598 348 564 C348 502 317 471 254 471 C192 471 160 502 160 564 L160 564 Z M356 421 L356 436 L399 436 L424 436 L449 436 L449 123 C449 103 449 89 449 79 C450 70 451 63 453 59 C456 55 459 53 465 50 C471 48 480 42 492 34 C493 34 493 32 492 26 C493 26 493 25 492 25 L409 0 L399 0 L399 13 L399 62 C365 50 338 40 314 31 C291 23 272 16 256 10 C239 4 225 -1 214 -5 C184 -5 159 -3 138 3 C118 9 102 18 90 31 C78 45 70 61 65 81 C61 102 58 127 58 156 L58 356 C58 384 57 401 52 409 C48 417 37 421 21 421 L15 421 L15 436 L58 436 L83 436 L108 436 L108 161 C108 137 110 118 114 100 C119 83 127 70 137 59 C148 49 162 42 181 36 C201 31 225 28 253 28 C269 28 287 30 308 36 C330 42 360 53 399 67 L399 110 L399 356 C399 384 398 401 393 409 C389 417 379 421 363 421 L356 421 L356 421 Z " />
<glyph glyph-name="Wcircumflex" unicode="&#x174;" horiz-adv-x="885" d="M878 567 L878 552 L872 552 C864 552 858 552 852 550 C847 548 842 545 838 540 C834 536 830 530 826 521 C822 513 818 501 813 487 L813 487 L643 -15 L629 -15 L797 487 L797 487 C807 515 810 532 806 540 C803 548 792 552 772 552 L763 552 L763 567 L824 567 L832 567 L840 567 L878 567 L878 567 Z M146 567 L146 552 L139 552 C124 552 115 550 112 542 C110 535 113 519 121 494 L279 60 L255 -15 L448 577 L462 577 L655 64 L629 -15 L434 492 L269 -15 L255 -15 L54 512 C47 529 41 539 35 544 C29 550 21 552 10 552 L5 552 L5 567 L33 567 L64 567 L95 567 L146 567 L146 567 Z M455 760 L341 600 L336 604 L439 798 C441 801 442 804 444 807 C447 811 451 812 455 812 C460 812 463 811 465 807 C468 804 470 801 471 797 L574 604 L569 600 L455 760 L455 760 Z " />
<glyph glyph-name="Ycircumflex" unicode="&#x176;" horiz-adv-x="566" d="M362 15 L362 0 L319 0 L291 0 L263 0 L220 0 L220 15 L227 15 C243 15 252 19 256 27 C261 35 263 53 263 80 L263 224 L98 489 C90 503 83 513 77 521 C71 530 67 536 61 540 C56 545 52 547 47 549 C43 551 38 552 32 552 L27 552 L27 567 L49 567 L83 567 L116 567 L168 567 L168 552 L161 552 C147 552 141 549 139 543 C138 537 144 524 156 502 L310 252 L468 493 C484 518 491 534 489 541 C488 549 479 552 461 552 L453 552 L453 567 L516 567 L525 567 L533 567 L560 567 L560 552 L555 552 C549 552 543 552 537 550 C532 548 527 545 521 540 C516 536 511 530 504 521 C498 513 490 501 480 487 L480 487 L319 244 L319 244 L319 80 C319 53 321 35 325 27 C330 19 340 15 355 15 L362 15 L362 15 Z M291 760 L177 600 L172 604 L275 798 C277 801 278 804 280 807 C283 811 287 812 291 812 C296 812 299 811 301 807 C304 804 306 801 307 797 L410 604 L405 600 L291 760 L291 760 Z " />
<glyph glyph-name="Ydieresis002" unicode="&#x178;" horiz-adv-x="566" d="M380 637 C369 637 362 639 357 643 C353 648 350 656 350 667 C350 679 352 687 356 691 C361 696 369 698 380 698 C392 698 400 696 404 691 C409 687 411 679 411 667 C411 656 409 649 404 644 C400 640 392 637 380 637 L380 637 Z M202 637 C191 637 183 639 178 643 C174 648 171 656 171 667 C171 679 174 687 178 691 C183 696 191 698 202 698 C214 698 222 696 226 691 C231 687 233 679 233 667 C233 656 231 649 226 644 C222 640 214 637 202 637 L202 637 Z M362 15 L362 0 L319 0 L291 0 L263 0 L220 0 L220 15 L227 15 C243 15 252 19 256 27 C261 35 263 53 263 80 L263 224 L98 489 C90 503 83 513 77 521 C71 530 67 536 61 540 C56 545 52 547 47 549 C43 551 38 552 32 552 L27 552 L27 567 L49 567 L83 567 L116 567 L168 567 L168 552 L161 552 C147 552 141 549 139 543 C138 537 144 524 156 502 L310 252 L468 493 C484 518 491 534 489 541 C488 549 479 552 461 552 L453 552 L453 567 L516 567 L525 567 L533 567 L560 567 L560 552 L555 552 C549 552 543 552 537 550 C532 548 527 545 521 540 C516 536 511 530 504 521 C498 513 490 501 480 487 L480 487 L319 244 L319 244 L319 80 C319 53 321 35 325 27 C330 19 340 15 355 15 L362 15 L362 15 Z " />
<glyph glyph-name="Zacute" unicode="&#x179;" horiz-adv-x="588" d="M332 598 L327 602 L417 747 C430 767 438 781 444 789 C450 798 454 802 455 802 C461 802 466 801 473 795 C481 790 484 786 484 782 C484 780 482 776 475 767 C469 759 458 745 442 727 L332 598 L332 598 Z M525 101 C527 101 529 100 531 99 C536 98 540 97 543 96 C540 80 537 66 533 52 C530 39 527 24 523 7 C523 6 524 6 523 4 C523 3 522 2 522 0 L519 0 L442 0 L115 0 L84 0 L52 0 L462 553 L251 553 C235 553 220 553 208 551 C196 550 186 548 175 543 C165 539 155 533 145 525 C135 517 124 507 110 494 L100 484 L88 484 C93 498 96 511 100 522 C104 534 109 546 113 560 C115 562 115 562 115 563 C115 565 116 566 116 567 L132 567 L196 567 L472 567 L504 567 L535 567 L125 14 L380 14 C400 14 416 15 428 17 C441 19 451 23 461 28 C471 34 480 40 488 50 C497 60 506 73 516 88 L525 101 L525 101 Z " />
<glyph glyph-name="zacute" unicode="&#x17a;" horiz-adv-x="489" d="M184 467 L179 471 L269 616 C282 637 291 651 297 659 C303 668 307 672 308 672 C314 672 320 670 326 664 C333 659 336 655 336 651 C336 649 334 645 327 636 C321 628 310 614 294 596 L184 467 L184 467 Z M430 98 L430 98 C432 98 435 97 437 96 C442 94 446 93 449 93 C446 78 444 64 440 50 C437 37 434 22 430 6 C430 5 429 4 429 3 C429 3 429 2 428 0 L425 0 L348 0 L115 0 L86 0 L56 0 L374 425 L203 424 L203 424 C187 424 172 425 160 423 C148 422 138 421 128 417 C118 414 110 410 100 404 C91 398 80 391 68 381 L58 373 L46 373 C50 384 52 394 55 402 C59 411 62 420 65 430 C67 433 67 435 67 436 L84 436 L147 436 L382 436 L411 436 L440 436 L123 11 L286 11 C306 11 322 12 334 14 C347 16 357 20 367 25 C377 31 386 38 394 47 C403 57 412 69 422 85 L430 98 L430 98 Z " />
<glyph glyph-name="Zdot" unicode="&#x17b;" horiz-adv-x="588" d="M334 637 C323 637 315 639 310 643 C306 648 303 656 303 667 C303 679 306 687 310 691 C315 696 323 698 334 698 C346 698 353 696 357 691 C362 687 364 679 364 667 C364 656 363 649 358 644 C354 640 346 637 334 637 L334 637 Z M525 101 C527 101 529 100 531 99 C536 98 540 97 543 96 C540 80 537 66 533 52 C530 39 527 24 523 7 C523 6 524 6 523 4 C523 3 522 2 522 0 L519 0 L442 0 L115 0 L84 0 L52 0 L462 553 L251 553 C235 553 220 553 208 551 C196 550 186 548 175 543 C165 539 155 533 145 525 C135 517 124 507 110 494 L100 484 L88 484 C93 498 96 511 100 522 C104 534 109 546 113 560 C115 562 115 562 115 563 C115 565 116 566 116 567 L132 567 L196 567 L472 567 L504 567 L535 567 L125 14 L380 14 C400 14 416 15 428 17 C441 19 451 23 461 28 C471 34 480 40 488 50 C497 60 506 73 516 88 L525 101 L525 101 Z " />
<glyph glyph-name="zdot" unicode="&#x17c;" horiz-adv-x="489" d="M262 506 C251 506 243 509 238 513 C234 518 231 526 231 537 C231 549 234 556 238 560 C243 565 251 567 262 567 C274 567 281 566 285 561 C290 557 292 549 292 537 C292 526 291 518 286 513 C282 509 274 506 262 506 L262 506 Z M430 98 L430 98 C432 98 435 97 437 96 C442 94 446 93 449 93 C446 78 444 64 440 50 C437 37 434 22 430 6 C430 5 429 4 429 3 C429 3 429 2 428 0 L425 0 L348 0 L115 0 L86 0 L56 0 L374 425 L203 424 L203 424 C187 424 172 425 160 423 C148 422 138 421 128 417 C118 414 110 410 100 404 C91 398 80 391 68 381 L58 373 L46 373 C50 384 52 394 55 402 C59 411 62 420 65 430 C67 433 67 435 67 436 L84 436 L147 436 L382 436 L411 436 L440 436 L123 11 L286 11 C306 11 322 12 334 14 C347 16 357 20 367 25 C377 31 386 38 394 47 C403 57 412 69 422 85 L430 98 L430 98 Z " />
<glyph glyph-name="Zcaron" unicode="&#x17d;" horiz-adv-x="588" d="M525 101 C527 101 529 100 531 99 C536 98 540 97 543 96 C540 80 537 66 533 52 C530 39 527 24 523 7 C523 6 524 6 523 4 C523 3 522 2 522 0 L519 0 L442 0 L115 0 L84 0 L52 0 L462 553 L251 553 C235 553 220 553 208 551 C196 550 186 548 175 543 C165 539 155 533 145 525 C135 517 124 507 110 494 L100 484 L88 484 C93 498 96 511 100 522 C104 534 109 546 113 560 C115 562 115 562 115 563 C115 565 116 566 116 567 L132 567 L196 567 L472 567 L504 567 L535 567 L125 14 L380 14 C400 14 416 15 428 17 C441 19 451 23 461 28 C471 34 480 40 488 50 C497 60 506 73 516 88 L525 101 L525 101 Z M334 674 L220 834 L215 829 L318 636 C320 634 321 631 323 627 C325 624 329 622 334 622 C339 622 342 624 344 627 C347 631 349 634 350 636 L453 829 L448 834 L334 674 L334 674 Z " />
<glyph glyph-name="zcaron" unicode="&#x17e;" horiz-adv-x="489" d="M430 98 L430 98 C432 98 435 97 437 96 C442 94 446 93 449 93 C446 78 444 64 440 50 C437 37 434 22 430 6 C430 5 429 4 429 3 C429 3 429 2 428 0 L425 0 L348 0 L115 0 L86 0 L56 0 L374 425 L203 424 L203 424 C187 424 172 425 160 423 C148 422 138 421 128 417 C118 414 110 410 100 404 C91 398 80 391 68 381 L58 373 L46 373 C50 384 52 394 55 402 C59 411 62 420 65 430 C67 433 67 435 67 436 L84 436 L147 436 L382 436 L411 436 L440 436 L123 11 L286 11 C306 11 322 12 334 14 C347 16 357 20 367 25 C377 31 386 38 394 47 C403 57 412 69 422 85 L430 98 L430 98 Z M262 543 L148 703 L143 699 L246 505 C248 503 249 500 251 496 C253 493 257 491 262 491 C267 491 270 493 272 496 C275 500 277 503 278 506 L381 699 L376 703 L262 543 L262 543 Z " />
</font>
</svg>
