<?xml version="1.0" encoding="UTF-8"?>
<svg xmlns="http://www.w3.org/2000/svg" xmlns:xlink="http://www.w3.org/1999/xlink" version="1.2" >
<font id="Aaron Medium">
<font-face  font-family="Aaron" units-per-em="1024" ascent="853" descent="-100" font-style="normal" font-weight="500" font-stretch="normal" cap-height="567" x-height="436" underline-position="0" underline-thickness="0" />
<missing-glyph  horiz-adv-x="472" d="M0 700 L432 700 L432 0 L0 0 L0 700 L0 700 Z M50 50 L382 50 L382 650 L50 650 L50 50 L50 50 Z " />
<glyph glyph-name="NULL" d="" />
<glyph glyph-name="CR" unicode="&#xd;" horiz-adv-x="256" d="" />
<glyph glyph-name="space" unicode="&#x20;" horiz-adv-x="251" d="" />
<glyph glyph-name="exclam" unicode="&#x21;" horiz-adv-x="208" d="M111 -5 C93 -5 80 -2 72 6 C64 14 60 28 60 46 C60 64 63 76 71 84 C79 92 93 96 111 96 C129 96 141 93 149 85 C157 77 161 64 161 46 C161 28 158 15 150 7 C142 -1 129 -5 111 -5 L111 -5 Z M149 520 L115 171 L106 171 L63 520 C61 540 63 552 69 560 C76 568 88 572 106 572 C124 572 136 569 142 561 C149 553 151 540 149 520 L149 520 Z " />
<glyph glyph-name="quotedbl" unicode="&#x22;" horiz-adv-x="288" d="M159 567 L249 567 L210 342 L198 342 L159 567 L159 567 Z M40 567 L129 567 L90 342 L79 342 L40 567 L40 567 Z " />
<glyph glyph-name="numbersign" unicode="&#x23;" horiz-adv-x="539" d="M387 609 L414 609 L387 423 L519 423 L512 369 L379 369 L358 227 L482 227 L475 173 L350 173 L325 0 L298 0 L323 173 L177 173 L152 0 L125 0 L150 173 L18 173 L26 227 L158 227 L179 369 L50 369 L57 423 L187 423 L214 609 L241 609 L214 423 L360 423 L387 609 L387 609 Z M206 369 L185 227 L331 227 L352 369 L206 369 L206 369 Z " />
<glyph glyph-name="dollar" unicode="&#x24;" horiz-adv-x="515" d="M275 642 L298 642 L298 571 C325 571 349 569 369 567 C390 565 411 563 431 559 L429 546 L429 546 L431 559 L437 461 C435 461 433 461 431 460 L424 460 C421 466 418 470 414 474 C411 479 408 484 404 489 C392 508 379 521 364 530 C350 540 332 546 311 549 C309 550 308 550 305 550 C303 550 300 551 298 551 L298 312 C361 298 405 278 431 254 C458 230 471 197 471 153 C471 100 459 61 432 37 C406 13 361 0 298 -4 L298 -75 L275 -75 L275 -5 L267 -5 L218 -5 L218 -75 L195 -75 L195 -4 C161 -3 133 -2 109 0 C85 2 64 5 44 8 L46 21 L46 21 L44 8 L38 106 C41 106 43 107 44 107 L51 107 C56 101 61 94 65 86 C81 65 97 49 117 38 C137 28 163 21 195 17 L195 260 C142 274 105 292 82 314 C60 337 48 367 48 405 C48 457 60 496 82 522 C105 548 143 564 195 569 L195 642 L218 642 L218 571 C224 572 229 572 234 572 C240 572 245 572 250 572 L275 572 L275 642 L275 642 Z M218 15 L218 15 L226 15 L226 15 C233 15 240 14 246 14 C253 14 260 14 267 14 L275 14 L275 241 C268 243 260 245 252 247 C244 249 236 251 226 253 C225 254 224 254 222 254 C221 254 220 255 218 255 L218 15 L218 15 Z M218 331 L218 331 C227 329 236 327 245 324 C255 322 265 319 275 317 L275 552 C270 553 266 553 261 553 C257 553 252 553 247 553 C242 553 237 553 232 553 C228 553 223 553 218 552 L218 331 L218 331 Z M195 339 L195 550 C161 545 138 533 123 515 C109 497 101 471 101 436 C101 414 108 396 122 380 C137 364 161 351 195 339 L195 339 Z M298 235 L298 15 C340 18 370 27 388 43 C406 60 415 86 415 121 C415 149 406 170 388 188 C370 206 340 222 298 235 L298 235 Z " />
<glyph glyph-name="ampersand" unicode="&#x26;" horiz-adv-x="696" d="M614 338 L614 323 L606 323 C596 323 588 324 581 324 C575 325 570 324 566 319 C563 315 561 307 559 293 C558 280 557 260 557 232 L557 206 C557 174 554 147 546 123 C539 100 527 80 511 62 C537 37 557 20 573 10 C589 0 603 -5 615 -6 C628 -6 639 -4 651 0 C663 5 678 9 696 12 L696 0 C670 -4 648 -9 629 -15 C611 -20 593 -23 576 -24 C560 -24 542 -22 524 -15 C506 -7 485 7 461 27 C416 6 349 -5 259 -5 C183 -5 130 6 98 28 C66 50 50 87 50 139 C50 185 61 221 85 249 C109 278 149 302 204 322 C196 336 189 347 183 357 C178 367 175 376 171 384 C168 393 166 401 165 408 C165 416 164 424 164 432 C164 483 175 519 197 540 C220 562 258 572 311 572 C365 572 404 565 426 550 C449 536 460 510 460 474 C460 438 447 410 418 388 C390 366 343 348 277 334 C287 321 299 306 313 288 C327 271 344 251 362 229 C391 195 416 167 438 141 C460 116 480 95 497 77 C513 91 523 109 530 130 C538 152 541 177 541 206 L541 232 C541 260 542 279 540 292 C539 306 538 314 534 318 C531 323 527 325 521 324 C515 324 508 323 498 323 L490 323 L490 338 L614 338 L614 338 Z M269 344 L269 344 C319 356 354 370 374 390 C395 410 405 437 405 471 C405 503 398 524 383 537 C369 551 343 557 307 557 C275 557 252 551 238 536 C224 522 217 497 217 463 C217 455 217 448 218 440 C220 432 221 425 225 415 C229 406 235 397 241 385 C248 374 257 360 269 344 L269 344 Z M441 45 L441 45 C409 77 365 124 311 187 C288 215 269 238 253 258 C237 278 224 296 212 311 C178 297 153 280 138 257 C124 235 116 204 116 166 C116 116 129 80 157 58 C185 37 232 26 297 26 C358 26 406 33 441 45 L441 45 Z " />
<glyph glyph-name="quoteright" unicode="&#x27;" horiz-adv-x="169" d="M40 567 L129 567 L90 342 L79 342 L40 567 L40 567 Z " />
<glyph glyph-name="parenleft" unicode="&#x28;" horiz-adv-x="228" d="M209 597 L218 589 C200 567 184 546 170 527 C157 509 147 488 138 466 C130 444 124 419 120 390 C116 362 114 326 114 282 C114 240 115 205 119 175 C123 146 129 120 137 98 C146 76 157 56 170 37 C184 19 200 -2 218 -25 L209 -33 C183 0 161 29 141 53 C122 78 106 102 94 125 C82 149 74 173 68 197 C63 222 60 250 60 282 C60 314 63 343 68 367 C74 392 82 416 94 439 C106 463 121 487 140 511 C160 536 183 565 209 597 L209 597 Z " />
<glyph glyph-name="parenright" unicode="&#x29;" horiz-adv-x="228" d="M10 -33 L1 -25 C21 -2 36 19 49 37 C63 56 73 76 81 98 C90 120 95 145 99 174 C103 204 105 240 105 282 C105 326 104 361 100 390 C96 420 91 445 82 467 C74 489 64 509 50 527 C37 546 21 567 1 589 L10 597 C38 565 60 536 79 511 C99 487 114 463 126 439 C138 416 147 392 152 367 C158 343 160 314 160 282 C160 250 158 222 152 197 C147 173 138 149 126 125 C114 102 100 78 80 53 C61 29 38 0 10 -33 L10 -33 Z " />
<glyph glyph-name="asterisk" unicode="&#x2a;" horiz-adv-x="284" d="M144 447 L35 488 C26 492 20 495 18 500 C16 506 18 513 23 521 C28 529 32 534 37 534 C43 535 49 532 57 525 L147 452 L129 567 C127 577 128 584 131 588 C135 592 141 594 150 594 C160 594 166 592 169 588 C173 584 173 577 171 567 L153 452 L243 525 C257 537 269 536 277 521 C283 513 284 507 282 501 C280 496 275 492 265 488 L156 447 L265 405 C283 399 287 389 277 373 C269 359 258 357 243 368 L153 442 L171 327 C173 317 173 310 169 306 C166 302 160 300 150 300 C141 300 135 302 131 306 C128 310 127 317 129 327 L147 442 L57 368 C49 362 44 360 38 360 C33 361 28 365 23 373 C14 389 18 399 35 405 L144 447 L144 447 Z " />
<glyph glyph-name="plus" unicode="&#x2b;" horiz-adv-x="503" d="M232 395 L267 395 L267 236 L424 236 L424 205 L267 205 L267 46 L232 46 L232 205 L75 205 L75 236 L232 236 L232 395 L232 395 Z " />
<glyph glyph-name="comma" unicode="&#x2c;" horiz-adv-x="219" d="M158 20 C166 10 170 6 170 8 C170 -24 164 -49 150 -69 C136 -89 113 -107 79 -123 L74 -113 C94 -103 107 -92 115 -79 C124 -65 128 -48 128 -27 C128 -28 121 -21 107 -5 C90 -4 79 -1 71 7 C64 15 60 28 60 46 C60 64 63 76 71 84 C79 92 93 96 111 96 C129 96 141 93 149 85 C157 77 161 64 161 46 C161 36 160 28 158 20 L158 20 Z " />
<glyph glyph-name="hyphen" unicode="&#x2d;" horiz-adv-x="287" d="M20 178 L20 232 L268 232 L268 178 L20 178 L20 178 Z " />
<glyph glyph-name="period" unicode="&#x2e;" horiz-adv-x="235" d="M125 -5 C107 -5 94 -2 86 6 C78 14 74 28 74 46 C74 64 77 76 85 84 C93 92 107 96 125 96 C144 96 156 93 164 85 C172 77 176 64 176 46 C176 28 173 15 165 7 C157 -1 144 -5 125 -5 L125 -5 Z " />
<glyph glyph-name="slash" unicode="&#x2f;" horiz-adv-x="341" d="M0 -32 L310 617 L341 617 L31 -32 L0 -32 L0 -32 Z " />
<glyph glyph-name="zero" unicode="0" horiz-adv-x="546" d="M273 11 C327 11 364 26 386 58 C408 90 419 144 419 218 C419 294 408 346 386 378 C364 410 327 426 273 426 C221 426 183 411 161 379 C139 347 128 294 128 218 C128 144 139 91 161 59 C183 27 221 11 273 11 L273 11 Z M50 218 C50 259 54 293 62 321 C70 350 82 372 100 390 C118 408 141 421 169 429 C198 437 233 441 273 441 C314 441 348 437 376 429 C405 421 428 409 446 391 C464 373 477 351 485 322 C493 294 497 259 497 218 C497 178 493 144 485 115 C477 87 464 64 446 46 C428 28 406 15 377 7 C349 -1 314 -5 273 -5 C233 -5 199 -1 170 7 C142 15 119 27 101 45 C83 63 70 86 62 114 C54 143 50 178 50 218 L50 218 Z " />
<glyph glyph-name="one" unicode="1" horiz-adv-x="266" d="M211 436 L211 421 L205 421 C190 421 180 418 175 410 C171 402 168 384 168 356 L168 80 C168 52 171 35 175 27 C180 19 190 15 205 15 L211 15 L211 0 L168 0 L133 0 L98 0 L55 0 L55 15 L61 15 C77 15 87 19 91 27 C96 35 98 53 98 80 L98 356 C98 384 97 401 92 409 C88 417 77 421 61 421 L55 421 L55 436 L98 436 L133 436 L168 436 L211 436 L211 436 Z " />
<glyph glyph-name="two" unicode="2" horiz-adv-x="490" d="M455 35 L451 0 L25 0 L25 16 C85 47 136 71 178 88 C221 106 255 122 281 138 C308 154 327 172 339 193 C351 215 357 245 357 283 C357 323 348 350 330 366 C312 382 281 390 237 390 C195 390 162 383 138 367 C114 352 95 326 79 289 L71 294 C93 348 119 385 149 407 C180 430 221 441 271 441 C331 441 373 432 398 411 C424 391 436 356 436 307 C436 276 431 251 421 230 C411 210 396 192 374 175 C353 159 326 143 292 127 C258 111 217 92 169 70 L379 70 C407 70 425 72 433 76 C442 81 447 91 448 107 L448 113 L463 113 C462 106 462 100 461 92 C461 85 460 78 459 70 L459 70 L455 35 L455 35 Z " />
<glyph glyph-name="three" unicode="3" horiz-adv-x="466" d="M25 -47 L24 -35 C82 -32 131 -27 171 -20 C212 -12 245 -2 270 10 C296 23 313 38 325 56 C337 75 343 97 343 123 C343 153 331 174 307 186 C283 198 243 204 185 204 C175 204 166 204 157 203 C149 203 140 201 132 199 C129 198 126 198 122 196 C118 195 114 194 110 192 L110 204 C148 218 173 226 187 232 C201 238 206 241 200 241 L216 241 C248 255 271 268 285 281 C299 295 306 309 306 324 C306 348 299 365 281 375 C264 385 235 390 194 390 C151 390 117 384 90 371 C64 359 40 337 18 307 L10 313 C26 337 42 356 58 372 C74 389 90 402 108 412 C126 422 144 430 164 434 C184 439 206 441 229 441 C283 441 321 435 343 420 C365 406 376 381 376 347 C376 328 367 311 347 293 C327 276 295 258 249 240 C310 237 352 227 378 209 C404 192 417 165 417 127 C417 99 411 76 396 55 C382 35 360 18 328 4 C297 -10 257 -21 207 -29 C157 -37 97 -43 25 -47 L25 -47 Z " />
<glyph glyph-name="four" unicode="4" horiz-adv-x="499" d="M57 31 L306 31 L306 335 L57 31 L57 31 Z M306 0 L32 0 L31 0 L15 0 L15 12 L364 441 L376 441 L376 420 L376 31 L489 31 L489 0 L376 0 L376 -33 L306 -33 L306 0 L306 0 Z " />
<glyph glyph-name="five" unicode="5" horiz-adv-x="451" d="M67 170 L87 436 L108 436 L84 170 L91 240 L162 240 C206 240 243 239 273 234 C304 230 328 223 347 213 C367 203 381 192 389 176 C398 161 402 142 402 120 C402 94 396 72 382 52 C369 33 348 17 318 4 C288 -8 251 -17 203 -25 C156 -32 99 -37 31 -40 L31 -26 C85 -24 131 -20 169 -15 C207 -9 238 -3 262 7 C286 17 303 30 314 44 C326 59 331 77 331 97 C331 124 317 142 285 153 C254 165 201 170 127 170 L84 170 L67 170 L67 170 Z M314 436 C329 436 340 436 349 437 C359 439 366 441 372 444 C378 448 382 451 386 457 C390 463 394 471 396 479 L411 479 C406 465 402 451 396 439 C391 427 385 414 379 399 L379 399 L363 362 L102 362 L108 436 L314 436 L314 436 Z " />
<glyph glyph-name="six" unicode="6" horiz-adv-x="576" d="M508 652 L508 640 C443 638 387 631 341 616 C295 602 258 581 229 552 C201 524 181 488 167 443 C154 399 147 345 147 283 L147 274 C163 310 185 336 213 351 C242 367 279 374 323 374 C360 374 390 371 416 364 C442 358 463 347 479 332 C496 318 508 299 515 275 C523 251 526 223 526 189 C528 154 526 124 518 99 C510 75 498 55 479 39 C461 24 436 14 406 6 C376 -1 339 -5 295 -5 C254 -5 220 -1 190 9 C161 19 138 34 119 55 C101 77 88 104 79 137 C71 171 66 211 66 259 C66 327 74 385 90 433 C106 482 131 522 166 553 C202 585 247 608 303 624 C360 640 428 650 508 652 L508 652 Z M145 223 L145 223 C145 219 144 214 144 209 C144 205 144 200 144 194 C144 129 156 83 180 55 C205 28 246 14 303 14 C361 14 401 27 423 53 C446 79 456 123 452 185 C452 247 442 290 420 316 C399 342 363 355 312 355 C266 355 229 346 203 325 C177 305 158 271 145 223 L145 223 Z " />
<glyph glyph-name="seven" unicode="7" horiz-adv-x="446" d="M22 365 L22 365 L30 436 L431 436 L436 429 C398 353 359 277 321 200 C283 124 245 47 206 -30 L128 -30 L392 365 L102 365 C75 365 58 364 49 359 C41 355 35 344 33 328 L33 322 L18 322 C20 330 20 336 20 343 C21 351 22 358 22 365 L22 365 Z " />
<glyph glyph-name="eight" unicode="8" horiz-adv-x="545" d="M333 306 L333 306 C360 315 378 329 389 349 C401 369 406 398 406 434 C406 479 397 511 376 529 C356 548 321 557 272 557 C226 557 194 549 174 533 C155 517 145 490 145 450 C145 418 155 392 175 372 C196 353 231 336 280 322 C300 317 318 312 333 306 L333 306 Z M343 303 L343 303 C399 284 438 263 461 239 C485 215 496 186 496 152 C496 124 492 100 484 80 C476 60 464 44 446 31 C429 19 407 10 379 4 C351 -2 318 -5 278 -5 C200 -5 144 6 110 28 C77 50 60 87 60 139 C60 183 71 216 91 237 C112 259 146 271 194 275 C156 292 128 311 111 334 C95 358 86 387 86 423 C86 477 101 516 129 538 C158 561 207 572 275 572 C344 572 393 563 421 543 C450 524 464 491 464 445 C464 405 456 374 437 352 C419 330 387 314 343 303 L343 303 Z M203 271 L203 271 C175 266 155 254 143 235 C131 217 125 188 125 150 C125 100 136 64 160 42 C184 21 225 10 282 10 C336 10 374 18 396 36 C419 54 430 85 430 128 C430 156 418 179 392 198 C366 218 323 236 261 252 C251 256 241 258 231 261 C221 265 212 268 203 271 L203 271 Z " />
<glyph glyph-name="nine" unicode="9" horiz-adv-x="576" d="M68 -215 L68 -204 C134 -201 189 -193 235 -179 C281 -165 319 -143 347 -115 C376 -86 396 -50 409 -6 C423 38 429 91 429 153 L429 162 C413 126 392 101 363 85 C335 70 298 62 253 62 C217 62 186 66 160 72 C134 79 114 89 97 104 C81 120 69 139 61 162 C54 186 50 214 50 248 C48 284 50 313 58 337 C66 362 79 382 97 397 C116 413 140 423 170 430 C200 438 237 441 281 441 C323 441 357 437 386 427 C416 417 439 403 457 381 C476 360 489 333 497 299 C506 266 510 225 510 177 C510 109 502 52 486 3 C470 -45 446 -85 410 -117 C375 -148 330 -171 273 -187 C217 -203 148 -212 68 -215 L68 -215 Z M431 212 L431 212 C432 218 432 222 432 227 C432 233 432 238 432 243 C432 309 421 354 396 381 C372 409 331 422 273 422 C217 422 178 409 154 383 C131 357 121 314 124 252 C124 190 134 146 156 120 C178 94 215 82 265 82 C311 82 347 91 373 111 C399 131 419 165 431 212 L431 212 Z " />
<glyph glyph-name="colon" unicode="&#x3a;" horiz-adv-x="235" d="M125 337 C107 337 94 340 86 348 C78 356 74 370 74 388 C74 406 77 418 85 426 C93 434 107 438 125 438 C144 438 156 435 164 427 C172 419 176 406 176 388 C176 370 173 357 165 349 C157 341 144 337 125 337 L125 337 Z M125 -5 C107 -5 94 -2 86 6 C78 14 74 28 74 46 C74 64 77 76 85 84 C93 92 107 96 125 96 C144 96 156 93 164 85 C172 77 176 64 176 46 C176 28 173 15 165 7 C157 -1 144 -5 125 -5 L125 -5 Z " />
<glyph glyph-name="semicolon" unicode="&#x3b;" horiz-adv-x="219" d="M111 337 C93 337 80 340 72 348 C64 356 60 370 60 388 C60 406 63 418 71 426 C79 434 93 438 111 438 C129 438 141 435 149 427 C157 419 161 406 161 388 C161 370 158 357 150 349 C142 341 129 337 111 337 L111 337 Z M158 20 C166 10 170 6 170 8 C170 -24 164 -49 150 -69 C136 -89 113 -107 79 -123 L74 -113 C94 -103 107 -92 115 -79 C124 -65 128 -48 128 -27 C128 -28 121 -21 107 -5 C90 -4 79 -1 71 7 C64 15 60 28 60 46 C60 64 63 76 71 84 C79 92 93 96 111 96 C129 96 141 93 149 85 C157 77 161 64 161 46 C161 36 160 28 158 20 L158 20 Z " />
<glyph glyph-name="less" unicode="&#x3c;" horiz-adv-x="543" d="M469 436 L469 401 L75 243 L469 85 L469 50 L48 223 L40 226 L40 260 L48 264 L469 436 L469 436 Z " />
<glyph glyph-name="equal" unicode="&#x3d;" horiz-adv-x="536" d="M81 184 L467 184 L467 153 L81 153 L81 184 L81 184 Z M81 284 L467 284 L467 253 L81 253 L81 284 L81 284 Z " />
<glyph glyph-name="greater" unicode="&#x3e;" horiz-adv-x="536" d="M459 243 L75 401 L75 436 L486 264 L496 259 L496 227 L486 223 L75 50 L75 85 L459 243 L459 243 Z " />
<glyph glyph-name="question" unicode="&#x3f;" horiz-adv-x="374" d="M141 -5 C123 -5 111 -2 103 6 C95 14 91 28 91 46 C91 64 94 76 102 84 C110 92 123 96 141 96 C160 96 172 93 180 85 C188 77 192 64 192 46 C192 28 189 15 181 7 C173 -1 160 -5 141 -5 L141 -5 Z M133 320 L168 320 C208 320 237 321 258 325 C280 329 294 333 304 339 C314 345 320 351 321 358 C323 366 323 372 323 378 C323 429 311 464 283 485 C256 507 211 517 147 517 C139 517 133 516 127 512 C121 509 117 506 111 501 C106 497 101 493 95 489 C89 486 82 484 74 484 C51 484 39 492 39 508 C39 532 46 547 58 557 C71 567 93 572 124 572 C164 572 196 569 223 561 C251 554 273 542 290 526 C308 510 319 490 327 464 C335 438 339 407 339 370 C339 359 339 348 337 335 C336 323 332 311 322 301 C313 291 298 283 278 276 C258 270 230 266 192 266 L157 266 L146 166 L137 166 L121 309 C121 317 125 320 133 320 L133 320 Z " />
<glyph glyph-name="at" unicode="&#x40;" horiz-adv-x="1160" d="M1052 0 L1075 0 C1053 -46 1029 -86 1000 -119 C972 -151 939 -177 900 -198 C862 -218 818 -233 767 -243 C717 -252 658 -257 592 -257 C495 -257 412 -249 344 -231 C276 -213 222 -185 178 -147 C135 -108 104 -58 84 3 C65 65 55 139 55 227 C55 315 64 390 83 451 C103 513 132 562 174 600 C216 639 271 666 337 684 C404 702 485 711 580 711 C676 711 757 705 823 689 C890 674 943 650 985 617 C1027 585 1057 543 1076 490 C1096 438 1105 374 1105 299 C1105 242 1101 194 1091 153 C1082 113 1068 80 1047 54 C1027 29 1001 11 968 -1 C936 -12 896 -18 850 -18 C782 -18 732 -8 700 10 C669 29 653 60 652 103 C634 70 611 47 582 32 C554 18 517 10 472 10 C408 10 364 22 336 46 C309 71 295 112 295 169 C295 216 301 256 311 288 C322 321 338 348 361 368 C385 389 415 404 451 413 C488 423 533 427 585 427 C625 427 655 422 674 410 C694 398 706 378 711 350 L731 419 L797 419 L734 200 C714 130 712 80 732 50 C752 21 796 6 862 6 C896 6 925 12 949 22 C973 33 992 50 1007 73 C1023 97 1033 127 1040 164 C1048 202 1051 247 1051 299 C1051 371 1044 430 1026 480 C1009 530 982 570 944 601 C907 633 858 655 798 669 C738 684 666 691 580 691 C495 691 423 683 363 666 C303 650 255 624 217 586 C180 549 154 502 136 442 C119 383 110 311 110 227 C110 143 119 73 136 13 C154 -46 182 -93 220 -131 C259 -168 308 -195 369 -212 C431 -228 505 -237 592 -237 C656 -237 711 -232 759 -224 C808 -215 850 -201 886 -183 C923 -164 954 -140 981 -110 C1009 -80 1032 -43 1052 0 L1052 0 Z M700 310 L699 310 C699 346 691 372 673 386 C656 401 626 408 584 408 C546 408 513 404 486 396 C460 388 439 375 421 357 C404 339 392 316 384 287 C376 259 372 224 372 183 C372 135 383 101 403 80 C424 60 459 49 508 49 C550 49 583 60 607 83 C632 107 652 146 668 200 L700 310 L700 310 Z " />
<glyph glyph-name="A" unicode="A" horiz-adv-x="612" d="M603 15 L603 0 L569 0 L526 0 L484 0 L427 0 L427 15 L435 15 C453 15 462 18 464 26 C466 34 461 52 448 80 L448 80 L395 201 L149 201 L107 95 C101 79 97 65 93 54 C90 44 88 36 89 30 C91 24 93 20 99 18 C105 16 114 15 124 15 L132 15 L132 0 L69 0 L56 0 L43 0 L6 0 L6 15 L13 15 C27 15 38 18 45 24 C53 30 61 43 69 62 L282 580 L301 580 L533 77 C539 65 544 55 549 46 C555 38 559 32 563 27 C568 23 573 20 578 18 C584 16 590 15 597 15 L603 15 L603 15 Z M386 220 L265 491 L157 221 L386 220 L386 220 Z " />
<glyph glyph-name="B" unicode="B" horiz-adv-x="586" d="M46 552 L46 567 L89 567 L128 567 L166 567 L303 567 C379 567 432 557 464 537 C496 517 512 483 512 435 C512 397 502 368 482 347 C462 327 429 313 382 305 C449 299 496 285 524 261 C552 238 566 203 566 157 C566 129 562 105 553 85 C545 65 532 49 512 36 C493 24 468 15 438 9 C408 3 372 0 328 0 L166 0 L128 0 L89 0 L46 0 L46 15 L52 15 C68 15 78 19 82 27 C87 35 89 53 89 80 L89 487 C89 515 88 532 83 540 C79 548 68 552 52 552 L46 552 L46 552 Z M166 309 L275 309 C334 309 375 318 399 337 C423 357 435 389 435 435 C435 476 425 504 405 521 C385 539 351 547 303 547 L166 547 L166 309 L166 309 Z M166 294 L166 19 L320 19 C380 19 422 29 447 50 C473 72 485 107 485 157 C485 182 481 203 473 220 C465 238 453 251 435 262 C417 274 395 281 366 286 C338 292 303 294 263 294 L166 294 L166 294 Z " />
<glyph glyph-name="C" unicode="C" horiz-adv-x="717" d="M442 15 L442 15 C496 16 536 21 566 31 C596 41 620 58 636 82 C639 86 641 89 643 92 C645 96 648 99 650 102 L657 102 C659 102 661 101 663 101 L657 9 L656 19 L656 19 L657 9 C643 7 627 5 610 3 C594 1 575 1 554 -1 C534 -2 511 -3 485 -4 C459 -4 430 -5 398 -5 C336 -5 284 0 240 10 C197 21 162 37 134 60 C107 84 88 114 75 150 C63 187 56 231 56 283 C56 336 62 381 74 417 C87 454 107 483 134 506 C162 530 197 546 240 556 C284 567 336 572 398 572 C430 572 458 572 484 571 C510 571 534 571 554 569 C575 568 594 566 610 564 C627 562 643 560 657 557 L656 547 L656 547 L657 557 L663 466 C661 466 659 466 657 465 L650 465 C648 469 645 472 643 475 C641 479 639 482 636 485 C620 509 601 525 578 535 C556 545 525 551 487 551 L487 551 C474 552 460 552 445 552 C431 552 415 552 398 552 C352 552 313 548 280 538 C248 528 221 513 200 491 C180 469 165 441 155 407 C146 373 141 332 141 283 C141 235 146 193 155 159 C165 125 180 98 200 76 C221 54 247 39 279 29 C312 19 352 14 398 14 L442 14 L442 15 L442 15 Z " />
<glyph glyph-name="D" unicode="D" horiz-adv-x="682" d="M46 552 L46 567 L89 567 L128 567 L166 567 L285 567 C348 567 401 563 445 552 C489 542 524 525 552 502 C580 480 601 450 613 414 C626 378 632 335 632 283 C632 232 627 188 615 152 C604 116 587 88 562 65 C538 43 507 27 467 16 C428 6 380 0 324 0 L166 0 L128 0 L89 0 L46 0 L46 15 L52 15 C68 15 78 19 82 27 C87 35 89 53 89 80 L89 487 C89 515 88 532 83 540 C79 548 68 552 52 552 L46 552 L46 552 Z M166 19 L324 19 C366 19 401 23 430 33 C460 43 484 58 502 79 C521 101 534 128 542 161 C551 195 555 235 555 283 C555 331 551 371 541 405 C531 439 516 466 494 487 C472 509 444 524 410 533 C376 543 335 547 285 547 L166 547 L166 19 L166 19 Z " />
<glyph glyph-name="E" unicode="E" horiz-adv-x="543" d="M383 355 L395 355 L395 312 L395 302 L395 293 L395 244 L383 244 C379 254 375 263 370 269 C366 276 360 281 352 284 C344 288 334 290 322 291 C310 293 295 293 275 293 L161 293 L161 19 L313 19 C335 19 352 19 366 21 C381 23 394 27 404 31 C415 36 425 43 434 51 C444 60 454 71 465 85 L474 97 L485 97 C482 81 480 67 476 53 C473 40 470 26 466 10 C466 8 466 7 465 5 C465 4 464 2 464 0 L460 0 L384 0 L161 0 L122 0 L83 0 L40 0 L40 15 L46 15 C62 15 72 19 76 27 C81 35 83 53 83 80 L83 487 C83 515 82 532 77 540 C73 548 62 552 46 552 L40 552 L40 567 L83 567 L122 567 L161 567 L382 567 L450 567 L462 567 C462 563 463 560 463 557 C464 542 465 528 465 514 C466 501 467 486 468 470 L457 470 L450 482 C442 496 433 507 425 515 C417 524 409 531 398 535 C388 540 375 542 361 544 C347 546 330 547 308 547 L161 547 L161 312 L275 312 C295 312 310 312 322 313 C334 315 344 317 351 320 C359 324 365 327 369 333 C374 339 379 347 383 355 L383 355 Z " />
<glyph glyph-name="F" unicode="F" horiz-adv-x="490" d="M373 351 L385 351 L385 308 L385 298 L385 288 L385 240 L373 240 C369 250 365 258 360 264 C356 271 350 275 342 279 C335 283 326 285 313 286 C301 288 285 288 265 288 L161 288 L161 80 C161 53 164 35 169 27 C175 19 187 15 206 15 L214 15 L214 0 L161 0 L122 0 L83 0 L40 0 L40 15 L46 15 C62 15 72 19 76 27 C81 35 83 53 83 80 L83 487 C83 515 82 532 77 540 C73 548 62 552 46 552 L40 552 L40 567 L83 567 L122 567 L161 567 L412 567 L480 567 L492 567 C492 563 493 560 493 557 C494 542 495 528 495 514 C496 501 497 486 498 470 L487 470 L480 482 C472 496 463 507 455 515 C447 524 439 531 428 535 C418 540 405 542 391 544 C377 546 360 547 338 547 L161 547 L161 308 L265 308 C285 308 300 308 312 309 C324 311 333 312 341 315 C349 319 356 322 360 328 C365 334 369 342 373 351 L373 351 Z " />
<glyph glyph-name="G" unicode="G" horiz-adv-x="780" d="M688 266 L688 251 L681 251 C668 252 660 249 654 243 C649 237 646 225 645 205 L645 186 L645 56 C607 34 569 19 529 9 C490 0 443 -5 388 -5 C328 -5 278 0 235 10 C193 21 159 37 132 60 C106 84 86 114 74 150 C62 187 56 231 56 283 C56 336 62 381 74 417 C86 454 105 483 131 506 C158 530 192 546 234 556 C277 567 328 572 388 572 C450 572 498 572 536 569 C574 567 608 563 637 557 L636 547 L636 547 L637 557 L643 466 C641 466 639 466 637 465 L630 465 C628 469 625 472 623 475 C621 479 619 482 616 485 C602 505 586 520 566 530 C547 541 522 548 491 551 C477 552 462 552 444 552 C427 552 408 552 388 552 C344 552 306 548 274 538 C243 528 218 513 198 491 C178 469 165 441 155 407 C146 373 141 332 141 283 C141 235 145 193 154 159 C164 125 177 98 197 76 C217 54 243 39 274 29 C306 19 344 14 388 14 C426 14 459 17 489 21 C519 26 548 34 575 44 L575 186 C575 214 574 232 569 240 C565 248 554 252 538 251 L531 251 L531 266 L575 266 L610 266 L645 266 L688 266 L688 266 Z " />
<glyph glyph-name="H" unicode="H" horiz-adv-x="716" d="M677 567 L677 552 L670 552 C657 552 649 550 643 544 C638 539 635 527 634 508 L634 487 L634 80 L634 59 C635 41 637 29 642 23 C648 18 657 15 670 15 L677 15 L677 0 L634 0 L595 0 L556 0 L513 0 L513 15 L519 15 C535 15 545 19 549 27 C554 35 556 53 556 80 L556 290 L161 290 L161 80 C161 53 163 35 167 27 C172 19 182 15 197 15 L204 15 L204 0 L161 0 L122 0 L83 0 L40 0 L40 15 L46 15 C62 15 72 19 76 27 C81 35 83 53 83 80 L83 487 C83 515 82 532 77 540 C73 548 62 552 46 552 L40 552 L40 567 L83 567 L122 567 L161 567 L204 567 L204 552 L197 552 C182 552 173 548 168 540 C164 532 161 515 161 487 L161 309 L556 309 L556 487 C556 515 555 532 550 540 C546 548 535 552 519 552 L513 552 L513 567 L556 567 L595 567 L634 567 L677 567 L677 567 Z " />
<glyph glyph-name="I" unicode="I" horiz-adv-x="243" d="M204 567 L204 552 L197 552 C182 552 173 548 168 540 C164 532 161 515 161 487 L161 80 C161 53 163 35 167 27 C172 19 182 15 197 15 L204 15 L204 0 L161 0 L122 0 L83 0 L40 0 L40 15 L46 15 C62 15 72 19 76 27 C81 35 83 53 83 80 L83 487 C83 515 82 532 77 540 C73 548 62 552 46 552 L40 552 L40 567 L83 567 L122 567 L161 567 L204 567 L204 567 Z " />
<glyph glyph-name="J" unicode="J" horiz-adv-x="356" d="M317 567 L317 552 L310 552 C295 552 286 548 281 540 C277 532 274 515 274 487 L274 237 C274 183 273 141 269 108 C265 76 257 51 245 33 C233 16 216 5 194 -1 C172 -7 143 -10 106 -10 C73 -10 48 -5 32 4 C16 14 6 29 0 50 C-5 71 5 81 31 81 C41 81 48 79 53 74 C59 70 63 62 66 50 C70 34 76 23 85 16 C95 10 108 6 125 6 C141 6 153 7 162 11 C172 15 178 23 183 35 C189 47 191 63 193 85 C195 107 196 136 196 172 L196 487 C196 515 195 532 190 540 C186 548 175 552 159 552 L153 552 L153 567 L196 567 L235 567 L274 567 L317 567 L317 567 Z " />
<glyph glyph-name="K" unicode="K" horiz-adv-x="631" d="M442 552 L442 567 L485 567 L499 567 L513 567 L538 567 C539 567 539 565 538 559 C539 555 539 552 538 552 L532 552 C524 552 517 552 510 550 C504 548 496 545 488 540 C480 536 471 530 459 521 C448 513 434 501 417 487 L417 487 L241 340 L368 210 C411 167 445 133 472 106 C500 80 521 59 539 45 C557 31 572 22 583 17 C595 13 606 10 617 10 L622 10 L622 -5 L593 -5 C567 -5 543 -4 523 0 C503 4 483 11 463 23 C443 35 421 51 397 73 C373 95 344 124 308 160 L180 290 L179 289 L166 305 L166 80 C167 53 169 35 173 27 C178 19 188 15 203 15 L209 15 C210 15 210 13 209 8 C210 3 210 0 209 0 L166 0 L128 0 L89 0 L46 0 L46 15 L52 15 C68 15 78 19 82 27 C87 35 89 53 89 80 L89 487 C89 515 88 532 83 540 C79 548 68 552 52 552 L46 552 L46 567 L89 567 L128 567 L166 567 L209 567 C210 567 210 565 209 559 C210 555 210 552 209 552 L203 552 C188 552 179 548 174 540 C170 532 167 515 166 487 L166 305 L226 355 L226 355 L420 514 C439 530 449 539 452 544 C456 550 454 552 446 552 L442 552 L442 552 Z " />
<glyph glyph-name="L" unicode="L" horiz-adv-x="543" d="M468 106 C470 106 472 105 474 104 C479 103 483 102 486 101 C483 85 480 70 476 56 C473 42 470 27 466 10 C466 8 466 7 465 5 C465 4 464 2 464 0 L460 0 L384 0 L161 0 L122 0 L83 0 L40 0 L40 15 L46 15 C62 15 72 19 76 27 C81 35 83 53 83 80 L83 487 C83 515 82 532 77 540 C73 548 62 552 46 552 L40 552 L40 567 L83 567 L122 567 L161 567 L204 567 L204 552 L197 552 C182 552 173 548 168 540 C164 532 161 515 161 487 L161 19 L323 19 C343 19 358 20 371 22 C385 24 395 28 405 33 C415 39 424 45 432 55 C441 65 450 78 460 93 L468 106 L468 106 Z " />
<glyph glyph-name="M" unicode="M" horiz-adv-x="783" d="M747 567 L747 552 L741 552 C728 552 720 549 715 543 C711 537 708 525 708 505 L731 80 L731 80 C733 53 736 35 740 27 C745 19 755 15 771 15 L777 15 L777 0 L735 0 L696 0 L657 0 L614 0 L614 15 L620 15 C635 15 644 19 648 25 C653 32 655 47 654 70 L637 514 L393 -5 L374 -5 L635 567 L662 567 L670 567 L705 567 L747 567 L747 567 Z M59 552 L59 567 L102 567 L114 567 L125 567 L162 567 L408 88 L412 79 L374 -5 L355 31 L121 476 L104 95 L105 95 C105 79 105 65 105 54 C106 44 107 36 111 30 C115 24 121 20 127 18 C134 16 143 15 154 15 L164 15 L164 0 L100 0 L89 0 L77 0 L35 0 L35 15 L41 15 C55 15 64 17 69 23 C75 29 78 42 80 61 L99 508 C99 527 97 539 92 544 C88 550 79 552 65 552 L59 552 L59 552 Z " />
<glyph glyph-name="N" unicode="N" horiz-adv-x="646" d="M501 552 L501 567 L544 567 L556 567 L567 567 L610 567 C611 567 611 565 610 559 C611 555 611 552 610 552 L604 552 C589 552 580 548 575 540 C571 532 568 515 567 487 L567 59 L567 -16 L548 -16 L509 31 L108 502 L108 80 C108 53 110 35 114 27 C119 19 129 15 144 15 L151 15 L151 0 L108 0 L96 0 L84 0 L41 0 L41 15 L48 15 C64 15 73 19 77 27 C82 35 84 53 84 80 L84 487 C84 515 83 532 78 540 C74 548 64 552 48 552 L41 552 L41 567 L84 567 L96 567 L108 567 L154 567 L544 109 L544 487 C544 515 543 532 538 540 C534 548 523 552 507 552 L501 552 L501 552 Z " />
<glyph glyph-name="O" unicode="O" horiz-adv-x="765" d="M385 14 C434 14 473 19 505 31 C537 43 562 61 580 83 C599 106 611 134 618 167 C626 201 629 239 629 283 C629 327 627 365 619 399 C612 433 600 461 581 483 C563 506 538 522 506 534 C474 546 434 552 385 552 C337 552 297 547 265 535 C233 523 209 507 190 484 C172 462 160 434 152 400 C145 366 141 327 141 283 C141 239 144 201 151 167 C159 134 171 106 189 83 C208 61 232 44 264 32 C296 20 337 14 385 14 L385 14 Z M56 283 C56 331 60 372 70 408 C80 444 98 474 122 498 C147 523 181 541 223 553 C266 566 320 572 385 572 C451 572 505 567 547 554 C590 542 623 524 648 499 C674 475 690 444 700 408 C710 372 715 331 715 283 C715 237 711 195 701 159 C691 123 675 94 649 69 C624 45 591 27 548 14 C506 2 451 -5 385 -5 C320 -5 266 1 223 13 C181 26 147 44 122 68 C98 93 81 123 71 159 C61 195 56 237 56 283 L56 283 Z " />
<glyph glyph-name="P" unicode="P" horiz-adv-x="555" d="M46 552 L46 567 L89 567 L128 567 L166 567 L312 567 C353 567 387 565 415 559 C444 553 467 545 485 532 C503 520 516 503 524 483 C532 463 536 439 536 410 C536 382 532 359 522 339 C513 319 498 304 478 291 C458 279 432 270 400 264 C368 258 329 255 283 255 L166 255 L166 80 C167 53 169 35 173 27 C178 19 188 15 203 15 L209 15 C210 15 210 13 209 8 C210 3 210 0 209 0 L166 0 L128 0 L89 0 L46 0 L46 15 L52 15 C68 15 78 19 82 27 C87 35 89 53 89 80 L89 487 C89 515 88 532 83 540 C79 548 68 552 52 552 L46 552 L46 552 Z M166 274 L283 274 C345 274 389 285 415 305 C441 326 454 361 454 410 C454 460 444 496 422 516 C401 537 364 547 312 547 L166 547 L166 274 L166 274 Z " />
<glyph glyph-name="Q" unicode="Q" horiz-adv-x="765" d="M811 54 C787 25 761 4 734 -8 C708 -20 674 -26 634 -26 C616 -26 598 -25 580 -25 C563 -24 546 -24 528 -22 C510 -20 492 -17 472 -15 C453 -12 432 -9 408 -5 L385 -5 C320 -5 266 1 223 13 C181 26 147 44 122 68 C98 93 81 123 71 159 C61 195 56 237 56 283 C56 331 60 372 70 408 C80 444 98 474 122 498 C147 523 181 541 223 553 C266 566 320 572 385 572 C451 572 505 567 547 554 C590 542 623 524 648 499 C674 475 690 444 700 408 C710 372 715 331 715 283 C715 219 707 166 687 122 C668 79 633 47 581 25 L642 25 C690 25 726 28 750 33 C775 39 793 48 803 60 L811 54 L811 54 Z M336 16 C338 19 349 20 371 21 C393 23 430 24 482 24 C511 32 534 43 553 57 C573 72 587 89 598 111 C610 133 618 159 622 187 C627 216 629 248 629 283 C629 327 627 365 619 399 C612 433 600 461 581 483 C563 506 538 522 506 534 C474 546 434 552 385 552 C337 552 297 547 265 535 C233 523 209 507 190 484 C172 462 160 434 152 400 C145 366 141 327 141 283 C141 243 144 208 150 176 C156 145 167 119 181 96 C196 74 215 56 240 42 C266 29 298 20 336 16 L336 16 Z " />
<glyph glyph-name="R" unicode="R" horiz-adv-x="639" d="M46 552 L46 567 L89 567 L128 567 L166 567 L303 567 C381 567 435 556 467 534 C500 512 516 475 516 422 C516 376 504 341 478 317 C453 294 410 279 350 273 L529 91 C551 69 566 53 576 42 C587 32 594 24 600 20 C606 16 611 14 615 14 C619 15 626 15 634 15 L639 15 L639 0 L611 0 C587 0 571 1 559 0 C548 0 537 2 527 7 C517 13 506 22 491 37 C477 53 454 76 423 106 L261 270 L166 270 L166 80 C167 53 169 35 173 27 C178 19 188 15 203 15 L209 15 C210 15 210 13 209 8 C210 3 210 0 209 0 L166 0 L128 0 L89 0 L46 0 L46 15 L52 15 C68 15 78 19 82 27 C87 35 89 53 89 80 L89 487 C89 515 88 532 83 540 C79 548 68 552 52 552 L46 552 L46 552 Z M275 289 C334 289 375 299 399 319 C423 340 435 374 435 422 C435 468 425 501 405 519 C385 538 351 547 303 547 L166 547 L166 289 L242 289 L275 289 L275 289 Z " />
<glyph glyph-name="S" unicode="S" horiz-adv-x="515" d="M311 549 L311 549 C299 551 289 552 278 552 C268 553 257 553 247 553 C194 553 156 545 134 527 C112 509 101 479 101 436 C101 406 115 382 143 363 C172 345 220 328 287 314 C354 300 401 281 429 256 C457 232 471 197 471 153 C471 125 468 100 460 80 C453 60 442 44 425 31 C409 19 388 10 362 4 C336 -2 305 -5 267 -5 C213 -5 168 -4 134 -2 C100 0 70 4 44 8 L46 21 L46 21 L44 8 L38 106 C41 106 43 107 44 107 L51 107 C56 101 61 94 65 86 C83 62 103 44 127 33 C152 23 185 17 226 15 L226 15 C233 15 240 14 246 14 C253 14 260 14 267 14 C321 14 359 22 381 38 C404 54 415 82 415 121 C415 155 401 181 372 201 C344 221 295 239 226 253 C162 267 117 285 89 308 C62 332 48 364 48 405 C48 466 63 509 94 534 C126 560 178 572 250 572 C290 572 324 571 351 569 C379 567 405 564 431 559 L429 546 L429 546 L431 559 L437 461 C435 461 433 461 431 460 L424 460 C421 466 418 470 414 474 C411 479 408 484 404 489 C392 508 379 521 364 530 C350 540 332 546 311 549 L311 549 Z " />
<glyph glyph-name="T" unicode="T" horiz-adv-x="626" d="M395 15 L395 0 L352 0 L313 0 L274 0 L231 0 L231 15 L237 15 C253 15 263 19 267 27 C272 35 274 53 274 80 L274 547 L154 547 C137 547 123 547 111 545 C99 543 89 540 79 534 C69 529 61 522 52 512 C44 502 34 490 22 474 L13 461 L1 461 C4 479 6 495 8 509 C10 524 13 540 15 557 C16 560 16 563 16 567 L40 567 L96 567 L530 567 L586 567 L610 567 C610 563 611 560 611 557 C614 540 616 524 618 509 C620 495 623 479 625 461 L613 461 L604 474 C594 490 584 501 575 511 C567 521 558 529 548 534 C538 540 528 542 516 544 C504 546 490 547 472 547 L352 547 L352 80 C352 53 354 35 358 27 C363 19 373 15 389 15 L395 15 L395 15 Z " />
<glyph glyph-name="U" unicode="U" horiz-adv-x="621" d="M601 567 L601 552 L594 552 C586 552 579 552 573 550 C568 548 565 545 561 539 C558 533 556 526 554 516 C553 506 552 493 552 477 L552 156 C552 127 550 103 544 82 C539 62 529 46 512 32 C496 19 473 10 442 4 C412 -2 371 -5 320 -5 C268 -5 226 -1 194 5 C162 12 139 22 121 37 C104 53 93 71 87 95 C82 119 79 148 79 182 L79 487 C79 515 78 532 73 540 C69 548 58 552 42 552 L36 552 L36 567 L79 567 L118 567 L156 567 L199 567 C200 567 200 565 199 559 C200 555 200 552 199 552 L193 552 C179 552 170 550 165 542 C161 535 158 519 156 495 L157 167 C157 141 159 119 163 100 C167 82 175 67 187 55 C200 44 217 36 240 30 C264 25 294 22 332 22 C375 22 409 24 435 29 C461 35 481 43 495 54 C509 66 518 80 522 98 C527 116 529 138 529 164 L529 477 C529 493 530 505 528 515 C527 525 526 532 522 538 C519 544 514 547 508 549 C502 551 495 552 485 552 L477 552 L477 567 L529 567 L541 567 L552 567 L601 567 L601 567 Z " />
<glyph glyph-name="V" unicode="V" horiz-adv-x="608" d="M603 567 L603 552 L596 552 C583 552 574 550 566 544 C559 539 552 528 544 510 L338 -15 L319 -15 L506 474 C518 508 524 529 520 538 C517 548 505 552 483 552 L473 552 C474 552 474 555 473 559 C474 565 474 567 473 567 L542 567 L554 567 L566 567 L603 567 L603 567 Z M12 552 L12 567 L39 567 L82 567 L125 567 L182 567 C183 567 183 565 182 559 C183 555 183 552 182 552 L175 552 C157 552 147 549 145 541 C144 533 150 515 163 487 L163 487 L355 79 L319 -15 L67 508 C58 527 50 539 43 544 C37 550 28 552 17 552 L12 552 L12 552 Z " />
<glyph glyph-name="W" unicode="W" horiz-adv-x="912" d="M905 567 L905 552 L899 552 C886 552 876 549 868 543 C861 537 854 525 846 505 L666 -15 L647 -15 L448 460 L286 -15 L267 -15 L65 487 L65 487 C60 501 55 512 51 520 C47 529 43 536 39 540 C35 545 31 547 26 549 C22 551 16 552 10 552 L5 552 L5 567 L33 567 L76 567 L119 567 L171 567 L171 552 L164 552 C150 552 142 550 138 544 C134 539 135 528 141 510 L302 88 L468 577 L488 577 L684 94 L822 501 C829 523 830 536 826 542 C822 549 811 552 792 552 L784 552 L784 567 L844 567 L856 567 L868 567 L905 567 L905 567 Z " />
<glyph glyph-name="X" unicode="X" horiz-adv-x="638" d="M453 552 L453 567 L517 567 L532 567 L547 567 L578 567 C579 567 579 565 578 559 C579 555 579 552 578 552 L572 552 C564 552 557 552 551 550 C545 548 540 545 533 540 C527 536 520 530 512 521 C504 513 495 501 483 487 L482 487 L345 317 L528 80 L529 80 C540 66 549 56 556 47 C564 39 570 32 575 27 C581 23 586 20 590 18 C595 16 600 15 606 15 L610 15 L610 0 L590 0 L546 0 L502 0 L444 0 L444 15 L451 15 C468 15 476 18 474 26 C473 34 462 52 440 80 L440 80 L304 257 L172 79 C153 52 143 35 143 27 C143 19 152 15 169 15 L177 15 L177 0 L114 0 L99 0 L85 0 L53 0 L53 15 L59 15 C67 15 73 16 79 17 C85 19 91 21 97 25 C103 30 109 36 116 44 C124 52 132 63 142 75 L292 272 L116 500 C99 522 87 536 78 542 C70 549 60 552 49 552 L44 552 L44 567 L64 567 L108 567 L152 567 L210 567 L210 552 L203 552 C187 552 179 549 180 541 C182 533 193 515 214 487 L214 487 L334 332 L455 487 L454 487 C476 515 487 532 488 540 C490 548 481 552 461 552 L453 552 L453 552 Z " />
<glyph glyph-name="Y" unicode="Y" horiz-adv-x="588" d="M381 15 L381 0 L337 0 L299 0 L260 0 L217 0 L217 15 L223 15 C239 15 249 19 253 27 C258 35 260 53 260 80 L260 231 L95 487 L94 487 C86 501 79 512 72 520 C66 529 61 536 55 540 C50 545 46 547 41 549 C37 551 31 552 25 552 L21 552 L21 567 L43 567 L89 567 L136 567 L188 567 L188 552 L181 552 C166 552 158 549 159 541 C161 533 170 515 187 487 L187 487 L325 269 L471 480 C492 511 502 531 502 539 C503 548 494 552 476 552 L468 552 L468 567 L531 567 L543 567 L555 567 L581 567 L581 552 L576 552 C570 552 564 552 558 550 C553 548 548 545 542 540 C537 536 531 530 524 521 C518 513 509 501 499 487 L499 487 L337 256 L337 80 C338 53 340 35 344 27 C349 19 359 15 374 15 L381 15 L381 15 Z " />
<glyph glyph-name="Z" unicode="Z" horiz-adv-x="588" d="M519 10 C519 8 519 7 518 5 C518 4 517 2 516 0 L513 0 L436 0 L133 0 L90 0 L46 0 L433 547 L236 547 C220 547 205 547 193 545 C181 544 170 542 160 537 C150 533 140 527 130 519 C120 511 109 501 96 489 L85 479 L73 479 C79 493 82 506 86 518 C90 530 95 543 99 557 C101 561 103 565 103 567 L126 567 L183 567 L447 567 L491 567 L535 567 L147 20 L376 20 C396 20 411 20 424 22 C438 24 448 28 458 33 C468 39 477 45 485 55 C493 65 502 78 512 93 L521 106 L524 105 C528 105 532 104 536 103 C537 103 538 103 538 103 C539 103 539 102 539 102 C535 86 533 71 529 57 C526 43 523 28 519 10 L519 10 Z " />
<glyph glyph-name="bracketleft" unicode="&#x5b;" horiz-adv-x="242" d="M128 551 L128 -104 L233 -104 L233 -120 L128 -120 L73 -120 L73 567 L128 567 L233 567 L233 551 L128 551 L128 551 Z " />
<glyph glyph-name="backslash" unicode="&#x5c;" horiz-adv-x="238" d="M214 -32 L-60 617 L-36 617 L239 -32 L214 -32 L214 -32 Z " />
<glyph glyph-name="bracketright" unicode="&#x5d;" horiz-adv-x="234" d="M110 551 L5 551 L5 567 L110 567 L164 567 L164 -120 L110 -120 L5 -120 L5 -104 L110 -104 L110 551 L110 551 Z " />
<glyph glyph-name="underscore" unicode="&#x5f;" horiz-adv-x="468" d="M5 -50 L464 -50 L464 -89 L5 -89 L5 -50 L5 -50 Z " />
<glyph glyph-name="a" unicode="a" horiz-adv-x="497" d="M476 39 L484 30 C477 23 470 18 464 12 C458 7 452 3 444 -1 C436 -4 428 -6 417 -8 C407 -9 394 -10 378 -10 C352 -10 335 -6 327 4 C319 14 315 31 313 54 C291 33 269 19 243 9 C218 0 188 -5 154 -5 C112 -5 81 2 63 16 C45 31 36 55 36 89 C36 125 49 151 75 169 C102 188 147 201 209 209 L313 222 L313 309 C313 351 308 379 296 396 C285 414 265 422 237 422 L51 422 C108 430 151 435 181 437 C212 440 236 441 252 441 C302 441 336 431 356 408 C377 386 387 347 387 293 L387 85 C387 63 388 47 392 37 C396 28 408 23 426 23 C442 23 452 24 458 26 C464 29 470 33 476 39 L476 39 Z M313 205 L209 187 C171 181 145 172 129 160 C113 148 105 131 105 109 C105 85 112 68 124 57 C137 47 159 41 190 41 C244 41 285 51 313 71 L313 77 L313 205 L313 205 Z " />
<glyph glyph-name="b" unicode="b" horiz-adv-x="574" d="M138 386 L138 128 C138 86 148 58 169 40 C191 23 226 14 276 14 C338 14 380 26 406 52 C432 78 445 122 445 183 C445 225 443 260 435 288 C428 317 418 340 402 358 C387 376 367 389 343 397 C319 406 290 410 255 410 C247 410 234 409 216 405 C198 401 172 395 138 386 L138 386 Z M138 398 C170 406 196 413 217 418 C239 424 256 428 270 431 C286 435 299 439 309 441 C347 441 380 438 406 429 C433 421 455 407 471 389 C488 371 499 348 507 319 C515 291 519 256 519 214 C519 174 515 141 506 113 C498 85 484 63 464 45 C444 28 419 15 388 7 C358 -1 320 -5 276 -5 C253 -5 234 -3 216 0 C199 4 184 9 171 16 C164 18 157 20 149 21 C141 23 132 23 122 23 C110 23 101 22 93 18 C86 15 80 9 75 0 L68 0 L68 527 L68 573 C68 581 68 586 66 589 C65 593 63 596 59 598 C56 601 52 603 46 605 C41 608 34 612 24 617 C25 617 25 620 24 625 C25 626 25 626 24 626 L124 656 L138 656 L138 638 L138 546 L138 398 L138 398 Z " />
<glyph glyph-name="c" unicode="c" horiz-adv-x="495" d="M444 53 C420 32 393 17 363 8 C333 0 295 -5 247 -5 C211 -5 182 -2 156 6 C131 14 111 26 95 42 C79 59 69 80 61 106 C54 133 50 165 50 203 C50 247 55 283 64 313 C74 343 88 367 108 386 C128 406 154 420 186 428 C218 437 257 441 303 441 C352 441 386 435 408 420 C430 406 443 381 446 347 C446 336 444 328 439 323 C435 319 427 316 415 316 C404 316 396 318 390 323 C385 329 382 338 380 350 C378 376 370 394 357 405 C345 417 324 422 295 422 C233 422 189 408 163 378 C137 349 124 300 124 230 C124 196 128 167 134 142 C141 118 151 98 165 82 C180 67 199 57 222 49 C246 42 274 38 306 38 C344 38 373 40 393 43 C413 47 428 52 438 60 L444 53 L444 53 Z " />
<glyph glyph-name="d" unicode="d" horiz-adv-x="606" d="M539 39 L539 30 L440 0 L426 0 L426 18 L426 48 C395 39 368 31 346 24 C324 18 307 12 293 7 C277 3 263 -1 253 -5 C217 -5 188 -1 162 6 C137 14 117 24 101 40 C85 56 74 77 66 102 C59 128 55 158 55 194 C55 239 59 277 67 308 C76 340 89 364 107 384 C126 404 149 418 178 427 C208 437 243 441 285 441 C319 441 347 441 370 438 C394 436 412 433 426 429 L426 527 L426 575 C426 582 426 587 424 590 C423 594 422 596 418 598 C415 601 411 604 405 606 C399 609 392 613 383 617 L383 626 L482 656 L496 656 L496 638 L496 546 L496 129 L496 86 C496 78 497 73 498 69 C500 65 501 63 504 60 C508 58 511 55 517 52 C523 50 531 45 539 39 L539 39 Z M426 110 L426 409 C414 413 396 416 372 418 C349 421 319 422 282 422 C254 422 231 419 211 411 C191 404 175 392 163 376 C151 360 143 340 137 314 C131 289 128 258 128 221 C128 155 140 108 165 80 C191 52 233 38 292 38 C318 38 342 40 362 42 C383 45 404 50 426 57 L426 110 L426 110 Z " />
<glyph glyph-name="e" unicode="e" horiz-adv-x="502" d="M451 53 C426 32 398 17 368 8 C338 0 299 -5 251 -5 C215 -5 184 -2 158 6 C133 14 112 26 96 42 C80 59 69 80 61 106 C54 133 50 165 50 203 C50 247 54 283 62 313 C70 343 83 367 101 386 C119 406 142 420 170 428 C199 437 234 441 274 441 C339 441 384 429 411 402 C439 376 452 331 452 267 L386 267 L125 267 C125 261 124 255 124 249 C124 243 124 237 124 230 C124 196 128 167 134 142 C141 118 152 98 166 82 C181 67 199 57 223 49 C247 42 276 38 309 38 C349 38 379 40 399 43 C420 47 435 52 444 60 L451 53 L451 53 Z M386 292 L386 292 L353 291 C365 292 373 294 378 298 C384 303 387 311 387 322 L387 325 C387 361 379 386 361 400 C343 415 313 422 270 422 C224 422 191 412 168 390 C146 368 132 332 126 280 L386 292 L386 292 Z " />
<glyph glyph-name="f" unicode="f" horiz-adv-x="367" d="M208 15 L208 0 L165 0 L130 0 L95 0 L52 0 L52 15 L58 15 C74 15 84 19 88 27 C93 35 95 53 95 80 L95 409 L13 409 L13 436 L95 436 L99 482 C105 546 122 590 151 616 C181 643 227 656 291 656 C327 656 352 653 368 644 C384 636 393 622 395 602 C395 581 385 570 364 570 C343 570 331 581 329 602 C328 616 323 625 314 631 C306 637 292 640 272 640 C234 640 207 628 190 601 C174 575 165 530 165 466 L165 436 L304 436 L304 409 L165 409 L165 80 C165 53 167 35 171 27 C176 19 186 15 201 15 L208 15 L208 15 Z " />
<glyph glyph-name="g" unicode="g" horiz-adv-x="476" d="M477 436 L477 397 L395 398 C414 378 423 346 423 304 C423 254 411 220 383 198 C356 177 310 166 244 166 L187 166 C153 166 130 164 116 160 C102 156 95 150 95 140 C95 131 103 126 117 122 C132 119 157 118 193 120 L276 123 C342 123 387 118 415 108 C443 98 457 81 457 57 C457 36 452 18 442 3 C432 -11 416 -23 393 -33 C371 -42 342 -48 306 -53 C271 -57 228 -60 176 -60 C120 -60 82 -56 58 -48 C35 -39 23 -25 23 -5 C23 5 32 13 48 22 C65 32 93 42 133 53 C103 55 82 61 68 70 C55 80 48 94 48 113 C48 133 55 148 70 158 C86 168 111 175 147 177 C117 186 96 200 83 220 C71 241 64 269 64 304 C64 354 78 388 105 409 C133 431 179 441 244 441 C289 441 325 436 351 426 L351 427 L477 436 L477 436 Z M131 304 C131 260 139 229 156 210 C174 192 203 182 244 182 C286 182 314 191 331 209 C349 228 357 260 357 304 C357 348 350 380 332 398 C315 417 286 426 244 426 C203 426 175 417 157 398 C140 380 131 348 131 304 L131 304 Z M164 53 L164 53 C130 44 107 36 92 28 C78 21 70 13 70 3 C70 -12 78 -23 95 -30 C113 -36 142 -40 184 -40 C265 -40 321 -35 355 -26 C389 -16 406 0 406 22 C406 35 395 44 372 49 C350 55 311 57 257 57 L196 54 C191 54 186 53 180 53 C175 53 170 53 164 53 L164 53 Z " />
<glyph glyph-name="h" unicode="h" horiz-adv-x="567" d="M527 15 L527 0 L484 0 L449 0 L414 0 L371 0 L371 15 L378 15 C394 15 403 19 407 27 C412 35 414 53 414 80 L414 285 C414 305 414 321 411 335 C409 349 404 361 396 369 C388 378 377 384 363 388 C349 392 331 394 307 394 C284 394 261 392 238 388 C216 384 189 378 158 368 L158 80 L158 61 C159 42 161 30 166 24 C172 18 181 15 194 15 L201 15 C201 15 201 13 201 8 C201 3 201 0 201 0 L158 0 L123 0 L88 0 L45 0 L45 15 L51 15 C67 15 77 19 81 27 C86 35 88 53 88 80 L88 527 L88 570 C88 578 88 583 86 587 C85 591 84 594 80 596 C77 599 73 602 67 604 C62 607 55 611 45 617 L45 626 L144 656 L158 656 L158 638 L158 546 L158 376 C195 388 225 398 251 406 C277 414 299 421 315 426 C334 432 349 437 361 441 C388 441 409 439 425 433 C442 428 455 419 463 407 C472 395 478 380 480 361 C483 343 484 320 484 292 L484 80 C484 52 487 35 491 27 C496 19 506 15 521 15 L527 15 L527 15 Z " />
<glyph glyph-name="i" unicode="i" horiz-adv-x="246" d="M45 397 L45 406 L144 436 L158 436 L158 418 L158 326 L158 80 C158 52 161 35 165 27 C170 19 180 15 195 15 L201 15 L201 0 L158 0 L123 0 L88 0 L45 0 L45 15 L51 15 C67 15 77 19 81 27 C86 35 88 53 88 80 L88 307 L88 350 C88 358 88 363 86 367 C85 371 84 374 80 376 C77 379 73 382 67 384 C62 387 55 391 45 397 L45 397 Z M119 506 C103 506 92 509 84 516 C77 524 73 536 73 553 C73 570 76 581 83 588 C91 596 103 599 119 599 C137 599 148 597 155 589 C163 582 166 570 166 553 C166 536 164 525 156 517 C149 510 137 506 119 506 L119 506 Z " />
<glyph glyph-name="j" unicode="j" horiz-adv-x="247" d="M46 397 L46 406 L145 436 L159 436 L159 418 L160 25 C160 29 159 31 155 30 C152 30 145 26 132 19 C120 13 102 2 78 -13 C55 -27 23 -47 -17 -72 L-24 -63 C2 -47 21 -34 36 -25 C52 -15 62 -8 70 -4 C78 1 83 3 85 4 C88 6 89 6 89 5 L89 307 L89 355 C89 362 89 367 87 370 C86 374 85 376 81 378 C78 381 74 384 68 386 C62 389 55 393 46 397 L46 397 Z M120 506 C104 506 93 509 85 516 C78 524 74 536 74 553 C74 570 77 581 84 588 C92 596 104 599 120 599 C138 599 149 597 156 589 C164 582 167 570 167 553 C167 536 165 525 157 517 C150 510 138 506 120 506 L120 506 Z " />
<glyph glyph-name="k" unicode="k" horiz-adv-x="497" d="M523 15 L523 0 L495 0 L451 0 L408 0 L364 0 L364 15 L369 15 C379 15 382 19 376 27 C371 35 354 53 326 80 L170 232 L169 231 L162 240 L162 80 L162 61 C163 42 165 30 170 24 C176 18 185 15 198 15 L205 15 C205 15 205 13 205 8 C205 3 205 0 205 0 L162 0 L127 0 L92 0 L48 0 C49 0 49 3 48 8 C49 13 49 15 48 15 L55 15 C71 15 81 19 85 27 C90 35 92 53 92 80 L92 527 L92 573 C92 581 92 586 90 589 C89 593 87 596 83 598 C80 601 76 603 70 605 C65 608 58 612 48 617 C49 617 49 620 48 625 C49 626 49 626 48 626 L148 656 L162 656 L162 638 L162 546 L162 240 L325 369 C353 391 369 405 375 411 C381 418 380 421 371 421 L367 421 L367 436 L410 436 L426 436 L441 436 L465 436 L465 421 L458 421 C450 421 443 421 436 419 C430 417 423 415 413 410 C404 406 393 399 381 390 C369 382 354 370 335 356 L335 356 L225 273 L423 73 C435 61 446 52 454 44 C463 36 471 31 477 26 C484 22 490 19 496 17 C503 16 510 15 517 15 L523 15 L523 15 Z " />
<glyph glyph-name="l" unicode="l" horiz-adv-x="246" d="M45 617 L45 626 L144 656 L158 656 L158 638 L158 546 L158 80 C158 52 161 35 165 27 C170 19 180 15 195 15 L201 15 L201 0 L158 0 L123 0 L88 0 L45 0 L45 15 L51 15 C67 15 77 19 81 27 C86 35 88 53 88 80 L88 527 L88 570 C88 578 88 583 86 587 C85 591 84 594 80 596 C77 599 73 602 67 604 C62 607 55 611 45 617 L45 617 Z " />
<glyph glyph-name="m" unicode="m" horiz-adv-x="913" d="M718 0 L718 15 L724 15 C740 15 750 19 754 27 C759 35 761 53 761 80 L761 285 C761 325 753 353 734 369 C716 386 686 394 646 394 C620 394 595 393 571 388 C548 384 519 377 485 367 C491 347 494 322 494 292 L494 80 C494 52 497 35 501 27 C506 19 516 15 531 15 L537 15 L537 0 L494 0 L459 0 L424 0 L381 0 L381 15 L388 15 C404 15 413 19 417 27 C422 35 424 53 424 80 L424 285 C424 327 415 356 397 373 C379 391 351 399 312 399 C291 399 269 397 246 392 C224 388 194 380 158 368 L158 338 L158 326 L158 80 L158 61 C159 42 161 30 166 24 C172 18 181 15 194 15 L201 15 C201 15 201 13 201 8 C201 3 201 0 201 0 L158 0 L123 0 L88 0 L45 0 L45 15 L51 15 C67 15 77 19 81 27 C86 35 88 53 88 80 L88 307 L88 338 L88 338 C88 350 88 357 87 362 C87 368 86 371 82 374 C79 378 75 381 69 383 C63 386 55 391 45 397 L45 406 L144 436 L158 436 L158 375 C196 387 228 397 254 405 C281 414 303 421 319 426 C339 432 355 437 367 441 C397 441 421 436 439 426 C458 416 472 400 481 377 C521 389 554 398 582 406 C610 415 633 422 650 426 C671 432 688 437 700 441 C746 441 778 430 799 407 C821 385 831 346 831 292 L831 80 L831 61 C832 42 834 30 839 24 C845 18 854 15 867 15 L874 15 C874 15 874 13 874 7 C874 3 874 0 874 0 L831 0 L796 0 L761 0 L718 0 L718 0 Z " />
<glyph glyph-name="n" unicode="n" horiz-adv-x="567" d="M527 15 L527 0 L484 0 L449 0 L414 0 L371 0 L371 15 L378 15 C394 15 403 19 407 27 C412 35 414 53 414 80 L414 285 C414 305 414 321 411 335 C409 349 404 361 396 369 C388 378 377 384 363 388 C349 392 331 394 307 394 C284 394 261 392 238 388 C216 384 189 378 158 368 L158 338 L158 326 L158 80 L158 61 C159 42 161 30 166 24 C172 18 181 15 194 15 L201 15 C201 15 201 13 201 8 C201 3 201 0 201 0 L158 0 L123 0 L88 0 L45 0 L45 15 L51 15 C67 15 77 19 81 27 C86 35 88 53 88 80 L88 307 L88 338 L88 338 C88 350 88 357 87 362 C87 368 86 371 82 374 C79 378 75 381 69 383 C63 386 55 391 45 397 L45 406 L144 436 L158 436 L158 376 C195 388 225 398 251 406 C277 414 299 421 315 426 C334 432 349 437 361 441 C388 441 409 439 425 433 C442 428 455 419 463 407 C472 395 478 380 480 361 C483 343 484 320 484 292 L484 80 C484 52 487 35 491 27 C496 19 506 15 521 15 L527 15 L527 15 Z " />
<glyph glyph-name="o" unicode="o" horiz-adv-x="600" d="M300 11 C332 11 358 14 380 22 C402 30 419 42 433 58 C447 75 457 96 463 122 C470 149 473 181 473 218 C473 256 471 288 464 314 C458 341 448 362 434 378 C420 395 402 406 380 414 C358 422 332 426 300 426 C269 426 243 423 221 415 C199 407 182 396 168 379 C154 363 145 342 138 315 C132 289 128 256 128 218 C128 181 131 150 137 123 C144 97 153 76 167 59 C181 43 198 31 220 23 C242 15 269 11 300 11 L300 11 Z M50 218 C50 259 54 293 63 321 C73 350 87 372 107 390 C127 408 152 421 184 429 C216 437 255 441 300 441 C346 441 383 437 415 429 C447 421 473 409 493 391 C513 373 527 351 536 322 C546 294 550 259 550 218 C550 178 547 144 537 115 C528 87 513 64 493 46 C473 28 448 15 416 7 C384 -1 346 -5 300 -5 C255 -5 217 -1 185 7 C153 15 127 27 107 45 C87 63 74 86 64 114 C55 143 50 178 50 218 L50 218 Z " />
<glyph glyph-name="p" unicode="p" horiz-adv-x="611" d="M45 397 L45 406 L134 436 L148 436 L154 375 C190 387 221 397 246 405 C272 414 292 421 308 426 C326 432 341 437 353 441 C391 441 421 438 447 430 C473 422 494 411 510 393 C527 376 539 355 546 327 C554 300 557 267 557 228 C557 186 553 151 543 121 C534 91 520 67 499 48 C479 30 453 17 420 8 C388 0 348 -5 302 -5 C270 -5 243 -3 219 0 C196 4 176 9 158 16 L158 11 C159 -8 161 -20 166 -26 C172 -32 181 -35 194 -35 L201 -35 C201 -35 201 -37 201 -42 C201 -47 201 -50 201 -50 L158 -50 L123 -50 L88 -50 L45 -50 L45 -35 L51 -35 C67 -35 77 -31 81 -23 C86 -15 88 3 88 30 L88 307 L88 338 L88 338 C88 350 88 357 87 362 C87 368 86 371 82 374 C79 378 75 381 69 383 C63 386 55 391 45 397 L45 397 Z M155 364 L157 338 L158 338 L158 326 L158 99 C190 68 216 46 238 33 C260 21 282 14 302 14 C370 14 417 26 445 50 C474 75 488 116 488 173 C488 213 486 247 478 275 C471 303 461 325 445 343 C430 361 410 374 386 382 C362 390 333 394 299 394 C281 394 261 392 239 387 C217 383 189 375 155 364 L155 364 Z " />
<glyph glyph-name="q" unicode="q" horiz-adv-x="588" d="M543 -35 L543 -50 L500 -50 L465 -50 L430 -50 L387 -50 L387 -35 L394 -35 C410 -35 419 -31 423 -23 C428 -15 430 3 430 30 L430 60 C398 48 370 38 347 30 C325 22 306 16 292 10 C276 4 262 -1 251 -5 C217 -5 188 -1 163 6 C139 14 120 24 104 40 C89 56 79 77 71 102 C64 128 60 158 60 194 C60 239 64 277 72 308 C81 340 94 364 112 384 C131 404 154 418 183 427 C213 437 248 441 290 441 C311 441 327 441 341 438 C355 436 368 433 379 430 C369 434 356 436 341 438 C327 440 310 441 290 441 C338 441 373 436 397 426 C405 425 411 425 419 423 C427 422 436 421 445 421 C469 421 484 426 491 435 C492 436 492 436 492 436 L500 436 L500 30 C500 2 503 -15 507 -23 C512 -31 522 -35 537 -35 L543 -35 L543 -35 Z M430 69 L430 354 C430 379 421 396 399 406 C378 417 342 422 290 422 C262 422 238 419 218 411 C198 404 182 392 169 376 C157 360 148 340 142 314 C136 289 133 258 133 221 C133 155 144 108 168 80 C192 52 233 38 289 38 C308 38 327 41 349 45 C371 50 398 58 430 69 L430 69 Z " />
<glyph glyph-name="r" unicode="r" horiz-adv-x="395" d="M45 397 L45 406 L134 436 L148 436 L154 375 C181 387 204 397 222 405 C241 414 256 421 267 426 C281 432 293 437 301 441 C320 441 334 441 345 439 C357 437 365 435 371 431 C377 427 381 422 383 416 C385 410 386 403 386 394 C386 382 385 375 379 369 C374 364 365 361 352 361 C342 361 333 362 324 365 C316 369 307 372 299 375 C291 379 283 381 274 384 C266 388 256 389 246 389 C232 389 218 388 204 384 C190 380 174 374 154 366 L157 338 L158 338 L158 326 L158 80 L158 61 C159 42 161 30 166 24 C172 18 181 15 194 15 L201 15 C201 15 201 13 201 8 C201 3 201 0 201 0 L158 0 L123 0 L88 0 L45 0 L45 15 L51 15 C67 15 77 19 81 27 C86 35 88 53 88 80 L88 307 L88 338 L88 338 C88 350 88 357 87 362 C87 368 86 371 82 374 C79 378 75 381 69 383 C63 386 55 391 45 397 L45 397 Z " />
<glyph glyph-name="s" unicode="s" horiz-adv-x="429" d="M44 60 L55 60 L67 48 C80 35 95 26 113 20 C131 14 156 11 186 11 L217 11 C255 11 282 18 298 31 C314 45 322 67 322 99 C322 120 315 137 297 151 C280 166 250 180 208 193 C155 211 117 229 95 249 C73 269 62 294 62 324 C62 367 74 396 98 414 C123 432 165 441 223 441 C263 441 293 441 314 441 C336 442 349 443 355 443 L355 445 L355 443 L355 443 L359 377 L347 377 C346 379 345 380 343 382 C342 384 341 386 339 388 C331 401 322 409 310 415 C299 421 284 425 266 426 L223 426 C185 426 158 420 141 408 C125 396 116 376 116 348 C116 327 127 308 148 292 C170 276 206 260 257 243 C302 228 334 212 352 194 C371 176 380 153 380 125 C380 79 368 45 342 25 C317 5 274 -5 213 -5 C127 -5 72 -6 50 -8 L51 -1 L51 -1 L50 -8 L49 -8 L44 60 L44 60 Z M50 -8 L49 -14 L50 -8 L50 -8 L50 -8 Z M49 -8 C34 -8 34 -10 49 -14 L49 -8 L49 -8 Z M355 445 L355 443 C361 443 361 444 355 445 L355 445 Z " />
<glyph glyph-name="t" unicode="t" horiz-adv-x="357" d="M326 436 L326 409 L171 409 L171 91 C171 76 171 64 172 55 C174 47 176 41 180 36 C184 32 190 30 198 28 C206 27 217 26 231 26 C249 26 262 27 273 27 C285 28 293 29 300 31 C308 33 314 35 318 38 C323 42 328 45 332 49 L337 44 C327 36 317 29 308 22 C300 16 290 10 280 6 C270 2 259 0 245 -2 C232 -4 216 -5 196 -5 C174 -5 156 -5 143 -3 C131 -1 122 3 115 10 C109 18 105 29 103 43 C102 58 101 78 101 103 L101 409 L25 409 L25 417 C53 421 76 430 94 446 C113 463 130 489 144 523 L159 564 L171 564 L171 436 L326 436 L326 436 Z M149 537 C150 538 150 539 150 539 L149 537 L149 537 Z " />
<glyph glyph-name="u" unicode="u" horiz-adv-x="545" d="M497 39 L497 30 L398 0 L384 0 L384 18 L384 60 C352 48 325 38 303 30 C281 22 263 16 248 10 C232 4 219 -1 208 -5 C178 -5 154 -3 134 3 C115 9 100 18 88 31 C77 45 70 61 65 81 C61 102 58 127 58 155 L58 356 C58 384 57 401 52 409 C48 417 37 421 21 421 L15 421 L15 436 L58 436 L93 436 L128 436 L127 162 C127 140 129 122 133 106 C137 91 144 79 154 69 C164 59 177 53 195 48 C213 44 236 41 263 41 C283 41 302 43 318 47 C335 51 357 58 384 68 L384 110 L384 356 C384 384 383 401 378 409 C374 417 364 421 348 421 L341 421 L341 436 L384 436 L419 436 L454 436 L454 129 L454 86 C454 78 455 73 456 69 C458 65 459 63 462 60 C466 58 469 55 475 52 C481 50 489 45 497 39 L497 39 Z " />
<glyph glyph-name="v" unicode="v" horiz-adv-x="527" d="M491 436 L491 421 L485 421 C471 421 461 419 453 413 C446 407 437 395 427 375 L251 -10 L240 -10 L68 363 C62 376 57 385 52 393 C48 401 44 407 39 411 C35 415 30 418 24 419 C19 421 12 421 4 421 L-2 421 L-2 436 L34 436 L74 436 L114 436 L157 436 L157 421 L152 421 C139 421 132 418 131 410 C131 402 137 384 149 356 L149 356 L273 67 L398 356 L397 356 C409 384 416 401 415 409 C415 417 408 421 394 421 L389 421 C389 421 389 424 389 429 C389 434 389 436 389 436 L432 436 L443 436 L455 436 L491 436 L491 436 Z " />
<glyph glyph-name="w" unicode="w" horiz-adv-x="809" d="M765 436 L765 421 L755 421 C751 421 748 422 745 422 C743 423 741 423 738 422 C736 422 734 421 731 417 C729 414 725 409 721 402 L533 -10 L522 -10 L386 286 L251 -10 L240 -10 L60 379 C54 393 49 402 45 408 C41 414 38 418 35 420 C33 422 30 423 27 422 C25 422 21 421 16 421 L6 421 L6 436 L34 436 L114 436 L164 436 L164 421 L154 421 C148 421 144 422 139 422 C135 423 131 423 129 421 C127 420 127 418 127 413 C128 409 130 401 134 391 L144 365 C148 361 151 355 153 347 L152 347 L274 66 L378 302 L341 381 C335 394 331 402 327 408 C324 414 321 418 318 420 C316 422 314 423 311 422 C309 422 305 421 301 421 L291 421 L291 436 L316 436 L396 436 L451 436 L451 421 L440 421 C434 421 429 421 423 421 C418 422 414 422 412 420 C410 419 410 417 410 411 C411 406 414 398 418 386 L426 366 C428 364 428 361 430 357 C432 354 434 351 435 347 L434 347 L555 67 L669 332 L669 332 C681 359 688 379 692 391 C697 404 700 412 698 416 C697 421 693 423 687 422 C681 422 674 421 664 421 L653 421 L653 436 L714 436 L737 436 L765 436 L765 436 Z " />
<glyph glyph-name="x" unicode="x" horiz-adv-x="530" d="M459 436 L459 421 L452 421 C439 421 428 420 418 414 C409 409 396 398 380 380 L272 256 L418 75 C429 63 437 52 444 44 C452 36 458 31 463 26 C469 22 473 19 477 17 C482 16 487 15 491 15 L496 15 L496 0 L479 0 L436 0 L393 0 L350 0 L350 15 L355 15 C365 15 370 17 369 22 C369 28 362 38 350 54 L228 203 L134 80 L134 80 C113 52 103 35 102 27 C102 19 112 15 133 15 L141 15 L141 0 L72 0 L61 0 L49 0 L12 0 L12 15 L19 15 C28 15 36 16 42 17 C49 19 55 21 61 25 C68 30 74 35 81 43 C89 51 97 62 107 74 L218 216 L95 368 C86 380 78 388 71 395 C65 403 59 407 53 411 C48 415 43 418 38 419 C34 421 29 421 23 421 L17 421 L17 436 L40 436 L82 436 L125 436 L177 436 L177 421 L171 421 C157 421 150 418 152 410 C155 402 168 384 190 356 L190 356 L263 265 L348 368 C366 391 376 405 376 411 C377 418 370 421 354 421 L348 421 C348 421 348 424 348 429 C348 434 348 436 348 436 L405 436 L417 436 L429 436 L459 436 L459 436 Z " />
<glyph glyph-name="y" unicode="y" horiz-adv-x="566" d="M530 436 L530 421 L524 421 C510 421 500 419 492 413 C485 407 476 395 466 375 L290 -10 L262 -71 C264 -67 265 -63 263 -61 C261 -58 256 -56 248 -55 L275 0 L107 363 C101 376 96 385 91 393 C87 401 83 407 78 411 C74 415 69 418 63 419 C58 421 51 421 43 421 L37 421 L37 436 L73 436 L113 436 L153 436 L196 436 L196 421 L191 421 C178 421 171 418 170 410 C170 402 176 384 188 356 L188 356 L312 67 L437 356 L436 356 C448 384 455 401 454 409 C454 417 447 421 433 421 L428 421 C428 421 428 424 428 429 C428 434 428 436 428 436 L471 436 L482 436 L494 436 L530 436 L530 436 Z M262 -71 L262 -72 L262 -71 L262 -71 Z M248 -55 L248 -55 C247 -56 247 -58 246 -60 C246 -62 245 -64 243 -66 L248 -55 L248 -55 Z M248 -55 L248 -55 C238 -53 222 -51 200 -51 C178 -50 147 -50 107 -50 C84 -50 67 -47 57 -41 C47 -35 42 -24 42 -9 C42 2 45 9 50 13 C56 18 65 20 78 20 C86 20 91 20 97 17 C103 15 109 13 114 9 C120 6 124 3 130 0 C136 -2 143 -4 150 -4 C175 -4 194 -4 209 -6 C225 -7 235 -9 242 -13 C250 -16 254 -20 254 -28 C255 -35 253 -44 248 -55 L248 -55 Z " />
<glyph glyph-name="z" unicode="z" horiz-adv-x="463" d="M401 102 C403 102 405 101 407 100 C412 100 416 99 419 98 C416 82 413 67 409 53 C406 40 403 25 399 8 C399 6 398 4 398 0 L393 0 L318 0 L107 0 L66 0 L24 0 L322 420 L174 420 C158 420 143 421 131 419 C119 418 109 417 99 413 C89 410 81 405 71 399 C62 393 51 386 39 376 L29 368 L17 368 C21 380 24 390 27 398 C31 407 34 417 37 428 C38 430 38 431 38 432 C39 434 40 435 40 436 L63 436 L120 436 L333 436 L373 436 L414 436 L118 16 L256 16 C276 16 291 16 304 18 C318 20 328 24 338 29 C348 35 357 41 365 51 C374 61 383 74 393 89 L401 102 L401 102 Z " />
<glyph glyph-name="braceleft" unicode="&#x7b;" horiz-adv-x="249" d="M235 -26 L195 -26 C147 -26 112 -17 92 3 C72 23 62 57 62 105 L62 251 C62 257 58 260 50 262 C42 264 29 265 10 265 L5 265 L5 276 L10 276 C29 276 42 282 50 296 C58 310 62 334 62 367 L62 436 C62 484 72 517 92 537 C112 557 147 567 195 567 L235 567 L235 555 L210 555 C176 555 153 546 138 528 C124 510 116 480 116 436 L116 406 C116 363 112 332 101 310 C91 289 74 276 50 271 C74 269 90 265 100 255 C111 246 116 232 116 213 L116 105 C116 62 123 31 137 13 C152 -5 176 -14 210 -14 L235 -14 L235 -26 L235 -26 Z " />
<glyph glyph-name="bar" unicode="&#x7c;" horiz-adv-x="174" d="M60 706 L114 706 L114 -90 L60 -90 L60 706 L60 706 Z " />
<glyph glyph-name="braceright" unicode="&#x7d;" horiz-adv-x="249" d="M5 567 L45 567 C93 567 127 558 147 538 C168 518 178 484 178 436 L178 289 C178 285 181 281 189 279 C197 277 211 276 230 276 L235 276 L235 265 L230 265 C211 265 198 259 190 245 C182 231 178 208 178 174 L178 105 C178 57 169 24 148 4 C128 -16 93 -26 45 -26 L5 -26 L5 -14 L29 -14 C64 -14 88 -5 102 13 C117 31 124 62 124 105 L124 135 C124 179 129 210 139 231 C150 253 167 266 190 270 C167 272 151 277 140 286 C130 296 124 310 124 328 L124 436 C124 480 118 510 103 528 C89 546 64 555 29 555 L5 555 L5 567 L5 567 Z " />
<glyph glyph-name="nbspace" unicode="&#xa0;" horiz-adv-x="226" d="" />
<glyph glyph-name="exclamdown" unicode="&#xa1;" horiz-adv-x="208" d="M98 441 C117 441 129 438 137 430 C145 422 149 409 149 391 C149 373 146 360 138 352 C130 344 117 340 98 340 C80 340 68 343 60 351 C52 359 48 373 48 391 C48 409 51 421 59 429 C67 437 80 441 98 441 L98 441 Z M60 -84 L93 265 L103 265 L146 -84 C148 -103 146 -116 139 -124 C133 -132 121 -136 103 -136 C86 -136 74 -133 67 -125 C61 -117 58 -103 60 -84 L60 -84 Z " />
<glyph glyph-name="cent" unicode="&#xa2;" horiz-adv-x="495" d="M276 511 L300 511 L300 441 L303 441 C352 441 386 435 408 420 C430 406 443 381 446 347 C446 336 444 328 439 323 C435 319 427 316 415 316 C404 316 396 318 390 323 C385 329 382 338 380 350 C378 376 370 393 358 404 C346 416 327 422 300 422 L300 38 L306 38 C344 38 373 40 393 43 C413 47 428 52 438 60 L444 53 C425 37 405 24 382 15 C360 7 332 1 300 -3 L300 -75 L276 -75 L276 -4 C272 -4 267 -5 262 -5 C258 -5 253 -5 247 -5 C211 -5 182 -2 156 6 C131 14 111 26 95 42 C79 59 69 80 61 106 C54 133 50 165 50 203 C50 244 54 279 62 308 C71 338 84 361 102 380 C120 400 144 413 172 423 C201 433 236 439 276 440 L276 511 L276 511 Z M276 39 L276 422 C222 420 183 404 159 374 C136 344 124 296 124 230 C124 166 136 120 159 90 C183 60 222 43 276 39 L276 39 Z " />
<glyph glyph-name="guillemotleft" unicode="&#xab;" horiz-adv-x="468" d="M265 218 L424 43 L416 35 L190 214 L190 222 L414 401 L422 393 L265 218 L265 218 Z M95 218 L254 43 L246 35 L20 214 L20 222 L244 401 L252 393 L95 218 L95 218 Z " />
<glyph glyph-name="guillemotright" unicode="&#xbb;" horiz-adv-x="468" d="M204 218 L47 393 L55 401 L279 222 L279 214 L53 35 L45 43 L204 218 L204 218 Z M374 218 L217 393 L225 401 L449 222 L449 214 L223 35 L215 43 L374 218 L374 218 Z " />
<glyph glyph-name="questiondown" unicode="&#xbf;" horiz-adv-x="374" d="M233 441 C251 441 263 438 271 430 C279 422 284 409 284 391 C284 373 280 360 272 352 C264 344 251 340 233 340 C215 340 202 343 194 351 C186 359 182 373 182 391 C182 409 185 421 193 429 C201 437 215 441 233 441 L233 441 Z M241 116 L206 116 C167 116 138 115 116 111 C95 107 80 103 70 97 C60 91 55 86 53 78 C52 71 51 64 51 58 C51 8 64 -27 91 -49 C119 -70 164 -81 228 -81 C236 -81 243 -79 248 -76 C254 -72 258 -69 263 -65 C269 -60 273 -57 279 -53 C285 -49 292 -47 300 -47 C314 -47 322 -49 327 -53 C333 -56 335 -62 335 -72 C335 -95 329 -111 316 -121 C304 -131 282 -136 250 -136 C212 -136 179 -132 151 -125 C124 -117 102 -106 84 -90 C67 -74 55 -54 47 -28 C39 -2 35 30 35 66 C35 78 36 89 37 101 C39 114 43 125 52 135 C62 145 76 154 96 160 C116 167 145 170 182 170 L217 170 L228 271 L238 271 L253 127 C254 120 250 116 241 116 L241 116 Z " />
<glyph glyph-name="Agrave" unicode="&#xc0;" horiz-adv-x="612" d="M603 15 L603 0 L569 0 L526 0 L484 0 L427 0 L427 15 L435 15 C453 15 462 18 464 26 C466 34 461 52 448 80 L448 80 L395 201 L149 201 L107 95 C101 79 97 65 93 54 C90 44 88 36 89 30 C91 24 93 20 99 18 C105 16 114 15 124 15 L132 15 L132 0 L69 0 L56 0 L43 0 L6 0 L6 15 L13 15 C27 15 38 18 45 24 C53 30 61 43 69 62 L282 580 L301 580 L533 77 C539 65 544 55 549 46 C555 38 559 32 563 27 C568 23 573 20 578 18 C584 16 590 15 597 15 L603 15 L603 15 Z M285 753 L372 603 L364 597 L249 725 C235 741 224 752 218 760 C212 768 209 774 209 777 C209 783 213 788 223 795 C233 803 242 806 249 806 C252 806 255 802 260 794 C266 786 274 773 285 753 L285 753 Z M386 220 L265 491 L157 221 L386 220 L386 220 Z " />
<glyph glyph-name="Aacute" unicode="&#xc1;" horiz-adv-x="612" d="M230 597 L222 603 L306 753 C318 773 326 786 331 794 C337 802 340 806 341 806 C349 806 356 804 366 796 C376 789 381 783 381 777 C381 775 378 770 372 762 C366 754 356 742 342 725 L230 597 L230 597 Z M603 15 L603 0 L569 0 L526 0 L484 0 L427 0 L427 15 L435 15 C453 15 462 18 464 26 C466 34 461 52 448 80 L448 80 L395 201 L149 201 L107 95 C101 79 97 65 93 54 C90 44 88 36 89 30 C91 24 93 20 99 18 C105 16 114 15 124 15 L132 15 L132 0 L69 0 L56 0 L43 0 L6 0 L6 15 L13 15 C27 15 38 18 45 24 C53 30 61 43 69 62 L282 580 L301 580 L533 77 C539 65 544 55 549 46 C555 38 559 32 563 27 C568 23 573 20 578 18 C584 16 590 15 597 15 L603 15 L603 15 Z M386 220 L265 491 L157 221 L386 220 L386 220 Z " />
<glyph glyph-name="Acircumflex" unicode="&#xc2;" horiz-adv-x="612" d="M603 15 L603 0 L569 0 L526 0 L484 0 L427 0 L427 15 L435 15 C453 15 462 18 464 26 C466 34 461 52 448 80 L448 80 L395 201 L149 201 L107 95 C101 79 97 65 93 54 C90 44 88 36 89 30 C91 24 93 20 99 18 C105 16 114 15 124 15 L132 15 L132 0 L69 0 L56 0 L43 0 L6 0 L6 15 L13 15 C27 15 38 18 45 24 C53 30 61 43 69 62 L282 580 L301 580 L533 77 C539 65 544 55 549 46 C555 38 559 32 563 27 C568 23 573 20 578 18 C584 16 590 15 597 15 L603 15 L603 15 Z M292 742 L178 600 L171 606 L269 792 C271 796 273 799 276 804 C280 810 285 812 291 812 C298 812 303 811 306 805 C310 800 312 796 314 792 L412 606 L405 600 L292 742 L292 742 Z M386 220 L265 491 L157 221 L386 220 L386 220 Z " />
<glyph glyph-name="Atilde" unicode="&#xc3;" horiz-adv-x="612" d="M146 662 L134 662 C134 702 139 731 150 747 C162 764 180 772 206 772 C225 772 241 769 255 762 C270 756 284 749 297 741 C311 733 324 726 338 719 C353 713 370 709 388 709 C406 709 419 714 426 723 C434 733 437 748 437 769 L448 769 C448 731 443 703 431 687 C420 671 401 663 373 663 C355 663 339 666 324 672 C310 679 296 686 282 694 C269 702 256 709 241 715 C227 722 210 725 191 725 C175 725 163 721 156 711 C150 702 146 686 146 662 L146 662 Z M603 15 L603 0 L569 0 L526 0 L484 0 L427 0 L427 15 L435 15 C453 15 462 18 464 26 C466 34 461 52 448 80 L448 80 L395 201 L149 201 L107 95 C101 79 97 65 93 54 C90 44 88 36 89 30 C91 24 93 20 99 18 C105 16 114 15 124 15 L132 15 L132 0 L69 0 L56 0 L43 0 L6 0 L6 15 L13 15 C27 15 38 18 45 24 C53 30 61 43 69 62 L282 580 L301 580 L533 77 C539 65 544 55 549 46 C555 38 559 32 563 27 C568 23 573 20 578 18 C584 16 590 15 597 15 L603 15 L603 15 Z M386 220 L265 491 L157 221 L386 220 L386 220 Z " />
<glyph glyph-name="Adieresis" unicode="&#xc4;" horiz-adv-x="612" d="M384 637 C369 637 358 641 351 647 C345 654 341 665 341 680 C341 696 345 706 351 712 C358 719 369 722 384 722 C400 722 411 720 417 713 C424 707 427 696 427 680 C427 665 424 654 417 647 C411 641 400 637 384 637 L384 637 Z M199 637 C184 637 173 641 166 647 C160 654 156 665 156 680 C156 696 160 706 166 712 C173 719 184 722 199 722 C215 722 225 720 231 713 C238 707 241 696 241 680 C241 665 239 654 232 647 C226 641 215 637 199 637 L199 637 Z M603 15 L603 0 L569 0 L526 0 L484 0 L427 0 L427 15 L435 15 C453 15 462 18 464 26 C466 34 461 52 448 80 L448 80 L395 201 L149 201 L107 95 C101 79 97 65 93 54 C90 44 88 36 89 30 C91 24 93 20 99 18 C105 16 114 15 124 15 L132 15 L132 0 L69 0 L56 0 L43 0 L6 0 L6 15 L13 15 C27 15 38 18 45 24 C53 30 61 43 69 62 L282 580 L301 580 L533 77 C539 65 544 55 549 46 C555 38 559 32 563 27 C568 23 573 20 578 18 C584 16 590 15 597 15 L603 15 L603 15 Z M386 220 L265 491 L157 221 L386 220 L386 220 Z " />
<glyph glyph-name="Aring" unicode="&#xc5;" horiz-adv-x="612" d="M291 617 C342 617 367 643 367 694 C367 722 362 741 350 753 C339 765 319 771 291 771 C264 771 245 766 233 754 C222 742 216 722 216 694 C216 643 241 617 291 617 L291 617 Z M197 694 C197 728 204 752 218 766 C233 780 257 787 291 787 C326 787 350 780 364 766 C379 752 386 728 386 694 C386 633 355 602 291 602 C229 602 197 633 197 694 L197 694 Z M603 15 L603 0 L569 0 L526 0 L484 0 L427 0 L427 15 L435 15 C453 15 462 18 464 26 C466 34 461 52 448 80 L448 80 L395 201 L149 201 L107 95 C101 79 97 65 93 54 C90 44 88 36 89 30 C91 24 93 20 99 18 C105 16 114 15 124 15 L132 15 L132 0 L69 0 L56 0 L43 0 L6 0 L6 15 L13 15 C27 15 38 18 45 24 C53 30 61 43 69 62 L282 580 L301 580 L533 77 C539 65 544 55 549 46 C555 38 559 32 563 27 C568 23 573 20 578 18 C584 16 590 15 597 15 L603 15 L603 15 Z M386 220 L265 491 L157 221 L386 220 L386 220 Z " />
<glyph glyph-name="Ccedilla" unicode="&#xc7;" horiz-adv-x="717" d="M442 15 L442 15 C496 16 536 21 566 31 C596 41 620 58 636 82 C639 86 641 89 643 92 C645 96 648 99 650 102 L657 102 C659 102 661 101 663 101 L657 9 L656 19 L656 19 L657 9 C643 7 627 5 610 3 C594 1 575 1 554 -1 C534 -2 511 -3 485 -4 C459 -4 430 -5 398 -5 C336 -5 284 0 240 10 C197 21 162 37 134 60 C107 84 88 114 75 150 C63 187 56 231 56 283 C56 336 62 381 74 417 C87 454 107 483 134 506 C162 530 197 546 240 556 C284 567 336 572 398 572 C430 572 458 572 484 571 C510 571 534 571 554 569 C575 568 594 566 610 564 C627 562 643 560 657 557 L656 547 L656 547 L657 557 L663 466 C661 466 659 466 657 465 L650 465 C648 469 645 472 643 475 C641 479 639 482 636 485 C620 509 601 525 578 535 C556 545 525 551 487 551 L487 551 C474 552 460 552 445 552 C431 552 415 552 398 552 C352 552 313 548 280 538 C248 528 221 513 200 491 C180 469 165 441 155 407 C146 373 141 332 141 283 C141 235 146 193 155 159 C165 125 180 98 200 76 C221 54 247 39 279 29 C312 19 352 14 398 14 L442 14 L442 15 L442 15 Z " />
<glyph glyph-name="Egrave" unicode="&#xc8;" horiz-adv-x="543" d="M383 355 L395 355 L395 312 L395 302 L395 293 L395 244 L383 244 C379 254 375 263 370 269 C366 276 360 281 352 284 C344 288 334 290 322 291 C310 293 295 293 275 293 L161 293 L161 19 L313 19 C335 19 352 19 366 21 C381 23 394 27 404 31 C415 36 425 43 434 51 C444 60 454 71 465 85 L474 97 L485 97 C482 81 480 67 476 53 C473 40 470 26 466 10 C466 8 466 7 465 5 C465 4 464 2 464 0 L460 0 L384 0 L161 0 L122 0 L83 0 L40 0 L40 15 L46 15 C62 15 72 19 76 27 C81 35 83 53 83 80 L83 487 C83 515 82 532 77 540 C73 548 62 552 46 552 L40 552 L40 567 L83 567 L122 567 L161 567 L382 567 L450 567 L462 567 C462 563 463 560 463 557 C464 542 465 528 465 514 C466 501 467 486 468 470 L457 470 L450 482 C442 496 433 507 425 515 C417 524 409 531 398 535 C388 540 375 542 361 544 C347 546 330 547 308 547 L161 547 L161 312 L275 312 C295 312 310 312 322 313 C334 315 344 317 351 320 C359 324 365 327 369 333 C374 339 379 347 383 355 L383 355 Z M245 753 L332 603 L324 597 L209 725 C195 741 185 752 178 760 C172 768 168 774 168 777 C168 780 169 783 172 786 C176 790 179 792 183 795 C187 799 192 801 196 803 C201 805 205 806 208 806 C212 806 215 802 220 794 C226 786 234 773 245 753 L245 753 Z " />
<glyph glyph-name="Eacute" unicode="&#xc9;" horiz-adv-x="543" d="M235 597 L228 603 L312 753 C324 773 331 786 336 794 C342 802 345 806 347 806 C351 806 355 805 359 803 C364 801 368 800 372 796 C376 793 379 790 382 786 C386 783 387 780 387 777 C387 775 384 770 378 762 C372 754 362 742 347 725 L235 597 L235 597 Z M383 355 L395 355 L395 312 L395 302 L395 293 L395 244 L383 244 C379 254 375 263 370 269 C366 276 360 281 352 284 C344 288 334 290 322 291 C310 293 295 293 275 293 L161 293 L161 19 L313 19 C335 19 352 19 366 21 C381 23 394 27 404 31 C415 36 425 43 434 51 C444 60 454 71 465 85 L474 97 L485 97 C482 81 480 67 476 53 C473 40 470 26 466 10 C466 8 466 7 465 5 C465 4 464 2 464 0 L460 0 L384 0 L161 0 L122 0 L83 0 L40 0 L40 15 L46 15 C62 15 72 19 76 27 C81 35 83 53 83 80 L83 487 C83 515 82 532 77 540 C73 548 62 552 46 552 L40 552 L40 567 L83 567 L122 567 L161 567 L382 567 L450 567 L462 567 C462 563 463 560 463 557 C464 542 465 528 465 514 C466 501 467 486 468 470 L457 470 L450 482 C442 496 433 507 425 515 C417 524 409 531 398 535 C388 540 375 542 361 544 C347 546 330 547 308 547 L161 547 L161 312 L275 312 C295 312 310 312 322 313 C334 315 344 317 351 320 C359 324 365 327 369 333 C374 339 379 347 383 355 L383 355 Z " />
<glyph glyph-name="Ecircumflex" unicode="&#xca;" horiz-adv-x="543" d="M383 355 L395 355 L395 312 L395 302 L395 293 L395 244 L383 244 C379 254 375 263 370 269 C366 276 360 281 352 284 C344 288 334 290 322 291 C310 293 295 293 275 293 L161 293 L161 19 L313 19 C335 19 352 19 366 21 C381 23 394 27 404 31 C415 36 425 43 434 51 C444 60 454 71 465 85 L474 97 L485 97 C482 81 480 67 476 53 C473 40 470 26 466 10 C466 8 466 7 465 5 C465 4 464 2 464 0 L460 0 L384 0 L161 0 L122 0 L83 0 L40 0 L40 15 L46 15 C62 15 72 19 76 27 C81 35 83 53 83 80 L83 487 C83 515 82 532 77 540 C73 548 62 552 46 552 L40 552 L40 567 L83 567 L122 567 L161 567 L382 567 L450 567 L462 567 C462 563 463 560 463 557 C464 542 465 528 465 514 C466 501 467 486 468 470 L457 470 L450 482 C442 496 433 507 425 515 C417 524 409 531 398 535 C388 540 375 542 361 544 C347 546 330 547 308 547 L161 547 L161 312 L275 312 C295 312 310 312 322 313 C334 315 344 317 351 320 C359 324 365 327 369 333 C374 339 379 347 383 355 L383 355 Z M267 742 L153 600 L146 606 L245 792 C247 796 249 799 252 804 C256 810 261 812 267 812 C274 812 278 811 281 805 C285 800 287 796 289 792 L387 606 L380 600 L267 742 L267 742 Z " />
<glyph glyph-name="Edieresis" unicode="&#xcb;" horiz-adv-x="543" d="M359 637 C344 637 334 641 327 647 C321 654 317 665 317 680 C317 696 320 706 326 712 C333 719 344 722 359 722 C375 722 386 720 392 713 C399 707 402 696 402 680 C402 665 399 654 392 647 C386 641 375 637 359 637 L359 637 Z M174 637 C159 637 148 641 141 647 C135 654 131 665 131 680 C131 696 135 706 141 712 C148 719 159 722 174 722 C190 722 201 720 207 713 C214 707 217 696 217 680 C217 665 214 654 207 647 C201 641 190 637 174 637 L174 637 Z M383 355 L395 355 L395 312 L395 302 L395 293 L395 244 L383 244 C379 254 375 263 370 269 C366 276 360 281 352 284 C344 288 334 290 322 291 C310 293 295 293 275 293 L161 293 L161 19 L313 19 C335 19 352 19 366 21 C381 23 394 27 404 31 C415 36 425 43 434 51 C444 60 454 71 465 85 L474 97 L485 97 C482 81 480 67 476 53 C473 40 470 26 466 10 C466 8 466 7 465 5 C465 4 464 2 464 0 L460 0 L384 0 L161 0 L122 0 L83 0 L40 0 L40 15 L46 15 C62 15 72 19 76 27 C81 35 83 53 83 80 L83 487 C83 515 82 532 77 540 C73 548 62 552 46 552 L40 552 L40 567 L83 567 L122 567 L161 567 L382 567 L450 567 L462 567 C462 563 463 560 463 557 C464 542 465 528 465 514 C466 501 467 486 468 470 L457 470 L450 482 C442 496 433 507 425 515 C417 524 409 531 398 535 C388 540 375 542 361 544 C347 546 330 547 308 547 L161 547 L161 312 L275 312 C295 312 310 312 322 313 C334 315 344 317 351 320 C359 324 365 327 369 333 C374 339 379 347 383 355 L383 355 Z " />
<glyph glyph-name="Igrave" unicode="&#xcc;" horiz-adv-x="243" d="M204 567 L204 552 L197 552 C182 552 173 548 168 540 C164 532 161 515 161 487 L161 80 C161 53 163 35 167 27 C172 19 182 15 197 15 L204 15 L204 0 L161 0 L122 0 L83 0 L40 0 L40 15 L46 15 C62 15 72 19 76 27 C81 35 83 53 83 80 L83 487 C83 515 82 532 77 540 C73 548 62 552 46 552 L40 552 L40 567 L83 567 L122 567 L161 567 L204 567 L204 567 Z M116 753 L203 603 L195 597 L80 725 C65 741 54 752 48 760 C42 768 39 774 39 777 C39 780 40 783 43 786 C47 790 50 792 54 795 C58 799 63 801 67 803 C72 805 76 806 79 806 C82 806 86 802 91 794 C97 786 105 773 116 753 L116 753 Z " />
<glyph glyph-name="Iacute" unicode="&#xcd;" horiz-adv-x="243" d="M60 597 L52 603 L137 753 C149 773 156 786 161 794 C167 802 170 806 172 806 C180 806 187 804 197 796 C207 789 212 783 212 777 C212 775 209 770 203 762 C197 754 187 742 172 725 L60 597 L60 597 Z M204 567 L204 552 L197 552 C182 552 173 548 168 540 C164 532 161 515 161 487 L161 80 C161 53 163 35 167 27 C172 19 182 15 197 15 L204 15 L204 0 L161 0 L122 0 L83 0 L40 0 L40 15 L46 15 C62 15 72 19 76 27 C81 35 83 53 83 80 L83 487 C83 515 82 532 77 540 C73 548 62 552 46 552 L40 552 L40 567 L83 567 L122 567 L161 567 L204 567 L204 567 Z " />
<glyph glyph-name="Icircumflex" unicode="&#xce;" horiz-adv-x="243" d="M204 567 L204 552 L197 552 C182 552 173 548 168 540 C164 532 161 515 161 487 L161 80 C161 53 163 35 167 27 C172 19 182 15 197 15 L204 15 L204 0 L161 0 L122 0 L83 0 L40 0 L40 15 L46 15 C62 15 72 19 76 27 C81 35 83 53 83 80 L83 487 C83 515 82 532 77 540 C73 548 62 552 46 552 L40 552 L40 567 L83 567 L122 567 L161 567 L204 567 L204 567 Z M122 742 L9 600 L1 606 L100 792 C102 796 104 799 107 804 C111 810 116 812 122 812 C129 812 134 811 137 805 C141 800 143 796 144 792 L242 606 L235 600 L122 742 L122 742 Z " />
<glyph glyph-name="Idieresis" unicode="&#xcf;" horiz-adv-x="243" d="M215 637 C200 637 189 641 182 647 C176 654 172 665 172 680 C172 696 176 706 182 712 C189 719 200 722 215 722 C231 722 241 720 247 713 C254 707 257 696 257 680 C257 665 255 654 248 647 C242 641 231 637 215 637 L215 637 Z M29 637 C14 637 3 641 -4 647 C-10 654 -14 665 -14 680 C-14 696 -10 706 -4 712 C3 719 14 722 29 722 C45 722 56 720 62 713 C69 707 72 696 72 680 C72 665 69 654 62 647 C56 641 45 637 29 637 L29 637 Z M204 567 L204 552 L197 552 C182 552 173 548 168 540 C164 532 161 515 161 487 L161 80 C161 53 163 35 167 27 C172 19 182 15 197 15 L204 15 L204 0 L161 0 L122 0 L83 0 L40 0 L40 15 L46 15 C62 15 72 19 76 27 C81 35 83 53 83 80 L83 487 C83 515 82 532 77 540 C73 548 62 552 46 552 L40 552 L40 567 L83 567 L122 567 L161 567 L204 567 L204 567 Z " />
<glyph glyph-name="Ntilde" unicode="&#xd1;" horiz-adv-x="646" d="M181 662 L169 662 C169 702 174 731 185 747 C197 764 215 772 240 772 C259 772 275 769 289 762 C304 756 317 749 331 741 C345 733 359 726 373 719 C388 713 405 709 423 709 C441 709 453 714 460 723 C468 733 471 748 471 769 L483 769 C483 731 478 703 466 687 C455 671 435 663 407 663 C389 663 374 666 359 672 C345 679 331 686 317 694 C303 702 290 709 275 715 C261 722 244 725 225 725 C209 725 198 721 191 711 C185 702 181 686 181 662 L181 662 Z M501 552 L501 567 L544 567 L556 567 L567 567 L610 567 C611 567 611 565 610 559 C611 555 611 552 610 552 L604 552 C589 552 580 548 575 540 C571 532 568 515 567 487 L567 59 L567 -16 L548 -16 L509 31 L108 502 L108 80 C108 53 110 35 114 27 C119 19 129 15 144 15 L151 15 L151 0 L108 0 L96 0 L84 0 L41 0 L41 15 L48 15 C64 15 73 19 77 27 C82 35 84 53 84 80 L84 487 C84 515 83 532 78 540 C74 548 64 552 48 552 L41 552 L41 567 L84 567 L96 567 L108 567 L154 567 L544 109 L544 487 C544 515 543 532 538 540 C534 548 523 552 507 552 L501 552 L501 552 Z " />
<glyph glyph-name="Ograve" unicode="&#xd2;" horiz-adv-x="765" d="M385 14 C434 14 473 19 505 31 C537 43 562 61 580 83 C599 106 611 134 618 167 C626 201 629 239 629 283 C629 327 627 365 619 399 C612 433 600 461 581 483 C563 506 538 522 506 534 C474 546 434 552 385 552 C337 552 297 547 265 535 C233 523 209 507 190 484 C172 462 160 434 152 400 C145 366 141 327 141 283 C141 239 144 201 151 167 C159 134 171 106 189 83 C208 61 232 44 264 32 C296 20 337 14 385 14 L385 14 Z M56 283 C56 331 60 372 70 408 C80 444 98 474 122 498 C147 523 181 541 223 553 C266 566 320 572 385 572 C451 572 505 567 547 554 C590 542 623 524 648 499 C674 475 690 444 700 408 C710 372 715 331 715 283 C715 237 711 195 701 159 C691 123 675 94 649 69 C624 45 591 27 548 14 C506 2 451 -5 385 -5 C320 -5 266 1 223 13 C181 26 147 44 122 68 C98 93 81 123 71 159 C61 195 56 237 56 283 L56 283 Z M379 753 L466 603 L458 597 L343 725 C329 741 318 752 312 760 C306 768 303 774 302 777 C303 783 308 788 317 795 C327 803 335 806 342 806 C346 806 349 802 354 794 C360 786 368 773 379 753 L379 753 Z " />
<glyph glyph-name="Oacute" unicode="&#xd3;" horiz-adv-x="765" d="M362 597 L354 603 L438 753 C450 773 457 786 462 794 C468 802 471 806 473 806 C481 806 488 804 498 796 C508 789 513 783 513 777 C513 775 510 770 504 762 C498 754 488 742 473 725 L362 597 L362 597 Z M385 14 C434 14 473 19 505 31 C537 43 562 61 580 83 C599 106 611 134 618 167 C626 201 629 239 629 283 C629 327 627 365 619 399 C612 433 600 461 581 483 C563 506 538 522 506 534 C474 546 434 552 385 552 C337 552 297 547 265 535 C233 523 209 507 190 484 C172 462 160 434 152 400 C145 366 141 327 141 283 C141 239 144 201 151 167 C159 134 171 106 189 83 C208 61 232 44 264 32 C296 20 337 14 385 14 L385 14 Z M56 283 C56 331 60 372 70 408 C80 444 98 474 122 498 C147 523 181 541 223 553 C266 566 320 572 385 572 C451 572 505 567 547 554 C590 542 623 524 648 499 C674 475 690 444 700 408 C710 372 715 331 715 283 C715 237 711 195 701 159 C691 123 675 94 649 69 C624 45 591 27 548 14 C506 2 451 -5 385 -5 C320 -5 266 1 223 13 C181 26 147 44 122 68 C98 93 81 123 71 159 C61 195 56 237 56 283 L56 283 Z " />
<glyph glyph-name="Ocircumflex" unicode="&#xd4;" horiz-adv-x="765" d="M385 14 C434 14 473 19 505 31 C537 43 562 61 580 83 C599 106 611 134 618 167 C626 201 629 239 629 283 C629 327 627 365 619 399 C612 433 600 461 581 483 C563 506 538 522 506 534 C474 546 434 552 385 552 C337 552 297 547 265 535 C233 523 209 507 190 484 C172 462 160 434 152 400 C145 366 141 327 141 283 C141 239 144 201 151 167 C159 134 171 106 189 83 C208 61 232 44 264 32 C296 20 337 14 385 14 L385 14 Z M56 283 C56 331 60 372 70 408 C80 444 98 474 122 498 C147 523 181 541 223 553 C266 566 320 572 385 572 C451 572 505 567 547 554 C590 542 623 524 648 499 C674 475 690 444 700 408 C710 372 715 331 715 283 C715 237 711 195 701 159 C691 123 675 94 649 69 C624 45 591 27 548 14 C506 2 451 -5 385 -5 C320 -5 266 1 223 13 C181 26 147 44 122 68 C98 93 81 123 71 159 C61 195 56 237 56 283 L56 283 Z M385 742 L272 600 L265 606 L363 792 C365 796 367 799 370 804 C374 810 379 812 385 812 C392 812 397 811 400 805 C404 800 406 796 408 792 L506 606 L499 600 L385 742 L385 742 Z " />
<glyph glyph-name="Otilde" unicode="&#xd5;" horiz-adv-x="765" d="M240 662 L228 662 C228 702 233 731 244 747 C256 764 274 772 300 772 C319 772 335 769 349 762 C364 756 378 749 391 741 C405 733 418 726 432 719 C447 713 464 709 482 709 C500 709 513 714 520 723 C528 733 531 748 531 769 L542 769 C542 731 537 703 525 687 C514 671 495 663 467 663 C449 663 433 666 418 672 C404 679 390 686 376 694 C363 702 350 709 335 715 C321 722 304 725 285 725 C269 725 257 721 250 711 C244 702 240 686 240 662 L240 662 Z M385 14 C434 14 473 19 505 31 C537 43 562 61 580 83 C599 106 611 134 618 167 C626 201 629 239 629 283 C629 327 627 365 619 399 C612 433 600 461 581 483 C563 506 538 522 506 534 C474 546 434 552 385 552 C337 552 297 547 265 535 C233 523 209 507 190 484 C172 462 160 434 152 400 C145 366 141 327 141 283 C141 239 144 201 151 167 C159 134 171 106 189 83 C208 61 232 44 264 32 C296 20 337 14 385 14 L385 14 Z M56 283 C56 331 60 372 70 408 C80 444 98 474 122 498 C147 523 181 541 223 553 C266 566 320 572 385 572 C451 572 505 567 547 554 C590 542 623 524 648 499 C674 475 690 444 700 408 C710 372 715 331 715 283 C715 237 711 195 701 159 C691 123 675 94 649 69 C624 45 591 27 548 14 C506 2 451 -5 385 -5 C320 -5 266 1 223 13 C181 26 147 44 122 68 C98 93 81 123 71 159 C61 195 56 237 56 283 L56 283 Z " />
<glyph glyph-name="Odieresis" unicode="&#xd6;" horiz-adv-x="765" d="M478 637 C463 637 452 641 445 647 C439 654 435 665 435 680 C435 696 439 706 445 712 C452 719 463 722 478 722 C494 722 505 720 511 713 C518 707 521 696 521 680 C521 665 518 654 511 647 C505 641 494 637 478 637 L478 637 Z M293 637 C278 637 267 641 260 647 C254 654 250 665 250 680 C250 696 254 706 260 712 C267 719 278 722 293 722 C309 722 319 720 325 713 C332 707 335 696 335 680 C335 665 333 654 326 647 C320 641 309 637 293 637 L293 637 Z M385 14 C434 14 473 19 505 31 C537 43 562 61 580 83 C599 106 611 134 618 167 C626 201 629 239 629 283 C629 327 627 365 619 399 C612 433 600 461 581 483 C563 506 538 522 506 534 C474 546 434 552 385 552 C337 552 297 547 265 535 C233 523 209 507 190 484 C172 462 160 434 152 400 C145 366 141 327 141 283 C141 239 144 201 151 167 C159 134 171 106 189 83 C208 61 232 44 264 32 C296 20 337 14 385 14 L385 14 Z M56 283 C56 331 60 372 70 408 C80 444 98 474 122 498 C147 523 181 541 223 553 C266 566 320 572 385 572 C451 572 505 567 547 554 C590 542 623 524 648 499 C674 475 690 444 700 408 C710 372 715 331 715 283 C715 237 711 195 701 159 C691 123 675 94 649 69 C624 45 591 27 548 14 C506 2 451 -5 385 -5 C320 -5 266 1 223 13 C181 26 147 44 122 68 C98 93 81 123 71 159 C61 195 56 237 56 283 L56 283 Z " />
<glyph glyph-name="Oslash" unicode="&#xd8;" horiz-adv-x="765" d="M67 -18 L44 8 L118 73 C95 97 80 126 70 161 C61 197 56 237 56 283 C56 331 60 372 70 408 C80 444 98 474 122 498 C147 523 181 541 223 553 C266 566 320 572 385 572 C442 572 490 569 529 559 C569 550 601 536 626 517 L703 585 L727 559 L653 494 C677 470 692 441 701 405 C711 370 715 329 715 283 C715 237 711 195 701 159 C691 123 675 94 649 69 C624 45 591 27 548 14 C506 2 451 -5 385 -5 C329 -5 282 0 242 9 C203 19 171 32 145 50 L67 -18 L67 -18 Z M385 14 C434 14 473 19 505 31 C537 43 562 61 580 83 C599 106 611 134 618 167 C626 201 629 239 629 283 C629 317 627 347 623 375 C619 403 612 428 601 449 L187 87 C205 63 230 46 262 33 C294 21 335 14 385 14 L385 14 Z M169 117 L583 480 C565 504 540 522 508 534 C476 546 435 552 385 552 C337 552 297 547 265 535 C233 523 209 507 190 484 C172 462 160 434 152 400 C145 366 141 327 141 283 C141 249 143 219 147 191 C151 163 159 139 169 117 L169 117 Z " />
<glyph glyph-name="Ugrave" unicode="&#xd9;" horiz-adv-x="621" d="M601 567 L601 552 L594 552 C586 552 579 552 573 550 C568 548 565 545 561 539 C558 533 556 526 554 516 C553 506 552 493 552 477 L552 156 C552 127 550 103 544 82 C539 62 529 46 512 32 C496 19 473 10 442 4 C412 -2 371 -5 320 -5 C268 -5 226 -1 194 5 C162 12 139 22 121 37 C104 53 93 71 87 95 C82 119 79 148 79 182 L79 487 C79 515 78 532 73 540 C69 548 58 552 42 552 L36 552 L36 567 L79 567 L118 567 L156 567 L199 567 C200 567 200 565 199 559 C200 555 200 552 199 552 L193 552 C179 552 170 550 165 542 C161 535 158 519 156 495 L157 167 C157 141 159 119 163 100 C167 82 175 67 187 55 C200 44 217 36 240 30 C264 25 294 22 332 22 C375 22 409 24 435 29 C461 35 481 43 495 54 C509 66 518 80 522 98 C527 116 529 138 529 164 L529 477 C529 493 530 505 528 515 C527 525 526 532 522 538 C519 544 514 547 508 549 C502 551 495 552 485 552 L477 552 L477 567 L529 567 L541 567 L552 567 L601 567 L601 567 Z M309 753 L396 603 L389 597 L274 725 C259 741 248 752 242 760 C236 768 233 774 233 777 C233 783 237 788 247 795 C257 803 266 806 273 806 C276 806 279 802 284 794 C290 786 298 773 309 753 L309 753 Z " />
<glyph glyph-name="Uacute" unicode="&#xda;" horiz-adv-x="621" d="M314 597 L307 603 L391 753 C403 773 411 786 416 794 C422 802 425 806 426 806 C434 806 441 804 451 796 C461 789 466 783 466 777 C466 775 463 770 457 762 C451 754 441 742 426 725 L314 597 L314 597 Z M601 567 L601 552 L594 552 C586 552 579 552 573 550 C568 548 565 545 561 539 C558 533 556 526 554 516 C553 506 552 493 552 477 L552 156 C552 127 550 103 544 82 C539 62 529 46 512 32 C496 19 473 10 442 4 C412 -2 371 -5 320 -5 C268 -5 226 -1 194 5 C162 12 139 22 121 37 C104 53 93 71 87 95 C82 119 79 148 79 182 L79 487 C79 515 78 532 73 540 C69 548 58 552 42 552 L36 552 L36 567 L79 567 L118 567 L156 567 L199 567 C200 567 200 565 199 559 C200 555 200 552 199 552 L193 552 C179 552 170 550 165 542 C161 535 158 519 156 495 L157 167 C157 141 159 119 163 100 C167 82 175 67 187 55 C200 44 217 36 240 30 C264 25 294 22 332 22 C375 22 409 24 435 29 C461 35 481 43 495 54 C509 66 518 80 522 98 C527 116 529 138 529 164 L529 477 C529 493 530 505 528 515 C527 525 526 532 522 538 C519 544 514 547 508 549 C502 551 495 552 485 552 L477 552 L477 567 L529 567 L541 567 L552 567 L601 567 L601 567 Z " />
<glyph glyph-name="Ucircumflex" unicode="&#xdb;" horiz-adv-x="621" d="M601 567 L601 552 L594 552 C586 552 579 552 573 550 C568 548 565 545 561 539 C558 533 556 526 554 516 C553 506 552 493 552 477 L552 156 C552 127 550 103 544 82 C539 62 529 46 512 32 C496 19 473 10 442 4 C412 -2 371 -5 320 -5 C268 -5 226 -1 194 5 C162 12 139 22 121 37 C104 53 93 71 87 95 C82 119 79 148 79 182 L79 487 C79 515 78 532 73 540 C69 548 58 552 42 552 L36 552 L36 567 L79 567 L118 567 L156 567 L199 567 C200 567 200 565 199 559 C200 555 200 552 199 552 L193 552 C179 552 170 550 165 542 C161 535 158 519 156 495 L157 167 C157 141 159 119 163 100 C167 82 175 67 187 55 C200 44 217 36 240 30 C264 25 294 22 332 22 C375 22 409 24 435 29 C461 35 481 43 495 54 C509 66 518 80 522 98 C527 116 529 138 529 164 L529 477 C529 493 530 505 528 515 C527 525 526 532 522 538 C519 544 514 547 508 549 C502 551 495 552 485 552 L477 552 L477 567 L529 567 L541 567 L552 567 L601 567 L601 567 Z M315 742 L202 600 L195 606 L293 792 C295 796 298 799 301 804 C305 810 310 812 316 812 C322 812 327 811 330 805 C334 800 336 796 338 792 L436 606 L429 600 L315 742 L315 742 Z " />
<glyph glyph-name="Udieresis" unicode="&#xdc;" horiz-adv-x="621" d="M408 637 C393 637 382 641 375 647 C369 654 365 665 365 680 C365 696 369 706 375 712 C382 719 393 722 408 722 C424 722 435 720 441 713 C448 707 451 696 451 680 C451 665 448 654 441 647 C435 641 424 637 408 637 L408 637 Z M223 637 C208 637 197 641 190 647 C184 654 180 665 180 680 C180 696 184 706 190 712 C197 719 208 722 223 722 C239 722 250 720 256 713 C263 707 266 696 266 680 C266 665 263 654 256 647 C250 641 239 637 223 637 L223 637 Z M601 567 L601 552 L594 552 C586 552 579 552 573 550 C568 548 565 545 561 539 C558 533 556 526 554 516 C553 506 552 493 552 477 L552 156 C552 127 550 103 544 82 C539 62 529 46 512 32 C496 19 473 10 442 4 C412 -2 371 -5 320 -5 C268 -5 226 -1 194 5 C162 12 139 22 121 37 C104 53 93 71 87 95 C82 119 79 148 79 182 L79 487 C79 515 78 532 73 540 C69 548 58 552 42 552 L36 552 L36 567 L79 567 L118 567 L156 567 L199 567 C200 567 200 565 199 559 C200 555 200 552 199 552 L193 552 C179 552 170 550 165 542 C161 535 158 519 156 495 L157 167 C157 141 159 119 163 100 C167 82 175 67 187 55 C200 44 217 36 240 30 C264 25 294 22 332 22 C375 22 409 24 435 29 C461 35 481 43 495 54 C509 66 518 80 522 98 C527 116 529 138 529 164 L529 477 C529 493 530 505 528 515 C527 525 526 532 522 538 C519 544 514 547 508 549 C502 551 495 552 485 552 L477 552 L477 567 L529 567 L541 567 L552 567 L601 567 L601 567 Z " />
<glyph glyph-name="Yacute" unicode="&#xdd;" horiz-adv-x="588" d="M298 597 L290 603 L374 753 C386 773 394 786 399 794 C405 802 408 806 409 806 C417 806 424 804 434 796 C444 789 449 783 449 777 C449 775 446 770 440 762 C434 754 424 742 410 725 L298 597 L298 597 Z M381 15 L381 0 L337 0 L299 0 L260 0 L217 0 L217 15 L223 15 C239 15 249 19 253 27 C258 35 260 53 260 80 L260 231 L95 487 L94 487 C86 501 79 512 72 520 C66 529 61 536 55 540 C50 545 46 547 41 549 C37 551 31 552 25 552 L21 552 L21 567 L43 567 L89 567 L136 567 L188 567 L188 552 L181 552 C166 552 158 549 159 541 C161 533 170 515 187 487 L187 487 L325 269 L471 480 C492 511 502 531 502 539 C503 548 494 552 476 552 L468 552 L468 567 L531 567 L543 567 L555 567 L581 567 L581 552 L576 552 C570 552 564 552 558 550 C553 548 548 545 542 540 C537 536 531 530 524 521 C518 513 509 501 499 487 L499 487 L337 256 L337 80 C338 53 340 35 344 27 C349 19 359 15 374 15 L381 15 L381 15 Z " />
<glyph glyph-name="agrave" unicode="&#xe0;" horiz-adv-x="497" d="M476 39 L484 30 C477 23 470 18 464 12 C458 7 452 3 444 -1 C436 -4 428 -6 417 -8 C407 -9 394 -10 378 -10 C352 -10 335 -6 327 4 C319 14 315 31 313 54 C291 33 269 19 243 9 C218 0 188 -5 154 -5 C112 -5 81 2 63 16 C45 31 36 55 36 89 C36 125 49 151 75 169 C102 188 147 201 209 209 L313 222 L313 309 C313 351 308 379 296 396 C285 414 265 422 237 422 L51 422 C108 430 151 435 181 437 C212 440 236 441 252 441 C302 441 336 431 356 408 C377 386 387 347 387 293 L387 85 C387 63 388 47 392 37 C396 28 408 23 426 23 C442 23 452 24 458 26 C464 29 470 33 476 39 L476 39 Z M213 622 L300 473 L292 467 L177 594 C162 611 151 622 145 630 C139 638 136 644 136 647 C136 653 140 658 150 665 C160 673 169 676 176 676 C179 676 183 673 188 664 C194 656 202 642 213 622 L213 622 Z M313 205 L209 187 C171 181 145 172 129 160 C113 148 105 131 105 109 C105 85 112 68 124 57 C137 47 159 41 190 41 C244 41 285 51 313 71 L313 77 L313 205 L313 205 Z " />
<glyph glyph-name="aacute" unicode="&#xe1;" horiz-adv-x="497" d="M187 467 L180 473 L264 622 C276 642 283 655 288 663 C294 672 297 676 299 676 C303 676 307 675 311 673 C316 671 320 670 324 666 C328 663 331 660 334 656 C338 653 339 650 339 647 C339 644 336 639 330 631 C324 623 314 611 299 594 L187 467 L187 467 Z M476 39 L484 30 C477 23 470 18 464 12 C458 7 452 3 444 -1 C436 -4 428 -6 417 -8 C407 -9 394 -10 378 -10 C352 -10 335 -6 327 4 C319 14 315 31 313 54 C291 33 269 19 243 9 C218 0 188 -5 154 -5 C112 -5 81 2 63 16 C45 31 36 55 36 89 C36 125 49 151 75 169 C102 188 147 201 209 209 L313 222 L313 309 C313 351 308 379 296 396 C285 414 265 422 237 422 L51 422 C108 430 151 435 181 437 C212 440 236 441 252 441 C302 441 336 431 356 408 C377 386 387 347 387 293 L387 85 C387 63 388 47 392 37 C396 28 408 23 426 23 C442 23 452 24 458 26 C464 29 470 33 476 39 L476 39 Z M313 205 L209 187 C171 181 145 172 129 160 C113 148 105 131 105 109 C105 85 112 68 124 57 C137 47 159 41 190 41 C244 41 285 51 313 71 L313 77 L313 205 L313 205 Z " />
<glyph glyph-name="acircumflex" unicode="&#xe2;" horiz-adv-x="497" d="M476 39 L484 30 C477 23 470 18 464 12 C458 7 452 3 444 -1 C436 -4 428 -6 417 -8 C407 -9 394 -10 378 -10 C352 -10 335 -6 327 4 C319 14 315 31 313 54 C291 33 269 19 243 9 C218 0 188 -5 154 -5 C112 -5 81 2 63 16 C45 31 36 55 36 89 C36 125 49 151 75 169 C102 188 147 201 209 209 L313 222 L313 309 C313 351 308 379 296 396 C285 414 265 422 237 422 L51 422 C108 430 151 435 181 437 C212 440 236 441 252 441 C302 441 336 431 356 408 C377 386 387 347 387 293 L387 85 C387 63 388 47 392 37 C396 28 408 23 426 23 C442 23 452 24 458 26 C464 29 470 33 476 39 L476 39 Z M219 611 L106 469 L98 475 L197 661 C199 665 201 668 204 673 C208 679 213 681 219 681 C226 681 231 680 234 674 C238 669 240 665 241 661 L339 475 L332 469 L219 611 L219 611 Z M313 205 L209 187 C171 181 145 172 129 160 C113 148 105 131 105 109 C105 85 112 68 124 57 C137 47 159 41 190 41 C244 41 285 51 313 71 L313 77 L313 205 L313 205 Z " />
<glyph glyph-name="atilde" unicode="&#xe3;" horiz-adv-x="584" d="M89 531 L77 531 C77 571 82 600 93 616 C105 633 123 641 149 641 C167 641 183 639 197 632 C212 626 225 618 239 610 C253 602 267 596 281 589 C296 583 313 579 331 579 C349 579 361 583 368 592 C376 602 379 617 379 639 L391 639 C391 600 386 572 374 556 C363 540 344 532 316 532 C298 532 282 536 267 542 C253 549 239 555 225 563 C211 571 198 579 183 585 C169 592 152 595 134 595 C118 595 106 591 99 581 C93 571 89 555 89 531 L89 531 Z M517 39 L517 30 L463 14 L416 -5 L404 -5 L404 0 L404 109 C374 89 348 72 326 57 C304 43 287 31 273 21 C257 11 244 2 234 -5 C202 -5 174 -1 151 6 C129 14 111 24 96 40 C82 56 72 77 65 102 C59 128 55 158 55 194 C55 239 58 277 66 308 C74 340 87 364 103 384 C120 404 141 418 168 427 C196 437 228 441 266 441 C306 441 336 439 360 435 C384 431 402 426 414 419 L404 402 L455 436 L474 436 L474 129 L474 86 C474 78 475 73 476 69 C478 65 479 63 482 60 C486 58 489 55 495 52 C501 50 509 45 517 39 L517 39 Z M404 117 L404 402 C394 408 377 412 354 416 C332 420 301 422 263 422 C215 422 180 408 159 377 C139 347 128 295 128 221 C128 155 139 108 161 80 C183 52 221 38 273 38 C278 38 290 44 310 56 C330 68 362 89 404 117 L404 117 Z " />
<glyph glyph-name="adieresis" unicode="&#xe4;" horiz-adv-x="497" d="M312 506 C297 506 286 510 279 516 C273 523 269 534 269 549 C269 565 273 576 279 582 C286 589 297 592 312 592 C328 592 338 589 344 582 C351 576 354 565 354 549 C354 534 352 523 345 516 C339 510 328 506 312 506 L312 506 Z M126 506 C111 506 100 510 93 516 C87 523 83 534 83 549 C83 565 87 576 93 582 C100 589 111 592 126 592 C142 592 153 589 159 582 C166 576 169 565 169 549 C169 534 166 523 159 516 C153 510 142 506 126 506 L126 506 Z M476 39 L484 30 C477 23 470 18 464 12 C458 7 452 3 444 -1 C436 -4 428 -6 417 -8 C407 -9 394 -10 378 -10 C352 -10 335 -6 327 4 C319 14 315 31 313 54 C291 33 269 19 243 9 C218 0 188 -5 154 -5 C112 -5 81 2 63 16 C45 31 36 55 36 89 C36 125 49 151 75 169 C102 188 147 201 209 209 L313 222 L313 309 C313 351 308 379 296 396 C285 414 265 422 237 422 L51 422 C108 430 151 435 181 437 C212 440 236 441 252 441 C302 441 336 431 356 408 C377 386 387 347 387 293 L387 85 C387 63 388 47 392 37 C396 28 408 23 426 23 C442 23 452 24 458 26 C464 29 470 33 476 39 L476 39 Z M313 205 L209 187 C171 181 145 172 129 160 C113 148 105 131 105 109 C105 85 112 68 124 57 C137 47 159 41 190 41 C244 41 285 51 313 71 L313 77 L313 205 L313 205 Z " />
<glyph glyph-name="aring" unicode="&#xe5;" horiz-adv-x="497" d="M219 487 C269 487 294 513 294 564 C294 592 289 611 277 623 C266 635 247 641 219 641 C192 641 173 636 161 624 C150 612 144 592 144 564 C144 513 169 487 219 487 L219 487 Z M124 564 C124 598 131 621 145 635 C160 649 185 656 219 656 C253 656 277 650 291 636 C306 622 313 598 313 564 C313 502 282 471 219 471 C156 471 124 502 124 564 L124 564 Z M476 39 L484 30 C477 23 470 18 464 12 C458 7 452 3 444 -1 C436 -4 428 -6 417 -8 C407 -9 394 -10 378 -10 C352 -10 335 -6 327 4 C319 14 315 31 313 54 C291 33 269 19 243 9 C218 0 188 -5 154 -5 C112 -5 81 2 63 16 C45 31 36 55 36 89 C36 125 49 151 75 169 C102 188 147 201 209 209 L313 222 L313 309 C313 351 308 379 296 396 C285 414 265 422 237 422 L51 422 C108 430 151 435 181 437 C212 440 236 441 252 441 C302 441 336 431 356 408 C377 386 387 347 387 293 L387 85 C387 63 388 47 392 37 C396 28 408 23 426 23 C442 23 452 24 458 26 C464 29 470 33 476 39 L476 39 Z M313 205 L209 187 C171 181 145 172 129 160 C113 148 105 131 105 109 C105 85 112 68 124 57 C137 47 159 41 190 41 C244 41 285 51 313 71 L313 77 L313 205 L313 205 Z " />
<glyph glyph-name="ccedilla" unicode="&#xe7;" horiz-adv-x="495" d="M444 53 C420 32 393 17 363 8 C333 0 295 -5 247 -5 C211 -5 182 -2 156 6 C131 14 111 26 95 42 C79 59 69 80 61 106 C54 133 50 165 50 203 C50 247 55 283 64 313 C74 343 88 367 108 386 C128 406 154 420 186 428 C218 437 257 441 303 441 C352 441 386 435 408 420 C430 406 443 381 446 347 C446 336 444 328 439 323 C435 319 427 316 415 316 C404 316 396 318 390 323 C385 329 382 338 380 350 C378 376 370 394 357 405 C345 417 324 422 295 422 C233 422 189 408 163 378 C137 349 124 300 124 230 C124 196 128 167 134 142 C141 118 151 98 165 82 C180 67 199 57 222 49 C246 42 274 38 306 38 C344 38 373 40 393 43 C413 47 428 52 438 60 L444 53 L444 53 Z " />
<glyph glyph-name="egrave" unicode="&#xe8;" horiz-adv-x="502" d="M451 53 C426 32 398 17 368 8 C338 0 299 -5 251 -5 C215 -5 184 -2 158 6 C133 14 112 26 96 42 C80 59 69 80 61 106 C54 133 50 165 50 203 C50 247 54 283 62 313 C70 343 83 367 101 386 C119 406 142 420 170 428 C199 437 234 441 274 441 C339 441 384 429 411 402 C439 376 452 331 452 267 L386 267 L125 267 C125 261 124 255 124 249 C124 243 124 237 124 230 C124 196 128 167 134 142 C141 118 152 98 166 82 C181 67 199 57 223 49 C247 42 276 38 309 38 C349 38 379 40 399 43 C420 47 435 52 444 60 L451 53 L451 53 Z M268 622 L355 473 L347 467 L232 594 C217 611 206 622 200 630 C194 638 191 644 191 647 C191 653 195 658 205 665 C215 673 224 676 231 676 C234 676 238 673 243 664 C249 656 257 642 268 622 L268 622 Z M386 292 L386 292 L353 291 C365 292 373 294 378 298 C384 303 387 311 387 322 L387 325 C387 361 379 386 361 400 C343 415 313 422 270 422 C224 422 191 412 168 390 C146 368 132 332 126 280 L386 292 L386 292 Z " />
<glyph glyph-name="eacute" unicode="&#xe9;" horiz-adv-x="502" d="M242 467 L235 473 L319 622 C331 642 338 655 343 663 C349 672 352 676 354 676 C358 676 362 675 366 673 C371 671 375 670 379 666 C383 663 386 660 389 656 C393 653 394 650 394 647 C394 644 391 639 385 631 C379 623 369 611 354 594 L242 467 L242 467 Z M451 53 C426 32 398 17 368 8 C338 0 299 -5 251 -5 C215 -5 184 -2 158 6 C133 14 112 26 96 42 C80 59 69 80 61 106 C54 133 50 165 50 203 C50 247 54 283 62 313 C70 343 83 367 101 386 C119 406 142 420 170 428 C199 437 234 441 274 441 C339 441 384 429 411 402 C439 376 452 331 452 267 L386 267 L125 267 C125 261 124 255 124 249 C124 243 124 237 124 230 C124 196 128 167 134 142 C141 118 152 98 166 82 C181 67 199 57 223 49 C247 42 276 38 309 38 C349 38 379 40 399 43 C420 47 435 52 444 60 L451 53 L451 53 Z M386 292 L386 292 L353 291 C365 292 373 294 378 298 C384 303 387 311 387 322 L387 325 C387 361 379 386 361 400 C343 415 313 422 270 422 C224 422 191 412 168 390 C146 368 132 332 126 280 L386 292 L386 292 Z " />
<glyph glyph-name="ecircumflex" unicode="&#xea;" horiz-adv-x="502" d="M451 53 C426 32 398 17 368 8 C338 0 299 -5 251 -5 C215 -5 184 -2 158 6 C133 14 112 26 96 42 C80 59 69 80 61 106 C54 133 50 165 50 203 C50 247 54 283 62 313 C70 343 83 367 101 386 C119 406 142 420 170 428 C199 437 234 441 274 441 C339 441 384 429 411 402 C439 376 452 331 452 267 L386 267 L125 267 C125 261 124 255 124 249 C124 243 124 237 124 230 C124 196 128 167 134 142 C141 118 152 98 166 82 C181 67 199 57 223 49 C247 42 276 38 309 38 C349 38 379 40 399 43 C420 47 435 52 444 60 L451 53 L451 53 Z M274 611 L161 469 L153 475 L252 661 C254 665 256 668 259 673 C263 679 268 681 274 681 C281 681 286 680 289 674 C293 669 295 665 296 661 L394 475 L387 469 L274 611 L274 611 Z M386 292 L386 292 L353 291 C365 292 373 294 378 298 C384 303 387 311 387 322 L387 325 C387 361 379 386 361 400 C343 415 313 422 270 422 C224 422 191 412 168 390 C146 368 132 332 126 280 L386 292 L386 292 Z " />
<glyph glyph-name="edieresis" unicode="&#xeb;" horiz-adv-x="502" d="M367 506 C352 506 341 510 334 516 C328 523 324 534 324 549 C324 565 328 576 334 582 C341 589 352 592 367 592 C383 592 393 589 399 582 C406 576 409 565 409 549 C409 534 407 523 400 516 C394 510 383 506 367 506 L367 506 Z M181 506 C166 506 155 510 148 516 C142 523 138 534 138 549 C138 565 142 576 148 582 C155 589 166 592 181 592 C197 592 208 589 214 582 C221 576 224 565 224 549 C224 534 221 523 214 516 C208 510 197 506 181 506 L181 506 Z M451 53 C426 32 398 17 368 8 C338 0 299 -5 251 -5 C215 -5 184 -2 158 6 C133 14 112 26 96 42 C80 59 69 80 61 106 C54 133 50 165 50 203 C50 247 54 283 62 313 C70 343 83 367 101 386 C119 406 142 420 170 428 C199 437 234 441 274 441 C339 441 384 429 411 402 C439 376 452 331 452 267 L386 267 L125 267 C125 261 124 255 124 249 C124 243 124 237 124 230 C124 196 128 167 134 142 C141 118 152 98 166 82 C181 67 199 57 223 49 C247 42 276 38 309 38 C349 38 379 40 399 43 C420 47 435 52 444 60 L451 53 L451 53 Z M386 292 L386 292 L353 291 C365 292 373 294 378 298 C384 303 387 311 387 322 L387 325 C387 361 379 386 361 400 C343 415 313 422 270 422 C224 422 191 412 168 390 C146 368 132 332 126 280 L386 292 L386 292 Z " />
<glyph glyph-name="igrave" unicode="&#xec;" horiz-adv-x="246" d="M158 0 L158 356 L88 356 L88 336 C88 348 89 356 88 361 C88 367 87 371 86 373 C86 376 85 378 83 378 C81 379 79 380 77 381 L52 400 L52 410 L154 441 L158 441 L158 356 L158 0 C158 10 160 14 164 14 C168 15 178 15 193 15 L201 15 L201 0 L158 0 L158 0 Z M88 336 L88 0 L45 0 L45 15 L54 15 C69 15 78 16 82 15 C86 15 88 10 88 0 L88 336 L88 336 Z M117 622 L204 473 L196 467 L81 594 C66 611 55 622 49 630 C43 638 40 644 40 647 C40 650 41 653 44 656 C48 660 51 662 55 665 C59 669 64 671 68 673 C73 675 77 676 80 676 C83 676 87 673 92 664 C98 656 106 642 117 622 L117 622 Z " />
<glyph glyph-name="iacute" unicode="&#xed;" horiz-adv-x="246" d="M46 467 L38 473 L122 622 C134 642 142 655 147 663 C153 672 156 676 158 676 C162 676 166 675 170 673 C175 671 179 670 183 666 C187 663 190 660 193 656 C197 653 198 650 198 647 C198 644 195 639 189 631 C183 623 173 611 158 594 L46 467 L46 467 Z M158 0 L158 356 L88 356 L88 336 C88 348 89 356 88 361 C88 367 87 371 86 373 C86 376 85 378 83 378 C81 379 79 380 77 381 L52 400 L52 410 L154 441 L158 441 L158 356 L158 0 C158 10 160 14 164 14 C168 15 178 15 193 15 L201 15 L201 0 L158 0 L158 0 Z M88 336 L88 0 L45 0 L45 15 L54 15 C69 15 78 16 82 15 C86 15 88 10 88 0 L88 336 L88 336 Z " />
<glyph glyph-name="icircumflex" unicode="&#xee;" horiz-adv-x="246" d="M158 0 L158 356 L88 356 L88 336 C88 348 89 356 88 361 C88 367 87 371 86 373 C86 376 85 378 83 378 C81 379 79 380 77 381 L52 400 L52 410 L154 441 L158 441 L158 356 L158 0 C158 10 160 14 164 14 C168 15 178 15 193 15 L201 15 L201 0 L158 0 L158 0 Z M88 336 L88 0 L45 0 L45 15 L54 15 C69 15 78 16 82 15 C86 15 88 10 88 0 L88 336 L88 336 Z M123 650 L145 661 L244 475 L236 469 L123 611 L10 469 L3 475 L101 661 L123 650 L123 650 Z M101 639 L123 611 L101 639 L101 639 Z M145 661 L101 661 C103 665 105 668 108 673 C112 679 117 681 123 681 C130 681 135 680 138 674 C142 669 144 665 145 661 L145 661 Z " />
<glyph glyph-name="idieresis" unicode="&#xef;" horiz-adv-x="246" d="M216 506 C201 506 190 510 183 516 C177 523 173 534 173 549 C173 565 177 576 183 582 C190 589 201 592 216 592 C232 592 243 589 249 582 C256 576 259 565 259 549 C259 534 256 523 249 516 C243 510 232 506 216 506 L216 506 Z M30 506 C15 506 5 510 -2 516 C-8 523 -12 534 -12 549 C-12 565 -9 576 -3 582 C4 589 15 592 30 592 C46 592 57 589 63 582 C70 576 73 565 73 549 C73 534 70 523 63 516 C57 510 46 506 30 506 L30 506 Z M158 0 L158 356 L88 356 L88 336 C88 348 89 356 88 361 C88 367 87 371 86 373 C86 376 85 378 83 378 C81 379 79 380 77 381 L52 400 L52 410 L154 441 L158 441 L158 356 L158 0 C158 10 160 14 164 14 C168 15 178 15 193 15 L201 15 L201 0 L158 0 L158 0 Z M88 336 L88 0 L45 0 L45 15 L54 15 C69 15 78 16 82 15 C86 15 88 10 88 0 L88 336 L88 336 Z " />
<glyph glyph-name="ntilde" unicode="&#xf1;" horiz-adv-x="567" d="M141 531 L129 531 C129 571 134 600 145 616 C157 633 175 641 201 641 C219 641 235 639 249 632 C264 626 277 618 291 610 C305 602 319 596 333 589 C348 583 365 579 383 579 C401 579 413 583 420 592 C428 602 431 617 431 639 L443 639 C443 600 438 572 426 556 C415 540 395 532 367 532 C349 532 334 536 319 542 C305 549 291 555 277 563 C263 571 250 579 235 585 C221 592 204 595 185 595 C169 595 158 591 151 581 C145 571 141 555 141 531 L141 531 Z M527 15 L527 0 L484 0 L449 0 L414 0 L371 0 L371 15 L378 15 C394 15 403 19 407 27 C412 35 414 53 414 80 L414 285 C414 305 414 321 411 335 C409 349 404 361 396 369 C388 378 377 384 363 388 C349 392 331 394 307 394 C284 394 261 392 238 388 C216 384 189 378 158 368 L158 338 L158 326 L158 80 L158 61 C159 42 161 30 166 24 C172 18 181 15 194 15 L201 15 C201 15 201 13 201 8 C201 3 201 0 201 0 L158 0 L123 0 L88 0 L45 0 L45 15 L51 15 C67 15 77 19 81 27 C86 35 88 53 88 80 L88 307 L88 338 L88 338 C88 350 88 357 87 362 C87 368 86 371 82 374 C79 378 75 381 69 383 C63 386 55 391 45 397 L45 406 L144 436 L158 436 L158 376 C195 388 225 398 251 406 C277 414 299 421 315 426 C334 432 349 437 361 441 C388 441 409 439 425 433 C442 428 455 419 463 407 C472 395 478 380 480 361 C483 343 484 320 484 292 L484 80 C484 52 487 35 491 27 C496 19 506 15 521 15 L527 15 L527 15 Z " />
<glyph glyph-name="ograve" unicode="&#xf2;" horiz-adv-x="600" d="M300 11 C332 11 358 14 380 22 C402 30 419 42 433 58 C447 75 457 96 463 122 C470 149 473 181 473 218 C473 256 471 288 464 314 C458 341 448 362 434 378 C420 395 402 406 380 414 C358 422 332 426 300 426 C269 426 243 423 221 415 C199 407 182 396 168 379 C154 363 145 342 138 315 C132 289 128 256 128 218 C128 181 131 150 137 123 C144 97 153 76 167 59 C181 43 198 31 220 23 C242 15 269 11 300 11 L300 11 Z M50 218 C50 259 54 293 63 321 C73 350 87 372 107 390 C127 408 152 421 184 429 C216 437 255 441 300 441 C346 441 383 437 415 429 C447 421 473 409 493 391 C513 373 527 351 536 322 C546 294 550 259 550 218 C550 178 547 144 537 115 C528 87 513 64 493 46 C473 28 448 15 416 7 C384 -1 346 -5 300 -5 C255 -5 217 -1 185 7 C153 15 127 27 107 45 C87 63 74 86 64 114 C55 143 50 178 50 218 L50 218 Z M294 622 L381 473 L373 467 L258 594 C243 611 232 622 226 630 C220 638 217 644 217 647 C217 650 218 653 221 656 C225 660 228 662 232 665 C236 669 241 671 245 673 C250 675 254 676 257 676 C260 676 264 673 269 664 C275 656 283 642 294 622 L294 622 Z " />
<glyph glyph-name="oacute" unicode="&#xf3;" horiz-adv-x="600" d="M269 467 L261 473 L345 622 C357 642 364 655 369 663 C375 672 379 676 381 676 C385 676 389 675 393 673 C398 671 402 670 406 666 C410 663 414 660 416 656 C419 653 420 650 420 647 C421 644 418 639 412 631 C406 623 396 611 381 594 L269 467 L269 467 Z M300 11 C332 11 358 14 380 22 C402 30 419 42 433 58 C447 75 457 96 463 122 C470 149 473 181 473 218 C473 256 471 288 464 314 C458 341 448 362 434 378 C420 395 402 406 380 414 C358 422 332 426 300 426 C269 426 243 423 221 415 C199 407 182 396 168 379 C154 363 145 342 138 315 C132 289 128 256 128 218 C128 181 131 150 137 123 C144 97 153 76 167 59 C181 43 198 31 220 23 C242 15 269 11 300 11 L300 11 Z M50 218 C50 259 54 293 63 321 C73 350 87 372 107 390 C127 408 152 421 184 429 C216 437 255 441 300 441 C346 441 383 437 415 429 C447 421 473 409 493 391 C513 373 527 351 536 322 C546 294 550 259 550 218 C550 178 547 144 537 115 C528 87 513 64 493 46 C473 28 448 15 416 7 C384 -1 346 -5 300 -5 C255 -5 217 -1 185 7 C153 15 127 27 107 45 C87 63 74 86 64 114 C55 143 50 178 50 218 L50 218 Z " />
<glyph glyph-name="ocircumflex" unicode="&#xf4;" horiz-adv-x="600" d="M300 11 C332 11 358 14 380 22 C402 30 419 42 433 58 C447 75 457 96 463 122 C470 149 473 181 473 218 C473 256 471 288 464 314 C458 341 448 362 434 378 C420 395 402 406 380 414 C358 422 332 426 300 426 C269 426 243 423 221 415 C199 407 182 396 168 379 C154 363 145 342 138 315 C132 289 128 256 128 218 C128 181 131 150 137 123 C144 97 153 76 167 59 C181 43 198 31 220 23 C242 15 269 11 300 11 L300 11 Z M50 218 C50 259 54 293 63 321 C73 350 87 372 107 390 C127 408 152 421 184 429 C216 437 255 441 300 441 C346 441 383 437 415 429 C447 421 473 409 493 391 C513 373 527 351 536 322 C546 294 550 259 550 218 C550 178 547 144 537 115 C528 87 513 64 493 46 C473 28 448 15 416 7 C384 -1 346 -5 300 -5 C255 -5 217 -1 185 7 C153 15 127 27 107 45 C87 63 74 86 64 114 C55 143 50 178 50 218 L50 218 Z M300 611 L187 469 L180 475 L278 661 C280 665 282 668 285 673 C289 679 294 681 300 681 C307 681 312 680 315 674 C319 669 321 665 323 661 L421 475 L414 469 L300 611 L300 611 Z " />
<glyph glyph-name="otilde" unicode="&#xf5;" horiz-adv-x="600" d="M155 531 L143 531 C143 571 148 600 159 616 C171 633 189 641 215 641 C234 641 250 639 264 632 C279 626 293 618 306 610 C320 602 333 596 347 589 C362 583 379 579 397 579 C415 579 428 583 435 592 C443 602 446 617 446 639 L457 639 C457 600 452 572 440 556 C429 540 410 532 382 532 C364 532 348 536 333 542 C319 549 305 555 291 563 C277 571 264 579 249 585 C235 592 218 595 200 595 C184 595 172 591 165 581 C159 571 155 555 155 531 L155 531 Z M300 11 C332 11 358 14 380 22 C402 30 419 42 433 58 C447 75 457 96 463 122 C470 149 473 181 473 218 C473 256 471 288 464 314 C458 341 448 362 434 378 C420 395 402 406 380 414 C358 422 332 426 300 426 C269 426 243 423 221 415 C199 407 182 396 168 379 C154 363 145 342 138 315 C132 289 128 256 128 218 C128 181 131 150 137 123 C144 97 153 76 167 59 C181 43 198 31 220 23 C242 15 269 11 300 11 L300 11 Z M50 218 C50 259 54 293 63 321 C73 350 87 372 107 390 C127 408 152 421 184 429 C216 437 255 441 300 441 C346 441 383 437 415 429 C447 421 473 409 493 391 C513 373 527 351 536 322 C546 294 550 259 550 218 C550 178 547 144 537 115 C528 87 513 64 493 46 C473 28 448 15 416 7 C384 -1 346 -5 300 -5 C255 -5 217 -1 185 7 C153 15 127 27 107 45 C87 63 74 86 64 114 C55 143 50 178 50 218 L50 218 Z " />
<glyph glyph-name="odieresis" unicode="&#xf6;" horiz-adv-x="600" d="M393 506 C378 506 367 510 360 516 C354 523 350 534 350 549 C350 565 354 576 360 582 C367 589 378 592 393 592 C409 592 420 589 426 582 C433 576 436 565 436 549 C436 534 433 523 426 516 C420 510 409 506 393 506 L393 506 Z M207 506 C192 506 182 510 175 516 C169 523 165 534 165 549 C165 565 168 576 174 582 C181 589 192 592 207 592 C223 592 234 589 240 582 C247 576 250 565 250 549 C250 534 247 523 240 516 C234 510 223 506 207 506 L207 506 Z M300 11 C332 11 358 14 380 22 C402 30 419 42 433 58 C447 75 457 96 463 122 C470 149 473 181 473 218 C473 256 471 288 464 314 C458 341 448 362 434 378 C420 395 402 406 380 414 C358 422 332 426 300 426 C269 426 243 423 221 415 C199 407 182 396 168 379 C154 363 145 342 138 315 C132 289 128 256 128 218 C128 181 131 150 137 123 C144 97 153 76 167 59 C181 43 198 31 220 23 C242 15 269 11 300 11 L300 11 Z M50 218 C50 259 54 293 63 321 C73 350 87 372 107 390 C127 408 152 421 184 429 C216 437 255 441 300 441 C346 441 383 437 415 429 C447 421 473 409 493 391 C513 373 527 351 536 322 C546 294 550 259 550 218 C550 178 547 144 537 115 C528 87 513 64 493 46 C473 28 448 15 416 7 C384 -1 346 -5 300 -5 C255 -5 217 -1 185 7 C153 15 127 27 107 45 C87 63 74 86 64 114 C55 143 50 178 50 218 L50 218 Z " />
<glyph glyph-name="oslash" unicode="&#xf8;" horiz-adv-x="600" d="M58 -14 L42 4 L98 54 C66 89 50 144 50 218 C50 259 54 293 63 321 C73 350 87 372 107 390 C127 408 152 421 184 429 C216 437 255 441 300 441 C342 441 378 438 408 431 C439 425 464 414 484 398 L543 450 L558 432 L502 382 C534 348 550 293 550 218 C550 178 547 144 537 115 C528 87 513 64 493 46 C473 28 448 15 416 7 C384 -1 346 -5 300 -5 C258 -5 223 -1 192 5 C162 12 136 23 116 38 L58 -14 L58 -14 Z M300 11 C332 11 358 14 380 22 C402 30 419 42 433 58 C447 75 457 96 463 122 C470 149 473 181 473 218 C473 244 472 266 469 286 C467 307 462 325 455 340 L156 74 C170 52 188 36 211 26 C235 16 264 11 300 11 L300 11 Z M145 96 L445 363 C432 385 414 401 390 411 C366 421 336 426 300 426 C269 426 243 423 221 415 C199 407 182 396 168 379 C154 363 145 342 138 315 C132 289 128 256 128 218 C128 166 134 126 145 96 L145 96 Z " />
<glyph glyph-name="ugrave" unicode="&#xf9;" horiz-adv-x="532" d="M497 39 L497 30 L398 0 L384 0 L384 18 L384 60 C352 48 325 38 303 30 C281 22 263 16 248 10 C232 4 219 -1 208 -5 C178 -5 154 -3 134 3 C115 9 100 18 88 31 C77 45 70 61 65 81 C61 102 58 127 58 155 L58 356 C58 384 57 401 52 409 C48 417 37 421 21 421 L15 421 L15 436 L58 436 L93 436 L128 436 L127 162 C127 140 129 122 133 106 C137 91 144 79 154 69 C164 59 177 53 195 48 C213 44 236 41 263 41 C283 41 302 43 318 47 C335 51 357 58 384 68 L384 110 L384 356 C384 384 383 401 378 409 C374 417 364 421 348 421 L341 421 L341 436 L384 436 L419 436 L454 436 L454 129 L454 86 C454 78 455 73 456 69 C458 65 459 63 462 60 C466 58 469 55 475 52 C481 50 489 45 497 39 L497 39 Z M250 622 L337 473 L329 467 L214 594 C199 611 188 622 182 630 C176 638 173 644 173 647 C173 650 174 653 177 656 C181 660 184 662 188 665 C192 669 197 671 201 673 C206 675 210 676 213 676 C216 676 220 673 225 664 C231 656 239 642 250 622 L250 622 Z " />
<glyph glyph-name="uacute" unicode="&#xfa;" horiz-adv-x="532" d="M225 467 L217 473 L301 622 C313 642 320 655 325 663 C331 672 334 676 336 676 C344 676 351 674 361 666 C371 659 376 653 376 647 C377 644 374 639 368 631 C362 623 352 611 337 594 L225 467 L225 467 Z M497 39 L497 30 L398 0 L384 0 L384 18 L384 60 C352 48 325 38 303 30 C281 22 263 16 248 10 C232 4 219 -1 208 -5 C178 -5 154 -3 134 3 C115 9 100 18 88 31 C77 45 70 61 65 81 C61 102 58 127 58 155 L58 356 C58 384 57 401 52 409 C48 417 37 421 21 421 L15 421 L15 436 L58 436 L93 436 L128 436 L127 162 C127 140 129 122 133 106 C137 91 144 79 154 69 C164 59 177 53 195 48 C213 44 236 41 263 41 C283 41 302 43 318 47 C335 51 357 58 384 68 L384 110 L384 356 C384 384 383 401 378 409 C374 417 364 421 348 421 L341 421 L341 436 L384 436 L419 436 L454 436 L454 129 L454 86 C454 78 455 73 456 69 C458 65 459 63 462 60 C466 58 469 55 475 52 C481 50 489 45 497 39 L497 39 Z " />
<glyph glyph-name="ucircumflex" unicode="&#xfb;" horiz-adv-x="532" d="M497 39 L497 30 L398 0 L384 0 L384 18 L384 60 C352 48 325 38 303 30 C281 22 263 16 248 10 C232 4 219 -1 208 -5 C178 -5 154 -3 134 3 C115 9 100 18 88 31 C77 45 70 61 65 81 C61 102 58 127 58 155 L58 356 C58 384 57 401 52 409 C48 417 37 421 21 421 L15 421 L15 436 L58 436 L93 436 L128 436 L127 162 C127 140 129 122 133 106 C137 91 144 79 154 69 C164 59 177 53 195 48 C213 44 236 41 263 41 C283 41 302 43 318 47 C335 51 357 58 384 68 L384 110 L384 356 C384 384 383 401 378 409 C374 417 364 421 348 421 L341 421 L341 436 L384 436 L419 436 L454 436 L454 129 L454 86 C454 78 455 73 456 69 C458 65 459 63 462 60 C466 58 469 55 475 52 C481 50 489 45 497 39 L497 39 Z M256 611 L143 469 L135 475 L234 661 C236 665 238 668 241 673 C245 679 250 681 256 681 C263 681 268 680 271 674 C275 669 277 665 278 661 L376 475 L369 469 L256 611 L256 611 Z " />
<glyph glyph-name="udieresis" unicode="&#xfc;" horiz-adv-x="532" d="M349 506 C334 506 323 510 316 516 C310 523 306 534 306 549 C306 565 310 576 316 582 C323 589 334 592 349 592 C365 592 375 589 381 582 C388 576 391 565 391 549 C391 534 389 523 382 516 C376 510 365 506 349 506 L349 506 Z M163 506 C148 506 137 510 130 516 C124 523 120 534 120 549 C120 565 124 576 130 582 C137 589 148 592 163 592 C179 592 190 589 196 582 C203 576 206 565 206 549 C206 534 203 523 196 516 C190 510 179 506 163 506 L163 506 Z M497 39 L497 30 L398 0 L384 0 L384 18 L384 60 C352 48 325 38 303 30 C281 22 263 16 248 10 C232 4 219 -1 208 -5 C178 -5 154 -3 134 3 C115 9 100 18 88 31 C77 45 70 61 65 81 C61 102 58 127 58 155 L58 356 C58 384 57 401 52 409 C48 417 37 421 21 421 L15 421 L15 436 L58 436 L93 436 L128 436 L127 162 C127 140 129 122 133 106 C137 91 144 79 154 69 C164 59 177 53 195 48 C213 44 236 41 263 41 C283 41 302 43 318 47 C335 51 357 58 384 68 L384 110 L384 356 C384 384 383 401 378 409 C374 417 364 421 348 421 L341 421 L341 436 L384 436 L419 436 L454 436 L454 129 L454 86 C454 78 455 73 456 69 C458 65 459 63 462 60 C466 58 469 55 475 52 C481 50 489 45 497 39 L497 39 Z " />
<glyph glyph-name="Ydieresis" unicode="&#xff;" horiz-adv-x="436" d="M337 506 C322 506 311 510 304 516 C298 523 294 534 294 549 C294 565 298 576 304 582 C311 589 322 592 337 592 C353 592 364 589 370 582 C377 576 380 565 380 549 C380 534 377 523 370 516 C364 510 353 506 337 506 L337 506 Z M152 506 C137 506 126 510 119 516 C113 523 109 534 109 549 C109 565 113 576 119 582 C126 589 137 592 152 592 C168 592 179 589 185 582 C192 576 195 565 195 549 C195 534 192 523 185 516 C179 510 168 506 152 506 L152 506 Z M491 436 L491 421 L485 421 C471 421 461 419 453 413 C446 407 437 395 427 375 L251 -10 L223 -71 C225 -67 226 -63 224 -61 C222 -58 217 -56 209 -55 L236 0 L68 363 C62 376 57 385 52 393 C48 401 44 407 39 411 C35 415 30 418 24 419 C19 421 12 421 4 421 L-2 421 L-2 436 L34 436 L74 436 L114 436 L157 436 L157 421 L152 421 C139 421 132 418 131 410 C131 402 137 384 149 356 L149 356 L273 67 L398 356 L397 356 C409 384 416 401 415 409 C415 417 408 421 394 421 L389 421 C389 421 389 424 389 429 C389 434 389 436 389 436 L432 436 L443 436 L455 436 L491 436 L491 436 Z M223 -71 L223 -72 L223 -71 L223 -71 Z M209 -55 L209 -55 C208 -56 208 -58 207 -60 C207 -62 206 -64 204 -66 L209 -55 L209 -55 Z M209 -55 L209 -55 C199 -53 183 -51 161 -51 C139 -50 108 -50 68 -50 C45 -50 28 -47 18 -41 C8 -35 3 -24 3 -9 C3 2 6 9 11 13 C17 18 26 20 39 20 C47 20 52 20 58 17 C64 15 70 13 75 9 C81 6 85 3 91 0 C97 -2 104 -4 111 -4 C136 -4 155 -4 170 -6 C186 -7 196 -9 203 -13 C211 -16 215 -20 215 -28 C216 -35 214 -44 209 -55 L209 -55 Z " />
<glyph glyph-name="Amacron" unicode="&#x100;" horiz-adv-x="612" d="M138 674 L138 713 L444 713 L444 674 L138 674 L138 674 Z M603 15 L603 0 L569 0 L526 0 L484 0 L427 0 L427 15 L435 15 C453 15 462 18 464 26 C466 34 461 52 448 80 L448 80 L395 201 L149 201 L107 95 C101 79 97 65 93 54 C90 44 88 36 89 30 C91 24 93 20 99 18 C105 16 114 15 124 15 L132 15 L132 0 L69 0 L56 0 L43 0 L6 0 L6 15 L13 15 C27 15 38 18 45 24 C53 30 61 43 69 62 L282 580 L301 580 L533 77 C539 65 544 55 549 46 C555 38 559 32 563 27 C568 23 573 20 578 18 C584 16 590 15 597 15 L603 15 L603 15 Z M386 220 L265 491 L157 221 L386 220 L386 220 Z " />
<glyph glyph-name="amacron" unicode="&#x101;" horiz-adv-x="497" d="M66 543 L66 582 L372 582 L372 543 L66 543 L66 543 Z M476 39 L484 30 C477 23 470 18 464 12 C458 7 452 3 444 -1 C436 -4 428 -6 417 -8 C407 -9 394 -10 378 -10 C352 -10 335 -6 327 4 C319 14 315 31 313 54 C291 33 269 19 243 9 C218 0 188 -5 154 -5 C112 -5 81 2 63 16 C45 31 36 55 36 89 C36 125 49 151 75 169 C102 188 147 201 209 209 L313 222 L313 309 C313 351 308 379 296 396 C285 414 265 422 237 422 L51 422 C108 430 151 435 181 437 C212 440 236 441 252 441 C302 441 336 431 356 408 C377 386 387 347 387 293 L387 85 C387 63 388 47 392 37 C396 28 408 23 426 23 C442 23 452 24 458 26 C464 29 470 33 476 39 L476 39 Z M313 205 L209 187 C171 181 145 172 129 160 C113 148 105 131 105 109 C105 85 112 68 124 57 C137 47 159 41 190 41 C244 41 285 51 313 71 L313 77 L313 205 L313 205 Z " />
<glyph glyph-name="Abreve" unicode="&#x102;" horiz-adv-x="612" d="M168 778 L180 781 C186 756 197 739 214 728 C232 718 257 712 291 712 C326 712 351 717 368 727 C386 738 397 756 403 781 L415 778 C405 737 391 709 372 691 C354 674 327 665 291 665 C257 665 230 673 211 690 C193 708 178 737 168 778 L168 778 Z M603 15 L603 0 L569 0 L526 0 L484 0 L427 0 L427 15 L435 15 C453 15 462 18 464 26 C466 34 461 52 448 80 L448 80 L395 201 L149 201 L107 95 C101 79 97 65 93 54 C90 44 88 36 89 30 C91 24 93 20 99 18 C105 16 114 15 124 15 L132 15 L132 0 L69 0 L56 0 L43 0 L6 0 L6 15 L13 15 C27 15 38 18 45 24 C53 30 61 43 69 62 L282 580 L301 580 L533 77 C539 65 544 55 549 46 C555 38 559 32 563 27 C568 23 573 20 578 18 C584 16 590 15 597 15 L603 15 L603 15 Z M386 220 L265 491 L157 221 L386 220 L386 220 Z " />
<glyph glyph-name="abreve" unicode="&#x103;" horiz-adv-x="497" d="M95 617 L107 620 C114 595 125 578 142 567 C160 557 185 551 219 551 C253 551 278 556 295 566 C313 577 324 595 330 620 L342 617 C332 576 318 548 299 530 C281 513 254 504 219 504 C184 504 157 512 138 529 C120 547 105 576 95 617 L95 617 Z M476 39 L484 30 C477 23 470 18 464 12 C458 7 452 3 444 -1 C436 -4 428 -6 417 -8 C407 -9 394 -10 378 -10 C352 -10 335 -6 327 4 C319 14 315 31 313 54 C291 33 269 19 243 9 C218 0 188 -5 154 -5 C112 -5 81 2 63 16 C45 31 36 55 36 89 C36 125 49 151 75 169 C102 188 147 201 209 209 L313 222 L313 309 C313 351 308 379 296 396 C285 414 265 422 237 422 L51 422 C108 430 151 435 181 437 C212 440 236 441 252 441 C302 441 336 431 356 408 C377 386 387 347 387 293 L387 85 C387 63 388 47 392 37 C396 28 408 23 426 23 C442 23 452 24 458 26 C464 29 470 33 476 39 L476 39 Z M313 205 L209 187 C171 181 145 172 129 160 C113 148 105 131 105 109 C105 85 112 68 124 57 C137 47 159 41 190 41 C244 41 285 51 313 71 L313 77 L313 205 L313 205 Z " />
<glyph glyph-name="Aogonek" unicode="&#x104;" horiz-adv-x="612" d="M603 15 L603 0 L569 0 L526 0 L484 0 C474 -3 463 -9 450 -18 C438 -26 427 -36 415 -49 C404 -61 395 -76 387 -93 C379 -109 375 -127 375 -147 C375 -171 381 -189 394 -199 C408 -209 430 -214 461 -214 C478 -214 491 -213 500 -210 C510 -206 517 -201 523 -194 L528 -200 C518 -212 507 -220 494 -226 C482 -231 466 -234 446 -234 C404 -234 376 -228 358 -216 C341 -204 332 -183 332 -155 C332 -138 336 -123 343 -107 C351 -91 360 -76 371 -63 C383 -49 395 -37 409 -27 C423 -16 437 -7 450 0 L427 0 L427 15 L435 15 C453 15 462 18 464 26 C466 34 461 52 448 80 L448 80 L395 201 L149 201 L107 95 C101 79 97 65 93 54 C90 44 88 36 89 30 C91 24 93 20 99 18 C105 16 114 15 124 15 L132 15 L132 0 L69 0 L56 0 L43 0 L6 0 L6 15 L13 15 C27 15 38 18 45 24 C53 30 61 43 69 62 L282 580 L301 580 L533 77 C539 65 544 55 549 46 C555 38 559 32 563 27 C568 23 573 20 578 18 C584 16 590 15 597 15 L603 15 L603 15 Z M386 220 L265 491 L157 221 L386 220 L386 220 Z " />
<glyph glyph-name="aogonek" unicode="&#x105;" horiz-adv-x="497" d="M476 39 L484 30 C473 19 464 10 454 4 C445 -2 432 -6 415 -8 C401 -22 390 -38 379 -58 C369 -78 363 -100 363 -126 C363 -158 369 -180 382 -194 C396 -207 418 -214 449 -214 C466 -214 479 -213 488 -210 C498 -206 505 -201 511 -194 L516 -200 C506 -212 495 -220 482 -226 C470 -231 454 -234 434 -234 C392 -234 364 -226 346 -211 C329 -195 320 -170 320 -134 C320 -109 326 -87 338 -66 C351 -44 366 -26 383 -10 L378 -10 C352 -10 335 -6 327 4 C319 14 315 31 313 54 C291 33 269 19 243 9 C218 0 188 -5 154 -5 C112 -5 81 2 63 16 C45 31 36 55 36 89 C36 125 49 151 75 169 C102 188 147 201 209 209 L313 222 L313 309 C313 351 308 379 296 396 C285 414 265 422 237 422 L51 422 C108 430 151 435 181 437 C212 440 236 441 252 441 C302 441 336 431 356 408 C377 386 387 347 387 293 L387 85 C387 63 388 47 392 37 C396 28 408 23 426 23 L426 23 C444 33 459 41 472 46 L472 35 L476 39 L476 39 Z M313 205 L209 187 C171 181 145 172 129 160 C113 148 105 131 105 109 C105 85 112 68 124 57 C137 47 159 41 190 41 C244 41 285 51 313 71 L313 77 L313 205 L313 205 Z " />
<glyph glyph-name="Cacute" unicode="&#x106;" horiz-adv-x="717" d="M351 597 L343 603 L427 753 C439 773 447 786 452 794 C458 802 461 806 463 806 C467 806 471 805 475 803 C480 801 484 800 488 796 C492 793 495 790 498 786 C502 783 503 780 503 777 C503 775 500 770 494 762 C488 754 478 742 463 725 L351 597 L351 597 Z M442 15 L442 15 C496 16 536 21 566 31 C596 41 620 58 636 82 C639 86 641 89 643 92 C645 96 648 99 650 102 L657 102 C659 102 661 101 663 101 L657 9 L656 19 L656 19 L657 9 C643 7 627 5 610 3 C594 1 575 1 554 -1 C534 -2 511 -3 485 -4 C459 -4 430 -5 398 -5 C336 -5 284 0 240 10 C197 21 162 37 134 60 C107 84 88 114 75 150 C63 187 56 231 56 283 C56 336 62 381 74 417 C87 454 107 483 134 506 C162 530 197 546 240 556 C284 567 336 572 398 572 C430 572 458 572 484 571 C510 571 534 571 554 569 C575 568 594 566 610 564 C627 562 643 560 657 557 L656 547 L656 547 L657 557 L663 466 C661 466 659 466 657 465 L650 465 C648 469 645 472 643 475 C641 479 639 482 636 485 C620 509 601 525 578 535 C556 545 525 551 487 551 L487 551 C474 552 460 552 445 552 C431 552 415 552 398 552 C352 552 313 548 280 538 C248 528 221 513 200 491 C180 469 165 441 155 407 C146 373 141 332 141 283 C141 235 146 193 155 159 C165 125 180 98 200 76 C221 54 247 39 279 29 C312 19 352 14 398 14 L442 14 L442 15 L442 15 Z " />
<glyph glyph-name="cacute" unicode="&#x107;" horiz-adv-x="495" d="M226 467 L218 473 L302 622 C314 642 322 655 327 663 C333 672 336 676 338 676 C342 676 346 675 350 673 C355 671 359 670 363 666 C367 663 370 660 373 656 C377 653 378 650 378 647 C378 644 375 639 369 631 C363 623 353 611 338 594 L226 467 L226 467 Z M444 53 C420 32 393 17 363 8 C333 0 295 -5 247 -5 C211 -5 182 -2 156 6 C131 14 111 26 95 42 C79 59 69 80 61 106 C54 133 50 165 50 203 C50 247 55 283 64 313 C74 343 88 367 108 386 C128 406 154 420 186 428 C218 437 257 441 303 441 C352 441 386 435 408 420 C430 406 443 381 446 347 C446 336 444 328 439 323 C435 319 427 316 415 316 C404 316 396 318 390 323 C385 329 382 338 380 350 C378 376 370 394 357 405 C345 417 324 422 295 422 C233 422 189 408 163 378 C137 349 124 300 124 230 C124 196 128 167 134 142 C141 118 151 98 165 82 C180 67 199 57 222 49 C246 42 274 38 306 38 C344 38 373 40 393 43 C413 47 428 52 438 60 L444 53 L444 53 Z " />
<glyph glyph-name="Ccircumflex" unicode="&#x108;" horiz-adv-x="717" d="M442 15 L442 15 C496 16 536 21 566 31 C596 41 620 58 636 82 C639 86 641 89 643 92 C645 96 648 99 650 102 L657 102 C659 102 661 101 663 101 L657 9 L656 19 L656 19 L657 9 C643 7 627 5 610 3 C594 1 575 1 554 -1 C534 -2 511 -3 485 -4 C459 -4 430 -5 398 -5 C336 -5 284 0 240 10 C197 21 162 37 134 60 C107 84 88 114 75 150 C63 187 56 231 56 283 C56 336 62 381 74 417 C87 454 107 483 134 506 C162 530 197 546 240 556 C284 567 336 572 398 572 C430 572 458 572 484 571 C510 571 534 571 554 569 C575 568 594 566 610 564 C627 562 643 560 657 557 L656 547 L656 547 L657 557 L663 466 C661 466 659 466 657 465 L650 465 C648 469 645 472 643 475 C641 479 639 482 636 485 C620 509 601 525 578 535 C556 545 525 551 487 551 L487 551 C474 552 460 552 445 552 C431 552 415 552 398 552 C352 552 313 548 280 538 C248 528 221 513 200 491 C180 469 165 441 155 407 C146 373 141 332 141 283 C141 235 146 193 155 159 C165 125 180 98 200 76 C221 54 247 39 279 29 C312 19 352 14 398 14 L442 14 L442 15 L442 15 Z M398 742 L284 600 L277 606 L375 792 C377 796 380 799 383 804 C387 810 392 812 398 812 C404 812 409 811 412 805 C416 800 418 796 420 792 L518 606 L511 600 L398 742 L398 742 Z " />
<glyph glyph-name="Cdot" unicode="&#x10a;" horiz-adv-x="717" d="M398 637 C383 637 372 641 365 647 C359 654 355 665 355 680 C355 696 359 706 365 712 C372 719 383 722 398 722 C414 722 424 720 430 713 C437 707 440 696 440 680 C440 665 438 654 431 647 C425 641 414 637 398 637 L398 637 Z M442 15 L442 15 C496 16 536 21 566 31 C596 41 620 58 636 82 C639 86 641 89 643 92 C645 96 648 99 650 102 L657 102 C659 102 661 101 663 101 L657 9 L656 19 L656 19 L657 9 C643 7 627 5 610 3 C594 1 575 1 554 -1 C534 -2 511 -3 485 -4 C459 -4 430 -5 398 -5 C336 -5 284 0 240 10 C197 21 162 37 134 60 C107 84 88 114 75 150 C63 187 56 231 56 283 C56 336 62 381 74 417 C87 454 107 483 134 506 C162 530 197 546 240 556 C284 567 336 572 398 572 C430 572 458 572 484 571 C510 571 534 571 554 569 C575 568 594 566 610 564 C627 562 643 560 657 557 L656 547 L656 547 L657 557 L663 466 C661 466 659 466 657 465 L650 465 C648 469 645 472 643 475 C641 479 639 482 636 485 C620 509 601 525 578 535 C556 545 525 551 487 551 L487 551 C474 552 460 552 445 552 C431 552 415 552 398 552 C352 552 313 548 280 538 C248 528 221 513 200 491 C180 469 165 441 155 407 C146 373 141 332 141 283 C141 235 146 193 155 159 C165 125 180 98 200 76 C221 54 247 39 279 29 C312 19 352 14 398 14 L442 14 L442 15 L442 15 Z " />
<glyph glyph-name="cdot" unicode="&#x10b;" horiz-adv-x="495" d="M303 506 C288 506 277 510 270 516 C264 523 260 534 260 549 C260 565 264 576 270 582 C277 589 288 592 303 592 C319 592 330 589 336 582 C343 576 346 565 346 549 C346 534 343 523 336 516 C330 510 319 506 303 506 L303 506 Z M444 53 C420 32 393 17 363 8 C333 0 295 -5 247 -5 C211 -5 182 -2 156 6 C131 14 111 26 95 42 C79 59 69 80 61 106 C54 133 50 165 50 203 C50 247 55 283 64 313 C74 343 88 367 108 386 C128 406 154 420 186 428 C218 437 257 441 303 441 C352 441 386 435 408 420 C430 406 443 381 446 347 C446 336 444 328 439 323 C435 319 427 316 415 316 C404 316 396 318 390 323 C385 329 382 338 380 350 C378 376 370 394 357 405 C345 417 324 422 295 422 C233 422 189 408 163 378 C137 349 124 300 124 230 C124 196 128 167 134 142 C141 118 151 98 165 82 C180 67 199 57 222 49 C246 42 274 38 306 38 C344 38 373 40 393 43 C413 47 428 52 438 60 L444 53 L444 53 Z " />
<glyph glyph-name="Ccaron" unicode="&#x10c;" horiz-adv-x="717" d="M442 15 L442 15 C496 16 536 21 566 31 C596 41 620 58 636 82 C639 86 641 89 643 92 C645 96 648 99 650 102 L657 102 C659 102 661 101 663 101 L657 9 L656 19 L656 19 L657 9 C643 7 627 5 610 3 C594 1 575 1 554 -1 C534 -2 511 -3 485 -4 C459 -4 430 -5 398 -5 C336 -5 284 0 240 10 C197 21 162 37 134 60 C107 84 88 114 75 150 C63 187 56 231 56 283 C56 336 62 381 74 417 C87 454 107 483 134 506 C162 530 197 546 240 556 C284 567 336 572 398 572 C430 572 458 572 484 571 C510 571 534 571 554 569 C575 568 594 566 610 564 C627 562 643 560 657 557 L656 547 L656 547 L657 557 L663 466 C661 466 659 466 657 465 L650 465 C648 469 645 472 643 475 C641 479 639 482 636 485 C620 509 601 525 578 535 C556 545 525 551 487 551 L487 551 C474 552 460 552 445 552 C431 552 415 552 398 552 C352 552 313 548 280 538 C248 528 221 513 200 491 C180 469 165 441 155 407 C146 373 141 332 141 283 C141 235 146 193 155 159 C165 125 180 98 200 76 C221 54 247 39 279 29 C312 19 352 14 398 14 L442 14 L442 15 L442 15 Z M398 692 L284 834 L277 828 L375 642 C377 639 380 636 383 630 C387 625 392 622 398 622 C404 622 409 624 412 629 C416 635 418 639 420 642 L518 828 L511 834 L398 692 L398 692 Z " />
<glyph glyph-name="ccaron" unicode="&#x10d;" horiz-adv-x="495" d="M444 53 C420 32 393 17 363 8 C333 0 295 -5 247 -5 C211 -5 182 -2 156 6 C131 14 111 26 95 42 C79 59 69 80 61 106 C54 133 50 165 50 203 C50 247 55 283 64 313 C74 343 88 367 108 386 C128 406 154 420 186 428 C218 437 257 441 303 441 C352 441 386 435 408 420 C430 406 443 381 446 347 C446 336 444 328 439 323 C435 319 427 316 415 316 C404 316 396 318 390 323 C385 329 382 338 380 350 C378 376 370 394 357 405 C345 417 324 422 295 422 C233 422 189 408 163 378 C137 349 124 300 124 230 C124 196 128 167 134 142 C141 118 151 98 165 82 C180 67 199 57 222 49 C246 42 274 38 306 38 C344 38 373 40 393 43 C413 47 428 52 438 60 L444 53 L444 53 Z M303 561 L190 704 L183 698 L281 511 C283 508 285 505 288 500 C292 496 297 493 303 492 C310 492 315 493 318 498 C322 504 324 508 325 511 L423 698 L416 704 L303 561 L303 561 Z " />
<glyph glyph-name="Dcaron" unicode="&#x10e;" horiz-adv-x="682" d="M46 552 L46 567 L89 567 L128 567 L166 567 L285 567 C348 567 401 563 445 552 C489 542 524 525 552 502 C580 480 601 450 613 414 C626 378 632 335 632 283 C632 232 627 188 615 152 C604 116 587 88 562 65 C538 43 507 27 467 16 C428 6 380 0 324 0 L166 0 L128 0 L89 0 L46 0 L46 15 L52 15 C68 15 78 19 82 27 C87 35 89 53 89 80 L89 487 C89 515 88 532 83 540 C79 548 68 552 52 552 L46 552 L46 552 Z M322 692 L208 834 L201 828 L299 642 C301 639 304 636 307 630 C311 625 316 622 322 622 C329 622 333 624 336 629 C340 635 342 639 344 642 L442 828 L435 834 L322 692 L322 692 Z M166 19 L324 19 C366 19 401 23 430 33 C460 43 484 58 502 79 C521 101 534 128 542 161 C551 195 555 235 555 283 C555 331 551 371 541 405 C531 439 516 466 494 487 C472 509 444 524 410 533 C376 543 335 547 285 547 L166 547 L166 19 L166 19 Z " />
<glyph glyph-name="dcaron" unicode="&#x10f;" horiz-adv-x="606" d="M539 39 L539 30 L440 0 L426 0 L426 18 L426 48 C395 39 368 31 346 24 C324 18 307 12 293 7 C277 3 263 -1 253 -5 C217 -5 188 -1 162 6 C137 14 117 24 101 40 C85 56 74 77 66 102 C59 128 55 158 55 194 C55 239 59 277 67 308 C76 340 89 364 107 384 C126 404 149 418 178 427 C208 437 243 441 285 441 C319 441 347 441 370 438 C394 436 412 433 426 429 L426 527 L426 575 C426 582 426 587 424 590 C423 594 422 596 418 598 C415 601 411 604 405 606 C399 609 392 613 383 617 L383 626 L482 656 L496 656 L496 638 L496 546 L496 129 L496 86 C496 78 497 73 498 69 C500 65 501 63 504 60 C508 58 511 55 517 52 C523 50 531 45 539 39 L539 39 Z M620 566 L553 415 L544 418 L576 582 C579 596 582 608 584 621 C587 635 589 646 592 656 C596 666 598 674 602 680 C606 686 611 689 615 689 C623 689 633 689 643 687 C654 685 659 681 659 673 C659 669 656 659 650 640 C644 622 634 597 620 566 L620 566 Z M426 110 L426 409 C414 413 396 416 372 418 C349 421 319 422 282 422 C254 422 231 419 211 411 C191 404 175 392 163 376 C151 360 143 340 137 314 C131 289 128 258 128 221 C128 155 140 108 165 80 C191 52 233 38 292 38 C318 38 342 40 362 42 C383 45 404 50 426 57 L426 110 L426 110 Z " />
<glyph glyph-name="Emacron" unicode="&#x112;" horiz-adv-x="543" d="M114 674 L114 713 L420 713 L420 674 L114 674 L114 674 Z M383 355 L395 355 L395 312 L395 302 L395 293 L395 244 L383 244 C379 254 375 263 370 269 C366 276 360 281 352 284 C344 288 334 290 322 291 C310 293 295 293 275 293 L161 293 L161 19 L313 19 C335 19 352 19 366 21 C381 23 394 27 404 31 C415 36 425 43 434 51 C444 60 454 71 465 85 L474 97 L485 97 C482 81 480 67 476 53 C473 40 470 26 466 10 C466 8 466 7 465 5 C465 4 464 2 464 0 L460 0 L384 0 L161 0 L122 0 L83 0 L40 0 L40 15 L46 15 C62 15 72 19 76 27 C81 35 83 53 83 80 L83 487 C83 515 82 532 77 540 C73 548 62 552 46 552 L40 552 L40 567 L83 567 L122 567 L161 567 L382 567 L450 567 L462 567 C462 563 463 560 463 557 C464 542 465 528 465 514 C466 501 467 486 468 470 L457 470 L450 482 C442 496 433 507 425 515 C417 524 409 531 398 535 C388 540 375 542 361 544 C347 546 330 547 308 547 L161 547 L161 312 L275 312 C295 312 310 312 322 313 C334 315 344 317 351 320 C359 324 365 327 369 333 C374 339 379 347 383 355 L383 355 Z " />
<glyph glyph-name="emacron" unicode="&#x113;" horiz-adv-x="502" d="M121 543 L121 582 L427 582 L427 543 L121 543 L121 543 Z M451 53 C426 32 398 17 368 8 C338 0 299 -5 251 -5 C215 -5 184 -2 158 6 C133 14 112 26 96 42 C80 59 69 80 61 106 C54 133 50 165 50 203 C50 247 54 283 62 313 C70 343 83 367 101 386 C119 406 142 420 170 428 C199 437 234 441 274 441 C339 441 384 429 411 402 C439 376 452 331 452 267 L386 267 L125 267 C125 261 124 255 124 249 C124 243 124 237 124 230 C124 196 128 167 134 142 C141 118 152 98 166 82 C181 67 199 57 223 49 C247 42 276 38 309 38 C349 38 379 40 399 43 C420 47 435 52 444 60 L451 53 L451 53 Z M386 292 L386 292 L353 291 C365 292 373 294 378 298 C384 303 387 311 387 322 L387 325 C387 361 379 386 361 400 C343 415 313 422 270 422 C224 422 191 412 168 390 C146 368 132 332 126 280 L386 292 L386 292 Z " />
<glyph glyph-name="Ebreve" unicode="&#x114;" horiz-adv-x="543" d="M143 778 L155 781 C162 756 173 739 190 728 C208 718 233 712 267 712 C301 712 326 717 343 727 C361 738 372 756 378 781 L390 778 C380 737 366 709 347 691 C329 674 302 665 267 665 C232 665 205 673 186 690 C168 708 153 737 143 778 L143 778 Z M383 355 L395 355 L395 312 L395 302 L395 293 L395 244 L383 244 C379 254 375 263 370 269 C366 276 360 281 352 284 C344 288 334 290 322 291 C310 293 295 293 275 293 L161 293 L161 19 L313 19 C335 19 352 19 366 21 C381 23 394 27 404 31 C415 36 425 43 434 51 C444 60 454 71 465 85 L474 97 L485 97 C482 81 480 67 476 53 C473 40 470 26 466 10 C466 8 466 7 465 5 C465 4 464 2 464 0 L460 0 L384 0 L161 0 L122 0 L83 0 L40 0 L40 15 L46 15 C62 15 72 19 76 27 C81 35 83 53 83 80 L83 487 C83 515 82 532 77 540 C73 548 62 552 46 552 L40 552 L40 567 L83 567 L122 567 L161 567 L382 567 L450 567 L462 567 C462 563 463 560 463 557 C464 542 465 528 465 514 C466 501 467 486 468 470 L457 470 L450 482 C442 496 433 507 425 515 C417 524 409 531 398 535 C388 540 375 542 361 544 C347 546 330 547 308 547 L161 547 L161 312 L275 312 C295 312 310 312 322 313 C334 315 344 317 351 320 C359 324 365 327 369 333 C374 339 379 347 383 355 L383 355 Z " />
<glyph glyph-name="ebreve" unicode="&#x115;" horiz-adv-x="502" d="M150 647 L162 650 C169 625 180 608 197 597 C215 587 240 581 274 581 C308 581 333 586 350 596 C368 607 379 625 385 650 L397 647 C387 606 373 578 354 560 C336 543 309 534 274 534 C239 534 212 542 193 559 C175 577 160 606 150 647 L150 647 Z M451 53 C426 32 398 17 368 8 C338 0 299 -5 251 -5 C215 -5 184 -2 158 6 C133 14 112 26 96 42 C80 59 69 80 61 106 C54 133 50 165 50 203 C50 247 54 283 62 313 C70 343 83 367 101 386 C119 406 142 420 170 428 C199 437 234 441 274 441 C339 441 384 429 411 402 C439 376 452 331 452 267 L386 267 L125 267 C125 261 124 255 124 249 C124 243 124 237 124 230 C124 196 128 167 134 142 C141 118 152 98 166 82 C181 67 199 57 223 49 C247 42 276 38 309 38 C349 38 379 40 399 43 C420 47 435 52 444 60 L451 53 L451 53 Z M386 292 L386 292 L353 291 C365 292 373 294 378 298 C384 303 387 311 387 322 L387 325 C387 361 379 386 361 400 C343 415 313 422 270 422 C224 422 191 412 168 390 C146 368 132 332 126 280 L386 292 L386 292 Z " />
<glyph glyph-name="Edot" unicode="&#x116;" horiz-adv-x="543" d="M267 637 C252 637 241 641 234 647 C228 654 224 665 224 680 C224 696 228 706 234 712 C241 719 252 722 267 722 C283 722 293 720 299 713 C306 707 309 696 309 680 C309 665 307 654 300 647 C294 641 283 637 267 637 L267 637 Z M383 355 L395 355 L395 312 L395 302 L395 293 L395 244 L383 244 C379 254 375 263 370 269 C366 276 360 281 352 284 C344 288 334 290 322 291 C310 293 295 293 275 293 L161 293 L161 19 L313 19 C335 19 352 19 366 21 C381 23 394 27 404 31 C415 36 425 43 434 51 C444 60 454 71 465 85 L474 97 L485 97 C482 81 480 67 476 53 C473 40 470 26 466 10 C466 8 466 7 465 5 C465 4 464 2 464 0 L460 0 L384 0 L161 0 L122 0 L83 0 L40 0 L40 15 L46 15 C62 15 72 19 76 27 C81 35 83 53 83 80 L83 487 C83 515 82 532 77 540 C73 548 62 552 46 552 L40 552 L40 567 L83 567 L122 567 L161 567 L382 567 L450 567 L462 567 C462 563 463 560 463 557 C464 542 465 528 465 514 C466 501 467 486 468 470 L457 470 L450 482 C442 496 433 507 425 515 C417 524 409 531 398 535 C388 540 375 542 361 544 C347 546 330 547 308 547 L161 547 L161 312 L275 312 C295 312 310 312 322 313 C334 315 344 317 351 320 C359 324 365 327 369 333 C374 339 379 347 383 355 L383 355 Z " />
<glyph glyph-name="edot" unicode="&#x117;" horiz-adv-x="502" d="M274 506 C259 506 248 510 241 516 C235 523 231 534 231 549 C231 565 235 576 241 582 C248 589 259 592 274 592 C290 592 301 589 307 582 C314 576 317 565 317 549 C317 534 314 523 307 516 C301 510 290 506 274 506 L274 506 Z M451 53 C426 32 398 17 368 8 C338 0 299 -5 251 -5 C215 -5 184 -2 158 6 C133 14 112 26 96 42 C80 59 69 80 61 106 C54 133 50 165 50 203 C50 247 54 283 62 313 C70 343 83 367 101 386 C119 406 142 420 170 428 C199 437 234 441 274 441 C339 441 384 429 411 402 C439 376 452 331 452 267 L386 267 L125 267 C125 261 124 255 124 249 C124 243 124 237 124 230 C124 196 128 167 134 142 C141 118 152 98 166 82 C181 67 199 57 223 49 C247 42 276 38 309 38 C349 38 379 40 399 43 C420 47 435 52 444 60 L451 53 L451 53 Z M386 292 L386 292 L353 291 C365 292 373 294 378 298 C384 303 387 311 387 322 L387 325 C387 361 379 386 361 400 C343 415 313 422 270 422 C224 422 191 412 168 390 C146 368 132 332 126 280 L386 292 L386 292 Z " />
<glyph glyph-name="Eogonek" unicode="&#x118;" horiz-adv-x="543" d="M383 355 L395 355 L395 312 L395 302 L395 293 L395 244 L383 244 C379 254 375 263 370 269 C366 276 360 281 352 284 C344 288 334 290 322 291 C310 293 295 293 275 293 L161 293 L161 19 L313 19 C335 19 352 19 366 21 C381 23 394 27 404 31 C415 36 425 43 434 51 C444 60 454 71 465 85 L474 97 L485 97 C482 81 480 67 476 53 C473 40 470 26 466 10 C466 8 466 7 465 5 C465 4 464 2 464 0 L460 0 C450 -3 440 -9 427 -18 C415 -26 403 -36 391 -49 C380 -61 371 -76 363 -93 C355 -109 351 -127 351 -147 C351 -171 357 -189 370 -199 C384 -209 406 -214 437 -214 C454 -214 467 -213 476 -210 C486 -206 493 -201 499 -194 L504 -200 C494 -212 483 -220 470 -226 C458 -231 442 -234 422 -234 C380 -234 352 -228 334 -216 C317 -204 308 -183 308 -155 C308 -138 312 -123 319 -107 C327 -91 336 -76 347 -63 C359 -49 371 -37 385 -27 C399 -16 413 -7 426 0 L384 0 L161 0 L122 0 L83 0 L40 0 L40 15 L46 15 C62 15 72 19 76 27 C81 35 83 53 83 80 L83 487 C83 515 82 532 77 540 C73 548 62 552 46 552 L40 552 L40 567 L83 567 L122 567 L161 567 L382 567 L450 567 L462 567 C462 563 463 560 463 557 C464 542 465 528 465 514 C466 501 467 486 468 470 L457 470 L450 482 C442 496 433 507 425 515 C417 524 409 531 398 535 C388 540 375 542 361 544 C347 546 330 547 308 547 L161 547 L161 312 L275 312 C295 312 310 312 322 313 C334 315 344 317 351 320 C359 324 365 327 369 333 C374 339 379 347 383 355 L383 355 Z " />
<glyph glyph-name="eogonek" unicode="&#x119;" horiz-adv-x="502" d="M317 -2 C307 -5 297 -11 284 -20 C272 -28 260 -38 248 -51 C237 -63 228 -77 220 -94 C212 -110 208 -128 208 -148 C208 -172 214 -189 227 -199 C241 -209 263 -214 294 -214 C311 -214 324 -213 333 -210 C343 -206 350 -201 356 -194 L361 -200 C351 -212 340 -220 327 -226 C315 -231 299 -234 279 -234 C237 -234 209 -228 191 -216 C174 -204 165 -184 165 -156 C165 -139 168 -124 175 -109 C183 -93 192 -79 202 -67 C213 -54 224 -42 238 -32 C252 -21 266 -12 278 -5 L251 -5 C215 -5 184 -2 158 6 C133 14 112 26 96 42 C80 59 69 80 61 106 C54 133 50 165 50 203 C50 247 54 283 62 313 C70 343 83 367 101 386 C119 406 142 420 170 428 C199 437 234 441 274 441 C339 441 384 429 411 402 C439 376 452 331 452 267 L386 267 L125 267 C125 261 124 255 124 249 C124 243 124 237 124 230 C124 196 128 167 134 142 C141 118 152 98 166 82 C181 67 199 57 223 49 C247 42 276 38 309 38 C349 38 379 40 399 43 C420 47 435 52 444 60 L451 53 C433 38 414 27 392 17 C371 8 346 2 317 -2 L317 -2 L317 -2 Z M386 292 L386 292 L353 291 C365 292 373 294 378 298 C384 303 387 311 387 322 L387 325 C387 361 379 386 361 400 C343 415 313 422 270 422 C224 422 191 412 168 390 C146 368 132 332 126 280 L386 292 L386 292 Z " />
<glyph glyph-name="Ecaron" unicode="&#x11a;" horiz-adv-x="543" d="M383 355 L395 355 L395 312 L395 302 L395 293 L395 244 L383 244 C379 254 375 263 370 269 C366 276 360 281 352 284 C344 288 334 290 322 291 C310 293 295 293 275 293 L161 293 L161 19 L313 19 C335 19 352 19 366 21 C381 23 394 27 404 31 C415 36 425 43 434 51 C444 60 454 71 465 85 L474 97 L485 97 C482 81 480 67 476 53 C473 40 470 26 466 10 C466 8 466 7 465 5 C465 4 464 2 464 0 L460 0 L384 0 L161 0 L122 0 L83 0 L40 0 L40 15 L46 15 C62 15 72 19 76 27 C81 35 83 53 83 80 L83 487 C83 515 82 532 77 540 C73 548 62 552 46 552 L40 552 L40 567 L83 567 L122 567 L161 567 L382 567 L450 567 L462 567 C462 563 463 560 463 557 C464 542 465 528 465 514 C466 501 467 486 468 470 L457 470 L450 482 C442 496 433 507 425 515 C417 524 409 531 398 535 C388 540 375 542 361 544 C347 546 330 547 308 547 L161 547 L161 312 L275 312 C295 312 310 312 322 313 C334 315 344 317 351 320 C359 324 365 327 369 333 C374 339 379 347 383 355 L383 355 Z M267 692 L153 834 L146 828 L245 642 C247 639 249 636 252 630 C256 625 261 622 267 622 C274 622 278 624 281 629 C285 635 287 639 289 642 L387 828 L380 834 L267 692 L267 692 Z " />
<glyph glyph-name="ecaron" unicode="&#x11b;" horiz-adv-x="502" d="M451 53 C426 32 398 17 368 8 C338 0 299 -5 251 -5 C215 -5 184 -2 158 6 C133 14 112 26 96 42 C80 59 69 80 61 106 C54 133 50 165 50 203 C50 247 54 283 62 313 C70 343 83 367 101 386 C119 406 142 420 170 428 C199 437 234 441 274 441 C339 441 384 429 411 402 C439 376 452 331 452 267 L386 267 L125 267 C125 261 124 255 124 249 C124 243 124 237 124 230 C124 196 128 167 134 142 C141 118 152 98 166 82 C181 67 199 57 223 49 C247 42 276 38 309 38 C349 38 379 40 399 43 C420 47 435 52 444 60 L451 53 L451 53 Z M274 562 L161 704 L153 698 L252 511 C254 508 256 505 259 500 C263 496 268 493 274 492 C281 492 286 493 289 498 C293 504 295 508 296 511 L394 698 L387 704 L274 562 L274 562 Z M386 292 L386 292 L353 291 C365 292 373 294 378 298 C384 303 387 311 387 322 L387 325 C387 361 379 386 361 400 C343 415 313 422 270 422 C224 422 191 412 168 390 C146 368 132 332 126 280 L386 292 L386 292 Z " />
<glyph glyph-name="Gcircumflex" unicode="&#x11c;" horiz-adv-x="780" d="M688 266 L688 251 L681 251 C668 252 660 249 654 243 C649 237 646 225 645 205 L645 186 L645 56 C607 34 569 19 529 9 C490 0 443 -5 388 -5 C328 -5 278 0 235 10 C193 21 159 37 132 60 C106 84 86 114 74 150 C62 187 56 231 56 283 C56 336 62 381 74 417 C86 454 105 483 131 506 C158 530 192 546 234 556 C277 567 328 572 388 572 C450 572 498 572 536 569 C574 567 608 563 637 557 L636 547 L636 547 L637 557 L643 466 C641 466 639 466 637 465 L630 465 C628 469 625 472 623 475 C621 479 619 482 616 485 C602 505 586 520 566 530 C547 541 522 548 491 551 C477 552 462 552 444 552 C427 552 408 552 388 552 C344 552 306 548 274 538 C243 528 218 513 198 491 C178 469 165 441 155 407 C146 373 141 332 141 283 C141 235 145 193 154 159 C164 125 177 98 197 76 C217 54 243 39 274 29 C306 19 344 14 388 14 C426 14 459 17 489 21 C519 26 548 34 575 44 L575 186 C575 214 574 232 569 240 C565 248 554 252 538 251 L531 251 L531 266 L575 266 L610 266 L645 266 L688 266 L688 266 Z M388 742 L274 600 L267 606 L365 792 C367 796 370 799 373 804 C377 810 382 812 388 812 C394 812 399 811 402 805 C406 800 408 796 410 792 L508 606 L501 600 L388 742 L388 742 Z " />
<glyph glyph-name="Gbreve" unicode="&#x11e;" horiz-adv-x="780" d="M264 778 L276 781 C282 756 293 739 310 728 C328 718 354 712 388 712 C422 712 447 717 464 727 C482 738 493 756 499 781 L511 778 C501 737 487 709 468 691 C450 674 423 665 388 665 C353 665 326 673 307 690 C289 708 274 737 264 778 L264 778 Z M688 266 L688 251 L681 251 C668 252 660 249 654 243 C649 237 646 225 645 205 L645 186 L645 56 C607 34 569 19 529 9 C490 0 443 -5 388 -5 C328 -5 278 0 235 10 C193 21 159 37 132 60 C106 84 86 114 74 150 C62 187 56 231 56 283 C56 336 62 381 74 417 C86 454 105 483 131 506 C158 530 192 546 234 556 C277 567 328 572 388 572 C450 572 498 572 536 569 C574 567 608 563 637 557 L636 547 L636 547 L637 557 L643 466 C641 466 639 466 637 465 L630 465 C628 469 625 472 623 475 C621 479 619 482 616 485 C602 505 586 520 566 530 C547 541 522 548 491 551 C477 552 462 552 444 552 C427 552 408 552 388 552 C344 552 306 548 274 538 C243 528 218 513 198 491 C178 469 165 441 155 407 C146 373 141 332 141 283 C141 235 145 193 154 159 C164 125 177 98 197 76 C217 54 243 39 274 29 C306 19 344 14 388 14 C426 14 459 17 489 21 C519 26 548 34 575 44 L575 186 C575 214 574 232 569 240 C565 248 554 252 538 251 L531 251 L531 266 L575 266 L610 266 L645 266 L688 266 L688 266 Z " />
<glyph glyph-name="gbreve" unicode="&#x11f;" horiz-adv-x="476" d="M120 647 L132 650 C138 625 149 608 166 597 C184 587 210 581 244 581 C278 581 303 586 320 596 C338 607 349 625 355 650 L367 647 C357 606 343 578 324 560 C306 543 279 534 244 534 C209 534 182 542 163 559 C145 577 130 606 120 647 L120 647 Z M477 436 L477 397 L395 398 C414 378 423 346 423 304 C423 254 411 220 383 198 C356 177 310 166 244 166 L187 166 C153 166 130 164 116 160 C102 156 95 150 95 140 C95 131 103 126 117 122 C132 119 157 118 193 120 L276 123 C342 123 387 118 415 108 C443 98 457 81 457 57 C457 36 452 18 442 3 C432 -11 416 -23 393 -33 C371 -42 342 -48 306 -53 C271 -57 228 -60 176 -60 C120 -60 82 -56 58 -48 C35 -39 23 -25 23 -5 C23 7 29 16 42 26 C56 36 77 46 107 56 C86 60 72 66 62 75 C53 85 48 97 48 113 C48 133 55 148 70 158 C86 168 111 175 147 177 C117 186 96 200 83 220 C71 241 64 269 64 304 C64 354 78 388 105 409 C133 431 179 441 244 441 C289 441 325 436 351 426 L351 427 L477 436 L477 436 Z M131 304 C131 260 139 229 156 210 C174 192 203 182 244 182 C286 182 314 191 331 209 C349 228 357 260 357 304 C357 348 350 380 332 398 C315 417 286 426 244 426 C203 426 175 417 157 398 C140 380 131 348 131 304 L131 304 Z M131 54 L131 54 C110 47 95 40 85 31 C75 23 70 13 70 3 C70 -12 78 -23 95 -30 C113 -36 142 -40 184 -40 C265 -40 321 -35 355 -26 C389 -16 406 0 406 22 C406 35 395 44 372 49 C350 55 311 57 257 57 L196 54 C184 54 172 54 161 53 C151 53 141 53 131 54 L131 54 Z " />
<glyph glyph-name="Gdot" unicode="&#x120;" horiz-adv-x="780" d="M388 637 C373 637 362 641 355 647 C349 654 345 665 345 680 C345 696 349 706 355 712 C362 719 373 722 388 722 C404 722 414 720 420 713 C427 707 430 696 430 680 C430 665 428 654 421 647 C415 641 404 637 388 637 L388 637 Z M688 266 L688 251 L681 251 C668 252 660 249 654 243 C649 237 646 225 645 205 L645 186 L645 56 C607 34 569 19 529 9 C490 0 443 -5 388 -5 C328 -5 278 0 235 10 C193 21 159 37 132 60 C106 84 86 114 74 150 C62 187 56 231 56 283 C56 336 62 381 74 417 C86 454 105 483 131 506 C158 530 192 546 234 556 C277 567 328 572 388 572 C450 572 498 572 536 569 C574 567 608 563 637 557 L636 547 L636 547 L637 557 L643 466 C641 466 639 466 637 465 L630 465 C628 469 625 472 623 475 C621 479 619 482 616 485 C602 505 586 520 566 530 C547 541 522 548 491 551 C477 552 462 552 444 552 C427 552 408 552 388 552 C344 552 306 548 274 538 C243 528 218 513 198 491 C178 469 165 441 155 407 C146 373 141 332 141 283 C141 235 145 193 154 159 C164 125 177 98 197 76 C217 54 243 39 274 29 C306 19 344 14 388 14 C426 14 459 17 489 21 C519 26 548 34 575 44 L575 186 C575 214 574 232 569 240 C565 248 554 252 538 251 L531 251 L531 266 L575 266 L610 266 L645 266 L688 266 L688 266 Z " />
<glyph glyph-name="gdot" unicode="&#x121;" horiz-adv-x="476" d="M244 506 C229 506 218 510 211 516 C205 523 201 534 201 549 C201 565 205 576 211 582 C218 589 229 592 244 592 C260 592 270 589 276 582 C283 576 286 565 286 549 C286 534 284 523 277 516 C271 510 260 506 244 506 L244 506 Z M477 436 L477 397 L395 398 C414 378 423 346 423 304 C423 254 411 220 383 198 C356 177 310 166 244 166 L187 166 C153 166 130 164 116 160 C102 156 95 150 95 140 C95 131 103 126 117 122 C132 119 157 118 193 120 L276 123 C342 123 387 118 415 108 C443 98 457 81 457 57 C457 36 452 18 442 3 C432 -11 416 -23 393 -33 C371 -42 342 -48 306 -53 C271 -57 228 -60 176 -60 C120 -60 82 -56 58 -48 C35 -39 23 -25 23 -5 C23 7 29 16 42 26 C56 36 77 46 107 56 C86 60 72 66 62 75 C53 85 48 97 48 113 C48 133 55 148 70 158 C86 168 111 175 147 177 C117 186 96 200 83 220 C71 241 64 269 64 304 C64 354 78 388 105 409 C133 431 179 441 244 441 C289 441 325 436 351 426 L351 427 L477 436 L477 436 Z M131 304 C131 260 139 229 156 210 C174 192 203 182 244 182 C286 182 314 191 331 209 C349 228 357 260 357 304 C357 348 350 380 332 398 C315 417 286 426 244 426 C203 426 175 417 157 398 C140 380 131 348 131 304 L131 304 Z M131 54 L131 54 C110 47 95 40 85 31 C75 23 70 13 70 3 C70 -12 78 -23 95 -30 C113 -36 142 -40 184 -40 C265 -40 321 -35 355 -26 C389 -16 406 0 406 22 C406 35 395 44 372 49 C350 55 311 57 257 57 L196 54 C184 54 172 54 161 53 C151 53 141 53 131 54 L131 54 Z " />
<glyph glyph-name="Hcircumflex" unicode="&#x124;" horiz-adv-x="716" d="M677 567 L677 552 L670 552 C657 552 649 550 643 544 C638 539 635 527 634 508 L634 487 L634 80 L634 59 C635 41 637 29 642 23 C648 18 657 15 670 15 L677 15 L677 0 L634 0 L595 0 L556 0 L513 0 L513 15 L519 15 C535 15 545 19 549 27 C554 35 556 53 556 80 L556 290 L161 290 L161 80 C161 53 163 35 167 27 C172 19 182 15 197 15 L204 15 L204 0 L161 0 L122 0 L83 0 L40 0 L40 15 L46 15 C62 15 72 19 76 27 C81 35 83 53 83 80 L83 487 C83 515 82 532 77 540 C73 548 62 552 46 552 L40 552 L40 567 L83 567 L122 567 L161 567 L204 567 L204 552 L197 552 C182 552 173 548 168 540 C164 532 161 515 161 487 L161 309 L556 309 L556 487 C556 515 555 532 550 540 C546 548 535 552 519 552 L513 552 L513 567 L556 567 L595 567 L634 567 L677 567 L677 567 Z M358 742 L245 600 L238 606 L336 792 C338 796 340 799 343 804 C347 810 352 812 358 812 C365 812 370 811 373 805 C377 800 379 796 381 792 L479 606 L472 600 L358 742 L358 742 Z " />
<glyph glyph-name="Itilde" unicode="&#x128;" horiz-adv-x="243" d="M-23 662 L-35 662 C-35 702 -30 731 -19 747 C-7 764 11 772 37 772 C55 772 71 769 85 762 C100 756 113 749 127 741 C141 733 155 726 169 719 C184 713 201 709 219 709 C237 709 249 714 256 723 C264 733 267 748 267 769 L279 769 C279 731 274 703 262 687 C251 671 232 663 204 663 C186 663 170 666 155 672 C141 679 127 686 113 694 C99 702 86 709 71 715 C57 722 40 725 21 725 C5 725 -6 721 -13 711 C-19 702 -23 686 -23 662 L-23 662 Z M204 567 L204 552 L197 552 C182 552 173 548 168 540 C164 532 161 515 161 487 L161 80 C161 53 163 35 167 27 C172 19 182 15 197 15 L204 15 L204 0 L161 0 L122 0 L83 0 L40 0 L40 15 L46 15 C62 15 72 19 76 27 C81 35 83 53 83 80 L83 487 C83 515 82 532 77 540 C73 548 62 552 46 552 L40 552 L40 567 L83 567 L122 567 L161 567 L204 567 L204 567 Z " />
<glyph glyph-name="itilde" unicode="&#x129;" horiz-adv-x="246" d="M-22 531 L-34 531 C-34 571 -29 600 -18 616 C-6 633 12 641 38 641 C56 641 72 639 86 632 C101 626 114 618 128 610 C142 602 156 596 170 589 C185 583 202 579 220 579 C238 579 250 583 257 592 C265 602 268 617 268 639 L280 639 C280 600 275 572 263 556 C252 540 233 532 205 532 C187 532 171 536 156 542 C142 549 128 555 114 563 C100 571 87 579 72 585 C58 592 41 595 23 595 C7 595 -5 591 -12 581 C-18 571 -22 555 -22 531 L-22 531 Z M158 0 L158 356 L88 356 L88 336 C88 348 89 356 88 361 C88 367 87 371 86 373 C86 376 85 378 83 378 C81 379 79 380 77 381 L52 400 L52 410 L154 441 L158 441 L158 356 L158 0 C158 10 160 14 164 14 C168 15 178 15 193 15 L201 15 L201 0 L158 0 L158 0 Z M88 336 L88 0 L45 0 L45 15 L54 15 C69 15 78 16 82 15 C86 15 88 10 88 0 L88 336 L88 336 Z " />
<glyph glyph-name="Imacron" unicode="&#x12a;" horiz-adv-x="243" d="M-31 674 L-31 713 L275 713 L275 674 L-31 674 L-31 674 Z M204 567 L204 552 L197 552 C182 552 173 548 168 540 C164 532 161 515 161 487 L161 80 C161 53 163 35 167 27 C172 19 182 15 197 15 L204 15 L204 0 L161 0 L122 0 L83 0 L40 0 L40 15 L46 15 C62 15 72 19 76 27 C81 35 83 53 83 80 L83 487 C83 515 82 532 77 540 C73 548 62 552 46 552 L40 552 L40 567 L83 567 L122 567 L161 567 L204 567 L204 567 Z " />
<glyph glyph-name="imacron" unicode="&#x12b;" horiz-adv-x="246" d="M-30 543 L-30 582 L276 582 L276 543 L-30 543 L-30 543 Z M158 0 L158 356 L88 356 L88 336 C88 348 89 356 88 361 C88 367 87 371 86 373 C86 376 85 378 83 378 C81 379 79 380 77 381 L52 400 L52 410 L154 441 L158 441 L158 356 L158 0 C158 10 160 14 164 14 C168 15 178 15 193 15 L201 15 L201 0 L158 0 L158 0 Z M88 336 L88 0 L45 0 L45 15 L54 15 C69 15 78 16 82 15 C86 15 88 10 88 0 L88 336 L88 336 Z " />
<glyph glyph-name="Ibreve" unicode="&#x12c;" horiz-adv-x="243" d="M-2 778 L10 781 C17 756 28 739 45 728 C63 718 88 712 122 712 C156 712 181 717 198 727 C216 738 228 756 234 781 L246 778 C236 737 221 709 202 691 C184 674 157 665 122 665 C88 665 61 673 42 690 C24 708 9 737 -2 778 L-2 778 Z M204 567 L204 552 L197 552 C182 552 173 548 168 540 C164 532 161 515 161 487 L161 80 C161 53 163 35 167 27 C172 19 182 15 197 15 L204 15 L204 0 L161 0 L122 0 L83 0 L40 0 L40 15 L46 15 C62 15 72 19 76 27 C81 35 83 53 83 80 L83 487 C83 515 82 532 77 540 C73 548 62 552 46 552 L40 552 L40 567 L83 567 L122 567 L161 567 L204 567 L204 567 Z " />
<glyph glyph-name="ibreve" unicode="&#x12d;" horiz-adv-x="246" d="M-1 647 L12 650 C18 625 29 608 46 597 C64 587 89 581 123 581 C157 581 182 586 199 596 C217 607 229 625 235 650 L247 647 C237 606 222 578 203 560 C185 543 158 534 123 534 C89 534 62 542 43 559 C25 577 10 606 -1 647 L-1 647 Z M158 0 L158 356 L88 356 L88 336 C88 348 89 356 88 361 C88 367 87 371 86 373 C86 376 85 378 83 378 C81 379 79 380 77 381 L52 400 L52 410 L154 441 L158 441 L158 356 L158 0 C158 10 160 14 164 14 C168 15 178 15 193 15 L201 15 L201 0 L158 0 L158 0 Z M88 336 L88 0 L45 0 L45 15 L54 15 C69 15 78 16 82 15 C86 15 88 10 88 0 L88 336 L88 336 Z " />
<glyph glyph-name="Idot" unicode="&#x130;" horiz-adv-x="243" d="M122 637 C107 637 96 641 89 647 C83 654 79 665 79 680 C79 696 83 706 89 712 C96 719 107 722 122 722 C138 722 149 720 155 713 C162 707 165 696 165 680 C165 665 162 654 155 647 C149 641 138 637 122 637 L122 637 Z M204 567 L204 552 L197 552 C182 552 173 548 168 540 C164 532 161 515 161 487 L161 80 C161 53 163 35 167 27 C172 19 182 15 197 15 L204 15 L204 0 L161 0 L122 0 L83 0 L40 0 L40 15 L46 15 C62 15 72 19 76 27 C81 35 83 53 83 80 L83 487 C83 515 82 532 77 540 C73 548 62 552 46 552 L40 552 L40 567 L83 567 L122 567 L161 567 L204 567 L204 567 Z " />
<glyph glyph-name="dotlessi" unicode="&#x131;" horiz-adv-x="246" d="M158 0 L158 356 L88 356 L88 336 C88 348 89 356 88 361 C88 367 87 371 86 373 C86 376 85 378 83 378 C81 379 79 380 77 381 L52 400 L52 410 L154 441 L158 441 L158 356 L158 0 C158 10 160 14 164 14 C168 15 178 15 193 15 L201 15 L201 0 L158 0 L158 0 Z M88 336 L88 0 L45 0 L45 15 L54 15 C69 15 78 16 82 15 C86 15 88 10 88 0 L88 336 L88 336 Z " />
<glyph glyph-name="Jcircumflex" unicode="&#x134;" horiz-adv-x="356" d="M317 567 L317 552 L310 552 C295 552 286 548 281 540 C277 532 274 515 274 487 L274 237 C274 183 273 141 269 108 C265 76 257 51 245 33 C233 16 216 5 194 -1 C172 -7 143 -10 106 -10 C73 -10 48 -5 32 4 C16 14 6 29 0 50 C-5 71 5 81 31 81 C41 81 48 79 53 74 C59 70 63 62 66 50 C70 34 76 23 85 16 C95 10 108 6 125 6 C141 6 153 7 162 11 C172 15 178 23 183 35 C189 47 191 63 193 85 C195 107 196 136 196 172 L196 487 C196 515 195 532 190 540 C186 548 175 552 159 552 L153 552 L153 567 L196 567 L235 567 L274 567 L317 567 L317 567 Z M235 742 L122 600 L115 606 L213 792 C215 796 217 799 220 804 C224 810 229 812 235 812 C242 812 247 811 250 805 C254 800 256 796 257 792 L355 606 L348 600 L235 742 L235 742 Z " />
<glyph glyph-name="Lacute" unicode="&#x139;" horiz-adv-x="543" d="M98 597 L90 603 L174 753 C186 773 194 786 199 794 C205 802 208 806 210 806 C214 806 218 805 222 803 C227 801 231 800 235 796 C239 793 242 790 245 786 C249 783 250 780 250 777 C250 775 247 770 241 762 C235 754 225 742 210 725 L98 597 L98 597 Z M468 106 C470 106 472 105 474 104 C479 103 483 102 486 101 C483 85 480 70 476 56 C473 42 470 27 466 10 C466 8 466 7 465 5 C465 4 464 2 464 0 L460 0 L384 0 L161 0 L122 0 L83 0 L40 0 L40 15 L46 15 C62 15 72 19 76 27 C81 35 83 53 83 80 L83 487 C83 515 82 532 77 540 C73 548 62 552 46 552 L40 552 L40 567 L83 567 L122 567 L161 567 L204 567 L204 552 L197 552 C182 552 173 548 168 540 C164 532 161 515 161 487 L161 19 L323 19 C343 19 358 20 371 22 C385 24 395 28 405 33 C415 39 424 45 432 55 C441 65 450 78 460 93 L468 106 L468 106 Z " />
<glyph glyph-name="Lcaron" unicode="&#x13d;" horiz-adv-x="543" d="M468 106 C470 106 472 105 474 104 C479 103 483 102 486 101 C483 85 480 70 476 56 C473 42 470 27 466 10 C466 8 466 7 465 5 C465 4 464 2 464 0 L460 0 L384 0 L161 0 L122 0 L83 0 L40 0 L40 15 L46 15 C62 15 72 19 76 27 C81 35 83 53 83 80 L83 487 C83 515 82 532 77 540 C73 548 62 552 46 552 L40 552 L40 567 L83 567 L122 567 L161 567 L204 567 L204 552 L197 552 C182 552 173 548 168 540 C164 532 161 515 161 487 L161 19 L323 19 C343 19 358 20 371 22 C385 24 395 28 405 33 C415 39 424 45 432 55 C441 65 450 78 460 93 L468 106 L468 106 Z M328 476 L261 326 L252 329 L284 492 C287 506 290 520 292 532 C295 545 297 556 300 566 C304 576 306 584 310 590 C314 597 319 600 323 600 C331 600 341 599 351 597 C362 595 367 591 367 584 C367 580 364 570 358 551 C352 533 342 508 328 476 L328 476 Z " />
<glyph glyph-name="lcaron" unicode="&#x13e;" horiz-adv-x="246" d="M45 617 L45 626 L144 656 L158 656 L158 638 L158 546 L158 80 C158 52 161 35 165 27 C170 19 180 15 195 15 L201 15 L201 0 L158 0 L123 0 L88 0 L45 0 L45 15 L51 15 C67 15 77 19 81 27 C86 35 88 53 88 80 L88 527 L88 570 C88 578 88 583 86 587 C85 591 84 594 80 596 C77 599 73 602 67 604 C62 607 55 611 45 617 L45 617 Z M282 536 L215 385 L206 388 L238 552 C241 566 244 578 246 591 C249 605 251 616 254 626 C258 636 260 644 264 650 C268 656 273 659 277 659 C285 659 295 659 305 657 C316 655 321 651 321 643 C321 639 318 629 312 610 C306 592 296 567 282 536 L282 536 Z " />
<glyph glyph-name="Lslash" unicode="&#x141;" horiz-adv-x="543" d="M33 222 L33 245 L83 263 L83 487 C83 515 82 532 77 540 C73 548 62 552 46 552 L40 552 L40 567 L83 567 L122 567 L161 567 L204 567 L204 552 L197 552 C182 552 173 548 168 540 C164 532 161 515 161 487 L161 291 L311 345 L311 322 L161 268 L161 19 L323 19 C343 19 358 20 371 22 C385 24 395 28 405 33 C415 39 424 45 432 55 C441 65 450 78 460 93 L468 106 C470 106 472 105 474 104 C479 103 483 102 486 101 C483 85 480 70 476 56 C473 42 470 27 466 10 C466 8 466 7 465 5 C465 4 464 2 464 0 L460 0 L384 0 L161 0 L122 0 L83 0 L40 0 L40 15 L46 15 C62 15 72 19 76 27 C81 35 83 53 83 80 L83 240 L33 222 L33 222 Z " />
<glyph glyph-name="lslash" unicode="&#x142;" horiz-adv-x="246" d="M-12 266 L-12 290 L88 327 L88 527 L88 570 C88 578 88 583 86 587 C85 591 84 594 80 596 C77 599 73 602 67 604 C62 607 55 611 45 617 L45 626 L144 656 L158 656 L158 638 L158 546 L158 353 L258 390 L258 366 L158 329 L158 80 C158 52 161 35 165 27 C170 19 180 15 195 15 L201 15 L201 0 L158 0 L123 0 L88 0 L45 0 L45 15 L51 15 C67 15 77 19 81 27 C86 35 88 53 88 80 L88 303 L-12 266 L-12 266 Z " />
<glyph glyph-name="Nacute" unicode="&#x143;" horiz-adv-x="646" d="M294 597 L287 603 L371 753 C383 773 390 786 395 794 C401 802 404 806 406 806 C410 806 414 805 418 803 C423 801 427 800 431 796 C435 793 438 790 441 786 C445 783 446 780 446 777 C446 775 443 770 437 762 C431 754 421 742 406 725 L294 597 L294 597 Z M501 552 L501 567 L544 567 L556 567 L567 567 L610 567 C611 567 611 565 610 559 C611 555 611 552 610 552 L604 552 C589 552 580 548 575 540 C571 532 568 515 567 487 L567 59 L567 -16 L548 -16 L509 31 L108 502 L108 80 C108 53 110 35 114 27 C119 19 129 15 144 15 L151 15 L151 0 L108 0 L96 0 L84 0 L41 0 L41 15 L48 15 C64 15 73 19 77 27 C82 35 84 53 84 80 L84 487 C84 515 83 532 78 540 C74 548 64 552 48 552 L41 552 L41 567 L84 567 L96 567 L108 567 L154 567 L544 109 L544 487 C544 515 543 532 538 540 C534 548 523 552 507 552 L501 552 L501 552 Z " />
<glyph glyph-name="nacute" unicode="&#x144;" horiz-adv-x="567" d="M209 467 L201 473 L285 622 C297 642 305 655 310 663 C316 672 319 676 321 676 C325 676 329 675 333 673 C338 671 342 670 346 666 C350 663 353 660 356 656 C360 653 361 650 361 647 C361 644 358 639 352 631 C346 623 336 611 321 594 L209 467 L209 467 Z M527 15 L527 0 L484 0 L449 0 L414 0 L371 0 L371 15 L378 15 C394 15 403 19 407 27 C412 35 414 53 414 80 L414 285 C414 305 414 321 411 335 C409 349 404 361 396 369 C388 378 377 384 363 388 C349 392 331 394 307 394 C284 394 261 392 238 388 C216 384 189 378 158 368 L158 338 L158 326 L158 80 L158 61 C159 42 161 30 166 24 C172 18 181 15 194 15 L201 15 C201 15 201 13 201 8 C201 3 201 0 201 0 L158 0 L123 0 L88 0 L45 0 L45 15 L51 15 C67 15 77 19 81 27 C86 35 88 53 88 80 L88 307 L88 338 L88 338 C88 350 88 357 87 362 C87 368 86 371 82 374 C79 378 75 381 69 383 C63 386 55 391 45 397 L45 406 L144 436 L158 436 L158 376 C195 388 225 398 251 406 C277 414 299 421 315 426 C334 432 349 437 361 441 C388 441 409 439 425 433 C442 428 455 419 463 407 C472 395 478 380 480 361 C483 343 484 320 484 292 L484 80 C484 52 487 35 491 27 C496 19 506 15 521 15 L527 15 L527 15 Z " />
<glyph glyph-name="Ncaron" unicode="&#x147;" horiz-adv-x="646" d="M501 552 L501 567 L544 567 L556 567 L567 567 L610 567 C611 567 611 565 610 559 C611 555 611 552 610 552 L604 552 C589 552 580 548 575 540 C571 532 568 515 567 487 L567 59 L567 -16 L548 -16 L509 31 L108 502 L108 80 C108 53 110 35 114 27 C119 19 129 15 144 15 L151 15 L151 0 L108 0 L96 0 L84 0 L41 0 L41 15 L48 15 C64 15 73 19 77 27 C82 35 84 53 84 80 L84 487 C84 515 83 532 78 540 C74 548 64 552 48 552 L41 552 L41 567 L84 567 L96 567 L108 567 L154 567 L544 109 L544 487 C544 515 543 532 538 540 C534 548 523 552 507 552 L501 552 L501 552 Z M326 692 L212 834 L205 828 L304 642 C306 639 308 636 311 630 C315 625 320 622 326 622 C333 622 338 624 341 629 C345 635 347 639 348 642 L446 828 L439 834 L326 692 L326 692 Z " />
<glyph glyph-name="ncaron" unicode="&#x148;" horiz-adv-x="567" d="M527 15 L527 0 L484 0 L449 0 L414 0 L371 0 L371 15 L378 15 C394 15 403 19 407 27 C412 35 414 53 414 80 L414 285 C414 305 414 321 411 335 C409 349 404 361 396 369 C388 378 377 384 363 388 C349 392 331 394 307 394 C284 394 261 392 238 388 C216 384 189 378 158 368 L158 338 L158 326 L158 80 L158 61 C159 42 161 30 166 24 C172 18 181 15 194 15 L201 15 C201 15 201 13 201 8 C201 3 201 0 201 0 L158 0 L123 0 L88 0 L45 0 L45 15 L51 15 C67 15 77 19 81 27 C86 35 88 53 88 80 L88 307 L88 338 L88 338 C88 350 88 357 87 362 C87 368 86 371 82 374 C79 378 75 381 69 383 C63 386 55 391 45 397 L45 406 L144 436 L158 436 L158 376 C195 388 225 398 251 406 C277 414 299 421 315 426 C334 432 349 437 361 441 C388 441 409 439 425 433 C442 428 455 419 463 407 C472 395 478 380 480 361 C483 343 484 320 484 292 L484 80 C484 52 487 35 491 27 C496 19 506 15 521 15 L527 15 L527 15 Z M286 561 L173 704 L165 698 L264 511 C266 508 268 505 271 500 C275 496 280 493 286 492 C293 492 298 493 301 498 C305 504 307 508 308 511 L406 698 L399 704 L286 561 L286 561 Z " />
<glyph glyph-name="Omacron" unicode="&#x14c;" horiz-adv-x="765" d="M232 674 L232 713 L538 713 L538 674 L232 674 L232 674 Z M385 14 C434 14 473 19 505 31 C537 43 562 61 580 83 C599 106 611 134 618 167 C626 201 629 239 629 283 C629 327 627 365 619 399 C612 433 600 461 581 483 C563 506 538 522 506 534 C474 546 434 552 385 552 C337 552 297 547 265 535 C233 523 209 507 190 484 C172 462 160 434 152 400 C145 366 141 327 141 283 C141 239 144 201 151 167 C159 134 171 106 189 83 C208 61 232 44 264 32 C296 20 337 14 385 14 L385 14 Z M56 283 C56 331 60 372 70 408 C80 444 98 474 122 498 C147 523 181 541 223 553 C266 566 320 572 385 572 C451 572 505 567 547 554 C590 542 623 524 648 499 C674 475 690 444 700 408 C710 372 715 331 715 283 C715 237 711 195 701 159 C691 123 675 94 649 69 C624 45 591 27 548 14 C506 2 451 -5 385 -5 C320 -5 266 1 223 13 C181 26 147 44 122 68 C98 93 81 123 71 159 C61 195 56 237 56 283 L56 283 Z " />
<glyph glyph-name="omacron" unicode="&#x14d;" horiz-adv-x="600" d="M147 543 L147 582 L453 582 L453 543 L147 543 L147 543 Z M300 11 C332 11 358 14 380 22 C402 30 419 42 433 58 C447 75 457 96 463 122 C470 149 473 181 473 218 C473 256 471 288 464 314 C458 341 448 362 434 378 C420 395 402 406 380 414 C358 422 332 426 300 426 C269 426 243 423 221 415 C199 407 182 396 168 379 C154 363 145 342 138 315 C132 289 128 256 128 218 C128 181 131 150 137 123 C144 97 153 76 167 59 C181 43 198 31 220 23 C242 15 269 11 300 11 L300 11 Z M50 218 C50 259 54 293 63 321 C73 350 87 372 107 390 C127 408 152 421 184 429 C216 437 255 441 300 441 C346 441 383 437 415 429 C447 421 473 409 493 391 C513 373 527 351 536 322 C546 294 550 259 550 218 C550 178 547 144 537 115 C528 87 513 64 493 46 C473 28 448 15 416 7 C384 -1 346 -5 300 -5 C255 -5 217 -1 185 7 C153 15 127 27 107 45 C87 63 74 86 64 114 C55 143 50 178 50 218 L50 218 Z " />
<glyph glyph-name="Obreve" unicode="&#x14e;" horiz-adv-x="765" d="M262 778 L274 781 C280 756 291 739 308 728 C326 718 351 712 385 712 C420 712 445 717 462 727 C480 738 491 756 497 781 L509 778 C499 737 485 709 466 691 C448 674 421 665 385 665 C351 665 324 673 305 690 C287 708 272 737 262 778 L262 778 Z M385 14 C434 14 473 19 505 31 C537 43 562 61 580 83 C599 106 611 134 618 167 C626 201 629 239 629 283 C629 327 627 365 619 399 C612 433 600 461 581 483 C563 506 538 522 506 534 C474 546 434 552 385 552 C337 552 297 547 265 535 C233 523 209 507 190 484 C172 462 160 434 152 400 C145 366 141 327 141 283 C141 239 144 201 151 167 C159 134 171 106 189 83 C208 61 232 44 264 32 C296 20 337 14 385 14 L385 14 Z M56 283 C56 331 60 372 70 408 C80 444 98 474 122 498 C147 523 181 541 223 553 C266 566 320 572 385 572 C451 572 505 567 547 554 C590 542 623 524 648 499 C674 475 690 444 700 408 C710 372 715 331 715 283 C715 237 711 195 701 159 C691 123 675 94 649 69 C624 45 591 27 548 14 C506 2 451 -5 385 -5 C320 -5 266 1 223 13 C181 26 147 44 122 68 C98 93 81 123 71 159 C61 195 56 237 56 283 L56 283 Z " />
<glyph glyph-name="obreve" unicode="&#x14f;" horiz-adv-x="600" d="M177 647 L189 650 C195 625 206 608 223 597 C241 587 266 581 300 581 C334 581 359 586 376 596 C394 607 406 625 412 650 L424 647 C414 606 400 578 381 560 C363 543 336 534 300 534 C266 534 239 542 220 559 C202 577 187 606 177 647 L177 647 Z M300 11 C332 11 358 14 380 22 C402 30 419 42 433 58 C447 75 457 96 463 122 C470 149 473 181 473 218 C473 256 471 288 464 314 C458 341 448 362 434 378 C420 395 402 406 380 414 C358 422 332 426 300 426 C269 426 243 423 221 415 C199 407 182 396 168 379 C154 363 145 342 138 315 C132 289 128 256 128 218 C128 181 131 150 137 123 C144 97 153 76 167 59 C181 43 198 31 220 23 C242 15 269 11 300 11 L300 11 Z M50 218 C50 259 54 293 63 321 C73 350 87 372 107 390 C127 408 152 421 184 429 C216 437 255 441 300 441 C346 441 383 437 415 429 C447 421 473 409 493 391 C513 373 527 351 536 322 C546 294 550 259 550 218 C550 178 547 144 537 115 C528 87 513 64 493 46 C473 28 448 15 416 7 C384 -1 346 -5 300 -5 C255 -5 217 -1 185 7 C153 15 127 27 107 45 C87 63 74 86 64 114 C55 143 50 178 50 218 L50 218 Z " />
<glyph glyph-name="Racute" unicode="&#x154;" horiz-adv-x="639" d="M226 597 L218 603 L302 753 C314 773 322 786 327 794 C333 802 336 806 337 806 C345 806 352 804 362 796 C372 789 377 783 377 777 C377 775 374 770 368 762 C362 754 352 742 338 725 L226 597 L226 597 Z M46 552 L46 567 L89 567 L128 567 L166 567 L303 567 C381 567 435 556 467 534 C500 512 516 475 516 422 C516 376 504 341 478 317 C453 294 410 279 350 273 L529 91 C551 69 566 53 576 42 C587 32 594 24 600 20 C606 16 611 14 615 14 C619 15 626 15 634 15 L639 15 L639 0 L611 0 C587 0 571 1 559 0 C548 0 537 2 527 7 C517 13 506 22 491 37 C477 53 454 76 423 106 L261 270 L166 270 L166 80 C167 53 169 35 173 27 C178 19 188 15 203 15 L209 15 C210 15 210 13 209 8 C210 3 210 0 209 0 L166 0 L128 0 L89 0 L46 0 L46 15 L52 15 C68 15 78 19 82 27 C87 35 89 53 89 80 L89 487 C89 515 88 532 83 540 C79 548 68 552 52 552 L46 552 L46 552 Z M275 289 C334 289 375 299 399 319 C423 340 435 374 435 422 C435 468 425 501 405 519 C385 538 351 547 303 547 L166 547 L166 289 L242 289 L275 289 L275 289 Z " />
<glyph glyph-name="Rcaron" unicode="&#x158;" horiz-adv-x="552" d="M46 552 L46 567 L89 567 L128 567 L166 567 L303 567 C381 567 435 556 467 534 C500 512 516 475 516 422 C516 378 505 346 483 322 C461 299 424 284 372 276 L373 276 C389 232 404 193 419 159 C435 126 449 97 464 72 C480 48 494 28 510 10 C526 -7 543 -21 560 -33 L553 -44 C515 -18 481 6 451 30 C421 54 395 78 373 103 C351 129 332 154 316 181 C300 209 287 238 275 270 L166 270 L166 80 C167 53 169 35 173 27 C178 19 188 15 203 15 L209 15 C210 15 210 13 209 8 C210 3 210 0 209 0 L166 0 L128 0 L89 0 L46 0 L46 15 L52 15 C68 15 78 19 82 27 C87 35 89 53 89 80 L89 487 C89 515 88 532 83 540 C79 548 68 552 52 552 L46 552 L46 552 Z M303 692 L189 834 L182 828 L280 642 C282 639 285 636 288 630 C292 625 296 622 302 622 C309 622 314 624 317 629 C321 635 323 639 325 642 L423 828 L416 834 L303 692 L303 692 Z M166 289 L275 289 C334 289 375 299 399 319 C423 340 435 374 435 422 C435 468 425 501 405 519 C385 538 351 547 303 547 L166 547 L166 289 L166 289 Z " />
<glyph glyph-name="rcaron" unicode="&#x159;" horiz-adv-x="395" d="M45 397 L45 406 L134 436 L148 436 L154 375 C181 387 204 397 222 405 C241 414 256 421 267 426 C281 432 293 437 301 441 C320 441 334 441 345 439 C357 437 365 435 371 431 C377 427 381 422 383 416 C385 410 386 403 386 394 C386 382 385 375 379 369 C374 364 365 361 352 361 C342 361 333 362 324 365 C316 369 307 372 299 375 C291 379 283 381 274 384 C266 388 256 389 246 389 C232 389 218 388 204 384 C190 380 174 374 154 366 L157 338 L158 338 L158 326 L158 80 L158 61 C159 42 161 30 166 24 C172 18 181 15 194 15 L201 15 C201 15 201 13 201 8 C201 3 201 0 201 0 L158 0 L123 0 L88 0 L45 0 L45 15 L51 15 C67 15 77 19 81 27 C86 35 88 53 88 80 L88 307 L88 338 L88 338 C88 350 88 357 87 362 C87 368 86 371 82 374 C79 378 75 381 69 383 C63 386 55 391 45 397 L45 397 Z M195 562 L81 704 L74 698 L172 511 C174 508 177 505 180 499 C184 494 189 492 195 492 C201 492 206 493 209 498 C213 504 215 508 217 511 L315 698 L308 704 L195 562 L195 562 Z " />
<glyph glyph-name="Sacute" unicode="&#x15a;" horiz-adv-x="515" d="M200 597 L192 603 L276 753 C288 773 296 786 301 794 C307 802 310 806 312 806 C316 806 320 805 324 803 C329 801 333 800 337 796 C341 793 344 790 347 786 C351 783 352 780 352 777 C352 775 349 770 343 762 C337 754 327 742 312 725 L200 597 L200 597 Z M311 549 L311 549 C299 551 289 552 278 552 C268 553 257 553 247 553 C194 553 156 545 134 527 C112 509 101 479 101 436 C101 406 115 382 143 363 C172 345 220 328 287 314 C354 300 401 281 429 256 C457 232 471 197 471 153 C471 125 468 100 460 80 C453 60 442 44 425 31 C409 19 388 10 362 4 C336 -2 305 -5 267 -5 C213 -5 168 -4 134 -2 C100 0 70 4 44 8 L46 21 L46 21 L44 8 L38 106 C41 106 43 107 44 107 L51 107 C56 101 61 94 65 86 C83 62 103 44 127 33 C152 23 185 17 226 15 L226 15 C233 15 240 14 246 14 C253 14 260 14 267 14 C321 14 359 22 381 38 C404 54 415 82 415 121 C415 155 401 181 372 201 C344 221 295 239 226 253 C162 267 117 285 89 308 C62 332 48 364 48 405 C48 466 63 509 94 534 C126 560 178 572 250 572 C290 572 324 571 351 569 C379 567 405 564 431 559 L429 546 L429 546 L431 559 L437 461 C435 461 433 461 431 460 L424 460 C421 466 418 470 414 474 C411 479 408 484 404 489 C392 508 379 521 364 530 C350 540 332 546 311 549 L311 549 Z " />
<glyph glyph-name="sacute" unicode="&#x15b;" horiz-adv-x="429" d="M147 467 L139 473 L223 622 C235 642 243 655 248 663 C254 672 257 676 258 676 C266 676 273 674 283 666 C293 659 298 653 298 647 C298 644 295 639 289 631 C283 623 273 611 259 594 L147 467 L147 467 Z M44 60 L55 60 L67 48 C80 35 95 26 113 20 C131 14 156 11 186 11 L217 11 C255 11 282 18 298 31 C314 45 322 67 322 99 C322 120 315 137 297 151 C280 166 250 180 208 193 C155 211 117 229 95 249 C73 269 62 294 62 324 C62 367 74 396 98 414 C123 432 165 441 223 441 C263 441 293 441 314 441 C336 442 349 443 355 443 L355 445 L355 443 L355 443 L359 377 L347 377 C346 379 345 380 343 382 C342 384 341 386 339 388 C331 401 322 409 310 415 C299 421 284 425 266 426 L223 426 C185 426 158 420 141 408 C125 396 116 376 116 348 C116 327 127 308 148 292 C170 276 206 260 257 243 C302 228 334 212 352 194 C371 176 380 153 380 125 C380 79 368 45 342 25 C317 5 274 -5 213 -5 C127 -5 72 -6 50 -8 L51 -1 L51 -1 L50 -8 L49 -8 L44 60 L44 60 Z M50 -8 L49 -14 L50 -8 L50 -8 L50 -8 Z M49 -8 C34 -8 34 -10 49 -14 L49 -8 L49 -8 Z M355 445 L355 443 C361 443 361 444 355 445 L355 445 Z " />
<glyph glyph-name="Scircumflex" unicode="&#x15c;" horiz-adv-x="515" d="M247 742 L133 600 L126 606 L224 792 C226 796 229 799 232 804 C236 810 241 812 247 812 C254 812 258 811 261 805 C265 800 267 796 269 792 L367 606 L360 600 L247 742 L247 742 Z M311 549 L311 549 C299 551 289 552 278 552 C268 553 257 553 247 553 C194 553 156 545 134 527 C112 509 101 479 101 436 C101 406 115 382 143 363 C172 345 220 328 287 314 C354 300 401 281 429 256 C457 232 471 197 471 153 C471 125 468 100 460 80 C453 60 442 44 425 31 C409 19 388 10 362 4 C336 -2 305 -5 267 -5 C213 -5 168 -4 134 -2 C100 0 70 4 44 8 L46 21 L46 21 L44 8 L38 106 C41 106 43 107 44 107 L51 107 C56 101 61 94 65 86 C83 62 103 44 127 33 C152 23 185 17 226 15 L226 15 C233 15 240 14 246 14 C253 14 260 14 267 14 C321 14 359 22 381 38 C404 54 415 82 415 121 C415 155 401 181 372 201 C344 221 295 239 226 253 C162 267 117 285 89 308 C62 332 48 364 48 405 C48 466 63 509 94 534 C126 560 178 572 250 572 C290 572 324 571 351 569 C379 567 405 564 431 559 L429 546 L429 546 L431 559 L437 461 C435 461 433 461 431 460 L424 460 C421 466 418 470 414 474 C411 479 408 484 404 489 C392 508 379 521 364 530 C350 540 332 546 311 549 L311 549 Z " />
<glyph glyph-name="Scedilla" unicode="&#x15e;" horiz-adv-x="515" d="M311 549 L311 549 C299 551 289 552 278 552 C268 553 257 553 247 553 C194 553 156 545 134 527 C112 509 101 479 101 436 C101 406 115 382 143 363 C172 345 220 328 287 314 C354 300 401 281 429 256 C457 232 471 197 471 153 C471 125 468 100 460 80 C453 60 442 44 425 31 C409 19 388 10 362 4 C336 -2 305 -5 267 -5 C213 -5 168 -4 134 -2 C100 0 70 4 44 8 L46 21 L46 21 L44 8 L38 106 C41 106 43 107 44 107 L51 107 C56 101 61 94 65 86 C83 62 103 44 127 33 C152 23 185 17 226 15 L226 15 C233 15 240 14 246 14 C253 14 260 14 267 14 C321 14 359 22 381 38 C404 54 415 82 415 121 C415 155 401 181 372 201 C344 221 295 239 226 253 C162 267 117 285 89 308 C62 332 48 364 48 405 C48 466 63 509 94 534 C126 560 178 572 250 572 C290 572 324 571 351 569 C379 567 405 564 431 559 L429 546 L429 546 L431 559 L437 461 C435 461 433 461 431 460 L424 460 C421 466 418 470 414 474 C411 479 408 484 404 489 C392 508 379 521 364 530 C350 540 332 546 311 549 L311 549 Z " />
<glyph glyph-name="scedilla" unicode="&#x15f;" horiz-adv-x="429" d="M44 60 L55 60 L67 48 C80 35 95 26 113 20 C131 14 156 11 186 11 L217 11 C255 11 282 18 298 31 C314 45 322 67 322 99 C322 120 315 137 297 151 C280 166 250 180 208 193 C155 211 117 229 95 249 C73 269 62 294 62 324 C62 367 74 396 98 414 C123 432 165 441 223 441 C263 441 293 441 314 441 C336 442 349 443 355 443 L355 445 L355 443 L355 443 L359 377 L347 377 C346 379 345 380 343 382 C342 384 341 386 339 388 C331 401 322 409 310 415 C299 421 284 425 266 426 L223 426 C185 426 158 420 141 408 C125 396 116 376 116 348 C116 327 127 308 148 292 C170 276 206 260 257 243 C302 228 334 212 352 194 C371 176 380 153 380 125 C380 79 368 45 342 25 C317 5 274 -5 213 -5 C127 -5 72 -6 50 -8 L51 -1 L51 -1 L50 -8 L49 -8 L44 60 L44 60 Z M50 -8 L49 -14 L50 -8 L50 -8 L50 -8 Z M49 -8 C34 -8 34 -10 49 -14 L49 -8 L49 -8 Z M355 445 L355 443 C361 443 361 444 355 445 L355 445 Z " />
<glyph glyph-name="Scaron" unicode="&#x160;" horiz-adv-x="515" d="M247 692 L133 834 L126 828 L224 642 C226 639 229 636 232 630 C236 625 241 622 247 622 C254 622 258 624 261 629 C265 635 267 639 269 642 L367 828 L360 834 L247 692 L247 692 Z M311 549 L311 549 C299 551 289 552 278 552 C268 553 257 553 247 553 C194 553 156 545 134 527 C112 509 101 479 101 436 C101 406 115 382 143 363 C172 345 220 328 287 314 C354 300 401 281 429 256 C457 232 471 197 471 153 C471 125 468 100 460 80 C453 60 442 44 425 31 C409 19 388 10 362 4 C336 -2 305 -5 267 -5 C213 -5 168 -4 134 -2 C100 0 70 4 44 8 L46 21 L46 21 L44 8 L38 106 C41 106 43 107 44 107 L51 107 C56 101 61 94 65 86 C83 62 103 44 127 33 C152 23 185 17 226 15 L226 15 C233 15 240 14 246 14 C253 14 260 14 267 14 C321 14 359 22 381 38 C404 54 415 82 415 121 C415 155 401 181 372 201 C344 221 295 239 226 253 C162 267 117 285 89 308 C62 332 48 364 48 405 C48 466 63 509 94 534 C126 560 178 572 250 572 C290 572 324 571 351 569 C379 567 405 564 431 559 L429 546 L429 546 L431 559 L437 461 C435 461 433 461 431 460 L424 460 C421 466 418 470 414 474 C411 479 408 484 404 489 C392 508 379 521 364 530 C350 540 332 546 311 549 L311 549 Z " />
<glyph glyph-name="scaron" unicode="&#x161;" horiz-adv-x="429" d="M44 60 L55 60 L67 48 C80 35 95 26 113 20 C131 14 156 11 186 11 L217 11 C255 11 282 18 298 31 C314 45 322 67 322 99 C322 120 315 137 297 151 C280 166 250 180 208 193 C155 211 117 229 95 249 C73 269 62 294 62 324 C62 367 74 396 98 414 C123 432 165 441 223 441 C263 441 293 441 314 441 C336 442 349 443 355 443 L355 445 L355 443 L355 443 L359 377 L347 377 C346 379 345 380 343 382 C342 384 341 386 339 388 C331 401 322 409 310 415 C299 421 284 425 266 426 L223 426 C185 426 158 420 141 408 C125 396 116 376 116 348 C116 327 127 308 148 292 C170 276 206 260 257 243 C302 228 334 212 352 194 C371 176 380 153 380 125 C380 79 368 45 342 25 C317 5 274 -5 213 -5 C127 -5 72 -6 50 -8 L51 -1 L51 -1 L50 -8 L49 -8 L44 60 L44 60 Z M224 562 L110 704 L103 698 L201 511 C203 508 206 505 209 499 C213 494 217 492 223 492 C230 492 235 493 238 498 C242 504 244 508 246 511 L344 698 L337 704 L224 562 L224 562 Z M50 -8 L49 -14 L50 -8 L50 -8 L50 -8 Z M49 -8 C34 -8 34 -10 49 -14 L49 -8 L49 -8 Z M355 445 L355 443 C361 443 361 444 355 445 L355 445 Z " />
<glyph glyph-name="Tcaron" unicode="&#x164;" horiz-adv-x="626" d="M395 15 L395 0 L352 0 L313 0 L274 0 L231 0 L231 15 L237 15 C253 15 263 19 267 27 C272 35 274 53 274 80 L274 547 L154 547 C137 547 123 547 111 545 C99 543 89 540 79 534 C69 529 61 522 52 512 C44 502 34 490 22 474 L13 461 L1 461 C4 479 6 495 8 509 C10 524 13 540 15 557 C16 560 16 563 16 567 L40 567 L96 567 L530 567 L586 567 L610 567 C610 563 611 560 611 557 C614 540 616 524 618 509 C620 495 623 479 625 461 L613 461 L604 474 C594 490 584 501 575 511 C567 521 558 529 548 534 C538 540 528 542 516 544 C504 546 490 547 472 547 L352 547 L352 80 C352 53 354 35 358 27 C363 19 373 15 389 15 L395 15 L395 15 Z M313 692 L200 834 L193 828 L291 642 C293 639 295 636 298 630 C302 625 307 622 313 622 C320 622 325 624 328 629 C332 635 334 639 335 642 L433 828 L426 834 L313 692 L313 692 Z " />
<glyph glyph-name="tcaron" unicode="&#x165;" horiz-adv-x="357" d="M326 436 L326 409 L171 409 L171 91 C171 76 171 64 172 55 C174 47 176 41 180 36 C184 32 190 30 198 28 C206 27 217 26 231 26 C249 26 262 27 273 27 C285 28 293 29 300 31 C308 33 314 35 318 38 C323 42 328 45 332 49 L337 44 C327 36 317 29 308 22 C300 16 290 10 280 6 C270 2 259 0 245 -2 C232 -4 216 -5 196 -5 C174 -5 156 -5 143 -3 C131 -1 122 3 115 10 C109 18 105 29 103 43 C102 58 101 78 101 103 L101 409 L25 409 L25 417 C53 421 76 430 94 446 C113 463 130 489 144 523 L159 564 L171 564 L171 436 L326 436 L326 436 Z M450 536 L383 385 L374 388 L406 552 C409 566 412 578 414 591 C417 605 419 616 422 626 C426 636 428 644 432 650 C436 656 441 659 445 659 C453 659 463 659 473 657 C484 655 489 651 489 643 C489 639 486 629 480 610 C474 592 464 567 450 536 L450 536 Z M149 537 C150 538 150 539 150 539 L149 537 L149 537 Z " />
<glyph glyph-name="Utilde" unicode="&#x168;" horiz-adv-x="621" d="M170 662 L159 662 C159 702 164 731 175 747 C187 764 205 772 230 772 C249 772 265 769 279 762 C294 756 308 749 321 741 C335 733 348 726 362 719 C377 713 394 709 412 709 C430 709 443 714 450 723 C458 733 461 748 461 769 L472 769 C472 731 467 703 455 687 C444 671 425 663 397 663 C379 663 363 666 348 672 C334 679 320 686 306 694 C293 702 280 709 265 715 C251 722 234 725 215 725 C199 725 187 721 180 711 C174 702 170 686 170 662 L170 662 Z M601 567 L601 552 L594 552 C586 552 579 552 573 550 C568 548 565 545 561 539 C558 533 556 526 554 516 C553 506 552 493 552 477 L552 156 C552 127 550 103 544 82 C539 62 529 46 512 32 C496 19 473 10 442 4 C412 -2 371 -5 320 -5 C268 -5 226 -1 194 5 C162 12 139 22 121 37 C104 53 93 71 87 95 C82 119 79 148 79 182 L79 487 C79 515 78 532 73 540 C69 548 58 552 42 552 L36 552 L36 567 L79 567 L118 567 L156 567 L199 567 C200 567 200 565 199 559 C200 555 200 552 199 552 L193 552 C179 552 170 550 165 542 C161 535 158 519 156 495 L157 167 C157 141 159 119 163 100 C167 82 175 67 187 55 C200 44 217 36 240 30 C264 25 294 22 332 22 C375 22 409 24 435 29 C461 35 481 43 495 54 C509 66 518 80 522 98 C527 116 529 138 529 164 L529 477 C529 493 530 505 528 515 C527 525 526 532 522 538 C519 544 514 547 508 549 C502 551 495 552 485 552 L477 552 L477 567 L529 567 L541 567 L552 567 L601 567 L601 567 Z " />
<glyph glyph-name="utilde" unicode="&#x169;" horiz-adv-x="532" d="M111 531 L99 531 C99 571 104 600 115 616 C127 633 145 641 171 641 C189 641 205 639 219 632 C234 626 247 618 261 610 C275 602 289 596 303 589 C318 583 335 579 353 579 C371 579 383 583 390 592 C398 602 401 617 401 639 L413 639 C413 600 408 572 396 556 C385 540 365 532 337 532 C319 532 304 536 289 542 C275 549 261 555 247 563 C233 571 220 579 205 585 C191 592 174 595 155 595 C139 595 128 591 121 581 C115 571 111 555 111 531 L111 531 Z M497 39 L497 30 L398 0 L384 0 L384 18 L384 60 C352 48 325 38 303 30 C281 22 263 16 248 10 C232 4 219 -1 208 -5 C178 -5 154 -3 134 3 C115 9 100 18 88 31 C77 45 70 61 65 81 C61 102 58 127 58 155 L58 356 C58 384 57 401 52 409 C48 417 37 421 21 421 L15 421 L15 436 L58 436 L93 436 L128 436 L127 162 C127 140 129 122 133 106 C137 91 144 79 154 69 C164 59 177 53 195 48 C213 44 236 41 263 41 C283 41 302 43 318 47 C335 51 357 58 384 68 L384 110 L384 356 C384 384 383 401 378 409 C374 417 364 421 348 421 L341 421 L341 436 L384 436 L419 436 L454 436 L454 129 L454 86 C454 78 455 73 456 69 C458 65 459 63 462 60 C466 58 469 55 475 52 C481 50 489 45 497 39 L497 39 Z " />
<glyph glyph-name="Umacron" unicode="&#x16a;" horiz-adv-x="621" d="M163 674 L163 713 L469 713 L469 674 L163 674 L163 674 Z M601 567 L601 552 L594 552 C586 552 579 552 573 550 C568 548 565 545 561 539 C558 533 556 526 554 516 C553 506 552 493 552 477 L552 156 C552 127 550 103 544 82 C539 62 529 46 512 32 C496 19 473 10 442 4 C412 -2 371 -5 320 -5 C268 -5 226 -1 194 5 C162 12 139 22 121 37 C104 53 93 71 87 95 C82 119 79 148 79 182 L79 487 C79 515 78 532 73 540 C69 548 58 552 42 552 L36 552 L36 567 L79 567 L118 567 L156 567 L199 567 C200 567 200 565 199 559 C200 555 200 552 199 552 L193 552 C179 552 170 550 165 542 C161 535 158 519 156 495 L157 167 C157 141 159 119 163 100 C167 82 175 67 187 55 C200 44 217 36 240 30 C264 25 294 22 332 22 C375 22 409 24 435 29 C461 35 481 43 495 54 C509 66 518 80 522 98 C527 116 529 138 529 164 L529 477 C529 493 530 505 528 515 C527 525 526 532 522 538 C519 544 514 547 508 549 C502 551 495 552 485 552 L477 552 L477 567 L529 567 L541 567 L552 567 L601 567 L601 567 Z " />
<glyph glyph-name="umacron" unicode="&#x16b;" horiz-adv-x="532" d="M103 543 L103 582 L409 582 L409 543 L103 543 L103 543 Z M497 39 L497 30 L398 0 L384 0 L384 18 L384 60 C352 48 325 38 303 30 C281 22 263 16 248 10 C232 4 219 -1 208 -5 C178 -5 154 -3 134 3 C115 9 100 18 88 31 C77 45 70 61 65 81 C61 102 58 127 58 155 L58 356 C58 384 57 401 52 409 C48 417 37 421 21 421 L15 421 L15 436 L58 436 L93 436 L128 436 L127 162 C127 140 129 122 133 106 C137 91 144 79 154 69 C164 59 177 53 195 48 C213 44 236 41 263 41 C283 41 302 43 318 47 C335 51 357 58 384 68 L384 110 L384 356 C384 384 383 401 378 409 C374 417 364 421 348 421 L341 421 L341 436 L384 436 L419 436 L454 436 L454 129 L454 86 C454 78 455 73 456 69 C458 65 459 63 462 60 C466 58 469 55 475 52 C481 50 489 45 497 39 L497 39 Z " />
<glyph glyph-name="Ubreve" unicode="&#x16c;" horiz-adv-x="621" d="M192 778 L204 781 C210 756 221 739 238 728 C256 718 282 712 316 712 C350 712 375 717 392 727 C410 738 421 756 427 781 L439 778 C429 737 415 709 396 691 C378 674 351 665 316 665 C281 665 254 673 235 690 C217 708 202 737 192 778 L192 778 Z M601 567 L601 552 L594 552 C586 552 579 552 573 550 C568 548 565 545 561 539 C558 533 556 526 554 516 C553 506 552 493 552 477 L552 156 C552 127 550 103 544 82 C539 62 529 46 512 32 C496 19 473 10 442 4 C412 -2 371 -5 320 -5 C268 -5 226 -1 194 5 C162 12 139 22 121 37 C104 53 93 71 87 95 C82 119 79 148 79 182 L79 487 C79 515 78 532 73 540 C69 548 58 552 42 552 L36 552 L36 567 L79 567 L118 567 L156 567 L199 567 C200 567 200 565 199 559 C200 555 200 552 199 552 L193 552 C179 552 170 550 165 542 C161 535 158 519 156 495 L157 167 C157 141 159 119 163 100 C167 82 175 67 187 55 C200 44 217 36 240 30 C264 25 294 22 332 22 C375 22 409 24 435 29 C461 35 481 43 495 54 C509 66 518 80 522 98 C527 116 529 138 529 164 L529 477 C529 493 530 505 528 515 C527 525 526 532 522 538 C519 544 514 547 508 549 C502 551 495 552 485 552 L477 552 L477 567 L529 567 L541 567 L552 567 L601 567 L601 567 Z " />
<glyph glyph-name="ubreve" unicode="&#x16d;" horiz-adv-x="532" d="M132 647 L144 650 C151 625 162 608 179 597 C197 587 222 581 256 581 C290 581 315 586 332 596 C350 607 361 625 367 650 L380 647 C370 606 355 578 336 560 C318 543 291 534 256 534 C222 534 195 542 176 559 C158 577 143 606 132 647 L132 647 Z M497 39 L497 30 L398 0 L384 0 L384 18 L384 60 C352 48 325 38 303 30 C281 22 263 16 248 10 C232 4 219 -1 208 -5 C178 -5 154 -3 134 3 C115 9 100 18 88 31 C77 45 70 61 65 81 C61 102 58 127 58 155 L58 356 C58 384 57 401 52 409 C48 417 37 421 21 421 L15 421 L15 436 L58 436 L93 436 L128 436 L127 162 C127 140 129 122 133 106 C137 91 144 79 154 69 C164 59 177 53 195 48 C213 44 236 41 263 41 C283 41 302 43 318 47 C335 51 357 58 384 68 L384 110 L384 356 C384 384 383 401 378 409 C374 417 364 421 348 421 L341 421 L341 436 L384 436 L419 436 L454 436 L454 129 L454 86 C454 78 455 73 456 69 C458 65 459 63 462 60 C466 58 469 55 475 52 C481 50 489 45 497 39 L497 39 Z " />
<glyph glyph-name="Uring" unicode="&#x16e;" horiz-adv-x="621" d="M316 617 C366 617 391 643 391 694 C391 722 386 741 374 753 C363 765 344 771 316 771 C288 771 269 766 257 754 C246 742 240 722 240 694 C240 643 266 617 316 617 L316 617 Z M221 694 C221 728 228 752 242 766 C257 780 282 787 316 787 C350 787 374 780 388 766 C403 752 410 728 410 694 C410 633 379 602 316 602 C253 602 221 633 221 694 L221 694 Z M601 567 L601 552 L594 552 C586 552 579 552 573 550 C568 548 565 545 561 539 C558 533 556 526 554 516 C553 506 552 493 552 477 L552 156 C552 127 550 103 544 82 C539 62 529 46 512 32 C496 19 473 10 442 4 C412 -2 371 -5 320 -5 C268 -5 226 -1 194 5 C162 12 139 22 121 37 C104 53 93 71 87 95 C82 119 79 148 79 182 L79 487 C79 515 78 532 73 540 C69 548 58 552 42 552 L36 552 L36 567 L79 567 L118 567 L156 567 L199 567 C200 567 200 565 199 559 C200 555 200 552 199 552 L193 552 C179 552 170 550 165 542 C161 535 158 519 156 495 L157 167 C157 141 159 119 163 100 C167 82 175 67 187 55 C200 44 217 36 240 30 C264 25 294 22 332 22 C375 22 409 24 435 29 C461 35 481 43 495 54 C509 66 518 80 522 98 C527 116 529 138 529 164 L529 477 C529 493 530 505 528 515 C527 525 526 532 522 538 C519 544 514 547 508 549 C502 551 495 552 485 552 L477 552 L477 567 L529 567 L541 567 L552 567 L601 567 L601 567 Z " />
<glyph glyph-name="uring" unicode="&#x16f;" horiz-adv-x="532" d="M256 487 C306 487 331 513 331 564 C331 592 326 611 314 623 C303 635 284 641 256 641 C229 641 210 636 198 624 C187 612 181 592 181 564 C181 513 206 487 256 487 L256 487 Z M161 564 C161 598 168 621 182 635 C197 649 222 656 256 656 C291 656 315 650 329 636 C344 622 351 598 351 564 C351 502 320 471 256 471 C193 471 161 502 161 564 L161 564 Z M497 39 L497 30 L398 0 L384 0 L384 18 L384 60 C352 48 325 38 303 30 C281 22 263 16 248 10 C232 4 219 -1 208 -5 C178 -5 154 -3 134 3 C115 9 100 18 88 31 C77 45 70 61 65 81 C61 102 58 127 58 155 L58 356 C58 384 57 401 52 409 C48 417 37 421 21 421 L15 421 L15 436 L58 436 L93 436 L128 436 L127 162 C127 140 129 122 133 106 C137 91 144 79 154 69 C164 59 177 53 195 48 C213 44 236 41 263 41 C283 41 302 43 318 47 C335 51 357 58 384 68 L384 110 L384 356 C384 384 383 401 378 409 C374 417 364 421 348 421 L341 421 L341 436 L384 436 L419 436 L454 436 L454 129 L454 86 C454 78 455 73 456 69 C458 65 459 63 462 60 C466 58 469 55 475 52 C481 50 489 45 497 39 L497 39 Z " />
<glyph glyph-name="Wcircumflex" unicode="&#x174;" horiz-adv-x="912" d="M905 567 L905 552 L899 552 C886 552 876 549 868 543 C861 537 854 525 846 505 L666 -15 L647 -15 L448 460 L286 -15 L267 -15 L65 487 L65 487 C60 501 55 512 51 520 C47 529 43 536 39 540 C35 545 31 547 26 549 C22 551 16 552 10 552 L5 552 L5 567 L33 567 L76 567 L119 567 L171 567 L171 552 L164 552 C150 552 142 550 138 544 C134 539 135 528 141 510 L302 88 L468 577 L488 577 L684 94 L822 501 C829 523 830 536 826 542 C822 549 811 552 792 552 L784 552 L784 567 L844 567 L856 567 L868 567 L905 567 L905 567 Z M478 742 L365 600 L358 606 L456 792 C458 796 460 799 463 804 C467 810 472 812 478 812 C485 812 490 811 493 805 C497 800 499 796 500 792 L599 606 L591 600 L478 742 L478 742 Z " />
<glyph glyph-name="Ycircumflex" unicode="&#x176;" horiz-adv-x="588" d="M381 15 L381 0 L337 0 L299 0 L260 0 L217 0 L217 15 L223 15 C239 15 249 19 253 27 C258 35 260 53 260 80 L260 231 L95 487 L94 487 C86 501 79 512 72 520 C66 529 61 536 55 540 C50 545 46 547 41 549 C37 551 31 552 25 552 L21 552 L21 567 L43 567 L89 567 L136 567 L188 567 L188 552 L181 552 C166 552 158 549 159 541 C161 533 170 515 187 487 L187 487 L325 269 L471 480 C492 511 502 531 502 539 C503 548 494 552 476 552 L468 552 L468 567 L531 567 L543 567 L555 567 L581 567 L581 552 L576 552 C570 552 564 552 558 550 C553 548 548 545 542 540 C537 536 531 530 524 521 C518 513 509 501 499 487 L499 487 L337 256 L337 80 C338 53 340 35 344 27 C349 19 359 15 374 15 L381 15 L381 15 Z M299 742 L185 600 L178 606 L276 792 C278 796 281 799 284 804 C288 810 293 812 299 812 C306 812 310 811 313 805 C317 800 319 796 321 792 L419 606 L412 600 L299 742 L299 742 Z " />
<glyph glyph-name="Ydieresis002" unicode="&#x178;" horiz-adv-x="588" d="M391 637 C376 637 366 641 359 647 C353 654 349 665 349 680 C349 696 352 706 358 712 C365 719 376 722 391 722 C407 722 418 720 424 713 C431 707 434 696 434 680 C434 665 431 654 424 647 C418 641 407 637 391 637 L391 637 Z M206 637 C191 637 180 641 173 647 C167 654 163 665 163 680 C163 696 167 706 173 712 C180 719 191 722 206 722 C222 722 233 720 239 713 C246 707 249 696 249 680 C249 665 246 654 239 647 C233 641 222 637 206 637 L206 637 Z M381 15 L381 0 L337 0 L299 0 L260 0 L217 0 L217 15 L223 15 C239 15 249 19 253 27 C258 35 260 53 260 80 L260 231 L95 487 L94 487 C86 501 79 512 72 520 C66 529 61 536 55 540 C50 545 46 547 41 549 C37 551 31 552 25 552 L21 552 L21 567 L43 567 L89 567 L136 567 L188 567 L188 552 L181 552 C166 552 158 549 159 541 C161 533 170 515 187 487 L187 487 L325 269 L471 480 C492 511 502 531 502 539 C503 548 494 552 476 552 L468 552 L468 567 L531 567 L543 567 L555 567 L581 567 L581 552 L576 552 C570 552 564 552 558 550 C553 548 548 545 542 540 C537 536 531 530 524 521 C518 513 509 501 499 487 L499 487 L337 256 L337 80 C338 53 340 35 344 27 C349 19 359 15 374 15 L381 15 L381 15 Z " />
<glyph glyph-name="Zacute" unicode="&#x179;" horiz-adv-x="588" d="M330 597 L322 603 L406 753 C418 773 426 786 431 794 C437 802 440 806 441 806 C449 806 456 804 466 796 C476 789 481 783 481 777 C481 775 478 770 472 762 C466 754 456 742 442 725 L330 597 L330 597 Z M519 10 C519 8 519 7 518 5 C518 4 517 2 516 0 L513 0 L436 0 L133 0 L90 0 L46 0 L433 547 L236 547 C220 547 205 547 193 545 C181 544 170 542 160 537 C150 533 140 527 130 519 C120 511 109 501 96 489 L85 479 L73 479 C79 493 82 506 86 518 C90 530 95 543 99 557 C101 561 103 565 103 567 L126 567 L183 567 L447 567 L491 567 L535 567 L147 20 L376 20 C396 20 411 20 424 22 C438 24 448 28 458 33 C468 39 477 45 485 55 C493 65 502 78 512 93 L521 106 L524 105 C528 105 532 104 536 103 C537 103 538 103 538 103 C539 103 539 102 539 102 C535 86 533 71 529 57 C526 43 523 28 519 10 L519 10 Z " />
<glyph glyph-name="zacute" unicode="&#x17a;" horiz-adv-x="489" d="M188 467 L180 473 L264 622 C276 642 284 655 289 663 C295 672 298 676 299 676 C307 676 314 674 324 666 C334 659 339 653 339 647 C339 644 336 639 330 631 C324 623 314 611 300 594 L188 467 L188 467 Z M427 102 C429 102 431 101 433 100 C438 100 442 99 445 98 C442 82 439 67 435 53 C432 40 429 25 425 8 C425 6 424 4 424 0 L419 0 L344 0 L133 0 L92 0 L50 0 L348 420 L200 420 C184 420 169 421 157 419 C145 418 135 417 125 413 C115 410 107 405 97 399 C88 393 77 386 65 376 L55 368 L43 368 C47 380 50 390 53 398 C57 407 60 417 63 428 C64 430 64 431 64 432 C65 434 66 435 66 436 L89 436 L146 436 L359 436 L399 436 L440 436 L144 16 L282 16 C302 16 317 16 330 18 C344 20 354 24 364 29 C374 35 383 41 391 51 C400 61 409 74 419 89 L427 102 L427 102 Z " />
<glyph glyph-name="Zdot" unicode="&#x17b;" horiz-adv-x="588" d="M331 637 C316 637 305 641 298 647 C292 654 288 665 288 680 C288 696 292 706 298 712 C305 719 316 722 331 722 C347 722 358 720 364 713 C371 707 374 696 374 680 C374 665 371 654 364 647 C358 641 347 637 331 637 L331 637 Z M519 10 C519 8 519 7 518 5 C518 4 517 2 516 0 L513 0 L436 0 L133 0 L90 0 L46 0 L433 547 L236 547 C220 547 205 547 193 545 C181 544 170 542 160 537 C150 533 140 527 130 519 C120 511 109 501 96 489 L85 479 L73 479 C79 493 82 506 86 518 C90 530 95 543 99 557 C101 561 103 565 103 567 L126 567 L183 567 L447 567 L491 567 L535 567 L147 20 L376 20 C396 20 411 20 424 22 C438 24 448 28 458 33 C468 39 477 45 485 55 C493 65 502 78 512 93 L521 106 L524 105 C528 105 532 104 536 103 C537 103 538 103 538 103 C539 103 539 102 539 102 C535 86 533 71 529 57 C526 43 523 28 519 10 L519 10 Z " />
<glyph glyph-name="zdot" unicode="&#x17c;" horiz-adv-x="489" d="M264 506 C249 506 239 510 232 516 C226 523 222 534 222 549 C222 565 225 576 231 582 C238 589 249 592 264 592 C280 592 291 589 297 582 C304 576 307 565 307 549 C307 534 304 523 297 516 C291 510 280 506 264 506 L264 506 Z M427 102 C429 102 431 101 433 100 C438 100 442 99 445 98 C442 82 439 67 435 53 C432 40 429 25 425 8 C425 6 424 4 424 0 L419 0 L344 0 L133 0 L92 0 L50 0 L348 420 L200 420 C184 420 169 421 157 419 C145 418 135 417 125 413 C115 410 107 405 97 399 C88 393 77 386 65 376 L55 368 L43 368 C47 380 50 390 53 398 C57 407 60 417 63 428 C64 430 64 431 64 432 C65 434 66 435 66 436 L89 436 L146 436 L359 436 L399 436 L440 436 L144 16 L282 16 C302 16 317 16 330 18 C344 20 354 24 364 29 C374 35 383 41 391 51 C400 61 409 74 419 89 L427 102 L427 102 Z " />
<glyph glyph-name="Zcaron" unicode="&#x17d;" horiz-adv-x="588" d="M331 692 L217 834 L210 828 L309 642 C311 639 313 636 316 630 C320 625 325 622 331 622 C338 622 342 624 345 629 C349 635 351 639 353 642 L451 828 L444 834 L331 692 L331 692 Z M519 10 C519 8 519 7 518 5 C518 4 517 2 516 0 L513 0 L436 0 L133 0 L90 0 L46 0 L433 547 L236 547 C220 547 205 547 193 545 C181 544 170 542 160 537 C150 533 140 527 130 519 C120 511 109 501 96 489 L85 479 L73 479 C79 493 82 506 86 518 C90 530 95 543 99 557 C101 561 103 565 103 567 L126 567 L183 567 L447 567 L491 567 L535 567 L147 20 L376 20 C396 20 411 20 424 22 C438 24 448 28 458 33 C468 39 477 45 485 55 C493 65 502 78 512 93 L521 106 L524 105 C528 105 532 104 536 103 C537 103 538 103 538 103 C539 103 539 102 539 102 C535 86 533 71 529 57 C526 43 523 28 519 10 L519 10 Z " />
</font>
</svg>
