<?xml version="1.0" encoding="UTF-8"?>
<svg xmlns="http://www.w3.org/2000/svg" xmlns:xlink="http://www.w3.org/1999/xlink" version="1.2" >
<font id="Aaron Regular">
<font-face  font-family="Aaron" units-per-em="1024" ascent="853" descent="-100" font-style="normal" font-weight="400" font-stretch="normal" cap-height="567" x-height="436" underline-position="0" underline-thickness="0" />
<missing-glyph  horiz-adv-x="472" d="M0 700 L432 700 L432 0 L0 0 L0 700 L0 700 Z M50 50 L382 50 L382 650 L50 650 L50 50 L50 50 Z " />
<glyph glyph-name="NULL" d="" />
<glyph glyph-name="CR" unicode="&#xd;" horiz-adv-x="256" d="" />
<glyph glyph-name="space" unicode="&#x20;" horiz-adv-x="251" d="" />
<glyph glyph-name="exclam" unicode="&#x21;" horiz-adv-x="234" d="M125 -5 C102 -5 85 0 75 10 C65 20 60 37 60 60 C60 84 65 100 75 110 C85 120 102 125 125 125 C149 125 165 120 175 110 C185 100 190 84 190 60 C190 37 185 20 175 10 C165 0 149 -5 125 -5 L125 -5 Z M174 507 L131 200 L119 200 L64 507 C60 531 61 547 69 557 C78 567 95 572 119 572 C143 572 158 567 166 557 C175 547 178 531 174 507 L174 507 Z " />
<glyph glyph-name="quotedbl" unicode="&#x22;" horiz-adv-x="339" d="M185 567 L300 567 L250 307 L235 307 L185 567 L185 567 Z M40 567 L155 567 L105 307 L90 307 L40 567 L40 567 Z " />
<glyph glyph-name="numbersign" unicode="&#x23;" horiz-adv-x="545" d="M387 601 L422 601 L397 431 L525 431 L515 361 L386 361 L367 235 L487 235 L477 165 L357 165 L332 0 L297 0 L322 165 L181 165 L156 0 L121 0 L146 165 L17 165 L27 235 L156 235 L175 361 L50 361 L59 431 L186 431 L211 601 L246 601 L221 431 L362 431 L387 601 L387 601 Z M210 361 L191 235 L332 235 L351 361 L210 361 L210 361 Z " />
<glyph glyph-name="dollar" unicode="&#x24;" horiz-adv-x="519" d="M277 642 L307 642 L307 571 C327 570 346 569 366 566 C386 564 408 560 431 556 L428 538 L428 538 L431 556 L438 449 L425 449 C422 455 419 459 415 463 C412 468 409 473 405 478 C393 496 381 509 365 518 C350 528 331 535 307 540 L307 319 C368 306 411 287 436 262 C462 238 474 203 474 159 C474 106 462 68 436 42 C411 17 368 2 307 -3 L307 -75 L277 -75 L277 -5 L260 -5 L227 -5 L227 -75 L197 -75 L197 -4 C169 -2 143 -1 118 1 C94 4 69 7 43 11 L37 117 C39 118 41 118 43 118 L50 118 C53 115 55 112 57 108 C59 105 62 102 64 98 C80 76 97 60 117 48 C138 36 165 28 197 24 L197 250 C142 264 103 282 79 304 C56 327 44 358 44 398 C44 452 56 492 79 519 C103 547 142 563 197 569 L197 642 L227 642 L227 571 C232 572 237 572 241 572 C246 572 251 572 256 572 L277 572 L277 642 L277 642 Z M227 21 L227 21 L234 21 L234 21 C239 21 243 20 247 20 C252 20 256 20 260 20 L277 20 L277 230 C270 232 263 234 254 236 C246 239 237 241 227 243 L227 21 L227 21 Z M227 339 C235 337 242 336 250 333 C259 331 268 328 277 326 L277 545 C271 546 266 546 262 546 C258 547 255 547 252 547 C248 547 243 547 239 547 C235 547 231 547 227 546 L227 339 L227 339 Z M197 350 L197 543 C167 538 147 528 133 511 C120 495 113 470 113 438 C113 419 119 402 132 388 C146 374 167 362 197 350 L197 350 Z M307 220 L307 22 C342 26 367 35 381 50 C396 66 403 88 403 118 C403 142 397 161 381 177 C366 193 341 208 307 220 L307 220 Z " />
<glyph glyph-name="ampersand" unicode="&#x26;" horiz-adv-x="703" d="M615 338 L615 323 L607 323 C597 323 589 324 582 324 C576 325 571 324 567 319 C564 315 562 307 560 293 C559 280 558 260 558 232 L558 206 C558 148 546 104 520 72 C547 46 568 27 584 16 C601 6 615 1 627 -1 C639 -2 651 0 662 4 C674 9 688 13 704 15 L704 0 C676 -4 652 -9 632 -15 C612 -21 594 -23 576 -25 C558 -26 541 -24 522 -17 C504 -9 482 5 457 25 C434 15 407 7 373 2 C340 -2 301 -5 257 -5 C183 -5 130 5 98 27 C66 49 50 86 50 138 C50 184 62 220 84 248 C107 277 145 301 199 321 C182 347 172 366 167 381 C163 397 160 413 160 429 C160 481 171 517 194 539 C218 561 257 572 311 572 C367 572 405 566 428 551 C452 537 463 512 463 476 C463 442 451 414 424 392 C398 370 353 352 291 338 C301 325 313 310 326 294 C340 278 355 260 372 238 C400 206 424 178 445 153 C467 129 486 108 503 90 C527 116 538 155 538 206 L538 232 C538 260 539 279 537 292 C536 306 535 314 531 318 C528 323 524 325 518 324 C512 324 505 323 495 323 L486 323 L486 338 L615 338 L615 338 Z M281 351 L281 351 C322 362 351 377 368 395 C386 414 394 439 394 471 C394 501 388 522 374 534 C361 547 338 553 306 553 C278 553 259 547 247 534 C235 522 229 500 229 469 C229 461 229 454 230 446 C232 439 233 431 237 422 C241 414 247 404 253 392 C260 381 269 367 281 351 L281 351 Z M431 49 L431 49 C414 65 395 83 375 105 C355 128 333 154 307 184 C285 212 266 234 250 254 C234 274 221 292 209 307 C183 294 164 278 152 256 C141 235 135 207 135 173 C135 123 148 89 174 67 C200 46 245 35 307 35 C333 35 355 36 375 38 C396 40 415 44 431 49 L431 49 Z " />
<glyph glyph-name="quoteright" unicode="&#x27;" horiz-adv-x="194" d="M40 567 L155 567 L105 307 L90 307 L40 567 L40 567 Z " />
<glyph glyph-name="parenleft" unicode="&#x28;" horiz-adv-x="253" d="M232 597 L243 587 C223 563 206 541 191 521 C177 501 166 480 156 458 C147 436 140 412 136 384 C132 356 130 322 130 282 C130 242 132 209 136 181 C140 153 146 128 155 106 C165 84 176 64 190 44 C205 24 223 2 243 -23 L232 -33 C201 5 175 36 153 64 C131 92 114 117 100 141 C86 165 77 188 70 210 C64 232 60 256 60 282 C60 308 63 332 69 354 C76 376 85 398 99 422 C113 446 130 471 152 499 C174 527 201 560 232 597 L232 597 Z " />
<glyph glyph-name="parenright" unicode="&#x29;" horiz-adv-x="253" d="M10 -33 L-1 -23 C20 2 37 23 51 43 C66 63 77 84 86 106 C96 128 102 152 106 180 C110 208 112 242 112 282 C112 322 110 355 106 383 C102 411 97 436 87 458 C78 480 67 500 52 520 C38 540 20 563 -1 587 L10 597 C42 561 67 528 89 500 C111 472 128 447 142 423 C156 400 166 378 172 355 C179 333 182 308 182 282 C182 256 180 232 173 210 C167 188 157 166 143 142 C129 118 112 93 90 65 C68 37 42 5 10 -33 L10 -33 Z " />
<glyph glyph-name="asterisk" unicode="&#x2a;" horiz-adv-x="300" d="M143 447 L32 483 C20 487 13 492 10 498 C8 504 10 513 16 524 C28 545 42 547 60 531 L147 453 L123 567 C118 591 127 602 150 602 C174 602 183 591 178 567 L154 454 L240 531 C250 540 258 545 264 543 C271 542 278 536 284 524 C291 513 293 504 290 498 C288 492 280 487 268 483 L157 447 L268 411 C291 404 296 390 284 369 C278 358 271 352 264 351 C258 351 250 355 240 363 L154 440 L178 327 C183 304 174 292 150 292 C127 292 118 304 123 327 L147 441 L60 363 C51 355 44 351 36 351 C29 352 22 358 16 369 C4 390 10 404 32 411 L143 447 L143 447 Z " />
<glyph glyph-name="plus" unicode="&#x2b;" horiz-adv-x="503" d="M227 395 L271 395 L271 241 L424 241 L424 201 L271 201 L271 46 L227 46 L227 201 L75 201 L75 241 L227 241 L227 395 L227 395 Z " />
<glyph glyph-name="comma" unicode="&#x2c;" horiz-adv-x="251" d="M125 -5 C102 -5 85 0 75 10 C65 20 60 37 60 60 C60 84 65 100 75 110 C85 120 102 125 125 125 C152 125 170 119 179 105 C187 96 193 86 196 74 C200 63 201 49 201 32 C201 -12 193 -48 175 -76 C157 -103 127 -127 84 -148 L78 -135 C104 -122 122 -107 132 -89 C143 -70 148 -45 148 -13 L148 -3 C145 -3 142 -3 138 -4 C134 -4 130 -5 125 -5 L125 -5 Z " />
<glyph glyph-name="hyphen" unicode="&#x2d;" horiz-adv-x="287" d="M20 170 L20 240 L268 240 L268 170 L20 170 L20 170 Z " />
<glyph glyph-name="period" unicode="&#x2e;" horiz-adv-x="250" d="M125 -5 C102 -5 85 0 75 10 C65 20 60 37 60 60 C60 84 65 100 75 110 C85 120 102 125 125 125 C149 125 165 120 175 110 C185 100 190 84 190 60 C190 37 185 20 175 10 C165 0 149 -5 125 -5 L125 -5 Z " />
<glyph glyph-name="slash" unicode="&#x2f;" horiz-adv-x="350" d="M0 -32 L310 617 L350 617 L40 -32 L0 -32 L0 -32 Z " />
<glyph glyph-name="zero" unicode="0" horiz-adv-x="552" d="M276 15 C322 15 354 30 373 61 C393 93 402 145 402 218 C402 292 393 343 373 374 C354 406 322 421 276 421 C231 421 199 407 179 375 C160 344 150 292 150 218 C150 145 160 94 179 62 C199 31 231 15 276 15 L276 15 Z M50 218 C50 259 54 293 62 321 C71 350 84 372 102 390 C120 408 144 421 172 429 C201 437 236 441 276 441 C318 441 353 437 381 429 C410 421 433 409 451 391 C469 373 482 351 490 322 C498 294 502 259 502 218 C502 178 498 144 490 115 C482 87 469 64 451 46 C433 28 410 15 381 7 C353 -1 318 -5 276 -5 C236 -5 201 -1 172 7 C144 15 120 27 102 45 C84 63 72 86 63 114 C55 143 50 178 50 218 L50 218 Z " />
<glyph glyph-name="one" unicode="1" horiz-adv-x="286" d="M231 436 L231 421 L225 421 C210 421 200 418 195 410 C191 402 188 384 188 356 L188 80 C188 52 191 35 195 27 C200 19 210 15 225 15 L231 15 L231 0 L188 0 L143 0 L98 0 L55 0 L55 15 L61 15 C77 15 87 19 91 27 C96 35 98 53 98 80 L98 356 C98 384 97 401 92 409 C88 417 77 421 61 421 L55 421 L55 436 L98 436 L143 436 L188 436 L231 436 L231 436 Z " />
<glyph glyph-name="two" unicode="2" horiz-adv-x="492" d="M450 133 L465 133 C465 125 464 118 463 111 C463 105 462 98 461 90 L461 90 L461 88 C460 81 460 74 459 67 C459 61 458 53 456 45 L451 0 L25 0 L25 20 C83 50 131 72 171 88 C211 104 244 119 269 135 C295 151 313 170 324 190 C336 211 341 240 341 278 C341 314 334 339 316 353 C299 368 270 375 229 375 C188 375 157 370 134 356 C112 343 94 320 81 288 L70 295 C92 349 117 386 148 408 C180 430 222 441 274 441 C335 441 378 431 403 411 C429 391 441 357 441 309 C441 281 437 257 428 237 C420 218 407 201 388 185 C370 170 347 155 317 140 C288 126 253 109 212 90 L381 90 C409 90 427 92 435 96 C444 101 449 111 450 127 L450 133 L450 133 Z " />
<glyph glyph-name="three" unicode="3" horiz-adv-x="471" d="M24 -47 L24 -32 C79 -29 125 -24 163 -17 C202 -9 233 0 257 12 C281 24 298 39 309 57 C321 76 326 98 326 122 C326 148 315 167 293 177 C271 188 233 193 179 193 C170 193 162 193 154 192 C147 192 140 190 132 188 C129 187 126 187 122 185 C118 184 114 183 110 181 L110 196 C155 213 183 225 197 231 C211 238 212 241 200 241 L230 241 C254 253 270 264 280 276 C291 288 296 301 296 315 C296 337 288 353 272 362 C256 372 229 376 189 376 C145 376 111 371 85 360 C60 350 38 332 20 306 L9 313 C25 337 41 356 57 372 C74 389 91 402 109 412 C127 422 147 430 167 434 C188 439 211 441 235 441 C290 441 328 434 351 419 C375 405 386 380 386 345 C386 326 377 309 359 291 C341 274 312 256 271 238 C325 234 363 224 386 206 C410 188 421 162 421 127 C421 99 415 76 400 55 C386 35 363 18 331 4 C299 -10 259 -21 208 -29 C158 -37 96 -43 24 -47 L24 -47 Z " />
<glyph glyph-name="four" unicode="4" horiz-adv-x="499" d="M65 40 L286 40 L286 306 L65 40 L65 40 Z M286 0 L32 0 L10 0 L10 16 L361 441 L376 441 L376 414 L376 40 L489 40 L489 0 L376 0 L376 -33 L286 -33 L286 0 L286 0 Z " />
<glyph glyph-name="five" unicode="5" horiz-adv-x="456" d="M397 436 L358 341 L105 341 L113 436 L96 245 L165 245 C209 245 247 244 277 239 C308 235 333 228 352 218 C372 208 386 196 394 180 C403 165 407 146 407 124 C407 97 401 74 387 54 C373 34 351 19 321 5 C291 -8 253 -17 205 -25 C157 -32 99 -37 31 -40 L30 -22 C82 -20 126 -18 162 -13 C198 -7 227 -1 250 9 C274 19 290 31 300 45 C311 59 316 76 316 95 C316 117 301 132 271 141 C241 151 191 155 119 155 L88 155 L65 155 L86 436 L113 436 L317 436 C332 436 343 436 352 437 C362 439 369 441 375 444 C381 448 385 451 389 457 C393 463 397 471 399 479 L414 479 C411 472 408 466 405 458 C403 451 400 444 397 436 L397 436 L397 436 Z " />
<glyph glyph-name="six" unicode="6" horiz-adv-x="575" d="M502 652 L502 637 C442 635 391 628 348 614 C306 600 272 581 244 553 C217 526 198 492 185 449 C173 407 166 356 165 296 C179 324 197 344 222 356 C248 369 281 375 322 375 C360 375 390 372 416 365 C442 359 463 349 479 333 C496 318 508 299 515 275 C523 252 526 223 526 189 C528 154 526 124 518 99 C510 75 497 55 478 39 C460 24 436 14 405 6 C375 -1 337 -5 293 -5 C251 -5 216 0 186 9 C156 19 132 33 113 54 C95 76 82 103 73 136 C65 170 60 210 60 258 C60 327 68 385 84 433 C100 482 125 522 160 553 C196 585 241 608 297 624 C354 640 422 650 502 652 L502 652 Z M162 172 C162 117 173 79 194 55 C216 32 252 20 304 20 C354 20 388 32 407 57 C427 83 435 125 431 184 C431 244 422 287 403 312 C385 338 353 350 307 350 C257 350 221 338 198 310 C176 283 164 237 162 172 L162 172 Z " />
<glyph glyph-name="seven" unicode="7" horiz-adv-x="447" d="M25 390 L30 436 L431 436 L438 427 C402 351 367 275 331 199 C295 123 259 47 223 -30 L123 -30 L384 344 L100 344 C85 344 73 345 64 343 C56 342 49 341 44 337 C40 334 37 330 35 324 C33 318 32 311 30 301 L15 301 C17 309 18 317 18 323 C19 330 20 337 20 344 L20 344 L25 390 L25 390 Z " />
<glyph glyph-name="eight" unicode="8" horiz-adv-x="545" d="M340 309 C358 319 369 333 377 352 C385 372 389 398 389 431 C389 476 381 507 362 525 C344 544 312 553 268 553 C228 553 201 546 183 531 C166 517 157 492 157 456 C157 428 167 405 186 385 C206 366 238 348 284 331 C294 328 304 324 313 320 C323 316 332 313 340 309 L340 309 Z M353 304 C405 281 441 258 463 234 C485 211 496 184 496 154 C496 126 492 102 484 81 C476 61 464 44 446 31 C428 19 405 10 377 4 C349 -2 315 -5 275 -5 C196 -5 140 5 106 27 C72 49 55 86 55 138 C55 183 64 216 82 238 C100 261 131 275 173 280 C141 298 117 318 103 340 C89 363 82 390 82 421 C82 476 97 514 126 537 C156 561 205 572 273 572 C343 572 392 563 420 543 C449 524 463 492 463 446 C463 408 455 378 438 355 C422 333 393 316 353 304 L353 304 Z M187 272 L187 272 C170 266 159 253 151 234 C144 216 140 189 140 153 C140 103 151 68 172 46 C194 25 230 14 280 14 C328 14 361 22 381 38 C401 55 411 83 411 123 C411 147 400 167 375 185 C351 204 310 224 252 244 C240 249 228 253 217 257 C207 262 197 267 187 272 L187 272 Z " />
<glyph glyph-name="nine" unicode="9" horiz-adv-x="575" d="M74 -215 L73 -200 C134 -198 186 -190 228 -177 C271 -163 305 -144 332 -117 C360 -89 379 -55 391 -13 C404 30 411 81 411 140 C398 112 379 93 353 80 C328 68 295 61 254 61 C218 61 186 65 160 71 C134 78 114 88 97 103 C81 119 69 138 61 161 C54 185 50 213 50 247 C48 283 51 313 58 337 C66 362 79 382 97 397 C116 413 140 423 170 430 C201 438 238 441 282 441 C324 441 359 437 389 427 C419 418 444 404 462 382 C481 361 495 334 503 300 C512 267 516 226 516 178 C516 110 508 52 492 3 C476 -45 451 -85 415 -117 C380 -148 334 -171 278 -187 C222 -203 154 -212 74 -215 L74 -215 Z M414 264 C414 320 404 358 382 381 C361 405 324 416 272 416 C224 416 190 405 170 379 C151 354 143 312 145 252 C145 192 154 150 173 124 C193 99 225 86 269 86 C321 86 357 99 379 126 C401 154 413 200 414 264 L414 264 Z " />
<glyph glyph-name="colon" unicode="&#x3a;" horiz-adv-x="250" d="M125 353 C102 353 85 358 75 368 C65 378 60 395 60 418 C60 442 65 458 75 468 C85 478 102 483 125 483 C149 483 165 478 175 468 C185 458 190 442 190 418 C190 395 185 378 175 368 C165 358 149 353 125 353 L125 353 Z M125 -5 C102 -5 85 0 75 10 C65 20 60 37 60 60 C60 84 65 100 75 110 C85 120 102 125 125 125 C149 125 165 120 175 110 C185 100 190 84 190 60 C190 37 185 20 175 10 C165 0 149 -5 125 -5 L125 -5 Z " />
<glyph glyph-name="semicolon" unicode="&#x3b;" horiz-adv-x="251" d="M125 353 C102 353 85 358 75 368 C65 378 60 395 60 418 C60 442 65 458 75 468 C85 478 102 483 125 483 C149 483 165 478 175 468 C185 458 190 442 190 418 C190 395 185 378 175 368 C165 358 149 353 125 353 L125 353 Z M125 -5 C102 -5 85 0 75 10 C65 20 60 37 60 60 C60 84 65 100 75 110 C85 120 102 125 125 125 C152 125 170 119 179 105 C187 96 193 86 196 74 C200 63 201 49 201 32 C201 -12 193 -48 175 -76 C157 -103 127 -127 84 -148 L78 -135 C104 -122 122 -107 132 -89 C143 -70 148 -45 148 -13 L148 -3 C145 -3 142 -3 138 -4 C134 -4 130 -5 125 -5 L125 -5 Z " />
<glyph glyph-name="less" unicode="&#x3c;" horiz-adv-x="546" d="M471 436 L471 391 L86 243 L471 95 L471 50 L50 217 L40 221 L40 266 L50 269 L471 436 L471 436 Z " />
<glyph glyph-name="equal" unicode="&#x3d;" horiz-adv-x="540" d="M84 188 L470 188 L470 148 L84 148 L84 188 L84 188 Z M84 288 L470 288 L470 248 L84 248 L84 288 L84 288 Z " />
<glyph glyph-name="greater" unicode="&#x3e;" horiz-adv-x="536" d="M450 243 L75 391 L75 436 L486 269 L496 265 L496 221 L486 217 L75 50 L75 95 L450 243 L450 243 Z " />
<glyph glyph-name="question" unicode="&#x3f;" horiz-adv-x="376" d="M142 -5 C119 -5 102 0 92 10 C82 20 77 37 77 60 C77 84 82 100 92 110 C102 120 119 125 142 125 C166 125 182 120 192 110 C202 100 207 84 207 60 C207 37 202 20 192 10 C182 0 166 -5 142 -5 L142 -5 Z M128 323 L163 323 C203 323 234 324 255 327 C277 331 292 335 302 339 C312 344 318 348 319 354 C321 360 321 366 321 371 C321 419 309 451 283 471 C257 491 214 501 152 501 C144 501 138 501 132 497 C126 494 121 491 115 487 C109 484 104 482 98 478 C92 475 85 473 77 473 C63 473 53 476 47 482 C41 488 38 498 38 512 C38 534 45 549 57 558 C70 568 92 572 123 572 C163 572 196 569 224 561 C252 553 275 541 292 524 C310 508 322 487 330 459 C338 432 342 399 342 361 C342 350 342 338 340 325 C339 313 334 302 324 291 C315 281 300 273 280 265 C260 258 231 254 193 254 L158 254 L148 194 L136 194 L116 309 C114 319 118 323 128 323 L128 323 Z " />
<glyph glyph-name="at" unicode="&#x40;" horiz-adv-x="1172" d="M1050 0 L1080 0 C1058 -47 1034 -86 1005 -120 C977 -153 943 -179 905 -201 C867 -222 824 -237 774 -247 C724 -256 667 -261 603 -261 C504 -261 420 -253 350 -235 C281 -217 225 -189 181 -150 C137 -110 106 -61 86 1 C66 63 56 139 56 227 C56 316 66 390 85 452 C105 514 135 564 177 603 C219 643 274 670 341 688 C409 706 490 715 586 715 C682 715 764 709 831 693 C899 678 953 655 995 621 C1038 588 1069 546 1088 492 C1108 439 1117 375 1117 299 C1117 241 1113 193 1103 151 C1093 110 1078 77 1056 51 C1034 25 1006 7 972 -5 C938 -17 897 -23 848 -23 C784 -23 737 -15 706 3 C676 21 659 51 657 93 C638 63 614 42 584 28 C554 15 516 8 470 8 C406 8 360 20 332 44 C304 69 290 110 290 166 C290 214 295 253 306 286 C318 320 335 346 359 367 C383 389 414 404 452 413 C490 423 537 427 591 427 C631 427 660 422 680 411 C700 401 713 383 719 358 L737 419 L822 419 L759 200 C739 131 736 82 752 52 C768 23 806 8 864 8 C898 8 926 14 949 24 C973 35 991 51 1005 74 C1020 98 1031 127 1037 164 C1044 202 1047 247 1047 299 C1047 371 1039 431 1022 480 C1006 530 979 570 942 601 C906 633 858 655 799 669 C741 683 670 690 586 690 C503 690 433 682 374 665 C316 649 268 623 231 585 C195 548 168 500 151 441 C135 383 126 311 126 227 C126 143 135 72 152 13 C170 -45 197 -92 235 -130 C273 -167 322 -194 382 -211 C443 -227 517 -236 603 -236 C665 -236 719 -231 765 -223 C812 -214 853 -200 888 -182 C924 -163 954 -139 980 -109 C1007 -79 1030 -42 1050 0 L1050 0 Z M706 310 L705 310 C705 344 697 368 679 382 C661 396 631 403 589 403 C553 403 523 399 497 391 C472 383 451 371 435 353 C419 336 408 314 400 286 C393 258 389 224 389 184 C389 138 399 106 418 86 C438 67 471 57 517 57 C559 57 591 67 615 89 C639 111 659 148 674 200 L706 310 L706 310 Z " />
<glyph glyph-name="A" unicode="A" horiz-adv-x="635" d="M627 15 L627 0 L592 0 L538 0 L483 0 L427 0 L427 15 L434 15 C450 15 459 18 462 23 C466 29 464 40 456 57 L389 200 L156 200 L104 71 C96 48 92 34 96 26 C100 19 111 15 129 15 L138 15 L138 0 L75 0 L58 0 L42 0 L5 0 L5 15 L11 15 C19 15 25 15 31 17 C37 19 42 23 46 27 C51 32 55 38 59 46 C64 55 69 66 75 80 L76 80 L286 580 L311 580 L560 66 C572 45 580 32 588 25 C596 19 607 15 620 15 L627 15 L627 15 Z M378 224 L265 466 L167 225 L378 224 L378 224 Z " />
<glyph glyph-name="B" unicode="B" horiz-adv-x="603" d="M40 552 L40 567 L83 567 L133 567 L183 567 L308 567 C388 567 444 558 478 537 C512 517 529 482 529 432 C529 396 520 369 500 348 C481 328 449 314 404 306 C469 299 514 285 542 261 C570 238 584 204 584 158 C584 130 581 105 571 85 C562 65 547 49 527 36 C507 24 481 15 449 9 C417 3 379 0 333 0 L183 0 L133 0 L83 0 L40 0 L40 15 L46 15 C62 15 72 19 76 27 C81 35 83 53 83 80 L83 487 C83 515 82 532 77 540 C73 548 62 552 46 552 L40 552 L40 552 Z M183 312 L283 312 C337 312 374 321 396 339 C418 357 429 388 429 432 C429 472 421 501 402 517 C384 534 352 542 308 542 L183 542 L183 312 L183 312 Z M183 291 L183 25 L323 25 C380 25 419 35 443 55 C467 76 479 110 479 158 C479 206 464 240 432 260 C401 281 348 291 273 291 L183 291 L183 291 Z " />
<glyph glyph-name="C" unicode="C" horiz-adv-x="711" d="M652 14 C614 8 576 4 538 0 C500 -3 455 -5 403 -5 C339 -5 285 0 240 10 C196 21 160 37 131 60 C103 84 82 114 69 150 C57 187 50 231 50 283 C50 336 57 381 69 417 C82 454 102 483 130 506 C159 530 196 546 240 556 C285 567 339 572 403 572 C455 572 499 571 537 568 C575 566 614 561 652 553 L658 456 L651 456 C650 456 648 455 645 455 C643 459 640 462 638 465 C636 469 634 472 630 476 C614 500 596 516 573 526 C551 537 521 544 483 546 C471 547 459 547 445 547 C432 547 418 547 403 547 C359 547 322 543 291 533 C261 524 236 510 216 488 C196 467 182 440 173 406 C165 372 160 331 160 283 C160 235 165 195 173 161 C182 128 195 102 215 80 C235 59 261 44 291 34 C322 25 359 20 403 20 C413 20 421 20 429 20 C438 20 447 21 455 21 C483 23 505 24 525 28 C545 32 562 37 576 45 C591 53 603 62 614 73 C626 85 636 98 645 112 C647 112 649 111 651 111 L658 111 L652 14 L652 14 Z " />
<glyph glyph-name="D" unicode="D" horiz-adv-x="699" d="M40 552 L40 567 L83 567 L133 567 L183 567 L295 567 C359 567 413 563 458 552 C504 542 540 525 568 502 C597 480 618 450 630 414 C643 378 649 335 649 283 C649 232 644 188 632 152 C621 116 603 88 577 65 C552 43 520 27 479 16 C439 6 390 0 332 0 L183 0 L133 0 L83 0 L40 0 L40 15 L46 15 C62 15 72 19 76 27 C81 35 83 53 83 80 L83 487 C83 515 82 532 77 540 C73 548 62 552 46 552 L40 552 L40 552 Z M183 25 L332 25 C372 25 405 30 432 39 C460 49 482 64 499 84 C517 105 529 132 537 164 C545 197 549 237 549 283 C549 331 545 371 535 403 C526 436 511 463 491 483 C471 504 446 519 413 528 C381 538 341 542 295 542 L183 542 L183 25 L183 25 Z " />
<glyph glyph-name="E" unicode="E" horiz-adv-x="565" d="M405 358 L418 358 L418 315 L418 302 L418 290 L418 241 L405 241 C401 251 397 260 392 266 C388 273 382 278 374 281 C367 285 357 287 345 288 C333 290 318 290 298 290 L183 290 L183 25 L337 25 C359 25 376 25 390 27 C405 29 417 33 428 37 C440 42 450 49 459 57 C469 66 479 77 489 91 L498 103 L509 103 C506 87 504 72 500 58 C497 44 494 29 490 13 C490 10 489 6 487 0 L483 0 L407 0 L183 0 L133 0 L83 0 L40 0 L40 15 L46 15 C62 15 72 19 76 27 C81 35 83 53 83 80 L83 487 C83 515 82 532 77 540 C73 548 62 552 46 552 L40 552 L40 567 L83 567 L133 567 L183 567 L408 567 L473 567 L488 567 L488 554 C490 538 491 523 491 509 C492 496 493 481 494 464 L483 464 L476 476 C468 490 459 502 451 510 C443 519 434 526 424 530 C414 535 403 537 388 539 C374 541 356 542 334 542 L183 542 L183 315 L298 315 C318 315 333 315 345 316 C357 318 366 319 374 322 C382 326 388 329 392 335 C397 341 401 349 405 358 L405 358 Z " />
<glyph glyph-name="F" unicode="F" horiz-adv-x="512" d="M395 354 L408 354 L408 311 L408 298 L408 286 L408 237 L395 237 C391 247 387 256 382 262 C378 269 372 274 364 277 C357 281 347 283 335 284 C323 286 308 286 288 286 L183 286 L183 80 C183 53 185 35 191 27 C197 19 210 15 228 15 L236 15 L236 0 L183 0 L133 0 L83 0 L40 0 L40 15 L46 15 C62 15 72 19 76 27 C81 35 83 53 83 80 L83 487 C83 515 82 532 77 540 C73 548 62 552 46 552 L40 552 L40 567 L83 567 L133 567 L183 567 L438 567 L503 567 L518 567 L518 554 C520 538 521 523 521 509 C522 496 523 481 524 464 L513 464 L506 476 C498 490 489 502 481 510 C473 519 464 526 454 530 C444 535 433 537 418 539 C404 541 386 542 364 542 L183 542 L183 311 L288 311 L313 311 C327 311 339 311 347 313 C356 315 363 317 369 320 C375 324 380 327 384 333 C388 339 392 346 395 354 L395 354 Z " />
<glyph glyph-name="G" unicode="G" horiz-adv-x="775" d="M682 266 L682 251 L676 251 C661 252 651 248 646 240 C642 232 639 214 639 186 L639 55 C621 45 603 36 584 28 C566 20 547 15 527 9 C508 4 487 0 465 -2 C443 -4 419 -5 393 -5 C331 -5 279 0 235 10 C191 21 156 37 128 60 C101 84 82 114 69 150 C57 187 50 231 50 283 C50 336 56 381 68 417 C81 454 101 483 128 506 C156 530 190 546 234 556 C278 567 331 572 393 572 C442 572 484 571 520 568 C556 566 594 561 632 553 L638 456 L631 456 C630 456 628 455 625 455 C623 459 620 462 618 465 C616 469 614 472 610 476 C594 500 573 518 549 528 C525 539 493 545 452 546 L452 546 C443 547 434 547 424 547 C414 547 404 547 393 547 C351 547 316 543 286 533 C256 524 232 510 213 488 C195 467 182 440 173 406 C165 372 160 331 160 283 C160 235 164 195 172 161 C181 128 195 102 213 80 C232 59 255 44 285 34 C315 25 351 20 393 20 C425 20 452 22 477 25 C503 29 527 34 549 41 L549 186 C549 214 548 232 543 240 C539 248 529 252 513 251 L506 251 L506 266 L549 266 L594 266 L639 266 L682 266 L682 266 Z " />
<glyph glyph-name="H" unicode="H" horiz-adv-x="722" d="M682 567 L682 552 L676 552 C661 552 651 549 646 541 C642 533 639 515 639 487 L639 80 C639 52 642 35 646 27 C651 19 661 15 676 15 L682 15 L682 0 L639 0 L589 0 L539 0 L496 0 L496 15 L502 15 C518 15 528 19 532 27 C537 35 539 53 539 80 L539 287 L183 287 L183 80 C183 52 186 35 190 27 C195 19 205 15 220 15 L226 15 L226 0 L183 0 L133 0 L83 0 L40 0 L40 15 L46 15 C62 15 72 19 76 27 C81 35 83 53 83 80 L83 487 C83 515 82 532 77 540 C73 548 62 552 46 552 L40 552 L40 567 L83 567 L133 567 L183 567 L226 567 L226 552 L220 552 C205 552 195 549 190 541 C186 533 183 515 183 487 L183 312 L539 312 L539 487 C539 515 538 532 533 540 C529 548 518 552 502 552 L496 552 L496 567 L539 567 L589 567 L639 567 L682 567 L682 567 Z " />
<glyph glyph-name="I" unicode="I" horiz-adv-x="266" d="M226 567 L226 552 L220 552 C205 552 195 549 190 541 C186 533 183 515 183 487 L183 80 C183 52 186 35 190 27 C195 19 205 15 220 15 L226 15 L226 0 L183 0 L133 0 L83 0 L40 0 L40 15 L46 15 C62 15 72 19 76 27 C81 35 83 53 83 80 L83 487 C83 515 82 532 77 540 C73 548 62 552 46 552 L40 552 L40 567 L83 567 L133 567 L183 567 L226 567 L226 567 Z " />
<glyph glyph-name="J" unicode="J" horiz-adv-x="373" d="M334 567 L334 552 L327 552 C314 552 306 550 300 544 C295 538 292 526 291 506 L291 487 L291 256 C291 198 289 152 285 117 C281 83 273 57 260 37 C248 18 230 5 206 -1 C183 -7 152 -10 112 -10 C77 -10 52 -5 34 4 C17 14 6 29 0 50 C-3 65 -2 75 4 81 C10 87 22 90 40 90 C53 90 62 87 69 81 C77 75 82 65 85 50 C89 36 94 25 102 19 C110 13 122 10 137 10 C149 10 158 11 165 15 C173 19 177 27 181 38 C185 50 188 66 189 87 C191 109 191 137 191 172 L191 487 C191 515 190 532 185 540 C181 548 170 552 154 552 L147 552 L147 567 L191 567 L241 567 L291 567 L334 567 L334 567 Z " />
<glyph glyph-name="K" unicode="K" horiz-adv-x="644" d="M440 552 L440 567 L483 567 L501 567 L519 567 L546 567 L546 552 L539 552 C531 552 525 552 518 550 C512 548 504 545 496 540 C488 536 480 530 469 521 C459 513 445 501 429 487 L429 487 L275 351 L398 210 C436 168 465 134 489 108 C513 82 533 63 549 49 C566 35 580 27 592 22 C604 18 617 15 630 15 L635 15 L635 -5 L599 -5 C567 -5 540 -3 518 0 C496 4 476 11 456 21 C437 32 417 47 396 66 C376 86 351 112 323 144 L200 285 L199 284 L183 305 L183 80 C183 52 186 35 190 27 C195 19 205 15 220 15 L226 15 L226 0 L183 0 L133 0 L83 0 L40 0 L40 15 L46 15 C62 15 72 19 76 27 C81 35 83 53 83 80 L83 487 C83 515 82 532 77 540 C73 548 62 552 46 552 L40 552 L40 567 L83 567 L133 567 L183 567 L226 567 L226 552 L220 552 C205 552 195 549 190 541 C186 533 183 515 183 487 L183 305 L258 371 L258 371 L391 487 L391 487 C407 501 420 512 429 520 C439 529 444 536 448 540 C452 545 455 547 453 549 C452 551 449 552 444 552 L440 552 L440 552 Z " />
<glyph glyph-name="L" unicode="L" horiz-adv-x="565" d="M492 111 C494 111 496 111 498 110 C503 110 507 109 510 107 C507 90 505 74 501 60 C498 46 494 31 490 13 C490 10 489 6 487 0 L483 0 L407 0 L183 0 L133 0 L83 0 L40 0 L40 15 L46 15 C62 15 72 19 76 27 C81 35 83 53 83 80 L83 487 C83 515 82 532 77 540 C73 548 62 552 46 552 L40 552 L40 567 L83 567 L133 567 L183 567 L226 567 L226 552 L220 552 C205 552 195 549 190 541 C186 533 183 515 183 487 L183 25 L347 25 C367 25 382 25 395 27 C409 29 420 33 430 38 C440 44 449 50 457 60 C465 70 474 83 484 98 L492 111 L492 111 Z " />
<glyph glyph-name="M" unicode="M" horiz-adv-x="805" d="M769 567 L769 552 L763 552 C748 552 738 549 734 541 C730 533 729 515 731 487 L730 487 L752 80 L752 80 C754 53 756 35 761 27 C767 19 777 15 792 15 L799 15 L799 0 L756 0 L706 0 L656 0 L613 0 L613 15 L620 15 C633 15 642 18 646 22 C651 27 654 37 654 52 L638 498 L400 -5 L375 -5 L636 567 L671 567 L681 567 L726 567 L769 567 L769 567 Z M57 552 L57 567 L100 567 L115 567 L130 567 L178 567 L418 113 L424 103 L375 -5 L350 40 L125 451 L109 95 L110 95 C110 79 110 65 110 54 C111 44 112 36 116 30 C120 24 126 20 132 18 C139 16 148 15 159 15 L169 15 L169 0 L105 0 L90 0 L75 0 L33 0 L33 15 L39 15 C53 15 62 17 67 23 C73 29 76 42 78 61 L97 509 C97 527 96 539 91 544 C87 550 78 552 64 552 L57 552 L57 552 Z " />
<glyph glyph-name="N" unicode="N" horiz-adv-x="652" d="M617 567 L617 552 L611 552 C596 552 586 549 581 541 C577 533 574 515 574 487 L574 76 L574 -20 L550 -20 L498 40 L113 484 L113 80 C113 53 115 35 119 27 C124 19 134 15 149 15 L156 15 L156 0 L113 0 L98 0 L83 0 L39 0 C40 0 40 3 39 8 C40 13 40 15 39 15 L46 15 C62 15 72 19 76 27 C81 35 83 53 83 80 L83 487 C83 515 82 532 77 540 C73 548 62 552 46 552 L39 552 C40 552 40 555 39 559 C40 565 40 567 39 567 L83 567 L98 567 L113 567 L172 567 L113 526 L113 526 L172 567 L544 139 L544 487 C544 515 543 532 538 540 C534 548 523 552 507 552 L501 552 L501 567 L544 567 L559 567 L574 567 L617 567 L617 567 Z " />
<glyph glyph-name="O" unicode="O" horiz-adv-x="765" d="M382 20 C427 20 464 26 492 37 C521 49 544 65 560 87 C577 110 589 138 595 170 C602 203 605 241 605 283 C605 327 602 365 595 397 C589 430 577 457 560 479 C544 502 521 519 492 530 C464 542 427 547 382 547 C338 547 302 542 273 530 C245 519 222 503 205 480 C189 458 177 430 170 397 C164 365 160 327 160 283 C160 241 164 203 170 170 C177 138 189 111 205 88 C222 66 245 49 273 37 C302 26 338 20 382 20 L382 20 Z M50 283 C50 331 54 372 64 408 C74 444 91 474 116 498 C142 523 175 541 218 553 C262 566 316 572 382 572 C449 572 503 567 546 554 C590 542 623 524 648 499 C674 475 690 444 700 408 C710 372 715 331 715 283 C715 237 711 195 701 159 C691 123 675 94 649 69 C624 45 591 27 547 14 C504 2 449 -5 382 -5 C316 -5 263 1 219 13 C176 26 143 44 117 68 C92 93 75 123 65 159 C55 195 50 237 50 283 L50 283 Z " />
<glyph glyph-name="P" unicode="P" horiz-adv-x="567" d="M40 552 L40 567 L83 567 L133 567 L183 567 L315 567 C357 567 392 565 422 559 C452 553 477 545 495 532 C514 520 527 503 535 483 C544 463 548 439 548 410 C548 382 544 358 534 338 C525 318 510 302 489 289 C469 277 442 268 409 262 C377 256 337 253 289 253 L183 253 L183 80 C183 52 186 35 190 27 C195 19 205 15 220 15 L226 15 L226 0 L183 0 L133 0 L83 0 L40 0 L40 15 L46 15 C62 15 72 19 76 27 C81 35 83 53 83 80 L83 487 C83 515 82 532 77 540 C73 548 62 552 46 552 L40 552 L40 552 Z M183 278 L289 278 C345 278 385 288 408 308 C432 328 443 362 443 410 C443 458 434 492 414 512 C395 532 362 542 315 542 L183 542 L183 278 L183 278 Z " />
<glyph glyph-name="Q" unicode="Q" horiz-adv-x="765" d="M811 54 C786 24 760 2 732 -11 C704 -23 670 -30 629 -30 C616 -30 603 -30 588 -29 C574 -27 559 -26 541 -24 C524 -22 506 -20 484 -17 C463 -13 439 -9 411 -5 L382 -5 C316 -5 263 1 219 13 C176 26 143 44 117 68 C92 93 75 123 65 159 C55 195 50 237 50 283 C50 331 54 372 64 408 C74 444 91 474 116 498 C142 523 175 541 218 553 C262 566 316 572 382 572 C449 572 503 567 546 554 C590 542 623 524 648 499 C674 475 690 444 700 408 C710 372 715 331 715 283 C715 224 708 175 692 133 C676 92 647 60 603 36 L640 36 C691 36 729 38 753 42 C778 46 794 53 802 62 L811 54 L811 54 Z M310 26 L310 26 C315 29 330 31 358 32 C386 34 429 35 487 35 C533 52 564 81 580 123 C597 165 605 219 605 283 C605 327 602 365 595 397 C589 430 577 457 560 479 C544 502 521 519 492 530 C464 542 427 547 382 547 C338 547 302 542 273 530 C245 519 222 503 205 480 C189 458 177 430 170 397 C164 365 160 327 160 283 C160 247 163 215 167 185 C172 156 180 131 191 109 C203 88 218 70 237 56 C257 42 281 32 310 26 L310 26 Z " />
<glyph glyph-name="R" unicode="R" horiz-adv-x="654" d="M40 552 L40 567 L83 567 L133 567 L183 567 L308 567 C350 567 385 565 413 559 C442 554 465 546 483 534 C501 523 514 508 522 489 C530 471 534 448 534 422 C534 378 523 345 499 321 C475 297 436 282 381 274 L550 87 C568 68 581 54 589 44 C598 35 604 29 609 25 C615 21 620 19 625 19 C631 20 639 20 649 20 L654 20 L654 0 L619 0 C588 0 566 1 550 0 C535 0 522 2 511 7 C501 13 490 22 476 37 C463 53 442 76 414 106 L266 269 L183 269 L183 80 C183 52 186 35 190 27 C195 19 205 15 220 15 L226 15 L226 0 L183 0 L133 0 L83 0 L40 0 L40 15 L46 15 C62 15 72 19 76 27 C81 35 83 53 83 80 L83 487 C83 515 82 532 77 540 C73 548 62 552 46 552 L40 552 L40 552 Z M283 294 C337 294 374 304 396 323 C418 343 429 376 429 422 C429 466 421 497 402 515 C384 533 352 542 308 542 L183 542 L183 294 L243 294 L283 294 L283 294 Z " />
<glyph glyph-name="S" unicode="S" horiz-adv-x="519" d="M438 449 L425 449 C422 455 419 459 415 463 C412 468 409 473 405 478 C391 498 375 513 356 523 C338 533 313 540 283 544 L283 544 C269 546 258 547 252 547 C202 547 167 540 145 523 C124 507 113 478 113 438 C113 411 126 389 154 371 C182 353 229 337 295 322 C361 309 406 291 433 265 C461 240 474 205 474 159 C474 129 471 104 463 83 C455 63 444 47 426 33 C409 20 387 10 359 4 C332 -2 299 -5 260 -5 C216 -5 178 -3 144 -1 C111 2 77 6 43 11 L37 117 C39 118 41 118 43 118 L50 118 C53 115 55 112 57 108 C59 105 62 102 64 98 C82 72 103 54 129 42 C155 30 190 23 234 21 L234 21 C239 21 243 20 247 20 C252 20 256 20 260 20 C312 20 348 28 370 42 C392 57 403 82 403 118 C403 150 389 175 361 194 C333 214 286 231 218 245 C156 259 111 277 84 300 C58 324 44 356 44 398 C44 430 47 456 55 478 C63 500 75 518 92 532 C110 546 132 556 158 562 C185 569 218 572 256 572 C286 572 314 571 340 568 C367 566 397 562 431 556 L428 538 L428 538 L431 556 L438 449 L438 449 Z " />
<glyph glyph-name="T" unicode="T" horiz-adv-x="626" d="M406 15 L406 0 L363 0 L313 0 L263 0 L220 0 L220 15 L226 15 C242 15 252 19 256 27 C261 35 263 53 263 80 L263 542 L146 542 C130 542 115 542 103 540 C91 538 81 535 71 529 C62 524 53 517 44 507 C36 497 26 485 14 469 L5 456 L-7 456 C-4 474 -2 490 0 505 C2 521 5 537 8 554 C9 557 9 559 9 561 C9 563 10 565 10 567 L40 567 L90 567 L536 567 L586 567 L616 567 C617 565 617 563 617 561 C617 559 618 557 618 554 C622 537 624 521 626 505 C628 490 631 474 633 456 L621 456 L612 469 C602 485 593 496 583 506 C574 516 565 524 555 529 C546 535 536 537 524 539 C512 541 498 542 480 542 L363 542 L363 80 C363 53 365 35 369 27 C374 19 384 15 400 15 L406 15 L406 15 Z " />
<glyph glyph-name="U" unicode="U" horiz-adv-x="617" d="M597 567 L597 552 L590 552 C575 552 565 550 559 543 C553 537 550 522 549 499 L549 477 L549 159 C549 129 547 104 541 83 C536 63 526 47 509 33 C493 20 469 10 438 4 C408 -2 367 -5 316 -5 C264 -5 221 -2 189 5 C157 13 134 23 116 38 C99 54 88 73 82 97 C76 121 73 151 73 185 L73 487 C73 515 72 532 67 540 C63 548 52 552 36 552 L30 552 L30 567 L73 567 L123 567 L173 567 L216 567 L216 552 L210 552 C195 552 185 549 180 541 C176 533 173 515 173 487 L173 166 C173 142 174 121 178 103 C182 86 189 72 200 61 C212 51 228 44 248 38 C269 33 296 30 330 30 C372 30 405 32 429 37 C454 43 472 50 485 61 C499 73 507 86 511 104 C516 122 518 144 518 169 L519 493 C519 519 516 534 510 541 C504 549 493 552 475 552 L467 552 L467 567 L519 567 L534 567 L549 567 L597 567 L597 567 Z " />
<glyph glyph-name="V" unicode="V" horiz-adv-x="628" d="M623 567 L623 552 L616 552 C603 552 593 549 585 543 C578 537 570 524 561 504 L349 -15 L324 -15 L73 487 C67 501 62 512 56 520 C51 529 46 536 41 540 C37 545 32 547 27 549 C23 551 17 552 11 552 L6 552 L6 567 L33 567 L88 567 L143 567 L201 567 C201 567 201 565 201 559 C201 555 201 552 201 552 L193 552 C175 552 166 549 164 541 C163 533 169 515 183 487 L182 487 L371 104 L512 457 L512 457 C520 477 525 494 529 506 C533 519 536 529 534 535 C533 542 530 546 523 548 C517 551 508 552 496 552 L487 552 L487 567 L556 567 L571 567 L586 567 L623 567 L623 567 Z " />
<glyph glyph-name="W" unicode="W" horiz-adv-x="940" d="M933 567 L933 552 L926 552 C918 552 913 552 907 550 C902 548 898 545 893 540 C889 536 885 530 881 521 C877 513 873 501 867 487 L867 487 L689 -15 L664 -15 L461 430 L513 577 L303 -15 L278 -15 L61 501 C51 523 44 536 37 542 C31 549 22 552 10 552 L5 552 L5 567 L33 567 L88 567 L143 567 L195 567 L195 552 L188 552 C172 552 163 549 161 541 C159 533 164 515 175 487 L175 487 L324 114 L488 577 L513 577 L712 123 L837 487 L837 487 C847 515 852 532 848 540 C845 548 833 552 813 552 L805 552 L805 567 L865 567 L880 567 L895 567 L933 567 L933 567 Z " />
<glyph glyph-name="X" unicode="X" horiz-adv-x="650" d="M445 552 L445 567 L508 567 L528 567 L548 567 L579 567 C579 567 579 565 579 559 C579 555 579 552 579 552 L572 552 C558 552 547 549 537 543 C527 537 514 524 496 503 L354 327 L354 327 L544 78 C554 65 562 55 569 46 C577 38 583 32 588 27 C594 23 599 20 603 18 C608 16 613 15 618 15 L623 15 L623 0 L603 0 L546 0 L489 0 L432 0 L432 15 L438 15 C454 15 461 18 462 24 C464 30 457 43 441 63 L430 77 C430 78 429 78 429 78 C429 79 429 80 428 80 L428 80 L300 248 L170 75 C152 50 143 34 143 26 C143 19 152 15 169 15 L177 15 L177 0 L114 0 L95 0 L76 0 L45 0 L45 15 L51 15 C59 15 66 15 72 17 C78 19 84 23 90 27 C97 32 104 38 111 46 C119 55 128 66 138 80 L138 80 L285 268 L111 496 C103 508 96 518 89 525 C83 533 78 538 72 542 C67 546 62 549 57 550 C53 552 48 552 42 552 L37 552 L37 567 L57 567 L114 567 L171 567 L229 567 L229 552 L222 552 C206 552 197 549 198 541 C200 533 211 515 232 487 L232 487 L339 347 L460 504 C475 524 482 537 480 543 C479 549 470 552 453 552 L445 552 L445 552 Z " />
<glyph glyph-name="Y" unicode="Y" horiz-adv-x="610" d="M399 15 L399 0 L356 0 L306 0 L256 0 L213 0 L213 15 L219 15 C235 15 245 19 249 27 C254 35 256 53 256 80 L256 239 L82 499 C66 521 55 536 47 542 C39 549 30 552 19 552 L14 552 C15 552 15 555 14 559 C15 565 15 567 14 567 L36 567 L96 567 L156 567 L208 567 L208 552 L201 552 C189 552 182 550 180 544 C178 539 183 528 193 510 L341 285 L499 502 C513 523 519 536 517 542 C515 549 507 552 491 552 L483 552 L483 567 L546 567 L561 567 L576 567 L603 567 L603 552 L597 552 C591 552 585 552 579 550 C574 548 569 545 563 540 C557 536 552 530 544 521 C537 513 528 501 517 487 L517 487 L356 269 L356 269 L356 80 C356 52 359 35 363 27 C368 19 378 15 393 15 L399 15 L399 15 Z " />
<glyph glyph-name="Z" unicode="Z" horiz-adv-x="588" d="M517 112 C519 112 521 111 523 110 C528 110 532 109 535 108 C531 91 529 76 525 61 C522 47 518 31 514 13 C513 8 512 4 511 0 L507 0 L431 0 L152 0 L96 0 L40 0 L405 542 L221 542 C205 542 190 542 178 540 C166 539 155 537 145 532 C135 528 125 522 115 514 C105 506 94 496 81 483 L70 473 L58 473 C64 489 68 502 72 514 C76 526 81 540 86 554 C88 560 89 564 90 567 L120 567 L170 567 L422 567 L479 567 L536 567 L170 26 L372 26 C392 26 407 26 420 28 C434 30 444 34 454 39 C464 45 473 51 481 61 C489 71 498 84 508 99 L517 112 L517 112 Z " />
<glyph glyph-name="bracketleft" unicode="&#x5b;" horiz-adv-x="254" d="M140 547 L140 -100 L245 -100 L245 -120 L140 -120 L70 -120 L70 567 L140 567 L245 567 L245 547 L140 547 L140 547 Z " />
<glyph glyph-name="backslash" unicode="&#x5c;" horiz-adv-x="252" d="M221 -32 L-60 617 L-29 617 L253 -32 L221 -32 L221 -32 Z " />
<glyph glyph-name="bracketright" unicode="&#x5d;" horiz-adv-x="249" d="M110 547 L5 547 L5 567 L110 567 L180 567 L180 -120 L110 -120 L5 -120 L5 -100 L110 -100 L110 547 L110 547 Z " />
<glyph glyph-name="underscore" unicode="&#x5f;" horiz-adv-x="468" d="M5 -50 L464 -50 L464 -100 L5 -100 L5 -50 L5 -50 Z " />
<glyph glyph-name="a" unicode="a" horiz-adv-x="506" d="M485 49 L495 37 C487 29 480 21 472 15 C465 9 457 5 448 1 C440 -3 430 -5 418 -7 C407 -9 393 -10 375 -10 C349 -10 331 -5 321 3 C311 12 305 26 303 45 C283 28 261 15 237 7 C214 -1 187 -5 156 -5 C112 -5 81 2 63 16 C45 31 36 56 36 90 C36 127 49 155 76 173 C104 192 150 206 214 214 L302 225 L302 311 C302 349 297 376 287 392 C277 408 261 416 237 416 L46 416 C118 426 170 431 202 435 C234 439 253 441 257 441 C308 441 344 430 365 407 C387 385 397 346 397 291 L397 97 C397 74 398 58 402 48 C406 38 418 33 437 33 C452 33 461 34 467 36 C473 39 479 43 485 49 L485 49 Z M302 202 L214 186 C182 180 159 173 145 161 C132 150 125 135 125 115 C125 94 131 79 142 69 C154 60 173 55 201 55 C245 55 278 61 302 71 L302 87 L302 202 L302 202 Z " />
<glyph glyph-name="b" unicode="b" horiz-adv-x="574" d="M153 386 L153 140 C153 96 163 65 181 47 C200 29 231 20 275 20 C329 20 368 32 390 55 C413 79 424 119 424 175 C424 217 422 252 415 280 C409 309 398 332 384 350 C370 368 353 381 330 389 C308 397 280 401 248 401 C236 401 223 401 208 398 C194 396 175 392 153 386 L153 386 Z M153 401 C183 409 208 414 229 419 C251 425 268 429 281 432 C297 436 309 439 318 441 C355 441 386 437 411 429 C437 421 457 408 473 390 C489 372 501 349 508 320 C516 292 519 257 519 216 C519 176 515 142 506 114 C498 86 484 64 464 46 C444 28 420 15 388 7 C357 -1 319 -5 275 -5 C234 -5 202 3 179 17 C173 19 166 20 158 22 C151 24 143 25 133 25 C117 25 106 24 96 20 C87 16 80 10 74 1 L73 0 L63 0 L63 522 L63 576 C62 585 59 590 54 592 C50 595 40 600 26 608 L19 611 C21 611 21 614 19 620 L135 656 L153 656 L153 633 L153 546 L153 401 L153 401 Z " />
<glyph glyph-name="c" unicode="c" horiz-adv-x="509" d="M459 64 C429 39 400 22 368 11 C337 1 299 -5 255 -5 C218 -5 186 -1 160 6 C134 14 114 26 97 42 C81 59 69 80 61 106 C54 132 50 164 50 201 C50 245 55 282 64 312 C74 343 88 367 108 386 C129 406 155 420 187 428 C220 437 260 441 306 441 C360 441 397 435 420 420 C444 406 457 381 460 346 C460 332 457 321 451 315 C445 309 435 306 420 306 C405 306 394 310 387 316 C381 323 377 334 375 350 C373 374 366 391 354 401 C342 411 323 416 296 416 C242 416 204 403 180 375 C157 347 145 301 145 235 C145 202 149 174 155 150 C162 126 173 107 187 92 C202 78 220 67 244 60 C268 54 297 50 330 50 C364 50 390 51 408 55 C426 59 441 66 451 74 L459 64 L459 64 Z " />
<glyph glyph-name="d" unicode="d" horiz-adv-x="611" d="M544 45 L544 36 L429 0 L411 0 L411 23 L411 58 C381 47 357 37 336 29 C316 21 299 15 286 9 C271 3 259 -1 249 -5 C214 -5 184 -2 159 5 C135 13 115 23 99 39 C84 55 74 75 66 100 C59 126 55 156 55 192 C55 238 60 275 68 307 C77 339 91 364 109 384 C128 404 151 418 181 427 C211 437 248 441 290 441 C344 441 385 438 411 432 L411 522 L411 576 C410 585 407 590 402 592 C398 595 388 600 374 608 L368 611 L368 620 L483 656 L501 656 L501 633 L501 546 L501 134 L501 80 C503 72 506 67 510 64 C515 62 524 56 538 48 L544 45 L544 45 Z M411 110 L411 407 C399 411 384 412 363 414 C343 416 317 417 286 417 C236 417 202 404 180 374 C159 345 148 296 148 226 C148 162 159 117 182 90 C206 64 245 50 299 50 C323 50 342 52 359 54 C377 57 394 62 411 68 L411 110 L411 110 Z " />
<glyph glyph-name="e" unicode="e" horiz-adv-x="516" d="M465 64 C435 39 406 22 374 11 C343 1 304 -5 258 -5 C220 -5 189 -1 162 6 C136 14 115 26 98 42 C82 59 70 80 62 106 C54 132 50 164 50 201 C50 245 54 282 62 312 C71 343 84 367 102 386 C121 406 144 420 173 428 C203 437 238 441 280 441 C314 441 343 439 366 432 C390 426 408 416 423 401 C439 387 450 368 456 345 C463 323 466 295 466 262 L381 262 L146 262 C146 258 145 254 145 249 C145 245 145 240 145 235 C145 202 148 174 155 150 C163 126 173 107 188 92 C204 78 222 67 246 60 C270 54 299 50 333 50 C368 50 395 51 413 55 C432 59 447 66 457 74 L465 64 L465 64 Z M147 279 L344 292 C369 295 382 309 382 335 L382 338 C382 367 374 386 358 398 C342 410 315 416 275 416 C233 416 203 407 183 385 C163 364 151 329 147 279 L147 279 Z M340 292 L339 292 L340 292 L340 292 Z " />
<glyph glyph-name="f" unicode="f" horiz-adv-x="397" d="M223 15 L223 0 L180 0 L135 0 L90 0 L47 0 L47 15 L53 15 C69 15 79 19 83 27 C88 35 90 53 90 80 L90 401 L13 401 L13 436 L90 436 L95 486 C99 517 104 542 113 564 C123 586 135 604 152 617 C170 631 190 640 216 646 C242 653 273 656 309 656 C349 656 378 653 395 644 C413 636 422 622 424 602 C424 588 421 577 415 571 C409 565 399 562 384 562 C369 562 358 565 351 571 C345 577 341 588 339 602 C338 615 333 623 325 628 C317 634 304 636 284 636 C246 636 220 624 204 598 C188 572 180 528 180 466 L180 436 L319 436 L319 401 L180 401 L180 80 C180 53 182 35 186 27 C191 19 201 15 216 15 L223 15 L223 15 Z " />
<glyph glyph-name="g" unicode="g" horiz-adv-x="480" d="M480 436 L480 386 L397 387 C411 367 417 339 417 302 C417 252 405 218 377 196 C350 175 304 164 238 164 L182 164 C154 164 135 163 123 159 C111 156 105 150 105 141 C105 135 111 130 124 128 C138 126 160 126 192 127 L279 131 C345 131 390 127 418 116 C446 106 460 88 460 63 C460 41 456 22 445 6 C435 -10 418 -23 395 -33 C373 -43 343 -49 307 -54 C271 -58 228 -61 176 -61 C120 -61 80 -57 56 -50 C32 -42 20 -30 20 -12 C20 -2 27 6 43 14 C59 23 86 33 123 43 C95 46 75 52 63 62 C51 72 45 87 45 106 C45 128 52 144 66 155 C80 167 104 174 136 177 C109 187 90 201 78 221 C66 241 60 268 60 302 C60 353 73 388 100 409 C128 431 174 441 238 441 C288 441 326 435 354 423 L354 423 L480 436 L480 436 Z M145 302 C145 260 152 229 166 211 C180 193 204 184 238 184 C272 184 296 193 310 211 C325 229 332 260 332 302 C332 346 326 376 311 394 C297 412 272 421 238 421 C204 421 180 412 166 394 C152 376 145 346 145 302 L145 302 Z M159 41 C131 33 110 27 98 20 C86 14 80 7 80 -1 C80 -14 88 -22 104 -28 C120 -33 148 -36 186 -36 C262 -36 315 -32 347 -24 C379 -15 395 -1 395 18 C395 28 385 35 363 39 C342 43 306 45 254 45 L197 42 C190 42 183 41 177 41 C171 41 165 41 159 41 L159 41 Z " />
<glyph glyph-name="h" unicode="h" horiz-adv-x="572" d="M532 15 L532 0 L489 0 L444 0 L399 0 L356 0 L356 15 L362 15 C378 15 388 19 392 27 C397 35 399 53 399 80 L399 283 C399 301 399 316 396 328 C394 341 390 350 382 358 C375 366 365 371 352 375 C340 379 323 381 301 381 C273 381 251 380 232 378 C214 376 196 373 178 367 L178 80 L178 61 C179 42 181 30 186 24 C192 18 201 15 214 15 L221 15 C221 15 221 13 221 8 C221 3 221 0 221 0 L178 0 L133 0 L88 0 L44 0 C45 0 45 3 44 8 C45 13 45 15 44 15 L51 15 C67 15 77 19 81 27 C86 35 88 53 88 80 L88 522 L88 576 C87 585 84 590 79 592 C75 595 65 600 51 608 L44 611 C46 611 46 614 44 620 L160 656 L178 656 L178 633 L178 546 L178 377 C213 389 242 398 266 406 C291 415 311 422 326 426 C344 432 359 437 370 441 C396 441 416 439 432 433 C448 428 460 419 468 407 C477 395 483 380 485 361 C488 343 489 320 489 293 L489 80 C489 52 492 35 496 27 C501 19 511 15 526 15 L532 15 L532 15 Z " />
<glyph glyph-name="i" unicode="i" horiz-adv-x="266" d="M221 15 L221 0 L178 0 L133 0 L88 0 L45 0 L45 15 L51 15 C67 15 77 19 81 27 C86 35 88 53 88 80 L88 302 L88 355 C87 365 84 370 79 372 C75 375 65 380 51 388 L45 391 L45 400 L160 436 L178 436 L178 413 L178 326 L178 80 C178 52 181 35 185 27 C190 19 200 15 215 15 L221 15 L221 15 Z M128 506 C107 506 92 511 82 520 C73 530 68 545 68 566 C68 588 73 603 82 612 C92 622 107 626 128 626 C150 626 165 623 174 613 C184 604 188 588 188 566 C188 545 185 530 175 520 C166 511 150 506 128 506 L128 506 Z " />
<glyph glyph-name="j" unicode="j" horiz-adv-x="267" d="M129 506 C108 506 93 511 83 520 C74 530 69 545 69 566 C69 588 74 603 83 612 C93 622 108 626 129 626 C151 626 166 623 175 613 C185 604 189 588 189 566 C189 545 186 530 176 520 C167 511 151 506 129 506 L129 506 Z M89 356 C88 365 85 370 80 372 C76 375 67 380 53 388 L46 391 L46 400 L161 436 L179 436 L179 413 L180 27 C180 33 179 36 175 36 C171 37 163 35 149 27 C136 20 116 8 90 -8 C64 -24 29 -46 -16 -74 L-24 -62 C2 -46 21 -33 36 -24 C52 -14 62 -7 70 -3 C78 2 83 4 85 4 C88 5 89 5 89 3 L89 302 L89 356 L89 356 Z " />
<glyph glyph-name="k" unicode="k" horiz-adv-x="510" d="M537 15 L537 0 L507 0 L451 0 L395 0 L352 0 L352 15 L356 15 C367 15 370 19 366 27 C362 35 348 53 322 80 L322 80 L187 229 L186 228 L177 240 L177 80 L177 61 C178 42 180 30 185 24 C191 18 200 15 213 15 L220 15 C220 15 220 13 220 8 C220 3 220 0 220 0 L177 0 L132 0 L87 0 L43 0 C44 0 44 3 43 8 C44 13 44 15 43 15 L50 15 C66 15 76 19 80 27 C85 35 87 53 87 80 L87 522 L87 576 C86 585 83 590 78 592 C74 595 64 600 50 608 L43 611 C45 611 45 614 43 620 L159 656 L177 656 L177 633 L177 546 L177 240 L329 369 C355 391 369 405 374 411 C380 418 378 421 369 421 L365 421 L365 436 L408 436 L428 436 L448 436 L472 436 L472 421 L466 421 C460 421 453 422 447 420 C441 419 436 417 428 413 C421 410 413 406 404 400 C396 394 385 387 373 377 L257 284 L437 80 L437 80 C449 66 459 56 467 47 C476 39 484 32 490 27 C497 23 503 20 509 18 C516 16 523 15 531 15 L537 15 L537 15 Z " />
<glyph glyph-name="l" unicode="l" horiz-adv-x="266" d="M221 15 L221 0 L178 0 L133 0 L88 0 L45 0 L45 15 L51 15 C67 15 77 19 81 27 C86 35 88 53 88 80 L88 522 L88 575 C87 585 84 590 79 592 C75 595 65 600 51 608 L45 611 L45 620 L160 656 L178 656 L178 633 L178 546 L178 80 C178 52 181 35 185 27 C190 19 200 15 215 15 L221 15 L221 15 Z " />
<glyph glyph-name="m" unicode="m" horiz-adv-x="903" d="M864 15 L864 0 L820 0 L775 0 L730 0 L687 0 L687 15 L694 15 C710 15 719 19 723 27 C728 35 730 53 730 80 L730 283 C730 319 722 345 705 359 C689 374 662 381 626 381 C594 381 569 381 549 378 C529 376 510 372 490 366 C496 346 499 322 499 293 L499 80 C499 52 502 35 506 27 C511 19 521 15 536 15 L542 15 L542 0 L499 0 L454 0 L409 0 L366 0 L366 15 L372 15 C388 15 398 19 402 27 C407 35 409 53 409 80 L409 283 C409 321 402 348 385 363 C369 379 342 386 306 386 C281 386 260 385 241 382 C223 380 202 375 178 367 L178 333 L178 326 L178 80 L178 61 C179 42 181 30 186 24 C192 18 201 15 214 15 L221 15 C221 15 221 13 221 8 C221 3 221 0 221 0 L178 0 L133 0 L88 0 L44 0 C45 0 45 3 44 8 C45 13 45 15 44 15 L51 15 C67 15 77 19 81 27 C86 35 88 53 88 80 L88 302 L88 333 L88 333 C88 344 89 351 88 356 C88 362 87 365 84 368 C82 372 79 374 73 376 C68 379 61 383 51 388 L44 391 C46 391 46 394 44 400 L160 436 L178 436 L178 377 C214 389 244 398 269 406 C295 415 315 422 331 426 C350 432 365 437 376 441 C405 441 428 437 446 427 C464 417 478 401 486 379 C524 391 556 399 582 407 C609 415 631 422 647 427 C667 433 683 437 695 441 C739 441 771 431 791 408 C811 386 821 347 821 293 L820 70 C822 47 824 32 828 25 C833 19 843 15 857 15 L864 15 L864 15 Z " />
<glyph glyph-name="n" unicode="n" horiz-adv-x="572" d="M532 15 L532 0 L489 0 L444 0 L399 0 L356 0 L356 15 L362 15 C378 15 388 19 392 27 C397 35 399 53 399 80 L399 283 C399 301 399 316 396 328 C394 341 390 350 382 358 C375 366 365 371 352 375 C340 379 323 381 301 381 C273 381 251 380 232 378 C214 376 196 373 178 367 L178 333 L178 326 L178 80 L178 61 C179 42 181 30 186 24 C192 18 201 15 214 15 L221 15 C221 15 221 13 221 8 C221 3 221 0 221 0 L178 0 L133 0 L88 0 L44 0 C45 0 45 3 44 8 C45 13 45 15 44 15 L51 15 C67 15 77 19 81 27 C86 35 88 53 88 80 L88 302 L88 333 L88 333 C88 344 89 351 88 356 C88 362 87 365 84 368 C82 372 79 374 73 376 C68 379 61 383 51 388 L44 391 C46 391 46 394 44 400 L160 436 L178 436 L178 377 C213 389 242 398 266 406 C291 415 311 422 326 426 C344 432 359 437 370 441 C396 441 416 439 432 433 C448 428 460 419 468 407 C477 395 483 380 485 361 C488 343 489 320 489 293 L489 80 C489 52 492 35 496 27 C501 19 511 15 526 15 L532 15 L532 15 Z " />
<glyph glyph-name="o" unicode="o" horiz-adv-x="606" d="M303 15 C359 15 398 30 421 61 C445 93 456 145 456 218 C456 292 445 343 421 374 C398 406 359 421 303 421 C248 421 209 407 185 375 C162 344 150 292 150 218 C150 145 162 94 185 62 C209 31 248 15 303 15 L303 15 Z M50 218 C50 259 55 293 64 321 C74 350 88 372 108 390 C128 408 154 421 186 429 C218 437 257 441 303 441 C349 441 388 437 420 429 C452 421 478 409 498 391 C518 373 533 351 542 322 C552 294 556 259 556 218 C556 178 552 144 542 115 C533 87 518 64 498 46 C478 28 452 15 420 7 C388 -1 349 -5 303 -5 C257 -5 218 -1 186 7 C154 15 128 27 108 45 C88 63 74 86 64 114 C55 143 50 178 50 218 L50 218 Z " />
<glyph glyph-name="p" unicode="p" horiz-adv-x="616" d="M174 362 L177 333 L178 333 L178 326 L178 99 C208 71 232 50 251 38 C271 26 289 20 305 20 C367 20 410 30 435 52 C461 74 473 111 473 162 C473 202 471 235 464 263 C458 291 448 314 433 331 C419 349 400 361 377 369 C355 377 327 381 295 381 C273 381 253 380 234 377 C216 375 196 370 174 362 L174 362 Z M178 4 L178 4 C180 -12 182 -21 187 -27 C193 -32 202 -35 214 -35 L221 -35 C221 -35 221 -37 221 -42 C221 -47 221 -50 221 -50 L178 -50 L133 -50 L88 -50 L44 -50 C45 -50 45 -47 44 -42 C45 -37 45 -35 44 -35 L51 -35 C67 -35 77 -31 81 -23 C86 -15 88 3 88 30 L88 302 L88 333 L88 333 C88 344 89 351 88 356 C88 362 87 365 84 368 C82 372 79 374 73 376 C68 379 61 383 51 388 L44 391 C46 391 46 394 44 400 L147 436 L165 436 L172 376 C208 388 237 398 261 406 C286 414 306 421 321 426 C339 432 354 437 365 441 C401 441 431 438 456 430 C482 422 501 410 517 393 C533 377 544 356 551 329 C559 303 562 270 562 232 C562 190 558 154 548 123 C539 93 525 68 504 49 C484 31 457 17 424 8 C392 0 352 -5 305 -5 C277 -5 253 -4 232 -3 C212 -1 194 1 178 4 L178 4 Z " />
<glyph glyph-name="q" unicode="q" horiz-adv-x="588" d="M543 -35 L543 -50 L500 -50 L455 -50 L410 -50 L367 -50 L367 -35 L373 -35 C389 -35 399 -31 403 -23 C408 -15 410 3 410 30 L410 63 L240 -5 C207 -5 179 -2 155 5 C131 13 112 23 97 39 C83 55 72 75 65 100 C59 126 55 156 55 192 C55 238 59 275 67 307 C76 339 90 364 108 384 C127 404 151 418 180 427 C210 437 245 441 287 441 C327 441 358 437 378 427 C387 425 396 424 404 422 C413 420 423 419 434 419 C449 419 460 421 468 423 C477 426 484 430 489 435 L490 436 L500 436 L500 30 C500 3 502 -15 506 -23 C511 -31 521 -35 537 -35 L543 -35 L543 -35 Z M410 75 L410 342 C410 370 401 388 382 399 C364 411 332 416 287 416 C237 416 202 402 180 373 C159 345 148 296 148 226 C148 162 158 117 180 90 C202 64 239 50 289 50 C309 50 329 51 347 55 C366 59 387 66 410 75 L410 75 Z M344 436 L344 436 C326 440 307 441 287 441 C299 441 309 442 318 440 C328 439 336 438 344 436 L344 436 Z " />
<glyph glyph-name="r" unicode="r" horiz-adv-x="402" d="M173 364 L177 333 L178 333 L178 326 L178 80 L178 61 C179 42 181 30 186 24 C192 18 201 15 214 15 L221 15 C221 15 221 13 221 8 C221 3 221 0 221 0 L178 0 L133 0 L88 0 L44 0 C45 0 45 3 44 8 C45 13 45 15 44 15 L51 15 C67 15 77 19 81 27 C86 35 88 53 88 80 L88 302 L88 333 L88 333 C88 344 89 351 88 356 C88 362 87 365 84 368 C82 372 79 374 73 376 C68 379 61 383 51 388 L44 391 C46 391 46 394 44 400 L147 436 L165 436 L172 376 C198 388 219 398 237 406 C255 414 270 421 281 426 C295 432 305 437 313 441 C331 441 345 440 355 438 C366 436 373 433 379 428 C385 424 388 418 390 410 C392 403 393 394 393 383 C393 367 390 356 383 349 C377 343 366 339 350 339 C340 339 330 340 321 344 C313 348 304 352 296 356 C288 361 280 364 271 368 C263 372 253 374 242 374 C226 374 214 374 203 372 C193 371 183 368 173 364 L173 364 Z " />
<glyph glyph-name="s" unicode="s" horiz-adv-x="429" d="M44 65 L55 65 C57 63 58 61 60 59 C62 57 64 55 66 53 C80 39 95 30 113 24 C131 18 156 15 186 15 L208 15 C244 15 269 21 283 33 C298 46 305 67 305 97 C305 117 297 133 281 146 C265 160 238 173 200 186 C148 204 112 223 90 243 C69 264 58 289 58 319 C58 363 71 395 97 413 C123 432 168 441 230 441 C266 441 293 441 313 441 C333 442 347 443 354 443 L355 443 L360 372 L354 372 C352 372 350 372 348 371 C347 373 346 375 344 377 C343 379 342 381 340 383 C332 397 323 406 311 411 C299 417 284 420 264 421 L230 421 C193 421 167 417 151 405 C136 394 128 376 128 350 C128 331 138 315 158 299 C179 284 214 268 264 250 C306 235 335 218 353 200 C371 182 380 159 380 131 C380 82 368 47 340 26 C313 6 267 -5 203 -5 C125 -5 74 -6 50 -8 L51 0 L51 0 L50 -8 L49 -8 L44 65 L44 65 Z M50 -8 L49 -15 L50 -8 L50 -8 L50 -8 Z M49 -8 C39 -8 33 -9 33 -11 C34 -12 39 -13 49 -15 L49 -8 L49 -8 Z M355 447 L355 443 C360 444 363 445 362 445 C362 446 359 447 355 447 L355 447 Z " />
<glyph glyph-name="t" unicode="t" horiz-adv-x="357" d="M326 436 L326 401 L186 401 L186 97 C186 83 187 72 187 63 C188 55 189 48 193 44 C197 40 202 39 209 37 C217 36 226 35 238 35 C256 35 269 36 279 36 C290 37 299 38 305 39 C312 41 316 42 320 44 C324 47 328 50 331 52 L338 44 C328 36 319 29 309 22 C300 16 291 10 280 6 C270 2 258 0 244 -2 C231 -4 214 -5 194 -5 C172 -5 154 -4 140 -2 C127 0 118 4 111 12 C105 20 101 31 99 47 C97 63 96 85 96 113 L96 401 L25 401 L25 411 C55 416 80 430 102 453 C125 477 148 514 171 564 L186 564 L186 436 L326 436 L326 436 Z " />
<glyph glyph-name="u" unicode="u" horiz-adv-x="550" d="M502 45 L502 36 L387 0 L369 0 L369 23 L369 68 C339 55 314 44 292 34 C271 25 254 18 240 12 C225 5 212 -1 202 -5 C174 -5 150 -3 131 3 C113 9 98 18 87 31 C77 45 70 61 65 81 C61 102 58 127 58 155 L58 356 C58 384 57 401 52 409 C48 417 37 421 21 421 L14 421 C15 421 15 424 14 429 C15 434 15 436 14 436 L58 436 L103 436 L148 436 L147 164 C147 144 148 127 152 113 C156 99 163 88 172 79 C182 71 194 64 210 60 C227 56 248 54 272 54 C290 54 304 55 318 59 C332 63 349 70 369 78 L369 110 L369 356 C369 384 368 401 363 409 C359 417 348 421 332 421 L326 421 L326 436 L369 436 L414 436 L459 436 L459 134 L459 80 C461 72 464 67 468 64 C473 62 482 56 496 48 L502 45 L502 45 Z " />
<glyph glyph-name="v" unicode="v" horiz-adv-x="545" d="M510 436 L510 421 L503 421 C495 421 489 421 483 419 C478 417 474 415 468 410 C463 406 458 399 453 390 C449 382 443 370 436 356 L436 356 L261 -10 L246 -10 L67 356 L67 356 C61 370 56 382 50 390 C45 399 41 405 35 409 C30 414 25 416 19 418 C14 420 7 421 -1 421 L-7 421 L-7 436 L28 436 L80 436 L131 436 L174 436 C175 436 175 434 174 429 C175 424 175 421 174 421 L169 421 C156 421 149 418 149 410 C149 402 156 384 168 356 L168 356 L291 90 L408 356 L408 356 C421 384 428 401 427 409 C427 417 420 421 406 421 L401 421 L401 436 L444 436 L459 436 L474 436 L510 436 L510 436 Z " />
<glyph glyph-name="w" unicode="w" horiz-adv-x="850" d="M806 436 L806 421 L796 421 C789 421 784 421 780 421 C776 422 772 418 766 408 L566 -10 L551 -10 L403 293 L261 -10 L246 -10 L54 383 C48 395 44 404 40 409 C36 415 34 418 30 420 C27 422 24 423 21 422 C19 422 15 421 11 421 L1 421 L1 436 L28 436 L131 436 L181 436 L181 421 L171 421 C166 421 162 422 157 422 C153 423 149 424 147 422 C145 421 144 419 144 415 C145 411 147 405 149 397 L291 89 L393 314 L357 387 C352 399 348 407 344 411 C341 416 339 418 336 420 C334 422 331 423 328 422 C326 422 322 421 318 421 L309 421 L309 436 L333 436 L436 436 L491 436 L491 421 L480 421 C474 421 469 421 464 421 C460 422 456 423 453 421 C451 420 449 417 449 413 C450 409 452 403 455 394 L596 90 L703 332 L702 332 C714 359 723 379 727 391 C732 404 735 412 733 416 C732 421 728 423 722 422 C716 422 709 421 699 421 L688 421 L688 436 L749 436 L779 436 L806 436 L806 436 Z " />
<glyph glyph-name="x" unicode="x" horiz-adv-x="530" d="M464 436 L464 421 L457 421 C450 421 444 421 438 419 C432 418 427 415 420 411 C414 407 407 403 399 395 C391 388 382 378 371 366 L362 356 L278 262 L432 62 C448 43 460 30 467 24 C475 18 483 15 492 15 L497 15 L497 0 L480 0 L425 0 L370 0 L327 0 L327 15 L331 15 C343 15 347 19 344 27 C342 35 330 53 308 80 L308 80 L222 193 L134 80 L134 80 C112 52 102 35 101 27 C101 19 111 15 132 15 L140 15 L140 0 L71 0 L56 0 L41 0 L4 0 L4 15 L11 15 C21 15 29 15 35 17 C42 19 49 23 55 27 C62 32 69 38 77 46 C85 55 95 66 105 80 L105 80 L209 209 L96 356 L95 356 C85 370 76 382 68 390 C61 399 55 405 49 409 C43 414 39 416 33 418 C28 420 22 421 16 421 L11 421 L11 436 L34 436 L89 436 L144 436 L195 436 L195 421 L189 421 C177 421 172 419 170 414 C169 410 174 399 186 382 L268 275 L336 356 L336 356 C360 384 372 401 374 409 C376 417 369 421 353 421 L347 421 L347 436 L404 436 L419 436 L434 436 L464 436 L464 436 Z " />
<glyph glyph-name="y" unicode="y" horiz-adv-x="584" d="M549 436 L549 421 L542 421 C534 421 528 421 522 419 C517 417 513 415 507 410 C502 406 497 399 492 390 C488 382 482 370 475 356 L475 356 L300 -10 L271 -72 C273 -67 273 -63 271 -61 C269 -58 263 -56 252 -54 L279 2 L106 356 L106 356 C100 370 95 382 89 390 C84 399 80 405 74 409 C69 414 64 416 58 418 C53 420 46 421 38 421 L32 421 L32 436 L67 436 L119 436 L170 436 L213 436 C214 436 214 434 213 429 C214 424 214 421 213 421 L208 421 C195 421 188 418 188 410 C188 402 195 384 207 356 L207 356 L330 90 L447 356 L447 356 C460 384 467 401 466 409 C466 417 459 421 445 421 L440 421 L440 436 L483 436 L498 436 L513 436 L549 436 L549 436 Z M252 -54 L251 -54 C251 -55 251 -57 250 -59 C250 -61 249 -62 247 -64 L252 -54 L252 -54 Z M251 -54 L251 -54 C240 -52 223 -51 199 -51 C175 -50 143 -50 101 -50 C76 -50 59 -47 48 -40 C38 -32 32 -20 32 -4 C32 10 36 19 42 25 C49 31 61 34 77 34 C85 34 92 33 98 30 C105 28 111 26 117 22 C123 19 129 16 135 13 C141 11 148 9 156 9 C182 9 203 9 218 7 C234 6 244 3 251 -2 C259 -6 262 -13 261 -21 C261 -29 257 -40 251 -54 L251 -54 Z " />
<glyph glyph-name="z" unicode="z" horiz-adv-x="463" d="M397 107 C399 107 401 106 403 106 C408 105 412 104 415 102 C412 86 410 70 406 56 C403 42 399 27 395 10 C395 8 396 7 395 5 C395 4 394 2 393 0 L388 0 L313 0 L125 0 L72 0 L19 0 L297 416 L171 415 L171 415 C154 415 140 416 128 414 C116 413 106 412 96 408 C86 405 78 400 68 394 C59 388 48 381 36 371 L26 363 L14 363 C18 375 21 384 24 394 C28 404 31 415 35 426 C36 429 37 432 38 436 L69 436 L118 436 L310 436 L362 436 L414 436 L138 20 L252 20 C272 20 287 21 300 23 C314 25 325 29 335 34 C345 40 354 46 362 56 C370 66 379 79 389 94 L397 107 L397 107 Z " />
<glyph glyph-name="braceleft" unicode="&#x7b;" horiz-adv-x="253" d="M239 -26 L199 -26 C149 -26 114 -16 93 4 C73 25 62 60 62 108 L62 251 C62 256 58 258 50 260 C42 262 29 263 10 263 L5 263 L5 278 L10 278 C29 278 42 285 50 298 C58 312 62 335 62 367 L62 433 C62 482 73 516 93 536 C114 557 149 567 199 567 L239 567 L239 552 L219 552 C187 552 166 543 152 525 C139 507 132 477 132 433 L132 417 C132 372 127 339 116 315 C106 292 88 277 63 271 C88 269 106 263 116 251 C127 240 132 223 132 201 L132 108 C132 65 138 34 151 16 C165 -2 187 -11 219 -11 L239 -11 L239 -26 L239 -26 Z " />
<glyph glyph-name="bar" unicode="&#x7c;" horiz-adv-x="190" d="M60 706 L130 706 L130 -90 L60 -90 L60 706 L60 706 Z " />
<glyph glyph-name="braceright" unicode="&#x7d;" horiz-adv-x="253" d="M5 567 L45 567 C95 567 131 558 151 537 C172 517 182 482 182 433 L182 289 C182 285 185 283 193 281 C201 279 215 278 233 278 L239 278 L239 263 L233 263 C215 263 202 257 194 243 C186 229 182 206 182 174 L182 108 C182 60 172 26 151 5 C131 -15 95 -26 45 -26 L5 -26 L5 -11 L25 -11 C57 -11 79 -2 92 16 C106 34 112 65 112 108 L112 124 C112 170 118 203 128 226 C139 250 157 264 181 270 C157 273 139 279 128 290 C118 302 112 318 112 339 L112 433 C112 477 107 507 93 525 C80 543 57 552 25 552 L5 552 L5 567 L5 567 Z " />
<glyph glyph-name="nbspace" unicode="&#xa0;" horiz-adv-x="226" d="" />
<glyph glyph-name="exclamdown" unicode="&#xa1;" horiz-adv-x="234" d="M109 441 C133 441 149 436 159 426 C169 416 174 400 174 376 C174 353 169 336 159 326 C149 316 133 311 109 311 C86 311 69 316 59 326 C49 336 44 353 44 376 C44 400 49 416 59 426 C69 436 86 441 109 441 L109 441 Z M60 -71 L103 236 L115 236 L170 -71 C175 -94 174 -111 165 -121 C157 -131 140 -136 115 -136 C92 -136 77 -131 68 -121 C60 -111 57 -94 60 -71 L60 -71 Z " />
<glyph glyph-name="cent" unicode="&#xa2;" horiz-adv-x="509" d="M276 511 L306 511 L306 441 C360 441 397 435 420 420 C444 406 457 381 460 346 C460 332 457 321 451 315 C445 309 435 306 420 306 C405 306 394 310 387 316 C381 323 377 334 375 350 C373 373 368 389 357 399 C347 409 330 415 306 416 L306 51 C310 51 314 50 318 50 C322 50 326 50 330 50 C364 50 390 51 408 55 C426 59 441 66 451 74 L459 64 C436 44 412 30 388 19 C364 9 337 2 306 -2 L306 -75 L276 -75 L276 -5 L255 -5 C218 -5 186 -1 160 6 C134 14 114 26 97 42 C81 59 69 80 61 106 C54 132 50 164 50 201 C50 243 54 278 62 307 C71 337 84 360 102 379 C120 399 144 412 172 422 C201 432 236 438 276 440 L276 511 L276 511 Z M276 53 L276 415 C229 412 195 397 175 369 C155 342 145 297 145 235 C145 178 155 136 175 107 C195 79 229 61 276 53 L276 53 Z " />
<glyph glyph-name="guillemotleft" unicode="&#xab;" horiz-adv-x="469" d="M284 218 L425 44 L415 35 L190 213 L190 223 L413 402 L422 392 L284 218 L284 218 Z M114 218 L255 44 L246 35 L20 213 L20 223 L243 402 L253 392 L114 218 L114 218 Z " />
<glyph glyph-name="guillemotright" unicode="&#xbb;" horiz-adv-x="469" d="M186 218 L47 392 L57 402 L280 223 L280 213 L55 35 L45 44 L186 218 L186 218 Z M356 218 L217 392 L227 402 L450 223 L450 213 L224 35 L215 44 L356 218 L356 218 Z " />
<glyph glyph-name="questiondown" unicode="&#xbf;" horiz-adv-x="376" d="M235 441 C259 441 275 436 285 426 C295 416 300 400 300 376 C300 353 295 336 285 326 C275 316 259 311 235 311 C212 311 195 316 185 326 C175 336 170 353 170 376 C170 400 175 416 185 426 C195 436 212 441 235 441 L235 441 Z M249 113 L214 113 C174 113 144 113 122 109 C100 106 85 102 75 97 C65 93 60 88 58 82 C57 76 56 71 56 65 C56 18 68 -15 94 -35 C120 -55 164 -65 225 -65 C233 -65 239 -64 245 -61 C251 -57 256 -54 262 -51 C268 -47 273 -45 279 -42 C285 -38 292 -37 300 -37 C314 -37 324 -39 330 -45 C336 -51 339 -61 339 -75 C339 -97 334 -112 320 -122 C307 -131 285 -136 254 -136 C214 -136 181 -133 153 -125 C125 -117 103 -104 85 -88 C68 -71 55 -50 47 -23 C39 5 35 37 35 75 C35 87 36 99 37 111 C39 124 44 136 53 146 C63 157 77 166 97 172 C117 179 146 182 184 182 L219 182 L229 242 L241 242 L261 127 C263 118 259 113 249 113 L249 113 Z " />
<glyph glyph-name="Agrave" unicode="&#xc0;" horiz-adv-x="635" d="M627 15 L627 0 L592 0 L538 0 L483 0 L427 0 L427 15 L434 15 C450 15 459 18 462 23 C466 29 464 40 456 57 L389 200 L156 200 L104 71 C96 48 92 34 96 26 C100 19 111 15 129 15 L138 15 L138 0 L75 0 L58 0 L42 0 L5 0 L5 15 L11 15 C19 15 25 15 31 17 C37 19 42 23 46 27 C51 32 55 38 59 46 C64 55 69 66 75 80 L76 80 L286 580 L311 580 L560 66 C572 45 580 32 588 25 C596 19 607 15 620 15 L627 15 L627 15 Z M299 759 L381 605 L371 597 L254 723 C240 739 230 749 224 756 C218 764 215 769 215 773 C215 777 216 780 220 784 C224 789 229 793 234 797 C240 801 244 805 250 807 C256 810 262 811 266 811 C270 811 274 808 278 800 C283 792 290 779 299 759 L299 759 Z M378 224 L265 466 L167 225 L378 224 L378 224 Z " />
<glyph glyph-name="Aacute" unicode="&#xc1;" horiz-adv-x="635" d="M237 597 L227 605 L305 759 C315 779 323 791 327 799 C332 807 335 811 337 811 C342 811 347 810 353 807 C359 805 365 801 370 797 C376 793 379 790 383 785 C387 781 389 777 389 773 C389 770 386 765 380 757 C374 750 365 739 351 723 L237 597 L237 597 Z M627 15 L627 0 L592 0 L538 0 L483 0 L427 0 L427 15 L434 15 C450 15 459 18 462 23 C466 29 464 40 456 57 L389 200 L156 200 L104 71 C96 48 92 34 96 26 C100 19 111 15 129 15 L138 15 L138 0 L75 0 L58 0 L42 0 L5 0 L5 15 L11 15 C19 15 25 15 31 17 C37 19 42 23 46 27 C51 32 55 38 59 46 C64 55 69 66 75 80 L76 80 L286 580 L311 580 L560 66 C572 45 580 32 588 25 C596 19 607 15 620 15 L627 15 L627 15 Z M378 224 L265 466 L167 225 L378 224 L378 224 Z " />
<glyph glyph-name="Acircumflex" unicode="&#xc2;" horiz-adv-x="635" d="M627 15 L627 0 L592 0 L538 0 L483 0 L427 0 L427 15 L434 15 C450 15 459 18 462 23 C466 29 464 40 456 57 L389 200 L156 200 L104 71 C96 48 92 34 96 26 C100 19 111 15 129 15 L138 15 L138 0 L75 0 L58 0 L42 0 L5 0 L5 15 L11 15 C19 15 25 15 31 17 C37 19 42 23 46 27 C51 32 55 38 59 46 C64 55 69 66 75 80 L76 80 L286 580 L311 580 L560 66 C572 45 580 32 588 25 C596 19 607 15 620 15 L627 15 L627 15 Z M298 725 L186 599 L176 607 L270 786 C272 791 275 796 279 802 C284 808 290 811 298 811 C307 811 313 808 317 802 C321 796 325 791 327 786 L420 607 L411 599 L298 725 L298 725 Z M378 224 L265 466 L167 225 L378 224 L378 224 Z " />
<glyph glyph-name="Atilde" unicode="&#xc3;" horiz-adv-x="635" d="M154 662 L139 662 C139 706 144 737 156 755 C168 773 188 782 216 782 C234 782 250 779 264 772 C279 766 292 759 305 751 C319 743 332 736 346 729 C361 723 377 719 395 719 C413 719 425 724 432 733 C440 743 443 758 443 779 L458 779 C458 735 452 704 439 686 C427 668 405 659 375 659 C357 659 341 663 327 669 C313 676 300 682 286 690 C273 698 259 706 245 712 C231 719 215 722 197 722 C182 722 171 718 164 708 C158 699 154 684 154 662 L154 662 Z M627 15 L627 0 L592 0 L538 0 L483 0 L427 0 L427 15 L434 15 C450 15 459 18 462 23 C466 29 464 40 456 57 L389 200 L156 200 L104 71 C96 48 92 34 96 26 C100 19 111 15 129 15 L138 15 L138 0 L75 0 L58 0 L42 0 L5 0 L5 15 L11 15 C19 15 25 15 31 17 C37 19 42 23 46 27 C51 32 55 38 59 46 C64 55 69 66 75 80 L76 80 L286 580 L311 580 L560 66 C572 45 580 32 588 25 C596 19 607 15 620 15 L627 15 L627 15 Z M378 224 L265 466 L167 225 L378 224 L378 224 Z " />
<glyph glyph-name="Adieresis" unicode="&#xc4;" horiz-adv-x="635" d="M394 637 C374 637 361 641 352 649 C344 658 339 672 339 692 C339 712 343 726 351 734 C360 743 374 747 394 747 C414 747 428 744 436 735 C445 727 449 712 449 692 C449 672 446 659 437 650 C429 642 414 637 394 637 L394 637 Z M202 637 C182 637 169 641 160 649 C152 658 147 672 147 692 C147 712 151 726 159 734 C168 743 182 747 202 747 C222 747 236 744 244 735 C253 727 257 712 257 692 C257 672 254 659 245 650 C237 642 222 637 202 637 L202 637 Z M627 15 L627 0 L592 0 L538 0 L483 0 L427 0 L427 15 L434 15 C450 15 459 18 462 23 C466 29 464 40 456 57 L389 200 L156 200 L104 71 C96 48 92 34 96 26 C100 19 111 15 129 15 L138 15 L138 0 L75 0 L58 0 L42 0 L5 0 L5 15 L11 15 C19 15 25 15 31 17 C37 19 42 23 46 27 C51 32 55 38 59 46 C64 55 69 66 75 80 L76 80 L286 580 L311 580 L560 66 C572 45 580 32 588 25 C596 19 607 15 620 15 L627 15 L627 15 Z M378 224 L265 466 L167 225 L378 224 L378 224 Z " />
<glyph glyph-name="Aring" unicode="&#xc5;" horiz-adv-x="635" d="M298 622 C345 622 368 646 368 694 C368 721 363 739 352 750 C342 762 324 767 298 767 C273 767 255 763 244 751 C234 740 228 721 228 694 C228 646 252 622 298 622 L298 622 Z M203 694 C203 728 210 752 224 766 C239 780 264 787 298 787 C333 787 357 780 371 766 C386 752 393 728 393 694 C393 633 362 602 298 602 C235 602 203 633 203 694 L203 694 Z M627 15 L627 0 L592 0 L538 0 L483 0 L427 0 L427 15 L434 15 C450 15 459 18 462 23 C466 29 464 40 456 57 L389 200 L156 200 L104 71 C96 48 92 34 96 26 C100 19 111 15 129 15 L138 15 L138 0 L75 0 L58 0 L42 0 L5 0 L5 15 L11 15 C19 15 25 15 31 17 C37 19 42 23 46 27 C51 32 55 38 59 46 C64 55 69 66 75 80 L76 80 L286 580 L311 580 L560 66 C572 45 580 32 588 25 C596 19 607 15 620 15 L627 15 L627 15 Z M378 224 L265 466 L167 225 L378 224 L378 224 Z " />
<glyph glyph-name="Ccedilla" unicode="&#xc7;" horiz-adv-x="711" d="M652 14 C614 8 576 4 538 0 C500 -3 455 -5 403 -5 C339 -5 285 0 240 10 C196 21 160 37 131 60 C103 84 82 114 69 150 C57 187 50 231 50 283 C50 336 57 381 69 417 C82 454 102 483 130 506 C159 530 196 546 240 556 C285 567 339 572 403 572 C455 572 499 571 537 568 C575 566 614 561 652 553 L658 456 L651 456 C650 456 648 455 645 455 C643 459 640 462 638 465 C636 469 634 472 630 476 C614 500 596 516 573 526 C551 537 521 544 483 546 C471 547 459 547 445 547 C432 547 418 547 403 547 C359 547 322 543 291 533 C261 524 236 510 216 488 C196 467 182 440 173 406 C165 372 160 331 160 283 C160 235 165 195 173 161 C182 128 195 102 215 80 C235 59 261 44 291 34 C322 25 359 20 403 20 C413 20 421 20 429 20 C438 20 447 21 455 21 C483 23 505 24 525 28 C545 32 562 37 576 45 C591 53 603 62 614 73 C626 85 636 98 645 112 C647 112 649 111 651 111 L658 111 L652 14 L652 14 Z " />
<glyph glyph-name="Egrave" unicode="&#xc8;" horiz-adv-x="565" d="M405 358 L418 358 L418 315 L418 302 L418 290 L418 241 L405 241 C401 251 397 260 392 266 C388 273 382 278 374 281 C367 285 357 287 345 288 C333 290 318 290 298 290 L183 290 L183 25 L337 25 C359 25 376 25 390 27 C405 29 417 33 428 37 C440 42 450 49 459 57 C469 66 479 77 489 91 L498 103 L509 103 C506 87 504 72 500 58 C497 44 494 29 490 13 C490 10 489 6 487 0 L483 0 L407 0 L183 0 L133 0 L83 0 L40 0 L40 15 L46 15 C62 15 72 19 76 27 C81 35 83 53 83 80 L83 487 C83 515 82 532 77 540 C73 548 62 552 46 552 L40 552 L40 567 L83 567 L133 567 L183 567 L408 567 L473 567 L488 567 L488 554 C490 538 491 523 491 509 C492 496 493 481 494 464 L483 464 L476 476 C468 490 459 502 451 510 C443 519 434 526 424 530 C414 535 403 537 388 539 C374 541 356 542 334 542 L183 542 L183 315 L298 315 C318 315 333 315 345 316 C357 318 366 319 374 322 C382 326 388 329 392 335 C397 341 401 349 405 358 L405 358 Z M264 759 L345 605 L335 597 L218 723 C204 739 194 749 188 756 C182 764 179 769 179 773 C179 777 180 780 184 784 C188 789 193 793 198 797 C204 801 208 805 214 807 C220 810 226 811 230 811 C234 811 237 808 242 800 C248 792 255 779 264 759 L264 759 Z " />
<glyph glyph-name="Eacute" unicode="&#xc9;" horiz-adv-x="565" d="M247 597 L237 605 L315 759 C325 779 332 791 336 799 C341 807 345 811 347 811 C352 811 357 810 363 807 C369 805 375 801 380 797 C386 793 389 790 393 785 C397 781 399 777 399 773 C399 770 396 765 390 757 C384 750 375 739 361 723 L247 597 L247 597 Z M405 358 L418 358 L418 315 L418 302 L418 290 L418 241 L405 241 C401 251 397 260 392 266 C388 273 382 278 374 281 C367 285 357 287 345 288 C333 290 318 290 298 290 L183 290 L183 25 L337 25 C359 25 376 25 390 27 C405 29 417 33 428 37 C440 42 450 49 459 57 C469 66 479 77 489 91 L498 103 L509 103 C506 87 504 72 500 58 C497 44 494 29 490 13 C490 10 489 6 487 0 L483 0 L407 0 L183 0 L133 0 L83 0 L40 0 L40 15 L46 15 C62 15 72 19 76 27 C81 35 83 53 83 80 L83 487 C83 515 82 532 77 540 C73 548 62 552 46 552 L40 552 L40 567 L83 567 L133 567 L183 567 L408 567 L473 567 L488 567 L488 554 C490 538 491 523 491 509 C492 496 493 481 494 464 L483 464 L476 476 C468 490 459 502 451 510 C443 519 434 526 424 530 C414 535 403 537 388 539 C374 541 356 542 334 542 L183 542 L183 315 L298 315 C318 315 333 315 345 316 C357 318 366 319 374 322 C382 326 388 329 392 335 C397 341 401 349 405 358 L405 358 Z " />
<glyph glyph-name="Ecircumflex" unicode="&#xca;" horiz-adv-x="565" d="M405 358 L418 358 L418 315 L418 302 L418 290 L418 241 L405 241 C401 251 397 260 392 266 C388 273 382 278 374 281 C367 285 357 287 345 288 C333 290 318 290 298 290 L183 290 L183 25 L337 25 C359 25 376 25 390 27 C405 29 417 33 428 37 C440 42 450 49 459 57 C469 66 479 77 489 91 L498 103 L509 103 C506 87 504 72 500 58 C497 44 494 29 490 13 C490 10 489 6 487 0 L483 0 L407 0 L183 0 L133 0 L83 0 L40 0 L40 15 L46 15 C62 15 72 19 76 27 C81 35 83 53 83 80 L83 487 C83 515 82 532 77 540 C73 548 62 552 46 552 L40 552 L40 567 L83 567 L133 567 L183 567 L408 567 L473 567 L488 567 L488 554 C490 538 491 523 491 509 C492 496 493 481 494 464 L483 464 L476 476 C468 490 459 502 451 510 C443 519 434 526 424 530 C414 535 403 537 388 539 C374 541 356 542 334 542 L183 542 L183 315 L298 315 C318 315 333 315 345 316 C357 318 366 319 374 322 C382 326 388 329 392 335 C397 341 401 349 405 358 L405 358 Z M278 725 L165 599 L156 607 L249 786 C252 791 255 796 259 802 C263 808 270 811 278 811 C286 811 292 808 296 802 C301 796 305 791 307 786 L400 607 L390 599 L278 725 L278 725 Z " />
<glyph glyph-name="Edieresis" unicode="&#xcb;" horiz-adv-x="565" d="M374 637 C354 637 341 641 332 649 C324 658 319 672 319 692 C319 712 323 726 331 734 C340 743 354 747 374 747 C394 747 408 744 416 735 C425 727 429 712 429 692 C429 672 426 659 417 650 C409 642 394 637 374 637 L374 637 Z M181 637 C161 637 148 641 139 649 C131 658 126 672 126 692 C126 712 130 726 138 734 C147 743 161 747 181 747 C201 747 215 744 223 735 C232 727 236 712 236 692 C236 672 233 659 224 650 C216 642 201 637 181 637 L181 637 Z M405 358 L418 358 L418 315 L418 302 L418 290 L418 241 L405 241 C401 251 397 260 392 266 C388 273 382 278 374 281 C367 285 357 287 345 288 C333 290 318 290 298 290 L183 290 L183 25 L337 25 C359 25 376 25 390 27 C405 29 417 33 428 37 C440 42 450 49 459 57 C469 66 479 77 489 91 L498 103 L509 103 C506 87 504 72 500 58 C497 44 494 29 490 13 C490 10 489 6 487 0 L483 0 L407 0 L183 0 L133 0 L83 0 L40 0 L40 15 L46 15 C62 15 72 19 76 27 C81 35 83 53 83 80 L83 487 C83 515 82 532 77 540 C73 548 62 552 46 552 L40 552 L40 567 L83 567 L133 567 L183 567 L408 567 L473 567 L488 567 L488 554 C490 538 491 523 491 509 C492 496 493 481 494 464 L483 464 L476 476 C468 490 459 502 451 510 C443 519 434 526 424 530 C414 535 403 537 388 539 C374 541 356 542 334 542 L183 542 L183 315 L298 315 C318 315 333 315 345 316 C357 318 366 319 374 322 C382 326 388 329 392 335 C397 341 401 349 405 358 L405 358 Z " />
<glyph glyph-name="Igrave" unicode="&#xcc;" horiz-adv-x="266" d="M226 567 L226 552 L220 552 C205 552 195 549 190 541 C186 533 183 515 183 487 L183 80 C183 52 186 35 190 27 C195 19 205 15 220 15 L226 15 L226 0 L183 0 L133 0 L83 0 L40 0 L40 15 L46 15 C62 15 72 19 76 27 C81 35 83 53 83 80 L83 487 C83 515 82 532 77 540 C73 548 62 552 46 552 L40 552 L40 567 L83 567 L133 567 L183 567 L226 567 L226 567 Z M134 759 L215 605 L205 597 L89 723 C75 739 65 749 59 756 C53 764 50 769 50 773 C50 777 51 780 55 784 C59 789 64 793 69 797 C75 801 79 805 85 807 C91 810 97 811 101 811 C105 811 109 808 113 800 C118 792 125 779 134 759 L134 759 Z " />
<glyph glyph-name="Iacute" unicode="&#xcd;" horiz-adv-x="266" d="M72 597 L62 605 L140 759 C150 779 158 791 162 799 C167 807 170 811 172 811 C177 811 182 810 188 807 C194 805 200 801 205 797 C211 793 214 790 218 785 C222 781 224 777 224 773 C224 770 221 765 215 757 C209 750 200 739 186 723 L72 597 L72 597 Z M226 567 L226 552 L220 552 C205 552 195 549 190 541 C186 533 183 515 183 487 L183 80 C183 52 186 35 190 27 C195 19 205 15 220 15 L226 15 L226 0 L183 0 L133 0 L83 0 L40 0 L40 15 L46 15 C62 15 72 19 76 27 C81 35 83 53 83 80 L83 487 C83 515 82 532 77 540 C73 548 62 552 46 552 L40 552 L40 567 L83 567 L133 567 L183 567 L226 567 L226 567 Z " />
<glyph glyph-name="Icircumflex" unicode="&#xce;" horiz-adv-x="266" d="M226 567 L226 552 L220 552 C205 552 195 549 190 541 C186 533 183 515 183 487 L183 80 C183 52 186 35 190 27 C195 19 205 15 220 15 L226 15 L226 0 L183 0 L133 0 L83 0 L40 0 L40 15 L46 15 C62 15 72 19 76 27 C81 35 83 53 83 80 L83 487 C83 515 82 532 77 540 C73 548 62 552 46 552 L40 552 L40 567 L83 567 L133 567 L183 567 L226 567 L226 567 Z M133 725 L21 599 L11 607 L105 786 C107 791 110 796 114 802 C119 808 125 811 133 811 C142 811 148 808 152 802 C156 796 160 791 162 786 L255 607 L246 599 L133 725 L133 725 Z " />
<glyph glyph-name="Idieresis" unicode="&#xcf;" horiz-adv-x="266" d="M229 637 C209 637 196 641 187 649 C179 658 174 672 174 692 C174 712 178 726 186 734 C195 743 209 747 229 747 C249 747 263 744 271 735 C280 727 284 712 284 692 C284 672 281 659 272 650 C264 642 249 637 229 637 L229 637 Z M37 637 C17 637 4 641 -5 649 C-13 658 -18 672 -18 692 C-18 712 -14 726 -6 734 C3 743 17 747 37 747 C57 747 71 744 79 735 C88 727 92 712 92 692 C92 672 89 659 80 650 C72 642 57 637 37 637 L37 637 Z M226 567 L226 552 L220 552 C205 552 195 549 190 541 C186 533 183 515 183 487 L183 80 C183 52 186 35 190 27 C195 19 205 15 220 15 L226 15 L226 0 L183 0 L133 0 L83 0 L40 0 L40 15 L46 15 C62 15 72 19 76 27 C81 35 83 53 83 80 L83 487 C83 515 82 532 77 540 C73 548 62 552 46 552 L40 552 L40 567 L83 567 L133 567 L183 567 L226 567 L226 567 Z " />
<glyph glyph-name="Ntilde" unicode="&#xd1;" horiz-adv-x="652" d="M184 662 L169 662 C169 706 174 737 186 755 C198 773 218 782 246 782 C264 782 280 779 294 772 C309 766 323 759 336 751 C350 743 363 736 377 729 C391 723 407 719 425 719 C443 719 455 724 462 733 C470 743 473 758 473 779 L488 779 C488 735 483 704 470 686 C458 668 436 659 406 659 C388 659 373 663 358 669 C344 676 330 682 316 690 C303 698 289 706 275 712 C261 719 245 722 227 722 C212 722 201 718 194 708 C188 699 184 684 184 662 L184 662 Z M617 567 L617 552 L611 552 C596 552 586 549 581 541 C577 533 574 515 574 487 L574 76 L574 -20 L550 -20 L498 40 L113 484 L113 80 C113 53 115 35 119 27 C124 19 134 15 149 15 L156 15 L156 0 L113 0 L98 0 L83 0 L39 0 C40 0 40 3 39 8 C40 13 40 15 39 15 L46 15 C62 15 72 19 76 27 C81 35 83 53 83 80 L83 487 C83 515 82 532 77 540 C73 548 62 552 46 552 L39 552 C40 552 40 555 39 559 C40 565 40 567 39 567 L83 567 L98 567 L113 567 L172 567 L113 526 L113 526 L172 567 L544 139 L544 487 C544 515 543 532 538 540 C534 548 523 552 507 552 L501 552 L501 567 L544 567 L559 567 L574 567 L617 567 L617 567 Z " />
<glyph glyph-name="Ograve" unicode="&#xd2;" horiz-adv-x="765" d="M382 20 C427 20 464 26 492 37 C521 49 544 65 560 87 C577 110 589 138 595 170 C602 203 605 241 605 283 C605 327 602 365 595 397 C589 430 577 457 560 479 C544 502 521 519 492 530 C464 542 427 547 382 547 C338 547 302 542 273 530 C245 519 222 503 205 480 C189 458 177 430 170 397 C164 365 160 327 160 283 C160 241 164 203 170 170 C177 138 189 111 205 88 C222 66 245 49 273 37 C302 26 338 20 382 20 L382 20 Z M50 283 C50 331 54 372 64 408 C74 444 91 474 116 498 C142 523 175 541 218 553 C262 566 316 572 382 572 C449 572 503 567 546 554 C590 542 623 524 648 499 C674 475 690 444 700 408 C710 372 715 331 715 283 C715 237 711 195 701 159 C691 123 675 94 649 69 C624 45 591 27 547 14 C504 2 449 -5 382 -5 C316 -5 263 1 219 13 C176 26 143 44 117 68 C92 93 75 123 65 159 C55 195 50 237 50 283 L50 283 Z M384 759 L465 605 L455 597 L338 723 C324 739 314 749 308 756 C302 764 299 769 299 773 C299 777 300 780 304 784 C308 789 313 793 318 797 C324 801 328 805 334 807 C340 810 346 811 350 811 C354 811 358 808 362 800 C367 792 374 779 384 759 L384 759 Z " />
<glyph glyph-name="Oacute" unicode="&#xd3;" horiz-adv-x="765" d="M359 597 L349 605 L427 759 C437 779 445 791 449 799 C454 807 457 811 459 811 C464 811 469 810 475 807 C481 805 487 801 492 797 C498 793 501 790 505 785 C509 781 511 777 511 773 C511 770 508 765 502 757 C496 750 487 739 473 723 L359 597 L359 597 Z M382 20 C427 20 464 26 492 37 C521 49 544 65 560 87 C577 110 589 138 595 170 C602 203 605 241 605 283 C605 327 602 365 595 397 C589 430 577 457 560 479 C544 502 521 519 492 530 C464 542 427 547 382 547 C338 547 302 542 273 530 C245 519 222 503 205 480 C189 458 177 430 170 397 C164 365 160 327 160 283 C160 241 164 203 170 170 C177 138 189 111 205 88 C222 66 245 49 273 37 C302 26 338 20 382 20 L382 20 Z M50 283 C50 331 54 372 64 408 C74 444 91 474 116 498 C142 523 175 541 218 553 C262 566 316 572 382 572 C449 572 503 567 546 554 C590 542 623 524 648 499 C674 475 690 444 700 408 C710 372 715 331 715 283 C715 237 711 195 701 159 C691 123 675 94 649 69 C624 45 591 27 547 14 C504 2 449 -5 382 -5 C316 -5 263 1 219 13 C176 26 143 44 117 68 C92 93 75 123 65 159 C55 195 50 237 50 283 L50 283 Z " />
<glyph glyph-name="Ocircumflex" unicode="&#xd4;" horiz-adv-x="765" d="M382 20 C427 20 464 26 492 37 C521 49 544 65 560 87 C577 110 589 138 595 170 C602 203 605 241 605 283 C605 327 602 365 595 397 C589 430 577 457 560 479 C544 502 521 519 492 530 C464 542 427 547 382 547 C338 547 302 542 273 530 C245 519 222 503 205 480 C189 458 177 430 170 397 C164 365 160 327 160 283 C160 241 164 203 170 170 C177 138 189 111 205 88 C222 66 245 49 273 37 C302 26 338 20 382 20 L382 20 Z M50 283 C50 331 54 372 64 408 C74 444 91 474 116 498 C142 523 175 541 218 553 C262 566 316 572 382 572 C449 572 503 567 546 554 C590 542 623 524 648 499 C674 475 690 444 700 408 C710 372 715 331 715 283 C715 237 711 195 701 159 C691 123 675 94 649 69 C624 45 591 27 547 14 C504 2 449 -5 382 -5 C316 -5 263 1 219 13 C176 26 143 44 117 68 C92 93 75 123 65 159 C55 195 50 237 50 283 L50 283 Z M382 725 L270 599 L261 607 L354 786 C357 791 360 796 364 802 C368 808 374 811 382 811 C391 811 397 808 401 802 C405 796 409 791 411 786 L504 607 L495 599 L382 725 L382 725 Z " />
<glyph glyph-name="Otilde" unicode="&#xd5;" horiz-adv-x="765" d="M238 662 L223 662 C223 706 228 737 240 755 C252 773 272 782 300 782 C318 782 334 779 348 772 C363 766 376 759 389 751 C403 743 416 736 430 729 C445 723 461 719 479 719 C497 719 509 724 516 733 C524 743 527 758 527 779 L542 779 C542 735 536 704 523 686 C511 668 489 659 459 659 C441 659 425 663 411 669 C397 676 384 682 370 690 C357 698 343 706 329 712 C315 719 299 722 281 722 C266 722 255 718 248 708 C242 699 238 684 238 662 L238 662 Z M382 20 C427 20 464 26 492 37 C521 49 544 65 560 87 C577 110 589 138 595 170 C602 203 605 241 605 283 C605 327 602 365 595 397 C589 430 577 457 560 479 C544 502 521 519 492 530 C464 542 427 547 382 547 C338 547 302 542 273 530 C245 519 222 503 205 480 C189 458 177 430 170 397 C164 365 160 327 160 283 C160 241 164 203 170 170 C177 138 189 111 205 88 C222 66 245 49 273 37 C302 26 338 20 382 20 L382 20 Z M50 283 C50 331 54 372 64 408 C74 444 91 474 116 498 C142 523 175 541 218 553 C262 566 316 572 382 572 C449 572 503 567 546 554 C590 542 623 524 648 499 C674 475 690 444 700 408 C710 372 715 331 715 283 C715 237 711 195 701 159 C691 123 675 94 649 69 C624 45 591 27 547 14 C504 2 449 -5 382 -5 C316 -5 263 1 219 13 C176 26 143 44 117 68 C92 93 75 123 65 159 C55 195 50 237 50 283 L50 283 Z " />
<glyph glyph-name="Odieresis" unicode="&#xd6;" horiz-adv-x="765" d="M479 637 C459 637 446 641 437 649 C429 658 424 672 424 692 C424 712 428 726 436 734 C445 743 459 747 479 747 C499 747 513 744 521 735 C530 727 534 712 534 692 C534 672 531 659 522 650 C514 642 499 637 479 637 L479 637 Z M286 637 C266 637 253 641 244 649 C236 658 231 672 231 692 C231 712 235 726 243 734 C252 743 266 747 286 747 C306 747 320 744 328 735 C337 727 341 712 341 692 C341 672 338 659 329 650 C321 642 306 637 286 637 L286 637 Z M382 20 C427 20 464 26 492 37 C521 49 544 65 560 87 C577 110 589 138 595 170 C602 203 605 241 605 283 C605 327 602 365 595 397 C589 430 577 457 560 479 C544 502 521 519 492 530 C464 542 427 547 382 547 C338 547 302 542 273 530 C245 519 222 503 205 480 C189 458 177 430 170 397 C164 365 160 327 160 283 C160 241 164 203 170 170 C177 138 189 111 205 88 C222 66 245 49 273 37 C302 26 338 20 382 20 L382 20 Z M50 283 C50 331 54 372 64 408 C74 444 91 474 116 498 C142 523 175 541 218 553 C262 566 316 572 382 572 C449 572 503 567 546 554 C590 542 623 524 648 499 C674 475 690 444 700 408 C710 372 715 331 715 283 C715 237 711 195 701 159 C691 123 675 94 649 69 C624 45 591 27 547 14 C504 2 449 -5 382 -5 C316 -5 263 1 219 13 C176 26 143 44 117 68 C92 93 75 123 65 159 C55 195 50 237 50 283 L50 283 Z " />
<glyph glyph-name="Oslash" unicode="&#xd8;" horiz-adv-x="765" d="M64 -22 L35 12 L109 76 C87 101 72 130 63 164 C55 199 50 239 50 283 C50 331 54 372 64 408 C74 444 91 474 116 498 C142 523 175 541 218 553 C262 566 316 572 382 572 C438 572 485 568 524 559 C564 551 596 538 621 520 L700 589 L730 555 L656 491 C678 467 694 438 702 403 C711 369 715 329 715 283 C715 237 711 195 701 159 C691 123 675 94 649 69 C624 45 591 27 547 14 C504 2 449 -5 382 -5 C326 -5 279 0 240 8 C202 17 169 30 143 47 L64 -22 L64 -22 Z M382 20 L382 20 C427 20 464 26 492 37 C521 49 544 65 560 87 C577 110 589 138 595 170 C602 203 605 241 605 283 C605 313 604 340 601 364 C599 389 594 411 586 430 L199 95 C216 71 238 52 267 39 C297 27 335 20 382 20 L382 20 Z M179 137 L565 472 C549 497 527 516 497 528 C468 541 430 547 382 547 C338 547 302 542 273 530 C245 519 222 503 205 480 C189 458 177 430 170 397 C164 365 160 327 160 283 C160 254 162 228 164 203 C167 179 172 157 179 137 L179 137 Z " />
<glyph glyph-name="Ugrave" unicode="&#xd9;" horiz-adv-x="617" d="M597 567 L597 552 L590 552 C575 552 565 550 559 543 C553 537 550 522 549 499 L549 477 L549 159 C549 129 547 104 541 83 C536 63 526 47 509 33 C493 20 469 10 438 4 C408 -2 367 -5 316 -5 C264 -5 221 -2 189 5 C157 13 134 23 116 38 C99 54 88 73 82 97 C76 121 73 151 73 185 L73 487 C73 515 72 532 67 540 C63 548 52 552 36 552 L30 552 L30 567 L73 567 L123 567 L173 567 L216 567 L216 552 L210 552 C195 552 185 549 180 541 C176 533 173 515 173 487 L173 166 C173 142 174 121 178 103 C182 86 189 72 200 61 C212 51 228 44 248 38 C269 33 296 30 330 30 C372 30 405 32 429 37 C454 43 472 50 485 61 C499 73 507 86 511 104 C516 122 518 144 518 169 L519 493 C519 519 516 534 510 541 C504 549 493 552 475 552 L467 552 L467 567 L519 567 L534 567 L549 567 L597 567 L597 567 Z M312 759 L393 605 L383 597 L266 723 C252 739 243 749 237 756 C231 764 228 769 227 773 C227 777 228 780 232 784 C236 789 241 793 246 797 C252 801 257 805 263 807 C269 810 275 811 279 811 C283 811 287 808 291 800 C296 792 303 779 312 759 L312 759 Z " />
<glyph glyph-name="Uacute" unicode="&#xda;" horiz-adv-x="617" d="M310 597 L300 605 L378 759 C388 779 396 791 400 799 C405 807 409 811 411 811 C416 811 420 810 426 807 C432 805 438 801 443 797 C449 793 452 790 456 785 C460 781 462 777 462 773 C462 770 460 765 454 757 C448 750 438 739 424 723 L310 597 L310 597 Z M597 567 L597 552 L590 552 C575 552 565 550 559 543 C553 537 550 522 549 499 L549 477 L549 159 C549 129 547 104 541 83 C536 63 526 47 509 33 C493 20 469 10 438 4 C408 -2 367 -5 316 -5 C264 -5 221 -2 189 5 C157 13 134 23 116 38 C99 54 88 73 82 97 C76 121 73 151 73 185 L73 487 C73 515 72 532 67 540 C63 548 52 552 36 552 L30 552 L30 567 L73 567 L123 567 L173 567 L216 567 L216 552 L210 552 C195 552 185 549 180 541 C176 533 173 515 173 487 L173 166 C173 142 174 121 178 103 C182 86 189 72 200 61 C212 51 228 44 248 38 C269 33 296 30 330 30 C372 30 405 32 429 37 C454 43 472 50 485 61 C499 73 507 86 511 104 C516 122 518 144 518 169 L519 493 C519 519 516 534 510 541 C504 549 493 552 475 552 L467 552 L467 567 L519 567 L534 567 L549 567 L597 567 L597 567 Z " />
<glyph glyph-name="Ucircumflex" unicode="&#xdb;" horiz-adv-x="617" d="M597 567 L597 552 L590 552 C575 552 565 550 559 543 C553 537 550 522 549 499 L549 477 L549 159 C549 129 547 104 541 83 C536 63 526 47 509 33 C493 20 469 10 438 4 C408 -2 367 -5 316 -5 C264 -5 221 -2 189 5 C157 13 134 23 116 38 C99 54 88 73 82 97 C76 121 73 151 73 185 L73 487 C73 515 72 532 67 540 C63 548 52 552 36 552 L30 552 L30 567 L73 567 L123 567 L173 567 L216 567 L216 552 L210 552 C195 552 185 549 180 541 C176 533 173 515 173 487 L173 166 C173 142 174 121 178 103 C182 86 189 72 200 61 C212 51 228 44 248 38 C269 33 296 30 330 30 C372 30 405 32 429 37 C454 43 472 50 485 61 C499 73 507 86 511 104 C516 122 518 144 518 169 L519 493 C519 519 516 534 510 541 C504 549 493 552 475 552 L467 552 L467 567 L519 567 L534 567 L549 567 L597 567 L597 567 Z M311 725 L198 599 L189 607 L282 786 C285 791 288 796 292 802 C296 808 303 811 311 811 C319 811 325 808 329 802 C334 796 338 791 340 786 L433 607 L423 599 L311 725 L311 725 Z " />
<glyph glyph-name="Udieresis" unicode="&#xdc;" horiz-adv-x="617" d="M407 637 C387 637 374 641 365 649 C357 658 352 672 352 692 C352 712 356 726 364 734 C373 743 387 747 407 747 C427 747 441 744 449 735 C458 727 462 712 462 692 C462 672 459 659 450 650 C442 642 427 637 407 637 L407 637 Z M214 637 C194 637 181 641 172 649 C164 658 159 672 159 692 C159 712 163 726 171 734 C180 743 194 747 214 747 C234 747 248 744 256 735 C265 727 269 712 269 692 C269 672 266 659 257 650 C249 642 234 637 214 637 L214 637 Z M597 567 L597 552 L590 552 C575 552 565 550 559 543 C553 537 550 522 549 499 L549 477 L549 159 C549 129 547 104 541 83 C536 63 526 47 509 33 C493 20 469 10 438 4 C408 -2 367 -5 316 -5 C264 -5 221 -2 189 5 C157 13 134 23 116 38 C99 54 88 73 82 97 C76 121 73 151 73 185 L73 487 C73 515 72 532 67 540 C63 548 52 552 36 552 L30 552 L30 567 L73 567 L123 567 L173 567 L216 567 L216 552 L210 552 C195 552 185 549 180 541 C176 533 173 515 173 487 L173 166 C173 142 174 121 178 103 C182 86 189 72 200 61 C212 51 228 44 248 38 C269 33 296 30 330 30 C372 30 405 32 429 37 C454 43 472 50 485 61 C499 73 507 86 511 104 C516 122 518 144 518 169 L519 493 C519 519 516 534 510 541 C504 549 493 552 475 552 L467 552 L467 567 L519 567 L534 567 L549 567 L597 567 L597 567 Z " />
<glyph glyph-name="Yacute" unicode="&#xdd;" horiz-adv-x="610" d="M306 597 L296 605 L374 759 C384 779 390 791 395 799 C401 807 404 811 406 811 C411 811 415 810 421 807 C427 805 433 801 438 797 C444 793 447 790 451 785 C455 781 457 777 457 773 C457 770 455 765 449 757 C443 750 434 739 420 723 L306 597 L306 597 Z M399 15 L399 0 L356 0 L306 0 L256 0 L213 0 L213 15 L219 15 C235 15 245 19 249 27 C254 35 256 53 256 80 L256 239 L82 499 C66 521 55 536 47 542 C39 549 30 552 19 552 L14 552 C15 552 15 555 14 559 C15 565 15 567 14 567 L36 567 L96 567 L156 567 L208 567 L208 552 L201 552 C189 552 182 550 180 544 C178 539 183 528 193 510 L341 285 L499 502 C513 523 519 536 517 542 C515 549 507 552 491 552 L483 552 L483 567 L546 567 L561 567 L576 567 L603 567 L603 552 L597 552 C591 552 585 552 579 550 C574 548 569 545 563 540 C557 536 552 530 544 521 C537 513 528 501 517 487 L517 487 L356 269 L356 269 L356 80 C356 52 359 35 363 27 C368 19 378 15 393 15 L399 15 L399 15 Z " />
<glyph glyph-name="agrave" unicode="&#xe0;" horiz-adv-x="506" d="M485 49 L495 37 C487 29 480 21 472 15 C465 9 457 5 448 1 C440 -3 430 -5 418 -7 C407 -9 393 -10 375 -10 C349 -10 331 -5 321 3 C311 12 305 26 303 45 C283 28 261 15 237 7 C214 -1 187 -5 156 -5 C112 -5 81 2 63 16 C45 31 36 56 36 90 C36 127 49 155 76 173 C104 192 150 206 214 214 L302 225 L302 311 C302 349 297 376 287 392 C277 408 261 416 237 416 L46 416 C118 426 170 431 202 435 C234 439 253 441 257 441 C308 441 344 430 365 407 C387 385 397 346 397 291 L397 97 C397 74 398 58 402 48 C406 38 418 33 437 33 C452 33 461 34 467 36 C473 39 479 43 485 49 L485 49 Z M223 628 L304 474 L294 466 L177 592 C163 608 153 618 147 625 C141 633 138 638 138 642 C138 646 139 649 143 653 C147 658 152 662 157 666 C163 670 168 674 174 676 C180 679 186 680 190 680 C194 680 198 677 202 669 C207 661 214 648 223 628 L223 628 Z M302 202 L214 186 C182 180 159 173 145 161 C132 150 125 135 125 115 C125 94 131 79 142 69 C154 60 173 55 201 55 C245 55 278 61 302 71 L302 87 L302 202 L302 202 Z " />
<glyph glyph-name="aacute" unicode="&#xe1;" horiz-adv-x="506" d="M191 466 L181 474 L259 628 C269 648 276 660 280 668 C285 676 289 680 291 680 C296 680 301 679 307 676 C313 674 319 670 324 666 C330 662 333 659 337 654 C341 650 343 646 343 642 C343 639 340 634 334 626 C328 619 319 608 305 592 L191 466 L191 466 Z M485 49 L495 37 C487 29 480 21 472 15 C465 9 457 5 448 1 C440 -3 430 -5 418 -7 C407 -9 393 -10 375 -10 C349 -10 331 -5 321 3 C311 12 305 26 303 45 C283 28 261 15 237 7 C214 -1 187 -5 156 -5 C112 -5 81 2 63 16 C45 31 36 56 36 90 C36 127 49 155 76 173 C104 192 150 206 214 214 L302 225 L302 311 C302 349 297 376 287 392 C277 408 261 416 237 416 L46 416 C118 426 170 431 202 435 C234 439 253 441 257 441 C308 441 344 430 365 407 C387 385 397 346 397 291 L397 97 C397 74 398 58 402 48 C406 38 418 33 437 33 C452 33 461 34 467 36 C473 39 479 43 485 49 L485 49 Z M302 202 L214 186 C182 180 159 173 145 161 C132 150 125 135 125 115 C125 94 131 79 142 69 C154 60 173 55 201 55 C245 55 278 61 302 71 L302 87 L302 202 L302 202 Z " />
<glyph glyph-name="acircumflex" unicode="&#xe2;" horiz-adv-x="506" d="M485 49 L495 37 C487 29 480 21 472 15 C465 9 457 5 448 1 C440 -3 430 -5 418 -7 C407 -9 393 -10 375 -10 C349 -10 331 -5 321 3 C311 12 305 26 303 45 C283 28 261 15 237 7 C214 -1 187 -5 156 -5 C112 -5 81 2 63 16 C45 31 36 56 36 90 C36 127 49 155 76 173 C104 192 150 206 214 214 L302 225 L302 311 C302 349 297 376 287 392 C277 408 261 416 237 416 L46 416 C118 426 170 431 202 435 C234 439 253 441 257 441 C308 441 344 430 365 407 C387 385 397 346 397 291 L397 97 C397 74 398 58 402 48 C406 38 418 33 437 33 C452 33 461 34 467 36 C473 39 479 43 485 49 L485 49 Z M222 595 L109 468 L100 476 L193 656 C196 661 199 666 203 672 C207 678 214 681 222 681 C230 681 236 678 240 672 C245 666 249 661 251 655 L344 476 L334 468 L222 595 L222 595 Z M302 202 L214 186 C182 180 159 173 145 161 C132 150 125 135 125 115 C125 94 131 79 142 69 C154 60 173 55 201 55 C245 55 278 61 302 71 L302 87 L302 202 L302 202 Z " />
<glyph glyph-name="atilde" unicode="&#xe3;" horiz-adv-x="589" d="M83 531 L68 531 C68 575 73 606 85 624 C97 642 118 651 146 651 C164 651 180 649 194 642 C208 636 222 628 235 620 C249 612 262 606 276 599 C291 593 307 589 325 589 C343 589 354 593 361 602 C369 612 372 627 372 649 L387 649 C387 605 382 574 369 556 C357 538 335 529 305 529 C287 529 271 532 257 538 C243 545 230 552 216 560 C203 568 190 575 175 581 C161 588 144 591 126 591 C111 591 100 588 93 578 C87 569 83 553 83 531 L83 531 Z M522 45 L522 36 L471 20 L404 -5 L389 -5 L389 0 L389 106 C360 86 336 69 315 55 C295 41 278 30 265 21 C250 11 238 2 228 -5 C197 -5 170 -2 148 5 C126 13 109 23 95 39 C81 55 72 75 65 100 C59 126 55 156 55 192 C55 238 58 275 66 307 C74 339 86 364 103 384 C121 404 143 418 170 427 C198 437 231 441 269 441 C303 441 330 439 351 435 C373 431 389 426 401 418 L389 397 L454 436 L479 436 L479 134 L479 80 C481 72 484 67 488 64 C493 62 502 56 516 48 L522 45 L522 45 Z M389 117 L389 397 C379 403 363 407 343 411 C323 415 297 417 264 417 C222 417 193 404 175 374 C157 345 148 296 148 226 C148 162 157 117 177 90 C197 64 231 50 277 50 C283 50 293 55 310 65 C328 75 354 93 389 117 L389 117 Z " />
<glyph glyph-name="adieresis" unicode="&#xe4;" horiz-adv-x="506" d="M318 506 C298 506 285 510 276 518 C268 527 263 541 263 561 C263 581 267 595 275 603 C284 612 298 616 318 616 C338 616 352 613 360 604 C369 596 373 581 373 561 C373 541 370 528 361 519 C353 511 338 506 318 506 L318 506 Z M125 506 C105 506 92 510 83 518 C75 527 70 541 70 561 C70 581 74 595 82 603 C91 612 105 616 125 616 C145 616 159 613 167 604 C176 596 180 581 180 561 C180 541 177 528 168 519 C160 511 145 506 125 506 L125 506 Z M485 49 L495 37 C487 29 480 21 472 15 C465 9 457 5 448 1 C440 -3 430 -5 418 -7 C407 -9 393 -10 375 -10 C349 -10 331 -5 321 3 C311 12 305 26 303 45 C283 28 261 15 237 7 C214 -1 187 -5 156 -5 C112 -5 81 2 63 16 C45 31 36 56 36 90 C36 127 49 155 76 173 C104 192 150 206 214 214 L302 225 L302 311 C302 349 297 376 287 392 C277 408 261 416 237 416 L46 416 C118 426 170 431 202 435 C234 439 253 441 257 441 C308 441 344 430 365 407 C387 385 397 346 397 291 L397 97 C397 74 398 58 402 48 C406 38 418 33 437 33 C452 33 461 34 467 36 C473 39 479 43 485 49 L485 49 Z M302 202 L214 186 C182 180 159 173 145 161 C132 150 125 135 125 115 C125 94 131 79 142 69 C154 60 173 55 201 55 C245 55 278 61 302 71 L302 87 L302 202 L302 202 Z " />
<glyph glyph-name="aring" unicode="&#xe5;" horiz-adv-x="506" d="M222 491 C269 491 292 516 292 564 C292 590 287 608 276 619 C266 631 248 636 222 636 C197 636 179 632 168 620 C158 609 152 590 152 564 C152 516 176 491 222 491 L222 491 Z M127 564 C127 598 134 621 148 635 C163 649 188 656 222 656 C257 656 281 650 295 636 C310 622 317 598 317 564 C317 502 286 471 222 471 C159 471 127 502 127 564 L127 564 Z M485 49 L495 37 C487 29 480 21 472 15 C465 9 457 5 448 1 C440 -3 430 -5 418 -7 C407 -9 393 -10 375 -10 C349 -10 331 -5 321 3 C311 12 305 26 303 45 C283 28 261 15 237 7 C214 -1 187 -5 156 -5 C112 -5 81 2 63 16 C45 31 36 56 36 90 C36 127 49 155 76 173 C104 192 150 206 214 214 L302 225 L302 311 C302 349 297 376 287 392 C277 408 261 416 237 416 L46 416 C118 426 170 431 202 435 C234 439 253 441 257 441 C308 441 344 430 365 407 C387 385 397 346 397 291 L397 97 C397 74 398 58 402 48 C406 38 418 33 437 33 C452 33 461 34 467 36 C473 39 479 43 485 49 L485 49 Z M302 202 L214 186 C182 180 159 173 145 161 C132 150 125 135 125 115 C125 94 131 79 142 69 C154 60 173 55 201 55 C245 55 278 61 302 71 L302 87 L302 202 L302 202 Z " />
<glyph glyph-name="ccedilla" unicode="&#xe7;" horiz-adv-x="509" d="M459 64 C429 39 400 22 368 11 C337 1 299 -5 255 -5 C218 -5 186 -1 160 6 C134 14 114 26 97 42 C81 59 69 80 61 106 C54 132 50 164 50 201 C50 245 55 282 64 312 C74 343 88 367 108 386 C129 406 155 420 187 428 C220 437 260 441 306 441 C360 441 397 435 420 420 C444 406 457 381 460 346 C460 332 457 321 451 315 C445 309 435 306 420 306 C405 306 394 310 387 316 C381 323 377 334 375 350 C373 374 366 391 354 401 C342 411 323 416 296 416 C242 416 204 403 180 375 C157 347 145 301 145 235 C145 202 149 174 155 150 C162 126 173 107 187 92 C202 78 220 67 244 60 C268 54 297 50 330 50 C364 50 390 51 408 55 C426 59 441 66 451 74 L459 64 L459 64 Z " />
<glyph glyph-name="egrave" unicode="&#xe8;" horiz-adv-x="516" d="M465 64 C435 39 406 22 374 11 C343 1 304 -5 258 -5 C220 -5 189 -1 162 6 C136 14 115 26 98 42 C82 59 70 80 62 106 C54 132 50 164 50 201 C50 245 54 282 62 312 C71 343 84 367 102 386 C121 406 144 420 173 428 C203 437 238 441 280 441 C314 441 343 439 366 432 C390 426 408 416 423 401 C439 387 450 368 456 345 C463 323 466 295 466 262 L381 262 L146 262 C146 258 145 254 145 249 C145 245 145 240 145 235 C145 202 148 174 155 150 C163 126 173 107 188 92 C204 78 222 67 246 60 C270 54 299 50 333 50 C368 50 395 51 413 55 C432 59 447 66 457 74 L465 64 L465 64 Z M282 628 L363 474 L353 466 L236 592 C222 608 212 618 206 625 C200 633 197 638 197 642 C197 646 198 649 202 653 C206 658 211 662 216 666 C222 670 226 674 232 676 C238 679 244 680 248 680 C252 680 256 677 260 669 C265 661 272 648 282 628 L282 628 Z M147 279 L344 292 C369 295 382 309 382 335 L382 338 C382 367 374 386 358 398 C342 410 315 416 275 416 C233 416 203 407 183 385 C163 364 151 329 147 279 L147 279 Z M340 292 L339 292 L340 292 L340 292 Z " />
<glyph glyph-name="eacute" unicode="&#xe9;" horiz-adv-x="516" d="M249 466 L239 474 L318 628 C328 648 335 660 339 668 C344 676 348 680 350 680 C355 680 360 679 366 676 C372 674 377 670 382 666 C388 662 391 659 395 654 C399 650 401 646 401 642 C402 639 399 634 393 626 C387 619 377 608 363 592 L249 466 L249 466 Z M465 64 C435 39 406 22 374 11 C343 1 304 -5 258 -5 C220 -5 189 -1 162 6 C136 14 115 26 98 42 C82 59 70 80 62 106 C54 132 50 164 50 201 C50 245 54 282 62 312 C71 343 84 367 102 386 C121 406 144 420 173 428 C203 437 238 441 280 441 C314 441 343 439 366 432 C390 426 408 416 423 401 C439 387 450 368 456 345 C463 323 466 295 466 262 L381 262 L146 262 C146 258 145 254 145 249 C145 245 145 240 145 235 C145 202 148 174 155 150 C163 126 173 107 188 92 C204 78 222 67 246 60 C270 54 299 50 333 50 C368 50 395 51 413 55 C432 59 447 66 457 74 L465 64 L465 64 Z M147 279 L344 292 C369 295 382 309 382 335 L382 338 C382 367 374 386 358 398 C342 410 315 416 275 416 C233 416 203 407 183 385 C163 364 151 329 147 279 L147 279 Z M340 292 L339 292 L340 292 L340 292 Z " />
<glyph glyph-name="ecircumflex" unicode="&#xea;" horiz-adv-x="516" d="M465 64 C435 39 406 22 374 11 C343 1 304 -5 258 -5 C220 -5 189 -1 162 6 C136 14 115 26 98 42 C82 59 70 80 62 106 C54 132 50 164 50 201 C50 245 54 282 62 312 C71 343 84 367 102 386 C121 406 144 420 173 428 C203 437 238 441 280 441 C314 441 343 439 366 432 C390 426 408 416 423 401 C439 387 450 368 456 345 C463 323 466 295 466 262 L381 262 L146 262 C146 258 145 254 145 249 C145 245 145 240 145 235 C145 202 148 174 155 150 C163 126 173 107 188 92 C204 78 222 67 246 60 C270 54 299 50 333 50 C368 50 395 51 413 55 C432 59 447 66 457 74 L465 64 L465 64 Z M281 595 L168 468 L159 476 L252 656 C255 661 258 666 262 672 C266 678 272 681 280 681 C289 681 295 678 299 672 C303 666 307 661 309 655 L402 476 L393 468 L281 595 L281 595 Z M147 279 L344 292 C369 295 382 309 382 335 L382 338 C382 367 374 386 358 398 C342 410 315 416 275 416 C233 416 203 407 183 385 C163 364 151 329 147 279 L147 279 Z M340 292 L339 292 L340 292 L340 292 Z " />
<glyph glyph-name="edieresis" unicode="&#xeb;" horiz-adv-x="516" d="M377 506 C357 506 344 510 335 518 C327 527 322 541 322 561 C322 581 326 595 334 603 C343 612 357 616 377 616 C397 616 411 613 419 604 C428 596 432 581 432 561 C432 541 429 528 420 519 C412 511 397 506 377 506 L377 506 Z M184 506 C164 506 151 510 142 518 C134 527 129 541 129 561 C129 581 133 595 141 603 C150 612 164 616 184 616 C204 616 218 613 226 604 C235 596 239 581 239 561 C239 541 236 528 227 519 C219 511 204 506 184 506 L184 506 Z M465 64 C435 39 406 22 374 11 C343 1 304 -5 258 -5 C220 -5 189 -1 162 6 C136 14 115 26 98 42 C82 59 70 80 62 106 C54 132 50 164 50 201 C50 245 54 282 62 312 C71 343 84 367 102 386 C121 406 144 420 173 428 C203 437 238 441 280 441 C314 441 343 439 366 432 C390 426 408 416 423 401 C439 387 450 368 456 345 C463 323 466 295 466 262 L381 262 L146 262 C146 258 145 254 145 249 C145 245 145 240 145 235 C145 202 148 174 155 150 C163 126 173 107 188 92 C204 78 222 67 246 60 C270 54 299 50 333 50 C368 50 395 51 413 55 C432 59 447 66 457 74 L465 64 L465 64 Z M147 279 L344 292 C369 295 382 309 382 335 L382 338 C382 367 374 386 358 398 C342 410 315 416 275 416 C233 416 203 407 183 385 C163 364 151 329 147 279 L147 279 Z M340 292 L339 292 L340 292 L340 292 Z " />
<glyph glyph-name="igrave" unicode="&#xec;" horiz-adv-x="266" d="M178 0 L178 356 L88 356 L88 330 C88 342 89 349 88 355 C88 361 87 365 86 367 C86 370 85 372 83 372 C81 373 79 374 77 376 L52 394 L52 404 L173 441 L178 441 L178 356 L178 0 C178 10 180 14 184 14 C188 15 198 15 213 15 L221 15 L221 0 L178 0 L178 0 Z M88 330 L88 0 L45 0 L45 15 L54 15 C69 15 78 16 82 15 C86 15 88 10 88 0 L88 330 L88 330 Z M134 628 L215 474 L205 466 L89 592 C75 608 65 618 59 625 C53 633 50 638 50 642 C50 646 51 649 55 653 C59 658 64 662 69 666 C75 670 79 674 85 676 C91 679 97 680 101 680 C105 680 109 677 113 669 C118 661 125 648 134 628 L134 628 Z " />
<glyph glyph-name="iacute" unicode="&#xed;" horiz-adv-x="266" d="M57 466 L47 474 L125 628 C135 648 143 660 147 668 C152 676 155 680 157 680 C162 680 167 679 173 676 C179 674 184 670 189 666 C195 662 198 659 202 654 C206 650 208 646 208 642 C208 639 206 634 200 626 C194 619 185 608 171 592 L57 466 L57 466 Z M178 0 L178 356 L88 356 L88 330 C88 342 89 349 88 355 C88 361 87 365 86 367 C86 370 85 372 83 372 C81 373 79 374 77 376 L52 394 L52 404 L173 441 L178 441 L178 356 L178 0 C178 10 180 14 184 14 C188 15 198 15 213 15 L221 15 L221 0 L178 0 L178 0 Z M88 330 L88 0 L45 0 L45 15 L54 15 C69 15 78 16 82 15 C86 15 88 10 88 0 L88 330 L88 330 Z " />
<glyph glyph-name="icircumflex" unicode="&#xee;" horiz-adv-x="266" d="M178 0 L178 356 L88 356 L88 330 C88 342 89 349 88 355 C88 361 87 365 86 367 C86 370 85 372 83 372 C81 373 79 374 77 376 L52 394 L52 404 L173 441 L178 441 L178 356 L178 0 C178 10 180 14 184 14 C188 15 198 15 213 15 L221 15 L221 0 L178 0 L178 0 Z M88 330 L88 0 L45 0 L45 15 L54 15 C69 15 78 16 82 15 C86 15 88 10 88 0 L88 330 L88 330 Z M134 641 L162 655 L255 476 L246 468 L133 594 L21 468 L11 476 L105 656 L134 641 L134 641 Z M104 627 L162 627 L133 594 L104 627 L104 627 Z M162 655 L105 656 C107 661 110 666 114 672 C119 678 125 681 133 681 C142 681 148 678 152 672 C156 666 160 661 162 655 L162 655 Z " />
<glyph glyph-name="idieresis" unicode="&#xef;" horiz-adv-x="266" d="M229 506 C209 506 196 510 187 518 C179 527 174 541 174 561 C174 581 178 595 186 603 C195 612 209 616 229 616 C249 616 263 613 271 604 C280 596 284 581 284 561 C284 541 281 528 272 519 C264 511 249 506 229 506 L229 506 Z M37 506 C17 506 4 510 -5 518 C-13 527 -18 541 -18 561 C-18 581 -14 595 -6 603 C3 612 17 616 37 616 C57 616 71 613 79 604 C88 596 92 581 92 561 C92 541 89 528 80 519 C72 511 57 506 37 506 L37 506 Z M178 0 L178 356 L88 356 L88 330 C88 342 89 349 88 355 C88 361 87 365 86 367 C86 370 85 372 83 372 C81 373 79 374 77 376 L52 394 L52 404 L173 441 L178 441 L178 356 L178 0 C178 10 180 14 184 14 C188 15 198 15 213 15 L221 15 L221 0 L178 0 L178 0 Z M88 330 L88 0 L45 0 L45 15 L54 15 C69 15 78 16 82 15 C86 15 88 10 88 0 L88 330 L88 330 Z " />
<glyph glyph-name="ntilde" unicode="&#xf1;" horiz-adv-x="572" d="M144 531 L129 531 C129 575 134 606 146 624 C158 642 178 651 206 651 C224 651 240 649 254 642 C269 636 283 628 296 620 C310 612 323 606 337 599 C351 593 367 589 385 589 C403 589 415 593 422 602 C430 612 433 627 433 649 L448 649 C448 605 443 574 430 556 C418 538 396 529 366 529 C348 529 333 532 318 538 C304 545 290 552 276 560 C263 568 249 575 235 581 C221 588 205 591 187 591 C172 591 161 588 154 578 C148 569 144 553 144 531 L144 531 Z M532 15 L532 0 L489 0 L444 0 L399 0 L356 0 L356 15 L362 15 C378 15 388 19 392 27 C397 35 399 53 399 80 L399 283 C399 301 399 316 396 328 C394 341 390 350 382 358 C375 366 365 371 352 375 C340 379 323 381 301 381 C273 381 251 380 232 378 C214 376 196 373 178 367 L178 333 L178 326 L178 80 L178 61 C179 42 181 30 186 24 C192 18 201 15 214 15 L221 15 C221 15 221 13 221 8 C221 3 221 0 221 0 L178 0 L133 0 L88 0 L44 0 C45 0 45 3 44 8 C45 13 45 15 44 15 L51 15 C67 15 77 19 81 27 C86 35 88 53 88 80 L88 302 L88 333 L88 333 C88 344 89 351 88 356 C88 362 87 365 84 368 C82 372 79 374 73 376 C68 379 61 383 51 388 L44 391 C46 391 46 394 44 400 L160 436 L178 436 L178 377 C213 389 242 398 266 406 C291 415 311 422 326 426 C344 432 359 437 370 441 C396 441 416 439 432 433 C448 428 460 419 468 407 C477 395 483 380 485 361 C488 343 489 320 489 293 L489 80 C489 52 492 35 496 27 C501 19 511 15 526 15 L532 15 L532 15 Z " />
<glyph glyph-name="ograve" unicode="&#xf2;" horiz-adv-x="606" d="M303 15 C359 15 398 30 421 61 C445 93 456 145 456 218 C456 292 445 343 421 374 C398 406 359 421 303 421 C248 421 209 407 185 375 C162 344 150 292 150 218 C150 145 162 94 185 62 C209 31 248 15 303 15 L303 15 Z M50 218 C50 259 55 293 64 321 C74 350 88 372 108 390 C128 408 154 421 186 429 C218 437 257 441 303 441 C349 441 388 437 420 429 C452 421 478 409 498 391 C518 373 533 351 542 322 C552 294 556 259 556 218 C556 178 552 144 542 115 C533 87 518 64 498 46 C478 28 452 15 420 7 C388 -1 349 -5 303 -5 C257 -5 218 -1 186 7 C154 15 128 27 108 45 C88 63 74 86 64 114 C55 143 50 178 50 218 L50 218 Z M304 628 L385 474 L375 466 L258 592 C245 608 235 618 229 625 C223 633 220 638 220 642 C220 646 221 649 225 653 C229 658 233 662 238 666 C244 670 249 674 255 676 C261 679 267 680 271 680 C275 680 279 677 283 669 C288 661 295 648 304 628 L304 628 Z " />
<glyph glyph-name="oacute" unicode="&#xf3;" horiz-adv-x="606" d="M272 466 L262 474 L340 628 C350 648 357 660 361 668 C366 676 370 680 372 680 C377 680 382 679 388 676 C394 674 400 670 405 666 C411 662 414 659 418 654 C422 650 424 646 424 642 C424 639 421 634 415 626 C409 619 400 608 386 592 L272 466 L272 466 Z M303 15 C359 15 398 30 421 61 C445 93 456 145 456 218 C456 292 445 343 421 374 C398 406 359 421 303 421 C248 421 209 407 185 375 C162 344 150 292 150 218 C150 145 162 94 185 62 C209 31 248 15 303 15 L303 15 Z M50 218 C50 259 55 293 64 321 C74 350 88 372 108 390 C128 408 154 421 186 429 C218 437 257 441 303 441 C349 441 388 437 420 429 C452 421 478 409 498 391 C518 373 533 351 542 322 C552 294 556 259 556 218 C556 178 552 144 542 115 C533 87 518 64 498 46 C478 28 452 15 420 7 C388 -1 349 -5 303 -5 C257 -5 218 -1 186 7 C154 15 128 27 108 45 C88 63 74 86 64 114 C55 143 50 178 50 218 L50 218 Z " />
<glyph glyph-name="ocircumflex" unicode="&#xf4;" horiz-adv-x="606" d="M303 15 C359 15 398 30 421 61 C445 93 456 145 456 218 C456 292 445 343 421 374 C398 406 359 421 303 421 C248 421 209 407 185 375 C162 344 150 292 150 218 C150 145 162 94 185 62 C209 31 248 15 303 15 L303 15 Z M50 218 C50 259 55 293 64 321 C74 350 88 372 108 390 C128 408 154 421 186 429 C218 437 257 441 303 441 C349 441 388 437 420 429 C452 421 478 409 498 391 C518 373 533 351 542 322 C552 294 556 259 556 218 C556 178 552 144 542 115 C533 87 518 64 498 46 C478 28 452 15 420 7 C388 -1 349 -5 303 -5 C257 -5 218 -1 186 7 C154 15 128 27 108 45 C88 63 74 86 64 114 C55 143 50 178 50 218 L50 218 Z M303 595 L190 468 L181 476 L274 656 C277 661 280 666 284 672 C288 678 295 681 303 681 C312 681 318 678 322 672 C326 666 330 661 332 655 L425 476 L416 468 L303 595 L303 595 Z " />
<glyph glyph-name="otilde" unicode="&#xf5;" horiz-adv-x="606" d="M159 531 L144 531 C144 575 149 606 161 624 C173 642 193 651 221 651 C239 651 255 649 269 642 C283 636 297 628 310 620 C324 612 337 606 351 599 C366 593 382 589 400 589 C418 589 429 593 436 602 C444 612 447 627 447 649 L462 649 C462 605 457 574 444 556 C432 538 410 529 380 529 C362 529 346 532 332 538 C318 545 305 552 291 560 C278 568 265 575 250 581 C236 588 219 591 201 591 C186 591 176 588 169 578 C163 569 159 553 159 531 L159 531 Z M303 15 C359 15 398 30 421 61 C445 93 456 145 456 218 C456 292 445 343 421 374 C398 406 359 421 303 421 C248 421 209 407 185 375 C162 344 150 292 150 218 C150 145 162 94 185 62 C209 31 248 15 303 15 L303 15 Z M50 218 C50 259 55 293 64 321 C74 350 88 372 108 390 C128 408 154 421 186 429 C218 437 257 441 303 441 C349 441 388 437 420 429 C452 421 478 409 498 391 C518 373 533 351 542 322 C552 294 556 259 556 218 C556 178 552 144 542 115 C533 87 518 64 498 46 C478 28 452 15 420 7 C388 -1 349 -5 303 -5 C257 -5 218 -1 186 7 C154 15 128 27 108 45 C88 63 74 86 64 114 C55 143 50 178 50 218 L50 218 Z " />
<glyph glyph-name="odieresis" unicode="&#xf6;" horiz-adv-x="606" d="M399 506 C379 506 366 510 357 518 C349 527 344 541 344 561 C344 581 348 595 356 603 C365 612 379 616 399 616 C419 616 433 613 441 604 C450 596 454 581 454 561 C454 541 451 528 442 519 C434 511 419 506 399 506 L399 506 Z M207 506 C187 506 174 510 165 518 C157 527 152 541 152 561 C152 581 156 595 164 603 C173 612 187 616 207 616 C227 616 241 613 249 604 C258 596 262 581 262 561 C262 541 259 528 250 519 C242 511 227 506 207 506 L207 506 Z M303 15 C359 15 398 30 421 61 C445 93 456 145 456 218 C456 292 445 343 421 374 C398 406 359 421 303 421 C248 421 209 407 185 375 C162 344 150 292 150 218 C150 145 162 94 185 62 C209 31 248 15 303 15 L303 15 Z M50 218 C50 259 55 293 64 321 C74 350 88 372 108 390 C128 408 154 421 186 429 C218 437 257 441 303 441 C349 441 388 437 420 429 C452 421 478 409 498 391 C518 373 533 351 542 322 C552 294 556 259 556 218 C556 178 552 144 542 115 C533 87 518 64 498 46 C478 28 452 15 420 7 C388 -1 349 -5 303 -5 C257 -5 218 -1 186 7 C154 15 128 27 108 45 C88 63 74 86 64 114 C55 143 50 178 50 218 L50 218 Z " />
<glyph glyph-name="oslash" unicode="&#xf8;" horiz-adv-x="606" d="M60 -16 L40 6 L97 56 C81 74 69 97 61 123 C54 150 50 182 50 218 C50 259 55 293 64 321 C74 350 88 372 108 390 C128 408 154 421 186 429 C218 437 257 441 303 441 C386 441 447 428 486 400 L546 452 L566 430 L509 380 C526 362 538 340 545 313 C553 287 556 255 556 218 C556 178 552 144 542 115 C533 87 518 64 498 46 C478 28 452 15 420 7 C388 -1 349 -5 303 -5 C221 -5 160 9 120 36 L60 -16 L60 -16 Z M303 15 L303 15 C359 15 398 30 421 61 C445 93 456 145 456 218 C456 240 456 259 454 276 C452 294 449 309 445 323 L172 83 C184 59 200 42 221 31 C243 21 270 15 303 15 L303 15 Z M161 113 L434 353 C423 377 407 395 385 405 C364 416 337 421 303 421 C248 421 209 407 185 375 C162 344 150 292 150 218 C150 197 150 178 152 160 C154 143 157 127 161 113 L161 113 Z " />
<glyph glyph-name="ugrave" unicode="&#xf9;" horiz-adv-x="537" d="M502 45 L502 36 L387 0 L369 0 L369 23 L369 68 C339 55 314 44 292 34 C271 25 254 18 240 12 C225 5 212 -1 202 -5 C174 -5 150 -3 131 3 C113 9 98 18 87 31 C77 45 70 61 65 81 C61 102 58 127 58 155 L58 356 C58 384 57 401 52 409 C48 417 37 421 21 421 L14 421 C15 421 15 424 14 429 C15 434 15 436 14 436 L58 436 L103 436 L148 436 L147 164 C147 144 148 127 152 113 C156 99 163 88 172 79 C182 71 194 64 210 60 C227 56 248 54 272 54 C290 54 304 55 318 59 C332 63 349 70 369 78 L369 110 L369 356 C369 384 368 401 363 409 C359 417 348 421 332 421 L326 421 L326 436 L369 436 L414 436 L459 436 L459 134 L459 80 C461 72 464 67 468 64 C473 62 482 56 496 48 L502 45 L502 45 Z M260 628 L341 474 L331 466 L214 592 C200 608 190 618 184 625 C178 633 175 638 175 642 C175 646 176 649 180 653 C184 658 189 662 194 666 C200 670 204 674 210 676 C216 679 222 680 226 680 C230 680 234 677 238 669 C243 661 250 648 260 628 L260 628 Z " />
<glyph glyph-name="uacute" unicode="&#xfa;" horiz-adv-x="537" d="M227 466 L217 474 L296 628 C306 648 313 660 317 668 C322 676 326 680 328 680 C333 680 338 679 344 676 C350 674 355 670 360 666 C366 662 369 659 373 654 C377 650 379 646 379 642 C380 639 377 634 371 626 C365 619 355 608 341 592 L227 466 L227 466 Z M502 45 L502 36 L387 0 L369 0 L369 23 L369 68 C339 55 314 44 292 34 C271 25 254 18 240 12 C225 5 212 -1 202 -5 C174 -5 150 -3 131 3 C113 9 98 18 87 31 C77 45 70 61 65 81 C61 102 58 127 58 155 L58 356 C58 384 57 401 52 409 C48 417 37 421 21 421 L14 421 C15 421 15 424 14 429 C15 434 15 436 14 436 L58 436 L103 436 L148 436 L147 164 C147 144 148 127 152 113 C156 99 163 88 172 79 C182 71 194 64 210 60 C227 56 248 54 272 54 C290 54 304 55 318 59 C332 63 349 70 369 78 L369 110 L369 356 C369 384 368 401 363 409 C359 417 348 421 332 421 L326 421 L326 436 L369 436 L414 436 L459 436 L459 134 L459 80 C461 72 464 67 468 64 C473 62 482 56 496 48 L502 45 L502 45 Z " />
<glyph glyph-name="ucircumflex" unicode="&#xfb;" horiz-adv-x="537" d="M502 45 L502 36 L387 0 L369 0 L369 23 L369 68 C339 55 314 44 292 34 C271 25 254 18 240 12 C225 5 212 -1 202 -5 C174 -5 150 -3 131 3 C113 9 98 18 87 31 C77 45 70 61 65 81 C61 102 58 127 58 155 L58 356 C58 384 57 401 52 409 C48 417 37 421 21 421 L14 421 C15 421 15 424 14 429 C15 434 15 436 14 436 L58 436 L103 436 L148 436 L147 164 C147 144 148 127 152 113 C156 99 163 88 172 79 C182 71 194 64 210 60 C227 56 248 54 272 54 C290 54 304 55 318 59 C332 63 349 70 369 78 L369 110 L369 356 C369 384 368 401 363 409 C359 417 348 421 332 421 L326 421 L326 436 L369 436 L414 436 L459 436 L459 134 L459 80 C461 72 464 67 468 64 C473 62 482 56 496 48 L502 45 L502 45 Z M259 595 L146 468 L137 476 L230 656 C233 661 236 666 240 672 C244 678 250 681 258 681 C267 681 273 678 277 672 C281 666 285 661 287 655 L380 476 L371 468 L259 595 L259 595 Z " />
<glyph glyph-name="udieresis" unicode="&#xfc;" horiz-adv-x="537" d="M355 506 C335 506 322 510 313 518 C305 527 300 541 300 561 C300 581 304 595 312 603 C321 612 335 616 355 616 C375 616 389 613 397 604 C406 596 410 581 410 561 C410 541 407 528 398 519 C390 511 375 506 355 506 L355 506 Z M162 506 C142 506 129 510 120 518 C112 527 107 541 107 561 C107 581 111 595 119 603 C128 612 142 616 162 616 C182 616 196 613 204 604 C213 596 217 581 217 561 C217 541 214 528 205 519 C197 511 182 506 162 506 L162 506 Z M502 45 L502 36 L387 0 L369 0 L369 23 L369 68 C339 55 314 44 292 34 C271 25 254 18 240 12 C225 5 212 -1 202 -5 C174 -5 150 -3 131 3 C113 9 98 18 87 31 C77 45 70 61 65 81 C61 102 58 127 58 155 L58 356 C58 384 57 401 52 409 C48 417 37 421 21 421 L14 421 C15 421 15 424 14 429 C15 434 15 436 14 436 L58 436 L103 436 L148 436 L147 164 C147 144 148 127 152 113 C156 99 163 88 172 79 C182 71 194 64 210 60 C227 56 248 54 272 54 C290 54 304 55 318 59 C332 63 349 70 369 78 L369 110 L369 356 C369 384 368 401 363 409 C359 417 348 421 332 421 L326 421 L326 436 L369 436 L414 436 L459 436 L459 134 L459 80 C461 72 464 67 468 64 C473 62 482 56 496 48 L502 45 L502 45 Z " />
<glyph glyph-name="Ydieresis" unicode="&#xff;" horiz-adv-x="454" d="M347 506 C327 506 314 510 305 518 C297 527 292 541 292 561 C292 581 296 595 304 603 C313 612 327 616 347 616 C367 616 381 613 389 604 C398 596 402 581 402 561 C402 541 399 528 390 519 C382 511 367 506 347 506 L347 506 Z M155 506 C135 506 122 510 113 518 C105 527 100 541 100 561 C100 581 104 595 112 603 C121 612 135 616 155 616 C175 616 189 613 197 604 C206 596 210 581 210 561 C210 541 207 528 198 519 C190 511 175 506 155 506 L155 506 Z M510 436 L510 421 L503 421 C495 421 489 421 483 419 C478 417 474 415 468 410 C463 406 458 399 453 390 C449 382 443 370 436 356 L436 356 L261 -10 L232 -72 C234 -67 234 -63 232 -61 C230 -58 224 -56 213 -54 L240 2 L67 356 L67 356 C61 370 56 382 50 390 C45 399 41 405 35 409 C30 414 25 416 19 418 C14 420 7 421 -1 421 L-7 421 L-7 436 L28 436 L80 436 L131 436 L174 436 C175 436 175 434 174 429 C175 424 175 421 174 421 L169 421 C156 421 149 418 149 410 C149 402 156 384 168 356 L168 356 L291 90 L408 356 L408 356 C421 384 428 401 427 409 C427 417 420 421 406 421 L401 421 L401 436 L444 436 L459 436 L474 436 L510 436 L510 436 Z M213 -54 L212 -54 C212 -55 212 -57 211 -59 C211 -61 210 -62 208 -64 L213 -54 L213 -54 Z M212 -54 L212 -54 C201 -52 184 -51 160 -51 C136 -50 104 -50 62 -50 C37 -50 20 -47 9 -40 C-1 -32 -7 -20 -7 -4 C-7 10 -3 19 3 25 C10 31 22 34 38 34 C46 34 53 33 59 30 C66 28 72 26 78 22 C84 19 90 16 96 13 C102 11 109 9 117 9 C143 9 164 9 179 7 C195 6 205 3 212 -2 C220 -6 223 -13 222 -21 C222 -29 218 -40 212 -54 L212 -54 Z " />
<glyph glyph-name="Amacron" unicode="&#x100;" horiz-adv-x="635" d="M145 671 L145 721 L451 721 L451 671 L145 671 L145 671 Z M627 15 L627 0 L592 0 L538 0 L483 0 L427 0 L427 15 L434 15 C450 15 459 18 462 23 C466 29 464 40 456 57 L389 200 L156 200 L104 71 C96 48 92 34 96 26 C100 19 111 15 129 15 L138 15 L138 0 L75 0 L58 0 L42 0 L5 0 L5 15 L11 15 C19 15 25 15 31 17 C37 19 42 23 46 27 C51 32 55 38 59 46 C64 55 69 66 75 80 L76 80 L286 580 L311 580 L560 66 C572 45 580 32 588 25 C596 19 607 15 620 15 L627 15 L627 15 Z M378 224 L265 466 L167 225 L378 224 L378 224 Z " />
<glyph glyph-name="amacron" unicode="&#x101;" horiz-adv-x="506" d="M69 541 L69 591 L375 591 L375 541 L69 541 L69 541 Z M485 49 L495 37 C487 29 480 21 472 15 C465 9 457 5 448 1 C440 -3 430 -5 418 -7 C407 -9 393 -10 375 -10 C349 -10 331 -5 321 3 C311 12 305 26 303 45 C283 28 261 15 237 7 C214 -1 187 -5 156 -5 C112 -5 81 2 63 16 C45 31 36 56 36 90 C36 127 49 155 76 173 C104 192 150 206 214 214 L302 225 L302 311 C302 349 297 376 287 392 C277 408 261 416 237 416 L46 416 C118 426 170 431 202 435 C234 439 253 441 257 441 C308 441 344 430 365 407 C387 385 397 346 397 291 L397 97 C397 74 398 58 402 48 C406 38 418 33 437 33 C452 33 461 34 467 36 C473 39 479 43 485 49 L485 49 Z M302 202 L214 186 C182 180 159 173 145 161 C132 150 125 135 125 115 C125 94 131 79 142 69 C154 60 173 55 201 55 C245 55 278 61 302 71 L302 87 L302 202 L302 202 Z " />
<glyph glyph-name="Abreve" unicode="&#x102;" horiz-adv-x="635" d="M169 778 L184 783 C192 759 204 742 221 731 C239 721 264 715 298 715 C332 715 357 720 374 730 C392 741 404 759 412 783 L427 778 C413 734 396 702 376 683 C357 665 331 655 298 655 C266 655 241 665 221 683 C201 702 184 734 169 778 L169 778 Z M627 15 L627 0 L592 0 L538 0 L483 0 L427 0 L427 15 L434 15 C450 15 459 18 462 23 C466 29 464 40 456 57 L389 200 L156 200 L104 71 C96 48 92 34 96 26 C100 19 111 15 129 15 L138 15 L138 0 L75 0 L58 0 L42 0 L5 0 L5 15 L11 15 C19 15 25 15 31 17 C37 19 42 23 46 27 C51 32 55 38 59 46 C64 55 69 66 75 80 L76 80 L286 580 L311 580 L560 66 C572 45 580 32 588 25 C596 19 607 15 620 15 L627 15 L627 15 Z M378 224 L265 466 L167 225 L378 224 L378 224 Z " />
<glyph glyph-name="abreve" unicode="&#x103;" horiz-adv-x="506" d="M93 617 L108 622 C116 598 128 581 145 570 C163 560 188 554 222 554 C256 554 280 559 297 569 C315 580 327 598 335 622 L351 617 C337 573 320 541 300 522 C280 504 254 494 222 494 C190 494 164 504 144 522 C125 541 108 573 93 617 L93 617 Z M485 49 L495 37 C487 29 480 21 472 15 C465 9 457 5 448 1 C440 -3 430 -5 418 -7 C407 -9 393 -10 375 -10 C349 -10 331 -5 321 3 C311 12 305 26 303 45 C283 28 261 15 237 7 C214 -1 187 -5 156 -5 C112 -5 81 2 63 16 C45 31 36 56 36 90 C36 127 49 155 76 173 C104 192 150 206 214 214 L302 225 L302 311 C302 349 297 376 287 392 C277 408 261 416 237 416 L46 416 C118 426 170 431 202 435 C234 439 253 441 257 441 C308 441 344 430 365 407 C387 385 397 346 397 291 L397 97 C397 74 398 58 402 48 C406 38 418 33 437 33 C452 33 461 34 467 36 C473 39 479 43 485 49 L485 49 Z M302 202 L214 186 C182 180 159 173 145 161 C132 150 125 135 125 115 C125 94 131 79 142 69 C154 60 173 55 201 55 C245 55 278 61 302 71 L302 87 L302 202 L302 202 Z " />
<glyph glyph-name="Aogonek" unicode="&#x104;" horiz-adv-x="635" d="M627 15 L627 0 L592 0 L538 0 L483 0 C474 -3 464 -8 451 -17 C439 -25 428 -36 416 -49 C405 -61 396 -76 388 -92 C381 -108 377 -125 377 -145 C377 -168 383 -185 397 -195 C411 -205 434 -210 466 -210 C483 -210 496 -209 504 -207 C513 -205 520 -201 524 -196 L531 -203 C521 -214 510 -221 497 -227 C485 -232 468 -235 447 -235 C401 -235 369 -229 350 -217 C332 -205 322 -184 322 -155 C322 -138 325 -123 332 -108 C340 -92 348 -78 360 -65 C372 -51 385 -40 399 -29 C413 -17 427 -8 441 0 L427 0 L427 15 L434 15 C450 15 459 18 462 23 C466 29 464 40 456 57 L389 200 L156 200 L104 71 C96 48 92 34 96 26 C100 19 111 15 129 15 L138 15 L138 0 L75 0 L58 0 L42 0 L5 0 L5 15 L11 15 C19 15 25 15 31 17 C37 19 42 23 46 27 C51 32 55 38 59 46 C64 55 69 66 75 80 L76 80 L286 580 L311 580 L560 66 C572 45 580 32 588 25 C596 19 607 15 620 15 L627 15 L627 15 Z M378 224 L265 466 L167 225 L378 224 L378 224 Z " />
<glyph glyph-name="aogonek" unicode="&#x105;" horiz-adv-x="506" d="M485 49 L495 37 L485 27 L485 27 L485 27 C477 20 470 15 462 9 C455 4 447 0 437 -3 C422 -17 408 -34 396 -55 C384 -75 378 -99 378 -127 C378 -157 384 -178 398 -191 C412 -203 436 -210 468 -210 C485 -210 498 -209 506 -207 C515 -205 521 -201 525 -196 L532 -203 C522 -214 511 -221 498 -227 C486 -232 469 -235 448 -235 C402 -235 370 -227 351 -213 C333 -198 323 -173 323 -137 C323 -111 330 -88 343 -67 C357 -45 373 -26 392 -10 L375 -10 C349 -10 331 -5 321 3 C311 12 305 26 303 45 C283 28 261 15 237 7 C214 -1 187 -5 156 -5 C112 -5 81 2 63 16 C45 31 36 56 36 90 C36 127 49 155 76 173 C104 192 150 206 214 214 L302 225 L302 311 C302 349 297 376 287 392 C277 408 261 416 237 416 L46 416 C118 426 170 431 202 435 C234 439 253 441 257 441 C308 441 344 430 365 407 C387 385 397 346 397 291 L397 97 C397 74 398 58 402 48 C406 38 418 33 437 33 C447 33 453 34 456 34 C464 39 473 43 482 46 L485 49 L485 49 Z M302 202 L214 186 C182 180 159 173 145 161 C132 150 125 135 125 115 C125 94 131 79 142 69 C154 60 173 55 201 55 C245 55 278 61 302 71 L302 87 L302 202 L302 202 Z " />
<glyph glyph-name="Cacute" unicode="&#x106;" horiz-adv-x="711" d="M357 597 L347 605 L425 759 C435 779 443 791 447 799 C452 807 456 811 458 811 C463 811 467 810 473 807 C479 805 485 801 490 797 C496 793 499 790 503 785 C507 781 509 777 509 773 C509 770 507 765 501 757 C495 750 485 739 471 723 L357 597 L357 597 Z M652 14 C614 8 576 4 538 0 C500 -3 455 -5 403 -5 C339 -5 285 0 240 10 C196 21 160 37 131 60 C103 84 82 114 69 150 C57 187 50 231 50 283 C50 336 57 381 69 417 C82 454 102 483 130 506 C159 530 196 546 240 556 C285 567 339 572 403 572 C455 572 499 571 537 568 C575 566 614 561 652 553 L658 456 L651 456 C650 456 648 455 645 455 C643 459 640 462 638 465 C636 469 634 472 630 476 C614 500 596 516 573 526 C551 537 521 544 483 546 C471 547 459 547 445 547 C432 547 418 547 403 547 C359 547 322 543 291 533 C261 524 236 510 216 488 C196 467 182 440 173 406 C165 372 160 331 160 283 C160 235 165 195 173 161 C182 128 195 102 215 80 C235 59 261 44 291 34 C322 25 359 20 403 20 C413 20 421 20 429 20 C438 20 447 21 455 21 C483 23 505 24 525 28 C545 32 562 37 576 45 C591 53 603 62 614 73 C626 85 636 98 645 112 C647 112 649 111 651 111 L658 111 L652 14 L652 14 Z " />
<glyph glyph-name="cacute" unicode="&#x107;" horiz-adv-x="509" d="M230 466 L220 474 L298 628 C308 648 316 660 320 668 C325 676 328 680 330 680 C335 680 340 679 346 676 C352 674 357 670 362 666 C368 662 371 659 375 654 C379 650 381 646 381 642 C381 639 379 634 373 626 C367 619 358 608 344 592 L230 466 L230 466 Z M459 64 C429 39 400 22 368 11 C337 1 299 -5 255 -5 C218 -5 186 -1 160 6 C134 14 114 26 97 42 C81 59 69 80 61 106 C54 132 50 164 50 201 C50 245 55 282 64 312 C74 343 88 367 108 386 C129 406 155 420 187 428 C220 437 260 441 306 441 C360 441 397 435 420 420 C444 406 457 381 460 346 C460 332 457 321 451 315 C445 309 435 306 420 306 C405 306 394 310 387 316 C381 323 377 334 375 350 C373 374 366 391 354 401 C342 411 323 416 296 416 C242 416 204 403 180 375 C157 347 145 301 145 235 C145 202 149 174 155 150 C162 126 173 107 187 92 C202 78 220 67 244 60 C268 54 297 50 330 50 C364 50 390 51 408 55 C426 59 441 66 451 74 L459 64 L459 64 Z " />
<glyph glyph-name="Ccircumflex" unicode="&#x108;" horiz-adv-x="711" d="M404 725 L291 599 L282 607 L375 786 C378 791 381 796 385 802 C389 808 395 811 403 811 C412 811 418 808 422 802 C426 796 430 791 432 786 L525 607 L516 599 L404 725 L404 725 Z M652 14 C614 8 576 4 538 0 C500 -3 455 -5 403 -5 C339 -5 285 0 240 10 C196 21 160 37 131 60 C103 84 82 114 69 150 C57 187 50 231 50 283 C50 336 57 381 69 417 C82 454 102 483 130 506 C159 530 196 546 240 556 C285 567 339 572 403 572 C455 572 499 571 537 568 C575 566 614 561 652 553 L658 456 L651 456 C650 456 648 455 645 455 C643 459 640 462 638 465 C636 469 634 472 630 476 C614 500 596 516 573 526 C551 537 521 544 483 546 C471 547 459 547 445 547 C432 547 418 547 403 547 C359 547 322 543 291 533 C261 524 236 510 216 488 C196 467 182 440 173 406 C165 372 160 331 160 283 C160 235 165 195 173 161 C182 128 195 102 215 80 C235 59 261 44 291 34 C322 25 359 20 403 20 C413 20 421 20 429 20 C438 20 447 21 455 21 C483 23 505 24 525 28 C545 32 562 37 576 45 C591 53 603 62 614 73 C626 85 636 98 645 112 C647 112 649 111 651 111 L658 111 L652 14 L652 14 Z " />
<glyph glyph-name="Cdot" unicode="&#x10a;" horiz-adv-x="711" d="M403 637 C383 637 370 641 361 649 C353 658 348 672 348 692 C348 712 352 726 360 734 C369 743 383 747 403 747 C423 747 437 744 445 735 C454 727 458 712 458 692 C458 672 455 659 446 650 C438 642 423 637 403 637 L403 637 Z M652 14 C614 8 576 4 538 0 C500 -3 455 -5 403 -5 C339 -5 285 0 240 10 C196 21 160 37 131 60 C103 84 82 114 69 150 C57 187 50 231 50 283 C50 336 57 381 69 417 C82 454 102 483 130 506 C159 530 196 546 240 556 C285 567 339 572 403 572 C455 572 499 571 537 568 C575 566 614 561 652 553 L658 456 L651 456 C650 456 648 455 645 455 C643 459 640 462 638 465 C636 469 634 472 630 476 C614 500 596 516 573 526 C551 537 521 544 483 546 C471 547 459 547 445 547 C432 547 418 547 403 547 C359 547 322 543 291 533 C261 524 236 510 216 488 C196 467 182 440 173 406 C165 372 160 331 160 283 C160 235 165 195 173 161 C182 128 195 102 215 80 C235 59 261 44 291 34 C322 25 359 20 403 20 C413 20 421 20 429 20 C438 20 447 21 455 21 C483 23 505 24 525 28 C545 32 562 37 576 45 C591 53 603 62 614 73 C626 85 636 98 645 112 C647 112 649 111 651 111 L658 111 L652 14 L652 14 Z " />
<glyph glyph-name="cdot" unicode="&#x10b;" horiz-adv-x="509" d="M306 506 C286 506 273 510 264 518 C256 527 251 541 251 561 C251 581 255 595 263 603 C272 612 286 616 306 616 C326 616 340 613 348 604 C357 596 361 581 361 561 C361 541 358 528 349 519 C341 511 326 506 306 506 L306 506 Z M459 64 C429 39 400 22 368 11 C337 1 299 -5 255 -5 C218 -5 186 -1 160 6 C134 14 114 26 97 42 C81 59 69 80 61 106 C54 132 50 164 50 201 C50 245 55 282 64 312 C74 343 88 367 108 386 C129 406 155 420 187 428 C220 437 260 441 306 441 C360 441 397 435 420 420 C444 406 457 381 460 346 C460 332 457 321 451 315 C445 309 435 306 420 306 C405 306 394 310 387 316 C381 323 377 334 375 350 C373 374 366 391 354 401 C342 411 323 416 296 416 C242 416 204 403 180 375 C157 347 145 301 145 235 C145 202 149 174 155 150 C162 126 173 107 187 92 C202 78 220 67 244 60 C268 54 297 50 330 50 C364 50 390 51 408 55 C426 59 441 66 451 74 L459 64 L459 64 Z " />
<glyph glyph-name="Ccaron" unicode="&#x10c;" horiz-adv-x="711" d="M404 708 L291 835 L282 827 L375 647 C378 643 381 638 385 632 C389 626 395 623 403 622 C412 623 418 626 422 632 C426 638 430 644 432 648 L525 827 L516 835 L404 708 L404 708 Z M652 14 C614 8 576 4 538 0 C500 -3 455 -5 403 -5 C339 -5 285 0 240 10 C196 21 160 37 131 60 C103 84 82 114 69 150 C57 187 50 231 50 283 C50 336 57 381 69 417 C82 454 102 483 130 506 C159 530 196 546 240 556 C285 567 339 572 403 572 C455 572 499 571 537 568 C575 566 614 561 652 553 L658 456 L651 456 C650 456 648 455 645 455 C643 459 640 462 638 465 C636 469 634 472 630 476 C614 500 596 516 573 526 C551 537 521 544 483 546 C471 547 459 547 445 547 C432 547 418 547 403 547 C359 547 322 543 291 533 C261 524 236 510 216 488 C196 467 182 440 173 406 C165 372 160 331 160 283 C160 235 165 195 173 161 C182 128 195 102 215 80 C235 59 261 44 291 34 C322 25 359 20 403 20 C413 20 421 20 429 20 C438 20 447 21 455 21 C483 23 505 24 525 28 C545 32 562 37 576 45 C591 53 603 62 614 73 C626 85 636 98 645 112 C647 112 649 111 651 111 L658 111 L652 14 L652 14 Z " />
<glyph glyph-name="ccaron" unicode="&#x10d;" horiz-adv-x="509" d="M459 64 C429 39 400 22 368 11 C337 1 299 -5 255 -5 C218 -5 186 -1 160 6 C134 14 114 26 97 42 C81 59 69 80 61 106 C54 132 50 164 50 201 C50 245 55 282 64 312 C74 343 88 367 108 386 C129 406 155 420 187 428 C220 437 260 441 306 441 C360 441 397 435 420 420 C444 406 457 381 460 346 C460 332 457 321 451 315 C445 309 435 306 420 306 C405 306 394 310 387 316 C381 323 377 334 375 350 C373 374 366 391 354 401 C342 411 323 416 296 416 C242 416 204 403 180 375 C157 347 145 301 145 235 C145 202 149 174 155 150 C162 126 173 107 187 92 C202 78 220 67 244 60 C268 54 297 50 330 50 C364 50 390 51 408 55 C426 59 441 66 451 74 L459 64 L459 64 Z M306 578 L194 704 L184 697 L278 517 C280 512 283 506 287 500 C292 494 298 492 306 492 C315 492 321 494 325 500 C329 507 333 513 335 517 L428 697 L419 704 L306 578 L306 578 Z " />
<glyph glyph-name="Dcaron" unicode="&#x10e;" horiz-adv-x="699" d="M40 552 L40 567 L83 567 L133 567 L183 567 L295 567 C359 567 413 563 458 552 C504 542 540 525 568 502 C597 480 618 450 630 414 C643 378 649 335 649 283 C649 232 644 188 632 152 C621 116 603 88 577 65 C552 43 520 27 479 16 C439 6 390 0 332 0 L183 0 L133 0 L83 0 L40 0 L40 15 L46 15 C62 15 72 19 76 27 C81 35 83 53 83 80 L83 487 C83 515 82 532 77 540 C73 548 62 552 46 552 L40 552 L40 552 Z M316 709 L204 835 L194 827 L288 647 C290 643 293 638 297 632 C302 626 308 623 316 622 C325 623 331 626 335 632 C339 638 343 644 345 648 L438 827 L429 835 L316 709 L316 709 Z M183 25 L332 25 C372 25 405 30 432 39 C460 49 482 64 499 84 C517 105 529 132 537 164 C545 197 549 237 549 283 C549 331 545 371 535 403 C526 436 511 463 491 483 C471 504 446 519 413 528 C381 538 341 542 295 542 L183 542 L183 25 L183 25 Z " />
<glyph glyph-name="dcaron" unicode="&#x10f;" horiz-adv-x="611" d="M544 45 L544 36 L429 0 L411 0 L411 23 L411 58 C381 47 357 37 336 29 C316 21 299 15 286 9 C271 3 259 -1 249 -5 C214 -5 184 -2 159 5 C135 13 115 23 99 39 C84 55 74 75 66 100 C59 126 55 156 55 192 C55 238 60 275 68 307 C77 339 91 364 109 384 C128 404 151 418 181 427 C211 437 248 441 290 441 C344 441 385 438 411 432 L411 522 L411 576 C410 585 407 590 402 592 C398 595 388 600 374 608 L368 611 L368 620 L483 656 L501 656 L501 633 L501 546 L501 134 L501 80 C503 72 506 67 510 64 C515 62 524 56 538 48 L544 45 L544 45 Z M634 560 L560 412 L548 416 L578 580 C580 594 583 607 585 620 C588 634 591 645 594 655 C598 665 601 673 605 679 C609 685 614 688 620 688 C626 688 632 689 638 688 C645 688 650 687 656 685 C662 683 667 681 671 678 C675 676 677 672 677 668 C677 663 674 652 667 633 C661 615 650 590 634 560 L634 560 Z M411 110 L411 407 C399 411 384 412 363 414 C343 416 317 417 286 417 C236 417 202 404 180 374 C159 345 148 296 148 226 C148 162 159 117 182 90 C206 64 245 50 299 50 C323 50 342 52 359 54 C377 57 394 62 411 68 L411 110 L411 110 Z " />
<glyph glyph-name="Emacron" unicode="&#x112;" horiz-adv-x="565" d="M125 671 L125 721 L431 721 L431 671 L125 671 L125 671 Z M405 358 L418 358 L418 315 L418 302 L418 290 L418 241 L405 241 C401 251 397 260 392 266 C388 273 382 278 374 281 C367 285 357 287 345 288 C333 290 318 290 298 290 L183 290 L183 25 L337 25 C359 25 376 25 390 27 C405 29 417 33 428 37 C440 42 450 49 459 57 C469 66 479 77 489 91 L498 103 L509 103 C506 87 504 72 500 58 C497 44 494 29 490 13 C490 10 489 6 487 0 L483 0 L407 0 L183 0 L133 0 L83 0 L40 0 L40 15 L46 15 C62 15 72 19 76 27 C81 35 83 53 83 80 L83 487 C83 515 82 532 77 540 C73 548 62 552 46 552 L40 552 L40 567 L83 567 L133 567 L183 567 L408 567 L473 567 L488 567 L488 554 C490 538 491 523 491 509 C492 496 493 481 494 464 L483 464 L476 476 C468 490 459 502 451 510 C443 519 434 526 424 530 C414 535 403 537 388 539 C374 541 356 542 334 542 L183 542 L183 315 L298 315 C318 315 333 315 345 316 C357 318 366 319 374 322 C382 326 388 329 392 335 C397 341 401 349 405 358 L405 358 Z " />
<glyph glyph-name="emacron" unicode="&#x113;" horiz-adv-x="516" d="M127 541 L127 591 L433 591 L433 541 L127 541 L127 541 Z M465 64 C435 39 406 22 374 11 C343 1 304 -5 258 -5 C220 -5 189 -1 162 6 C136 14 115 26 98 42 C82 59 70 80 62 106 C54 132 50 164 50 201 C50 245 54 282 62 312 C71 343 84 367 102 386 C121 406 144 420 173 428 C203 437 238 441 280 441 C314 441 343 439 366 432 C390 426 408 416 423 401 C439 387 450 368 456 345 C463 323 466 295 466 262 L381 262 L146 262 C146 258 145 254 145 249 C145 245 145 240 145 235 C145 202 148 174 155 150 C163 126 173 107 188 92 C204 78 222 67 246 60 C270 54 299 50 333 50 C368 50 395 51 413 55 C432 59 447 66 457 74 L465 64 L465 64 Z M147 279 L344 292 C369 295 382 309 382 335 L382 338 C382 367 374 386 358 398 C342 410 315 416 275 416 C233 416 203 407 183 385 C163 364 151 329 147 279 L147 279 Z M340 292 L339 292 L340 292 L340 292 Z " />
<glyph glyph-name="Ebreve" unicode="&#x114;" horiz-adv-x="565" d="M149 778 L164 783 C172 759 184 742 201 731 C219 721 244 715 278 715 C312 715 336 720 353 730 C371 741 383 759 391 783 L407 778 C393 734 376 702 356 683 C336 665 310 655 278 655 C246 655 220 665 200 683 C181 702 164 734 149 778 L149 778 Z M405 358 L418 358 L418 315 L418 302 L418 290 L418 241 L405 241 C401 251 397 260 392 266 C388 273 382 278 374 281 C367 285 357 287 345 288 C333 290 318 290 298 290 L183 290 L183 25 L337 25 C359 25 376 25 390 27 C405 29 417 33 428 37 C440 42 450 49 459 57 C469 66 479 77 489 91 L498 103 L509 103 C506 87 504 72 500 58 C497 44 494 29 490 13 C490 10 489 6 487 0 L483 0 L407 0 L183 0 L133 0 L83 0 L40 0 L40 15 L46 15 C62 15 72 19 76 27 C81 35 83 53 83 80 L83 487 C83 515 82 532 77 540 C73 548 62 552 46 552 L40 552 L40 567 L83 567 L133 567 L183 567 L408 567 L473 567 L488 567 L488 554 C490 538 491 523 491 509 C492 496 493 481 494 464 L483 464 L476 476 C468 490 459 502 451 510 C443 519 434 526 424 530 C414 535 403 537 388 539 C374 541 356 542 334 542 L183 542 L183 315 L298 315 C318 315 333 315 345 316 C357 318 366 319 374 322 C382 326 388 329 392 335 C397 341 401 349 405 358 L405 358 Z " />
<glyph glyph-name="ebreve" unicode="&#x115;" horiz-adv-x="516" d="M151 647 L167 652 C175 628 187 611 204 600 C222 590 247 584 280 584 C314 584 339 589 356 599 C374 610 386 628 394 652 L409 647 C395 603 378 571 358 552 C339 534 313 524 280 524 C248 524 223 534 203 552 C183 571 166 603 151 647 L151 647 Z M465 64 C435 39 406 22 374 11 C343 1 304 -5 258 -5 C220 -5 189 -1 162 6 C136 14 115 26 98 42 C82 59 70 80 62 106 C54 132 50 164 50 201 C50 245 54 282 62 312 C71 343 84 367 102 386 C121 406 144 420 173 428 C203 437 238 441 280 441 C314 441 343 439 366 432 C390 426 408 416 423 401 C439 387 450 368 456 345 C463 323 466 295 466 262 L381 262 L146 262 C146 258 145 254 145 249 C145 245 145 240 145 235 C145 202 148 174 155 150 C163 126 173 107 188 92 C204 78 222 67 246 60 C270 54 299 50 333 50 C368 50 395 51 413 55 C432 59 447 66 457 74 L465 64 L465 64 Z M147 279 L344 292 C369 295 382 309 382 335 L382 338 C382 367 374 386 358 398 C342 410 315 416 275 416 C233 416 203 407 183 385 C163 364 151 329 147 279 L147 279 Z M340 292 L339 292 L340 292 L340 292 Z " />
<glyph glyph-name="Edot" unicode="&#x116;" horiz-adv-x="565" d="M278 637 C258 637 245 641 236 649 C228 658 223 672 223 692 C223 712 227 726 235 734 C244 743 258 747 278 747 C298 747 312 744 320 735 C329 727 333 712 333 692 C333 672 330 659 321 650 C313 642 298 637 278 637 L278 637 Z M405 358 L418 358 L418 315 L418 302 L418 290 L418 241 L405 241 C401 251 397 260 392 266 C388 273 382 278 374 281 C367 285 357 287 345 288 C333 290 318 290 298 290 L183 290 L183 25 L337 25 C359 25 376 25 390 27 C405 29 417 33 428 37 C440 42 450 49 459 57 C469 66 479 77 489 91 L498 103 L509 103 C506 87 504 72 500 58 C497 44 494 29 490 13 C490 10 489 6 487 0 L483 0 L407 0 L183 0 L133 0 L83 0 L40 0 L40 15 L46 15 C62 15 72 19 76 27 C81 35 83 53 83 80 L83 487 C83 515 82 532 77 540 C73 548 62 552 46 552 L40 552 L40 567 L83 567 L133 567 L183 567 L408 567 L473 567 L488 567 L488 554 C490 538 491 523 491 509 C492 496 493 481 494 464 L483 464 L476 476 C468 490 459 502 451 510 C443 519 434 526 424 530 C414 535 403 537 388 539 C374 541 356 542 334 542 L183 542 L183 315 L298 315 C318 315 333 315 345 316 C357 318 366 319 374 322 C382 326 388 329 392 335 C397 341 401 349 405 358 L405 358 Z " />
<glyph glyph-name="edot" unicode="&#x117;" horiz-adv-x="516" d="M280 506 C260 506 247 510 238 518 C230 527 225 541 225 561 C225 581 229 595 237 603 C246 612 260 616 280 616 C300 616 314 613 322 604 C331 596 335 581 335 561 C335 541 332 528 323 519 C315 511 300 506 280 506 L280 506 Z M465 64 C435 39 406 22 374 11 C343 1 304 -5 258 -5 C220 -5 189 -1 162 6 C136 14 115 26 98 42 C82 59 70 80 62 106 C54 132 50 164 50 201 C50 245 54 282 62 312 C71 343 84 367 102 386 C121 406 144 420 173 428 C203 437 238 441 280 441 C314 441 343 439 366 432 C390 426 408 416 423 401 C439 387 450 368 456 345 C463 323 466 295 466 262 L381 262 L146 262 C146 258 145 254 145 249 C145 245 145 240 145 235 C145 202 148 174 155 150 C163 126 173 107 188 92 C204 78 222 67 246 60 C270 54 299 50 333 50 C368 50 395 51 413 55 C432 59 447 66 457 74 L465 64 L465 64 Z M147 279 L344 292 C369 295 382 309 382 335 L382 338 C382 367 374 386 358 398 C342 410 315 416 275 416 C233 416 203 407 183 385 C163 364 151 329 147 279 L147 279 Z M340 292 L339 292 L340 292 L340 292 Z " />
<glyph glyph-name="Eogonek" unicode="&#x118;" horiz-adv-x="565" d="M405 358 L418 358 L418 315 L418 302 L418 290 L418 241 L405 241 C401 251 397 260 392 266 C388 273 382 278 374 281 C367 285 357 287 345 288 C333 290 318 290 298 290 L183 290 L183 25 L337 25 C359 25 376 25 390 27 C405 29 417 33 428 37 C440 42 450 49 459 57 C469 66 479 77 489 91 L498 103 L509 103 C506 87 504 72 500 58 C497 44 494 29 490 13 C490 10 489 6 487 0 L483 0 C473 -3 463 -8 450 -17 C438 -25 427 -36 415 -49 C404 -61 395 -76 387 -92 C380 -108 376 -125 376 -145 C376 -168 382 -185 396 -195 C410 -205 434 -210 466 -210 C483 -210 496 -209 504 -207 C513 -205 520 -201 524 -196 L530 -203 C520 -214 509 -221 496 -227 C484 -232 467 -235 446 -235 C400 -235 368 -229 349 -217 C331 -205 321 -184 321 -155 C321 -138 324 -123 331 -108 C339 -92 347 -78 359 -65 C371 -51 384 -40 398 -29 C412 -17 426 -8 440 0 L407 0 L183 0 L133 0 L83 0 L40 0 L40 15 L46 15 C62 15 72 19 76 27 C81 35 83 53 83 80 L83 487 C83 515 82 532 77 540 C73 548 62 552 46 552 L40 552 L40 567 L83 567 L133 567 L183 567 L408 567 L473 567 L488 567 L488 554 C490 538 491 523 491 509 C492 496 493 481 494 464 L483 464 L476 476 C468 490 459 502 451 510 C443 519 434 526 424 530 C414 535 403 537 388 539 C374 541 356 542 334 542 L183 542 L183 315 L298 315 C318 315 333 315 345 316 C357 318 366 319 374 322 C382 326 388 329 392 335 C397 341 401 349 405 358 L405 358 Z " />
<glyph glyph-name="eogonek" unicode="&#x119;" horiz-adv-x="516" d="M147 279 L344 292 C369 295 382 309 382 335 L382 338 C382 367 374 386 358 398 C342 410 315 416 275 416 C233 416 203 407 183 385 C163 364 151 329 147 279 L147 279 Z M381 262 L146 262 C146 258 145 254 145 249 C145 245 145 240 145 235 C145 202 148 174 155 150 C163 126 173 107 188 92 C204 78 222 67 246 60 C270 54 299 50 333 50 C368 50 395 51 413 55 C432 59 447 66 457 74 L465 64 C433 36 399 18 363 8 C353 4 343 -2 331 -11 C319 -19 309 -29 298 -42 C288 -54 280 -68 272 -85 C265 -101 261 -119 261 -139 C261 -165 268 -183 281 -194 C295 -204 318 -210 350 -210 C367 -210 380 -209 388 -207 C397 -205 404 -201 408 -196 L414 -203 C405 -214 394 -221 381 -227 C369 -232 352 -235 330 -235 C284 -235 252 -229 233 -216 C215 -202 205 -180 205 -149 C205 -134 207 -120 213 -106 C219 -92 226 -78 236 -66 C246 -53 257 -41 269 -31 C281 -20 294 -11 306 -3 C299 -3 291 -3 283 -4 C275 -4 267 -5 258 -5 C220 -5 189 -1 162 6 C136 14 115 26 98 42 C82 59 70 80 62 106 C54 132 50 164 50 201 C50 245 54 282 62 312 C71 343 84 367 102 386 C121 406 144 420 173 428 C203 437 238 441 280 441 C314 441 343 439 366 432 C390 426 408 416 423 401 C439 387 450 368 456 345 C463 323 466 295 466 262 L381 262 L381 262 Z M340 292 L339 292 L340 292 L340 292 Z " />
<glyph glyph-name="Ecaron" unicode="&#x11a;" horiz-adv-x="565" d="M405 358 L418 358 L418 315 L418 302 L418 290 L418 241 L405 241 C401 251 397 260 392 266 C388 273 382 278 374 281 C367 285 357 287 345 288 C333 290 318 290 298 290 L183 290 L183 25 L337 25 C359 25 376 25 390 27 C405 29 417 33 428 37 C440 42 450 49 459 57 C469 66 479 77 489 91 L498 103 L509 103 C506 87 504 72 500 58 C497 44 494 29 490 13 C490 10 489 6 487 0 L483 0 L407 0 L183 0 L133 0 L83 0 L40 0 L40 15 L46 15 C62 15 72 19 76 27 C81 35 83 53 83 80 L83 487 C83 515 82 532 77 540 C73 548 62 552 46 552 L40 552 L40 567 L83 567 L133 567 L183 567 L408 567 L473 567 L488 567 L488 554 C490 538 491 523 491 509 C492 496 493 481 494 464 L483 464 L476 476 C468 490 459 502 451 510 C443 519 434 526 424 530 C414 535 403 537 388 539 C374 541 356 542 334 542 L183 542 L183 315 L298 315 C318 315 333 315 345 316 C357 318 366 319 374 322 C382 326 388 329 392 335 C397 341 401 349 405 358 L405 358 Z M278 708 L165 835 L156 827 L249 647 C252 643 255 638 259 632 C263 626 270 623 278 622 C286 623 292 626 296 632 C301 638 305 644 307 648 L400 827 L390 835 L278 708 L278 708 Z " />
<glyph glyph-name="ecaron" unicode="&#x11b;" horiz-adv-x="516" d="M465 64 C435 39 406 22 374 11 C343 1 304 -5 258 -5 C220 -5 189 -1 162 6 C136 14 115 26 98 42 C82 59 70 80 62 106 C54 132 50 164 50 201 C50 245 54 282 62 312 C71 343 84 367 102 386 C121 406 144 420 173 428 C203 437 238 441 280 441 C314 441 343 439 366 432 C390 426 408 416 423 401 C439 387 450 368 456 345 C463 323 466 295 466 262 L381 262 L146 262 C146 258 145 254 145 249 C145 245 145 240 145 235 C145 202 148 174 155 150 C163 126 173 107 188 92 C204 78 222 67 246 60 C270 54 299 50 333 50 C368 50 395 51 413 55 C432 59 447 66 457 74 L465 64 L465 64 Z M281 578 L168 704 L159 697 L252 517 C255 512 258 506 262 500 C266 494 272 492 280 492 C289 492 295 494 299 500 C303 507 307 513 309 517 L402 697 L393 704 L281 578 L281 578 Z M147 279 L344 292 C369 295 382 309 382 335 L382 338 C382 367 374 386 358 398 C342 410 315 416 275 416 C233 416 203 407 183 385 C163 364 151 329 147 279 L147 279 Z M340 292 L339 292 L340 292 L340 292 Z " />
<glyph glyph-name="Gcircumflex" unicode="&#x11c;" horiz-adv-x="775" d="M682 266 L682 251 L676 251 C661 252 651 248 646 240 C642 232 639 214 639 186 L639 55 C621 45 603 36 584 28 C566 20 547 15 527 9 C508 4 487 0 465 -2 C443 -4 419 -5 393 -5 C331 -5 279 0 235 10 C191 21 156 37 128 60 C101 84 82 114 69 150 C57 187 50 231 50 283 C50 336 56 381 68 417 C81 454 101 483 128 506 C156 530 190 546 234 556 C278 567 331 572 393 572 C442 572 484 571 520 568 C556 566 594 561 632 553 L638 456 L631 456 C630 456 628 455 625 455 C623 459 620 462 618 465 C616 469 614 472 610 476 C594 500 573 518 549 528 C525 539 493 545 452 546 L452 546 C443 547 434 547 424 547 C414 547 404 547 393 547 C351 547 316 543 286 533 C256 524 232 510 213 488 C195 467 182 440 173 406 C165 372 160 331 160 283 C160 235 164 195 172 161 C181 128 195 102 213 80 C232 59 255 44 285 34 C315 25 351 20 393 20 C425 20 452 22 477 25 C503 29 527 34 549 41 L549 186 C549 214 548 232 543 240 C539 248 529 252 513 251 L506 251 L506 266 L549 266 L594 266 L639 266 L682 266 L682 266 Z M394 725 L281 599 L272 607 L365 786 C368 791 371 796 375 802 C379 808 385 811 393 811 C402 811 408 808 412 802 C416 796 420 791 422 786 L515 607 L506 599 L394 725 L394 725 Z " />
<glyph glyph-name="Gbreve" unicode="&#x11e;" horiz-adv-x="775" d="M264 778 L280 783 C288 759 300 742 317 731 C335 721 360 715 393 715 C427 715 452 720 469 730 C487 741 499 759 507 783 L522 778 C508 734 491 702 471 683 C452 665 426 655 393 655 C361 655 336 665 316 683 C296 702 279 734 264 778 L264 778 Z M682 266 L682 251 L676 251 C661 252 651 248 646 240 C642 232 639 214 639 186 L639 55 C621 45 603 36 584 28 C566 20 547 15 527 9 C508 4 487 0 465 -2 C443 -4 419 -5 393 -5 C331 -5 279 0 235 10 C191 21 156 37 128 60 C101 84 82 114 69 150 C57 187 50 231 50 283 C50 336 56 381 68 417 C81 454 101 483 128 506 C156 530 190 546 234 556 C278 567 331 572 393 572 C442 572 484 571 520 568 C556 566 594 561 632 553 L638 456 L631 456 C630 456 628 455 625 455 C623 459 620 462 618 465 C616 469 614 472 610 476 C594 500 573 518 549 528 C525 539 493 545 452 546 L452 546 C443 547 434 547 424 547 C414 547 404 547 393 547 C351 547 316 543 286 533 C256 524 232 510 213 488 C195 467 182 440 173 406 C165 372 160 331 160 283 C160 235 164 195 172 161 C181 128 195 102 213 80 C232 59 255 44 285 34 C315 25 351 20 393 20 C425 20 452 22 477 25 C503 29 527 34 549 41 L549 186 C549 214 548 232 543 240 C539 248 529 252 513 251 L506 251 L506 266 L549 266 L594 266 L639 266 L682 266 L682 266 Z " />
<glyph glyph-name="gbreve" unicode="&#x11f;" horiz-adv-x="480" d="M109 647 L125 652 C133 628 145 611 162 600 C180 590 205 584 238 584 C272 584 297 589 314 599 C332 610 344 628 352 652 L367 647 C353 603 336 571 316 552 C297 534 271 524 238 524 C206 524 181 534 161 552 C141 571 124 603 109 647 L109 647 Z M480 436 L480 386 L397 387 C411 367 417 339 417 302 C417 252 405 218 377 196 C350 175 304 164 238 164 L182 164 C154 164 135 163 123 159 C111 156 105 150 105 141 C105 135 111 130 124 128 C138 126 160 126 192 127 L279 131 C345 131 390 127 418 116 C446 106 460 88 460 63 C460 41 456 22 445 6 C435 -10 418 -23 395 -33 C373 -43 343 -49 307 -54 C271 -58 228 -61 176 -61 C120 -61 80 -57 56 -50 C32 -42 20 -30 20 -12 C20 -2 27 6 43 14 C59 23 86 33 123 43 C95 46 75 52 63 62 C51 72 45 87 45 106 C45 128 52 144 66 155 C80 167 104 174 136 177 C109 187 90 201 78 221 C66 241 60 268 60 302 C60 353 73 388 100 409 C128 431 174 441 238 441 C288 441 326 435 354 423 L354 423 L480 436 L480 436 Z M145 302 C145 260 152 229 166 211 C180 193 204 184 238 184 C272 184 296 193 310 211 C325 229 332 260 332 302 C332 346 326 376 311 394 C297 412 272 421 238 421 C204 421 180 412 166 394 C152 376 145 346 145 302 L145 302 Z M159 41 C131 33 110 27 98 20 C86 14 80 7 80 -1 C80 -14 88 -22 104 -28 C120 -33 148 -36 186 -36 C262 -36 315 -32 347 -24 C379 -15 395 -1 395 18 C395 28 385 35 363 39 C342 43 306 45 254 45 L197 42 C190 42 183 41 177 41 C171 41 165 41 159 41 L159 41 Z " />
<glyph glyph-name="Gdot" unicode="&#x120;" horiz-adv-x="775" d="M393 637 C373 637 360 641 351 649 C343 658 338 672 338 692 C338 712 342 726 350 734 C359 743 373 747 393 747 C413 747 427 744 435 735 C444 727 448 712 448 692 C448 672 445 659 436 650 C428 642 413 637 393 637 L393 637 Z M682 266 L682 251 L676 251 C661 252 651 248 646 240 C642 232 639 214 639 186 L639 55 C621 45 603 36 584 28 C566 20 547 15 527 9 C508 4 487 0 465 -2 C443 -4 419 -5 393 -5 C331 -5 279 0 235 10 C191 21 156 37 128 60 C101 84 82 114 69 150 C57 187 50 231 50 283 C50 336 56 381 68 417 C81 454 101 483 128 506 C156 530 190 546 234 556 C278 567 331 572 393 572 C442 572 484 571 520 568 C556 566 594 561 632 553 L638 456 L631 456 C630 456 628 455 625 455 C623 459 620 462 618 465 C616 469 614 472 610 476 C594 500 573 518 549 528 C525 539 493 545 452 546 L452 546 C443 547 434 547 424 547 C414 547 404 547 393 547 C351 547 316 543 286 533 C256 524 232 510 213 488 C195 467 182 440 173 406 C165 372 160 331 160 283 C160 235 164 195 172 161 C181 128 195 102 213 80 C232 59 255 44 285 34 C315 25 351 20 393 20 C425 20 452 22 477 25 C503 29 527 34 549 41 L549 186 C549 214 548 232 543 240 C539 248 529 252 513 251 L506 251 L506 266 L549 266 L594 266 L639 266 L682 266 L682 266 Z " />
<glyph glyph-name="gdot" unicode="&#x121;" horiz-adv-x="480" d="M238 506 C218 506 205 510 196 518 C188 527 183 541 183 561 C183 581 187 595 195 603 C204 612 218 616 238 616 C258 616 272 613 280 604 C289 596 293 581 293 561 C293 541 290 528 281 519 C273 511 258 506 238 506 L238 506 Z M480 436 L480 386 L397 387 C411 367 417 339 417 302 C417 252 405 218 377 196 C350 175 304 164 238 164 L182 164 C154 164 135 163 123 159 C111 156 105 150 105 141 C105 135 111 130 124 128 C138 126 160 126 192 127 L279 131 C345 131 390 127 418 116 C446 106 460 88 460 63 C460 41 456 22 445 6 C435 -10 418 -23 395 -33 C373 -43 343 -49 307 -54 C271 -58 228 -61 176 -61 C120 -61 80 -57 56 -50 C32 -42 20 -30 20 -12 C20 -2 27 6 43 14 C59 23 86 33 123 43 C95 46 75 52 63 62 C51 72 45 87 45 106 C45 128 52 144 66 155 C80 167 104 174 136 177 C109 187 90 201 78 221 C66 241 60 268 60 302 C60 353 73 388 100 409 C128 431 174 441 238 441 C288 441 326 435 354 423 L354 423 L480 436 L480 436 Z M145 302 C145 260 152 229 166 211 C180 193 204 184 238 184 C272 184 296 193 310 211 C325 229 332 260 332 302 C332 346 326 376 311 394 C297 412 272 421 238 421 C204 421 180 412 166 394 C152 376 145 346 145 302 L145 302 Z M159 41 C131 33 110 27 98 20 C86 14 80 7 80 -1 C80 -14 88 -22 104 -28 C120 -33 148 -36 186 -36 C262 -36 315 -32 347 -24 C379 -15 395 -1 395 18 C395 28 385 35 363 39 C342 43 306 45 254 45 L197 42 C190 42 183 41 177 41 C171 41 165 41 159 41 L159 41 Z " />
<glyph glyph-name="Hcircumflex" unicode="&#x124;" horiz-adv-x="722" d="M682 567 L682 552 L676 552 C661 552 651 549 646 541 C642 533 639 515 639 487 L639 80 C639 52 642 35 646 27 C651 19 661 15 676 15 L682 15 L682 0 L639 0 L589 0 L539 0 L496 0 L496 15 L502 15 C518 15 528 19 532 27 C537 35 539 53 539 80 L539 287 L183 287 L183 80 C183 52 186 35 190 27 C195 19 205 15 220 15 L226 15 L226 0 L183 0 L133 0 L83 0 L40 0 L40 15 L46 15 C62 15 72 19 76 27 C81 35 83 53 83 80 L83 487 C83 515 82 532 77 540 C73 548 62 552 46 552 L40 552 L40 567 L83 567 L133 567 L183 567 L226 567 L226 552 L220 552 C205 552 195 549 190 541 C186 533 183 515 183 487 L183 312 L539 312 L539 487 C539 515 538 532 533 540 C529 548 518 552 502 552 L496 552 L496 567 L539 567 L589 567 L639 567 L682 567 L682 567 Z M361 725 L249 599 L239 607 L333 786 C335 791 338 796 342 802 C347 808 353 811 361 811 C370 811 376 808 380 802 C384 796 388 791 390 786 L483 607 L474 599 L361 725 L361 725 Z " />
<glyph glyph-name="Itilde" unicode="&#x128;" horiz-adv-x="266" d="M-11 662 L-26 662 C-26 706 -21 737 -9 755 C3 773 23 782 51 782 C69 782 85 779 99 772 C113 766 127 759 140 751 C154 743 167 736 181 729 C196 723 212 719 230 719 C248 719 260 724 267 733 C275 743 278 758 278 779 L293 779 C293 735 287 704 274 686 C262 668 240 659 210 659 C192 659 176 663 162 669 C148 676 135 682 121 690 C108 698 94 706 80 712 C66 719 50 722 32 722 C17 722 6 718 -1 708 C-7 699 -11 684 -11 662 L-11 662 Z M226 567 L226 552 L220 552 C205 552 195 549 190 541 C186 533 183 515 183 487 L183 80 C183 52 186 35 190 27 C195 19 205 15 220 15 L226 15 L226 0 L183 0 L133 0 L83 0 L40 0 L40 15 L46 15 C62 15 72 19 76 27 C81 35 83 53 83 80 L83 487 C83 515 82 532 77 540 C73 548 62 552 46 552 L40 552 L40 567 L83 567 L133 567 L183 567 L226 567 L226 567 Z " />
<glyph glyph-name="itilde" unicode="&#x129;" horiz-adv-x="266" d="M-11 531 L-26 531 C-26 575 -21 606 -9 624 C3 642 23 651 51 651 C69 651 85 649 99 642 C113 636 127 628 140 620 C154 612 167 606 181 599 C196 593 212 589 230 589 C248 589 260 593 267 602 C275 612 278 627 278 649 L293 649 C293 605 287 574 274 556 C262 538 240 529 210 529 C192 529 176 532 162 538 C148 545 135 552 121 560 C108 568 94 575 80 581 C66 588 50 591 32 591 C17 591 6 588 -1 578 C-7 569 -11 553 -11 531 L-11 531 Z M178 0 L178 356 L88 356 L88 330 C88 342 89 349 88 355 C88 361 87 365 86 367 C86 370 85 372 83 372 C81 373 79 374 77 376 L52 394 L52 404 L173 441 L178 441 L178 356 L178 0 C178 10 180 14 184 14 C188 15 198 15 213 15 L221 15 L221 0 L178 0 L178 0 Z M88 330 L88 0 L45 0 L45 15 L54 15 C69 15 78 16 82 15 C86 15 88 10 88 0 L88 330 L88 330 Z " />
<glyph glyph-name="Imacron" unicode="&#x12a;" horiz-adv-x="266" d="M-20 671 L-20 721 L286 721 L286 671 L-20 671 L-20 671 Z M226 567 L226 552 L220 552 C205 552 195 549 190 541 C186 533 183 515 183 487 L183 80 C183 52 186 35 190 27 C195 19 205 15 220 15 L226 15 L226 0 L183 0 L133 0 L83 0 L40 0 L40 15 L46 15 C62 15 72 19 76 27 C81 35 83 53 83 80 L83 487 C83 515 82 532 77 540 C73 548 62 552 46 552 L40 552 L40 567 L83 567 L133 567 L183 567 L226 567 L226 567 Z " />
<glyph glyph-name="imacron" unicode="&#x12b;" horiz-adv-x="266" d="M-20 541 L-20 591 L286 591 L286 541 L-20 541 L-20 541 Z M178 0 L178 356 L88 356 L88 330 C88 342 89 349 88 355 C88 361 87 365 86 367 C86 370 85 372 83 372 C81 373 79 374 77 376 L52 394 L52 404 L173 441 L178 441 L178 356 L178 0 C178 10 180 14 184 14 C188 15 198 15 213 15 L221 15 L221 0 L178 0 L178 0 Z M88 330 L88 0 L45 0 L45 15 L54 15 C69 15 78 16 82 15 C86 15 88 10 88 0 L88 330 L88 330 Z " />
<glyph glyph-name="Ibreve" unicode="&#x12c;" horiz-adv-x="266" d="M4 778 L19 783 C27 759 39 742 56 731 C74 721 99 715 133 715 C167 715 192 720 209 730 C227 741 239 759 247 783 L262 778 C248 734 231 702 211 683 C192 665 166 655 133 655 C101 655 75 665 55 683 C36 702 19 734 4 778 L4 778 Z M226 567 L226 552 L220 552 C205 552 195 549 190 541 C186 533 183 515 183 487 L183 80 C183 52 186 35 190 27 C195 19 205 15 220 15 L226 15 L226 0 L183 0 L133 0 L83 0 L40 0 L40 15 L46 15 C62 15 72 19 76 27 C81 35 83 53 83 80 L83 487 C83 515 82 532 77 540 C73 548 62 552 46 552 L40 552 L40 567 L83 567 L133 567 L183 567 L226 567 L226 567 Z " />
<glyph glyph-name="ibreve" unicode="&#x12d;" horiz-adv-x="266" d="M4 647 L19 652 C27 628 39 611 56 600 C74 590 99 584 133 584 C167 584 192 589 209 599 C227 610 239 628 247 652 L262 647 C248 603 231 571 211 552 C192 534 166 524 133 524 C101 524 75 534 55 552 C36 571 19 603 4 647 L4 647 Z M178 0 L178 356 L88 356 L88 330 C88 342 89 349 88 355 C88 361 87 365 86 367 C86 370 85 372 83 372 C81 373 79 374 77 376 L52 394 L52 404 L173 441 L178 441 L178 356 L178 0 C178 10 180 14 184 14 C188 15 198 15 213 15 L221 15 L221 0 L178 0 L178 0 Z M88 330 L88 0 L45 0 L45 15 L54 15 C69 15 78 16 82 15 C86 15 88 10 88 0 L88 330 L88 330 Z " />
<glyph glyph-name="Idot" unicode="&#x130;" horiz-adv-x="266" d="M133 637 C113 637 100 641 91 649 C83 658 78 672 78 692 C78 712 82 726 90 734 C99 743 113 747 133 747 C153 747 167 744 175 735 C184 727 188 712 188 692 C188 672 185 659 176 650 C168 642 153 637 133 637 L133 637 Z M226 567 L226 552 L220 552 C205 552 195 549 190 541 C186 533 183 515 183 487 L183 80 C183 52 186 35 190 27 C195 19 205 15 220 15 L226 15 L226 0 L183 0 L133 0 L83 0 L40 0 L40 15 L46 15 C62 15 72 19 76 27 C81 35 83 53 83 80 L83 487 C83 515 82 532 77 540 C73 548 62 552 46 552 L40 552 L40 567 L83 567 L133 567 L183 567 L226 567 L226 567 Z " />
<glyph glyph-name="dotlessi" unicode="&#x131;" horiz-adv-x="266" d="M178 0 L178 356 L88 356 L88 330 C88 342 89 349 88 355 C88 361 87 365 86 367 C86 370 85 372 83 372 C81 373 79 374 77 376 L52 394 L52 404 L173 441 L178 441 L178 356 L178 0 C178 10 180 14 184 14 C188 15 198 15 213 15 L221 15 L221 0 L178 0 L178 0 Z M88 330 L88 0 L45 0 L45 15 L54 15 C69 15 78 16 82 15 C86 15 88 10 88 0 L88 330 L88 330 Z " />
<glyph glyph-name="Jcircumflex" unicode="&#x134;" horiz-adv-x="373" d="M334 567 L334 552 L327 552 C314 552 306 550 300 544 C295 538 292 526 291 506 L291 487 L291 256 C291 198 289 152 285 117 C281 83 273 57 260 37 C248 18 230 5 206 -1 C183 -7 152 -10 112 -10 C77 -10 52 -5 34 4 C17 14 6 29 0 50 C-3 65 -2 75 4 81 C10 87 22 90 40 90 C53 90 62 87 69 81 C77 75 82 65 85 50 C89 36 94 25 102 19 C110 13 122 10 137 10 C149 10 158 11 165 15 C173 19 177 27 181 38 C185 50 188 66 189 87 C191 109 191 137 191 172 L191 487 C191 515 190 532 185 540 C181 548 170 552 154 552 L147 552 L147 567 L191 567 L241 567 L291 567 L334 567 L334 567 Z M241 725 L128 599 L119 607 L212 786 C215 791 218 796 222 802 C226 808 233 811 241 811 C249 811 255 808 259 802 C263 796 267 791 269 786 L362 607 L353 599 L241 725 L241 725 Z " />
<glyph glyph-name="Lacute" unicode="&#x139;" horiz-adv-x="565" d="M110 597 L100 605 L178 759 C188 779 196 791 200 799 C205 807 208 811 210 811 C215 811 220 810 226 807 C232 805 238 801 243 797 C249 793 252 790 256 785 C260 781 262 777 262 773 C262 770 259 765 253 757 C247 750 238 739 224 723 L110 597 L110 597 Z M492 111 C494 111 496 111 498 110 C503 110 507 109 510 107 C507 90 505 74 501 60 C498 46 494 31 490 13 C490 10 489 6 487 0 L483 0 L407 0 L183 0 L133 0 L83 0 L40 0 L40 15 L46 15 C62 15 72 19 76 27 C81 35 83 53 83 80 L83 487 C83 515 82 532 77 540 C73 548 62 552 46 552 L40 552 L40 567 L83 567 L133 567 L183 567 L226 567 L226 552 L220 552 C205 552 195 549 190 541 C186 533 183 515 183 487 L183 25 L347 25 C367 25 382 25 395 27 C409 29 420 33 430 38 C440 44 449 50 457 60 C465 70 474 83 484 98 L492 111 L492 111 Z " />
<glyph glyph-name="Lcaron" unicode="&#x13d;" horiz-adv-x="565" d="M492 111 C494 111 496 111 498 110 C503 110 507 109 510 107 C507 90 505 74 501 60 C498 46 494 31 490 13 C490 10 489 6 487 0 L483 0 L407 0 L183 0 L133 0 L83 0 L40 0 L40 15 L46 15 C62 15 72 19 76 27 C81 35 83 53 83 80 L83 487 C83 515 82 532 77 540 C73 548 62 552 46 552 L40 552 L40 567 L83 567 L133 567 L183 567 L226 567 L226 552 L220 552 C205 552 195 549 190 541 C186 533 183 515 183 487 L183 25 L347 25 C367 25 382 25 395 27 C409 29 420 33 430 38 C440 44 449 50 457 60 C465 70 474 83 484 98 L492 111 L492 111 Z M359 471 L285 323 L273 327 L303 491 C306 505 309 518 311 531 C314 545 317 556 320 566 C324 576 327 584 331 590 C335 596 340 599 346 599 C352 599 357 600 363 599 C370 599 375 598 381 596 C387 594 392 592 396 589 C400 587 402 583 402 579 C402 574 399 563 392 544 C386 526 375 501 359 471 L359 471 Z " />
<glyph glyph-name="lcaron" unicode="&#x13e;" horiz-adv-x="266" d="M221 15 L221 0 L178 0 L133 0 L88 0 L45 0 L45 15 L51 15 C67 15 77 19 81 27 C86 35 88 53 88 80 L88 522 L88 575 C87 585 84 590 79 592 C75 595 65 600 51 608 L45 611 L45 620 L160 656 L178 656 L178 633 L178 546 L178 80 C178 52 181 35 185 27 C190 19 200 15 215 15 L221 15 L221 15 Z M311 530 L237 382 L225 386 L255 550 C257 564 260 577 262 590 C265 604 268 615 271 625 C275 635 278 643 282 649 C287 655 292 658 298 658 C304 658 309 659 315 658 C322 658 327 657 333 655 C339 653 344 651 348 648 C352 646 354 642 354 638 C354 633 351 622 344 603 C338 585 327 560 311 530 L311 530 Z " />
<glyph glyph-name="Lslash" unicode="&#x141;" horiz-adv-x="565" d="M33 218 L33 248 L83 265 L83 487 C83 515 82 532 77 540 C73 548 62 552 46 552 L40 552 L40 567 L83 567 L133 567 L183 567 L226 567 L226 552 L220 552 C205 552 195 549 190 541 C186 533 183 515 183 487 L183 298 L333 348 L333 318 L183 268 L183 25 L347 25 C367 25 382 25 395 27 C409 29 420 33 430 38 C440 44 449 50 457 60 C465 70 474 83 484 98 L492 111 C494 111 496 111 498 110 C503 110 507 109 510 107 C507 90 505 74 501 60 C498 46 494 31 490 13 C490 10 489 6 487 0 L483 0 L407 0 L183 0 L133 0 L83 0 L40 0 L40 15 L46 15 C62 15 72 19 76 27 C81 35 83 53 83 80 L83 235 L33 218 L33 218 Z " />
<glyph glyph-name="lslash" unicode="&#x142;" horiz-adv-x="266" d="M-12 263 L-12 293 L88 327 L88 522 L88 575 C87 585 84 590 79 592 C75 595 65 600 51 608 L45 611 L45 620 L160 656 L178 656 L178 633 L178 546 L178 359 L278 393 L278 363 L178 329 L178 80 C178 52 181 35 185 27 C190 19 200 15 215 15 L221 15 L221 0 L178 0 L133 0 L88 0 L45 0 L45 15 L51 15 C67 15 77 19 81 27 C86 35 88 53 88 80 L88 297 L-12 263 L-12 263 Z " />
<glyph glyph-name="Nacute" unicode="&#x143;" horiz-adv-x="652" d="M297 597 L287 605 L366 759 C376 779 383 791 387 799 C392 807 396 811 398 811 C403 811 408 810 414 807 C420 805 425 801 430 797 C436 793 439 790 443 785 C447 781 449 777 449 773 C450 770 447 765 441 757 C435 750 425 739 411 723 L297 597 L297 597 Z M617 567 L617 552 L611 552 C596 552 586 549 581 541 C577 533 574 515 574 487 L574 76 L574 -20 L550 -20 L498 40 L113 484 L113 80 C113 53 115 35 119 27 C124 19 134 15 149 15 L156 15 L156 0 L113 0 L98 0 L83 0 L39 0 C40 0 40 3 39 8 C40 13 40 15 39 15 L46 15 C62 15 72 19 76 27 C81 35 83 53 83 80 L83 487 C83 515 82 532 77 540 C73 548 62 552 46 552 L39 552 C40 552 40 555 39 559 C40 565 40 567 39 567 L83 567 L98 567 L113 567 L172 567 L113 526 L113 526 L172 567 L544 139 L544 487 C544 515 543 532 538 540 C534 548 523 552 507 552 L501 552 L501 567 L544 567 L559 567 L574 567 L617 567 L617 567 Z " />
<glyph glyph-name="nacute" unicode="&#x144;" horiz-adv-x="572" d="M212 466 L202 474 L280 628 C290 648 298 660 302 668 C307 676 310 680 312 680 C317 680 322 679 328 676 C334 674 340 670 345 666 C351 662 354 659 358 654 C362 650 364 646 364 642 C364 639 362 634 356 626 C350 619 340 608 326 592 L212 466 L212 466 Z M532 15 L532 0 L489 0 L444 0 L399 0 L356 0 L356 15 L362 15 C378 15 388 19 392 27 C397 35 399 53 399 80 L399 283 C399 301 399 316 396 328 C394 341 390 350 382 358 C375 366 365 371 352 375 C340 379 323 381 301 381 C273 381 251 380 232 378 C214 376 196 373 178 367 L178 333 L178 326 L178 80 L178 61 C179 42 181 30 186 24 C192 18 201 15 214 15 L221 15 C221 15 221 13 221 8 C221 3 221 0 221 0 L178 0 L133 0 L88 0 L44 0 C45 0 45 3 44 8 C45 13 45 15 44 15 L51 15 C67 15 77 19 81 27 C86 35 88 53 88 80 L88 302 L88 333 L88 333 C88 344 89 351 88 356 C88 362 87 365 84 368 C82 372 79 374 73 376 C68 379 61 383 51 388 L44 391 C46 391 46 394 44 400 L160 436 L178 436 L178 377 C213 389 242 398 266 406 C291 415 311 422 326 426 C344 432 359 437 370 441 C396 441 416 439 432 433 C448 428 460 419 468 407 C477 395 483 380 485 361 C488 343 489 320 489 293 L489 80 C489 52 492 35 496 27 C501 19 511 15 526 15 L532 15 L532 15 Z " />
<glyph glyph-name="Ncaron" unicode="&#x147;" horiz-adv-x="652" d="M617 567 L617 552 L611 552 C596 552 586 549 581 541 C577 533 574 515 574 487 L574 76 L574 -20 L550 -20 L498 40 L113 484 L113 80 C113 53 115 35 119 27 C124 19 134 15 149 15 L156 15 L156 0 L113 0 L98 0 L83 0 L39 0 C40 0 40 3 39 8 C40 13 40 15 39 15 L46 15 C62 15 72 19 76 27 C81 35 83 53 83 80 L83 487 C83 515 82 532 77 540 C73 548 62 552 46 552 L39 552 C40 552 40 555 39 559 C40 565 40 567 39 567 L83 567 L98 567 L113 567 L172 567 L113 526 L113 526 L172 567 L544 139 L544 487 C544 515 543 532 538 540 C534 548 523 552 507 552 L501 552 L501 567 L544 567 L559 567 L574 567 L617 567 L617 567 Z M329 708 L216 835 L207 827 L300 647 C303 643 306 638 310 632 C314 626 320 623 328 622 C337 623 343 626 347 632 C351 638 355 644 357 648 L450 827 L441 835 L329 708 L329 708 Z " />
<glyph glyph-name="ncaron" unicode="&#x148;" horiz-adv-x="572" d="M532 15 L532 0 L489 0 L444 0 L399 0 L356 0 L356 15 L362 15 C378 15 388 19 392 27 C397 35 399 53 399 80 L399 283 C399 301 399 316 396 328 C394 341 390 350 382 358 C375 366 365 371 352 375 C340 379 323 381 301 381 C273 381 251 380 232 378 C214 376 196 373 178 367 L178 333 L178 326 L178 80 L178 61 C179 42 181 30 186 24 C192 18 201 15 214 15 L221 15 C221 15 221 13 221 8 C221 3 221 0 221 0 L178 0 L133 0 L88 0 L44 0 C45 0 45 3 44 8 C45 13 45 15 44 15 L51 15 C67 15 77 19 81 27 C86 35 88 53 88 80 L88 302 L88 333 L88 333 C88 344 89 351 88 356 C88 362 87 365 84 368 C82 372 79 374 73 376 C68 379 61 383 51 388 L44 391 C46 391 46 394 44 400 L160 436 L178 436 L178 377 C213 389 242 398 266 406 C291 415 311 422 326 426 C344 432 359 437 370 441 C396 441 416 439 432 433 C448 428 460 419 468 407 C477 395 483 380 485 361 C488 343 489 320 489 293 L489 80 C489 52 492 35 496 27 C501 19 511 15 526 15 L532 15 L532 15 Z M289 578 L176 704 L167 697 L260 517 C263 512 266 506 270 500 C274 494 280 492 288 492 C297 492 303 494 307 500 C311 507 315 513 317 517 L410 697 L401 704 L289 578 L289 578 Z " />
<glyph glyph-name="Omacron" unicode="&#x14c;" horiz-adv-x="765" d="M229 671 L229 721 L535 721 L535 671 L229 671 L229 671 Z M382 20 C427 20 464 26 492 37 C521 49 544 65 560 87 C577 110 589 138 595 170 C602 203 605 241 605 283 C605 327 602 365 595 397 C589 430 577 457 560 479 C544 502 521 519 492 530 C464 542 427 547 382 547 C338 547 302 542 273 530 C245 519 222 503 205 480 C189 458 177 430 170 397 C164 365 160 327 160 283 C160 241 164 203 170 170 C177 138 189 111 205 88 C222 66 245 49 273 37 C302 26 338 20 382 20 L382 20 Z M50 283 C50 331 54 372 64 408 C74 444 91 474 116 498 C142 523 175 541 218 553 C262 566 316 572 382 572 C449 572 503 567 546 554 C590 542 623 524 648 499 C674 475 690 444 700 408 C710 372 715 331 715 283 C715 237 711 195 701 159 C691 123 675 94 649 69 C624 45 591 27 547 14 C504 2 449 -5 382 -5 C316 -5 263 1 219 13 C176 26 143 44 117 68 C92 93 75 123 65 159 C55 195 50 237 50 283 L50 283 Z " />
<glyph glyph-name="omacron" unicode="&#x14d;" horiz-adv-x="606" d="M150 541 L150 591 L456 591 L456 541 L150 541 L150 541 Z M303 15 C359 15 398 30 421 61 C445 93 456 145 456 218 C456 292 445 343 421 374 C398 406 359 421 303 421 C248 421 209 407 185 375 C162 344 150 292 150 218 C150 145 162 94 185 62 C209 31 248 15 303 15 L303 15 Z M50 218 C50 259 55 293 64 321 C74 350 88 372 108 390 C128 408 154 421 186 429 C218 437 257 441 303 441 C349 441 388 437 420 429 C452 421 478 409 498 391 C518 373 533 351 542 322 C552 294 556 259 556 218 C556 178 552 144 542 115 C533 87 518 64 498 46 C478 28 452 15 420 7 C388 -1 349 -5 303 -5 C257 -5 218 -1 186 7 C154 15 128 27 108 45 C88 63 74 86 64 114 C55 143 50 178 50 218 L50 218 Z " />
<glyph glyph-name="Obreve" unicode="&#x14e;" horiz-adv-x="765" d="M253 778 L269 783 C277 759 289 742 306 731 C324 721 349 715 382 715 C416 715 441 720 458 730 C476 741 488 759 496 783 L511 778 C497 734 480 702 460 683 C441 665 415 655 382 655 C350 655 325 665 305 683 C285 702 268 734 253 778 L253 778 Z M382 20 C427 20 464 26 492 37 C521 49 544 65 560 87 C577 110 589 138 595 170 C602 203 605 241 605 283 C605 327 602 365 595 397 C589 430 577 457 560 479 C544 502 521 519 492 530 C464 542 427 547 382 547 C338 547 302 542 273 530 C245 519 222 503 205 480 C189 458 177 430 170 397 C164 365 160 327 160 283 C160 241 164 203 170 170 C177 138 189 111 205 88 C222 66 245 49 273 37 C302 26 338 20 382 20 L382 20 Z M50 283 C50 331 54 372 64 408 C74 444 91 474 116 498 C142 523 175 541 218 553 C262 566 316 572 382 572 C449 572 503 567 546 554 C590 542 623 524 648 499 C674 475 690 444 700 408 C710 372 715 331 715 283 C715 237 711 195 701 159 C691 123 675 94 649 69 C624 45 591 27 547 14 C504 2 449 -5 382 -5 C316 -5 263 1 219 13 C176 26 143 44 117 68 C92 93 75 123 65 159 C55 195 50 237 50 283 L50 283 Z " />
<glyph glyph-name="obreve" unicode="&#x14f;" horiz-adv-x="606" d="M174 647 L189 652 C197 628 209 611 226 600 C244 590 269 584 303 584 C337 584 362 589 379 599 C397 610 409 628 417 652 L432 647 C418 603 401 571 381 552 C362 534 336 524 303 524 C271 524 245 534 225 552 C206 571 189 603 174 647 L174 647 Z M303 15 C359 15 398 30 421 61 C445 93 456 145 456 218 C456 292 445 343 421 374 C398 406 359 421 303 421 C248 421 209 407 185 375 C162 344 150 292 150 218 C150 145 162 94 185 62 C209 31 248 15 303 15 L303 15 Z M50 218 C50 259 55 293 64 321 C74 350 88 372 108 390 C128 408 154 421 186 429 C218 437 257 441 303 441 C349 441 388 437 420 429 C452 421 478 409 498 391 C518 373 533 351 542 322 C552 294 556 259 556 218 C556 178 552 144 542 115 C533 87 518 64 498 46 C478 28 452 15 420 7 C388 -1 349 -5 303 -5 C257 -5 218 -1 186 7 C154 15 128 27 108 45 C88 63 74 86 64 114 C55 143 50 178 50 218 L50 218 Z " />
<glyph glyph-name="Racute" unicode="&#x154;" horiz-adv-x="654" d="M232 597 L222 605 L300 759 C310 779 318 791 322 799 C327 807 330 811 332 811 C337 811 342 810 348 807 C354 805 360 801 365 797 C371 793 374 790 378 785 C382 781 384 777 384 773 C384 770 382 765 376 757 C370 750 360 739 346 723 L232 597 L232 597 Z M40 552 L40 567 L83 567 L133 567 L183 567 L308 567 C350 567 385 565 413 559 C442 554 465 546 483 534 C501 523 514 508 522 489 C530 471 534 448 534 422 C534 378 523 345 499 321 C475 297 436 282 381 274 L550 87 C568 68 581 54 589 44 C598 35 604 29 609 25 C615 21 620 19 625 19 C631 20 639 20 649 20 L654 20 L654 0 L619 0 C588 0 566 1 550 0 C535 0 522 2 511 7 C501 13 490 22 476 37 C463 53 442 76 414 106 L266 269 L183 269 L183 80 C183 52 186 35 190 27 C195 19 205 15 220 15 L226 15 L226 0 L183 0 L133 0 L83 0 L40 0 L40 15 L46 15 C62 15 72 19 76 27 C81 35 83 53 83 80 L83 487 C83 515 82 532 77 540 C73 548 62 552 46 552 L40 552 L40 552 Z M283 294 C337 294 374 304 396 323 C418 343 429 376 429 422 C429 466 421 497 402 515 C384 533 352 542 308 542 L183 542 L183 294 L243 294 L283 294 L283 294 Z " />
<glyph glyph-name="Rcaron" unicode="&#x158;" horiz-adv-x="569" d="M40 552 L40 567 L83 567 L133 567 L183 567 L308 567 C350 567 385 565 413 559 C442 554 465 546 483 534 C501 523 514 508 522 489 C530 471 534 448 534 422 C534 380 525 348 504 325 C484 303 449 287 401 278 L406 278 C423 232 439 192 453 157 C468 123 482 93 496 68 C510 44 524 24 537 8 C551 -8 565 -20 579 -30 L570 -45 C529 -18 494 8 462 32 C431 57 405 81 381 106 C358 132 339 158 323 184 C307 211 294 239 283 269 L183 269 L183 80 C183 52 186 35 190 27 C195 19 205 15 220 15 L226 15 L226 0 L183 0 L133 0 L83 0 L40 0 L40 15 L46 15 C62 15 72 19 76 27 C81 35 83 53 83 80 L83 487 C83 515 82 532 77 540 C73 548 62 552 46 552 L40 552 L40 552 Z M308 708 L196 835 L187 827 L280 647 C283 643 286 638 290 632 C294 626 300 623 308 622 C317 623 323 626 327 632 C331 638 335 644 337 648 L430 827 L421 835 L308 708 L308 708 Z M183 294 L283 294 C337 294 374 304 396 323 C418 343 429 376 429 422 C429 466 421 497 402 515 C384 533 352 542 308 542 L183 542 L183 294 L183 294 Z " />
<glyph glyph-name="rcaron" unicode="&#x159;" horiz-adv-x="402" d="M201 578 L88 704 L79 697 L172 517 C175 512 178 506 182 500 C186 494 192 492 200 492 C209 492 215 494 219 500 C223 507 227 513 229 517 L322 697 L313 704 L201 578 L201 578 Z M173 364 L177 333 L178 333 L178 326 L178 80 L178 61 C179 42 181 30 186 24 C192 18 201 15 214 15 L221 15 C221 15 221 13 221 8 C221 3 221 0 221 0 L178 0 L133 0 L88 0 L44 0 C45 0 45 3 44 8 C45 13 45 15 44 15 L51 15 C67 15 77 19 81 27 C86 35 88 53 88 80 L88 302 L88 333 L88 333 C88 344 89 351 88 356 C88 362 87 365 84 368 C82 372 79 374 73 376 C68 379 61 383 51 388 L44 391 C46 391 46 394 44 400 L147 436 L165 436 L172 376 C198 388 219 398 237 406 C255 414 270 421 281 426 C295 432 305 437 313 441 C331 441 345 440 355 438 C366 436 373 433 379 428 C385 424 388 418 390 410 C392 403 393 394 393 383 C393 367 390 356 383 349 C377 343 366 339 350 339 C340 339 330 340 321 344 C313 348 304 352 296 356 C288 361 280 364 271 368 C263 372 253 374 242 374 C226 374 214 374 203 372 C193 371 183 368 173 364 L173 364 Z " />
<glyph glyph-name="Sacute" unicode="&#x15a;" horiz-adv-x="519" d="M206 597 L196 605 L274 759 C284 779 292 791 296 799 C301 807 304 811 306 811 C311 811 316 810 322 807 C328 805 334 801 339 797 C345 793 348 790 352 785 C356 781 358 777 358 773 C358 770 355 765 349 757 C343 750 334 739 320 723 L206 597 L206 597 Z M438 449 L425 449 C422 455 419 459 415 463 C412 468 409 473 405 478 C391 498 375 513 356 523 C338 533 313 540 283 544 L283 544 C269 546 258 547 252 547 C202 547 167 540 145 523 C124 507 113 478 113 438 C113 411 126 389 154 371 C182 353 229 337 295 322 C361 309 406 291 433 265 C461 240 474 205 474 159 C474 129 471 104 463 83 C455 63 444 47 426 33 C409 20 387 10 359 4 C332 -2 299 -5 260 -5 C216 -5 178 -3 144 -1 C111 2 77 6 43 11 L37 117 C39 118 41 118 43 118 L50 118 C53 115 55 112 57 108 C59 105 62 102 64 98 C82 72 103 54 129 42 C155 30 190 23 234 21 L234 21 C239 21 243 20 247 20 C252 20 256 20 260 20 C312 20 348 28 370 42 C392 57 403 82 403 118 C403 150 389 175 361 194 C333 214 286 231 218 245 C156 259 111 277 84 300 C58 324 44 356 44 398 C44 430 47 456 55 478 C63 500 75 518 92 532 C110 546 132 556 158 562 C185 569 218 572 256 572 C286 572 314 571 340 568 C367 566 397 562 431 556 L428 538 L428 538 L431 556 L438 449 L438 449 Z " />
<glyph glyph-name="sacute" unicode="&#x15b;" horiz-adv-x="429" d="M153 466 L143 474 L221 628 C231 648 239 660 243 668 C248 676 252 680 254 680 C259 680 263 679 269 676 C275 674 281 670 286 666 C292 662 295 659 299 654 C303 650 305 646 305 642 C305 639 303 634 297 626 C291 619 281 608 267 592 L153 466 L153 466 Z M44 65 L55 65 C57 63 58 61 60 59 C62 57 64 55 66 53 C80 39 95 30 113 24 C131 18 156 15 186 15 L208 15 C244 15 269 21 283 33 C298 46 305 67 305 97 C305 117 297 133 281 146 C265 160 238 173 200 186 C148 204 112 223 90 243 C69 264 58 289 58 319 C58 363 71 395 97 413 C123 432 168 441 230 441 C266 441 293 441 313 441 C333 442 347 443 354 443 L355 443 L360 372 L354 372 C352 372 350 372 348 371 C347 373 346 375 344 377 C343 379 342 381 340 383 C332 397 323 406 311 411 C299 417 284 420 264 421 L230 421 C193 421 167 417 151 405 C136 394 128 376 128 350 C128 331 138 315 158 299 C179 284 214 268 264 250 C306 235 335 218 353 200 C371 182 380 159 380 131 C380 82 368 47 340 26 C313 6 267 -5 203 -5 C125 -5 74 -6 50 -8 L51 0 L51 0 L50 -8 L49 -8 L44 65 L44 65 Z M50 -8 L49 -15 L50 -8 L50 -8 L50 -8 Z M49 -8 C39 -8 33 -9 33 -11 C34 -12 39 -13 49 -15 L49 -8 L49 -8 Z M355 447 L355 443 C360 444 363 445 362 445 C362 446 359 447 355 447 L355 447 Z " />
<glyph glyph-name="Scircumflex" unicode="&#x15c;" horiz-adv-x="519" d="M438 449 L425 449 C422 455 419 459 415 463 C412 468 409 473 405 478 C391 498 375 513 356 523 C338 533 313 540 283 544 L283 544 C269 546 258 547 252 547 C202 547 167 540 145 523 C124 507 113 478 113 438 C113 411 126 389 154 371 C182 353 229 337 295 322 C361 309 406 291 433 265 C461 240 474 205 474 159 C474 129 471 104 463 83 C455 63 444 47 426 33 C409 20 387 10 359 4 C332 -2 299 -5 260 -5 C216 -5 178 -3 144 -1 C111 2 77 6 43 11 L37 117 C39 118 41 118 43 118 L50 118 C53 115 55 112 57 108 C59 105 62 102 64 98 C82 72 103 54 129 42 C155 30 190 23 234 21 L234 21 C239 21 243 20 247 20 C252 20 256 20 260 20 C312 20 348 28 370 42 C392 57 403 82 403 118 C403 150 389 175 361 194 C333 214 286 231 218 245 C156 259 111 277 84 300 C58 324 44 356 44 398 C44 430 47 456 55 478 C63 500 75 518 92 532 C110 546 132 556 158 562 C185 569 218 572 256 572 C286 572 314 571 340 568 C367 566 397 562 431 556 L428 538 L428 538 L431 556 L438 449 L438 449 Z M252 725 L140 599 L130 607 L224 786 C226 791 229 796 233 802 C238 808 244 811 252 811 C261 811 267 808 271 802 C275 796 279 791 281 786 L374 607 L365 599 L252 725 L252 725 Z " />
<glyph glyph-name="Scedilla" unicode="&#x15e;" horiz-adv-x="519" d="M438 449 L425 449 C422 455 419 459 415 463 C412 468 409 473 405 478 C391 498 375 513 356 523 C338 533 313 540 283 544 L283 544 C269 546 258 547 252 547 C202 547 167 540 145 523 C124 507 113 478 113 438 C113 411 126 389 154 371 C182 353 229 337 295 322 C361 309 406 291 433 265 C461 240 474 205 474 159 C474 129 471 104 463 83 C455 63 444 47 426 33 C409 20 387 10 359 4 C332 -2 299 -5 260 -5 C216 -5 178 -3 144 -1 C111 2 77 6 43 11 L37 117 C39 118 41 118 43 118 L50 118 C53 115 55 112 57 108 C59 105 62 102 64 98 C82 72 103 54 129 42 C155 30 190 23 234 21 L234 21 C239 21 243 20 247 20 C252 20 256 20 260 20 C312 20 348 28 370 42 C392 57 403 82 403 118 C403 150 389 175 361 194 C333 214 286 231 218 245 C156 259 111 277 84 300 C58 324 44 356 44 398 C44 430 47 456 55 478 C63 500 75 518 92 532 C110 546 132 556 158 562 C185 569 218 572 256 572 C286 572 314 571 340 568 C367 566 397 562 431 556 L428 538 L428 538 L431 556 L438 449 L438 449 Z " />
<glyph glyph-name="scedilla" unicode="&#x15f;" horiz-adv-x="429" d="M44 65 L55 65 C57 63 58 61 60 59 C62 57 64 55 66 53 C80 39 95 30 113 24 C131 18 156 15 186 15 L208 15 C244 15 269 21 283 33 C298 46 305 67 305 97 C305 117 297 133 281 146 C265 160 238 173 200 186 C148 204 112 223 90 243 C69 264 58 289 58 319 C58 363 71 395 97 413 C123 432 168 441 230 441 C266 441 293 441 313 441 C333 442 347 443 354 443 L355 443 L360 372 L354 372 C352 372 350 372 348 371 C347 373 346 375 344 377 C343 379 342 381 340 383 C332 397 323 406 311 411 C299 417 284 420 264 421 L230 421 C193 421 167 417 151 405 C136 394 128 376 128 350 C128 331 138 315 158 299 C179 284 214 268 264 250 C306 235 335 218 353 200 C371 182 380 159 380 131 C380 82 368 47 340 26 C313 6 267 -5 203 -5 C125 -5 74 -6 50 -8 L51 0 L51 0 L50 -8 L49 -8 L44 65 L44 65 Z M50 -8 L49 -15 L50 -8 L50 -8 L50 -8 Z M49 -8 C39 -8 33 -9 33 -11 C34 -12 39 -13 49 -15 L49 -8 L49 -8 Z M355 447 L355 443 C360 444 363 445 362 445 C362 446 359 447 355 447 L355 447 Z " />
<glyph glyph-name="Scaron" unicode="&#x160;" horiz-adv-x="519" d="M438 449 L425 449 C422 455 419 459 415 463 C412 468 409 473 405 478 C391 498 375 513 356 523 C338 533 313 540 283 544 L283 544 C269 546 258 547 252 547 C202 547 167 540 145 523 C124 507 113 478 113 438 C113 411 126 389 154 371 C182 353 229 337 295 322 C361 309 406 291 433 265 C461 240 474 205 474 159 C474 129 471 104 463 83 C455 63 444 47 426 33 C409 20 387 10 359 4 C332 -2 299 -5 260 -5 C216 -5 178 -3 144 -1 C111 2 77 6 43 11 L37 117 C39 118 41 118 43 118 L50 118 C53 115 55 112 57 108 C59 105 62 102 64 98 C82 72 103 54 129 42 C155 30 190 23 234 21 L234 21 C239 21 243 20 247 20 C252 20 256 20 260 20 C312 20 348 28 370 42 C392 57 403 82 403 118 C403 150 389 175 361 194 C333 214 286 231 218 245 C156 259 111 277 84 300 C58 324 44 356 44 398 C44 430 47 456 55 478 C63 500 75 518 92 532 C110 546 132 556 158 562 C185 569 218 572 256 572 C286 572 314 571 340 568 C367 566 397 562 431 556 L428 538 L428 538 L431 556 L438 449 L438 449 Z M252 709 L140 835 L130 827 L224 647 C226 643 229 638 233 632 C238 626 244 623 252 622 C261 623 267 626 271 632 C275 638 279 644 281 648 L374 827 L365 835 L252 709 L252 709 Z " />
<glyph glyph-name="scaron" unicode="&#x161;" horiz-adv-x="429" d="M44 65 L55 65 C57 63 58 61 60 59 C62 57 64 55 66 53 C80 39 95 30 113 24 C131 18 156 15 186 15 L208 15 C244 15 269 21 283 33 C298 46 305 67 305 97 C305 117 297 133 281 146 C265 160 238 173 200 186 C148 204 112 223 90 243 C69 264 58 289 58 319 C58 363 71 395 97 413 C123 432 168 441 230 441 C266 441 293 441 313 441 C333 442 347 443 354 443 L355 443 L360 372 L354 372 C352 372 350 372 348 371 C347 373 346 375 344 377 C343 379 342 381 340 383 C332 397 323 406 311 411 C299 417 284 420 264 421 L230 421 C193 421 167 417 151 405 C136 394 128 376 128 350 C128 331 138 315 158 299 C179 284 214 268 264 250 C306 235 335 218 353 200 C371 182 380 159 380 131 C380 82 368 47 340 26 C313 6 267 -5 203 -5 C125 -5 74 -6 50 -8 L51 0 L51 0 L50 -8 L49 -8 L44 65 L44 65 Z M230 578 L117 704 L108 697 L201 517 C204 512 207 506 211 500 C215 494 222 492 230 492 C238 492 244 494 248 500 C252 507 256 513 258 517 L351 697 L342 704 L230 578 L230 578 Z M50 -8 L49 -15 L50 -8 L50 -8 L50 -8 Z M49 -8 C39 -8 33 -9 33 -11 C34 -12 39 -13 49 -15 L49 -8 L49 -8 Z M355 447 L355 443 C360 444 363 445 362 445 C362 446 359 447 355 447 L355 447 Z " />
<glyph glyph-name="Tcaron" unicode="&#x164;" horiz-adv-x="626" d="M406 15 L406 0 L363 0 L313 0 L263 0 L220 0 L220 15 L226 15 C242 15 252 19 256 27 C261 35 263 53 263 80 L263 542 L146 542 C130 542 115 542 103 540 C91 538 81 535 71 529 C62 524 53 517 44 507 C36 497 26 485 14 469 L5 456 L-7 456 C-4 474 -2 490 0 505 C2 521 5 537 8 554 C9 557 9 559 9 561 C9 563 10 565 10 567 L40 567 L90 567 L536 567 L586 567 L616 567 C617 565 617 563 617 561 C617 559 618 557 618 554 C622 537 624 521 626 505 C628 490 631 474 633 456 L621 456 L612 469 C602 485 593 496 583 506 C574 516 565 524 555 529 C546 535 536 537 524 539 C512 541 498 542 480 542 L363 542 L363 80 C363 53 365 35 369 27 C374 19 384 15 400 15 L406 15 L406 15 Z M313 708 L200 835 L191 827 L284 647 C287 643 290 638 294 631 C298 625 305 622 313 622 C322 623 328 626 332 632 C336 638 340 644 342 648 L435 827 L426 835 L313 708 L313 708 Z " />
<glyph glyph-name="tcaron" unicode="&#x165;" horiz-adv-x="357" d="M326 436 L326 401 L186 401 L186 97 C186 83 187 72 187 63 C188 55 189 48 193 44 C197 40 202 39 209 37 C217 36 226 35 238 35 C256 35 269 36 279 36 C290 37 299 38 305 39 C312 41 316 42 320 44 C324 47 328 50 331 52 L338 44 C328 36 319 29 309 22 C300 16 291 10 280 6 C270 2 258 0 244 -2 C231 -4 214 -5 194 -5 C172 -5 154 -4 140 -2 C127 0 118 4 111 12 C105 20 101 31 99 47 C97 63 96 85 96 113 L96 401 L25 401 L25 411 C55 416 80 430 102 453 C125 477 148 514 171 564 L186 564 L186 436 L326 436 L326 436 Z M459 530 L385 382 L373 386 L403 550 C405 564 408 577 410 590 C413 604 416 615 419 625 C423 635 426 643 430 649 C434 655 439 658 445 658 C451 658 457 659 463 658 C470 658 475 657 481 655 C487 653 492 651 496 648 C500 646 502 642 502 638 C502 633 499 622 492 603 C486 585 475 560 459 530 L459 530 Z " />
<glyph glyph-name="Utilde" unicode="&#x168;" horiz-adv-x="617" d="M166 662 L151 662 C151 706 156 737 168 755 C180 773 201 782 229 782 C247 782 263 779 277 772 C291 766 305 759 318 751 C332 743 345 736 359 729 C374 723 390 719 408 719 C426 719 437 724 444 733 C452 743 455 758 455 779 L470 779 C470 735 465 704 452 686 C440 668 418 659 388 659 C370 659 354 663 340 669 C326 676 313 682 299 690 C286 698 273 706 258 712 C244 719 227 722 209 722 C194 722 183 718 176 708 C170 699 166 684 166 662 L166 662 Z M597 567 L597 552 L590 552 C575 552 565 550 559 543 C553 537 550 522 549 499 L549 477 L549 159 C549 129 547 104 541 83 C536 63 526 47 509 33 C493 20 469 10 438 4 C408 -2 367 -5 316 -5 C264 -5 221 -2 189 5 C157 13 134 23 116 38 C99 54 88 73 82 97 C76 121 73 151 73 185 L73 487 C73 515 72 532 67 540 C63 548 52 552 36 552 L30 552 L30 567 L73 567 L123 567 L173 567 L216 567 L216 552 L210 552 C195 552 185 549 180 541 C176 533 173 515 173 487 L173 166 C173 142 174 121 178 103 C182 86 189 72 200 61 C212 51 228 44 248 38 C269 33 296 30 330 30 C372 30 405 32 429 37 C454 43 472 50 485 61 C499 73 507 86 511 104 C516 122 518 144 518 169 L519 493 C519 519 516 534 510 541 C504 549 493 552 475 552 L467 552 L467 567 L519 567 L534 567 L549 567 L597 567 L597 567 Z " />
<glyph glyph-name="utilde" unicode="&#x169;" horiz-adv-x="537" d="M114 531 L99 531 C99 575 104 606 116 624 C128 642 148 651 176 651 C194 651 210 649 224 642 C239 636 253 628 266 620 C280 612 293 606 307 599 C321 593 337 589 355 589 C373 589 385 593 392 602 C400 612 403 627 403 649 L418 649 C418 605 413 574 400 556 C388 538 366 529 336 529 C318 529 303 532 288 538 C274 545 260 552 246 560 C233 568 219 575 205 581 C191 588 175 591 157 591 C142 591 131 588 124 578 C118 569 114 553 114 531 L114 531 Z M502 45 L502 36 L387 0 L369 0 L369 23 L369 68 C339 55 314 44 292 34 C271 25 254 18 240 12 C225 5 212 -1 202 -5 C174 -5 150 -3 131 3 C113 9 98 18 87 31 C77 45 70 61 65 81 C61 102 58 127 58 155 L58 356 C58 384 57 401 52 409 C48 417 37 421 21 421 L14 421 C15 421 15 424 14 429 C15 434 15 436 14 436 L58 436 L103 436 L148 436 L147 164 C147 144 148 127 152 113 C156 99 163 88 172 79 C182 71 194 64 210 60 C227 56 248 54 272 54 C290 54 304 55 318 59 C332 63 349 70 369 78 L369 110 L369 356 C369 384 368 401 363 409 C359 417 348 421 332 421 L326 421 L326 436 L369 436 L414 436 L459 436 L459 134 L459 80 C461 72 464 67 468 64 C473 62 482 56 496 48 L502 45 L502 45 Z " />
<glyph glyph-name="Umacron" unicode="&#x16a;" horiz-adv-x="617" d="M158 671 L158 721 L464 721 L464 671 L158 671 L158 671 Z M597 567 L597 552 L590 552 C575 552 565 550 559 543 C553 537 550 522 549 499 L549 477 L549 159 C549 129 547 104 541 83 C536 63 526 47 509 33 C493 20 469 10 438 4 C408 -2 367 -5 316 -5 C264 -5 221 -2 189 5 C157 13 134 23 116 38 C99 54 88 73 82 97 C76 121 73 151 73 185 L73 487 C73 515 72 532 67 540 C63 548 52 552 36 552 L30 552 L30 567 L73 567 L123 567 L173 567 L216 567 L216 552 L210 552 C195 552 185 549 180 541 C176 533 173 515 173 487 L173 166 C173 142 174 121 178 103 C182 86 189 72 200 61 C212 51 228 44 248 38 C269 33 296 30 330 30 C372 30 405 32 429 37 C454 43 472 50 485 61 C499 73 507 86 511 104 C516 122 518 144 518 169 L519 493 C519 519 516 534 510 541 C504 549 493 552 475 552 L467 552 L467 567 L519 567 L534 567 L549 567 L597 567 L597 567 Z " />
<glyph glyph-name="umacron" unicode="&#x16b;" horiz-adv-x="537" d="M105 541 L105 591 L411 591 L411 541 L105 541 L105 541 Z M502 45 L502 36 L387 0 L369 0 L369 23 L369 68 C339 55 314 44 292 34 C271 25 254 18 240 12 C225 5 212 -1 202 -5 C174 -5 150 -3 131 3 C113 9 98 18 87 31 C77 45 70 61 65 81 C61 102 58 127 58 155 L58 356 C58 384 57 401 52 409 C48 417 37 421 21 421 L14 421 C15 421 15 424 14 429 C15 434 15 436 14 436 L58 436 L103 436 L148 436 L147 164 C147 144 148 127 152 113 C156 99 163 88 172 79 C182 71 194 64 210 60 C227 56 248 54 272 54 C290 54 304 55 318 59 C332 63 349 70 369 78 L369 110 L369 356 C369 384 368 401 363 409 C359 417 348 421 332 421 L326 421 L326 436 L369 436 L414 436 L459 436 L459 134 L459 80 C461 72 464 67 468 64 C473 62 482 56 496 48 L502 45 L502 45 Z " />
<glyph glyph-name="Ubreve" unicode="&#x16c;" horiz-adv-x="617" d="M182 778 L197 783 C205 759 217 742 234 731 C252 721 277 715 311 715 C345 715 369 720 386 730 C404 741 416 759 424 783 L440 778 C426 734 409 702 389 683 C369 665 343 655 311 655 C279 655 253 665 233 683 C214 702 197 734 182 778 L182 778 Z M597 567 L597 552 L590 552 C575 552 565 550 559 543 C553 537 550 522 549 499 L549 477 L549 159 C549 129 547 104 541 83 C536 63 526 47 509 33 C493 20 469 10 438 4 C408 -2 367 -5 316 -5 C264 -5 221 -2 189 5 C157 13 134 23 116 38 C99 54 88 73 82 97 C76 121 73 151 73 185 L73 487 C73 515 72 532 67 540 C63 548 52 552 36 552 L30 552 L30 567 L73 567 L123 567 L173 567 L216 567 L216 552 L210 552 C195 552 185 549 180 541 C176 533 173 515 173 487 L173 166 C173 142 174 121 178 103 C182 86 189 72 200 61 C212 51 228 44 248 38 C269 33 296 30 330 30 C372 30 405 32 429 37 C454 43 472 50 485 61 C499 73 507 86 511 104 C516 122 518 144 518 169 L519 493 C519 519 516 534 510 541 C504 549 493 552 475 552 L467 552 L467 567 L519 567 L534 567 L549 567 L597 567 L597 567 Z " />
<glyph glyph-name="ubreve" unicode="&#x16d;" horiz-adv-x="537" d="M129 647 L145 652 C153 628 165 611 182 600 C200 590 225 584 258 584 C292 584 317 589 334 599 C352 610 364 628 372 652 L387 647 C373 603 356 571 336 552 C317 534 291 524 258 524 C226 524 201 534 181 552 C161 571 144 603 129 647 L129 647 Z M502 45 L502 36 L387 0 L369 0 L369 23 L369 68 C339 55 314 44 292 34 C271 25 254 18 240 12 C225 5 212 -1 202 -5 C174 -5 150 -3 131 3 C113 9 98 18 87 31 C77 45 70 61 65 81 C61 102 58 127 58 155 L58 356 C58 384 57 401 52 409 C48 417 37 421 21 421 L14 421 C15 421 15 424 14 429 C15 434 15 436 14 436 L58 436 L103 436 L148 436 L147 164 C147 144 148 127 152 113 C156 99 163 88 172 79 C182 71 194 64 210 60 C227 56 248 54 272 54 C290 54 304 55 318 59 C332 63 349 70 369 78 L369 110 L369 356 C369 384 368 401 363 409 C359 417 348 421 332 421 L326 421 L326 436 L369 436 L414 436 L459 436 L459 134 L459 80 C461 72 464 67 468 64 C473 62 482 56 496 48 L502 45 L502 45 Z " />
<glyph glyph-name="Uring" unicode="&#x16e;" horiz-adv-x="617" d="M311 622 C358 622 381 646 381 694 C381 721 376 739 365 750 C355 762 337 767 311 767 C286 767 268 763 257 751 C247 740 241 721 241 694 C241 646 265 622 311 622 L311 622 Z M216 694 C216 728 223 752 237 766 C252 780 277 787 311 787 C346 787 370 780 384 766 C399 752 406 728 406 694 C406 633 375 602 311 602 C248 602 216 633 216 694 L216 694 Z M597 567 L597 552 L590 552 C575 552 565 550 559 543 C553 537 550 522 549 499 L549 477 L549 159 C549 129 547 104 541 83 C536 63 526 47 509 33 C493 20 469 10 438 4 C408 -2 367 -5 316 -5 C264 -5 221 -2 189 5 C157 13 134 23 116 38 C99 54 88 73 82 97 C76 121 73 151 73 185 L73 487 C73 515 72 532 67 540 C63 548 52 552 36 552 L30 552 L30 567 L73 567 L123 567 L173 567 L216 567 L216 552 L210 552 C195 552 185 549 180 541 C176 533 173 515 173 487 L173 166 C173 142 174 121 178 103 C182 86 189 72 200 61 C212 51 228 44 248 38 C269 33 296 30 330 30 C372 30 405 32 429 37 C454 43 472 50 485 61 C499 73 507 86 511 104 C516 122 518 144 518 169 L519 493 C519 519 516 534 510 541 C504 549 493 552 475 552 L467 552 L467 567 L519 567 L534 567 L549 567 L597 567 L597 567 Z " />
<glyph glyph-name="uring" unicode="&#x16f;" horiz-adv-x="537" d="M258 491 C306 491 329 516 329 564 C329 590 324 608 313 619 C303 631 284 636 258 636 C233 636 215 632 204 620 C194 609 188 590 188 564 C188 516 212 491 258 491 L258 491 Z M163 564 C163 598 170 621 184 635 C199 649 224 656 258 656 C294 656 318 650 332 636 C347 622 354 598 354 564 C354 502 322 471 258 471 C195 471 163 502 163 564 L163 564 Z M502 45 L502 36 L387 0 L369 0 L369 23 L369 68 C339 55 314 44 292 34 C271 25 254 18 240 12 C225 5 212 -1 202 -5 C174 -5 150 -3 131 3 C113 9 98 18 87 31 C77 45 70 61 65 81 C61 102 58 127 58 155 L58 356 C58 384 57 401 52 409 C48 417 37 421 21 421 L14 421 C15 421 15 424 14 429 C15 434 15 436 14 436 L58 436 L103 436 L148 436 L147 164 C147 144 148 127 152 113 C156 99 163 88 172 79 C182 71 194 64 210 60 C227 56 248 54 272 54 C290 54 304 55 318 59 C332 63 349 70 369 78 L369 110 L369 356 C369 384 368 401 363 409 C359 417 348 421 332 421 L326 421 L326 436 L369 436 L414 436 L459 436 L459 134 L459 80 C461 72 464 67 468 64 C473 62 482 56 496 48 L502 45 L502 45 Z " />
<glyph glyph-name="Wcircumflex" unicode="&#x174;" horiz-adv-x="940" d="M933 567 L933 552 L926 552 C918 552 913 552 907 550 C902 548 898 545 893 540 C889 536 885 530 881 521 C877 513 873 501 867 487 L867 487 L689 -15 L664 -15 L461 430 L513 577 L303 -15 L278 -15 L61 501 C51 523 44 536 37 542 C31 549 22 552 10 552 L5 552 L5 567 L33 567 L88 567 L143 567 L195 567 L195 552 L188 552 C172 552 163 549 161 541 C159 533 164 515 175 487 L175 487 L324 114 L488 577 L513 577 L712 123 L837 487 L837 487 C847 515 852 532 848 540 C845 548 833 552 813 552 L805 552 L805 567 L865 567 L880 567 L895 567 L933 567 L933 567 Z M501 725 L388 599 L379 607 L472 786 C475 791 478 796 482 802 C486 808 493 811 501 811 C510 811 516 808 520 802 C524 796 528 791 530 786 L623 607 L613 599 L501 725 L501 725 Z " />
<glyph glyph-name="Ycircumflex" unicode="&#x176;" horiz-adv-x="610" d="M399 15 L399 0 L356 0 L306 0 L256 0 L213 0 L213 15 L219 15 C235 15 245 19 249 27 C254 35 256 53 256 80 L256 239 L82 499 C66 521 55 536 47 542 C39 549 30 552 19 552 L14 552 C15 552 15 555 14 559 C15 565 15 567 14 567 L36 567 L96 567 L156 567 L208 567 L208 552 L201 552 C189 552 182 550 180 544 C178 539 183 528 193 510 L341 285 L499 502 C513 523 519 536 517 542 C515 549 507 552 491 552 L483 552 L483 567 L546 567 L561 567 L576 567 L603 567 L603 552 L597 552 C591 552 585 552 579 550 C574 548 569 545 563 540 C557 536 552 530 544 521 C537 513 528 501 517 487 L517 487 L356 269 L356 269 L356 80 C356 52 359 35 363 27 C368 19 378 15 393 15 L399 15 L399 15 Z M306 725 L194 599 L184 607 L278 786 C280 791 283 796 287 802 C292 808 298 811 306 811 C315 811 321 808 325 802 C329 796 333 791 335 786 L428 607 L419 599 L306 725 L306 725 Z " />
<glyph glyph-name="Ydieresis002" unicode="&#x178;" horiz-adv-x="610" d="M402 637 C382 637 369 641 360 649 C352 658 347 672 347 692 C347 712 351 726 359 734 C368 743 382 747 402 747 C422 747 436 744 444 735 C453 727 457 712 457 692 C457 672 454 659 445 650 C437 642 422 637 402 637 L402 637 Z M210 637 C190 637 177 641 168 649 C160 658 155 672 155 692 C155 712 159 726 167 734 C176 743 190 747 210 747 C230 747 244 744 252 735 C261 727 265 712 265 692 C265 672 262 659 253 650 C245 642 230 637 210 637 L210 637 Z M399 15 L399 0 L356 0 L306 0 L256 0 L213 0 L213 15 L219 15 C235 15 245 19 249 27 C254 35 256 53 256 80 L256 239 L82 499 C66 521 55 536 47 542 C39 549 30 552 19 552 L14 552 C15 552 15 555 14 559 C15 565 15 567 14 567 L36 567 L96 567 L156 567 L208 567 L208 552 L201 552 C189 552 182 550 180 544 C178 539 183 528 193 510 L341 285 L499 502 C513 523 519 536 517 542 C515 549 507 552 491 552 L483 552 L483 567 L546 567 L561 567 L576 567 L603 567 L603 552 L597 552 C591 552 585 552 579 550 C574 548 569 545 563 540 C557 536 552 530 544 521 C537 513 528 501 517 487 L517 487 L356 269 L356 269 L356 80 C356 52 359 35 363 27 C368 19 378 15 393 15 L399 15 L399 15 Z " />
<glyph glyph-name="Zacute" unicode="&#x179;" horiz-adv-x="588" d="M327 597 L317 605 L395 759 C405 779 413 791 417 799 C422 807 426 811 428 811 C433 811 437 810 443 807 C449 805 455 801 460 797 C466 793 469 790 473 785 C477 781 479 777 479 773 C479 770 477 765 471 757 C465 750 455 739 441 723 L327 597 L327 597 Z M517 112 C519 112 521 111 523 110 C528 110 532 109 535 108 C531 91 529 76 525 61 C522 47 518 31 514 13 C513 8 512 4 511 0 L507 0 L431 0 L152 0 L96 0 L40 0 L405 542 L221 542 C205 542 190 542 178 540 C166 539 155 537 145 532 C135 528 125 522 115 514 C105 506 94 496 81 483 L70 473 L58 473 C64 489 68 502 72 514 C76 526 81 540 86 554 C88 560 89 564 90 567 L120 567 L170 567 L422 567 L479 567 L536 567 L170 26 L372 26 C392 26 407 26 420 28 C434 30 444 34 454 39 C464 45 473 51 481 61 C489 71 498 84 508 99 L517 112 L517 112 Z " />
<glyph glyph-name="zacute" unicode="&#x17a;" horiz-adv-x="489" d="M191 466 L181 474 L259 628 C269 648 276 660 280 668 C285 676 289 680 291 680 C296 680 301 679 307 676 C313 674 318 670 323 666 C329 662 332 659 336 654 C340 650 342 646 342 642 C342 639 340 634 334 626 C328 619 319 608 305 592 L191 466 L191 466 Z M423 107 C425 107 427 106 429 106 C434 105 438 104 441 102 C438 86 436 70 432 56 C429 42 425 27 421 10 C421 8 422 7 421 5 C421 4 420 2 419 0 L414 0 L339 0 L151 0 L98 0 L45 0 L323 416 L197 415 L197 415 C180 415 166 416 154 414 C142 413 132 412 122 408 C112 405 104 400 94 394 C85 388 74 381 62 371 L52 363 L40 363 C44 375 47 384 50 394 C54 404 57 415 61 426 C62 429 63 432 64 436 L95 436 L144 436 L336 436 L388 436 L440 436 L164 20 L278 20 C298 20 313 21 326 23 C340 25 351 29 361 34 C371 40 380 46 388 56 C396 66 405 79 415 94 L423 107 L423 107 Z " />
<glyph glyph-name="Zdot" unicode="&#x17b;" horiz-adv-x="588" d="M328 637 C308 637 295 641 286 649 C278 658 273 672 273 692 C273 712 277 726 285 734 C294 743 308 747 328 747 C348 747 362 744 370 735 C379 727 383 712 383 692 C383 672 380 659 371 650 C363 642 348 637 328 637 L328 637 Z M517 112 C519 112 521 111 523 110 C528 110 532 109 535 108 C531 91 529 76 525 61 C522 47 518 31 514 13 C513 8 512 4 511 0 L507 0 L431 0 L152 0 L96 0 L40 0 L405 542 L221 542 C205 542 190 542 178 540 C166 539 155 537 145 532 C135 528 125 522 115 514 C105 506 94 496 81 483 L70 473 L58 473 C64 489 68 502 72 514 C76 526 81 540 86 554 C88 560 89 564 90 567 L120 567 L170 567 L422 567 L479 567 L536 567 L170 26 L372 26 C392 26 407 26 420 28 C434 30 444 34 454 39 C464 45 473 51 481 61 C489 71 498 84 508 99 L517 112 L517 112 Z " />
<glyph glyph-name="zdot" unicode="&#x17c;" horiz-adv-x="489" d="M267 506 C247 506 234 510 225 518 C217 527 212 541 212 561 C212 581 216 595 224 603 C233 612 247 616 267 616 C287 616 301 613 309 604 C318 596 322 581 322 561 C322 541 319 528 310 519 C302 511 287 506 267 506 L267 506 Z M423 107 C425 107 427 106 429 106 C434 105 438 104 441 102 C438 86 436 70 432 56 C429 42 425 27 421 10 C421 8 422 7 421 5 C421 4 420 2 419 0 L414 0 L339 0 L151 0 L98 0 L45 0 L323 416 L197 415 L197 415 C180 415 166 416 154 414 C142 413 132 412 122 408 C112 405 104 400 94 394 C85 388 74 381 62 371 L52 363 L40 363 C44 375 47 384 50 394 C54 404 57 415 61 426 C62 429 63 432 64 436 L95 436 L144 436 L336 436 L388 436 L440 436 L164 20 L278 20 C298 20 313 21 326 23 C340 25 351 29 361 34 C371 40 380 46 388 56 C396 66 405 79 415 94 L423 107 L423 107 Z " />
<glyph glyph-name="Zcaron" unicode="&#x17d;" horiz-adv-x="588" d="M517 112 C519 112 521 111 523 110 C528 110 532 109 535 108 C531 91 529 76 525 61 C522 47 518 31 514 13 C513 8 512 4 511 0 L507 0 L431 0 L152 0 L96 0 L40 0 L405 542 L221 542 C205 542 190 542 178 540 C166 539 155 537 145 532 C135 528 125 522 115 514 C105 506 94 496 81 483 L70 473 L58 473 C64 489 68 502 72 514 C76 526 81 540 86 554 C88 560 89 564 90 567 L120 567 L170 567 L422 567 L479 567 L536 567 L170 26 L372 26 C392 26 407 26 420 28 C434 30 444 34 454 39 C464 45 473 51 481 61 C489 71 498 84 508 99 L517 112 L517 112 Z M328 708 L215 835 L206 827 L299 647 C302 643 305 638 309 632 C313 626 320 623 328 622 C336 623 342 626 346 632 C351 638 355 644 357 648 L449 827 L440 835 L328 708 L328 708 Z " />
<glyph glyph-name="zcaron" unicode="&#x17e;" horiz-adv-x="489" d="M423 107 C425 107 427 106 429 106 C434 105 438 104 441 102 C438 86 436 70 432 56 C429 42 425 27 421 10 C421 8 422 7 421 5 C421 4 420 2 419 0 L414 0 L339 0 L151 0 L98 0 L45 0 L323 416 L197 415 L197 415 C180 415 166 416 154 414 C142 413 132 412 122 408 C112 405 104 400 94 394 C85 388 74 381 62 371 L52 363 L40 363 C44 375 47 384 50 394 C54 404 57 415 61 426 C62 429 63 432 64 436 L95 436 L144 436 L336 436 L388 436 L440 436 L164 20 L278 20 C298 20 313 21 326 23 C340 25 351 29 361 34 C371 40 380 46 388 56 C396 66 405 79 415 94 L423 107 L423 107 Z M267 578 L154 704 L145 697 L238 517 C241 512 244 507 248 501 C252 496 259 493 267 492 C276 492 282 494 286 500 C290 507 294 513 296 517 L389 697 L380 704 L267 578 L267 578 Z " />
<glyph glyph-name="oogonek" unicode="&#x1eb;" horiz-adv-x="748" d="M787 54 C762 24 737 4 710 -9 C684 -21 651 -28 613 -28 C599 -28 585 -27 570 -27 C556 -26 540 -25 523 -23 C507 -21 488 -19 468 -16 C448 -12 426 -9 400 -5 L375 -5 C311 -5 258 1 216 11 C174 22 142 38 117 59 C93 81 76 107 66 138 C57 170 52 206 52 246 C52 288 57 323 66 354 C76 386 92 412 116 433 C141 455 173 471 215 481 C257 492 311 497 375 497 C440 497 492 492 534 481 C576 471 609 455 633 433 C658 412 675 387 684 355 C694 324 698 288 698 246 C698 194 692 151 676 115 C661 79 632 51 590 31 L623 31 C671 31 706 33 729 37 C753 42 769 50 778 61 L787 54 L787 54 Z M313 22 C317 25 330 26 356 27 C382 29 423 30 478 30 C526 44 558 69 574 105 C591 142 599 189 599 246 C599 284 596 316 589 344 C583 373 571 397 554 416 C538 436 516 450 486 460 C457 470 420 475 375 475 C331 475 295 470 265 460 C236 450 213 436 196 416 C180 397 168 374 161 345 C155 317 151 284 151 246 C151 214 153 185 158 159 C164 133 172 112 184 92 C196 73 212 58 233 46 C255 34 281 26 313 22 L313 22 Z " />
<glyph glyph-name="Adotabove" unicode="&#x226;" horiz-adv-x="635" d="M298 637 C278 637 265 641 256 649 C248 658 243 672 243 692 C243 712 247 726 255 734 C264 743 278 747 298 747 C318 747 332 744 340 735 C349 727 353 712 353 692 C353 672 350 659 341 650 C333 642 318 637 298 637 L298 637 Z M627 15 L627 0 L592 0 L538 0 L483 0 L427 0 L427 15 L434 15 C450 15 459 18 462 23 C466 29 464 40 456 57 L389 200 L156 200 L104 71 C96 48 92 34 96 26 C100 19 111 15 129 15 L138 15 L138 0 L75 0 L58 0 L42 0 L5 0 L5 15 L11 15 C19 15 25 15 31 17 C37 19 42 23 46 27 C51 32 55 38 59 46 C64 55 69 66 75 80 L76 80 L286 580 L311 580 L560 66 C572 45 580 32 588 25 C596 19 607 15 620 15 L627 15 L627 15 Z M378 224 L265 466 L167 225 L378 224 L378 224 Z " />
</font>
</svg>
