<?xml version="1.0" encoding="UTF-8"?>
<svg xmlns="http://www.w3.org/2000/svg" xmlns:xlink="http://www.w3.org/1999/xlink" version="1.2" >
<font id="Aaron Thin">
<font-face  font-family="Aaron" units-per-em="1024" ascent="853" descent="-100" font-style="normal" font-weight="100" font-stretch="normal" cap-height="567" x-height="436" underline-position="0" underline-thickness="0" />
<missing-glyph  horiz-adv-x="472" d="M0 700 L432 700 L432 0 L0 0 L0 700 L0 700 Z M50 50 L382 50 L382 650 L50 650 L50 50 L50 50 Z " />
<glyph glyph-name="NULL" d="" />
<glyph glyph-name="CR" unicode="&#xd;" horiz-adv-x="256" d="" />
<glyph glyph-name="space" unicode="&#x20;" horiz-adv-x="251" d="" />
<glyph glyph-name="exclam" unicode="&#x21;" horiz-adv-x="153" d="M74 -5 C61 -5 54 2 54 15 C54 29 61 35 74 35 C88 35 94 29 94 15 C94 2 88 -5 74 -5 L74 -5 Z M93 527 L76 110 L73 110 L53 527 C53 544 53 556 56 562 C60 569 65 572 73 572 C81 572 86 569 89 562 C93 556 94 544 93 527 L93 527 Z " />
<glyph glyph-name="quotedbl" unicode="&#x22;" horiz-adv-x="212" d="M121 567 L172 567 L150 396 L143 396 L121 567 L121 567 Z M40 567 L91 567 L69 396 L62 396 L40 567 L40 567 Z " />
<glyph glyph-name="numbersign" unicode="&#x23;" horiz-adv-x="524" d="M387 628 L394 628 L363 404 L504 404 L502 388 L361 388 L336 208 L470 208 L468 192 L334 192 L308 0 L300 0 L327 192 L169 192 L143 0 L135 0 L161 192 L21 192 L23 208 L163 208 L188 388 L50 388 L52 404 L190 404 L221 628 L229 628 L198 404 L356 404 L387 628 L387 628 Z M196 388 L171 208 L329 208 L354 388 L196 388 L196 388 Z " />
<glyph glyph-name="dollar" unicode="&#x24;" horiz-adv-x="506" d="M266 642 L280 642 L280 572 C328 572 363 572 386 571 C410 571 425 570 431 568 L436 489 L429 489 C428 489 426 488 423 488 C420 493 417 497 414 500 C412 504 409 508 405 513 C392 531 379 544 365 552 C352 560 336 565 317 566 L280 566 L280 289 C346 275 392 257 420 233 C448 210 462 178 462 137 C462 86 450 50 422 28 C395 6 349 -5 285 -5 L280 -5 L280 -75 L266 -75 L266 -5 L200 -5 L200 -75 L186 -75 L186 -5 C142 -4 108 -4 86 -4 C64 -3 51 -2 45 -1 L45 2 L45 2 L40 78 L46 78 C48 79 50 79 53 79 C56 76 58 74 60 70 C62 67 65 64 67 60 C81 42 96 30 114 20 C133 11 157 5 186 2 L186 290 C140 304 107 321 87 341 C67 362 57 389 57 421 C57 469 67 504 87 527 C107 551 140 565 186 570 L186 642 L200 642 L200 571 C206 572 210 572 216 572 C222 572 228 572 234 572 L266 572 L266 642 L266 642 Z M200 1 L209 1 L266 1 L266 271 C263 272 260 273 257 273 C255 274 252 275 248 275 C240 277 231 278 223 280 C215 282 208 284 200 286 L200 1 L200 1 Z M200 308 L200 308 C210 305 219 303 230 300 C242 298 254 295 266 292 L266 566 L233 566 C227 566 222 566 216 566 C211 566 206 566 200 565 L200 308 L200 308 Z M186 312 L186 563 C146 559 117 547 99 525 C82 504 73 472 73 430 C73 402 82 379 99 360 C117 342 146 326 186 312 L186 312 Z M280 268 L280 1 L285 1 C344 1 385 11 409 30 C434 50 446 82 446 128 C446 164 434 192 408 214 C383 236 340 254 280 268 L280 268 Z " />
<glyph glyph-name="ampersand" unicode="&#x26;" horiz-adv-x="676" d="M612 338 L612 323 L603 323 C593 323 585 324 578 324 C572 325 567 324 563 319 C560 315 558 307 556 293 C555 280 554 260 554 232 L554 206 C554 167 550 134 538 107 C527 81 509 59 485 41 C509 19 528 4 544 -4 C560 -12 574 -16 587 -16 C601 -16 613 -13 627 -9 C641 -4 658 0 677 3 L677 0 C655 -4 637 -7 621 -13 C606 -18 591 -20 576 -21 C562 -21 547 -19 530 -11 C514 -3 494 12 470 32 C447 19 418 10 384 4 C350 -2 310 -5 262 -5 C224 -5 191 -2 164 3 C138 9 117 16 99 28 C82 40 70 56 62 74 C54 93 50 116 50 142 C50 188 62 224 88 252 C114 280 158 304 218 323 C208 337 200 350 194 360 C188 371 185 380 181 388 C178 397 177 404 175 412 C174 420 173 429 173 437 C173 487 183 521 204 541 C226 562 261 572 311 572 C362 572 397 566 418 551 C440 537 450 512 450 476 C450 438 435 407 403 385 C372 363 319 346 243 332 L241 334 C311 347 361 364 390 385 C420 407 434 437 434 475 C434 509 425 533 406 547 C388 561 356 568 310 568 C266 568 236 559 217 540 C199 522 189 490 189 446 C189 434 190 422 192 410 C195 399 201 385 211 368 C221 352 236 331 255 305 C275 280 301 247 335 206 C367 168 394 137 418 111 C442 85 463 64 480 46 C505 62 522 83 533 109 C545 136 550 168 550 206 L550 232 C550 260 551 279 549 292 C548 306 547 314 543 318 C540 323 536 325 530 324 C524 324 517 323 507 323 L498 323 L498 338 L612 338 L612 338 Z M465 37 L465 37 C447 54 427 75 403 100 C380 126 353 157 321 194 C298 222 279 246 262 266 C246 287 232 305 220 320 C166 303 128 281 104 255 C81 229 69 194 69 149 C69 97 84 59 115 37 C147 15 199 4 273 4 C316 4 352 7 384 12 C416 18 443 26 465 37 L465 37 Z " />
<glyph glyph-name="quoteright" unicode="&#x27;" horiz-adv-x="130" d="M40 567 L91 567 L69 396 L62 396 L40 567 L40 567 Z " />
<glyph glyph-name="parenleft" unicode="&#x28;" horiz-adv-x="166" d="M154 597 L157 595 C143 578 130 562 119 546 C109 530 101 511 94 489 C88 467 84 441 80 408 C77 376 75 334 75 282 C75 232 76 190 79 157 C83 125 87 97 93 75 C100 53 109 35 119 19 C130 4 143 -12 157 -30 L154 -33 C138 -12 123 7 111 24 C99 42 90 62 82 84 C74 107 69 133 65 164 C62 196 60 235 60 282 C60 330 62 369 65 400 C69 432 73 458 81 480 C89 503 99 522 111 540 C123 558 138 577 154 597 L154 597 Z " />
<glyph glyph-name="parenright" unicode="&#x29;" horiz-adv-x="166" d="M10 -33 L7 -30 C23 -12 35 3 45 19 C56 35 64 54 70 76 C77 98 81 125 84 157 C88 190 89 232 89 282 C89 334 89 375 85 407 C82 440 78 467 71 489 C65 511 57 529 46 545 C36 561 23 578 7 595 L10 597 C28 577 41 558 53 540 C65 523 74 504 82 481 C90 459 96 433 99 401 C103 370 104 330 104 282 C104 234 103 196 99 164 C96 133 91 107 83 84 C75 62 66 42 54 24 C42 7 28 -12 10 -33 L10 -33 Z " />
<glyph glyph-name="asterisk" unicode="&#x2a;" horiz-adv-x="245" d="M149 448 L144 567 C144 573 146 575 150 575 C154 575 156 573 156 567 L151 448 L251 512 C257 516 259 516 261 512 C263 508 262 505 257 502 L151 447 L151 446 L257 392 C262 390 263 387 261 383 C259 380 256 380 251 382 L151 445 L156 327 C156 322 154 319 150 319 C146 319 144 322 144 327 L149 445 L49 382 C44 379 41 378 39 382 C37 386 39 390 43 392 L149 446 L149 447 L43 502 C39 505 37 508 39 511 C41 515 45 515 49 512 L149 448 L149 448 Z " />
<glyph glyph-name="plus" unicode="&#x2b;" horiz-adv-x="503" d="M245 395 L254 395 L254 225 L424 225 L424 216 L254 216 L254 46 L245 46 L245 216 L75 216 L75 225 L245 225 L245 395 L245 395 Z " />
<glyph glyph-name="comma" unicode="&#x2c;" horiz-adv-x="150" d="M177 108 C145 148 124 157 112 133 C125 133 142 121 162 95 L177 108 L177 108 Z M79 -5 C67 -5 60 2 60 14 C60 27 67 33 79 33 L85 33 C86 99 95 133 112 133 C105 115 101 83 101 35 C101 4 100 -19 94 -35 C89 -51 80 -62 67 -68 L65 -64 C71 -60 75 -55 78 -46 C82 -36 84 -23 84 -5 L79 -5 L79 -5 Z " />
<glyph glyph-name="hyphen" unicode="&#x2d;" horiz-adv-x="287" d="M20 197 L20 213 L268 213 L268 197 L20 197 L20 197 Z " />
<glyph glyph-name="period" unicode="&#x2e;" horiz-adv-x="205" d="M125 -5 C112 -5 105 2 105 15 C105 29 112 35 125 35 C139 35 145 29 145 15 C145 2 139 -5 125 -5 L125 -5 Z " />
<glyph glyph-name="slash" unicode="&#x2f;" horiz-adv-x="318" d="M0 -32 L310 617 L319 617 L9 -32 L0 -32 L0 -32 Z " />
<glyph glyph-name="zero" unicode="0" horiz-adv-x="532" d="M266 -1 C302 -1 332 3 356 11 C381 19 401 32 416 49 C432 67 442 88 449 116 C457 144 460 178 460 218 C460 258 458 291 450 319 C443 347 432 370 416 387 C401 405 381 417 356 425 C332 433 302 437 266 437 C231 437 201 433 176 425 C152 417 132 405 116 387 C101 370 91 348 83 320 C76 292 72 258 72 218 C72 178 75 145 82 117 C90 89 101 67 116 49 C132 32 152 19 176 11 C201 3 231 -1 266 -1 L266 -1 Z M50 218 C50 259 53 293 61 321 C69 350 82 372 99 390 C117 408 139 421 166 429 C194 437 227 441 266 441 C306 441 339 437 366 429 C394 421 416 409 433 391 C451 373 463 351 471 322 C479 294 483 259 483 218 C483 178 479 144 471 115 C463 87 451 64 433 46 C416 28 394 15 366 7 C339 -1 306 -5 266 -5 C227 -5 194 -1 166 7 C139 15 117 27 99 45 C82 63 70 86 62 114 C54 143 50 178 50 218 L50 218 Z " />
<glyph glyph-name="one" unicode="1" horiz-adv-x="216" d="M161 436 L161 421 L155 421 C140 421 130 418 125 410 C121 402 118 384 118 356 L118 80 C118 52 121 35 125 27 C130 19 140 15 155 15 L161 15 L161 0 L118 0 L108 0 L98 0 L55 0 L55 15 L61 15 C77 15 87 19 91 27 C96 35 98 53 98 80 L98 356 C98 384 97 401 92 409 C88 417 77 421 61 421 L55 421 L55 436 L98 436 L108 436 L118 436 L161 436 L161 436 Z " />
<glyph glyph-name="two" unicode="2" horiz-adv-x="485" d="M452 10 L451 0 L25 0 L25 4 C29 6 32 8 36 10 C40 12 44 14 47 15 L54 20 L56 20 C118 52 171 76 214 94 C258 113 292 130 320 147 C348 165 368 184 380 206 C393 228 399 258 399 296 C399 344 388 376 366 396 C344 416 307 426 255 426 C210 426 174 417 146 396 C118 376 95 341 75 292 L72 294 C94 348 119 385 148 407 C178 430 216 441 264 441 C322 441 362 432 386 410 C410 389 422 353 422 303 C422 265 417 235 403 213 C390 191 370 171 341 153 C313 135 276 117 230 97 C185 78 130 52 65 20 L373 20 C389 20 401 20 409 21 C418 23 424 24 428 27 C433 31 436 34 438 40 C440 46 442 54 443 63 L458 63 C457 54 456 45 455 37 C455 29 454 20 452 10 L452 10 Z " />
<glyph glyph-name="three" unicode="3" horiz-adv-x="455" d="M26 -47 L26 -43 C92 -39 147 -35 192 -27 C238 -19 274 -8 302 5 C331 19 351 34 364 54 C378 74 384 98 384 125 C384 163 371 190 342 206 C314 222 266 230 198 230 C184 230 172 231 161 229 C151 228 141 226 131 224 C128 223 126 222 122 221 C119 221 116 220 112 218 L112 222 C126 228 139 232 152 235 C218 257 264 276 291 293 C319 311 332 329 332 347 C332 377 324 397 304 409 C285 421 252 427 206 427 C166 427 132 419 102 401 C73 383 44 353 14 310 L11 312 C44 359 76 391 107 411 C139 431 175 441 216 441 C266 441 302 436 322 422 C343 409 353 386 353 354 C353 335 340 317 313 299 C287 281 242 262 179 240 C183 241 186 241 190 241 C194 241 198 241 202 241 C276 241 328 233 359 215 C391 197 406 168 406 126 C406 98 400 74 386 54 C372 34 351 18 320 4 C290 -10 250 -21 202 -29 C154 -37 96 -43 26 -47 L26 -47 Z " />
<glyph glyph-name="four" unicode="4" horiz-adv-x="499" d="M32 9 L373 441 L376 441 L376 435 L376 9 L489 9 L489 0 L376 0 L376 -33 L356 -33 L356 0 L32 0 L31 0 L27 0 L27 3 L31 8 L31 9 L32 9 L32 9 Z M39 9 L356 9 L356 410 L39 9 L39 9 Z " />
<glyph glyph-name="five" unicode="5" horiz-adv-x="439" d="M387 436 L378 415 L94 415 L75 207 L77 227 L156 227 C241 227 301 218 336 200 C372 182 389 152 389 109 C389 85 384 64 370 46 C357 28 337 13 308 1 C280 -11 243 -20 197 -27 C152 -33 97 -38 31 -40 L31 -36 C93 -34 145 -30 187 -24 C230 -17 264 -9 291 2 C319 14 338 27 350 43 C363 60 369 80 369 102 C369 140 353 167 319 183 C285 199 228 207 146 207 L75 207 L70 207 L90 436 L96 436 L307 436 C322 436 333 436 342 437 C352 439 359 441 365 444 C371 448 375 451 379 457 C383 463 387 471 389 479 L404 479 C401 471 399 464 396 457 C394 451 391 444 387 436 L387 436 L387 436 Z " />
<glyph glyph-name="six" unicode="6" horiz-adv-x="577" d="M522 652 L522 648 C446 646 383 638 329 622 C276 607 233 584 199 554 C165 524 142 486 126 439 C111 393 103 336 103 270 C103 266 104 262 103 258 C103 254 102 250 102 245 C102 201 106 165 113 133 C121 102 132 77 148 57 C164 37 185 23 210 14 C236 6 266 1 302 1 C341 1 374 5 400 11 C427 18 448 28 464 43 C481 59 493 78 499 101 C506 125 508 153 506 187 C506 252 493 297 465 324 C437 352 390 365 324 365 C274 365 235 363 203 355 C172 348 151 337 137 321 C124 306 120 287 124 262 C129 238 142 208 162 172 L157 172 C136 208 124 238 119 263 C115 289 119 309 132 325 C146 341 168 352 200 359 C233 367 275 370 327 370 C363 370 394 367 419 360 C445 354 465 344 481 329 C497 315 509 297 516 273 C524 250 527 222 527 188 C529 154 527 124 519 99 C512 75 499 55 481 39 C463 24 440 14 410 6 C380 -1 344 -5 300 -5 C260 -5 227 -1 199 9 C171 19 149 34 131 56 C113 78 100 106 92 140 C84 174 80 216 80 264 C80 332 88 388 104 436 C120 484 146 523 181 554 C217 586 262 608 318 624 C374 640 442 650 522 652 L522 652 Z " />
<glyph glyph-name="seven" unicode="7" horiz-adv-x="442" d="M29 426 L30 436 L431 436 L418 416 L108 416 C93 416 81 417 72 415 C64 414 57 413 52 409 C48 406 45 402 43 396 C41 390 40 383 38 373 L23 373 C25 383 26 391 26 399 C27 407 28 416 29 426 L29 426 Z M431 436 L433 434 C388 357 344 281 299 203 C255 126 210 48 164 -30 L142 -30 C190 48 238 126 286 203 C334 281 383 358 431 436 L431 436 Z " />
<glyph glyph-name="eight" unicode="8" horiz-adv-x="545" d="M185 279 L186 278 C151 278 127 269 112 248 C98 228 90 193 90 144 C90 92 104 54 134 32 C164 10 215 -1 285 -1 C355 -1 404 9 433 31 C463 53 477 90 477 141 C477 185 463 218 432 238 C402 259 350 272 276 277 C212 283 166 296 138 319 C111 343 97 379 97 428 C97 480 111 517 139 539 C167 561 215 572 281 572 C348 572 395 563 423 543 C451 524 465 491 465 443 C465 395 456 362 436 340 C416 319 382 307 334 305 L334 306 C376 308 406 319 423 339 C441 359 449 393 449 440 C449 487 437 520 411 539 C385 559 342 568 280 568 C220 568 178 558 152 538 C127 518 114 484 114 435 C114 391 126 359 151 337 C177 316 219 303 277 298 C317 296 350 292 378 284 C406 277 429 267 446 255 C464 243 476 229 484 211 C492 193 496 172 496 148 C496 120 493 97 485 77 C477 58 466 42 448 30 C431 18 409 10 382 4 C356 -2 323 -5 284 -5 C246 -5 214 -2 186 3 C159 9 138 16 120 28 C103 40 91 55 83 73 C75 92 71 115 71 141 C71 191 79 226 96 247 C114 269 143 279 185 279 L185 279 Z " />
<glyph glyph-name="nine" unicode="9" horiz-adv-x="577" d="M55 -215 L55 -212 C131 -209 195 -201 248 -186 C302 -170 344 -148 378 -118 C412 -88 436 -49 451 -3 C467 44 474 100 474 166 C474 171 474 174 474 178 C475 182 475 187 475 191 C475 235 472 272 464 303 C457 335 445 359 429 379 C413 399 393 413 367 422 C342 432 311 436 275 436 C237 436 204 434 177 426 C151 419 130 409 113 393 C97 378 85 359 78 335 C72 312 69 283 71 249 C71 185 85 140 113 112 C141 85 188 71 254 71 C354 71 417 86 441 115 C466 145 458 194 416 264 L420 264 C463 193 471 143 445 112 C419 82 354 66 250 66 C214 66 184 70 158 76 C133 83 112 93 96 107 C80 122 69 141 61 164 C54 188 50 216 50 248 C48 284 51 313 58 337 C66 362 78 382 96 397 C114 413 138 423 168 430 C198 438 235 441 277 441 C317 441 351 437 379 427 C407 417 430 402 447 380 C465 358 477 330 485 296 C493 262 497 221 497 172 C497 105 489 48 473 0 C457 -48 433 -86 397 -118 C362 -149 317 -172 260 -188 C204 -203 135 -212 55 -215 L55 -215 Z " />
<glyph glyph-name="colon" unicode="&#x3a;" horiz-adv-x="205" d="M125 310 C112 310 105 317 105 330 C105 344 112 350 125 350 C139 350 145 344 145 330 C145 317 139 310 125 310 L125 310 Z M125 -5 C112 -5 105 2 105 15 C105 29 112 35 125 35 C139 35 145 29 145 15 C145 2 139 -5 125 -5 L125 -5 Z " />
<glyph glyph-name="semicolon" unicode="&#x3b;" horiz-adv-x="150" d="M79 303 C66 303 59 310 59 323 C59 337 66 343 79 343 C93 343 99 337 99 323 C99 310 93 303 79 303 L79 303 Z M177 108 C145 148 124 157 112 133 C125 133 142 121 162 95 L177 108 L177 108 Z M79 -5 C67 -5 60 2 60 14 C60 27 67 33 79 33 L85 33 C86 99 95 133 112 133 C105 115 101 83 101 35 C101 4 100 -19 94 -35 C89 -51 80 -62 67 -68 L65 -64 C71 -60 75 -55 78 -46 C82 -36 84 -23 84 -5 L79 -5 L79 -5 Z " />
<glyph glyph-name="less" unicode="&#x3c;" horiz-adv-x="538" d="M463 436 L463 426 L49 243 L463 60 L463 50 L42 237 L40 238 L40 248 L42 249 L463 436 L463 436 Z " />
<glyph glyph-name="equal" unicode="&#x3d;" horiz-adv-x="529" d="M73 173 L459 173 L459 164 L73 164 L73 173 L73 173 Z M73 273 L459 273 L459 264 L73 264 L73 273 L73 273 Z " />
<glyph glyph-name="greater" unicode="&#x3e;" horiz-adv-x="536" d="M479 243 L75 426 L75 436 L486 249 L496 244 L496 242 L486 237 L75 50 L75 60 L479 243 L479 243 Z " />
<glyph glyph-name="question" unicode="&#x3f;" horiz-adv-x="371" d="M144 -5 C131 -5 124 2 124 15 C124 29 131 35 144 35 C158 35 164 29 164 15 C164 2 158 -5 144 -5 L144 -5 Z M150 297 L145 93 L142 93 L138 309 C138 311 140 312 142 312 L177 312 C217 312 246 315 267 320 C289 326 303 332 313 340 C323 348 329 357 330 367 C332 377 332 387 332 395 C332 454 318 495 288 519 C258 544 208 556 137 556 C127 556 119 554 113 548 C107 542 103 537 98 529 C94 522 89 515 83 509 C77 503 69 500 57 500 C49 500 45 501 45 502 C45 528 51 546 64 556 C78 567 100 572 131 572 C169 572 200 570 226 563 C252 557 273 547 289 532 C306 518 318 500 325 476 C333 453 336 425 336 392 C336 382 336 372 334 360 C333 349 328 339 318 329 C309 320 294 312 273 306 C253 300 223 297 184 297 L150 297 L150 297 Z " />
<glyph glyph-name="at" unicode="&#x40;" horiz-adv-x="1130" d="M1055 0 L1062 0 C1042 -44 1018 -81 989 -113 C961 -144 927 -169 887 -189 C847 -209 802 -222 749 -232 C697 -241 636 -246 566 -246 C474 -246 395 -238 330 -221 C266 -203 213 -177 172 -139 C132 -101 102 -52 83 8 C65 68 55 141 55 227 C55 313 64 386 82 446 C101 506 131 554 171 592 C212 630 265 657 329 674 C394 692 473 700 565 700 C658 700 736 694 801 679 C867 665 920 641 960 609 C1001 577 1030 537 1048 485 C1067 434 1076 372 1076 299 C1076 245 1072 198 1064 159 C1056 121 1044 90 1026 65 C1008 41 986 24 957 12 C929 1 894 -5 854 -5 C772 -5 715 6 681 29 C648 53 635 91 641 145 C623 99 602 67 576 47 C551 27 518 17 478 17 C416 17 372 29 346 53 C320 78 307 119 307 176 C307 222 311 260 321 292 C331 324 346 350 367 370 C389 390 416 404 449 413 C483 423 523 427 571 427 C611 427 640 420 658 404 C677 388 687 362 689 324 L716 419 L735 419 L672 200 C662 164 658 135 659 109 C661 84 668 63 683 47 C699 31 720 21 748 13 C777 6 813 2 857 2 C894 2 924 8 950 18 C976 29 997 45 1013 69 C1030 93 1042 123 1049 161 C1057 199 1060 245 1060 299 C1060 371 1051 432 1033 482 C1015 532 987 572 947 604 C908 636 857 659 794 673 C732 688 655 695 565 695 C476 695 400 688 337 670 C275 653 224 626 184 588 C145 551 116 503 98 443 C80 384 71 312 71 227 C71 143 80 71 98 11 C116 -48 145 -96 184 -134 C224 -171 275 -197 337 -215 C400 -232 476 -241 566 -241 C634 -241 694 -236 746 -228 C798 -219 843 -205 882 -186 C922 -166 955 -142 983 -112 C1011 -81 1035 -44 1055 0 L1055 0 Z M685 311 C685 351 677 379 659 396 C642 414 612 422 570 422 C526 422 490 418 459 409 C429 401 404 387 384 367 C365 348 351 323 342 292 C334 262 329 224 329 180 C329 126 341 87 365 63 C390 40 431 28 488 28 C530 28 563 41 588 67 C614 93 635 138 653 200 L685 311 L685 311 Z " />
<glyph glyph-name="A" unicode="A" horiz-adv-x="553" d="M544 15 L544 0 L509 0 L497 0 L485 0 L428 0 L428 15 L436 15 C453 15 463 18 466 24 C470 30 468 43 460 63 L404 205 L133 205 L91 95 L92 95 C79 61 73 40 75 30 C78 20 90 15 110 15 L118 15 L118 0 L55 0 L52 0 L48 0 L11 0 L11 15 L17 15 C32 15 42 18 49 24 C57 30 65 44 73 65 L272 580 L277 580 L477 80 C483 66 487 56 491 47 C496 39 500 32 504 27 C509 23 514 20 519 18 C525 16 531 15 538 15 L544 15 L544 15 Z M402 210 L267 554 L135 210 L402 210 L402 210 Z " />
<glyph glyph-name="B" unicode="B" horiz-adv-x="542" d="M59 552 L59 567 L103 567 L114 567 L125 567 L289 567 C355 567 401 558 429 538 C457 519 471 487 471 441 C471 399 461 368 439 346 C417 324 381 310 330 304 C400 298 448 284 478 260 C508 237 523 202 523 154 C523 126 520 103 512 83 C504 63 493 47 476 35 C460 23 439 15 412 9 C386 3 353 0 315 0 L125 0 L114 0 L103 0 L59 0 L59 15 L66 15 C82 15 92 19 96 27 C101 35 103 53 103 80 L103 487 C103 515 102 532 97 540 C93 548 82 552 66 552 L59 552 L59 552 Z M310 305 L310 305 C360 311 396 323 417 344 C439 366 449 398 449 441 C449 485 437 516 413 534 C389 552 348 561 289 561 L125 561 L125 306 L245 307 C257 307 267 308 278 307 C290 307 300 306 310 305 L310 305 Z M292 301 L292 301 C286 301 280 300 274 300 C268 300 262 300 256 300 L125 300 L125 6 L313 6 C381 6 428 18 456 40 C485 63 499 101 499 154 C499 202 484 237 452 260 C420 284 367 297 292 301 L292 301 Z " />
<glyph glyph-name="C" unicode="C" horiz-adv-x="732" d="M677 485 L664 485 C662 489 659 491 657 494 C655 498 653 501 650 504 C636 524 619 538 599 548 C579 558 553 564 521 565 C506 566 489 566 470 566 C452 566 432 566 410 566 C354 566 305 562 265 551 C225 541 193 525 167 502 C142 480 124 450 112 414 C101 378 95 335 95 283 C95 233 101 189 112 153 C124 117 142 89 167 66 C193 44 225 28 265 17 C305 7 354 1 410 1 L468 1 C518 3 556 8 584 17 C612 27 634 42 650 63 C653 67 655 69 657 72 C659 76 662 79 664 82 L677 82 L672 7 L672 7 L672 4 C664 2 652 2 638 0 C624 -1 608 -2 586 -3 C565 -3 540 -3 511 -4 C483 -4 449 -5 410 -5 C349 -5 298 0 254 10 C211 21 177 37 149 60 C122 84 103 114 90 150 C78 187 71 231 71 283 C71 336 77 381 89 417 C102 454 121 483 148 506 C176 530 210 546 253 556 C297 567 349 572 410 572 C449 572 483 573 511 572 C540 572 564 571 585 570 C607 570 624 570 638 568 C652 567 664 565 672 563 L672 560 L672 560 L677 485 L677 485 Z " />
<glyph glyph-name="D" unicode="D" horiz-adv-x="640" d="M59 552 L59 567 L103 567 L114 567 L125 567 L260 567 C320 567 371 563 413 552 C455 542 489 525 515 502 C542 480 561 450 573 414 C585 378 591 335 591 283 C591 232 587 188 576 152 C566 116 550 88 526 65 C503 43 473 27 437 16 C401 6 357 0 305 0 L125 0 L114 0 L103 0 L59 0 L59 15 L66 15 C82 15 92 19 96 27 C101 35 103 53 103 80 L103 487 C103 515 102 532 97 540 C93 548 82 552 66 552 L59 552 L59 552 Z M125 6 L305 6 C353 6 394 11 427 21 C461 31 487 47 508 69 C530 91 544 120 554 155 C564 191 569 233 569 283 C569 334 564 377 552 412 C541 448 524 476 499 498 C475 520 443 536 403 546 C364 556 316 561 260 561 L125 561 L125 6 L125 6 Z " />
<glyph glyph-name="E" unicode="E" horiz-adv-x="487" d="M340 251 L328 251 L324 258 C320 268 316 275 311 280 C307 286 301 289 293 292 C286 296 277 297 265 298 C253 300 238 300 220 300 L105 300 L105 6 L252 6 L272 6 C290 6 304 7 316 9 C328 11 338 14 348 19 C358 25 368 31 376 39 C385 48 394 59 404 71 L413 83 L424 83 C421 69 418 55 415 43 C413 31 410 18 406 3 L406 0 L405 0 L326 0 L105 0 L94 0 L83 0 L40 0 L40 15 L46 15 C62 15 72 19 76 27 C81 35 83 53 83 80 L83 487 C83 515 82 532 77 540 C73 548 62 552 46 552 L40 552 L40 567 L83 567 L94 567 L105 567 L318 567 L395 567 L398 567 L398 564 C400 550 401 536 401 524 C402 512 403 499 403 484 L392 484 L385 495 C377 509 368 521 360 529 C352 538 343 545 333 549 C323 554 311 556 297 558 C283 560 266 561 244 561 L105 561 L105 305 L220 305 C238 305 252 305 264 306 C276 308 286 310 293 312 C301 315 307 319 311 323 C316 328 320 334 324 342 L328 348 L340 348 L340 305 L340 302 L340 300 L340 251 L340 251 Z " />
<glyph glyph-name="F" unicode="F" horiz-adv-x="434" d="M318 344 L330 344 L330 301 L330 298 L330 295 L330 246 L318 246 C314 256 309 264 304 270 C300 277 295 281 287 285 C280 289 270 292 258 293 C246 295 230 295 210 295 L105 295 L105 80 C106 53 109 35 114 27 C120 19 132 15 150 15 L158 15 C159 15 159 13 158 8 C159 3 159 0 158 0 L105 0 L94 0 L83 0 L40 0 L40 15 L46 15 C62 15 72 19 76 27 C81 35 83 53 83 80 L83 487 C83 515 82 532 77 540 C73 548 62 552 46 552 L40 552 L40 567 L83 567 L94 567 L105 567 L348 567 L425 567 L428 567 L428 564 C430 550 431 536 431 524 C432 512 433 499 433 484 L422 484 L415 495 C407 509 398 521 390 529 C382 538 373 545 363 549 C353 554 341 556 327 558 C313 560 296 561 274 561 L105 561 L105 301 L210 301 C230 301 245 301 257 302 C269 304 279 306 286 309 C294 313 299 316 303 322 C308 328 313 336 318 344 L318 344 Z " />
<glyph glyph-name="G" unicode="G" horiz-adv-x="793" d="M701 266 L701 251 L694 251 C679 252 670 248 665 240 C661 232 658 214 658 186 L658 59 C638 48 619 39 599 30 C579 22 559 16 538 10 C518 5 496 2 473 -1 C451 -3 426 -5 398 -5 C339 -5 289 0 247 10 C206 21 172 37 146 60 C120 84 101 114 89 150 C77 187 71 231 71 283 C71 336 77 381 89 417 C101 454 120 483 146 506 C172 530 206 546 247 556 C289 567 339 572 398 572 C472 572 529 572 567 570 C606 569 634 567 652 563 L652 560 L652 560 L657 485 L644 485 C642 489 639 491 637 494 C635 498 633 501 630 504 C615 525 598 540 578 549 C558 559 532 564 499 566 L398 566 C344 566 297 562 258 551 C220 541 188 525 164 502 C140 480 124 450 112 414 C101 378 95 335 95 283 C95 233 100 189 111 153 C123 117 140 89 164 66 C188 44 220 28 258 17 C297 7 344 1 398 1 C448 1 492 5 528 13 C565 22 602 36 638 55 L638 186 C638 214 637 232 632 240 C628 248 617 252 601 251 L595 251 L595 266 L638 266 L648 266 L658 266 L701 266 L701 266 Z " />
<glyph glyph-name="H" unicode="H" horiz-adv-x="702" d="M554 552 L554 567 L597 567 L609 567 L620 567 L663 567 C663 567 663 565 663 559 C663 555 663 552 663 552 L656 552 C643 552 635 550 629 544 C624 538 621 526 620 506 L620 487 L620 80 L620 61 C621 42 623 30 628 24 C634 18 643 15 656 15 L663 15 C663 15 663 13 663 8 C663 3 663 0 663 0 L620 0 L609 0 L597 0 L554 0 L554 15 L561 15 C577 15 586 19 590 27 C595 35 597 53 597 80 L597 297 L105 297 L105 80 C106 53 108 35 112 27 C117 19 127 15 142 15 L148 15 C149 15 149 13 148 8 C149 3 149 0 148 0 L105 0 L94 0 L83 0 L40 0 L40 15 L46 15 C62 15 72 19 76 27 C81 35 83 53 83 80 L83 487 C83 515 82 532 77 540 C73 548 62 552 46 552 L40 552 L40 567 L83 567 L94 567 L105 567 L148 567 C149 567 149 565 148 559 C149 555 149 552 148 552 L142 552 C127 552 118 548 113 540 C109 532 106 515 105 487 L105 303 L597 303 L597 487 C597 515 596 532 591 540 C587 548 577 552 561 552 L554 552 L554 552 Z " />
<glyph glyph-name="I" unicode="I" horiz-adv-x="188" d="M40 552 L40 567 L83 567 L94 567 L105 567 L148 567 C149 567 149 565 148 559 C149 555 149 552 148 552 L142 552 C127 552 118 548 113 540 C109 532 106 515 105 487 L105 80 C106 53 108 35 112 27 C117 19 127 15 142 15 L148 15 C149 15 149 13 148 8 C149 3 149 0 148 0 L105 0 L94 0 L83 0 L40 0 L40 15 L46 15 C62 15 72 19 76 27 C81 35 83 53 83 80 L83 487 C83 515 82 532 77 540 C73 548 62 552 46 552 L40 552 L40 552 Z " />
<glyph glyph-name="J" unicode="J" horiz-adv-x="315" d="M275 567 L275 552 L269 552 C254 552 244 549 239 541 C235 533 232 515 232 487 L232 191 C232 147 231 113 227 86 C224 60 217 39 207 25 C197 11 183 2 164 -3 C146 -7 121 -10 89 -10 C62 -10 42 -5 28 4 C15 14 6 29 0 50 C0 56 3 59 9 59 C15 59 19 56 19 50 C25 30 33 16 44 7 C56 -1 72 -6 94 -6 C120 -6 140 -4 155 0 C171 4 182 13 190 25 C198 38 204 56 206 79 C209 103 210 134 210 172 L210 487 C210 515 209 532 204 540 C200 548 189 552 173 552 L167 552 L167 567 L210 567 L221 567 L232 567 L275 567 L275 567 Z " />
<glyph glyph-name="K" unicode="K" horiz-adv-x="599" d="M447 552 L447 567 L490 567 L494 567 L498 567 L520 567 L520 552 L514 552 C507 552 500 552 493 550 C487 549 479 547 470 542 C462 538 452 532 440 524 C429 516 415 506 397 494 L148 314 L282 210 C342 164 390 128 426 100 C463 72 492 52 513 36 C535 21 550 11 560 6 C570 2 579 -1 585 -1 L590 -1 L590 -5 L578 -5 C567 -5 556 -2 542 2 C529 7 511 16 489 30 C467 44 439 65 403 91 C367 118 321 153 264 197 L130 301 L128 300 L125 305 L125 80 C125 53 127 35 131 27 C136 19 146 15 161 15 L168 15 L168 0 L125 0 L114 0 L103 0 L59 0 L59 15 L66 15 C82 15 92 19 96 27 C101 35 103 53 103 80 L103 487 C103 515 102 532 97 540 C93 548 82 552 66 552 L59 552 L59 567 L103 567 L114 567 L125 567 L168 567 L168 552 L161 552 C146 552 137 548 132 540 C128 532 125 515 125 487 L125 305 L143 318 L143 318 L379 487 L378 487 C398 501 412 512 424 520 C436 529 444 536 449 540 C455 545 458 547 457 549 C457 551 454 552 450 552 L447 552 L447 552 Z " />
<glyph glyph-name="L" unicode="L" horiz-adv-x="487" d="M407 92 C409 92 411 91 413 90 C418 89 422 88 425 87 C422 72 420 58 416 45 C413 33 410 19 406 3 L406 0 L405 0 L326 0 L105 0 L94 0 L83 0 L40 0 L40 15 L46 15 C62 15 72 19 76 27 C81 35 83 53 83 80 L83 487 C83 515 82 532 77 540 C73 548 62 552 46 552 L40 552 L40 567 L83 567 L94 567 L105 567 L148 567 C149 567 149 565 148 559 C149 555 149 552 148 552 L142 552 C127 552 118 548 113 540 C109 532 106 515 105 487 L105 6 L262 6 L279 6 C295 6 308 7 319 9 C331 12 341 16 349 21 C358 27 365 34 373 43 C381 53 390 65 398 79 L407 92 L407 92 Z " />
<glyph glyph-name="M" unicode="M" horiz-adv-x="729" d="M693 567 L693 552 L687 552 C674 552 665 550 660 544 C656 538 654 526 654 506 L678 53 C680 38 684 29 689 23 C695 18 704 15 716 15 L723 15 L723 0 L681 0 L670 0 L658 0 L615 0 L615 15 L622 15 C638 15 646 18 650 26 C654 34 656 52 654 80 L654 80 L632 553 L379 -5 L373 -5 L631 567 L638 567 L641 567 L651 567 L693 567 L693 567 Z M63 552 L63 567 L106 567 L110 567 L113 567 L123 567 L382 25 L384 20 L373 -5 L366 9 L112 540 L91 79 C91 52 95 35 101 27 C108 19 122 15 142 15 L151 15 L151 0 L88 0 L85 0 L81 0 L39 0 L39 15 L45 15 C59 15 68 17 73 23 C79 29 82 42 84 61 L103 508 C103 527 102 539 97 544 C93 550 84 552 70 552 L63 552 L63 552 Z " />
<glyph glyph-name="N" unicode="N" horiz-adv-x="629" d="M594 567 L594 552 L587 552 C572 552 563 548 558 540 C554 532 551 515 551 487 L551 17 L551 -4 L545 -4 L534 9 L95 548 L95 80 C95 53 97 35 101 27 C106 19 116 15 132 15 L138 15 L138 0 L95 0 L92 0 L88 0 L45 0 L45 15 L52 15 C68 15 77 19 81 27 C86 35 88 53 88 80 L88 487 C88 515 87 532 82 540 C78 548 68 552 52 552 L45 552 L45 567 L88 567 L92 567 L95 567 L108 567 L95 558 L95 558 L108 567 L544 31 L544 487 C544 515 543 532 538 540 C534 548 523 552 507 552 L501 552 L501 567 L544 567 L547 567 L551 567 L594 567 L594 567 Z " />
<glyph glyph-name="O" unicode="O" horiz-adv-x="765" d="M393 1 C453 1 502 7 540 19 C579 31 609 49 631 73 C654 97 670 126 678 161 C687 197 691 237 691 283 C691 329 687 370 678 405 C670 441 655 470 632 494 C610 518 579 536 540 548 C502 560 453 566 393 566 C334 566 285 560 246 548 C208 536 178 518 155 494 C133 470 117 441 108 405 C100 370 95 329 95 283 C95 237 100 198 108 162 C117 127 132 97 154 73 C177 49 208 31 246 19 C285 7 334 1 393 1 L393 1 Z M71 283 C71 331 76 372 85 408 C95 444 111 474 135 498 C160 523 192 541 234 553 C276 566 329 572 393 572 C457 572 509 567 551 554 C593 542 626 524 650 499 C675 475 692 444 701 408 C711 372 715 331 715 283 C715 237 711 195 701 159 C692 123 676 94 651 69 C627 45 594 27 552 14 C510 2 457 -5 393 -5 C329 -5 277 1 235 13 C193 26 161 44 136 68 C112 93 95 123 85 159 C76 195 71 237 71 283 L71 283 Z " />
<glyph glyph-name="P" unicode="P" horiz-adv-x="526" d="M59 552 L59 567 L103 567 L114 567 L125 567 L306 567 C379 567 430 556 460 532 C491 508 506 468 506 410 C506 383 502 360 493 340 C485 321 471 305 452 293 C434 281 409 273 379 267 C349 261 313 258 270 258 L125 258 L125 80 C125 53 127 35 131 27 C136 19 146 15 161 15 L168 15 L168 0 L125 0 L114 0 L103 0 L59 0 L59 15 L66 15 C82 15 92 19 96 27 C101 35 103 53 103 80 L103 487 C103 515 102 532 97 540 C93 548 82 552 66 552 L59 552 L59 552 Z M125 264 L270 264 C348 264 402 275 434 297 C467 320 483 358 483 410 C483 466 471 505 443 527 C416 550 370 561 306 561 L125 561 L125 264 L125 264 Z " />
<glyph glyph-name="Q" unicode="Q" horiz-adv-x="765" d="M809 55 L809 55 C788 29 765 12 740 0 C716 -11 685 -17 647 -17 C613 -17 584 -17 558 -17 C533 -16 511 -16 492 -15 C474 -13 458 -13 443 -11 C429 -9 415 -7 401 -5 L393 -5 C329 -5 277 1 235 13 C193 26 161 44 136 68 C112 93 95 123 85 159 C76 195 71 237 71 283 C71 331 76 372 85 408 C95 444 111 474 135 498 C160 523 192 541 234 553 C276 566 329 572 393 572 C457 572 509 567 551 554 C593 542 626 524 650 499 C675 475 692 444 701 408 C711 372 715 331 715 283 C715 241 712 204 704 170 C696 137 684 108 664 84 C645 60 619 42 587 27 C555 13 515 3 465 -2 L649 -2 C689 -2 720 2 744 11 C768 21 789 36 807 57 L809 55 L809 55 Z M393 1 C453 1 502 7 540 19 C579 31 609 49 631 73 C654 97 670 126 678 161 C687 197 691 237 691 283 C691 329 687 370 678 405 C670 441 655 470 632 494 C610 518 579 536 540 548 C502 560 453 566 393 566 C334 566 285 560 246 548 C208 536 178 518 155 494 C133 470 117 441 108 405 C100 370 95 329 95 283 C95 237 100 198 108 162 C117 127 132 97 154 73 C177 49 208 31 246 19 C285 7 334 1 393 1 L393 1 Z " />
<glyph glyph-name="R" unicode="R" horiz-adv-x="606" d="M59 552 L59 567 L103 567 L114 567 L125 567 L289 567 C357 567 403 556 431 534 C459 512 473 475 473 422 C473 370 458 334 427 310 C397 287 345 275 273 273 L476 102 C510 74 535 53 551 39 C568 25 579 17 585 11 C592 6 596 3 596 3 C597 4 599 4 601 4 L606 4 L606 0 L594 0 C588 0 584 1 581 0 C579 0 573 2 565 7 C557 13 545 22 527 37 C510 53 483 76 446 106 L247 273 L125 273 L125 80 C125 53 127 35 131 27 C136 19 146 15 161 15 L168 15 L168 0 L125 0 L114 0 L103 0 L59 0 L59 15 L66 15 C82 15 92 19 96 27 C101 35 103 53 103 80 L103 487 C103 515 102 532 97 540 C93 548 82 552 66 552 L59 552 L59 552 Z M256 279 C326 279 376 289 405 311 C435 333 449 370 449 422 C449 473 438 508 413 529 C389 551 347 561 289 561 L125 561 L125 279 L240 279 L256 279 L256 279 Z " />
<glyph glyph-name="S" unicode="S" horiz-adv-x="506" d="M317 566 L233 566 C175 566 135 556 110 535 C86 515 73 480 73 430 C73 394 88 367 117 345 C147 324 196 306 266 292 C338 278 387 260 417 236 C447 212 462 179 462 137 C462 86 450 50 422 28 C395 6 349 -5 285 -5 C206 -5 148 -4 111 -4 C75 -3 53 -2 45 -1 L45 2 L45 2 L40 78 L46 78 C48 79 50 79 53 79 C56 76 58 74 60 70 C62 67 65 64 67 60 C83 40 100 25 122 16 C144 8 173 3 209 1 L285 1 C344 1 385 11 409 30 C434 50 446 82 446 128 C446 168 431 198 401 220 C371 242 320 261 248 275 C180 289 131 307 101 329 C72 352 57 383 57 421 C57 477 70 516 97 538 C125 561 170 572 234 572 C298 572 345 572 375 571 C405 571 424 570 431 568 L436 489 L429 489 C428 489 426 488 423 488 C420 493 417 497 414 500 C412 504 409 508 405 513 C392 531 379 544 365 552 C352 560 336 565 317 566 L317 566 Z " />
<glyph glyph-name="T" unicode="T" horiz-adv-x="626" d="M607 475 L595 475 L585 488 C575 504 565 515 556 525 C548 535 539 543 529 548 C519 554 509 556 497 558 C486 560 472 561 454 561 L324 561 L324 80 C324 52 327 35 331 27 C336 19 346 15 361 15 L367 15 L367 0 L324 0 L313 0 L302 0 L259 0 L259 15 L265 15 C281 15 291 19 295 27 C300 35 302 53 302 80 L302 561 L172 561 C156 561 142 561 130 559 C118 557 108 554 98 548 C88 543 80 536 71 526 C63 516 53 504 41 488 L31 475 L19 475 C22 492 24 507 26 520 C28 534 31 548 33 564 L33 567 L40 567 L113 567 L513 567 L586 567 L593 567 L593 564 C596 548 598 534 600 520 C602 507 605 492 607 475 L607 475 Z " />
<glyph glyph-name="U" unicode="U" horiz-adv-x="631" d="M611 567 L611 552 L604 552 C596 552 589 552 583 550 C577 548 574 545 570 539 C567 533 566 526 564 516 C563 506 562 493 562 477 L562 149 C562 121 560 98 554 78 C549 58 538 42 522 30 C506 18 484 10 453 4 C423 -2 382 -5 332 -5 C280 -5 239 -2 207 4 C176 11 153 21 135 35 C118 50 107 68 101 91 C96 115 93 143 93 175 L93 487 C93 515 92 532 87 540 C83 548 72 552 56 552 L49 552 L49 567 L93 567 L104 567 L115 567 L158 567 L158 552 L151 552 C136 552 127 548 122 540 C118 532 115 515 115 487 L115 170 C115 140 117 115 122 93 C128 72 137 55 153 41 C169 28 192 18 220 12 C249 6 287 3 335 3 C383 3 422 6 450 11 C479 17 500 25 516 37 C532 49 542 65 547 83 C553 102 555 125 555 151 L556 493 C556 519 553 534 547 541 C541 549 530 552 512 552 L504 552 L504 567 L556 567 L559 567 L562 567 L611 567 L611 567 Z " />
<glyph glyph-name="V" unicode="V" horiz-adv-x="558" d="M553 567 L553 552 L547 552 C534 552 524 550 517 544 C511 539 504 528 496 510 L310 -15 L304 -15 L89 487 L89 487 C83 501 79 512 74 520 C70 529 65 536 61 540 C57 545 53 547 48 549 C44 551 38 552 32 552 L27 552 C27 552 27 555 27 559 C27 565 27 567 27 567 L55 567 L67 567 L79 567 L136 567 L136 552 L129 552 C111 552 100 549 98 541 C96 533 101 515 113 487 L113 487 L314 13 L470 457 L470 457 C478 477 482 494 485 506 C489 519 490 529 488 535 C487 542 484 546 477 548 C471 551 462 552 450 552 L440 552 L440 567 L509 567 L512 567 L516 567 L553 567 L553 567 Z " />
<glyph glyph-name="W" unicode="W" horiz-adv-x="844" d="M837 567 L837 552 L831 552 C823 552 817 552 811 550 C806 548 801 545 797 540 C793 536 790 530 786 521 C782 513 778 501 773 487 L773 487 L608 -15 L602 -15 L413 542 L423 577 L243 -15 L237 -15 L57 502 C49 524 42 537 36 543 C30 549 22 552 10 552 L4 552 L4 567 L34 567 L46 567 L58 567 L110 567 L110 552 L103 552 C89 552 80 550 76 544 C72 539 73 527 78 509 L247 17 L418 577 L423 577 L613 18 L773 507 C779 527 780 539 774 544 C769 550 758 552 740 552 L732 552 L732 567 L792 567 L796 567 L799 567 L837 567 L837 567 Z " />
<glyph glyph-name="X" unicode="X" horiz-adv-x="606" d="M474 552 L474 567 L538 567 L542 567 L546 567 L577 567 C578 567 578 565 577 559 C578 555 578 552 577 552 L571 552 C564 552 557 552 551 550 C545 549 540 546 534 542 C528 538 522 533 515 526 C509 520 501 511 491 499 L324 293 L495 80 L495 80 C507 66 516 56 523 47 C531 39 536 32 542 27 C548 23 554 20 558 18 C563 16 568 15 574 15 L578 15 L578 0 L559 0 L546 0 L533 0 L476 0 L476 15 L483 15 C499 15 507 18 505 26 C503 34 491 52 469 80 L469 80 L313 276 L163 68 C148 46 140 32 142 25 C144 19 153 15 169 15 L177 15 L177 0 L114 0 L110 0 L106 0 L73 0 L73 15 L80 15 C88 15 94 15 100 17 C106 19 112 23 118 27 C124 32 131 38 138 46 C146 55 154 66 164 80 L309 280 L309 280 L141 491 C131 504 122 514 114 522 C107 530 101 536 95 540 C90 545 85 547 80 549 C76 551 71 552 65 552 L60 552 L60 567 L80 567 L92 567 L105 567 L162 567 L162 552 L156 552 C141 552 133 550 133 542 C134 535 144 519 163 495 L321 298 L473 487 L473 487 C496 515 507 532 508 540 C510 548 501 552 482 552 L474 552 L474 552 Z " />
<glyph glyph-name="Y" unicode="Y" horiz-adv-x="534" d="M334 15 L334 0 L291 0 L280 0 L269 0 L226 0 L226 15 L232 15 C248 15 258 19 262 27 C267 35 269 53 269 80 L269 210 L106 487 L106 487 C98 501 92 512 86 520 C80 529 75 536 70 540 C66 545 62 547 57 549 C53 551 47 552 41 552 L36 552 L36 567 L59 567 L73 567 L86 567 L138 567 L138 552 L131 552 C116 552 108 549 108 541 C108 533 117 515 133 487 L133 487 L287 223 L444 485 C461 513 470 531 468 539 C467 548 457 552 439 552 L431 552 L431 567 L494 567 L497 567 L501 567 L529 567 L529 552 L523 552 C512 552 504 550 496 545 C489 541 480 531 469 515 L291 220 L291 220 L291 80 C291 53 293 35 297 27 C302 19 312 15 328 15 L334 15 L334 15 Z " />
<glyph glyph-name="Z" unicode="Z" horiz-adv-x="588" d="M530 3 L530 0 L529 0 L450 0 L87 0 L74 0 L62 0 L505 561 L273 561 C257 561 242 561 230 559 C218 558 207 556 197 551 C187 547 177 541 167 533 C157 525 146 515 133 503 L122 492 L110 492 C115 506 119 518 122 528 C126 539 130 551 134 564 C134 565 134 565 134 565 C135 566 135 567 135 567 L142 567 L215 567 L510 567 L522 567 L535 567 L92 6 L386 6 C406 6 421 6 434 8 C448 10 458 14 468 19 C478 25 487 32 495 41 C503 51 512 63 522 79 L531 92 L534 91 L546 88 L549 88 C546 73 544 60 540 46 C537 33 534 19 530 3 L530 3 Z " />
<glyph glyph-name="bracketleft" unicode="&#x5b;" horiz-adv-x="213" d="M99 562 L99 -116 L204 -116 L204 -120 L99 -120 L83 -120 L83 567 L99 567 L204 567 L204 562 L99 562 L99 562 Z " />
<glyph glyph-name="backslash" unicode="&#x5c;" horiz-adv-x="203" d="M197 -32 L-60 617 L-53 617 L204 -32 L197 -32 L197 -32 Z " />
<glyph glyph-name="bracketright" unicode="&#x5d;" horiz-adv-x="195" d="M110 562 L5 562 L5 567 L110 567 L125 567 L125 -120 L110 -120 L5 -120 L5 -116 L110 -116 L110 562 L110 562 Z " />
<glyph glyph-name="underscore" unicode="&#x5f;" horiz-adv-x="468" d="M5 -50 L464 -50 L464 -61 L5 -61 L5 -50 L5 -50 Z " />
<glyph glyph-name="a" unicode="a" horiz-adv-x="475" d="M453 34 L455 31 C440 16 429 5 419 -1 C410 -7 398 -10 384 -10 C363 -10 351 -5 346 4 C342 14 339 30 339 52 L339 82 C313 50 286 29 256 15 C227 2 191 -5 148 -5 C107 -5 79 1 61 15 C44 29 35 53 35 87 C35 121 48 145 72 161 C97 178 139 190 197 197 L339 213 L339 303 C339 352 332 386 316 406 C301 426 275 436 237 436 C202 436 174 437 150 435 C127 434 105 432 83 428 L63 428 C101 434 133 436 159 438 C186 440 213 441 241 441 C285 441 315 431 333 409 C351 388 360 351 360 299 L360 54 C360 35 361 22 365 13 C369 5 380 0 398 0 C408 0 416 2 423 7 C431 13 441 22 453 34 L453 34 Z M339 209 L197 191 C145 185 109 174 87 159 C66 145 55 123 55 93 C55 62 63 40 78 27 C94 15 120 8 158 8 C200 8 233 14 261 26 C289 38 315 58 339 86 L339 209 L339 209 Z " />
<glyph glyph-name="b" unicode="b" horiz-adv-x="573" d="M37 630 L37 639 L96 656 L100 656 L100 651 L100 546 L100 389 C134 399 162 407 186 413 C210 420 230 425 245 429 C263 435 277 439 288 441 C330 441 365 438 394 429 C424 421 447 408 465 389 C484 371 497 348 505 318 C514 289 518 253 518 211 C518 172 514 139 505 111 C497 84 484 62 464 44 C445 27 421 15 390 7 C360 -1 323 -5 279 -5 C221 -5 179 1 151 12 C135 16 116 18 95 18 C89 18 85 14 83 4 C83 4 82 2 82 0 L80 0 L80 541 L80 594 C79 604 76 609 71 611 C67 614 57 619 43 627 L37 630 L37 630 Z M100 386 L100 99 C100 64 114 40 141 24 C169 9 215 1 279 1 C319 1 351 5 379 12 C407 20 430 31 447 47 C465 63 477 84 485 109 C493 135 497 166 497 202 C497 244 493 279 485 308 C477 338 464 361 446 379 C428 398 406 411 377 419 C349 428 314 432 273 432 C271 432 257 430 231 422 C205 415 162 403 100 386 L100 386 Z " />
<glyph glyph-name="c" unicode="c" horiz-adv-x="460" d="M408 24 C396 14 377 7 349 2 C322 -2 282 -5 229 -5 C197 -5 169 -2 146 6 C124 14 106 26 91 43 C77 61 67 83 60 109 C54 136 50 169 50 207 C50 250 54 285 63 315 C73 345 87 370 106 388 C126 407 150 420 181 428 C213 437 251 441 295 441 C335 441 362 435 379 421 C397 407 407 383 410 349 C410 343 407 340 401 340 C395 340 392 344 391 350 C389 382 380 403 365 416 C351 430 327 436 293 436 C253 436 220 432 191 424 C163 416 140 404 122 386 C104 368 91 345 83 317 C75 289 71 255 71 215 C71 177 74 146 80 119 C87 93 97 72 111 55 C125 39 143 27 165 19 C187 11 214 7 246 7 C296 7 333 9 357 11 C382 14 398 19 406 26 L408 24 L408 24 Z " />
<glyph glyph-name="d" unicode="d" horiz-adv-x="593" d="M527 26 L527 17 L468 0 L464 0 L464 5 L464 53 C428 43 397 34 371 26 C346 19 325 13 309 8 C291 3 275 -1 263 -5 C225 -5 194 -1 167 6 C141 14 120 25 103 41 C87 58 75 79 67 105 C59 131 55 163 55 199 C55 243 59 281 67 311 C75 342 88 367 105 386 C123 406 145 420 172 428 C200 437 233 441 272 441 C324 441 366 440 396 436 C427 432 450 427 464 420 L464 541 L464 594 C463 604 460 609 455 611 C451 614 441 619 427 627 L421 630 L421 639 L480 656 L484 656 L484 651 L484 546 L484 115 L484 61 C486 53 489 48 493 45 C498 43 507 38 521 30 L527 26 L527 26 Z M464 110 L464 415 C450 421 428 426 397 430 C367 434 325 436 271 436 C236 436 206 433 181 424 C157 416 137 403 121 384 C105 366 95 343 87 313 C80 284 76 248 76 206 C76 170 79 140 86 114 C94 89 105 69 121 53 C137 37 157 26 182 18 C208 11 238 7 274 7 C283 7 301 11 330 18 C360 26 404 38 464 55 L464 110 L464 110 Z " />
<glyph glyph-name="e" unicode="e" horiz-adv-x="467" d="M415 24 C402 14 382 7 354 2 C327 -2 286 -5 232 -5 C200 -5 172 -2 148 6 C125 14 107 26 92 43 C78 61 67 83 60 109 C54 136 50 169 50 207 C50 250 53 285 61 315 C69 345 81 370 97 388 C114 407 135 420 161 428 C188 437 220 441 258 441 C316 441 356 429 380 404 C405 380 417 338 417 278 L74 278 C72 260 71 239 71 215 C71 177 74 146 80 119 C87 93 97 72 111 55 C126 39 145 27 167 19 C190 11 217 7 249 7 C301 7 339 9 363 11 C388 14 405 19 413 26 L415 24 L415 24 Z M75 281 L398 285 L389 285 C395 285 398 288 398 294 C398 346 388 383 366 404 C345 426 309 436 257 436 C199 436 157 425 128 401 C100 377 82 337 75 281 L75 281 Z " />
<glyph glyph-name="f" unicode="f" horiz-adv-x="295" d="M64 0 L64 15 L71 15 C87 15 96 19 100 27 C105 35 107 53 107 80 L107 428 L13 428 L13 436 L107 436 L108 470 C110 538 122 585 143 613 C165 642 199 656 247 656 C273 656 291 653 302 644 C314 636 320 622 322 602 C322 596 319 593 313 593 C307 593 304 596 303 602 C302 620 297 632 287 640 C278 648 263 652 242 652 C201 652 172 639 154 610 C136 582 127 534 127 466 L127 436 L266 436 L266 428 L127 428 L127 80 C128 53 130 35 134 27 C139 19 149 15 164 15 L170 15 C171 15 171 13 170 8 C171 3 171 0 170 0 L127 0 L117 0 L107 0 L64 0 L64 0 Z " />
<glyph glyph-name="g" unicode="g" horiz-adv-x="467" d="M468 436 L468 425 L366 427 C392 418 410 404 421 384 C433 365 438 339 438 307 C438 259 425 224 397 203 C369 183 323 172 257 172 L200 172 C153 172 120 171 100 165 C80 160 70 151 70 138 C70 123 80 113 98 107 C117 101 149 100 194 102 L269 105 C335 105 380 101 407 91 C435 81 448 65 448 41 C448 24 444 10 434 -3 C424 -15 409 -25 387 -33 C365 -41 337 -46 303 -50 C269 -54 228 -56 178 -56 C125 -56 87 -51 65 -41 C43 -30 32 -12 32 13 C32 25 43 36 63 46 C84 57 119 69 168 82 C128 82 101 84 83 92 C66 100 57 113 57 130 C57 146 67 157 87 164 C108 172 143 176 192 176 C150 182 121 196 103 216 C85 237 76 267 76 307 C76 356 89 390 117 410 C145 431 192 441 257 441 C291 441 318 439 339 434 L468 436 L468 436 Z M95 307 L95 307 C95 260 108 227 132 207 C157 187 199 177 257 177 C316 177 358 186 382 206 C407 226 419 260 419 307 C419 341 414 367 402 386 C390 406 371 419 343 427 L338 427 L338 428 C316 434 289 437 257 437 C199 437 157 428 132 408 C108 388 95 355 95 307 L95 307 Z M175 82 C128 70 95 58 75 48 C55 38 45 27 45 15 C45 -9 55 -26 75 -36 C96 -46 131 -51 180 -51 C272 -51 337 -44 375 -32 C414 -19 433 2 433 31 C433 51 421 65 395 73 C369 82 326 86 264 86 L195 83 C192 83 189 84 185 83 C182 83 179 82 175 82 L175 82 Z " />
<glyph glyph-name="h" unicode="h" horiz-adv-x="555" d="M515 15 L515 0 L472 0 L462 0 L452 0 L409 0 L409 15 L415 15 C431 15 441 19 445 27 C450 35 452 53 452 80 L452 289 C452 315 452 335 448 353 C445 371 439 385 429 396 C420 408 408 415 390 420 C373 426 350 428 321 428 C313 428 294 424 261 415 C229 407 178 392 108 370 L108 80 C108 53 110 35 114 27 C119 19 129 15 145 15 L151 15 L151 0 L108 0 L98 0 L88 0 L45 0 L45 15 L51 15 C67 15 77 19 81 27 C86 35 88 53 88 80 L88 541 L88 594 C87 604 84 609 79 611 C75 614 65 619 51 627 L45 630 L45 639 L104 656 L108 656 L108 651 L108 546 L108 373 C150 385 186 396 214 404 C243 413 266 420 284 425 C306 432 323 437 336 441 C366 441 389 439 407 433 C425 428 438 419 448 407 C458 395 464 381 467 361 C471 342 472 319 472 291 L472 80 C472 53 474 35 478 27 C483 19 493 15 509 15 L515 15 L515 15 Z " />
<glyph glyph-name="i" unicode="i" horiz-adv-x="196" d="M45 410 L45 419 L104 436 L108 436 L108 431 L108 326 L108 80 C108 52 111 35 115 27 C120 19 130 15 145 15 L151 15 L151 0 L108 0 L98 0 L88 0 L45 0 L45 15 L51 15 C67 15 77 19 81 27 C86 35 88 53 88 80 L88 321 L88 374 C87 384 84 389 79 391 C75 394 65 399 51 407 L45 410 L45 410 Z M97 506 C84 506 77 513 77 526 C77 540 84 546 97 546 C111 546 117 540 117 526 C117 513 111 506 97 506 L97 506 Z " />
<glyph glyph-name="j" unicode="j" horiz-adv-x="197" d="M46 410 L46 419 L105 436 L109 436 L109 431 L109 326 L109 18 C109 18 109 17 106 14 C104 12 99 8 89 2 C80 -4 67 -11 49 -23 C32 -34 9 -49 -21 -67 L-23 -64 C3 -48 22 -36 37 -27 C53 -17 63 -10 71 -5 C79 1 84 4 86 6 C88 8 89 10 89 12 L89 321 L89 375 C88 384 85 389 80 391 C76 394 67 399 53 407 L46 410 L46 410 Z M98 506 C85 506 78 513 78 526 C78 540 85 546 98 546 C112 546 118 540 118 526 C118 513 112 506 98 506 L98 506 Z " />
<glyph glyph-name="k" unicode="k" horiz-adv-x="466" d="M487 15 L487 0 L464 0 L451 0 L439 0 L396 0 L396 15 L399 15 C403 15 406 15 406 17 C407 19 405 23 400 27 C396 32 388 38 377 46 C367 55 352 66 334 80 L127 238 L126 237 L124 240 L124 80 C124 52 127 35 131 27 C136 19 146 15 161 15 L167 15 L167 0 L124 0 L114 0 L104 0 L61 0 L61 15 L67 15 C83 15 93 19 97 27 C102 35 104 53 104 80 L104 541 L104 594 C103 604 100 609 95 611 C91 614 81 619 67 627 L61 630 L61 639 L120 656 L124 656 L124 651 L124 546 L124 240 L319 371 C351 393 369 406 376 412 C384 418 384 421 376 421 L373 421 L373 436 L416 436 L420 436 L425 436 L445 436 L445 421 L439 421 C431 421 425 421 417 419 C410 417 402 415 392 410 C382 406 371 399 357 390 C343 382 326 370 305 356 L305 356 L144 249 L370 73 C386 61 400 52 410 44 C421 36 430 31 438 26 C446 22 453 19 459 17 C466 16 473 15 481 15 L487 15 L487 15 Z " />
<glyph glyph-name="l" unicode="l" horiz-adv-x="196" d="M45 630 L45 639 L104 656 L108 656 L108 651 L108 546 L108 80 C108 52 111 35 115 27 C120 19 130 15 145 15 L151 15 L151 0 L108 0 L98 0 L88 0 L45 0 L45 15 L51 15 C67 15 77 19 81 27 C86 35 88 53 88 80 L88 541 L88 594 C87 604 84 609 79 611 C75 614 65 619 51 627 L45 630 L45 630 Z " />
<glyph glyph-name="m" unicode="m" horiz-adv-x="939" d="M899 15 L899 0 L856 0 L846 0 L836 0 L793 0 L793 15 L799 15 C815 15 825 19 829 27 C834 35 836 53 836 80 L836 289 C836 340 826 375 803 396 C781 418 745 428 697 428 C693 428 686 428 676 425 C666 423 652 419 634 414 C616 410 594 404 567 396 C541 389 509 380 471 369 C479 347 482 321 482 291 L482 80 C482 53 484 35 488 27 C493 19 503 15 519 15 L525 15 L525 0 L482 0 L472 0 L462 0 L419 0 L419 15 L425 15 C441 15 451 19 455 27 C460 35 462 53 462 80 L462 289 C462 340 452 376 430 397 C408 419 374 429 327 429 C321 429 302 426 268 416 C235 407 182 392 108 370 L108 351 L108 326 L108 80 C108 53 110 35 114 27 C119 19 129 15 145 15 L151 15 L151 0 L108 0 L98 0 L88 0 L45 0 L45 15 L51 15 C67 15 77 19 81 27 C86 35 88 53 88 80 L88 321 L88 351 L88 351 C88 362 89 370 88 375 C88 381 87 384 84 387 C82 391 79 393 73 395 C68 398 61 402 51 407 L45 410 L45 419 L104 436 L108 436 L108 373 C152 385 188 396 217 404 C247 413 271 420 290 425 C312 432 330 437 343 441 C377 441 405 436 425 425 C446 415 461 397 470 371 C514 384 552 394 582 403 C613 413 638 420 658 425 C681 432 699 437 713 441 C763 441 798 430 821 407 C845 385 856 346 856 291 L856 80 C856 53 858 35 862 27 C867 19 877 15 893 15 L899 15 L899 15 Z " />
<glyph glyph-name="n" unicode="n" horiz-adv-x="555" d="M515 15 L515 0 L472 0 L462 0 L452 0 L409 0 L409 15 L415 15 C431 15 441 19 445 27 C450 35 452 53 452 80 L452 289 C452 315 452 335 448 353 C445 371 439 385 429 396 C420 408 408 415 390 420 C373 426 350 428 321 428 C313 428 294 424 261 415 C229 407 178 392 108 370 L108 351 L108 326 L108 80 C108 53 110 35 114 27 C119 19 129 15 145 15 L151 15 L151 0 L108 0 L98 0 L88 0 L45 0 L45 15 L51 15 C67 15 77 19 81 27 C86 35 88 53 88 80 L88 321 L88 351 L88 351 C88 362 89 370 88 375 C88 381 87 384 84 387 C82 391 79 393 73 395 C68 398 61 402 51 407 L45 410 L45 419 L104 436 L108 436 L108 373 C150 385 186 396 214 404 C243 413 266 420 284 425 C306 432 323 437 336 441 C366 441 389 439 407 433 C425 428 438 419 448 407 C458 395 464 381 467 361 C471 342 472 319 472 291 L472 80 C472 53 474 35 478 27 C483 19 493 15 509 15 L515 15 L515 15 Z " />
<glyph glyph-name="o" unicode="o" horiz-adv-x="586" d="M293 -1 C333 -1 367 3 395 11 C423 19 445 32 463 49 C481 67 494 88 502 116 C510 144 514 178 514 218 C514 258 510 291 502 319 C494 347 482 370 464 387 C446 405 423 417 395 425 C367 433 333 437 293 437 C253 437 219 433 191 425 C163 417 141 405 123 387 C105 370 92 348 84 320 C76 292 72 258 72 218 C72 178 76 145 84 117 C92 89 104 67 122 49 C140 32 163 19 191 11 C219 3 253 -1 293 -1 L293 -1 Z M50 218 C50 259 55 293 63 321 C72 350 85 372 105 390 C125 408 151 421 181 429 C212 437 249 441 293 441 C337 441 374 437 405 429 C437 421 461 409 481 391 C501 373 516 351 524 322 C533 294 537 259 537 218 C537 178 533 144 524 115 C516 87 502 64 482 46 C462 28 438 15 406 7 C375 -1 337 -5 293 -5 C249 -5 212 -1 181 7 C151 15 126 27 106 45 C86 63 72 86 63 114 C55 143 50 178 50 218 L50 218 Z " />
<glyph glyph-name="p" unicode="p" horiz-adv-x="599" d="M45 410 L45 419 L101 436 L105 436 L107 372 C147 385 181 396 208 404 C236 413 258 420 275 425 C296 432 313 437 325 441 C365 441 399 437 427 429 C455 421 478 409 495 391 C513 373 525 351 533 322 C541 294 545 259 545 218 C545 178 542 144 532 115 C523 87 508 64 488 46 C468 28 442 15 410 7 C378 -1 340 -5 294 -5 C258 -5 226 0 197 12 C169 24 139 44 108 71 L108 30 C108 3 110 -15 114 -23 C119 -31 129 -35 145 -35 L151 -35 L151 -50 L108 -50 L98 -50 L88 -50 L45 -50 L45 -35 L51 -35 C67 -35 77 -31 81 -23 C86 -15 88 3 88 30 L88 321 L88 351 L88 351 C88 362 89 370 88 375 C88 381 87 384 84 387 C82 391 79 393 73 395 C68 398 61 402 51 407 L45 410 L45 410 Z M107 369 L107 351 L108 351 L108 326 L108 99 C145 63 177 38 205 23 C234 9 264 1 294 1 C336 1 372 5 401 12 C431 20 454 31 472 47 C491 63 504 83 512 109 C521 135 525 167 525 203 C525 244 522 279 514 307 C506 336 494 359 476 377 C459 395 438 408 410 416 C383 424 350 428 310 428 C304 428 287 425 255 415 C224 406 175 391 107 369 L107 369 Z " />
<glyph glyph-name="q" unicode="q" horiz-adv-x="588" d="M544 -35 L544 -50 L501 -50 L491 -50 L481 -50 L438 -50 L438 -35 L444 -35 C460 -35 470 -31 474 -23 C479 -15 481 3 481 30 L481 63 C444 51 413 41 387 32 C361 24 340 17 324 11 C306 5 290 -1 278 -5 C241 -5 209 -1 183 6 C157 14 137 25 120 41 C104 58 92 79 84 105 C77 131 73 163 73 199 C73 243 77 281 85 311 C94 342 107 367 125 386 C143 406 167 420 195 428 C224 437 259 441 299 441 C331 441 356 440 375 437 C395 435 414 432 432 430 C417 434 399 436 377 438 C355 440 329 441 299 441 C331 441 357 441 379 439 C402 437 421 434 435 430 C451 428 467 427 484 427 C492 427 497 430 499 436 L501 436 L501 30 C501 3 503 -15 507 -23 C512 -31 522 -35 537 -35 L544 -35 L544 -35 Z M481 66 L481 383 C481 403 468 416 440 424 C412 432 365 436 299 436 C262 436 230 433 204 424 C178 416 158 403 141 384 C125 366 113 343 105 313 C98 284 94 248 94 206 C94 170 97 140 104 114 C112 89 122 69 138 53 C154 37 175 26 199 18 C224 11 254 7 289 7 C295 7 313 11 342 20 C372 30 418 45 481 66 L481 66 Z " />
<glyph glyph-name="r" unicode="r" horiz-adv-x="378" d="M45 410 L45 419 L101 436 L105 436 L107 372 C137 385 163 396 183 404 C204 413 221 420 234 425 C250 432 262 437 272 441 C294 441 310 441 322 439 C335 438 344 436 351 433 C359 431 363 427 365 422 C367 418 368 412 368 406 C368 400 365 396 359 396 C349 396 341 397 332 400 C324 404 316 407 308 411 C300 415 293 418 284 421 C276 425 266 426 256 426 C252 426 238 422 215 413 C193 405 157 390 107 369 L107 351 L108 351 L108 326 L108 80 C108 53 110 35 114 27 C119 19 129 15 145 15 L151 15 L151 0 L108 0 L98 0 L88 0 L45 0 L45 15 L51 15 C67 15 77 19 81 27 C86 35 88 53 88 80 L88 321 L88 351 L88 351 C88 362 89 370 88 375 C88 381 87 384 84 387 C82 391 79 393 73 395 C68 398 61 402 51 407 L45 410 L45 410 Z " />
<glyph glyph-name="s" unicode="s" horiz-adv-x="429" d="M358 390 L346 390 C345 392 344 393 342 395 C341 397 340 399 338 401 C330 413 322 422 310 427 C299 433 284 436 265 437 L208 437 C164 437 133 431 115 416 C97 402 88 377 88 343 C88 316 99 294 122 276 C146 258 185 241 240 225 C291 211 327 196 348 178 C370 161 380 139 380 112 C380 70 370 40 348 22 C327 4 290 -5 238 -5 C180 -5 136 -4 106 -5 C76 -5 58 -6 50 -7 L51 -5 L50 -5 L46 46 C48 47 50 47 52 47 L57 47 L69 35 C82 23 97 14 114 8 C132 3 155 0 184 0 L184 0 L239 0 C285 0 317 8 335 24 C354 40 363 67 363 105 C363 129 353 149 332 165 C312 181 276 197 226 211 C171 227 132 244 108 263 C85 283 73 307 73 336 C73 374 83 401 103 417 C124 433 159 441 208 441 C260 441 297 441 319 441 C342 441 354 441 355 440 L358 390 L358 390 Z M50 -5 C50 -5 49 -4 49 -5 L50 -6 L50 -5 L50 -5 Z M50 -7 C48 -7 48 -8 50 -9 L50 -7 L50 -7 Z " />
<glyph glyph-name="t" unicode="t" horiz-adv-x="356" d="M326 436 L326 428 L134 428 L133 92 C133 72 134 56 135 44 C137 32 140 23 145 17 C151 11 158 8 168 6 C179 5 194 4 212 4 C230 4 244 4 255 6 C267 8 277 11 285 14 C294 18 301 22 309 27 C317 33 326 39 335 46 L336 45 C326 37 316 30 307 23 C299 17 290 11 280 7 C270 3 259 0 247 -2 C235 -4 220 -5 202 -5 C182 -5 166 -5 154 -3 C142 -1 133 4 127 10 C121 17 118 27 116 40 C115 54 114 72 114 95 L114 428 L25 428 L25 431 C57 433 80 435 94 439 C108 444 116 451 118 459 L130 564 L134 564 L134 436 L326 436 L326 436 Z " />
<glyph glyph-name="u" unicode="u" horiz-adv-x="533" d="M485 26 L485 17 L426 0 L422 0 L422 5 L422 63 C386 51 356 41 330 32 C305 24 284 17 268 11 C250 5 235 -1 223 -5 C191 -5 164 -3 142 3 C121 9 104 18 91 31 C79 45 70 61 65 81 C61 102 58 127 58 156 L58 356 C58 384 57 401 52 409 C48 417 37 421 21 421 L15 421 L15 436 L58 436 L68 436 L78 436 L78 159 C78 132 81 109 85 89 C90 70 98 54 110 42 C122 30 139 22 159 16 C180 11 206 8 238 8 C246 8 263 12 290 21 C318 31 362 46 422 66 L422 110 L422 356 C422 384 421 401 416 409 C412 417 401 421 385 421 L379 421 L379 436 L422 436 L432 436 L442 436 L442 115 L442 61 C444 53 447 48 451 45 C456 43 465 38 479 30 L485 26 L485 26 Z " />
<glyph glyph-name="v" unicode="v" horiz-adv-x="479" d="M445 436 L445 421 L438 421 C425 421 416 419 408 413 C401 407 393 395 383 375 L226 -10 L223 -10 L70 381 C62 399 55 410 48 414 C42 419 32 421 18 421 L11 421 L11 436 L48 436 L60 436 L71 436 L114 436 L114 421 L109 421 C95 421 89 418 87 410 C86 402 91 384 102 356 L101 356 L232 12 L369 356 L369 356 C381 384 386 401 385 409 C385 417 378 421 364 421 L358 421 L358 436 L401 436 L405 436 L408 436 L445 436 L445 436 Z " />
<glyph glyph-name="w" unicode="w" horiz-adv-x="704" d="M661 436 L661 421 L651 421 C647 421 645 422 641 422 C638 423 636 423 633 421 C631 419 629 416 625 410 C622 405 618 396 612 384 L599 352 C598 350 598 348 597 346 C597 344 596 342 594 340 L594 340 L451 -10 L448 -10 L339 268 L226 -10 L223 -10 L84 344 L84 344 C76 368 70 385 64 395 C59 406 55 413 51 417 C48 421 46 423 42 422 C39 422 35 421 29 421 L20 421 L20 436 L48 436 L71 436 L121 436 L121 421 L111 421 C105 421 100 422 95 422 C91 423 87 422 85 420 C83 418 83 415 84 408 C86 402 89 391 93 377 L99 362 L105 347 L105 347 L232 12 L337 273 L309 344 L309 344 C301 368 295 385 289 395 C284 406 281 413 277 417 C274 421 271 423 268 422 C266 422 262 421 257 421 L247 421 L247 436 L273 436 L296 436 L351 436 L351 421 L340 421 C333 421 328 422 322 422 C317 423 313 422 311 419 C309 417 309 413 310 405 C312 398 315 387 321 371 L323 364 C325 362 325 359 326 356 C328 354 329 351 330 347 L330 347 L457 12 L585 333 L584 332 C595 359 602 379 606 391 C610 404 613 412 611 416 C610 421 606 423 600 422 C594 422 587 421 577 421 L566 421 L566 436 L626 436 L633 436 L661 436 L661 436 Z " />
<glyph glyph-name="x" unicode="x" horiz-adv-x="528" d="M446 436 L446 421 L439 421 C426 421 415 419 405 413 C396 407 383 395 367 375 L258 240 L405 80 L405 80 C418 66 428 56 436 47 C445 39 452 32 458 27 C464 23 470 20 474 18 C479 16 484 15 488 15 L493 15 L493 0 L478 0 L465 0 L453 0 L410 0 L410 15 L415 15 C425 15 428 19 424 26 C421 34 408 50 384 75 L247 226 L136 80 L136 80 C136 80 137 79 136 79 C136 79 135 79 135 78 L124 64 C109 44 101 30 103 24 C105 18 116 15 135 15 L144 15 L144 0 L75 0 L72 0 L68 0 L31 0 L31 15 L38 15 C54 15 66 17 76 23 C86 29 99 42 114 60 L242 227 L244 227 L245 228 L128 356 L128 356 L127 357 L107 379 C91 397 78 408 69 413 C61 419 51 421 39 421 L34 421 L34 436 L55 436 L67 436 L79 436 L131 436 L131 421 L125 421 C112 421 107 418 109 411 C112 405 124 389 145 364 L256 242 L345 356 L345 356 C367 384 377 401 379 409 C381 417 374 421 357 421 L351 421 L351 436 L408 436 L411 436 L415 436 L446 436 L446 436 Z " />
<glyph glyph-name="y" unicode="y" horiz-adv-x="518" d="M484 436 L484 421 L477 421 C464 421 455 419 447 413 C440 407 432 395 422 375 L265 -10 L240 -71 C242 -65 242 -61 239 -59 L261 -7 L109 381 C101 399 94 410 87 414 C81 419 71 421 57 421 L50 421 L50 436 L87 436 L99 436 L110 436 L153 436 L153 421 L148 421 C134 421 128 418 126 410 C125 402 130 384 141 356 L140 356 L271 12 L408 356 L408 356 C420 384 425 401 424 409 C424 417 417 421 403 421 L397 421 L397 436 L440 436 L444 436 L447 436 L484 436 L484 436 Z M240 -71 L240 -72 L240 -71 L240 -71 Z M239 -59 L239 -59 L239 -58 C239 -62 237 -65 235 -69 L239 -59 L239 -59 Z M235 -69 L235 -70 L235 -69 L235 -69 Z M239 -58 L239 -58 C234 -54 223 -53 205 -52 C188 -50 160 -50 122 -50 C103 -50 89 -48 81 -44 C73 -39 69 -32 69 -22 C69 -16 73 -13 79 -13 C85 -13 90 -14 94 -17 C99 -19 103 -21 107 -25 C111 -28 115 -30 119 -33 C124 -35 129 -37 135 -37 C177 -37 205 -38 219 -41 C234 -43 241 -49 239 -58 L239 -58 Z " />
<glyph glyph-name="z" unicode="z" horiz-adv-x="463" d="M410 91 C412 91 414 90 416 89 C421 88 425 87 428 86 C425 71 422 57 419 44 C417 32 414 18 410 2 C410 2 411 1 410 1 C410 1 409 1 409 0 L408 0 L329 0 L63 0 L51 0 L39 0 L388 432 L182 431 L182 431 C166 431 151 432 139 430 C127 429 117 428 107 424 C97 421 88 417 78 411 C69 405 58 398 46 388 L37 380 L25 380 C29 390 32 399 34 407 C37 415 40 424 43 434 C43 436 44 436 44 436 L50 436 L124 436 L391 436 L402 436 L414 436 L66 4 L265 5 L265 5 C285 5 300 5 313 7 C327 9 337 12 347 17 C357 23 366 29 374 39 C383 49 392 62 402 78 L410 91 L410 91 Z " />
<glyph glyph-name="braceleft" unicode="&#x7b;" horiz-adv-x="239" d="M225 -26 L185 -26 C141 -26 109 -16 90 2 C72 21 62 53 62 97 L62 251 C62 258 59 263 51 265 C43 268 30 269 10 269 L5 269 L5 272 L10 272 C30 272 42 279 50 293 C58 308 62 333 62 367 L62 444 C62 489 72 521 90 539 C109 558 141 567 185 567 L225 567 L225 564 L189 564 C149 564 121 555 103 537 C86 519 77 488 77 444 L77 378 C77 342 74 317 66 300 C58 284 45 274 27 271 C45 270 57 267 65 262 C73 258 77 250 77 240 L77 97 C77 53 85 22 102 4 C120 -14 149 -23 189 -23 L225 -23 L225 -26 L225 -26 Z " />
<glyph glyph-name="bar" unicode="&#x7c;" horiz-adv-x="135" d="M60 706 L76 706 L76 -90 L60 -90 L60 706 L60 706 Z " />
<glyph glyph-name="braceright" unicode="&#x7d;" horiz-adv-x="239" d="M5 567 L45 567 C90 567 122 558 140 539 C159 521 168 489 168 444 L168 289 C168 283 171 279 179 276 C187 274 201 272 220 272 L225 272 L225 269 L220 269 C201 269 188 263 180 248 C172 234 168 209 168 174 L168 97 C168 53 159 21 140 2 C122 -16 90 -26 45 -26 L5 -26 L5 -23 L41 -23 C82 -23 110 -14 127 4 C145 22 153 53 153 97 L153 162 C153 198 156 225 164 241 C172 258 185 268 203 270 C185 272 173 274 165 278 C157 283 153 291 153 301 L153 444 C153 488 146 519 128 537 C111 555 82 564 41 564 L5 564 L5 567 L5 567 Z " />
<glyph glyph-name="nbspace" unicode="&#xa0;" horiz-adv-x="226" d="" />
<glyph glyph-name="exclamdown" unicode="&#xa1;" horiz-adv-x="153" d="M79 441 C93 441 99 435 99 421 C99 408 93 401 79 401 C66 401 59 408 59 421 C59 435 66 441 79 441 L79 441 Z M60 -91 L77 326 L80 326 L100 -91 C102 -107 101 -117 97 -125 C94 -132 88 -136 80 -136 C72 -136 68 -133 64 -126 C61 -118 60 -107 60 -91 L60 -91 Z " />
<glyph glyph-name="cent" unicode="&#xa2;" horiz-adv-x="460" d="M274 511 L287 511 L287 441 L295 441 C335 441 362 435 379 421 C397 407 407 383 410 349 C410 343 407 340 401 340 C395 340 392 344 391 350 C389 382 380 403 365 416 C351 430 327 436 293 436 L287 436 L287 7 C323 9 350 11 368 13 C386 16 399 20 406 26 L408 24 C398 16 384 10 365 5 C347 1 321 -2 287 -4 L287 -75 L274 -75 L274 -4 C267 -4 260 -5 252 -5 C245 -5 237 -5 229 -5 C197 -5 169 -2 146 6 C124 14 106 26 91 43 C77 61 67 83 60 109 C54 136 50 169 50 207 C50 248 54 282 62 311 C70 341 83 365 101 383 C119 402 142 416 170 425 C199 435 234 440 274 441 L274 511 L274 511 Z M274 7 L274 436 C238 435 207 430 181 421 C155 413 135 400 118 382 C102 364 90 342 82 314 C75 287 71 254 71 215 C71 177 74 146 80 119 C87 93 97 72 111 55 C125 39 143 27 165 19 C187 11 214 7 246 7 L274 7 L274 7 Z " />
<glyph glyph-name="guillemotleft" unicode="&#xab;" horiz-adv-x="466" d="M214 219 L421 39 L419 36 L191 217 L191 219 L418 400 L421 398 L214 219 L214 219 Z M42 219 L250 39 L247 36 L20 217 L20 219 L247 400 L249 398 L42 219 L42 219 Z " />
<glyph glyph-name="guillemotright" unicode="&#xbb;" horiz-adv-x="466" d="M252 219 L46 398 L48 400 L275 219 L275 217 L47 36 L45 39 L252 219 L252 219 Z M424 219 L217 398 L219 400 L446 219 L446 217 L219 36 L216 39 L424 219 L424 219 Z " />
<glyph glyph-name="questiondown" unicode="&#xbf;" horiz-adv-x="371" d="M228 441 C242 441 248 435 248 421 C248 408 242 401 228 401 C215 401 208 408 208 421 C208 435 215 441 228 441 L228 441 Z M233 127 C233 125 232 124 229 124 L194 124 C155 124 126 123 104 117 C83 112 68 105 58 97 C49 89 44 81 42 71 C41 61 40 52 40 42 C40 -16 53 -58 83 -83 C113 -107 164 -120 234 -120 C245 -120 252 -118 258 -112 C264 -106 270 -100 274 -93 C279 -85 283 -79 289 -73 C295 -67 304 -64 314 -64 C322 -64 326 -64 326 -66 C326 -91 320 -109 307 -120 C295 -130 272 -136 240 -136 C204 -136 172 -132 146 -126 C120 -119 99 -109 82 -95 C66 -80 54 -61 46 -39 C39 -16 35 12 35 44 C35 54 36 65 37 76 C39 88 44 98 53 107 C63 117 78 124 98 130 C119 136 149 139 187 139 L222 139 L226 343 L229 343 L233 127 L233 127 Z " />
<glyph glyph-name="Agrave" unicode="&#xc0;" horiz-adv-x="553" d="M544 15 L544 0 L509 0 L497 0 L485 0 L428 0 L428 15 L436 15 C453 15 463 18 466 24 C470 30 468 43 460 63 L404 205 L133 205 L91 95 L92 95 C79 61 73 40 75 30 C78 20 90 15 110 15 L118 15 L118 0 L55 0 L52 0 L48 0 L11 0 L11 15 L17 15 C32 15 42 18 49 24 C57 30 65 44 73 65 L272 580 L277 580 L477 80 C483 66 487 56 491 47 C496 39 500 32 504 27 C509 23 514 20 519 18 C525 16 531 15 538 15 L544 15 L544 15 Z M249 738 L351 600 L349 598 L239 730 C223 750 212 764 204 772 C197 781 193 786 193 788 C193 790 195 791 197 793 C200 795 202 796 204 796 C206 796 210 792 216 783 C223 775 234 760 249 738 L249 738 Z M402 210 L267 554 L135 210 L402 210 L402 210 Z " />
<glyph glyph-name="Aacute" unicode="&#xc1;" horiz-adv-x="553" d="M211 598 L209 600 L308 738 C324 760 335 775 341 783 C348 792 352 796 352 796 C354 796 357 795 359 793 C362 791 363 790 363 788 C363 787 360 783 353 774 C347 766 335 751 318 730 L211 598 L211 598 Z M544 15 L544 0 L509 0 L497 0 L485 0 L428 0 L428 15 L436 15 C453 15 463 18 466 24 C470 30 468 43 460 63 L404 205 L133 205 L91 95 L92 95 C79 61 73 40 75 30 C78 20 90 15 110 15 L118 15 L118 0 L55 0 L52 0 L48 0 L11 0 L11 15 L17 15 C32 15 42 18 49 24 C57 30 65 44 73 65 L272 580 L277 580 L477 80 C483 66 487 56 491 47 C496 39 500 32 504 27 C509 23 514 20 519 18 C525 16 531 15 538 15 L544 15 L544 15 Z M402 210 L267 554 L135 210 L402 210 L402 210 Z " />
<glyph glyph-name="Acircumflex" unicode="&#xc2;" horiz-adv-x="553" d="M544 15 L544 0 L509 0 L497 0 L485 0 L428 0 L428 15 L436 15 C453 15 463 18 466 24 C470 30 468 43 460 63 L404 205 L133 205 L91 95 L92 95 C79 61 73 40 75 30 C78 20 90 15 110 15 L118 15 L118 0 L55 0 L52 0 L48 0 L11 0 L11 15 L17 15 C32 15 42 18 49 24 C57 30 65 44 73 65 L272 580 L277 580 L477 80 C483 66 487 56 491 47 C496 39 500 32 504 27 C509 23 514 20 519 18 C525 16 531 15 538 15 L544 15 L544 15 Z M275 789 L159 601 L157 603 L268 806 C269 808 269 809 270 810 C272 812 273 812 275 812 C277 812 277 812 278 810 C280 809 281 808 281 806 L392 603 L390 601 L275 789 L275 789 Z M402 210 L267 554 L135 210 L402 210 L402 210 Z " />
<glyph glyph-name="Atilde" unicode="&#xc3;" horiz-adv-x="553" d="M127 662 L124 662 C124 694 129 716 137 728 C146 741 161 747 181 747 C201 747 217 744 232 737 C248 731 262 724 276 716 C290 708 305 701 320 694 C336 688 353 684 371 684 C390 684 402 689 410 698 C418 708 422 723 422 744 L425 744 C425 718 421 700 412 688 C404 677 389 671 367 671 C349 671 332 675 316 681 C301 688 286 694 272 702 C258 710 245 718 229 724 C214 731 197 734 177 734 C159 734 147 730 139 718 C131 707 127 688 127 662 L127 662 Z M544 15 L544 0 L509 0 L497 0 L485 0 L428 0 L428 15 L436 15 C453 15 463 18 466 24 C470 30 468 43 460 63 L404 205 L133 205 L91 95 L92 95 C79 61 73 40 75 30 C78 20 90 15 110 15 L118 15 L118 0 L55 0 L52 0 L48 0 L11 0 L11 15 L17 15 C32 15 42 18 49 24 C57 30 65 44 73 65 L272 580 L277 580 L477 80 C483 66 487 56 491 47 C496 39 500 32 504 27 C509 23 514 20 519 18 C525 16 531 15 538 15 L544 15 L544 15 Z M402 210 L267 554 L135 210 L402 210 L402 210 Z " />
<glyph glyph-name="Adieresis" unicode="&#xc4;" horiz-adv-x="553" d="M358 637 C345 637 338 644 338 657 C338 671 345 677 358 677 C372 677 378 671 378 657 C378 644 372 637 358 637 L358 637 Z M191 637 C178 637 171 644 171 657 C171 671 178 677 191 677 C205 677 211 671 211 657 C211 644 205 637 191 637 L191 637 Z M544 15 L544 0 L509 0 L497 0 L485 0 L428 0 L428 15 L436 15 C453 15 463 18 466 24 C470 30 468 43 460 63 L404 205 L133 205 L91 95 L92 95 C79 61 73 40 75 30 C78 20 90 15 110 15 L118 15 L118 0 L55 0 L52 0 L48 0 L11 0 L11 15 L17 15 C32 15 42 18 49 24 C57 30 65 44 73 65 L272 580 L277 580 L477 80 C483 66 487 56 491 47 C496 39 500 32 504 27 C509 23 514 20 519 18 C525 16 531 15 538 15 L544 15 L544 15 Z M402 210 L267 554 L135 210 L402 210 L402 210 Z " />
<glyph glyph-name="Aring" unicode="&#xc5;" horiz-adv-x="553" d="M275 606 C333 606 362 636 362 694 C362 726 357 749 343 762 C330 776 307 782 275 782 C243 782 221 776 207 762 C194 749 187 726 187 694 C187 636 217 606 275 606 L275 606 Z M181 694 C181 728 188 752 202 766 C217 780 241 787 275 787 C309 787 333 780 347 766 C361 752 368 728 368 694 C368 633 337 602 275 602 C213 602 181 633 181 694 L181 694 Z M544 15 L544 0 L509 0 L497 0 L485 0 L428 0 L428 15 L436 15 C453 15 463 18 466 24 C470 30 468 43 460 63 L404 205 L133 205 L91 95 L92 95 C79 61 73 40 75 30 C78 20 90 15 110 15 L118 15 L118 0 L55 0 L52 0 L48 0 L11 0 L11 15 L17 15 C32 15 42 18 49 24 C57 30 65 44 73 65 L272 580 L277 580 L477 80 C483 66 487 56 491 47 C496 39 500 32 504 27 C509 23 514 20 519 18 C525 16 531 15 538 15 L544 15 L544 15 Z M402 210 L267 554 L135 210 L402 210 L402 210 Z " />
<glyph glyph-name="Ccedilla" unicode="&#xc7;" horiz-adv-x="732" d="M677 485 L664 485 C662 489 659 491 657 494 C655 498 653 501 650 504 C636 524 619 538 599 548 C579 558 553 564 521 565 C506 566 489 566 470 566 C452 566 432 566 410 566 C354 566 305 562 265 551 C225 541 193 525 167 502 C142 480 124 450 112 414 C101 378 95 335 95 283 C95 233 101 189 112 153 C124 117 142 89 167 66 C193 44 225 28 265 17 C305 7 354 1 410 1 L468 1 C518 3 556 8 584 17 C612 27 634 42 650 63 C653 67 655 69 657 72 C659 76 662 79 664 82 L677 82 L672 7 L672 7 L672 4 C664 2 652 2 638 0 C624 -1 608 -2 586 -3 C565 -3 540 -3 511 -4 C483 -4 449 -5 410 -5 C349 -5 298 0 254 10 C211 21 177 37 149 60 C122 84 103 114 90 150 C78 187 71 231 71 283 C71 336 77 381 89 417 C102 454 121 483 148 506 C176 530 210 546 253 556 C297 567 349 572 410 572 C449 572 483 573 511 572 C540 572 564 571 585 570 C607 570 624 570 638 568 C652 567 664 565 672 563 L672 560 L672 560 L677 485 L677 485 Z " />
<glyph glyph-name="Egrave" unicode="&#xc8;" horiz-adv-x="487" d="M340 251 L328 251 L324 258 C320 268 316 275 311 280 C307 286 301 289 293 292 C286 296 277 297 265 298 C253 300 238 300 220 300 L105 300 L105 6 L252 6 L272 6 C290 6 304 7 316 9 C328 11 338 14 348 19 C358 25 368 31 376 39 C385 48 394 59 404 71 L413 83 L424 83 C421 69 418 55 415 43 C413 31 410 18 406 3 L406 0 L405 0 L326 0 L105 0 L94 0 L83 0 L40 0 L40 15 L46 15 C62 15 72 19 76 27 C81 35 83 53 83 80 L83 487 C83 515 82 532 77 540 C73 548 62 552 46 552 L40 552 L40 567 L83 567 L94 567 L105 567 L318 567 L395 567 L398 567 L398 564 C400 550 401 536 401 524 C402 512 403 499 403 484 L392 484 L385 495 C377 509 368 521 360 529 C352 538 343 545 333 549 C323 554 311 556 297 558 C283 560 266 561 244 561 L105 561 L105 305 L220 305 C238 305 252 305 264 306 C276 308 286 310 293 312 C301 315 307 319 311 323 C316 328 320 334 324 342 L328 348 L340 348 L340 305 L340 302 L340 300 L340 251 L340 251 Z M198 738 L300 600 L298 598 L188 730 C171 750 159 764 152 772 C146 781 142 786 142 788 C142 790 144 791 146 793 C149 795 151 796 153 796 C155 796 159 792 165 783 C172 775 183 760 198 738 L198 738 Z " />
<glyph glyph-name="Eacute" unicode="&#xc9;" horiz-adv-x="487" d="M206 598 L204 600 L303 738 C319 760 330 775 336 783 C343 792 347 796 347 796 C349 796 352 795 354 793 C357 791 358 790 358 788 C359 787 357 783 349 774 C342 766 330 751 313 730 L206 598 L206 598 Z M340 251 L328 251 L324 258 C320 268 316 275 311 280 C307 286 301 289 293 292 C286 296 277 297 265 298 C253 300 238 300 220 300 L105 300 L105 6 L252 6 L272 6 C290 6 304 7 316 9 C328 11 338 14 348 19 C358 25 368 31 376 39 C385 48 394 59 404 71 L413 83 L424 83 C421 69 418 55 415 43 C413 31 410 18 406 3 L406 0 L405 0 L326 0 L105 0 L94 0 L83 0 L40 0 L40 15 L46 15 C62 15 72 19 76 27 C81 35 83 53 83 80 L83 487 C83 515 82 532 77 540 C73 548 62 552 46 552 L40 552 L40 567 L83 567 L94 567 L105 567 L318 567 L395 567 L398 567 L398 564 C400 550 401 536 401 524 C402 512 403 499 403 484 L392 484 L385 495 C377 509 368 521 360 529 C352 538 343 545 333 549 C323 554 311 556 297 558 C283 560 266 561 244 561 L105 561 L105 305 L220 305 C238 305 252 305 264 306 C276 308 286 310 293 312 C301 315 307 319 311 323 C316 328 320 334 324 342 L328 348 L340 348 L340 305 L340 302 L340 300 L340 251 L340 251 Z " />
<glyph glyph-name="Ecircumflex" unicode="&#xca;" horiz-adv-x="487" d="M340 251 L328 251 L324 258 C320 268 316 275 311 280 C307 286 301 289 293 292 C286 296 277 297 265 298 C253 300 238 300 220 300 L105 300 L105 6 L252 6 L272 6 C290 6 304 7 316 9 C328 11 338 14 348 19 C358 25 368 31 376 39 C385 48 394 59 404 71 L413 83 L424 83 C421 69 418 55 415 43 C413 31 410 18 406 3 L406 0 L405 0 L326 0 L105 0 L94 0 L83 0 L40 0 L40 15 L46 15 C62 15 72 19 76 27 C81 35 83 53 83 80 L83 487 C83 515 82 532 77 540 C73 548 62 552 46 552 L40 552 L40 567 L83 567 L94 567 L105 567 L318 567 L395 567 L398 567 L398 564 C400 550 401 536 401 524 C402 512 403 499 403 484 L392 484 L385 495 C377 509 368 521 360 529 C352 538 343 545 333 549 C323 554 311 556 297 558 C283 560 266 561 244 561 L105 561 L105 305 L220 305 C238 305 252 305 264 306 C276 308 286 310 293 312 C301 315 307 319 311 323 C316 328 320 334 324 342 L328 348 L340 348 L340 305 L340 302 L340 300 L340 251 L340 251 Z M239 790 L124 601 L122 603 L233 806 C234 808 234 809 235 810 C237 812 238 812 239 812 C241 812 241 812 242 810 C244 809 245 808 245 806 L356 603 L354 601 L239 790 L239 790 Z " />
<glyph glyph-name="Edieresis" unicode="&#xcb;" horiz-adv-x="487" d="M323 637 C310 637 303 644 303 657 C303 671 310 677 323 677 C337 677 343 671 343 657 C343 644 337 637 323 637 L323 637 Z M155 637 C142 637 135 644 135 657 C135 671 142 677 155 677 C169 677 175 671 175 657 C175 644 169 637 155 637 L155 637 Z M340 251 L328 251 L324 258 C320 268 316 275 311 280 C307 286 301 289 293 292 C286 296 277 297 265 298 C253 300 238 300 220 300 L105 300 L105 6 L252 6 L272 6 C290 6 304 7 316 9 C328 11 338 14 348 19 C358 25 368 31 376 39 C385 48 394 59 404 71 L413 83 L424 83 C421 69 418 55 415 43 C413 31 410 18 406 3 L406 0 L405 0 L326 0 L105 0 L94 0 L83 0 L40 0 L40 15 L46 15 C62 15 72 19 76 27 C81 35 83 53 83 80 L83 487 C83 515 82 532 77 540 C73 548 62 552 46 552 L40 552 L40 567 L83 567 L94 567 L105 567 L318 567 L395 567 L398 567 L398 564 C400 550 401 536 401 524 C402 512 403 499 403 484 L392 484 L385 495 C377 509 368 521 360 529 C352 538 343 545 333 549 C323 554 311 556 297 558 C283 560 266 561 244 561 L105 561 L105 305 L220 305 C238 305 252 305 264 306 C276 308 286 310 293 312 C301 315 307 319 311 323 C316 328 320 334 324 342 L328 348 L340 348 L340 305 L340 302 L340 300 L340 251 L340 251 Z " />
<glyph glyph-name="Igrave" unicode="&#xcc;" horiz-adv-x="188" d="M40 552 L40 567 L83 567 L94 567 L105 567 L148 567 C149 567 149 565 148 559 C149 555 149 552 148 552 L142 552 C127 552 118 548 113 540 C109 532 106 515 105 487 L105 80 C106 53 108 35 112 27 C117 19 127 15 142 15 L148 15 C149 15 149 13 148 8 C149 3 149 0 148 0 L105 0 L94 0 L83 0 L40 0 L40 15 L46 15 C62 15 72 19 76 27 C81 35 83 53 83 80 L83 487 C83 515 82 532 77 540 C73 548 62 552 46 552 L40 552 L40 552 Z M69 738 L171 600 L169 598 L59 730 C42 750 31 764 23 772 C16 781 12 786 12 788 C12 790 13 791 16 793 C20 795 22 796 24 796 C26 796 30 792 36 783 C43 775 54 760 69 738 L69 738 Z " />
<glyph glyph-name="Iacute" unicode="&#xcd;" horiz-adv-x="188" d="M31 598 L29 600 L128 738 C144 760 154 775 160 783 C167 792 171 796 172 796 C174 796 177 795 179 793 C182 791 183 790 183 788 C183 787 180 783 173 774 C167 766 155 751 138 730 L31 598 L31 598 Z M40 552 L40 567 L83 567 L94 567 L105 567 L148 567 C149 567 149 565 148 559 C149 555 149 552 148 552 L142 552 C127 552 118 548 113 540 C109 532 106 515 105 487 L105 80 C106 53 108 35 112 27 C117 19 127 15 142 15 L148 15 C149 15 149 13 148 8 C149 3 149 0 148 0 L105 0 L94 0 L83 0 L40 0 L40 15 L46 15 C62 15 72 19 76 27 C81 35 83 53 83 80 L83 487 C83 515 82 532 77 540 C73 548 62 552 46 552 L40 552 L40 552 Z " />
<glyph glyph-name="Icircumflex" unicode="&#xce;" horiz-adv-x="188" d="M40 552 L40 567 L83 567 L94 567 L105 567 L148 567 C149 567 149 565 148 559 C149 555 149 552 148 552 L142 552 C127 552 118 548 113 540 C109 532 106 515 105 487 L105 80 C106 53 108 35 112 27 C117 19 127 15 142 15 L148 15 C149 15 149 13 148 8 C149 3 149 0 148 0 L105 0 L94 0 L83 0 L40 0 L40 15 L46 15 C62 15 72 19 76 27 C81 35 83 53 83 80 L83 487 C83 515 82 532 77 540 C73 548 62 552 46 552 L40 552 L40 552 Z M95 789 L-21 601 L-23 603 L88 806 C89 808 89 809 90 810 C92 812 93 812 94 812 C96 812 96 812 97 810 C99 809 100 808 101 806 L212 603 L210 601 L95 789 L95 789 Z " />
<glyph glyph-name="Idieresis" unicode="&#xcf;" horiz-adv-x="188" d="M178 637 C165 637 158 644 158 657 C158 671 165 677 178 677 C192 677 198 671 198 657 C198 644 192 637 178 637 L178 637 Z M11 637 C-2 637 -9 644 -9 657 C-9 671 -2 677 11 677 C25 677 31 671 31 657 C31 644 25 637 11 637 L11 637 Z M40 552 L40 567 L83 567 L94 567 L105 567 L148 567 C149 567 149 565 148 559 C149 555 149 552 148 552 L142 552 C127 552 118 548 113 540 C109 532 106 515 105 487 L105 80 C106 53 108 35 112 27 C117 19 127 15 142 15 L148 15 C149 15 149 13 148 8 C149 3 149 0 148 0 L105 0 L94 0 L83 0 L40 0 L40 15 L46 15 C62 15 72 19 76 27 C81 35 83 53 83 80 L83 487 C83 515 82 532 77 540 C73 548 62 552 46 552 L40 552 L40 552 Z " />
<glyph glyph-name="Ntilde" unicode="&#xd1;" horiz-adv-x="629" d="M172 662 L169 662 C169 694 174 716 182 728 C191 741 206 747 226 747 C246 747 262 744 277 737 C293 731 307 724 321 716 C335 708 350 701 365 694 C381 688 398 684 416 684 C435 684 447 689 455 698 C463 708 467 723 467 744 L470 744 C470 718 466 700 457 688 C449 677 434 671 412 671 C394 671 377 675 361 681 C346 688 331 694 317 702 C303 710 290 718 274 724 C259 731 242 734 222 734 C204 734 192 730 184 718 C176 707 172 688 172 662 L172 662 Z M594 567 L594 552 L587 552 C572 552 563 548 558 540 C554 532 551 515 551 487 L551 17 L551 -4 L545 -4 L534 9 L95 548 L95 80 C95 53 97 35 101 27 C106 19 116 15 132 15 L138 15 L138 0 L95 0 L92 0 L88 0 L45 0 L45 15 L52 15 C68 15 77 19 81 27 C86 35 88 53 88 80 L88 487 C88 515 87 532 82 540 C78 548 68 552 52 552 L45 552 L45 567 L88 567 L92 567 L95 567 L108 567 L95 558 L95 558 L108 567 L544 31 L544 487 C544 515 543 532 538 540 C534 548 523 552 507 552 L501 552 L501 567 L544 567 L547 567 L551 567 L594 567 L594 567 Z " />
<glyph glyph-name="Ograve" unicode="&#xd2;" horiz-adv-x="765" d="M393 1 C453 1 502 7 540 19 C579 31 609 49 631 73 C654 97 670 126 678 161 C687 197 691 237 691 283 C691 329 687 370 678 405 C670 441 655 470 632 494 C610 518 579 536 540 548 C502 560 453 566 393 566 C334 566 285 560 246 548 C208 536 178 518 155 494 C133 470 117 441 108 405 C100 370 95 329 95 283 C95 237 100 198 108 162 C117 127 132 97 154 73 C177 49 208 31 246 19 C285 7 334 1 393 1 L393 1 Z M71 283 C71 331 76 372 85 408 C95 444 111 474 135 498 C160 523 192 541 234 553 C276 566 329 572 393 572 C457 572 509 567 551 554 C593 542 626 524 650 499 C675 475 692 444 701 408 C711 372 715 331 715 283 C715 237 711 195 701 159 C692 123 676 94 651 69 C627 45 594 27 552 14 C510 2 457 -5 393 -5 C329 -5 277 1 235 13 C193 26 161 44 136 68 C112 93 95 123 85 159 C76 195 71 237 71 283 L71 283 Z M368 738 L470 600 L468 598 L358 730 C341 750 330 764 322 772 C315 781 311 786 311 788 C311 790 313 791 315 793 C318 795 321 796 323 796 C325 796 329 792 335 783 C342 775 353 760 368 738 L368 738 Z " />
<glyph glyph-name="Oacute" unicode="&#xd3;" horiz-adv-x="765" d="M368 598 L365 600 L464 738 C480 760 491 775 497 783 C504 792 508 796 508 796 C511 796 514 795 516 793 C519 791 520 790 520 788 C520 787 517 783 510 774 C504 766 492 751 475 730 L368 598 L368 598 Z M393 1 C453 1 502 7 540 19 C579 31 609 49 631 73 C654 97 670 126 678 161 C687 197 691 237 691 283 C691 329 687 370 678 405 C670 441 655 470 632 494 C610 518 579 536 540 548 C502 560 453 566 393 566 C334 566 285 560 246 548 C208 536 178 518 155 494 C133 470 117 441 108 405 C100 370 95 329 95 283 C95 237 100 198 108 162 C117 127 132 97 154 73 C177 49 208 31 246 19 C285 7 334 1 393 1 L393 1 Z M71 283 C71 331 76 372 85 408 C95 444 111 474 135 498 C160 523 192 541 234 553 C276 566 329 572 393 572 C457 572 509 567 551 554 C593 542 626 524 650 499 C675 475 692 444 701 408 C711 372 715 331 715 283 C715 237 711 195 701 159 C692 123 676 94 651 69 C627 45 594 27 552 14 C510 2 457 -5 393 -5 C329 -5 277 1 235 13 C193 26 161 44 136 68 C112 93 95 123 85 159 C76 195 71 237 71 283 L71 283 Z " />
<glyph glyph-name="Ocircumflex" unicode="&#xd4;" horiz-adv-x="765" d="M393 1 C453 1 502 7 540 19 C579 31 609 49 631 73 C654 97 670 126 678 161 C687 197 691 237 691 283 C691 329 687 370 678 405 C670 441 655 470 632 494 C610 518 579 536 540 548 C502 560 453 566 393 566 C334 566 285 560 246 548 C208 536 178 518 155 494 C133 470 117 441 108 405 C100 370 95 329 95 283 C95 237 100 198 108 162 C117 127 132 97 154 73 C177 49 208 31 246 19 C285 7 334 1 393 1 L393 1 Z M71 283 C71 331 76 372 85 408 C95 444 111 474 135 498 C160 523 192 541 234 553 C276 566 329 572 393 572 C457 572 509 567 551 554 C593 542 626 524 650 499 C675 475 692 444 701 408 C711 372 715 331 715 283 C715 237 711 195 701 159 C692 123 676 94 651 69 C627 45 594 27 552 14 C510 2 457 -5 393 -5 C329 -5 277 1 235 13 C193 26 161 44 136 68 C112 93 95 123 85 159 C76 195 71 237 71 283 L71 283 Z M393 790 L278 601 L276 603 L387 806 C388 808 388 809 389 810 C391 812 392 812 393 812 C395 812 395 812 396 810 C398 809 399 808 399 806 L510 603 L508 601 L393 790 L393 790 Z " />
<glyph glyph-name="Otilde" unicode="&#xd5;" horiz-adv-x="765" d="M246 662 L242 662 C242 694 247 716 255 728 C264 741 279 747 299 747 C319 747 335 744 350 737 C366 731 380 724 394 716 C409 708 423 701 438 694 C454 688 471 684 490 684 C508 684 520 689 528 698 C536 708 540 723 540 744 L544 744 C544 718 541 700 531 688 C522 677 507 671 485 671 C467 671 451 675 435 681 C420 688 406 694 391 702 C377 710 363 718 347 724 C332 731 315 734 295 734 C278 734 266 730 258 718 C250 707 246 688 246 662 L246 662 Z M393 1 C453 1 502 7 540 19 C579 31 609 49 631 73 C654 97 670 126 678 161 C687 197 691 237 691 283 C691 329 687 370 678 405 C670 441 655 470 632 494 C610 518 579 536 540 548 C502 560 453 566 393 566 C334 566 285 560 246 548 C208 536 178 518 155 494 C133 470 117 441 108 405 C100 370 95 329 95 283 C95 237 100 198 108 162 C117 127 132 97 154 73 C177 49 208 31 246 19 C285 7 334 1 393 1 L393 1 Z M71 283 C71 331 76 372 85 408 C95 444 111 474 135 498 C160 523 192 541 234 553 C276 566 329 572 393 572 C457 572 509 567 551 554 C593 542 626 524 650 499 C675 475 692 444 701 408 C711 372 715 331 715 283 C715 237 711 195 701 159 C692 123 676 94 651 69 C627 45 594 27 552 14 C510 2 457 -5 393 -5 C329 -5 277 1 235 13 C193 26 161 44 136 68 C112 93 95 123 85 159 C76 195 71 237 71 283 L71 283 Z " />
<glyph glyph-name="Odieresis" unicode="&#xd6;" horiz-adv-x="765" d="M477 637 C464 637 457 644 457 657 C457 671 464 677 477 677 C491 677 497 671 497 657 C497 644 491 637 477 637 L477 637 Z M309 637 C296 637 289 644 289 657 C289 671 296 677 309 677 C323 677 329 671 329 657 C329 644 323 637 309 637 L309 637 Z M393 1 C453 1 502 7 540 19 C579 31 609 49 631 73 C654 97 670 126 678 161 C687 197 691 237 691 283 C691 329 687 370 678 405 C670 441 655 470 632 494 C610 518 579 536 540 548 C502 560 453 566 393 566 C334 566 285 560 246 548 C208 536 178 518 155 494 C133 470 117 441 108 405 C100 370 95 329 95 283 C95 237 100 198 108 162 C117 127 132 97 154 73 C177 49 208 31 246 19 C285 7 334 1 393 1 L393 1 Z M71 283 C71 331 76 372 85 408 C95 444 111 474 135 498 C160 523 192 541 234 553 C276 566 329 572 393 572 C457 572 509 567 551 554 C593 542 626 524 650 499 C675 475 692 444 701 408 C711 372 715 331 715 283 C715 237 711 195 701 159 C692 123 676 94 651 69 C627 45 594 27 552 14 C510 2 457 -5 393 -5 C329 -5 277 1 235 13 C193 26 161 44 136 68 C112 93 95 123 85 159 C76 195 71 237 71 283 L71 283 Z " />
<glyph glyph-name="Oslash" unicode="&#xd8;" horiz-adv-x="765" d="M74 -9 L68 -1 L140 64 C114 88 96 119 86 155 C76 192 71 235 71 283 C71 331 76 372 85 408 C95 444 111 474 135 498 C160 523 192 541 234 553 C276 566 329 572 393 572 C453 572 501 568 541 557 C581 547 614 531 638 510 L712 576 L718 568 L646 503 C672 479 690 449 700 412 C710 376 715 333 715 283 C715 237 711 195 701 159 C692 123 676 94 651 69 C627 45 594 27 552 14 C510 2 457 -5 393 -5 C334 -5 285 0 245 10 C205 21 173 37 148 57 L74 -9 L74 -9 Z M393 1 L393 1 C453 1 502 7 540 19 C579 31 609 49 631 73 C654 97 670 126 678 161 C687 197 691 237 691 283 C691 329 687 370 678 404 C670 439 655 468 633 492 L160 68 C183 46 213 30 250 18 C288 7 335 1 393 1 L393 1 Z M153 75 L626 499 C604 521 574 538 536 549 C499 561 451 566 393 566 C334 566 285 560 246 548 C208 536 178 518 155 494 C133 470 117 441 108 405 C100 370 95 329 95 283 C95 237 100 198 108 163 C117 129 132 99 153 75 L153 75 Z " />
<glyph glyph-name="Ugrave" unicode="&#xd9;" horiz-adv-x="631" d="M611 567 L611 552 L604 552 C596 552 589 552 583 550 C577 548 574 545 570 539 C567 533 566 526 564 516 C563 506 562 493 562 477 L562 149 C562 121 560 98 554 78 C549 58 538 42 522 30 C506 18 484 10 453 4 C423 -2 382 -5 332 -5 C280 -5 239 -2 207 4 C176 11 153 21 135 35 C118 50 107 68 101 91 C96 115 93 143 93 175 L93 487 C93 515 92 532 87 540 C83 548 72 552 56 552 L49 552 L49 567 L93 567 L104 567 L115 567 L158 567 L158 552 L151 552 C136 552 127 548 122 540 C118 532 115 515 115 487 L115 170 C115 140 117 115 122 93 C128 72 137 55 153 41 C169 28 192 18 220 12 C249 6 287 3 335 3 C383 3 422 6 450 11 C479 17 500 25 516 37 C532 49 542 65 547 83 C553 102 555 125 555 151 L556 493 C556 519 553 534 547 541 C541 549 530 552 512 552 L504 552 L504 567 L556 567 L559 567 L562 567 L611 567 L611 567 Z M302 738 L404 600 L402 598 L292 730 C275 750 264 764 256 772 C249 781 246 786 246 788 C246 790 246 791 249 793 C253 795 255 796 257 796 C259 796 263 792 269 783 C276 775 287 760 302 738 L302 738 Z " />
<glyph glyph-name="Uacute" unicode="&#xda;" horiz-adv-x="631" d="M325 598 L323 600 L422 738 C438 760 448 775 454 783 C461 792 465 796 466 796 C468 796 471 795 473 793 C476 791 477 790 477 788 C477 787 474 783 467 774 C461 766 449 751 432 730 L325 598 L325 598 Z M611 567 L611 552 L604 552 C596 552 589 552 583 550 C577 548 574 545 570 539 C567 533 566 526 564 516 C563 506 562 493 562 477 L562 149 C562 121 560 98 554 78 C549 58 538 42 522 30 C506 18 484 10 453 4 C423 -2 382 -5 332 -5 C280 -5 239 -2 207 4 C176 11 153 21 135 35 C118 50 107 68 101 91 C96 115 93 143 93 175 L93 487 C93 515 92 532 87 540 C83 548 72 552 56 552 L49 552 L49 567 L93 567 L104 567 L115 567 L158 567 L158 552 L151 552 C136 552 127 548 122 540 C118 532 115 515 115 487 L115 170 C115 140 117 115 122 93 C128 72 137 55 153 41 C169 28 192 18 220 12 C249 6 287 3 335 3 C383 3 422 6 450 11 C479 17 500 25 516 37 C532 49 542 65 547 83 C553 102 555 125 555 151 L556 493 C556 519 553 534 547 541 C541 549 530 552 512 552 L504 552 L504 567 L556 567 L559 567 L562 567 L611 567 L611 567 Z " />
<glyph glyph-name="Ucircumflex" unicode="&#xdb;" horiz-adv-x="631" d="M611 567 L611 552 L604 552 C596 552 589 552 583 550 C577 548 574 545 570 539 C567 533 566 526 564 516 C563 506 562 493 562 477 L562 149 C562 121 560 98 554 78 C549 58 538 42 522 30 C506 18 484 10 453 4 C423 -2 382 -5 332 -5 C280 -5 239 -2 207 4 C176 11 153 21 135 35 C118 50 107 68 101 91 C96 115 93 143 93 175 L93 487 C93 515 92 532 87 540 C83 548 72 552 56 552 L49 552 L49 567 L93 567 L104 567 L115 567 L158 567 L158 552 L151 552 C136 552 127 548 122 540 C118 532 115 515 115 487 L115 170 C115 140 117 115 122 93 C128 72 137 55 153 41 C169 28 192 18 220 12 C249 6 287 3 335 3 C383 3 422 6 450 11 C479 17 500 25 516 37 C532 49 542 65 547 83 C553 102 555 125 555 151 L556 493 C556 519 553 534 547 541 C541 549 530 552 512 552 L504 552 L504 567 L556 567 L559 567 L562 567 L611 567 L611 567 Z M328 789 L212 601 L210 603 L321 806 C322 808 322 809 323 810 C325 812 326 812 327 812 C329 812 330 812 331 810 C333 809 334 808 334 806 L445 603 L443 601 L328 789 L328 789 Z " />
<glyph glyph-name="Udieresis" unicode="&#xdc;" horiz-adv-x="631" d="M411 637 C398 637 391 644 391 657 C391 671 398 677 411 677 C425 677 431 671 431 657 C431 644 425 637 411 637 L411 637 Z M244 637 C231 637 224 644 224 657 C224 671 231 677 244 677 C258 677 264 671 264 657 C264 644 258 637 244 637 L244 637 Z M611 567 L611 552 L604 552 C596 552 589 552 583 550 C577 548 574 545 570 539 C567 533 566 526 564 516 C563 506 562 493 562 477 L562 149 C562 121 560 98 554 78 C549 58 538 42 522 30 C506 18 484 10 453 4 C423 -2 382 -5 332 -5 C280 -5 239 -2 207 4 C176 11 153 21 135 35 C118 50 107 68 101 91 C96 115 93 143 93 175 L93 487 C93 515 92 532 87 540 C83 548 72 552 56 552 L49 552 L49 567 L93 567 L104 567 L115 567 L158 567 L158 552 L151 552 C136 552 127 548 122 540 C118 532 115 515 115 487 L115 170 C115 140 117 115 122 93 C128 72 137 55 153 41 C169 28 192 18 220 12 C249 6 287 3 335 3 C383 3 422 6 450 11 C479 17 500 25 516 37 C532 49 542 65 547 83 C553 102 555 125 555 151 L556 493 C556 519 553 534 547 541 C541 549 530 552 512 552 L504 552 L504 567 L556 567 L559 567 L562 567 L611 567 L611 567 Z " />
<glyph glyph-name="Yacute" unicode="&#xdd;" horiz-adv-x="534" d="M277 598 L275 600 L374 738 C390 760 401 775 407 783 C414 792 418 796 418 796 C420 796 423 795 425 793 C428 791 429 790 429 788 C429 787 426 783 419 774 C413 766 401 751 384 730 L277 598 L277 598 Z M334 15 L334 0 L291 0 L280 0 L269 0 L226 0 L226 15 L232 15 C248 15 258 19 262 27 C267 35 269 53 269 80 L269 210 L106 487 L106 487 C98 501 92 512 86 520 C80 529 75 536 70 540 C66 545 62 547 57 549 C53 551 47 552 41 552 L36 552 L36 567 L59 567 L73 567 L86 567 L138 567 L138 552 L131 552 C116 552 108 549 108 541 C108 533 117 515 133 487 L133 487 L287 223 L444 485 C461 513 470 531 468 539 C467 548 457 552 439 552 L431 552 L431 567 L494 567 L497 567 L501 567 L529 567 L529 552 L523 552 C512 552 504 550 496 545 C489 541 480 531 469 515 L291 220 L291 220 L291 80 C291 53 293 35 297 27 C302 19 312 15 328 15 L334 15 L334 15 Z " />
<glyph glyph-name="agrave" unicode="&#xe0;" horiz-adv-x="475" d="M453 34 L455 31 C440 16 429 5 419 -1 C410 -7 398 -10 384 -10 C363 -10 351 -5 346 4 C342 14 339 30 339 52 L339 82 C313 50 286 29 256 15 C227 2 191 -5 148 -5 C107 -5 79 1 61 15 C44 29 35 53 35 87 C35 121 48 145 72 161 C97 178 139 190 197 197 L339 213 L339 303 C339 352 332 386 316 406 C301 426 275 436 237 436 C202 436 174 437 150 435 C127 434 105 432 83 428 L63 428 C101 434 133 436 159 438 C186 440 213 441 241 441 C285 441 315 431 333 409 C351 388 360 351 360 299 L360 54 C360 35 361 22 365 13 C369 5 380 0 398 0 C408 0 416 2 423 7 C431 13 441 22 453 34 L453 34 Z M186 607 L288 469 L286 468 L176 599 C160 619 149 632 141 641 C134 651 130 656 130 657 C130 659 132 660 134 662 C137 664 139 665 141 665 C143 665 147 661 153 652 C160 644 171 629 186 607 L186 607 Z M339 209 L197 191 C145 185 109 174 87 159 C66 145 55 123 55 93 C55 62 63 40 78 27 C94 15 120 8 158 8 C200 8 233 14 261 26 C289 38 315 58 339 86 L339 209 L339 209 Z " />
<glyph glyph-name="aacute" unicode="&#xe1;" horiz-adv-x="475" d="M179 468 L176 469 L275 607 C283 618 289 627 295 634 C301 642 306 648 309 652 C313 658 317 662 319 665 C321 665 323 664 326 662 C330 660 331 659 331 657 C331 657 329 652 321 643 C314 635 302 620 286 599 L179 468 L179 468 Z M453 34 L455 31 C440 16 429 5 419 -1 C410 -7 398 -10 384 -10 C363 -10 351 -5 346 4 C342 14 339 30 339 52 L339 82 C313 50 286 29 256 15 C227 2 191 -5 148 -5 C107 -5 79 1 61 15 C44 29 35 53 35 87 C35 121 48 145 72 161 C97 178 139 190 197 197 L339 213 L339 303 C339 352 332 386 316 406 C301 426 275 436 237 436 C202 436 174 437 150 435 C127 434 105 432 83 428 L63 428 C101 434 133 436 159 438 C186 440 213 441 241 441 C285 441 315 431 333 409 C351 388 360 351 360 299 L360 54 C360 35 361 22 365 13 C369 5 380 0 398 0 C408 0 416 2 423 7 C431 13 441 22 453 34 L453 34 Z M339 209 L197 191 C145 185 109 174 87 159 C66 145 55 123 55 93 C55 62 63 40 78 27 C94 15 120 8 158 8 C200 8 233 14 261 26 C289 38 315 58 339 86 L339 209 L339 209 Z " />
<glyph glyph-name="acircumflex" unicode="&#xe2;" horiz-adv-x="475" d="M453 34 L455 31 C440 16 429 5 419 -1 C410 -7 398 -10 384 -10 C363 -10 351 -5 346 4 C342 14 339 30 339 52 L339 82 C313 50 286 29 256 15 C227 2 191 -5 148 -5 C107 -5 79 1 61 15 C44 29 35 53 35 87 C35 121 48 145 72 161 C97 178 139 190 197 197 L339 213 L339 303 C339 352 332 386 316 406 C301 426 275 436 237 436 C202 436 174 437 150 435 C127 434 105 432 83 428 L63 428 C101 434 133 436 159 438 C186 440 213 441 241 441 C285 441 315 431 333 409 C351 388 360 351 360 299 L360 54 C360 35 361 22 365 13 C369 5 380 0 398 0 C408 0 416 2 423 7 C431 13 441 22 453 34 L453 34 Z M212 658 L96 470 L94 472 L205 675 C206 677 206 678 207 679 C209 681 210 681 211 681 C213 681 214 681 215 679 C217 678 218 677 218 675 L329 472 L327 470 L212 658 L212 658 Z M339 209 L197 191 C145 185 109 174 87 159 C66 145 55 123 55 93 C55 62 63 40 78 27 C94 15 120 8 158 8 C200 8 233 14 261 26 C289 38 315 58 339 86 L339 209 L339 209 Z " />
<glyph glyph-name="atilde" unicode="&#xe3;" horiz-adv-x="571" d="M102 531 L99 531 C99 563 104 585 112 597 C121 610 136 616 156 616 C176 616 192 614 207 607 C223 601 237 593 251 585 C266 577 280 571 295 564 C311 558 328 554 346 554 C365 554 377 558 385 567 C393 577 397 592 397 614 L400 614 C400 587 396 569 387 557 C379 546 364 540 342 540 C324 540 307 544 291 550 C276 557 261 563 247 571 C233 579 220 587 204 593 C189 600 172 603 152 603 C134 603 122 599 114 587 C106 576 102 557 102 531 L102 531 Z M505 26 L505 17 L461 4 L445 -5 L442 -5 L442 0 L442 110 L442 117 C408 95 379 77 354 61 C330 46 310 33 294 23 C276 12 262 3 250 -5 C215 -5 185 -1 160 6 C136 14 116 25 100 41 C84 58 74 79 66 105 C59 131 55 163 55 199 C55 243 59 281 66 311 C74 342 85 367 101 386 C118 406 139 420 165 428 C191 437 223 441 259 441 C313 441 355 440 384 436 C414 432 434 427 445 421 L442 416 L456 436 L462 436 L462 115 L462 61 C464 53 467 48 471 45 C476 43 485 38 499 30 L505 26 L505 26 Z M442 119 L442 416 C432 422 413 426 383 430 C354 434 312 436 258 436 C226 436 198 433 174 424 C151 416 133 403 118 384 C104 366 93 343 86 313 C80 284 76 248 76 206 C76 170 80 140 86 114 C93 89 104 69 118 53 C133 37 151 26 175 18 C199 11 228 7 261 7 C263 7 276 15 304 32 C332 50 378 79 442 119 L442 119 Z " />
<glyph glyph-name="adieresis" unicode="&#xe4;" horiz-adv-x="475" d="M295 506 C282 506 275 513 275 526 C275 540 282 546 295 546 C309 546 315 540 315 526 C315 513 309 506 295 506 L295 506 Z M128 506 C115 506 108 513 108 526 C108 540 115 546 128 546 C142 546 148 540 148 526 C148 513 142 506 128 506 L128 506 Z M453 34 L455 31 C440 16 429 5 419 -1 C410 -7 398 -10 384 -10 C363 -10 351 -5 346 4 C342 14 339 30 339 52 L339 82 C313 50 286 29 256 15 C227 2 191 -5 148 -5 C107 -5 79 1 61 15 C44 29 35 53 35 87 C35 121 48 145 72 161 C97 178 139 190 197 197 L339 213 L339 303 C339 352 332 386 316 406 C301 426 275 436 237 436 C202 436 174 437 150 435 C127 434 105 432 83 428 L63 428 C101 434 133 436 159 438 C186 440 213 441 241 441 C285 441 315 431 333 409 C351 388 360 351 360 299 L360 54 C360 35 361 22 365 13 C369 5 380 0 398 0 C408 0 416 2 423 7 C431 13 441 22 453 34 L453 34 Z M339 209 L197 191 C145 185 109 174 87 159 C66 145 55 123 55 93 C55 62 63 40 78 27 C94 15 120 8 158 8 C200 8 233 14 261 26 C289 38 315 58 339 86 L339 209 L339 209 Z " />
<glyph glyph-name="aring" unicode="&#xe5;" horiz-adv-x="475" d="M211 476 C270 476 299 506 299 564 C299 596 293 619 279 632 C266 646 243 652 211 652 C179 652 158 646 144 632 C131 619 124 596 124 564 C124 506 153 476 211 476 L211 476 Z M118 564 C118 598 125 621 139 635 C153 649 177 656 211 656 C245 656 269 650 283 636 C298 622 305 598 305 564 C305 502 274 471 211 471 C149 471 118 502 118 564 L118 564 Z M453 34 L455 31 C440 16 429 5 419 -1 C410 -7 398 -10 384 -10 C363 -10 351 -5 346 4 C342 14 339 30 339 52 L339 82 C313 50 286 29 256 15 C227 2 191 -5 148 -5 C107 -5 79 1 61 15 C44 29 35 53 35 87 C35 121 48 145 72 161 C97 178 139 190 197 197 L339 213 L339 303 C339 352 332 386 316 406 C301 426 275 436 237 436 C202 436 174 437 150 435 C127 434 105 432 83 428 L63 428 C101 434 133 436 159 438 C186 440 213 441 241 441 C285 441 315 431 333 409 C351 388 360 351 360 299 L360 54 C360 35 361 22 365 13 C369 5 380 0 398 0 C408 0 416 2 423 7 C431 13 441 22 453 34 L453 34 Z M339 209 L197 191 C145 185 109 174 87 159 C66 145 55 123 55 93 C55 62 63 40 78 27 C94 15 120 8 158 8 C200 8 233 14 261 26 C289 38 315 58 339 86 L339 209 L339 209 Z " />
<glyph glyph-name="ccedilla" unicode="&#xe7;" horiz-adv-x="460" d="M408 24 C396 14 377 7 349 2 C322 -2 282 -5 229 -5 C197 -5 169 -2 146 6 C124 14 106 26 91 43 C77 61 67 83 60 109 C54 136 50 169 50 207 C50 250 54 285 63 315 C73 345 87 370 106 388 C126 407 150 420 181 428 C213 437 251 441 295 441 C335 441 362 435 379 421 C397 407 407 383 410 349 C410 343 407 340 401 340 C395 340 392 344 391 350 C389 382 380 403 365 416 C351 430 327 436 293 436 C253 436 220 432 191 424 C163 416 140 404 122 386 C104 368 91 345 83 317 C75 289 71 255 71 215 C71 177 74 146 80 119 C87 93 97 72 111 55 C125 39 143 27 165 19 C187 11 214 7 246 7 C296 7 333 9 357 11 C382 14 398 19 406 26 L408 24 L408 24 Z " />
<glyph glyph-name="egrave" unicode="&#xe8;" horiz-adv-x="467" d="M415 24 C402 14 382 7 354 2 C327 -2 286 -5 232 -5 C200 -5 172 -2 148 6 C125 14 107 26 92 43 C78 61 67 83 60 109 C54 136 50 169 50 207 C50 250 53 285 61 315 C69 345 81 370 97 388 C114 407 135 420 161 428 C188 437 220 441 258 441 C316 441 356 429 380 404 C405 380 417 338 417 278 L74 278 C72 260 71 239 71 215 C71 177 74 146 80 119 C87 93 97 72 111 55 C126 39 145 27 167 19 C190 11 217 7 249 7 C301 7 339 9 363 11 C388 14 405 19 413 26 L415 24 L415 24 Z M232 607 L335 469 L332 468 L222 599 C206 619 195 632 187 641 C180 651 176 656 176 657 C176 659 178 660 180 662 C183 664 185 665 187 665 C189 665 193 661 199 652 C206 644 217 629 232 607 L232 607 Z M75 281 L398 285 L389 285 C395 285 398 288 398 294 C398 346 388 383 366 404 C345 426 309 436 257 436 C199 436 157 425 128 401 C100 377 82 337 75 281 L75 281 Z " />
<glyph glyph-name="eacute" unicode="&#xe9;" horiz-adv-x="467" d="M225 468 L223 469 L322 607 C330 618 337 627 342 634 C348 642 352 648 355 652 C359 658 363 662 365 665 C367 665 369 664 372 662 C376 660 377 659 377 657 C377 657 375 652 367 643 C360 635 348 620 332 599 L225 468 L225 468 Z M415 24 C402 14 382 7 354 2 C327 -2 286 -5 232 -5 C200 -5 172 -2 148 6 C125 14 107 26 92 43 C78 61 67 83 60 109 C54 136 50 169 50 207 C50 250 53 285 61 315 C69 345 81 370 97 388 C114 407 135 420 161 428 C188 437 220 441 258 441 C316 441 356 429 380 404 C405 380 417 338 417 278 L74 278 C72 260 71 239 71 215 C71 177 74 146 80 119 C87 93 97 72 111 55 C126 39 145 27 167 19 C190 11 217 7 249 7 C301 7 339 9 363 11 C388 14 405 19 413 26 L415 24 L415 24 Z M75 281 L398 285 L389 285 C395 285 398 288 398 294 C398 346 388 383 366 404 C345 426 309 436 257 436 C199 436 157 425 128 401 C100 377 82 337 75 281 L75 281 Z " />
<glyph glyph-name="ecircumflex" unicode="&#xea;" horiz-adv-x="467" d="M415 24 C402 14 382 7 354 2 C327 -2 286 -5 232 -5 C200 -5 172 -2 148 6 C125 14 107 26 92 43 C78 61 67 83 60 109 C54 136 50 169 50 207 C50 250 53 285 61 315 C69 345 81 370 97 388 C114 407 135 420 161 428 C188 437 220 441 258 441 C316 441 356 429 380 404 C405 380 417 338 417 278 L74 278 C72 260 71 239 71 215 C71 177 74 146 80 119 C87 93 97 72 111 55 C126 39 145 27 167 19 C190 11 217 7 249 7 C301 7 339 9 363 11 C388 14 405 19 413 26 L415 24 L415 24 Z M258 658 L142 470 L140 472 L251 675 C252 677 252 678 253 679 C255 681 256 681 258 681 C260 681 260 681 261 679 C263 678 264 677 264 675 L375 472 L373 470 L258 658 L258 658 Z M75 281 L398 285 L389 285 C395 285 398 288 398 294 C398 346 388 383 366 404 C345 426 309 436 257 436 C199 436 157 425 128 401 C100 377 82 337 75 281 L75 281 Z " />
<glyph glyph-name="edieresis" unicode="&#xeb;" horiz-adv-x="467" d="M341 506 C328 506 321 513 321 526 C321 540 328 546 341 546 C355 546 361 540 361 526 C361 513 355 506 341 506 L341 506 Z M174 506 C161 506 154 513 154 526 C154 540 161 546 174 546 C188 546 194 540 194 526 C194 513 188 506 174 506 L174 506 Z M415 24 C402 14 382 7 354 2 C327 -2 286 -5 232 -5 C200 -5 172 -2 148 6 C125 14 107 26 92 43 C78 61 67 83 60 109 C54 136 50 169 50 207 C50 250 53 285 61 315 C69 345 81 370 97 388 C114 407 135 420 161 428 C188 437 220 441 258 441 C316 441 356 429 380 404 C405 380 417 338 417 278 L74 278 C72 260 71 239 71 215 C71 177 74 146 80 119 C87 93 97 72 111 55 C126 39 145 27 167 19 C190 11 217 7 249 7 C301 7 339 9 363 11 C388 14 405 19 413 26 L415 24 L415 24 Z M75 281 L398 285 L389 285 C395 285 398 288 398 294 C398 346 388 383 366 404 C345 426 309 436 257 436 C199 436 157 425 128 401 C100 377 82 337 75 281 L75 281 Z " />
<glyph glyph-name="igrave" unicode="&#xec;" horiz-adv-x="196" d="M108 0 L108 356 L88 356 L88 350 C88 362 89 369 88 375 C88 381 87 385 86 387 C86 390 85 392 83 392 C81 393 79 394 77 396 L52 415 L52 424 L107 441 L108 441 L108 356 L108 0 C108 10 110 14 114 14 C118 15 128 15 143 15 L151 15 L151 0 L108 0 L108 0 Z M88 350 L88 0 L45 0 L45 15 L54 15 C69 15 78 16 82 15 C86 15 88 10 88 0 L88 350 L88 350 Z M73 607 L175 469 L173 468 L63 599 C46 619 35 632 27 641 C20 651 16 656 16 657 C16 659 17 660 20 662 C24 664 26 665 28 665 C30 665 34 661 40 652 C47 644 58 629 73 607 L73 607 Z " />
<glyph glyph-name="iacute" unicode="&#xed;" horiz-adv-x="196" d="M20 468 L17 469 L116 607 C132 629 143 644 149 652 C156 661 160 665 160 665 C162 665 164 664 167 662 C171 660 172 659 172 657 C172 657 169 652 162 643 C156 635 144 620 127 599 L20 468 L20 468 Z M108 0 L108 356 L88 356 L88 350 C88 362 89 369 88 375 C88 381 87 385 86 387 C86 390 85 392 83 392 C81 393 79 394 77 396 L52 415 L52 424 L107 441 L108 441 L108 356 L108 0 C108 10 110 14 114 14 C118 15 128 15 143 15 L151 15 L151 0 L108 0 L108 0 Z M88 350 L88 0 L45 0 L45 15 L54 15 C69 15 78 16 82 15 C86 15 88 10 88 0 L88 350 L88 350 Z " />
<glyph glyph-name="icircumflex" unicode="&#xee;" horiz-adv-x="196" d="M108 0 L108 356 L88 356 L88 350 C88 362 89 369 88 375 C88 381 87 385 86 387 C86 390 85 392 83 392 C81 393 79 394 77 396 L52 415 L52 424 L107 441 L108 441 L108 356 L108 0 C108 10 110 14 114 14 C118 15 128 15 143 15 L151 15 L151 0 L108 0 L108 0 Z M88 350 L88 0 L45 0 L45 15 L54 15 C69 15 78 16 82 15 C86 15 88 10 88 0 L88 350 L88 350 Z M98 672 L104 675 L216 472 L213 470 L98 659 L-17 470 L-19 472 L92 675 L98 672 L98 672 Z M92 669 L98 659 L92 669 L92 669 Z M104 675 L92 675 C93 677 93 678 94 679 C96 681 97 681 98 681 C100 681 100 681 101 679 C103 678 104 677 104 675 L104 675 Z " />
<glyph glyph-name="idieresis" unicode="&#xef;" horiz-adv-x="196" d="M182 506 C169 506 162 513 162 526 C162 540 169 546 182 546 C196 546 202 540 202 526 C202 513 196 506 182 506 L182 506 Z M14 506 C1 506 -6 513 -6 526 C-6 540 1 546 14 546 C28 546 34 540 34 526 C34 513 28 506 14 506 L14 506 Z M108 0 L108 356 L88 356 L88 350 C88 362 89 369 88 375 C88 381 87 385 86 387 C86 390 85 392 83 392 C81 393 79 394 77 396 L52 415 L52 424 L107 441 L108 441 L108 356 L108 0 C108 10 110 14 114 14 C118 15 128 15 143 15 L151 15 L151 0 L108 0 L108 0 Z M88 350 L88 0 L45 0 L45 15 L54 15 C69 15 78 16 82 15 C86 15 88 10 88 0 L88 350 L88 350 Z " />
<glyph glyph-name="ntilde" unicode="&#xf1;" horiz-adv-x="555" d="M133 531 L129 531 C129 563 134 585 142 597 C151 610 166 616 187 616 C207 616 224 614 238 607 C253 601 267 593 281 585 C296 577 310 571 325 564 C341 558 358 554 377 554 C395 554 407 558 415 567 C423 577 427 592 427 614 L431 614 C431 587 428 569 418 557 C409 546 394 540 372 540 C354 540 338 544 322 550 C307 557 293 563 278 571 C264 579 250 587 234 593 C219 600 202 603 182 603 C165 603 153 599 145 587 C137 576 133 557 133 531 L133 531 Z M515 15 L515 0 L472 0 L462 0 L452 0 L409 0 L409 15 L415 15 C431 15 441 19 445 27 C450 35 452 53 452 80 L452 289 C452 315 452 335 448 353 C445 371 439 385 429 396 C420 408 408 415 390 420 C373 426 350 428 321 428 C313 428 294 424 261 415 C229 407 178 392 108 370 L108 351 L108 326 L108 80 C108 53 110 35 114 27 C119 19 129 15 145 15 L151 15 L151 0 L108 0 L98 0 L88 0 L45 0 L45 15 L51 15 C67 15 77 19 81 27 C86 35 88 53 88 80 L88 321 L88 351 L88 351 C88 362 89 370 88 375 C88 381 87 384 84 387 C82 391 79 393 73 395 C68 398 61 402 51 407 L45 410 L45 419 L104 436 L108 436 L108 373 C150 385 186 396 214 404 C243 413 266 420 284 425 C306 432 323 437 336 441 C366 441 389 439 407 433 C425 428 438 419 448 407 C458 395 464 381 467 361 C471 342 472 319 472 291 L472 80 C472 53 474 35 478 27 C483 19 493 15 509 15 L515 15 L515 15 Z " />
<glyph glyph-name="ograve" unicode="&#xf2;" horiz-adv-x="586" d="M293 -1 C333 -1 367 3 395 11 C423 19 445 32 463 49 C481 67 494 88 502 116 C510 144 514 178 514 218 C514 258 510 291 502 319 C494 347 482 370 464 387 C446 405 423 417 395 425 C367 433 333 437 293 437 C253 437 219 433 191 425 C163 417 141 405 123 387 C105 370 92 348 84 320 C76 292 72 258 72 218 C72 178 76 145 84 117 C92 89 104 67 122 49 C140 32 163 19 191 11 C219 3 253 -1 293 -1 L293 -1 Z M50 218 C50 259 55 293 63 321 C72 350 85 372 105 390 C125 408 151 421 181 429 C212 437 249 441 293 441 C337 441 374 437 405 429 C437 421 461 409 481 391 C501 373 516 351 524 322 C533 294 537 259 537 218 C537 178 533 144 524 115 C516 87 502 64 482 46 C462 28 438 15 406 7 C375 -1 337 -5 293 -5 C249 -5 212 -1 181 7 C151 15 126 27 106 45 C86 63 72 86 63 114 C55 143 50 178 50 218 L50 218 Z M268 607 L370 469 L368 468 L258 599 C241 619 230 632 222 641 C215 651 212 656 212 657 C212 659 212 660 215 662 C219 664 221 665 223 665 C225 665 229 661 235 652 C242 644 253 629 268 607 L268 607 Z " />
<glyph glyph-name="oacute" unicode="&#xf3;" horiz-adv-x="586" d="M260 468 L258 469 L357 607 C373 629 384 644 390 652 C397 661 401 665 401 665 C403 665 406 664 408 662 C411 660 412 659 412 657 C413 657 411 652 403 643 C396 635 384 620 367 599 L260 468 L260 468 Z M293 -1 C333 -1 367 3 395 11 C423 19 445 32 463 49 C481 67 494 88 502 116 C510 144 514 178 514 218 C514 258 510 291 502 319 C494 347 482 370 464 387 C446 405 423 417 395 425 C367 433 333 437 293 437 C253 437 219 433 191 425 C163 417 141 405 123 387 C105 370 92 348 84 320 C76 292 72 258 72 218 C72 178 76 145 84 117 C92 89 104 67 122 49 C140 32 163 19 191 11 C219 3 253 -1 293 -1 L293 -1 Z M50 218 C50 259 55 293 63 321 C72 350 85 372 105 390 C125 408 151 421 181 429 C212 437 249 441 293 441 C337 441 374 437 405 429 C437 421 461 409 481 391 C501 373 516 351 524 322 C533 294 537 259 537 218 C537 178 533 144 524 115 C516 87 502 64 482 46 C462 28 438 15 406 7 C375 -1 337 -5 293 -5 C249 -5 212 -1 181 7 C151 15 126 27 106 45 C86 63 72 86 63 114 C55 143 50 178 50 218 L50 218 Z " />
<glyph glyph-name="ocircumflex" unicode="&#xf4;" horiz-adv-x="586" d="M293 -1 C333 -1 367 3 395 11 C423 19 445 32 463 49 C481 67 494 88 502 116 C510 144 514 178 514 218 C514 258 510 291 502 319 C494 347 482 370 464 387 C446 405 423 417 395 425 C367 433 333 437 293 437 C253 437 219 433 191 425 C163 417 141 405 123 387 C105 370 92 348 84 320 C76 292 72 258 72 218 C72 178 76 145 84 117 C92 89 104 67 122 49 C140 32 163 19 191 11 C219 3 253 -1 293 -1 L293 -1 Z M50 218 C50 259 55 293 63 321 C72 350 85 372 105 390 C125 408 151 421 181 429 C212 437 249 441 293 441 C337 441 374 437 405 429 C437 421 461 409 481 391 C501 373 516 351 524 322 C533 294 537 259 537 218 C537 178 533 144 524 115 C516 87 502 64 482 46 C462 28 438 15 406 7 C375 -1 337 -5 293 -5 C249 -5 212 -1 181 7 C151 15 126 27 106 45 C86 63 72 86 63 114 C55 143 50 178 50 218 L50 218 Z M294 658 L178 470 L176 472 L287 675 C288 677 288 678 289 679 C291 681 292 681 293 681 C295 681 296 681 297 679 C299 678 300 677 300 675 L411 472 L409 470 L294 658 L294 658 Z " />
<glyph glyph-name="otilde" unicode="&#xf5;" horiz-adv-x="586" d="M146 531 L143 531 C143 563 148 585 156 597 C165 610 180 616 200 616 C220 616 236 614 251 607 C267 601 281 593 295 585 C309 577 324 571 339 564 C355 558 372 554 390 554 C409 554 421 558 429 567 C437 577 441 592 441 614 L444 614 C444 587 440 569 431 557 C423 546 408 540 386 540 C367 540 351 544 335 550 C320 557 306 563 291 571 C277 579 263 587 247 593 C232 600 215 603 195 603 C178 603 166 599 158 587 C150 576 146 557 146 531 L146 531 Z M293 -1 C333 -1 367 3 395 11 C423 19 445 32 463 49 C481 67 494 88 502 116 C510 144 514 178 514 218 C514 258 510 291 502 319 C494 347 482 370 464 387 C446 405 423 417 395 425 C367 433 333 437 293 437 C253 437 219 433 191 425 C163 417 141 405 123 387 C105 370 92 348 84 320 C76 292 72 258 72 218 C72 178 76 145 84 117 C92 89 104 67 122 49 C140 32 163 19 191 11 C219 3 253 -1 293 -1 L293 -1 Z M50 218 C50 259 55 293 63 321 C72 350 85 372 105 390 C125 408 151 421 181 429 C212 437 249 441 293 441 C337 441 374 437 405 429 C437 421 461 409 481 391 C501 373 516 351 524 322 C533 294 537 259 537 218 C537 178 533 144 524 115 C516 87 502 64 482 46 C462 28 438 15 406 7 C375 -1 337 -5 293 -5 C249 -5 212 -1 181 7 C151 15 126 27 106 45 C86 63 72 86 63 114 C55 143 50 178 50 218 L50 218 Z " />
<glyph glyph-name="odieresis" unicode="&#xf6;" horiz-adv-x="586" d="M377 506 C364 506 357 513 357 526 C357 540 364 546 377 546 C391 546 397 540 397 526 C397 513 391 506 377 506 L377 506 Z M210 506 C197 506 190 513 190 526 C190 540 197 546 210 546 C224 546 230 540 230 526 C230 513 224 506 210 506 L210 506 Z M293 -1 C333 -1 367 3 395 11 C423 19 445 32 463 49 C481 67 494 88 502 116 C510 144 514 178 514 218 C514 258 510 291 502 319 C494 347 482 370 464 387 C446 405 423 417 395 425 C367 433 333 437 293 437 C253 437 219 433 191 425 C163 417 141 405 123 387 C105 370 92 348 84 320 C76 292 72 258 72 218 C72 178 76 145 84 117 C92 89 104 67 122 49 C140 32 163 19 191 11 C219 3 253 -1 293 -1 L293 -1 Z M50 218 C50 259 55 293 63 321 C72 350 85 372 105 390 C125 408 151 421 181 429 C212 437 249 441 293 441 C337 441 374 437 405 429 C437 421 461 409 481 391 C501 373 516 351 524 322 C533 294 537 259 537 218 C537 178 533 144 524 115 C516 87 502 64 482 46 C462 28 438 15 406 7 C375 -1 337 -5 293 -5 C249 -5 212 -1 181 7 C151 15 126 27 106 45 C86 63 72 86 63 114 C55 143 50 178 50 218 L50 218 Z " />
<glyph glyph-name="oslash" unicode="&#xf8;" horiz-adv-x="586" d="M52 -7 L48 -3 L103 48 C85 66 72 88 63 116 C55 144 50 178 50 218 C50 259 55 293 63 321 C72 350 85 372 105 390 C125 408 151 421 181 429 C212 437 249 441 293 441 C337 441 373 438 403 430 C434 423 459 411 478 393 L534 444 L539 439 L484 388 C503 371 516 348 524 320 C533 292 537 258 537 218 C537 178 533 144 524 115 C516 87 502 64 482 46 C462 28 438 15 406 7 C375 -1 337 -5 293 -5 C250 -5 214 -2 183 6 C153 14 128 27 108 44 L52 -7 L52 -7 Z M293 -1 C333 -1 367 3 395 11 C423 19 445 32 463 49 C481 67 494 88 502 116 C510 144 514 178 514 218 C514 291 500 344 472 378 L118 53 C136 34 159 21 187 12 C216 4 251 -1 293 -1 L293 -1 Z M114 58 L468 383 C451 403 428 416 399 424 C371 433 335 437 293 437 C253 437 219 433 191 425 C163 417 141 405 123 387 C105 370 92 348 84 320 C76 292 72 258 72 218 C72 146 86 92 114 58 L114 58 Z " />
<glyph glyph-name="ugrave" unicode="&#xf9;" horiz-adv-x="520" d="M485 26 L485 17 L426 0 L422 0 L422 5 L422 63 C386 51 356 41 330 32 C305 24 284 17 268 11 C250 5 235 -1 223 -5 C191 -5 164 -3 142 3 C121 9 104 18 91 31 C79 45 70 61 65 81 C61 102 58 127 58 156 L58 356 C58 384 57 401 52 409 C48 417 37 421 21 421 L15 421 L15 436 L58 436 L68 436 L78 436 L78 159 C78 132 81 109 85 89 C90 70 98 54 110 42 C122 30 139 22 159 16 C180 11 206 8 238 8 C246 8 263 12 290 21 C318 31 362 46 422 66 L422 110 L422 356 C422 384 421 401 416 409 C412 417 401 421 385 421 L379 421 L379 436 L422 436 L432 436 L442 436 L442 115 L442 61 C444 53 447 48 451 45 C456 43 465 38 479 30 L485 26 L485 26 Z M225 607 L327 469 L325 468 L215 599 C198 619 187 632 179 641 C172 651 168 656 168 657 C168 659 169 660 172 662 C176 664 178 665 180 665 C182 665 186 661 192 652 C199 644 210 629 225 607 L225 607 Z " />
<glyph glyph-name="uacute" unicode="&#xfa;" horiz-adv-x="520" d="M217 468 L215 469 L314 607 C330 629 341 644 347 652 C354 661 358 665 358 665 C360 665 363 664 365 662 C368 660 369 659 369 657 C370 657 368 652 360 643 C353 635 341 620 324 599 L217 468 L217 468 Z M485 26 L485 17 L426 0 L422 0 L422 5 L422 63 C386 51 356 41 330 32 C305 24 284 17 268 11 C250 5 235 -1 223 -5 C191 -5 164 -3 142 3 C121 9 104 18 91 31 C79 45 70 61 65 81 C61 102 58 127 58 156 L58 356 C58 384 57 401 52 409 C48 417 37 421 21 421 L15 421 L15 436 L58 436 L68 436 L78 436 L78 159 C78 132 81 109 85 89 C90 70 98 54 110 42 C122 30 139 22 159 16 C180 11 206 8 238 8 C246 8 263 12 290 21 C318 31 362 46 422 66 L422 110 L422 356 C422 384 421 401 416 409 C412 417 401 421 385 421 L379 421 L379 436 L422 436 L432 436 L442 436 L442 115 L442 61 C444 53 447 48 451 45 C456 43 465 38 479 30 L485 26 L485 26 Z " />
<glyph glyph-name="ucircumflex" unicode="&#xfb;" horiz-adv-x="520" d="M485 26 L485 17 L426 0 L422 0 L422 5 L422 63 C386 51 356 41 330 32 C305 24 284 17 268 11 C250 5 235 -1 223 -5 C191 -5 164 -3 142 3 C121 9 104 18 91 31 C79 45 70 61 65 81 C61 102 58 127 58 156 L58 356 C58 384 57 401 52 409 C48 417 37 421 21 421 L15 421 L15 436 L58 436 L68 436 L78 436 L78 159 C78 132 81 109 85 89 C90 70 98 54 110 42 C122 30 139 22 159 16 C180 11 206 8 238 8 C246 8 263 12 290 21 C318 31 362 46 422 66 L422 110 L422 356 C422 384 421 401 416 409 C412 417 401 421 385 421 L379 421 L379 436 L422 436 L432 436 L442 436 L442 115 L442 61 C444 53 447 48 451 45 C456 43 465 38 479 30 L485 26 L485 26 Z M250 659 L135 470 L133 472 L244 675 C245 677 245 678 246 679 C248 681 249 681 250 681 C252 681 252 681 253 679 C255 678 256 677 256 675 L367 472 L365 470 L250 659 L250 659 Z " />
<glyph glyph-name="udieresis" unicode="&#xfc;" horiz-adv-x="520" d="M334 506 C321 506 314 513 314 526 C314 540 321 546 334 546 C348 546 354 540 354 526 C354 513 348 506 334 506 L334 506 Z M166 506 C153 506 146 513 146 526 C146 540 153 546 166 546 C180 546 186 540 186 526 C186 513 180 506 166 506 L166 506 Z M485 26 L485 17 L426 0 L422 0 L422 5 L422 63 C386 51 356 41 330 32 C305 24 284 17 268 11 C250 5 235 -1 223 -5 C191 -5 164 -3 142 3 C121 9 104 18 91 31 C79 45 70 61 65 81 C61 102 58 127 58 156 L58 356 C58 384 57 401 52 409 C48 417 37 421 21 421 L15 421 L15 436 L58 436 L68 436 L78 436 L78 159 C78 132 81 109 85 89 C90 70 98 54 110 42 C122 30 139 22 159 16 C180 11 206 8 238 8 C246 8 263 12 290 21 C318 31 362 46 422 66 L422 110 L422 356 C422 384 421 401 416 409 C412 417 401 421 385 421 L379 421 L379 436 L422 436 L432 436 L442 436 L442 115 L442 61 C444 53 447 48 451 45 C456 43 465 38 479 30 L485 26 L485 26 Z " />
<glyph glyph-name="Ydieresis" unicode="&#xff;" horiz-adv-x="388" d="M312 506 C299 506 292 513 292 526 C292 540 299 546 312 546 C326 546 332 540 332 526 C332 513 326 506 312 506 L312 506 Z M144 506 C131 506 124 513 124 526 C124 540 131 546 144 546 C158 546 164 540 164 526 C164 513 158 506 144 506 L144 506 Z M445 436 L445 421 L438 421 C425 421 416 419 408 413 C401 407 393 395 383 375 L226 -10 L201 -71 C203 -65 203 -61 200 -59 L222 -7 L70 381 C62 399 55 410 48 414 C42 419 32 421 18 421 L11 421 L11 436 L48 436 L60 436 L71 436 L114 436 L114 421 L109 421 C95 421 89 418 87 410 C86 402 91 384 102 356 L101 356 L232 12 L369 356 L369 356 C381 384 386 401 385 409 C385 417 378 421 364 421 L358 421 L358 436 L401 436 L405 436 L408 436 L445 436 L445 436 Z M201 -71 L201 -72 L201 -71 L201 -71 Z M200 -59 L200 -59 L200 -58 C200 -62 198 -65 196 -69 L200 -59 L200 -59 Z M196 -69 L196 -70 L196 -69 L196 -69 Z M200 -58 L200 -58 C195 -54 184 -53 166 -52 C149 -50 121 -50 83 -50 C64 -50 50 -48 42 -44 C34 -39 30 -32 30 -22 C30 -16 34 -13 40 -13 C46 -13 51 -14 55 -17 C60 -19 64 -21 68 -25 C72 -28 76 -30 80 -33 C85 -35 90 -37 96 -37 C138 -37 166 -38 180 -41 C195 -43 202 -49 200 -58 L200 -58 Z " />
<glyph glyph-name="Amacron" unicode="&#x100;" horiz-adv-x="553" d="M122 681 L122 692 L428 692 L428 681 L122 681 L122 681 Z M544 15 L544 0 L509 0 L497 0 L485 0 L428 0 L428 15 L436 15 C453 15 463 18 466 24 C470 30 468 43 460 63 L404 205 L133 205 L91 95 L92 95 C79 61 73 40 75 30 C78 20 90 15 110 15 L118 15 L118 0 L55 0 L52 0 L48 0 L11 0 L11 15 L17 15 C32 15 42 18 49 24 C57 30 65 44 73 65 L272 580 L277 580 L477 80 C483 66 487 56 491 47 C496 39 500 32 504 27 C509 23 514 20 519 18 C525 16 531 15 538 15 L544 15 L544 15 Z M402 210 L267 554 L135 210 L402 210 L402 210 Z " />
<glyph glyph-name="amacron" unicode="&#x101;" horiz-adv-x="475" d="M58 550 L58 561 L364 561 L364 550 L58 550 L58 550 Z M453 34 L455 31 C440 16 429 5 419 -1 C410 -7 398 -10 384 -10 C363 -10 351 -5 346 4 C342 14 339 30 339 52 L339 82 C313 50 286 29 256 15 C227 2 191 -5 148 -5 C107 -5 79 1 61 15 C44 29 35 53 35 87 C35 121 48 145 72 161 C97 178 139 190 197 197 L339 213 L339 303 C339 352 332 386 316 406 C301 426 275 436 237 436 C202 436 174 437 150 435 C127 434 105 432 83 428 L63 428 C101 434 133 436 159 438 C186 440 213 441 241 441 C285 441 315 431 333 409 C351 388 360 351 360 299 L360 54 C360 35 361 22 365 13 C369 5 380 0 398 0 C408 0 416 2 423 7 C431 13 441 22 453 34 L453 34 Z M339 209 L197 191 C145 185 109 174 87 159 C66 145 55 123 55 93 C55 62 63 40 78 27 C94 15 120 8 158 8 C200 8 233 14 261 26 C289 38 315 58 339 86 L339 209 L339 209 Z " />
<glyph glyph-name="Abreve" unicode="&#x102;" horiz-adv-x="553" d="M164 779 L168 779 C170 751 179 732 195 720 C211 709 238 703 275 703 C312 703 338 709 354 720 C370 732 379 751 381 779 L385 779 C383 747 374 724 357 710 C341 697 313 690 275 690 C237 690 211 697 193 710 C176 724 166 747 164 779 L164 779 Z M544 15 L544 0 L509 0 L497 0 L485 0 L428 0 L428 15 L436 15 C453 15 463 18 466 24 C470 30 468 43 460 63 L404 205 L133 205 L91 95 L92 95 C79 61 73 40 75 30 C78 20 90 15 110 15 L118 15 L118 0 L55 0 L52 0 L48 0 L11 0 L11 15 L17 15 C32 15 42 18 49 24 C57 30 65 44 73 65 L272 580 L277 580 L477 80 C483 66 487 56 491 47 C496 39 500 32 504 27 C509 23 514 20 519 18 C525 16 531 15 538 15 L544 15 L544 15 Z M402 210 L267 554 L135 210 L402 210 L402 210 Z " />
<glyph glyph-name="abreve" unicode="&#x103;" horiz-adv-x="475" d="M101 618 L105 618 C107 590 116 571 132 559 C148 548 175 542 211 542 C249 542 275 548 291 559 C307 571 316 590 318 618 L322 618 C320 586 312 564 294 550 C277 536 249 529 211 529 C173 529 146 535 129 549 C113 563 103 586 101 618 L101 618 Z M453 34 L455 31 C440 16 429 5 419 -1 C410 -7 398 -10 384 -10 C363 -10 351 -5 346 4 C342 14 339 30 339 52 L339 82 C313 50 286 29 256 15 C227 2 191 -5 148 -5 C107 -5 79 1 61 15 C44 29 35 53 35 87 C35 121 48 145 72 161 C97 178 139 190 197 197 L339 213 L339 303 C339 352 332 386 316 406 C301 426 275 436 237 436 C202 436 174 437 150 435 C127 434 105 432 83 428 L63 428 C101 434 133 436 159 438 C186 440 213 441 241 441 C285 441 315 431 333 409 C351 388 360 351 360 299 L360 54 C360 35 361 22 365 13 C369 5 380 0 398 0 C408 0 416 2 423 7 C431 13 441 22 453 34 L453 34 Z M339 209 L197 191 C145 185 109 174 87 159 C66 145 55 123 55 93 C55 62 63 40 78 27 C94 15 120 8 158 8 C200 8 233 14 261 26 C289 38 315 58 339 86 L339 209 L339 209 Z " />
<glyph glyph-name="Aogonek" unicode="&#x104;" horiz-adv-x="553" d="M544 15 L544 0 L509 0 L497 0 L485 0 C475 -4 463 -10 449 -20 C436 -29 423 -40 411 -54 C399 -67 390 -82 381 -100 C373 -118 368 -137 368 -158 C368 -182 374 -199 386 -210 C398 -220 419 -226 447 -226 C466 -226 480 -224 491 -220 C503 -216 512 -209 519 -200 L521 -202 C512 -212 502 -219 490 -224 C478 -228 463 -231 443 -231 C411 -231 390 -226 376 -215 C363 -203 356 -185 356 -160 C356 -140 360 -122 368 -105 C376 -87 385 -73 397 -59 C409 -45 422 -33 436 -23 C450 -13 463 -5 475 0 L428 0 L428 15 L436 15 C453 15 463 18 466 24 C470 30 468 43 460 63 L404 205 L133 205 L91 95 L92 95 C79 61 73 40 75 30 C78 20 90 15 110 15 L118 15 L118 0 L55 0 L52 0 L48 0 L11 0 L11 15 L17 15 C32 15 42 18 49 24 C57 30 65 44 73 65 L272 580 L277 580 L477 80 C483 66 487 56 491 47 C496 39 500 32 504 27 C509 23 514 20 519 18 C525 16 531 15 538 15 L544 15 L544 15 Z M402 210 L267 554 L135 210 L402 210 L402 210 Z " />
<glyph glyph-name="aogonek" unicode="&#x105;" horiz-adv-x="475" d="M485 27 C475 23 463 17 449 7 C435 -2 422 -13 410 -28 C398 -42 388 -59 380 -78 C372 -96 368 -117 368 -140 C368 -171 374 -192 386 -206 C398 -219 419 -226 447 -226 C465 -226 479 -224 490 -220 C502 -216 511 -209 518 -200 L520 -202 C511 -212 501 -219 489 -224 C477 -228 462 -231 442 -231 C410 -231 389 -225 375 -211 C362 -197 355 -174 355 -142 C355 -119 359 -98 368 -79 C378 -59 389 -43 402 -28 C416 -12 429 0 444 10 C460 20 473 27 485 31 L485 27 L485 27 Z M453 34 L455 31 C440 16 429 5 419 -1 C410 -7 398 -10 384 -10 C363 -10 351 -5 346 4 C342 14 339 30 339 52 L339 82 C313 50 286 29 256 15 C227 2 191 -5 148 -5 C107 -5 79 1 61 15 C44 29 35 53 35 87 C35 121 48 145 72 161 C97 178 139 190 197 197 L339 213 L339 303 C339 352 332 386 316 406 C301 426 275 436 237 436 C202 436 174 437 150 435 C127 434 105 432 83 428 L63 428 C101 434 133 436 159 438 C186 440 213 441 241 441 C285 441 315 431 333 409 C351 388 360 351 360 299 L360 54 C360 35 361 22 365 13 C369 5 380 0 398 0 C408 0 416 2 423 7 C431 13 441 22 453 34 L453 34 Z M339 209 L197 191 C145 185 109 174 87 159 C66 145 55 123 55 93 C55 62 63 40 78 27 C94 15 120 8 158 8 C200 8 233 14 261 26 C289 38 315 58 339 86 L339 209 L339 209 Z " />
<glyph glyph-name="Cacute" unicode="&#x106;" horiz-adv-x="732" d="M362 598 L359 600 L458 738 C474 760 485 775 491 783 C498 792 502 796 502 796 C504 796 506 795 509 793 C513 791 514 790 514 788 C514 787 510 783 503 774 C497 766 485 751 469 730 L362 598 L362 598 Z M677 485 L664 485 C662 489 659 491 657 494 C655 498 653 501 650 504 C636 524 619 538 599 548 C579 558 553 564 521 565 C506 566 489 566 470 566 C452 566 432 566 410 566 C354 566 305 562 265 551 C225 541 193 525 167 502 C142 480 124 450 112 414 C101 378 95 335 95 283 C95 233 101 189 112 153 C124 117 142 89 167 66 C193 44 225 28 265 17 C305 7 354 1 410 1 L468 1 C518 3 556 8 584 17 C612 27 634 42 650 63 C653 67 655 69 657 72 C659 76 662 79 664 82 L677 82 L672 7 L672 7 L672 4 C664 2 652 2 638 0 C624 -1 608 -2 586 -3 C565 -3 540 -3 511 -4 C483 -4 449 -5 410 -5 C349 -5 298 0 254 10 C211 21 177 37 149 60 C122 84 103 114 90 150 C78 187 71 231 71 283 C71 336 77 381 89 417 C102 454 121 483 148 506 C176 530 210 546 253 556 C297 567 349 572 410 572 C449 572 483 573 511 572 C540 572 564 571 585 570 C607 570 624 570 638 568 C652 567 664 565 672 563 L672 560 L672 560 L677 485 L677 485 Z " />
<glyph glyph-name="cacute" unicode="&#x107;" horiz-adv-x="460" d="M217 468 L215 469 L314 607 C330 629 340 644 346 652 C353 661 357 665 357 665 C360 665 363 664 365 662 C368 660 369 659 369 657 C369 657 366 652 359 643 C353 635 341 620 324 599 L217 468 L217 468 Z M408 24 C396 14 377 7 349 2 C322 -2 282 -5 229 -5 C197 -5 169 -2 146 6 C124 14 106 26 91 43 C77 61 67 83 60 109 C54 136 50 169 50 207 C50 250 54 285 63 315 C73 345 87 370 106 388 C126 407 150 420 181 428 C213 437 251 441 295 441 C335 441 362 435 379 421 C397 407 407 383 410 349 C410 343 407 340 401 340 C395 340 392 344 391 350 C389 382 380 403 365 416 C351 430 327 436 293 436 C253 436 220 432 191 424 C163 416 140 404 122 386 C104 368 91 345 83 317 C75 289 71 255 71 215 C71 177 74 146 80 119 C87 93 97 72 111 55 C125 39 143 27 165 19 C187 11 214 7 246 7 C296 7 333 9 357 11 C382 14 398 19 406 26 L408 24 L408 24 Z " />
<glyph glyph-name="Ccircumflex" unicode="&#x108;" horiz-adv-x="732" d="M677 485 L664 485 C662 489 659 491 657 494 C655 498 653 501 650 504 C636 524 619 538 599 548 C579 558 553 564 521 565 C506 566 489 566 470 566 C452 566 432 566 410 566 C354 566 305 562 265 551 C225 541 193 525 167 502 C142 480 124 450 112 414 C101 378 95 335 95 283 C95 233 101 189 112 153 C124 117 142 89 167 66 C193 44 225 28 265 17 C305 7 354 1 410 1 L468 1 C518 3 556 8 584 17 C612 27 634 42 650 63 C653 67 655 69 657 72 C659 76 662 79 664 82 L677 82 L672 7 L672 7 L672 4 C664 2 652 2 638 0 C624 -1 608 -2 586 -3 C565 -3 540 -3 511 -4 C483 -4 449 -5 410 -5 C349 -5 298 0 254 10 C211 21 177 37 149 60 C122 84 103 114 90 150 C78 187 71 231 71 283 C71 336 77 381 89 417 C102 454 121 483 148 506 C176 530 210 546 253 556 C297 567 349 572 410 572 C449 572 483 573 511 572 C540 572 564 571 585 570 C607 570 624 570 638 568 C652 567 664 565 672 563 L672 560 L672 560 L677 485 L677 485 Z M409 789 L294 601 L292 603 L403 806 C404 808 404 809 405 810 C407 812 408 812 410 812 C412 812 412 812 413 810 C415 809 416 808 416 806 L527 603 L525 601 L409 789 L409 789 Z " />
<glyph glyph-name="Cdot" unicode="&#x10a;" horiz-adv-x="732" d="M410 637 C397 637 390 644 390 657 C390 671 397 677 410 677 C424 677 430 671 430 657 C430 644 424 637 410 637 L410 637 Z M677 485 L664 485 C662 489 659 491 657 494 C655 498 653 501 650 504 C636 524 619 538 599 548 C579 558 553 564 521 565 C506 566 489 566 470 566 C452 566 432 566 410 566 C354 566 305 562 265 551 C225 541 193 525 167 502 C142 480 124 450 112 414 C101 378 95 335 95 283 C95 233 101 189 112 153 C124 117 142 89 167 66 C193 44 225 28 265 17 C305 7 354 1 410 1 L468 1 C518 3 556 8 584 17 C612 27 634 42 650 63 C653 67 655 69 657 72 C659 76 662 79 664 82 L677 82 L672 7 L672 7 L672 4 C664 2 652 2 638 0 C624 -1 608 -2 586 -3 C565 -3 540 -3 511 -4 C483 -4 449 -5 410 -5 C349 -5 298 0 254 10 C211 21 177 37 149 60 C122 84 103 114 90 150 C78 187 71 231 71 283 C71 336 77 381 89 417 C102 454 121 483 148 506 C176 530 210 546 253 556 C297 567 349 572 410 572 C449 572 483 573 511 572 C540 572 564 571 585 570 C607 570 624 570 638 568 C652 567 664 565 672 563 L672 560 L672 560 L677 485 L677 485 Z " />
<glyph glyph-name="cdot" unicode="&#x10b;" horiz-adv-x="460" d="M295 506 C282 506 275 513 275 526 C275 540 282 546 295 546 C309 546 315 540 315 526 C315 513 309 506 295 506 L295 506 Z M408 24 C396 14 377 7 349 2 C322 -2 282 -5 229 -5 C197 -5 169 -2 146 6 C124 14 106 26 91 43 C77 61 67 83 60 109 C54 136 50 169 50 207 C50 250 54 285 63 315 C73 345 87 370 106 388 C126 407 150 420 181 428 C213 437 251 441 295 441 C335 441 362 435 379 421 C397 407 407 383 410 349 C410 343 407 340 401 340 C395 340 392 344 391 350 C389 382 380 403 365 416 C351 430 327 436 293 436 C253 436 220 432 191 424 C163 416 140 404 122 386 C104 368 91 345 83 317 C75 289 71 255 71 215 C71 177 74 146 80 119 C87 93 97 72 111 55 C125 39 143 27 165 19 C187 11 214 7 246 7 C296 7 333 9 357 11 C382 14 398 19 406 26 L408 24 L408 24 Z " />
<glyph glyph-name="Ccaron" unicode="&#x10c;" horiz-adv-x="732" d="M677 485 L664 485 C662 489 659 491 657 494 C655 498 653 501 650 504 C636 524 619 538 599 548 C579 558 553 564 521 565 C506 566 489 566 470 566 C452 566 432 566 410 566 C354 566 305 562 265 551 C225 541 193 525 167 502 C142 480 124 450 112 414 C101 378 95 335 95 283 C95 233 101 189 112 153 C124 117 142 89 167 66 C193 44 225 28 265 17 C305 7 354 1 410 1 L468 1 C518 3 556 8 584 17 C612 27 634 42 650 63 C653 67 655 69 657 72 C659 76 662 79 664 82 L677 82 L672 7 L672 7 L672 4 C664 2 652 2 638 0 C624 -1 608 -2 586 -3 C565 -3 540 -3 511 -4 C483 -4 449 -5 410 -5 C349 -5 298 0 254 10 C211 21 177 37 149 60 C122 84 103 114 90 150 C78 187 71 231 71 283 C71 336 77 381 89 417 C102 454 121 483 148 506 C176 530 210 546 253 556 C297 567 349 572 410 572 C449 572 483 573 511 572 C540 572 564 571 585 570 C607 570 624 570 638 568 C652 567 664 565 672 563 L672 560 L672 560 L677 485 L677 485 Z M409 645 L294 833 L292 831 L403 628 C404 627 404 626 405 624 C407 623 408 622 410 622 C412 622 412 623 413 624 C415 626 416 627 416 628 L527 831 L525 833 L409 645 L409 645 Z " />
<glyph glyph-name="ccaron" unicode="&#x10d;" horiz-adv-x="460" d="M408 24 C396 14 377 7 349 2 C322 -2 282 -5 229 -5 C197 -5 169 -2 146 6 C124 14 106 26 91 43 C77 61 67 83 60 109 C54 136 50 169 50 207 C50 250 54 285 63 315 C73 345 87 370 106 388 C126 407 150 420 181 428 C213 437 251 441 295 441 C335 441 362 435 379 421 C397 407 407 383 410 349 C410 343 407 340 401 340 C395 340 392 344 391 350 C389 382 380 403 365 416 C351 430 327 436 293 436 C253 436 220 432 191 424 C163 416 140 404 122 386 C104 368 91 345 83 317 C75 289 71 255 71 215 C71 177 74 146 80 119 C87 93 97 72 111 55 C125 39 143 27 165 19 C187 11 214 7 246 7 C296 7 333 9 357 11 C382 14 398 19 406 26 L408 24 L408 24 Z M296 514 L180 702 L178 700 L289 497 C290 496 290 495 291 493 C293 492 294 491 295 491 C297 491 298 492 299 493 C301 495 302 496 302 497 L413 700 L411 702 L296 514 L296 514 Z " />
<glyph glyph-name="Dcaron" unicode="&#x10e;" horiz-adv-x="640" d="M59 552 L59 567 L103 567 L114 567 L125 567 L260 567 C320 567 371 563 413 552 C455 542 489 525 515 502 C542 480 561 450 573 414 C585 378 591 335 591 283 C591 232 587 188 576 152 C566 116 550 88 526 65 C503 43 473 27 437 16 C401 6 357 0 305 0 L125 0 L114 0 L103 0 L59 0 L59 15 L66 15 C82 15 92 19 96 27 C101 35 103 53 103 80 L103 487 C103 515 102 532 97 540 C93 548 82 552 66 552 L59 552 L59 552 Z M336 645 L220 833 L218 831 L329 628 C330 627 330 626 331 624 C333 623 334 622 336 622 C338 622 338 623 339 624 C341 626 342 627 342 628 L453 831 L451 833 L336 645 L336 645 Z M125 6 L305 6 C353 6 394 11 427 21 C461 31 487 47 508 69 C530 91 544 120 554 155 C564 191 569 233 569 283 C569 334 564 377 552 412 C541 448 524 476 499 498 C475 520 443 536 403 546 C364 556 316 561 260 561 L125 561 L125 6 L125 6 Z " />
<glyph glyph-name="dcaron" unicode="&#x10f;" horiz-adv-x="593" d="M527 26 L527 17 L468 0 L464 0 L464 5 L464 53 C428 43 397 34 371 26 C346 19 325 13 309 8 C291 3 275 -1 263 -5 C225 -5 194 -1 167 6 C141 14 120 25 103 41 C87 58 75 79 67 105 C59 131 55 163 55 199 C55 243 59 281 67 311 C75 342 88 367 105 386 C123 406 145 420 172 428 C200 437 233 441 272 441 C324 441 366 440 396 436 C427 432 450 427 464 420 L464 541 L464 594 C463 604 460 609 455 611 C451 614 441 619 427 627 L421 630 L421 639 L480 656 L484 656 L484 651 L484 546 L484 115 L484 61 C486 53 489 48 493 45 C498 43 507 38 521 30 L527 26 L527 26 Z M584 580 L536 423 L533 424 L572 585 C576 599 579 612 581 624 C584 637 587 648 589 658 C592 668 594 676 596 682 C599 688 601 691 602 691 C605 691 607 691 610 690 C614 690 615 688 615 686 C615 684 613 676 608 658 C604 641 596 615 584 580 L584 580 Z M464 110 L464 415 C450 421 428 426 397 430 C367 434 325 436 271 436 C236 436 206 433 181 424 C157 416 137 403 121 384 C105 366 95 343 87 313 C80 284 76 248 76 206 C76 170 79 140 86 114 C94 89 105 69 121 53 C137 37 157 26 182 18 C208 11 238 7 274 7 C283 7 301 11 330 18 C360 26 404 38 464 55 L464 110 L464 110 Z " />
<glyph glyph-name="Emacron" unicode="&#x112;" horiz-adv-x="487" d="M86 681 L86 692 L392 692 L392 681 L86 681 L86 681 Z M340 251 L328 251 L324 258 C320 268 316 275 311 280 C307 286 301 289 293 292 C286 296 277 297 265 298 C253 300 238 300 220 300 L105 300 L105 6 L252 6 L272 6 C290 6 304 7 316 9 C328 11 338 14 348 19 C358 25 368 31 376 39 C385 48 394 59 404 71 L413 83 L424 83 C421 69 418 55 415 43 C413 31 410 18 406 3 L406 0 L405 0 L326 0 L105 0 L94 0 L83 0 L40 0 L40 15 L46 15 C62 15 72 19 76 27 C81 35 83 53 83 80 L83 487 C83 515 82 532 77 540 C73 548 62 552 46 552 L40 552 L40 567 L83 567 L94 567 L105 567 L318 567 L395 567 L398 567 L398 564 C400 550 401 536 401 524 C402 512 403 499 403 484 L392 484 L385 495 C377 509 368 521 360 529 C352 538 343 545 333 549 C323 554 311 556 297 558 C283 560 266 561 244 561 L105 561 L105 305 L220 305 C238 305 252 305 264 306 C276 308 286 310 293 312 C301 315 307 319 311 323 C316 328 320 334 324 342 L328 348 L340 348 L340 305 L340 302 L340 300 L340 251 L340 251 Z " />
<glyph glyph-name="emacron" unicode="&#x113;" horiz-adv-x="467" d="M105 550 L105 561 L411 561 L411 550 L105 550 L105 550 Z M415 24 C402 14 382 7 354 2 C327 -2 286 -5 232 -5 C200 -5 172 -2 148 6 C125 14 107 26 92 43 C78 61 67 83 60 109 C54 136 50 169 50 207 C50 250 53 285 61 315 C69 345 81 370 97 388 C114 407 135 420 161 428 C188 437 220 441 258 441 C316 441 356 429 380 404 C405 380 417 338 417 278 L74 278 C72 260 71 239 71 215 C71 177 74 146 80 119 C87 93 97 72 111 55 C126 39 145 27 167 19 C190 11 217 7 249 7 C301 7 339 9 363 11 C388 14 405 19 413 26 L415 24 L415 24 Z M75 281 L398 285 L389 285 C395 285 398 288 398 294 C398 346 388 383 366 404 C345 426 309 436 257 436 C199 436 157 425 128 401 C100 377 82 337 75 281 L75 281 Z " />
<glyph glyph-name="Ebreve" unicode="&#x114;" horiz-adv-x="487" d="M129 779 L132 779 C134 751 143 732 159 720 C175 709 202 703 239 703 C276 703 302 709 318 720 C335 732 344 751 346 779 L349 779 C347 747 338 724 321 710 C305 697 277 690 239 690 C201 690 174 697 157 710 C141 724 131 747 129 779 L129 779 Z M340 251 L328 251 L324 258 C320 268 316 275 311 280 C307 286 301 289 293 292 C286 296 277 297 265 298 C253 300 238 300 220 300 L105 300 L105 6 L252 6 L272 6 C290 6 304 7 316 9 C328 11 338 14 348 19 C358 25 368 31 376 39 C385 48 394 59 404 71 L413 83 L424 83 C421 69 418 55 415 43 C413 31 410 18 406 3 L406 0 L405 0 L326 0 L105 0 L94 0 L83 0 L40 0 L40 15 L46 15 C62 15 72 19 76 27 C81 35 83 53 83 80 L83 487 C83 515 82 532 77 540 C73 548 62 552 46 552 L40 552 L40 567 L83 567 L94 567 L105 567 L318 567 L395 567 L398 567 L398 564 C400 550 401 536 401 524 C402 512 403 499 403 484 L392 484 L385 495 C377 509 368 521 360 529 C352 538 343 545 333 549 C323 554 311 556 297 558 C283 560 266 561 244 561 L105 561 L105 305 L220 305 C238 305 252 305 264 306 C276 308 286 310 293 312 C301 315 307 319 311 323 C316 328 320 334 324 342 L328 348 L340 348 L340 305 L340 302 L340 300 L340 251 L340 251 Z " />
<glyph glyph-name="ebreve" unicode="&#x115;" horiz-adv-x="467" d="M147 648 L151 648 C153 620 162 601 178 589 C194 578 221 572 258 572 C295 572 321 578 337 589 C354 601 363 620 365 648 L368 648 C366 616 357 594 340 580 C324 566 296 559 258 559 C220 559 193 565 176 579 C160 593 150 616 147 648 L147 648 Z M415 24 C402 14 382 7 354 2 C327 -2 286 -5 232 -5 C200 -5 172 -2 148 6 C125 14 107 26 92 43 C78 61 67 83 60 109 C54 136 50 169 50 207 C50 250 53 285 61 315 C69 345 81 370 97 388 C114 407 135 420 161 428 C188 437 220 441 258 441 C316 441 356 429 380 404 C405 380 417 338 417 278 L74 278 C72 260 71 239 71 215 C71 177 74 146 80 119 C87 93 97 72 111 55 C126 39 145 27 167 19 C190 11 217 7 249 7 C301 7 339 9 363 11 C388 14 405 19 413 26 L415 24 L415 24 Z M75 281 L398 285 L389 285 C395 285 398 288 398 294 C398 346 388 383 366 404 C345 426 309 436 257 436 C199 436 157 425 128 401 C100 377 82 337 75 281 L75 281 Z " />
<glyph glyph-name="Edot" unicode="&#x116;" horiz-adv-x="487" d="M239 637 C226 637 219 644 219 657 C219 671 226 677 239 677 C253 677 259 671 259 657 C259 644 253 637 239 637 L239 637 Z M340 251 L328 251 L324 258 C320 268 316 275 311 280 C307 286 301 289 293 292 C286 296 277 297 265 298 C253 300 238 300 220 300 L105 300 L105 6 L252 6 L272 6 C290 6 304 7 316 9 C328 11 338 14 348 19 C358 25 368 31 376 39 C385 48 394 59 404 71 L413 83 L424 83 C421 69 418 55 415 43 C413 31 410 18 406 3 L406 0 L405 0 L326 0 L105 0 L94 0 L83 0 L40 0 L40 15 L46 15 C62 15 72 19 76 27 C81 35 83 53 83 80 L83 487 C83 515 82 532 77 540 C73 548 62 552 46 552 L40 552 L40 567 L83 567 L94 567 L105 567 L318 567 L395 567 L398 567 L398 564 C400 550 401 536 401 524 C402 512 403 499 403 484 L392 484 L385 495 C377 509 368 521 360 529 C352 538 343 545 333 549 C323 554 311 556 297 558 C283 560 266 561 244 561 L105 561 L105 305 L220 305 C238 305 252 305 264 306 C276 308 286 310 293 312 C301 315 307 319 311 323 C316 328 320 334 324 342 L328 348 L340 348 L340 305 L340 302 L340 300 L340 251 L340 251 Z " />
<glyph glyph-name="edot" unicode="&#x117;" horiz-adv-x="467" d="M258 506 C245 506 238 513 238 526 C238 540 245 546 258 546 C272 546 278 540 278 526 C278 513 272 506 258 506 L258 506 Z M415 24 C402 14 382 7 354 2 C327 -2 286 -5 232 -5 C200 -5 172 -2 148 6 C125 14 107 26 92 43 C78 61 67 83 60 109 C54 136 50 169 50 207 C50 250 53 285 61 315 C69 345 81 370 97 388 C114 407 135 420 161 428 C188 437 220 441 258 441 C316 441 356 429 380 404 C405 380 417 338 417 278 L74 278 C72 260 71 239 71 215 C71 177 74 146 80 119 C87 93 97 72 111 55 C126 39 145 27 167 19 C190 11 217 7 249 7 C301 7 339 9 363 11 C388 14 405 19 413 26 L415 24 L415 24 Z M75 281 L398 285 L389 285 C395 285 398 288 398 294 C398 346 388 383 366 404 C345 426 309 436 257 436 C199 436 157 425 128 401 C100 377 82 337 75 281 L75 281 Z " />
<glyph glyph-name="Eogonek" unicode="&#x118;" horiz-adv-x="487" d="M340 251 L328 251 L324 258 C320 268 316 275 311 280 C307 286 301 289 293 292 C286 296 277 297 265 298 C253 300 238 300 220 300 L105 300 L105 6 L252 6 L272 6 C290 6 304 7 316 9 C328 11 338 14 348 19 C358 25 368 31 376 39 C385 48 394 59 404 71 L413 83 L424 83 C421 69 418 55 415 43 C413 31 410 18 406 3 L406 0 L405 0 C395 -4 383 -10 369 -20 C355 -29 342 -40 330 -54 C318 -67 308 -82 300 -100 C292 -118 288 -137 288 -158 C288 -182 294 -199 306 -210 C318 -220 339 -226 367 -226 C385 -226 399 -224 410 -220 C422 -216 431 -209 439 -200 L440 -202 C432 -212 421 -219 409 -224 C397 -228 382 -231 362 -231 C331 -231 310 -226 296 -215 C283 -203 276 -185 276 -160 C276 -140 280 -122 288 -105 C296 -87 305 -73 317 -59 C329 -45 342 -33 356 -23 C370 -13 383 -5 395 0 L326 0 L105 0 L94 0 L83 0 L40 0 L40 15 L46 15 C62 15 72 19 76 27 C81 35 83 53 83 80 L83 487 C83 515 82 532 77 540 C73 548 62 552 46 552 L40 552 L40 567 L83 567 L94 567 L105 567 L318 567 L395 567 L398 567 L398 564 C400 550 401 536 401 524 C402 512 403 499 403 484 L392 484 L385 495 C377 509 368 521 360 529 C352 538 343 545 333 549 C323 554 311 556 297 558 C283 560 266 561 244 561 L105 561 L105 305 L220 305 C238 305 252 305 264 306 C276 308 286 310 293 312 C301 315 307 319 311 323 C316 328 320 334 324 342 L328 348 L340 348 L340 305 L340 302 L340 300 L340 251 L340 251 Z " />
<glyph glyph-name="eogonek" unicode="&#x119;" horiz-adv-x="467" d="M362 11 L362 11 C364 12 364 12 364 12 C365 12 366 13 367 13 L367 12 C391 15 406 20 413 26 L415 24 C402 14 380 6 350 1 C340 -5 329 -12 317 -22 C305 -32 294 -42 284 -56 C274 -69 267 -84 260 -100 C254 -116 250 -133 250 -152 C250 -179 256 -197 268 -209 C280 -220 301 -226 329 -226 C347 -226 361 -224 372 -220 C384 -216 393 -209 401 -200 L402 -202 C394 -212 383 -219 371 -224 C359 -228 344 -231 324 -231 C293 -231 272 -226 258 -214 C245 -202 238 -182 238 -154 C238 -136 241 -120 247 -104 C254 -88 261 -74 271 -61 C281 -47 292 -36 304 -26 C316 -15 328 -6 339 0 C326 -2 311 -3 293 -4 C275 -4 255 -5 232 -5 C200 -5 172 -2 148 6 C125 14 107 26 92 43 C78 61 67 83 60 109 C54 136 50 169 50 207 C50 250 53 285 61 315 C69 345 81 370 97 388 C114 407 135 420 161 428 C188 437 220 441 258 441 C316 441 356 429 380 404 C405 380 417 338 417 278 L74 278 C72 260 71 239 71 215 C71 177 74 146 80 119 C87 93 97 72 111 55 C126 39 145 27 167 19 C190 11 217 7 249 7 C275 7 296 8 314 8 C333 9 349 10 362 11 L362 11 Z M75 281 L398 285 L389 285 C395 285 398 288 398 294 C398 346 388 383 366 404 C345 426 309 436 257 436 C199 436 157 425 128 401 C100 377 82 337 75 281 L75 281 Z " />
<glyph glyph-name="Ecaron" unicode="&#x11a;" horiz-adv-x="487" d="M340 251 L328 251 L324 258 C320 268 316 275 311 280 C307 286 301 289 293 292 C286 296 277 297 265 298 C253 300 238 300 220 300 L105 300 L105 6 L252 6 L272 6 C290 6 304 7 316 9 C328 11 338 14 348 19 C358 25 368 31 376 39 C385 48 394 59 404 71 L413 83 L424 83 C421 69 418 55 415 43 C413 31 410 18 406 3 L406 0 L405 0 L326 0 L105 0 L94 0 L83 0 L40 0 L40 15 L46 15 C62 15 72 19 76 27 C81 35 83 53 83 80 L83 487 C83 515 82 532 77 540 C73 548 62 552 46 552 L40 552 L40 567 L83 567 L94 567 L105 567 L318 567 L395 567 L398 567 L398 564 C400 550 401 536 401 524 C402 512 403 499 403 484 L392 484 L385 495 C377 509 368 521 360 529 C352 538 343 545 333 549 C323 554 311 556 297 558 C283 560 266 561 244 561 L105 561 L105 305 L220 305 C238 305 252 305 264 306 C276 308 286 310 293 312 C301 315 307 319 311 323 C316 328 320 334 324 342 L328 348 L340 348 L340 305 L340 302 L340 300 L340 251 L340 251 Z M239 644 L124 833 L122 831 L233 628 C234 627 234 626 235 624 C237 623 238 622 239 622 C241 622 241 623 242 624 C244 626 245 627 245 628 L356 831 L354 833 L239 644 L239 644 Z " />
<glyph glyph-name="ecaron" unicode="&#x11b;" horiz-adv-x="467" d="M415 24 C402 14 382 7 354 2 C327 -2 286 -5 232 -5 C200 -5 172 -2 148 6 C125 14 107 26 92 43 C78 61 67 83 60 109 C54 136 50 169 50 207 C50 250 53 285 61 315 C69 345 81 370 97 388 C114 407 135 420 161 428 C188 437 220 441 258 441 C316 441 356 429 380 404 C405 380 417 338 417 278 L74 278 C72 260 71 239 71 215 C71 177 74 146 80 119 C87 93 97 72 111 55 C126 39 145 27 167 19 C190 11 217 7 249 7 C301 7 339 9 363 11 C388 14 405 19 413 26 L415 24 L415 24 Z M258 514 L142 702 L140 700 L251 497 C252 496 252 495 253 493 C255 492 256 491 258 491 C260 491 260 492 261 493 C263 495 264 496 264 497 L375 700 L373 702 L258 514 L258 514 Z M75 281 L398 285 L389 285 C395 285 398 288 398 294 C398 346 388 383 366 404 C345 426 309 436 257 436 C199 436 157 425 128 401 C100 377 82 337 75 281 L75 281 Z " />
<glyph glyph-name="Gcircumflex" unicode="&#x11c;" horiz-adv-x="793" d="M701 266 L701 251 L694 251 C679 252 670 248 665 240 C661 232 658 214 658 186 L658 59 C638 48 619 39 599 30 C579 22 559 16 538 10 C518 5 496 2 473 -1 C451 -3 426 -5 398 -5 C339 -5 289 0 247 10 C206 21 172 37 146 60 C120 84 101 114 89 150 C77 187 71 231 71 283 C71 336 77 381 89 417 C101 454 120 483 146 506 C172 530 206 546 247 556 C289 567 339 572 398 572 C472 572 529 572 567 570 C606 569 634 567 652 563 L652 560 L652 560 L657 485 L644 485 C642 489 639 491 637 494 C635 498 633 501 630 504 C615 525 598 540 578 549 C558 559 532 564 499 566 L398 566 C344 566 297 562 258 551 C220 541 188 525 164 502 C140 480 124 450 112 414 C101 378 95 335 95 283 C95 233 100 189 111 153 C123 117 140 89 164 66 C188 44 220 28 258 17 C297 7 344 1 398 1 C448 1 492 5 528 13 C565 22 602 36 638 55 L638 186 C638 214 637 232 632 240 C628 248 617 252 601 251 L595 251 L595 266 L638 266 L648 266 L658 266 L701 266 L701 266 Z M399 789 L283 601 L281 603 L392 806 C393 808 393 809 394 810 C396 812 397 812 398 812 C400 812 401 812 402 810 C404 809 405 808 405 806 L516 603 L514 601 L399 789 L399 789 Z " />
<glyph glyph-name="Gbreve" unicode="&#x11e;" horiz-adv-x="793" d="M288 779 L292 779 C294 751 303 732 319 720 C335 709 362 703 398 703 C436 703 462 709 478 720 C494 732 503 751 505 779 L509 779 C507 747 499 724 481 710 C464 697 436 690 398 690 C360 690 333 697 316 710 C300 724 290 747 288 779 L288 779 Z M701 266 L701 251 L694 251 C679 252 670 248 665 240 C661 232 658 214 658 186 L658 59 C638 48 619 39 599 30 C579 22 559 16 538 10 C518 5 496 2 473 -1 C451 -3 426 -5 398 -5 C339 -5 289 0 247 10 C206 21 172 37 146 60 C120 84 101 114 89 150 C77 187 71 231 71 283 C71 336 77 381 89 417 C101 454 120 483 146 506 C172 530 206 546 247 556 C289 567 339 572 398 572 C472 572 529 572 567 570 C606 569 634 567 652 563 L652 560 L652 560 L657 485 L644 485 C642 489 639 491 637 494 C635 498 633 501 630 504 C615 525 598 540 578 549 C558 559 532 564 499 566 L398 566 C344 566 297 562 258 551 C220 541 188 525 164 502 C140 480 124 450 112 414 C101 378 95 335 95 283 C95 233 100 189 111 153 C123 117 140 89 164 66 C188 44 220 28 258 17 C297 7 344 1 398 1 C448 1 492 5 528 13 C565 22 602 36 638 55 L638 186 C638 214 637 232 632 240 C628 248 617 252 601 251 L595 251 L595 266 L638 266 L648 266 L658 266 L701 266 L701 266 Z " />
<glyph glyph-name="gbreve" unicode="&#x11f;" horiz-adv-x="467" d="M147 648 L150 648 C152 620 161 601 177 589 C194 578 221 572 257 572 C295 572 321 578 337 589 C353 601 362 620 364 648 L367 648 C365 616 356 594 339 580 C323 566 295 559 257 559 C219 559 192 565 175 579 C159 593 149 616 147 648 L147 648 Z M468 436 L468 425 L366 427 C392 418 410 404 421 384 C433 365 438 339 438 307 C438 259 425 224 397 203 C369 183 323 172 257 172 L200 172 C153 172 120 171 100 165 C80 160 70 151 70 138 C70 123 80 113 98 107 C117 101 149 100 194 102 L269 105 C335 105 380 101 407 91 C435 81 448 65 448 41 C448 24 444 10 434 -3 C424 -15 409 -25 387 -33 C365 -41 337 -46 303 -50 C269 -54 228 -56 178 -56 C125 -56 87 -51 65 -41 C43 -30 32 -12 32 13 C32 13 37 13 45 15 C45 -9 55 -26 75 -36 C96 -46 131 -51 180 -51 C272 -51 337 -44 375 -32 C414 -19 433 2 433 31 C433 51 421 65 395 73 C369 82 326 86 264 86 L195 83 C145 81 111 83 89 90 C68 98 57 111 57 130 C57 146 67 157 87 164 C108 172 143 176 192 176 C150 182 121 196 103 216 C85 237 76 267 76 307 C76 356 89 390 117 410 C145 431 192 441 257 441 C291 441 318 439 339 434 L468 436 L468 436 Z M95 307 L95 307 C95 260 108 227 132 207 C157 187 199 177 257 177 C316 177 358 186 382 206 C407 226 419 260 419 307 C419 341 414 367 402 386 C390 406 371 419 343 427 L338 427 L338 428 C316 434 289 437 257 437 C199 437 157 428 132 408 C108 388 95 355 95 307 L95 307 Z M45 15 L45 15 L45 15 L45 15 L45 15 Z M45 15 L45 15 C55 17 68 20 88 25 C108 31 135 38 169 46 L171 44 C125 33 94 25 74 20 C55 16 45 14 45 15 L45 15 Z " />
<glyph glyph-name="Gdot" unicode="&#x120;" horiz-adv-x="793" d="M398 637 C385 637 378 644 378 657 C378 671 385 677 398 677 C412 677 418 671 418 657 C418 644 412 637 398 637 L398 637 Z M701 266 L701 251 L694 251 C679 252 670 248 665 240 C661 232 658 214 658 186 L658 59 C638 48 619 39 599 30 C579 22 559 16 538 10 C518 5 496 2 473 -1 C451 -3 426 -5 398 -5 C339 -5 289 0 247 10 C206 21 172 37 146 60 C120 84 101 114 89 150 C77 187 71 231 71 283 C71 336 77 381 89 417 C101 454 120 483 146 506 C172 530 206 546 247 556 C289 567 339 572 398 572 C472 572 529 572 567 570 C606 569 634 567 652 563 L652 560 L652 560 L657 485 L644 485 C642 489 639 491 637 494 C635 498 633 501 630 504 C615 525 598 540 578 549 C558 559 532 564 499 566 L398 566 C344 566 297 562 258 551 C220 541 188 525 164 502 C140 480 124 450 112 414 C101 378 95 335 95 283 C95 233 100 189 111 153 C123 117 140 89 164 66 C188 44 220 28 258 17 C297 7 344 1 398 1 C448 1 492 5 528 13 C565 22 602 36 638 55 L638 186 C638 214 637 232 632 240 C628 248 617 252 601 251 L595 251 L595 266 L638 266 L648 266 L658 266 L701 266 L701 266 Z " />
<glyph glyph-name="gdot" unicode="&#x121;" horiz-adv-x="467" d="M257 506 C244 506 237 513 237 526 C237 540 244 546 257 546 C271 546 277 540 277 526 C277 513 271 506 257 506 L257 506 Z M468 436 L468 425 L366 427 C392 418 410 404 421 384 C433 365 438 339 438 307 C438 259 425 224 397 203 C369 183 323 172 257 172 L200 172 C153 172 120 171 100 165 C80 160 70 151 70 138 C70 123 80 113 98 107 C117 101 149 100 194 102 L269 105 C335 105 380 101 407 91 C435 81 448 65 448 41 C448 24 444 10 434 -3 C424 -15 409 -25 387 -33 C365 -41 337 -46 303 -50 C269 -54 228 -56 178 -56 C125 -56 87 -51 65 -41 C43 -30 32 -12 32 13 C32 13 37 13 45 15 C45 -9 55 -26 75 -36 C96 -46 131 -51 180 -51 C272 -51 337 -44 375 -32 C414 -19 433 2 433 31 C433 51 421 65 395 73 C369 82 326 86 264 86 L195 83 C145 81 111 83 89 90 C68 98 57 111 57 130 C57 146 67 157 87 164 C108 172 143 176 192 176 C150 182 121 196 103 216 C85 237 76 267 76 307 C76 356 89 390 117 410 C145 431 192 441 257 441 C291 441 318 439 339 434 L468 436 L468 436 Z M95 307 L95 307 C95 260 108 227 132 207 C157 187 199 177 257 177 C316 177 358 186 382 206 C407 226 419 260 419 307 C419 341 414 367 402 386 C390 406 371 419 343 427 L338 427 L338 428 C316 434 289 437 257 437 C199 437 157 428 132 408 C108 388 95 355 95 307 L95 307 Z M45 15 L45 15 L45 15 L45 15 L45 15 Z M45 15 L45 15 C55 17 68 20 88 25 C108 31 135 38 169 46 L171 44 C125 33 94 25 74 20 C55 16 45 14 45 15 L45 15 Z " />
<glyph glyph-name="Hcircumflex" unicode="&#x124;" horiz-adv-x="702" d="M554 552 L554 567 L597 567 L609 567 L620 567 L663 567 C663 567 663 565 663 559 C663 555 663 552 663 552 L656 552 C643 552 635 550 629 544 C624 538 621 526 620 506 L620 487 L620 80 L620 61 C621 42 623 30 628 24 C634 18 643 15 656 15 L663 15 C663 15 663 13 663 8 C663 3 663 0 663 0 L620 0 L609 0 L597 0 L554 0 L554 15 L561 15 C577 15 586 19 590 27 C595 35 597 53 597 80 L597 297 L105 297 L105 80 C106 53 108 35 112 27 C117 19 127 15 142 15 L148 15 C149 15 149 13 148 8 C149 3 149 0 148 0 L105 0 L94 0 L83 0 L40 0 L40 15 L46 15 C62 15 72 19 76 27 C81 35 83 53 83 80 L83 487 C83 515 82 532 77 540 C73 548 62 552 46 552 L40 552 L40 567 L83 567 L94 567 L105 567 L148 567 C149 567 149 565 148 559 C149 555 149 552 148 552 L142 552 C127 552 118 548 113 540 C109 532 106 515 105 487 L105 303 L597 303 L597 487 C597 515 596 532 591 540 C587 548 577 552 561 552 L554 552 L554 552 Z M352 789 L236 601 L234 603 L345 806 C346 808 346 809 347 810 C349 812 350 812 351 812 C353 812 354 812 355 810 C357 809 358 808 358 806 L469 603 L467 601 L352 789 L352 789 Z " />
<glyph glyph-name="Itilde" unicode="&#x128;" horiz-adv-x="188" d="M-53 662 L-57 662 C-57 694 -52 716 -44 728 C-35 741 -20 747 1 747 C21 747 37 744 52 737 C68 731 82 724 96 716 C110 708 125 701 140 694 C156 688 173 684 191 684 C210 684 222 689 230 698 C238 708 242 723 242 744 L245 744 C245 718 241 700 232 688 C224 677 209 671 187 671 C168 671 152 675 136 681 C121 688 107 694 92 702 C78 710 64 718 48 724 C33 731 16 734 -4 734 C-21 734 -33 730 -41 718 C-49 707 -53 688 -53 662 L-53 662 Z M40 552 L40 567 L83 567 L94 567 L105 567 L148 567 C149 567 149 565 148 559 C149 555 149 552 148 552 L142 552 C127 552 118 548 113 540 C109 532 106 515 105 487 L105 80 C106 53 108 35 112 27 C117 19 127 15 142 15 L148 15 C149 15 149 13 148 8 C149 3 149 0 148 0 L105 0 L94 0 L83 0 L40 0 L40 15 L46 15 C62 15 72 19 76 27 C81 35 83 53 83 80 L83 487 C83 515 82 532 77 540 C73 548 62 552 46 552 L40 552 L40 552 Z " />
<glyph glyph-name="itilde" unicode="&#x129;" horiz-adv-x="196" d="M-49 531 L-53 531 C-53 563 -48 585 -40 597 C-31 610 -16 616 5 616 C25 616 42 614 56 607 C71 601 85 593 99 585 C114 577 128 571 143 564 C159 558 176 554 195 554 C213 554 225 558 233 567 C241 577 245 592 245 614 L249 614 C249 587 246 569 236 557 C227 546 212 540 190 540 C172 540 156 544 140 550 C125 557 111 563 96 571 C82 579 68 587 52 593 C37 600 20 603 0 603 C-17 603 -29 599 -37 587 C-45 576 -49 557 -49 531 L-49 531 Z M108 0 L108 356 L88 356 L88 350 C88 362 89 369 88 375 C88 381 87 385 86 387 C86 390 85 392 83 392 C81 393 79 394 77 396 L52 415 L52 424 L107 441 L108 441 L108 356 L108 0 C108 10 110 14 114 14 C118 15 128 15 143 15 L151 15 L151 0 L108 0 L108 0 Z M88 350 L88 0 L45 0 L45 15 L54 15 C69 15 78 16 82 15 C86 15 88 10 88 0 L88 350 L88 350 Z " />
<glyph glyph-name="Imacron" unicode="&#x12a;" horiz-adv-x="188" d="M-59 681 L-59 692 L247 692 L247 681 L-59 681 L-59 681 Z M40 552 L40 567 L83 567 L94 567 L105 567 L148 567 C149 567 149 565 148 559 C149 555 149 552 148 552 L142 552 C127 552 118 548 113 540 C109 532 106 515 105 487 L105 80 C106 53 108 35 112 27 C117 19 127 15 142 15 L148 15 C149 15 149 13 148 8 C149 3 149 0 148 0 L105 0 L94 0 L83 0 L40 0 L40 15 L46 15 C62 15 72 19 76 27 C81 35 83 53 83 80 L83 487 C83 515 82 532 77 540 C73 548 62 552 46 552 L40 552 L40 552 Z " />
<glyph glyph-name="imacron" unicode="&#x12b;" horiz-adv-x="196" d="M-55 550 L-55 561 L251 561 L251 550 L-55 550 L-55 550 Z M108 0 L108 356 L88 356 L88 350 C88 362 89 369 88 375 C88 381 87 385 86 387 C86 390 85 392 83 392 C81 393 79 394 77 396 L52 415 L52 424 L107 441 L108 441 L108 356 L108 0 C108 10 110 14 114 14 C118 15 128 15 143 15 L151 15 L151 0 L108 0 L108 0 Z M88 350 L88 0 L45 0 L45 15 L54 15 C69 15 78 16 82 15 C86 15 88 10 88 0 L88 350 L88 350 Z " />
<glyph glyph-name="Ibreve" unicode="&#x12c;" horiz-adv-x="188" d="M-16 779 L-13 779 C-11 751 -2 732 14 720 C31 709 58 703 94 703 C132 703 158 709 174 720 C190 732 199 751 201 779 L205 779 C203 747 193 724 176 710 C160 697 132 690 94 690 C56 690 29 697 12 710 C-4 724 -14 747 -16 779 L-16 779 Z M40 552 L40 567 L83 567 L94 567 L105 567 L148 567 C149 567 149 565 148 559 C149 555 149 552 148 552 L142 552 C127 552 118 548 113 540 C109 532 106 515 105 487 L105 80 C106 53 108 35 112 27 C117 19 127 15 142 15 L148 15 C149 15 149 13 148 8 C149 3 149 0 148 0 L105 0 L94 0 L83 0 L40 0 L40 15 L46 15 C62 15 72 19 76 27 C81 35 83 53 83 80 L83 487 C83 515 82 532 77 540 C73 548 62 552 46 552 L40 552 L40 552 Z " />
<glyph glyph-name="ibreve" unicode="&#x12d;" horiz-adv-x="196" d="M-12 648 L-9 648 C-7 620 2 601 18 589 C35 578 62 572 98 572 C136 572 162 578 178 589 C194 601 203 620 205 648 L208 648 C206 616 197 594 180 580 C164 566 136 559 98 559 C60 559 33 565 16 579 C0 593 -10 616 -12 648 L-12 648 Z M108 0 L108 356 L88 356 L88 350 C88 362 89 369 88 375 C88 381 87 385 86 387 C86 390 85 392 83 392 C81 393 79 394 77 396 L52 415 L52 424 L107 441 L108 441 L108 356 L108 0 C108 10 110 14 114 14 C118 15 128 15 143 15 L151 15 L151 0 L108 0 L108 0 Z M88 350 L88 0 L45 0 L45 15 L54 15 C69 15 78 16 82 15 C86 15 88 10 88 0 L88 350 L88 350 Z " />
<glyph glyph-name="Idot" unicode="&#x130;" horiz-adv-x="188" d="M94 637 C81 637 74 644 74 657 C74 671 81 677 94 677 C108 677 114 671 114 657 C114 644 108 637 94 637 L94 637 Z M40 552 L40 567 L83 567 L94 567 L105 567 L148 567 C149 567 149 565 148 559 C149 555 149 552 148 552 L142 552 C127 552 118 548 113 540 C109 532 106 515 105 487 L105 80 C106 53 108 35 112 27 C117 19 127 15 142 15 L148 15 C149 15 149 13 148 8 C149 3 149 0 148 0 L105 0 L94 0 L83 0 L40 0 L40 15 L46 15 C62 15 72 19 76 27 C81 35 83 53 83 80 L83 487 C83 515 82 532 77 540 C73 548 62 552 46 552 L40 552 L40 552 Z " />
<glyph glyph-name="dotlessi" unicode="&#x131;" horiz-adv-x="196" d="M108 0 L108 356 L88 356 L88 350 C88 362 89 369 88 375 C88 381 87 385 86 387 C86 390 85 392 83 392 C81 393 79 394 77 396 L52 415 L52 424 L107 441 L108 441 L108 356 L108 0 C108 10 110 14 114 14 C118 15 128 15 143 15 L151 15 L151 0 L108 0 L108 0 Z M88 350 L88 0 L45 0 L45 15 L54 15 C69 15 78 16 82 15 C86 15 88 10 88 0 L88 350 L88 350 Z " />
<glyph glyph-name="Jcircumflex" unicode="&#x134;" horiz-adv-x="315" d="M275 567 L275 552 L269 552 C254 552 244 549 239 541 C235 533 232 515 232 487 L232 191 C232 147 231 113 227 86 C224 60 217 39 207 25 C197 11 183 2 164 -3 C146 -7 121 -10 89 -10 C62 -10 42 -5 28 4 C15 14 6 29 0 50 C0 56 3 59 9 59 C15 59 19 56 19 50 C25 30 33 16 44 7 C56 -1 72 -6 94 -6 C120 -6 140 -4 155 0 C171 4 182 13 190 25 C198 38 204 56 206 79 C209 103 210 134 210 172 L210 487 C210 515 209 532 204 540 C200 548 189 552 173 552 L167 552 L167 567 L210 567 L221 567 L232 567 L275 567 L275 567 Z M221 790 L106 601 L104 603 L215 806 C216 808 216 809 217 810 C219 812 220 812 221 812 C223 812 223 812 224 810 C226 809 227 808 227 806 L339 603 L336 601 L221 790 L221 790 Z " />
<glyph glyph-name="Lacute" unicode="&#x139;" horiz-adv-x="487" d="M69 598 L67 600 L166 738 C182 760 192 775 198 783 C205 792 209 796 210 796 C212 796 215 795 217 793 C220 791 221 790 221 788 C221 787 218 783 211 774 C205 766 193 751 176 730 L69 598 L69 598 Z M407 92 C409 92 411 91 413 90 C418 89 422 88 425 87 C422 72 420 58 416 45 C413 33 410 19 406 3 L406 0 L405 0 L326 0 L105 0 L94 0 L83 0 L40 0 L40 15 L46 15 C62 15 72 19 76 27 C81 35 83 53 83 80 L83 487 C83 515 82 532 77 540 C73 548 62 552 46 552 L40 552 L40 567 L83 567 L94 567 L105 567 L148 567 C149 567 149 565 148 559 C149 555 149 552 148 552 L142 552 C127 552 118 548 113 540 C109 532 106 515 105 487 L105 6 L262 6 L279 6 C295 6 308 7 319 9 C331 12 341 16 349 21 C358 27 365 34 373 43 C381 53 390 65 398 79 L407 92 L407 92 Z " />
<glyph glyph-name="Lcaron" unicode="&#x13d;" horiz-adv-x="487" d="M407 92 C409 92 411 91 413 90 C418 89 422 88 425 87 C422 72 420 58 416 45 C413 33 410 19 406 3 L406 0 L405 0 L326 0 L105 0 L94 0 L83 0 L40 0 L40 15 L46 15 C62 15 72 19 76 27 C81 35 83 53 83 80 L83 487 C83 515 82 532 77 540 C73 548 62 552 46 552 L40 552 L40 567 L83 567 L94 567 L105 567 L148 567 C149 567 149 565 148 559 C149 555 149 552 148 552 L142 552 C127 552 118 548 113 540 C109 532 106 515 105 487 L105 6 L262 6 L279 6 C295 6 308 7 319 9 C331 12 341 16 349 21 C358 27 365 34 373 43 C381 53 390 65 398 79 L407 92 L407 92 Z M249 491 L200 334 L198 335 L236 496 C240 510 243 523 245 535 C248 548 251 559 253 569 C256 579 258 586 260 592 C263 598 265 601 267 601 C269 601 271 602 274 601 C278 601 279 599 279 597 C279 595 278 587 273 569 C269 552 261 526 249 491 L249 491 Z " />
<glyph glyph-name="lcaron" unicode="&#x13e;" horiz-adv-x="196" d="M45 630 L45 639 L104 656 L108 656 L108 651 L108 546 L108 80 C108 52 111 35 115 27 C120 19 130 15 145 15 L151 15 L151 0 L108 0 L98 0 L88 0 L45 0 L45 15 L51 15 C67 15 77 19 81 27 C86 35 88 53 88 80 L88 541 L88 594 C87 604 84 609 79 611 C75 614 65 619 51 627 L45 630 L45 630 Z M208 550 L160 393 L157 394 L196 555 C200 569 203 582 205 594 C208 607 211 618 213 628 C216 638 218 646 220 652 C223 658 225 661 226 661 C229 661 231 661 234 660 C238 660 239 658 239 656 C239 654 237 646 232 628 C228 611 220 585 208 550 L208 550 Z " />
<glyph glyph-name="Lslash" unicode="&#x141;" horiz-adv-x="487" d="M33 230 L33 237 L83 260 L83 487 C83 515 82 532 77 540 C73 548 62 552 46 552 L40 552 L40 567 L83 567 L94 567 L105 567 L148 567 C149 567 149 565 148 559 C149 555 149 552 148 552 L142 552 C127 552 118 548 113 540 C109 532 106 515 105 487 L105 269 L255 337 L255 330 L105 262 L105 6 L262 6 L279 6 C295 6 308 7 319 9 C331 12 341 16 349 21 C358 27 365 34 373 43 C381 53 390 65 398 79 L407 92 C409 92 411 91 413 90 C418 89 422 88 425 87 C422 72 420 58 416 45 C413 33 410 19 406 3 L406 0 L405 0 L326 0 L105 0 L94 0 L83 0 L40 0 L40 15 L46 15 C62 15 72 19 76 27 C81 35 83 53 83 80 L83 253 L33 230 L33 230 Z " />
<glyph glyph-name="lslash" unicode="&#x142;" horiz-adv-x="196" d="M-12 275 L-12 281 L88 326 L88 541 L88 594 C87 604 84 609 79 611 C75 614 65 619 51 627 L45 630 L45 639 L104 656 L108 656 L108 651 L108 546 L108 336 L208 381 L208 375 L108 330 L108 80 C108 52 111 35 115 27 C120 19 130 15 145 15 L151 15 L151 0 L108 0 L98 0 L88 0 L45 0 L45 15 L51 15 C67 15 77 19 81 27 C86 35 88 53 88 80 L88 320 L-12 275 L-12 275 Z " />
<glyph glyph-name="Nacute" unicode="&#x143;" horiz-adv-x="629" d="M287 598 L285 600 L384 738 C392 749 399 758 404 765 C410 773 414 779 417 783 C421 789 425 793 427 796 C429 796 431 795 434 793 C438 791 439 790 439 788 C439 787 437 783 429 774 C422 766 410 751 394 730 L287 598 L287 598 Z M594 567 L594 552 L587 552 C572 552 563 548 558 540 C554 532 551 515 551 487 L551 17 L551 -4 L545 -4 L534 9 L95 548 L95 80 C95 53 97 35 101 27 C106 19 116 15 132 15 L138 15 L138 0 L95 0 L92 0 L88 0 L45 0 L45 15 L52 15 C68 15 77 19 81 27 C86 35 88 53 88 80 L88 487 C88 515 87 532 82 540 C78 548 68 552 52 552 L45 552 L45 567 L88 567 L92 567 L95 567 L108 567 L95 558 L95 558 L108 567 L544 31 L544 487 C544 515 543 532 538 540 C534 548 523 552 507 552 L501 552 L501 567 L544 567 L547 567 L551 567 L594 567 L594 567 Z " />
<glyph glyph-name="nacute" unicode="&#x144;" horiz-adv-x="555" d="M202 468 L199 469 L298 607 C314 629 325 644 331 652 C338 661 342 665 342 665 C344 665 346 664 349 662 C353 660 354 659 354 657 C354 657 352 652 344 643 C337 635 325 620 309 599 L202 468 L202 468 Z M515 15 L515 0 L472 0 L462 0 L452 0 L409 0 L409 15 L415 15 C431 15 441 19 445 27 C450 35 452 53 452 80 L452 289 C452 315 452 335 448 353 C445 371 439 385 429 396 C420 408 408 415 390 420 C373 426 350 428 321 428 C313 428 294 424 261 415 C229 407 178 392 108 370 L108 351 L108 326 L108 80 C108 53 110 35 114 27 C119 19 129 15 145 15 L151 15 L151 0 L108 0 L98 0 L88 0 L45 0 L45 15 L51 15 C67 15 77 19 81 27 C86 35 88 53 88 80 L88 321 L88 351 L88 351 C88 362 89 370 88 375 C88 381 87 384 84 387 C82 391 79 393 73 395 C68 398 61 402 51 407 L45 410 L45 419 L104 436 L108 436 L108 373 C150 385 186 396 214 404 C243 413 266 420 284 425 C306 432 323 437 336 441 C366 441 389 439 407 433 C425 428 438 419 448 407 C458 395 464 381 467 361 C471 342 472 319 472 291 L472 80 C472 53 474 35 478 27 C483 19 493 15 509 15 L515 15 L515 15 Z " />
<glyph glyph-name="Ncaron" unicode="&#x147;" horiz-adv-x="629" d="M594 567 L594 552 L587 552 C572 552 563 548 558 540 C554 532 551 515 551 487 L551 17 L551 -4 L545 -4 L534 9 L95 548 L95 80 C95 53 97 35 101 27 C106 19 116 15 132 15 L138 15 L138 0 L95 0 L92 0 L88 0 L45 0 L45 15 L52 15 C68 15 77 19 81 27 C86 35 88 53 88 80 L88 487 C88 515 87 532 82 540 C78 548 68 552 52 552 L45 552 L45 567 L88 567 L92 567 L95 567 L108 567 L95 558 L95 558 L108 567 L544 31 L544 487 C544 515 543 532 538 540 C534 548 523 552 507 552 L501 552 L501 567 L544 567 L547 567 L551 567 L594 567 L594 567 Z M320 645 L204 833 L202 831 L313 628 C314 627 314 626 315 624 C317 623 318 622 320 622 C322 622 322 623 323 624 C325 626 326 627 326 628 L437 831 L435 833 L320 645 L320 645 Z " />
<glyph glyph-name="ncaron" unicode="&#x148;" horiz-adv-x="555" d="M515 15 L515 0 L472 0 L462 0 L452 0 L409 0 L409 15 L415 15 C431 15 441 19 445 27 C450 35 452 53 452 80 L452 289 C452 315 452 335 448 353 C445 371 439 385 429 396 C420 408 408 415 390 420 C373 426 350 428 321 428 C313 428 294 424 261 415 C229 407 178 392 108 370 L108 351 L108 326 L108 80 C108 53 110 35 114 27 C119 19 129 15 145 15 L151 15 L151 0 L108 0 L98 0 L88 0 L45 0 L45 15 L51 15 C67 15 77 19 81 27 C86 35 88 53 88 80 L88 321 L88 351 L88 351 C88 362 89 370 88 375 C88 381 87 384 84 387 C82 391 79 393 73 395 C68 398 61 402 51 407 L45 410 L45 419 L104 436 L108 436 L108 373 C150 385 186 396 214 404 C243 413 266 420 284 425 C306 432 323 437 336 441 C366 441 389 439 407 433 C425 428 438 419 448 407 C458 395 464 381 467 361 C471 342 472 319 472 291 L472 80 C472 53 474 35 478 27 C483 19 493 15 509 15 L515 15 L515 15 Z M280 513 L165 702 L163 700 L274 497 C275 496 275 495 276 493 C278 492 279 491 280 491 C282 491 282 492 283 493 C285 495 286 496 286 497 L397 700 L395 702 L280 513 L280 513 Z " />
<glyph glyph-name="Omacron" unicode="&#x14c;" horiz-adv-x="765" d="M240 681 L240 692 L546 692 L546 681 L240 681 L240 681 Z M393 1 C453 1 502 7 540 19 C579 31 609 49 631 73 C654 97 670 126 678 161 C687 197 691 237 691 283 C691 329 687 370 678 405 C670 441 655 470 632 494 C610 518 579 536 540 548 C502 560 453 566 393 566 C334 566 285 560 246 548 C208 536 178 518 155 494 C133 470 117 441 108 405 C100 370 95 329 95 283 C95 237 100 198 108 162 C117 127 132 97 154 73 C177 49 208 31 246 19 C285 7 334 1 393 1 L393 1 Z M71 283 C71 331 76 372 85 408 C95 444 111 474 135 498 C160 523 192 541 234 553 C276 566 329 572 393 572 C457 572 509 567 551 554 C593 542 626 524 650 499 C675 475 692 444 701 408 C711 372 715 331 715 283 C715 237 711 195 701 159 C692 123 676 94 651 69 C627 45 594 27 552 14 C510 2 457 -5 393 -5 C329 -5 277 1 235 13 C193 26 161 44 136 68 C112 93 95 123 85 159 C76 195 71 237 71 283 L71 283 Z " />
<glyph glyph-name="omacron" unicode="&#x14d;" horiz-adv-x="586" d="M140 550 L140 561 L446 561 L446 550 L140 550 L140 550 Z M293 -1 C333 -1 367 3 395 11 C423 19 445 32 463 49 C481 67 494 88 502 116 C510 144 514 178 514 218 C514 258 510 291 502 319 C494 347 482 370 464 387 C446 405 423 417 395 425 C367 433 333 437 293 437 C253 437 219 433 191 425 C163 417 141 405 123 387 C105 370 92 348 84 320 C76 292 72 258 72 218 C72 178 76 145 84 117 C92 89 104 67 122 49 C140 32 163 19 191 11 C219 3 253 -1 293 -1 L293 -1 Z M50 218 C50 259 55 293 63 321 C72 350 85 372 105 390 C125 408 151 421 181 429 C212 437 249 441 293 441 C337 441 374 437 405 429 C437 421 461 409 481 391 C501 373 516 351 524 322 C533 294 537 259 537 218 C537 178 533 144 524 115 C516 87 502 64 482 46 C462 28 438 15 406 7 C375 -1 337 -5 293 -5 C249 -5 212 -1 181 7 C151 15 126 27 106 45 C86 63 72 86 63 114 C55 143 50 178 50 218 L50 218 Z " />
<glyph glyph-name="Obreve" unicode="&#x14e;" horiz-adv-x="765" d="M283 779 L286 779 C288 751 297 732 313 720 C329 709 356 703 393 703 C430 703 456 709 472 720 C489 732 498 751 500 779 L503 779 C501 747 492 724 475 710 C459 697 431 690 393 690 C355 690 328 697 311 710 C295 724 285 747 283 779 L283 779 Z M393 1 C453 1 502 7 540 19 C579 31 609 49 631 73 C654 97 670 126 678 161 C687 197 691 237 691 283 C691 329 687 370 678 405 C670 441 655 470 632 494 C610 518 579 536 540 548 C502 560 453 566 393 566 C334 566 285 560 246 548 C208 536 178 518 155 494 C133 470 117 441 108 405 C100 370 95 329 95 283 C95 237 100 198 108 162 C117 127 132 97 154 73 C177 49 208 31 246 19 C285 7 334 1 393 1 L393 1 Z M71 283 C71 331 76 372 85 408 C95 444 111 474 135 498 C160 523 192 541 234 553 C276 566 329 572 393 572 C457 572 509 567 551 554 C593 542 626 524 650 499 C675 475 692 444 701 408 C711 372 715 331 715 283 C715 237 711 195 701 159 C692 123 676 94 651 69 C627 45 594 27 552 14 C510 2 457 -5 393 -5 C329 -5 277 1 235 13 C193 26 161 44 136 68 C112 93 95 123 85 159 C76 195 71 237 71 283 L71 283 Z " />
<glyph glyph-name="obreve" unicode="&#x14f;" horiz-adv-x="586" d="M183 648 L186 648 C188 620 197 601 213 589 C230 578 257 572 293 572 C331 572 357 578 373 589 C389 601 398 620 400 648 L404 648 C402 616 392 594 375 580 C359 566 331 559 293 559 C255 559 228 565 211 579 C195 593 185 616 183 648 L183 648 Z M293 -1 C333 -1 367 3 395 11 C423 19 445 32 463 49 C481 67 494 88 502 116 C510 144 514 178 514 218 C514 258 510 291 502 319 C494 347 482 370 464 387 C446 405 423 417 395 425 C367 433 333 437 293 437 C253 437 219 433 191 425 C163 417 141 405 123 387 C105 370 92 348 84 320 C76 292 72 258 72 218 C72 178 76 145 84 117 C92 89 104 67 122 49 C140 32 163 19 191 11 C219 3 253 -1 293 -1 L293 -1 Z M50 218 C50 259 55 293 63 321 C72 350 85 372 105 390 C125 408 151 421 181 429 C212 437 249 441 293 441 C337 441 374 437 405 429 C437 421 461 409 481 391 C501 373 516 351 524 322 C533 294 537 259 537 218 C537 178 533 144 524 115 C516 87 502 64 482 46 C462 28 438 15 406 7 C375 -1 337 -5 293 -5 C249 -5 212 -1 181 7 C151 15 126 27 106 45 C86 63 72 86 63 114 C55 143 50 178 50 218 L50 218 Z " />
<glyph glyph-name="Racute" unicode="&#x154;" horiz-adv-x="606" d="M209 598 L207 600 L306 738 C322 760 333 775 339 783 C346 792 350 796 350 796 C352 796 355 795 357 793 C360 791 361 790 361 788 C361 787 358 783 351 774 C345 766 333 751 316 730 L209 598 L209 598 Z M59 552 L59 567 L103 567 L114 567 L125 567 L289 567 C357 567 403 556 431 534 C459 512 473 475 473 422 C473 370 458 334 427 310 C397 287 345 275 273 273 L476 102 C510 74 535 53 551 39 C568 25 579 17 585 11 C592 6 596 3 596 3 C597 4 599 4 601 4 L606 4 L606 0 L594 0 C588 0 584 1 581 0 C579 0 573 2 565 7 C557 13 545 22 527 37 C510 53 483 76 446 106 L247 273 L125 273 L125 80 C125 53 127 35 131 27 C136 19 146 15 161 15 L168 15 L168 0 L125 0 L114 0 L103 0 L59 0 L59 15 L66 15 C82 15 92 19 96 27 C101 35 103 53 103 80 L103 487 C103 515 102 532 97 540 C93 548 82 552 66 552 L59 552 L59 552 Z M256 279 C326 279 376 289 405 311 C435 333 449 370 449 422 C449 473 438 508 413 529 C389 551 347 561 289 561 L125 561 L125 279 L240 279 L256 279 L256 279 Z " />
<glyph glyph-name="Rcaron" unicode="&#x158;" horiz-adv-x="510" d="M59 552 L59 567 L103 567 L114 567 L125 567 L289 567 C357 567 403 556 431 534 C459 512 473 475 473 422 C473 372 459 335 430 312 C402 290 354 277 286 274 C301 235 316 201 331 169 C347 138 363 111 381 85 C399 60 419 37 440 17 C462 -3 486 -21 512 -39 L510 -42 C478 -20 448 1 422 23 C396 46 373 69 353 94 C333 120 316 146 300 175 C284 205 270 237 256 273 L125 273 L125 80 C125 53 127 35 131 27 C136 19 146 15 161 15 L168 15 L168 0 L125 0 L114 0 L103 0 L59 0 L59 15 L66 15 C82 15 92 19 96 27 C101 35 103 53 103 80 L103 487 C103 515 102 532 97 540 C93 548 82 552 66 552 L59 552 L59 552 Z M288 645 L172 833 L170 831 L281 628 C282 627 282 626 283 624 C285 623 286 622 288 622 C290 622 290 623 291 624 C293 626 294 627 294 628 L405 831 L403 833 L288 645 L288 645 Z M125 279 L256 279 C326 279 376 289 405 311 C435 333 449 370 449 422 C449 473 438 508 413 529 C389 551 347 561 289 561 L125 561 L125 279 L125 279 Z " />
<glyph glyph-name="rcaron" unicode="&#x159;" horiz-adv-x="378" d="M45 410 L45 419 L101 436 L105 436 L107 372 C137 385 163 396 183 404 C204 413 221 420 234 425 C250 432 262 437 272 441 C294 441 310 441 322 439 C335 438 344 436 351 433 C359 431 363 427 365 422 C367 418 368 412 368 406 C368 400 365 396 359 396 C349 396 341 397 332 400 C324 404 316 407 308 411 C300 415 293 418 284 421 C276 425 266 426 256 426 C252 426 238 422 215 413 C193 405 157 390 107 369 L107 351 L108 351 L108 326 L108 80 C108 53 110 35 114 27 C119 19 129 15 145 15 L151 15 L151 0 L108 0 L98 0 L88 0 L45 0 L45 15 L51 15 C67 15 77 19 81 27 C86 35 88 53 88 80 L88 321 L88 351 L88 351 C88 362 89 370 88 375 C88 381 87 384 84 387 C82 391 79 393 73 395 C68 398 61 402 51 407 L45 410 L45 410 Z M180 513 L65 702 L63 700 L174 497 C175 496 175 495 176 493 C178 492 179 491 180 491 C182 491 182 492 183 493 C185 495 186 496 186 497 L297 700 L295 702 L180 513 L180 513 Z " />
<glyph glyph-name="Sacute" unicode="&#x15a;" horiz-adv-x="506" d="M185 598 L183 600 L282 738 C298 760 309 775 315 783 C322 792 326 796 326 796 C328 796 331 795 333 793 C336 791 337 790 337 788 C337 787 334 783 327 774 C321 766 309 751 292 730 L185 598 L185 598 Z M317 566 L233 566 C175 566 135 556 110 535 C86 515 73 480 73 430 C73 394 88 367 117 345 C147 324 196 306 266 292 C338 278 387 260 417 236 C447 212 462 179 462 137 C462 86 450 50 422 28 C395 6 349 -5 285 -5 C206 -5 148 -4 111 -4 C75 -3 53 -2 45 -1 L45 2 L45 2 L40 78 L46 78 C48 79 50 79 53 79 C56 76 58 74 60 70 C62 67 65 64 67 60 C83 40 100 25 122 16 C144 8 173 3 209 1 L285 1 C344 1 385 11 409 30 C434 50 446 82 446 128 C446 168 431 198 401 220 C371 242 320 261 248 275 C180 289 131 307 101 329 C72 352 57 383 57 421 C57 477 70 516 97 538 C125 561 170 572 234 572 C298 572 345 572 375 571 C405 571 424 570 431 568 L436 489 L429 489 C428 489 426 488 423 488 C420 493 417 497 414 500 C412 504 409 508 405 513 C392 531 379 544 365 552 C352 560 336 565 317 566 L317 566 Z " />
<glyph glyph-name="sacute" unicode="&#x15b;" horiz-adv-x="429" d="M130 468 L128 469 L227 607 C243 629 253 644 259 652 C266 661 270 665 270 665 C273 665 276 664 278 662 C281 660 282 659 282 657 C282 657 279 652 272 643 C266 635 254 620 237 599 L130 468 L130 468 Z M358 390 L346 390 C345 392 344 393 342 395 C341 397 340 399 338 401 C330 413 322 422 310 427 C299 433 284 436 265 437 L208 437 C164 437 133 431 115 416 C97 402 88 377 88 343 C88 316 99 294 122 276 C146 258 185 241 240 225 C291 211 327 196 348 178 C370 161 380 139 380 112 C380 70 370 40 348 22 C327 4 290 -5 238 -5 C180 -5 136 -4 106 -5 C76 -5 58 -6 50 -7 L51 -5 L50 -5 L46 46 C48 47 50 47 52 47 L57 47 L69 35 C82 23 97 14 114 8 C132 3 155 0 184 0 L184 0 L239 0 C285 0 317 8 335 24 C354 40 363 67 363 105 C363 129 353 149 332 165 C312 181 276 197 226 211 C171 227 132 244 108 263 C85 283 73 307 73 336 C73 374 83 401 103 417 C124 433 159 441 208 441 C260 441 297 441 319 441 C342 441 354 441 355 440 L358 390 L358 390 Z M50 -5 C50 -5 49 -4 49 -5 L50 -6 L50 -5 L50 -5 Z M50 -7 C48 -7 48 -8 50 -9 L50 -7 L50 -7 Z " />
<glyph glyph-name="Scircumflex" unicode="&#x15c;" horiz-adv-x="506" d="M233 790 L118 601 L116 603 L227 806 C228 808 228 809 229 810 C231 812 232 812 233 812 C235 812 235 812 236 810 C238 809 239 808 239 806 L350 603 L348 601 L233 790 L233 790 Z M317 566 L233 566 C175 566 135 556 110 535 C86 515 73 480 73 430 C73 394 88 367 117 345 C147 324 196 306 266 292 C338 278 387 260 417 236 C447 212 462 179 462 137 C462 86 450 50 422 28 C395 6 349 -5 285 -5 C206 -5 148 -4 111 -4 C75 -3 53 -2 45 -1 L45 2 L45 2 L40 78 L46 78 C48 79 50 79 53 79 C56 76 58 74 60 70 C62 67 65 64 67 60 C83 40 100 25 122 16 C144 8 173 3 209 1 L285 1 C344 1 385 11 409 30 C434 50 446 82 446 128 C446 168 431 198 401 220 C371 242 320 261 248 275 C180 289 131 307 101 329 C72 352 57 383 57 421 C57 477 70 516 97 538 C125 561 170 572 234 572 C298 572 345 572 375 571 C405 571 424 570 431 568 L436 489 L429 489 C428 489 426 488 423 488 C420 493 417 497 414 500 C412 504 409 508 405 513 C392 531 379 544 365 552 C352 560 336 565 317 566 L317 566 Z " />
<glyph glyph-name="Scedilla" unicode="&#x15e;" horiz-adv-x="506" d="M317 566 L233 566 C175 566 135 556 110 535 C86 515 73 480 73 430 C73 394 88 367 117 345 C147 324 196 306 266 292 C338 278 387 260 417 236 C447 212 462 179 462 137 C462 86 450 50 422 28 C395 6 349 -5 285 -5 C206 -5 148 -4 111 -4 C75 -3 53 -2 45 -1 L45 2 L45 2 L40 78 L46 78 C48 79 50 79 53 79 C56 76 58 74 60 70 C62 67 65 64 67 60 C83 40 100 25 122 16 C144 8 173 3 209 1 L285 1 C344 1 385 11 409 30 C434 50 446 82 446 128 C446 168 431 198 401 220 C371 242 320 261 248 275 C180 289 131 307 101 329 C72 352 57 383 57 421 C57 477 70 516 97 538 C125 561 170 572 234 572 C298 572 345 572 375 571 C405 571 424 570 431 568 L436 489 L429 489 C428 489 426 488 423 488 C420 493 417 497 414 500 C412 504 409 508 405 513 C392 531 379 544 365 552 C352 560 336 565 317 566 L317 566 Z " />
<glyph glyph-name="scedilla" unicode="&#x15f;" horiz-adv-x="429" d="M358 390 L346 390 C345 392 344 393 342 395 C341 397 340 399 338 401 C330 413 322 422 310 427 C299 433 284 436 265 437 L208 437 C164 437 133 431 115 416 C97 402 88 377 88 343 C88 316 99 294 122 276 C146 258 185 241 240 225 C291 211 327 196 348 178 C370 161 380 139 380 112 C380 70 370 40 348 22 C327 4 290 -5 238 -5 C180 -5 136 -4 106 -5 C76 -5 58 -6 50 -7 L51 -5 L50 -5 L46 46 C48 47 50 47 52 47 L57 47 L69 35 C82 23 97 14 114 8 C132 3 155 0 184 0 L184 0 L239 0 C285 0 317 8 335 24 C354 40 363 67 363 105 C363 129 353 149 332 165 C312 181 276 197 226 211 C171 227 132 244 108 263 C85 283 73 307 73 336 C73 374 83 401 103 417 C124 433 159 441 208 441 C260 441 297 441 319 441 C342 441 354 441 355 440 L358 390 L358 390 Z M50 -5 C50 -5 49 -4 49 -5 L50 -6 L50 -5 L50 -5 Z M50 -7 C48 -7 48 -8 50 -9 L50 -7 L50 -7 Z " />
<glyph glyph-name="Scaron" unicode="&#x160;" horiz-adv-x="506" d="M233 644 L118 833 L116 831 L227 628 C228 627 228 626 229 624 C231 623 232 622 233 622 C235 622 235 623 236 624 C238 626 239 627 239 628 L350 831 L348 833 L233 644 L233 644 Z M317 566 L233 566 C175 566 135 556 110 535 C86 515 73 480 73 430 C73 394 88 367 117 345 C147 324 196 306 266 292 C338 278 387 260 417 236 C447 212 462 179 462 137 C462 86 450 50 422 28 C395 6 349 -5 285 -5 C206 -5 148 -4 111 -4 C75 -3 53 -2 45 -1 L45 2 L45 2 L40 78 L46 78 C48 79 50 79 53 79 C56 76 58 74 60 70 C62 67 65 64 67 60 C83 40 100 25 122 16 C144 8 173 3 209 1 L285 1 C344 1 385 11 409 30 C434 50 446 82 446 128 C446 168 431 198 401 220 C371 242 320 261 248 275 C180 289 131 307 101 329 C72 352 57 383 57 421 C57 477 70 516 97 538 C125 561 170 572 234 572 C298 572 345 572 375 571 C405 571 424 570 431 568 L436 489 L429 489 C428 489 426 488 423 488 C420 493 417 497 414 500 C412 504 409 508 405 513 C392 531 379 544 365 552 C352 560 336 565 317 566 L317 566 Z " />
<glyph glyph-name="scaron" unicode="&#x161;" horiz-adv-x="429" d="M358 390 L346 390 C345 392 344 393 342 395 C341 397 340 399 338 401 C330 413 322 422 310 427 C299 433 284 436 265 437 L208 437 C164 437 133 431 115 416 C97 402 88 377 88 343 C88 316 99 294 122 276 C146 258 185 241 240 225 C291 211 327 196 348 178 C370 161 380 139 380 112 C380 70 370 40 348 22 C327 4 290 -5 238 -5 C180 -5 136 -4 106 -5 C76 -5 58 -6 50 -7 L51 -5 L50 -5 L46 46 C48 47 50 47 52 47 L57 47 L69 35 C82 23 97 14 114 8 C132 3 155 0 184 0 L184 0 L239 0 C285 0 317 8 335 24 C354 40 363 67 363 105 C363 129 353 149 332 165 C312 181 276 197 226 211 C171 227 132 244 108 263 C85 283 73 307 73 336 C73 374 83 401 103 417 C124 433 159 441 208 441 C260 441 297 441 319 441 C342 441 354 441 355 440 L358 390 L358 390 Z M209 514 L93 702 L91 700 L202 497 C203 496 203 495 204 493 C206 492 207 491 208 491 C210 491 210 492 211 493 C213 495 214 496 215 497 L326 700 L324 702 L209 514 L209 514 Z M50 -5 C50 -5 49 -4 49 -5 L50 -6 L50 -5 L50 -5 Z M50 -7 C48 -7 48 -8 50 -9 L50 -7 L50 -7 Z " />
<glyph glyph-name="Tcaron" unicode="&#x164;" horiz-adv-x="626" d="M607 475 L595 475 L585 488 C575 504 565 515 556 525 C548 535 539 543 529 548 C519 554 509 556 497 558 C486 560 472 561 454 561 L324 561 L324 80 C324 52 327 35 331 27 C336 19 346 15 361 15 L367 15 L367 0 L324 0 L313 0 L302 0 L259 0 L259 15 L265 15 C281 15 291 19 295 27 C300 35 302 53 302 80 L302 561 L172 561 C156 561 142 561 130 559 C118 557 108 554 98 548 C88 543 80 536 71 526 C63 516 53 504 41 488 L31 475 L19 475 C22 492 24 507 26 520 C28 534 31 548 33 564 L33 567 L40 567 L113 567 L513 567 L586 567 L593 567 L593 564 C596 548 598 534 600 520 C602 507 605 492 607 475 L607 475 Z M313 644 L198 833 L196 831 L307 628 C308 627 308 626 309 624 C311 623 312 622 313 622 C315 622 315 623 316 624 C318 626 319 627 319 628 L430 831 L428 833 L313 644 L313 644 Z " />
<glyph glyph-name="tcaron" unicode="&#x165;" horiz-adv-x="356" d="M326 436 L326 428 L134 428 L133 92 C133 72 134 56 135 44 C137 32 140 23 145 17 C151 11 158 8 168 6 C179 5 194 4 212 4 C230 4 244 4 255 6 C267 8 277 11 285 14 C294 18 301 22 309 27 C317 33 326 39 335 46 L336 45 C326 37 316 30 307 23 C299 17 290 11 280 7 C270 3 259 0 247 -2 C235 -4 220 -5 202 -5 C182 -5 166 -5 154 -3 C142 -1 133 4 127 10 C121 17 118 27 116 40 C115 54 114 72 114 95 L114 428 L25 428 L25 431 C57 433 80 435 94 439 C108 444 116 451 118 459 L130 564 L134 564 L134 436 L326 436 L326 436 Z M426 550 L378 393 L375 394 L414 555 C418 569 421 582 423 594 C426 607 429 618 431 628 C434 638 436 646 438 652 C441 658 443 661 444 661 C447 661 449 661 452 660 C456 660 457 658 457 656 C457 654 455 646 450 628 C446 611 438 585 426 550 L426 550 Z " />
<glyph glyph-name="Utilde" unicode="&#x168;" horiz-adv-x="631" d="M180 662 L177 662 C177 694 182 716 190 728 C199 741 214 747 234 747 C254 747 270 744 285 737 C301 731 315 724 329 716 C343 708 358 701 373 694 C389 688 406 684 424 684 C443 684 455 689 463 698 C471 708 475 723 475 744 L478 744 C478 718 474 700 465 688 C457 677 442 671 420 671 C401 671 385 675 369 681 C354 688 340 694 325 702 C311 710 296 718 281 724 C267 731 250 734 230 734 C212 734 200 730 192 718 C184 707 180 688 180 662 L180 662 Z M611 567 L611 552 L604 552 C596 552 589 552 583 550 C577 548 574 545 570 539 C567 533 566 526 564 516 C563 506 562 493 562 477 L562 149 C562 121 560 98 554 78 C549 58 538 42 522 30 C506 18 484 10 453 4 C423 -2 382 -5 332 -5 C280 -5 239 -2 207 4 C176 11 153 21 135 35 C118 50 107 68 101 91 C96 115 93 143 93 175 L93 487 C93 515 92 532 87 540 C83 548 72 552 56 552 L49 552 L49 567 L93 567 L104 567 L115 567 L158 567 L158 552 L151 552 C136 552 127 548 122 540 C118 532 115 515 115 487 L115 170 C115 140 117 115 122 93 C128 72 137 55 153 41 C169 28 192 18 220 12 C249 6 287 3 335 3 C383 3 422 6 450 11 C479 17 500 25 516 37 C532 49 542 65 547 83 C553 102 555 125 555 151 L556 493 C556 519 553 534 547 541 C541 549 530 552 512 552 L504 552 L504 567 L556 567 L559 567 L562 567 L611 567 L611 567 Z " />
<glyph glyph-name="utilde" unicode="&#x169;" horiz-adv-x="520" d="M103 531 L99 531 C99 563 104 585 112 597 C121 610 136 616 157 616 C177 616 194 614 208 607 C223 601 237 593 251 585 C266 577 280 571 295 564 C311 558 328 554 347 554 C365 554 377 558 385 567 C393 577 397 592 397 614 L401 614 C401 587 398 569 388 557 C379 546 364 540 342 540 C324 540 308 544 292 550 C277 557 263 563 248 571 C234 579 220 587 204 593 C189 600 172 603 152 603 C135 603 123 599 115 587 C107 576 103 557 103 531 L103 531 Z M485 26 L485 17 L426 0 L422 0 L422 5 L422 63 C386 51 356 41 330 32 C305 24 284 17 268 11 C250 5 235 -1 223 -5 C191 -5 164 -3 142 3 C121 9 104 18 91 31 C79 45 70 61 65 81 C61 102 58 127 58 156 L58 356 C58 384 57 401 52 409 C48 417 37 421 21 421 L15 421 L15 436 L58 436 L68 436 L78 436 L78 159 C78 132 81 109 85 89 C90 70 98 54 110 42 C122 30 139 22 159 16 C180 11 206 8 238 8 C246 8 263 12 290 21 C318 31 362 46 422 66 L422 110 L422 356 C422 384 421 401 416 409 C412 417 401 421 385 421 L379 421 L379 436 L422 436 L432 436 L442 436 L442 115 L442 61 C444 53 447 48 451 45 C456 43 465 38 479 30 L485 26 L485 26 Z " />
<glyph glyph-name="Umacron" unicode="&#x16a;" horiz-adv-x="631" d="M174 681 L174 692 L480 692 L480 681 L174 681 L174 681 Z M611 567 L611 552 L604 552 C596 552 589 552 583 550 C577 548 574 545 570 539 C567 533 566 526 564 516 C563 506 562 493 562 477 L562 149 C562 121 560 98 554 78 C549 58 538 42 522 30 C506 18 484 10 453 4 C423 -2 382 -5 332 -5 C280 -5 239 -2 207 4 C176 11 153 21 135 35 C118 50 107 68 101 91 C96 115 93 143 93 175 L93 487 C93 515 92 532 87 540 C83 548 72 552 56 552 L49 552 L49 567 L93 567 L104 567 L115 567 L158 567 L158 552 L151 552 C136 552 127 548 122 540 C118 532 115 515 115 487 L115 170 C115 140 117 115 122 93 C128 72 137 55 153 41 C169 28 192 18 220 12 C249 6 287 3 335 3 C383 3 422 6 450 11 C479 17 500 25 516 37 C532 49 542 65 547 83 C553 102 555 125 555 151 L556 493 C556 519 553 534 547 541 C541 549 530 552 512 552 L504 552 L504 567 L556 567 L559 567 L562 567 L611 567 L611 567 Z " />
<glyph glyph-name="umacron" unicode="&#x16b;" horiz-adv-x="520" d="M97 550 L97 561 L403 561 L403 550 L97 550 L97 550 Z M485 26 L485 17 L426 0 L422 0 L422 5 L422 63 C386 51 356 41 330 32 C305 24 284 17 268 11 C250 5 235 -1 223 -5 C191 -5 164 -3 142 3 C121 9 104 18 91 31 C79 45 70 61 65 81 C61 102 58 127 58 156 L58 356 C58 384 57 401 52 409 C48 417 37 421 21 421 L15 421 L15 436 L58 436 L68 436 L78 436 L78 159 C78 132 81 109 85 89 C90 70 98 54 110 42 C122 30 139 22 159 16 C180 11 206 8 238 8 C246 8 263 12 290 21 C318 31 362 46 422 66 L422 110 L422 356 C422 384 421 401 416 409 C412 417 401 421 385 421 L379 421 L379 436 L422 436 L432 436 L442 436 L442 115 L442 61 C444 53 447 48 451 45 C456 43 465 38 479 30 L485 26 L485 26 Z " />
<glyph glyph-name="Ubreve" unicode="&#x16c;" horiz-adv-x="631" d="M217 779 L221 779 C223 751 231 732 247 720 C264 709 291 703 327 703 C365 703 391 709 407 720 C423 732 432 751 434 779 L438 779 C436 747 428 724 410 710 C393 697 365 690 327 690 C289 690 262 697 245 710 C229 724 219 747 217 779 L217 779 Z M611 567 L611 552 L604 552 C596 552 589 552 583 550 C577 548 574 545 570 539 C567 533 566 526 564 516 C563 506 562 493 562 477 L562 149 C562 121 560 98 554 78 C549 58 538 42 522 30 C506 18 484 10 453 4 C423 -2 382 -5 332 -5 C280 -5 239 -2 207 4 C176 11 153 21 135 35 C118 50 107 68 101 91 C96 115 93 143 93 175 L93 487 C93 515 92 532 87 540 C83 548 72 552 56 552 L49 552 L49 567 L93 567 L104 567 L115 567 L158 567 L158 552 L151 552 C136 552 127 548 122 540 C118 532 115 515 115 487 L115 170 C115 140 117 115 122 93 C128 72 137 55 153 41 C169 28 192 18 220 12 C249 6 287 3 335 3 C383 3 422 6 450 11 C479 17 500 25 516 37 C532 49 542 65 547 83 C553 102 555 125 555 151 L556 493 C556 519 553 534 547 541 C541 549 530 552 512 552 L504 552 L504 567 L556 567 L559 567 L562 567 L611 567 L611 567 Z " />
<glyph glyph-name="ubreve" unicode="&#x16d;" horiz-adv-x="520" d="M140 648 L143 648 C145 620 154 601 170 589 C186 578 213 572 250 572 C288 572 314 578 330 589 C346 601 355 620 357 648 L360 648 C358 616 349 594 332 580 C316 566 288 559 250 559 C212 559 185 565 168 579 C152 593 142 616 140 648 L140 648 Z M485 26 L485 17 L426 0 L422 0 L422 5 L422 63 C386 51 356 41 330 32 C305 24 284 17 268 11 C250 5 235 -1 223 -5 C191 -5 164 -3 142 3 C121 9 104 18 91 31 C79 45 70 61 65 81 C61 102 58 127 58 156 L58 356 C58 384 57 401 52 409 C48 417 37 421 21 421 L15 421 L15 436 L58 436 L68 436 L78 436 L78 159 C78 132 81 109 85 89 C90 70 98 54 110 42 C122 30 139 22 159 16 C180 11 206 8 238 8 C246 8 263 12 290 21 C318 31 362 46 422 66 L422 110 L422 356 C422 384 421 401 416 409 C412 417 401 421 385 421 L379 421 L379 436 L422 436 L432 436 L442 436 L442 115 L442 61 C444 53 447 48 451 45 C456 43 465 38 479 30 L485 26 L485 26 Z " />
<glyph glyph-name="Uring" unicode="&#x16e;" horiz-adv-x="631" d="M327 606 C386 606 415 636 415 694 C415 726 409 749 395 762 C382 776 359 782 327 782 C295 782 274 776 260 762 C247 749 240 726 240 694 C240 636 269 606 327 606 L327 606 Z M234 694 C234 728 241 752 255 766 C269 780 293 787 327 787 C361 787 385 780 399 766 C413 752 420 728 420 694 C420 633 389 602 327 602 C265 602 234 633 234 694 L234 694 Z M611 567 L611 552 L604 552 C596 552 589 552 583 550 C577 548 574 545 570 539 C567 533 566 526 564 516 C563 506 562 493 562 477 L562 149 C562 121 560 98 554 78 C549 58 538 42 522 30 C506 18 484 10 453 4 C423 -2 382 -5 332 -5 C280 -5 239 -2 207 4 C176 11 153 21 135 35 C118 50 107 68 101 91 C96 115 93 143 93 175 L93 487 C93 515 92 532 87 540 C83 548 72 552 56 552 L49 552 L49 567 L93 567 L104 567 L115 567 L158 567 L158 552 L151 552 C136 552 127 548 122 540 C118 532 115 515 115 487 L115 170 C115 140 117 115 122 93 C128 72 137 55 153 41 C169 28 192 18 220 12 C249 6 287 3 335 3 C383 3 422 6 450 11 C479 17 500 25 516 37 C532 49 542 65 547 83 C553 102 555 125 555 151 L556 493 C556 519 553 534 547 541 C541 549 530 552 512 552 L504 552 L504 567 L556 567 L559 567 L562 567 L611 567 L611 567 Z " />
<glyph glyph-name="uring" unicode="&#x16f;" horiz-adv-x="520" d="M250 476 C309 476 338 506 338 564 C338 596 332 619 318 632 C305 646 282 652 250 652 C218 652 196 646 182 632 C169 619 162 596 162 564 C162 506 192 476 250 476 L250 476 Z M157 564 C157 598 164 621 178 635 C192 649 216 656 250 656 C284 656 308 650 322 636 C336 622 343 598 343 564 C343 502 312 471 250 471 C188 471 157 502 157 564 L157 564 Z M485 26 L485 17 L426 0 L422 0 L422 5 L422 63 C386 51 356 41 330 32 C305 24 284 17 268 11 C250 5 235 -1 223 -5 C191 -5 164 -3 142 3 C121 9 104 18 91 31 C79 45 70 61 65 81 C61 102 58 127 58 156 L58 356 C58 384 57 401 52 409 C48 417 37 421 21 421 L15 421 L15 436 L58 436 L68 436 L78 436 L78 159 C78 132 81 109 85 89 C90 70 98 54 110 42 C122 30 139 22 159 16 C180 11 206 8 238 8 C246 8 263 12 290 21 C318 31 362 46 422 66 L422 110 L422 356 C422 384 421 401 416 409 C412 417 401 421 385 421 L379 421 L379 436 L422 436 L432 436 L442 436 L442 115 L442 61 C444 53 447 48 451 45 C456 43 465 38 479 30 L485 26 L485 26 Z " />
<glyph glyph-name="Wcircumflex" unicode="&#x174;" horiz-adv-x="844" d="M837 567 L837 552 L831 552 C823 552 817 552 811 550 C806 548 801 545 797 540 C793 536 790 530 786 521 C782 513 778 501 773 487 L773 487 L608 -15 L602 -15 L413 542 L423 577 L243 -15 L237 -15 L57 502 C49 524 42 537 36 543 C30 549 22 552 10 552 L4 552 L4 567 L34 567 L46 567 L58 567 L110 567 L110 552 L103 552 C89 552 80 550 76 544 C72 539 73 527 78 509 L247 17 L418 577 L423 577 L613 18 L773 507 C779 527 780 539 774 544 C769 550 758 552 740 552 L732 552 L732 567 L792 567 L796 567 L799 567 L837 567 L837 567 Z M421 789 L305 601 L303 603 L414 806 C415 808 415 809 416 810 C418 812 419 812 421 812 C423 812 423 812 424 810 C426 809 427 808 427 806 L538 603 L536 601 L421 789 L421 789 Z " />
<glyph glyph-name="Ycircumflex" unicode="&#x176;" horiz-adv-x="534" d="M334 15 L334 0 L291 0 L280 0 L269 0 L226 0 L226 15 L232 15 C248 15 258 19 262 27 C267 35 269 53 269 80 L269 210 L106 487 L106 487 C98 501 92 512 86 520 C80 529 75 536 70 540 C66 545 62 547 57 549 C53 551 47 552 41 552 L36 552 L36 567 L59 567 L73 567 L86 567 L138 567 L138 552 L131 552 C116 552 108 549 108 541 C108 533 117 515 133 487 L133 487 L287 223 L444 485 C461 513 470 531 468 539 C467 548 457 552 439 552 L431 552 L431 567 L494 567 L497 567 L501 567 L529 567 L529 552 L523 552 C512 552 504 550 496 545 C489 541 480 531 469 515 L291 220 L291 220 L291 80 C291 53 293 35 297 27 C302 19 312 15 328 15 L334 15 L334 15 Z M280 789 L164 601 L162 603 L274 806 L274 806 C276 810 278 812 280 812 C282 812 282 812 283 810 C285 809 286 808 286 806 L397 603 L395 601 L280 789 L280 789 Z " />
<glyph glyph-name="Ydieresis002" unicode="&#x178;" horiz-adv-x="534" d="M363 637 C350 637 343 644 343 657 C343 671 350 677 363 677 C377 677 383 671 383 657 C383 644 377 637 363 637 L363 637 Z M196 637 C183 637 176 644 176 657 C176 671 183 677 196 677 C210 677 216 671 216 657 C216 644 210 637 196 637 L196 637 Z M334 15 L334 0 L291 0 L280 0 L269 0 L226 0 L226 15 L232 15 C248 15 258 19 262 27 C267 35 269 53 269 80 L269 210 L106 487 L106 487 C98 501 92 512 86 520 C80 529 75 536 70 540 C66 545 62 547 57 549 C53 551 47 552 41 552 L36 552 L36 567 L59 567 L73 567 L86 567 L138 567 L138 552 L131 552 C116 552 108 549 108 541 C108 533 117 515 133 487 L133 487 L287 223 L444 485 C461 513 470 531 468 539 C467 548 457 552 439 552 L431 552 L431 567 L494 567 L497 567 L501 567 L529 567 L529 552 L523 552 C512 552 504 550 496 545 C489 541 480 531 469 515 L291 220 L291 220 L291 80 C291 53 293 35 297 27 C302 19 312 15 328 15 L334 15 L334 15 Z " />
<glyph glyph-name="Zacute" unicode="&#x179;" horiz-adv-x="588" d="M336 598 L334 600 L433 738 C449 760 460 775 466 783 C473 792 477 796 477 796 C479 796 482 795 484 793 C487 791 488 790 488 788 C488 787 485 783 478 774 C472 766 460 751 443 730 L336 598 L336 598 Z M530 3 L530 0 L529 0 L450 0 L87 0 L74 0 L62 0 L505 561 L273 561 C257 561 242 561 230 559 C218 558 207 556 197 551 C187 547 177 541 167 533 C157 525 146 515 133 503 L122 492 L110 492 C115 506 119 518 122 528 C126 539 130 551 134 564 C134 565 134 565 134 565 C135 566 135 567 135 567 L142 567 L215 567 L510 567 L522 567 L535 567 L92 6 L386 6 C406 6 421 6 434 8 C448 10 458 14 468 19 C478 25 487 32 495 41 C503 51 512 63 522 79 L531 92 L534 91 L546 88 L549 88 C546 73 544 60 540 46 C537 33 534 19 530 3 L530 3 Z " />
<glyph glyph-name="zacute" unicode="&#x17a;" horiz-adv-x="489" d="M180 468 L177 469 L276 607 C292 629 303 644 309 652 C316 661 320 665 320 665 C322 665 324 664 327 662 C331 660 332 659 332 657 C332 657 329 652 322 643 C316 635 304 620 287 599 L180 468 L180 468 Z M436 91 C438 91 440 90 442 89 C447 88 451 87 454 86 C451 71 448 57 445 44 C443 32 440 18 436 2 C436 2 437 1 436 1 C436 1 435 1 435 0 L434 0 L355 0 L89 0 L77 0 L65 0 L414 432 L208 431 L208 431 C192 431 177 432 165 430 C153 429 143 428 133 424 C123 421 114 417 104 411 C95 405 84 398 72 388 L63 380 L51 380 C55 390 58 399 60 407 C63 415 66 424 69 434 C69 436 70 436 70 436 L76 436 L150 436 L417 436 L428 436 L440 436 L92 4 L291 5 L291 5 C311 5 326 5 339 7 C353 9 363 12 373 17 C383 23 392 29 400 39 C409 49 418 62 428 78 L436 91 L436 91 Z " />
<glyph glyph-name="Zdot" unicode="&#x17b;" horiz-adv-x="588" d="M338 637 C325 637 318 644 318 657 C318 671 325 677 338 677 C352 677 358 671 358 657 C358 644 352 637 338 637 L338 637 Z M530 3 L530 0 L529 0 L450 0 L87 0 L74 0 L62 0 L505 561 L273 561 C257 561 242 561 230 559 C218 558 207 556 197 551 C187 547 177 541 167 533 C157 525 146 515 133 503 L122 492 L110 492 C115 506 119 518 122 528 C126 539 130 551 134 564 C134 565 134 565 134 565 C135 566 135 567 135 567 L142 567 L215 567 L510 567 L522 567 L535 567 L92 6 L386 6 C406 6 421 6 434 8 C448 10 458 14 468 19 C478 25 487 32 495 41 C503 51 512 63 522 79 L531 92 L534 91 L546 88 L549 88 C546 73 544 60 540 46 C537 33 534 19 530 3 L530 3 Z " />
<glyph glyph-name="zdot" unicode="&#x17c;" horiz-adv-x="489" d="M258 506 C245 506 238 513 238 526 C238 540 245 546 258 546 C272 546 278 540 278 526 C278 513 272 506 258 506 L258 506 Z M436 91 C438 91 440 90 442 89 C447 88 451 87 454 86 C451 71 448 57 445 44 C443 32 440 18 436 2 C436 2 437 1 436 1 C436 1 435 1 435 0 L434 0 L355 0 L89 0 L77 0 L65 0 L414 432 L208 431 L208 431 C192 431 177 432 165 430 C153 429 143 428 133 424 C123 421 114 417 104 411 C95 405 84 398 72 388 L63 380 L51 380 C55 390 58 399 60 407 C63 415 66 424 69 434 C69 436 70 436 70 436 L76 436 L150 436 L417 436 L428 436 L440 436 L92 4 L291 5 L291 5 C311 5 326 5 339 7 C353 9 363 12 373 17 C383 23 392 29 400 39 C409 49 418 62 428 78 L436 91 L436 91 Z " />
<glyph glyph-name="Zcaron" unicode="&#x17d;" horiz-adv-x="588" d="M339 645 L223 833 L221 831 L332 628 C333 627 333 626 334 624 C336 623 337 622 338 622 C340 622 341 623 342 624 C344 626 345 627 345 628 L456 831 L454 833 L339 645 L339 645 Z M530 3 L530 0 L529 0 L450 0 L87 0 L74 0 L62 0 L505 561 L273 561 C257 561 242 561 230 559 C218 558 207 556 197 551 C187 547 177 541 167 533 C157 525 146 515 133 503 L122 492 L110 492 C115 506 119 518 122 528 C126 539 130 551 134 564 C134 565 134 565 134 565 C135 566 135 567 135 567 L142 567 L215 567 L510 567 L522 567 L535 567 L92 6 L386 6 C406 6 421 6 434 8 C448 10 458 14 468 19 C478 25 487 32 495 41 C503 51 512 63 522 79 L531 92 L534 91 L546 88 L549 88 C546 73 544 60 540 46 C537 33 534 19 530 3 L530 3 Z " />
<glyph glyph-name="zcaron" unicode="&#x17e;" horiz-adv-x="489" d="M436 91 C438 91 440 90 442 89 C447 88 451 87 454 86 C451 71 448 57 445 44 C443 32 440 18 436 2 C436 2 437 1 436 1 C436 1 435 1 435 0 L434 0 L355 0 L89 0 L77 0 L65 0 L414 432 L208 431 L208 431 C192 431 177 432 165 430 C153 429 143 428 133 424 C123 421 114 417 104 411 C95 405 84 398 72 388 L63 380 L51 380 C55 390 58 399 60 407 C63 415 66 424 69 434 C69 436 70 436 70 436 L76 436 L150 436 L417 436 L428 436 L440 436 L92 4 L291 5 L291 5 C311 5 326 5 339 7 C353 9 363 12 373 17 C383 23 392 29 400 39 C409 49 418 62 428 78 L436 91 L436 91 Z M258 513 L143 702 L141 700 L252 497 C253 496 253 495 254 493 C256 492 257 491 258 491 C260 491 260 492 261 493 C263 495 264 496 264 497 L375 700 L373 702 L258 513 L258 513 Z " />
<glyph glyph-name="oogonek" unicode="&#x1eb;" horiz-adv-x="748" d="M785 55 C763 29 741 12 717 0 C694 -11 665 -17 629 -17 C595 -17 567 -17 543 -17 C519 -16 498 -16 480 -15 C462 -13 447 -13 433 -11 C420 -9 407 -7 393 -5 L385 -5 C323 -5 272 1 231 11 C191 22 159 38 135 59 C112 81 96 107 86 138 C77 170 72 206 72 246 C72 288 77 323 86 354 C96 386 112 412 135 433 C159 455 190 471 230 481 C271 492 323 497 385 497 C448 497 499 492 539 481 C580 471 611 455 635 433 C659 412 675 387 684 355 C694 324 698 288 698 246 C698 208 694 174 686 144 C678 114 664 90 644 68 C624 47 597 30 563 18 C529 6 486 -1 434 -4 L631 -4 C668 -4 697 1 720 10 C744 20 765 35 783 57 L785 55 L785 55 Z M385 0 C443 0 490 6 528 16 C566 27 595 43 617 63 C639 84 655 110 663 140 C672 171 676 206 676 246 C676 286 672 322 663 352 C655 383 640 409 618 429 C596 450 567 466 529 476 C491 487 443 492 385 492 C327 492 280 487 242 476 C204 466 175 450 153 429 C131 409 116 383 107 352 C99 322 94 286 94 246 C94 206 99 171 107 140 C116 110 130 84 152 63 C174 43 203 27 241 16 C279 6 327 0 385 0 L385 0 Z " />
<glyph glyph-name="Adotabove" unicode="&#x226;" horiz-adv-x="553" d="M275 637 C262 637 255 644 255 657 C255 671 262 677 275 677 C289 677 295 671 295 657 C295 644 289 637 275 637 L275 637 Z M544 15 L544 0 L509 0 L497 0 L485 0 L428 0 L428 15 L436 15 C453 15 463 18 466 24 C470 30 468 43 460 63 L404 205 L133 205 L91 95 L92 95 C79 61 73 40 75 30 C78 20 90 15 110 15 L118 15 L118 0 L55 0 L52 0 L48 0 L11 0 L11 15 L17 15 C32 15 42 18 49 24 C57 30 65 44 73 65 L272 580 L277 580 L477 80 C483 66 487 56 491 47 C496 39 500 32 504 27 C509 23 514 20 519 18 C525 16 531 15 538 15 L544 15 L544 15 Z M402 210 L267 554 L135 210 L402 210 L402 210 Z " />
<glyph glyph-name="LETTERSMALLCAPITALG" unicode="&#x262;" horiz-adv-x="777" d="M581 216 L581 231 L624 231 L633 231 L642 231 L685 231 C685 231 685 229 685 224 C685 219 685 216 685 216 L678 216 C665 216 657 214 651 208 C646 202 643 190 642 170 L642 151 L642 59 C622 48 603 39 583 30 C564 22 544 16 524 10 C504 5 483 2 461 -1 C439 -3 416 -5 390 -5 C332 -5 284 -1 243 8 C203 18 170 32 144 52 C119 72 101 98 89 130 C78 162 72 201 72 246 C72 292 78 330 89 362 C101 394 119 420 144 440 C170 460 202 474 242 483 C283 493 332 497 390 497 C461 497 515 497 552 495 C590 494 618 492 636 488 L636 486 L636 486 L641 411 L634 411 C632 411 630 411 628 410 C626 414 623 417 621 420 C619 424 617 427 614 430 C600 450 582 464 562 474 C542 484 516 490 483 491 C470 492 456 492 440 492 C424 492 408 492 390 492 C336 492 291 489 253 479 C216 470 186 456 162 436 C138 416 121 392 110 360 C100 329 94 291 94 246 C94 202 100 165 110 133 C121 102 137 77 161 57 C185 37 216 24 253 14 C291 5 336 0 390 0 C438 0 479 4 515 12 C551 21 588 35 624 55 L624 151 C624 179 623 196 618 204 C614 212 603 216 587 216 L581 216 L581 216 Z " />
<glyph glyph-name="LETTERSMALLCAPITALI" unicode="&#x26a;" horiz-adv-x="187" d="M147 492 L147 477 L141 477 C126 478 116 474 111 466 C107 458 104 440 104 412 L104 80 C104 52 107 35 111 27 C116 19 126 15 141 15 L147 15 L147 0 L104 0 L94 0 L84 0 L41 0 L41 15 L48 15 C64 15 73 19 77 27 C82 35 84 53 84 80 L84 412 C84 440 83 458 78 466 C74 474 64 478 48 477 L41 477 L41 492 C51 493 60 493 68 492 C76 492 85 492 94 492 C112 493 130 493 147 492 L147 492 Z " />
<glyph glyph-name="LETTERSMALLCAPITALN" unicode="&#x274;" horiz-adv-x="612" d="M577 492 L577 477 L570 477 C555 478 546 474 541 466 C537 458 534 440 533 412 L533 15 L533 -4 L529 -4 L518 8 L95 475 L95 80 C95 53 97 35 101 27 C106 19 116 15 131 15 L138 15 L138 0 L95 0 L92 0 L89 0 L45 0 C46 0 46 3 45 8 C46 13 46 15 45 15 L52 15 C68 15 78 19 82 27 C87 35 89 53 89 80 L89 412 C89 440 88 458 83 466 C79 474 68 478 52 477 L45 477 C46 478 46 481 45 485 C46 488 46 490 46 492 C62 493 77 493 92 492 L95 492 L107 492 L527 29 L527 412 C527 440 526 458 521 466 C517 474 507 478 491 477 L484 477 L484 492 C493 493 501 493 507 492 C514 492 522 492 530 492 C546 493 562 493 577 492 L577 492 Z M46 492 L45 492 L46 492 L46 492 Z " />
<glyph glyph-name="LETTERSMALLCAPITALR" unicode="&#x280;" horiz-adv-x="616" d="M60 477 L60 492 C78 493 96 493 113 492 L123 492 L274 492 C340 492 386 483 413 464 C441 446 454 414 454 368 C454 322 440 289 410 269 C380 249 330 239 259 237 L458 102 C500 74 531 53 551 39 C571 25 585 17 593 11 C601 6 606 3 606 3 C607 4 609 4 611 4 L616 4 L616 0 L605 0 C600 0 597 1 595 0 C593 0 588 2 578 7 C569 13 553 22 531 37 C509 53 476 76 430 106 L235 237 L123 237 L123 80 C123 52 126 35 130 27 C135 19 145 15 160 15 L166 15 L166 0 L123 0 L113 0 L103 0 L60 0 L60 15 L66 15 C82 15 92 19 96 27 C101 35 103 53 103 80 L103 412 C103 440 102 458 97 466 C93 474 82 478 66 477 L60 477 L60 477 Z M244 242 C313 242 362 252 390 271 C419 291 433 323 433 368 C433 412 421 442 397 460 C373 478 332 487 274 487 L123 487 L123 242 L228 242 L244 242 L244 242 Z " />
<glyph glyph-name="LETTERSMALLCAPITALY" unicode="&#x28f;" horiz-adv-x="515" d="M324 15 L324 0 L281 0 L271 0 L261 0 L218 0 L218 15 L224 15 C240 15 250 19 254 27 C259 35 261 53 261 80 L261 183 L102 427 C88 449 78 462 70 468 C63 475 54 478 43 477 L38 477 L38 492 C49 493 60 493 72 492 C84 493 93 493 103 493 C113 493 124 493 136 492 L136 477 L129 477 C116 478 110 475 108 469 C107 463 113 450 125 428 L277 192 L276 190 L276 190 L410 392 L409 392 C421 410 430 425 436 436 C443 448 446 456 447 462 C449 468 447 472 442 474 C438 476 431 477 421 477 L413 477 C413 478 413 481 413 485 C412 491 412 494 413 492 C435 493 457 493 479 492 C489 493 499 493 509 492 L509 477 L503 477 C493 478 485 477 477 472 C470 468 461 458 450 444 L281 190 L281 190 L281 80 C281 53 283 35 287 27 C292 19 302 15 317 15 L324 15 L324 15 Z " />
<glyph glyph-name="LETTERSMALLCAPITALB" unicode="&#x299;" horiz-adv-x="524" d="M60 477 L60 492 C78 493 96 493 113 492 L123 492 L274 492 C339 492 384 484 411 467 C439 451 452 423 452 383 C452 347 442 321 422 301 C402 282 369 270 321 264 C387 259 434 246 462 225 C490 205 504 174 504 134 C504 86 489 52 457 31 C426 11 373 0 298 0 L123 0 L113 0 L103 0 L60 0 L60 15 L66 15 C82 15 92 19 96 27 C101 35 103 53 103 80 L103 412 C103 440 102 458 97 466 C93 474 82 478 66 477 L60 477 L60 477 Z M300 265 C348 270 382 281 402 299 C422 318 432 346 432 383 C432 421 420 447 396 463 C372 479 332 487 274 487 L123 487 L123 266 L234 267 C246 267 258 268 268 267 C279 267 290 266 300 265 L300 265 Z M291 261 L291 261 C284 261 276 260 268 260 C260 260 252 260 243 260 L123 260 L123 5 L296 5 C364 5 412 14 440 34 C469 54 483 88 483 134 C483 176 469 205 439 225 C410 245 361 257 291 261 L291 261 Z " />
<glyph glyph-name="LETTERSMALLCAPITALH" unicode="&#x29c;" horiz-adv-x="686" d="M646 492 L646 477 L640 477 C624 478 615 474 610 466 C606 458 603 440 603 412 L603 80 C603 53 605 35 609 27 C614 19 624 15 640 15 L646 15 L646 0 L603 0 L593 0 L583 0 L540 0 L540 15 L546 15 C562 15 572 19 576 27 C581 35 583 53 583 80 L583 259 L104 259 L104 80 L104 61 C105 42 107 30 112 24 C118 18 127 15 140 15 L147 15 C147 15 147 13 147 8 C147 3 147 0 147 0 L104 0 L94 0 L84 0 L41 0 L41 15 L47 15 C63 15 73 19 77 27 C82 35 84 53 84 80 L84 412 C84 440 83 458 78 466 C74 474 63 478 47 477 L41 477 L41 492 C59 493 76 493 94 492 C112 493 130 493 146 492 C146 490 147 488 147 485 C147 481 147 478 147 477 L140 477 C127 478 119 475 113 469 C108 463 105 451 104 431 L104 412 L104 264 L583 264 L583 412 C583 440 582 458 577 466 C573 474 562 478 546 477 L540 477 L540 492 C550 493 558 493 566 492 C574 492 583 492 593 492 C611 493 629 493 646 492 L646 492 Z M146 492 L146 492 L147 492 L146 492 L146 492 Z " />
<glyph glyph-name="LETTERSMALLCAPITALL" unicode="&#x29f;" horiz-adv-x="473" d="M392 91 L392 91 C394 91 397 90 399 89 C404 89 408 88 411 87 C408 72 406 58 402 45 C399 33 396 19 392 3 L392 0 L391 0 L312 0 L104 0 L94 0 L84 0 L41 0 L41 15 L47 15 C63 15 73 19 77 27 C82 35 84 53 84 80 L84 412 C84 440 83 458 78 466 C74 474 63 478 47 477 L41 477 L41 492 C59 493 76 493 94 492 C112 493 130 493 146 492 C146 490 147 488 147 485 C147 481 147 478 147 477 L140 477 C127 478 119 475 113 469 C108 463 105 451 104 431 L104 412 L104 5 L248 5 C268 5 283 5 296 7 C310 9 320 13 330 18 C340 24 349 30 357 40 C365 50 374 63 384 78 L392 91 L392 91 Z M146 492 L146 492 L147 492 L146 492 L146 492 Z " />
<glyph glyph-name="LETTERSMALLCAPITALA" unicode="&#x1d00;" horiz-adv-x="534" d="M525 15 L525 0 L490 0 L480 0 L469 0 L412 0 L412 15 L420 15 C438 15 447 18 449 26 C451 34 446 52 434 80 L434 80 L391 178 L130 178 L88 77 C78 51 73 35 76 27 C80 19 91 15 109 15 L118 15 L118 0 L55 0 L51 0 L48 0 L11 0 L11 15 L18 15 C26 15 32 15 38 17 C44 19 49 23 53 27 C58 32 62 38 66 46 C71 55 76 66 82 80 L82 80 L263 504 L268 504 L455 80 L455 80 C461 66 467 56 471 47 C476 39 481 32 485 27 C490 23 495 20 500 18 C506 16 512 15 519 15 L525 15 L525 15 Z M389 183 L259 482 L132 183 L389 183 L389 183 Z " />
<glyph glyph-name="LETTERSMALLCAPITALC" unicode="&#x1d04;" horiz-adv-x="716" d="M655 7 L656 4 C638 1 609 -1 570 -3 C532 -4 475 -5 401 -5 C341 -5 291 -1 249 8 C207 18 173 32 147 52 C121 72 102 98 90 130 C78 162 72 201 72 246 C72 292 78 330 90 362 C102 394 121 420 147 440 C173 460 206 474 248 483 C290 493 341 497 401 497 C475 497 532 497 570 495 C609 494 638 492 656 488 L656 486 L656 486 L661 411 L654 411 C652 411 650 411 648 410 C646 414 643 417 641 420 C639 424 637 427 634 430 C620 450 603 464 583 474 C564 484 539 490 507 491 C492 492 476 492 458 492 C441 492 422 492 401 492 C345 492 298 489 259 479 C221 470 189 456 164 436 C140 416 123 392 111 360 C100 329 94 291 94 246 C94 202 99 165 110 133 C122 102 140 77 164 57 C189 37 221 24 259 14 C298 5 345 0 401 0 L449 0 C501 2 540 7 568 16 C596 26 618 41 634 62 C637 66 639 69 641 72 C643 76 646 79 648 82 C651 82 653 82 654 81 L661 81 L656 7 L655 7 L655 7 Z " />
</font>
</svg>
