<?xml version="1.0" encoding="UTF-8"?>
<svg xmlns="http://www.w3.org/2000/svg" xmlns:xlink="http://www.w3.org/1999/xlink" version="1.2" >
<font id="Adallyn Bold">
<font-face  font-family="Adallyn" units-per-em="1024" ascent="975" descent="-300" font-style="normal" font-weight="700" font-stretch="normal" cap-height="1046" x-height="488" underline-position="-125" underline-thickness="50" />
<missing-glyph  horiz-adv-x="100" d="" />
<glyph glyph-name="NULL" d="" />
<glyph glyph-name="CR" unicode="&#xd;" horiz-adv-x="256" d="" />
<glyph glyph-name="space" unicode="&#x20;" horiz-adv-x="250" d="" />
<glyph glyph-name="exclam" unicode="&#x21;" horiz-adv-x="281" d="M140 -5 C188 -5 220 27 220 75 C220 123 188 155 140 155 C92 155 60 123 60 75 C60 27 92 -5 140 -5 L140 -5 Z M140 755 C85 755 60 706 70 632 L130 210 L151 210 L211 632 C221 706 195 755 140 755 L140 755 Z " />
<glyph glyph-name="quotedbl" unicode="&#x22;" horiz-adv-x="325" d="M208 750 C182 750 168 732 175 705 L215 560 L229 560 L269 705 C276 732 262 750 236 750 L208 750 L208 750 Z M88 750 C62 750 48 732 55 705 L95 560 L109 560 L149 705 C156 732 142 750 116 750 L88 750 L88 750 Z " />
<glyph glyph-name="numbersign" unicode="&#x23;" horiz-adv-x="554" d="M390 656 L367 504 L236 504 L259 656 L215 656 L192 504 L71 504 L59 416 L178 416 L152 244 L28 244 L16 156 L139 156 L115 0 L159 0 L183 156 L314 156 L290 0 L334 0 L358 156 L473 156 L485 244 L371 244 L397 416 L521 416 L534 504 L411 504 L434 656 L390 656 L390 656 Z M222 416 L353 416 L327 244 L196 244 L222 416 L222 416 Z " />
<glyph glyph-name="dollar" unicode="&#x24;" horiz-adv-x="555" d="M65 -2 C66 5 68 14 69 21 C75 51 103 57 139 36 C162 20 187 8 213 0 L213 -75 L254 -75 L254 -8 C267 -10 280 -10 294 -10 L294 -75 L335 -75 L335 -6 C445 13 516 94 516 207 C516 305 455 394 335 441 L335 714 C382 695 426 641 448 574 C451 566 455 554 458 546 L480 546 L480 756 L463 756 C462 751 459 745 458 740 C452 717 427 713 396 729 C378 739 358 747 337 752 L337 825 L296 825 L296 759 C283 760 270 760 257 760 L257 825 L216 825 L216 755 C121 735 61 658 61 551 C61 453 114 365 216 317 L216 46 C207 49 198 53 189 58 C146 84 104 145 81 215 C78 224 75 235 72 244 L49 244 L49 -2 L65 -2 L65 -2 Z M256 300 C270 295 283 289 295 283 L295 33 C282 32 269 33 256 35 L256 300 L256 300 Z M336 261 C384 231 409 198 409 167 C409 106 381 61 336 42 L336 261 L336 261 Z M256 476 L256 725 C269 726 282 725 295 723 L295 456 C281 462 268 469 256 476 L256 476 Z M215 506 C182 536 165 569 165 602 C165 653 184 692 215 712 L215 506 L215 506 Z " />
<glyph glyph-name="percent" unicode="&#x25;" horiz-adv-x="806" d="M143 574 C143 665 154 726 171 726 C208 726 233 647 233 528 C233 446 219 392 197 392 C165 392 143 465 143 574 L143 574 Z M31 552 C31 434 93 355 187 355 C279 355 341 440 341 567 C341 683 279 760 187 760 C93 760 31 677 31 552 L31 552 Z M574 213 C574 302 588 361 610 361 C656 361 686 283 686 167 C686 83 666 27 636 27 C599 27 574 101 574 213 L574 213 Z M461 191 C461 70 527 -10 626 -10 C727 -10 794 76 794 206 C794 319 727 395 626 395 C527 395 461 313 461 191 L461 191 Z M212 -16 L677 734 L626 766 L161 16 L212 -16 L212 -16 Z " />
<glyph glyph-name="ampersand" unicode="&#x26;" horiz-adv-x="914" d="M344 467 C444 502 508 558 508 610 C508 700 431 760 315 760 C209 760 139 694 139 595 C139 547 171 498 222 435 C107 392 32 299 32 196 C32 72 117 -10 245 -10 C330 -10 417 34 498 111 C506 102 514 92 522 82 C568 27 640 -10 700 -10 C772 -10 828 52 839 145 L819 152 C814 111 786 84 748 84 C702 84 651 107 622 142 C606 162 590 181 575 199 C637 281 692 384 735 502 L708 502 C668 391 613 297 551 228 C408 398 374 434 345 469 L344 467 L344 467 Z M333 484 C277 553 242 605 242 657 C242 704 272 735 317 735 C376 735 415 689 415 619 C415 561 383 509 334 484 L333 484 L333 484 Z M467 152 C417 118 365 99 314 99 C219 99 155 153 155 233 C155 318 186 389 235 422 C280 367 303 345 467 151 L467 152 L467 152 Z " />
<glyph glyph-name="quotesingle" unicode="&#x27;" horiz-adv-x="204" d="M88 750 C62 750 48 732 55 705 L95 560 L109 560 L149 705 C156 732 142 750 116 750 L88 750 L88 750 Z " />
<glyph glyph-name="parenleft" unicode="&#x28;" horiz-adv-x="253" d="M232 760 C128 684 59 554 59 273 C59 -8 128 -138 232 -214 L243 -199 C187 -158 149 -42 149 273 C149 588 187 704 243 745 L232 760 L232 760 Z " />
<glyph glyph-name="parenright" unicode="&#x29;" horiz-adv-x="194" d="M3 747 C63 708 103 518 103 273 C103 28 63 -162 3 -201 L10 -214 C114 -146 184 49 184 273 C184 497 114 692 10 760 L3 747 L3 747 Z " />
<glyph glyph-name="asterisk" unicode="&#x2a;" horiz-adv-x="300" d="M271 660 L236 720 C236 720 261 678 271 660 L271 660 Z M271 660 C293 665 298 684 284 708 C271 731 252 736 236 720 L156 640 L185 750 C191 771 177 785 150 785 C123 785 109 771 115 750 L144 641 L64 720 C48 736 29 731 16 708 C2 684 7 665 29 660 C39 678 64 720 64 720 L29 660 L138 630 L29 600 C7 595 2 576 16 553 C29 529 48 524 64 540 C53 558 29 600 29 600 L64 540 L144 619 L115 510 C109 489 123 475 150 475 C177 475 191 489 185 510 L156 620 L236 540 C252 524 271 529 284 553 C298 576 293 595 271 600 C271 600 247 558 236 540 L271 600 L163 630 L271 660 L271 660 Z " />
<glyph glyph-name="plus" unicode="&#x2b;" horiz-adv-x="620" d="M265 460 L265 291 L100 291 L100 209 L265 209 L265 40 L355 40 L355 209 L520 209 L520 291 L355 291 L355 460 L265 460 L265 460 Z " />
<glyph glyph-name="comma" unicode="&#x2c;" horiz-adv-x="268" d="M150 2 C151 -6 151 -14 151 -23 C151 -63 117 -90 65 -90 L65 -117 C145 -117 198 -63 198 18 C198 76 169 115 125 115 C89 115 65 91 65 55 C65 19 89 -5 125 -5 C134 -5 142 -3 149 1 L150 2 L150 2 Z " />
<glyph glyph-name="hyphen" unicode="&#x2d;" horiz-adv-x="430" d="M80 238 L350 238 L350 332 L80 332 L80 238 L80 238 Z " />
<glyph glyph-name="period" unicode="&#x2e;" horiz-adv-x="195" d="M125 -5 C173 -5 205 27 205 75 C205 123 173 155 125 155 C77 155 45 123 45 75 C45 27 77 -5 125 -5 L125 -5 Z " />
<glyph glyph-name="slash" unicode="&#x2f;" horiz-adv-x="398" d="M300 770 L18 -80 L86 -80 L368 770 L300 770 L300 770 Z " />
<glyph glyph-name="zero" unicode="0" horiz-adv-x="614" d="M96 250 C96 365 180 463 305 463 C418 463 514 378 514 250 C514 135 430 37 305 37 C192 37 96 122 96 250 L96 250 Z M41 250 C41 94 162 -10 305 -10 C463 -10 569 110 569 250 C569 406 448 510 305 510 C147 510 41 390 41 250 L41 250 Z " />
<glyph glyph-name="one" unicode="1" horiz-adv-x="395" d="M340 20 L305 20 C275 20 255 40 255 70 L255 430 C255 460 275 480 305 480 L340 480 L340 500 L55 500 L55 480 L90 480 C120 480 140 460 140 430 L140 70 C140 40 120 20 90 20 L55 20 L55 0 L340 0 L340 20 L340 20 Z " />
<glyph glyph-name="two" unicode="2" horiz-adv-x="554" d="M532 167 L524 157 C496 124 453 102 414 102 L214 102 C354 188 454 274 454 347 C454 445 384 510 279 510 C162 510 67 424 42 294 L66 289 C82 369 143 423 220 423 C291 423 339 382 339 320 C339 209 190 101 14 12 L27 2 C22 1 18 0 14 0 L435 0 L499 102 C499 102 538 158 540 161 C538 163 532 167 532 167 L532 167 Z " />
<glyph glyph-name="three" unicode="3" horiz-adv-x="457" d="M16 -209 L20 -232 C258 -207 417 -108 417 15 C417 120 342 191 222 207 C325 264 388 325 388 388 C388 462 322 511 222 511 C123 511 42 448 20 353 L45 346 C57 396 109 430 175 430 C229 430 265 398 265 349 C265 293 231 247 175 211 C162 211 160 207 150 197 C136 189 120 181 103 174 L103 151 C218 135 295 68 295 -16 C295 -114 183 -190 15 -208 L16 -209 L16 -209 Z " />
<glyph glyph-name="four" unicode="4" horiz-adv-x="620" d="M598 158 L590 133 C583 106 559 88 532 88 L415 88 L415 530 L400 530 L15 20 L15 0 L300 0 L300 -220 L415 -220 L415 0 L520 0 C551 0 568 -21 568 -55 C568 -55 584 -58 587 -58 C591 -27 597 13 601 44 L595 44 L595 45 C599 45 601 45 601 45 C605 77 612 121 616 154 C616 156 598 158 598 158 L598 158 Z M301 329 L300 328 L300 88 L120 88 L301 329 L301 329 Z " />
<glyph glyph-name="five" unicode="5" horiz-adv-x="442" d="M373 555 L354 555 L350 545 C339 518 314 500 287 500 L75 500 L20 182 L40 164 L82 164 C219 164 311 104 311 14 C311 -104 210 -195 58 -214 L61 -235 C272 -209 412 -94 412 53 C412 192 285 285 95 285 L78 285 L97 397 L344 400 C354 453 365 514 374 555 L373 555 L373 555 Z " />
<glyph glyph-name="six" unicode="6" horiz-adv-x="569" d="M550 750 C245 685 42 503 42 295 C42 112 140 -10 286 -10 C423 -10 515 89 515 238 C515 377 431 469 306 469 C259 469 219 451 190 420 C248 578 380 695 555 732 L550 750 L550 750 Z M158 233 C158 353 212 433 294 433 C358 433 401 357 401 244 C401 111 353 22 281 22 C207 22 158 106 158 233 L158 233 Z " />
<glyph glyph-name="seven" unicode="7" horiz-adv-x="461" d="M104 554 C90 524 74 491 58 453 L59 453 C45 420 29 384 15 354 C19 352 31 347 31 347 L41 362 C59 389 88 407 115 407 L388 407 L105 -220 L192 -220 L456 485 L456 500 L154 500 C127 500 112 516 119 540 L120 547 C120 547 108 552 104 554 L104 554 Z " />
<glyph glyph-name="eight" unicode="8" horiz-adv-x="541" d="M205 359 C215 354 226 349 237 345 C342 303 412 265 412 219 C412 98 354 18 267 18 C187 18 133 81 133 175 C133 253 161 322 205 360 L205 359 L205 359 Z M174 378 C87 327 33 251 33 175 C33 65 127 -9 267 -9 C407 -9 501 63 501 171 C501 305 440 374 344 424 C425 471 476 537 476 601 C476 698 391 762 264 762 C140 762 58 689 58 579 C58 496 102 426 173 379 L174 378 L174 378 Z M313 439 C302 444 291 449 280 454 C202 486 150 546 150 623 C150 697 204 747 285 747 C340 747 377 685 377 591 C377 529 353 473 314 440 L313 439 L313 439 Z " />
<glyph glyph-name="nine" unicode="9" horiz-adv-x="569" d="M19 -250 C324 -185 527 -3 527 205 C527 388 429 510 283 510 C146 510 54 411 54 262 C54 123 138 31 263 31 C310 31 350 49 379 80 C321 -78 189 -195 14 -232 L19 -250 L19 -250 Z M411 267 C411 147 357 67 275 67 C211 67 168 143 168 256 C168 389 216 478 288 478 C362 478 411 394 411 267 L411 267 Z " />
<glyph glyph-name="colon" unicode="&#x3a;" horiz-adv-x="135" d="M125 385 C173 385 205 417 205 465 C205 513 173 545 125 545 C77 545 45 513 45 465 C45 417 77 385 125 385 L125 385 Z M125 -5 C173 -5 205 27 205 75 C205 123 173 155 125 155 C77 155 45 123 45 75 C45 27 77 -5 125 -5 L125 -5 Z " />
<glyph glyph-name="semicolon" unicode="&#x3b;" horiz-adv-x="268" d="M125 385 C173 385 205 417 205 465 C205 513 173 545 125 545 C77 545 45 513 45 465 C45 417 77 385 125 385 L125 385 Z M150 2 C151 -6 151 -14 151 -23 C151 -63 117 -90 65 -90 L65 -117 C145 -117 198 -63 198 18 C198 76 169 115 125 115 C89 115 65 91 65 55 C65 19 89 -5 125 -5 C134 -5 142 -3 149 1 L150 2 L150 2 Z " />
<glyph glyph-name="equal" unicode="&#x3d;" horiz-adv-x="538" d="M88 226 L88 174 L468 174 L468 226 L88 226 L88 226 Z M88 326 L88 274 L468 274 L468 326 L88 326 L88 326 Z " />
<glyph glyph-name="question" unicode="&#x3f;" horiz-adv-x="295" d="M125 -5 C173 -5 205 27 205 75 C205 123 173 155 125 155 C77 155 45 123 45 75 C45 27 77 -5 125 -5 L125 -5 Z M127 240 C127 240 126 360 125 360 C225 360 257 391 288 437 C307 465 319 513 319 557 C319 679 249 760 145 760 C80 760 37 726 37 675 C37 641 62 618 99 618 C125 618 161 638 187 638 C246 638 285 600 285 543 C285 532 276 512 263 492 C242 461 215 440 97 440 C96 439 107 240 107 240 L127 240 L127 240 Z " />
<glyph glyph-name="at" unicode="&#x40;" horiz-adv-x="1178" d="M1039 0 C973 -142 799 -237 605 -237 C329 -237 145 -39 145 259 C145 555 323 752 589 752 C856 752 1034 588 1034 343 C1034 143 964 10 859 10 C785 10 755 86 783 200 L853 480 L744 480 L727 413 C707 461 659 490 594 490 C407 490 282 369 282 188 C282 78 354 4 463 4 C550 4 624 41 667 101 C679 19 740 -31 838 -31 C1009 -31 1123 118 1123 342 C1123 607 909 783 589 783 C269 783 56 573 56 258 C56 -51 286 -257 631 -257 C828 -257 1006 -155 1078 -1 L1039 0 L1039 0 Z M713 355 L674 199 C654 120 593 67 522 67 C454 67 408 124 408 209 C408 358 482 457 592 457 C665 457 713 416 714 355 L713 355 L713 355 Z " />
<glyph glyph-name="A" unicode="A" horiz-adv-x="831" d="M216 125 L216 125 L262 272 L506 272 L556 116 C570 61 543 25 486 25 L459 25 L459 0 L824 0 L824 25 L809 25 C763 25 719 61 698 116 C625 334 551 551 479 770 L465 770 C470 743 429 718 364 709 L367 699 L367 699 C304 508 241 316 178 125 C158 65 105 25 45 25 L10 25 L10 0 L312 0 L312 25 L285 25 C225 25 197 65 216 125 L216 125 Z M272 307 L381 657 L494 307 L272 307 L272 307 Z " />
<glyph glyph-name="B" unicode="B" horiz-adv-x="729" d="M350 13 L300 13 C283 13 271 44 271 91 L271 385 L353 385 C466 376 540 307 540 205 C540 49 464 13 350 13 L350 13 Z M391 0 C570 0 689 39 689 205 C689 305 615 378 498 401 C594 429 652 490 652 571 C652 678 596 750 356 750 L51 750 L51 725 L86 725 C116 725 136 705 136 675 L136 75 C136 45 116 25 86 25 L51 25 L51 0 L391 0 L391 0 Z M358 409 L271 409 L271 723 C271 723 302 723 302 722 C476 722 517 656 517 557 C517 468 453 409 358 409 L358 409 Z " />
<glyph glyph-name="C" unicode="C" horiz-adv-x="769" d="M729 -3 L729 231 L707 231 C663 114 593 21 441 21 C290 21 189 163 189 375 C189 586 294 726 452 726 C505 726 546 715 581 695 L581 695 C627 670 673 609 697 544 C700 536 704 527 707 519 L729 519 L729 750 L712 750 C711 744 708 737 707 731 C700 701 673 695 638 716 C591 744 530 760 439 760 C200 760 40 606 40 375 C40 144 196 -10 429 -10 C518 -10 584 7 636 37 C671 56 699 49 706 17 C707 11 710 3 711 -3 L729 -3 L729 -3 Z M708 134 L708 134 L708 134 L708 134 Z " />
<glyph glyph-name="D" unicode="D" horiz-adv-x="847" d="M311 27 C275 27 271 48 271 80 L271 723 L283 723 C548 723 684 584 684 375 C684 145 535 27 311 27 L311 27 Z M51 730 L86 730 C116 730 136 710 136 680 L136 70 C136 40 116 20 86 20 L51 20 L51 0 L351 0 C640 0 833 128 833 375 C833 600 683 750 391 750 L51 750 L51 730 L51 730 Z " />
<glyph glyph-name="E" unicode="E" horiz-adv-x="678" d="M31 730 L66 730 C108 730 136 702 136 660 L136 90 C136 48 108 20 66 20 L31 20 L31 0 L606 0 L609 15 L608 15 C616 57 626 112 633 154 L616 154 L609 134 C583 71 524 29 461 29 L351 29 C279 29 271 49 271 80 L271 385 L396 385 C444 385 483 353 493 305 L504 250 L521 250 L521 552 L504 552 L493 497 C483 449 444 417 396 417 L271 417 L271 721 L460 721 C508 721 551 689 567 641 L585 586 L602 586 C596 629 587 684 581 728 L581 736 L582 736 L581 750 L31 750 L31 730 L31 730 Z " />
<glyph glyph-name="F" unicode="F" horiz-adv-x="653" d="M31 730 L66 730 C108 730 136 702 136 660 L136 90 C136 48 108 20 66 20 L31 20 L31 0 L376 0 L376 20 L341 20 C299 20 271 48 271 90 L271 385 L386 385 C434 385 473 353 483 305 L494 250 L511 250 L511 552 L494 552 L483 497 C473 449 434 417 386 417 L271 417 L271 727 L459 727 C507 727 550 695 566 647 L584 592 L601 592 C595 636 588 695 583 739 L582 739 L581 750 L31 750 L31 730 L31 730 Z " />
<glyph glyph-name="G" unicode="G" horiz-adv-x="848" d="M712 750 C711 744 708 737 707 731 C700 701 673 695 638 716 C591 744 530 760 439 760 C200 760 40 606 40 375 C40 144 200 -10 440 -10 C592 -10 694 17 781 58 L772 78 C751 68 729 59 705 51 C705 86 705 155 705 215 C705 266 737 300 786 300 L800 300 L800 325 L474 325 L474 300 L488 300 C537 300 569 266 569 215 C570 215 570 133 570 124 C563 59 521 17 461 17 C297 17 188 160 188 375 C188 586 293 726 451 726 C504 726 545 715 580 695 L580 695 C626 670 672 609 696 544 C699 536 703 527 706 519 L728 519 L728 750 L712 750 L712 750 Z " />
<glyph glyph-name="H" unicode="H" horiz-adv-x="896" d="M836 20 L801 20 C771 20 751 40 751 70 L751 680 C751 710 771 730 801 730 L836 730 L836 750 L531 750 L531 730 L566 730 C596 730 616 710 616 680 L616 418 L307 418 L307 680 C307 710 327 730 357 730 L392 730 L392 750 L87 750 L87 730 L122 730 C152 730 172 710 172 680 L172 70 C172 40 152 20 122 20 L87 20 L87 0 L392 0 L392 20 L357 20 C327 20 307 40 307 70 L307 383 L616 383 L616 70 C616 40 596 20 566 20 L531 20 L531 0 L836 0 L836 20 L836 20 Z " />
<glyph glyph-name="I" unicode="I" horiz-adv-x="403" d="M343 20 L308 20 C278 20 258 40 258 70 L258 680 C258 710 278 730 308 730 L343 730 L343 750 L37 750 L37 730 L72 730 C102 730 122 710 122 680 L122 70 C122 40 102 20 72 20 L37 20 L37 0 L343 0 L343 20 L343 20 Z " />
<glyph glyph-name="J" unicode="J" horiz-adv-x="403" d="M343 750 L37 750 L37 730 L72 730 C102 730 122 710 122 680 L122 -106 C122 -161 69 -172 30 -172 C-37 -172 -4 -64 -71 -64 C-108 -64 -132 -88 -132 -125 C-132 -182 -80 -220 -3 -220 C107 -220 258 -161 258 150 L258 680 C258 710 278 730 308 730 L343 730 L343 750 L343 750 Z " />
<glyph glyph-name="K" unicode="K" horiz-adv-x="824" d="M356 750 L51 750 L51 730 L86 730 C116 730 136 710 136 680 L136 70 C136 40 116 20 86 20 L51 20 L51 0 L356 0 L356 20 L321 20 C291 20 271 40 271 70 L271 375 L563 0 L808 0 L808 20 L773 20 C743 20 708 40 684 70 L684 70 L377 459 C436 528 494 597 553 665 C586 704 634 730 673 730 L713 730 L713 750 L416 750 L416 730 L455 730 C515 730 523 690 475 630 L475 630 L272 375 L272 680 C272 710 292 730 322 730 L357 730 L356 750 L356 750 Z " />
<glyph glyph-name="L" unicode="L" horiz-adv-x="668" d="M343 750 L37 750 L37 730 L72 730 C102 730 122 710 122 680 L122 70 C122 40 102 20 72 20 L37 20 L37 0 L593 0 L596 11 L596 11 C603 52 613 107 620 148 L603 148 L596 128 C570 65 511 23 448 23 L338 23 C266 23 258 46 258 80 L258 680 C258 710 278 730 308 730 L343 730 L343 750 L343 750 Z " />
<glyph glyph-name="M" unicode="M" horiz-adv-x="931" d="M896 750 L683 750 L496 176 L290 750 L51 750 L51 730 L86 730 C111 730 136 716 150 694 L130 61 C125 36 105 20 78 20 L43 20 L43 0 L260 0 L260 20 L225 20 C195 20 176 40 176 70 L176 70 L183 616 C268 411 353 206 438 1 L472 1 L473 6 L685 624 C689 440 694 255 698 72 C699 42 680 22 650 22 L615 22 L615 2 L919 2 L919 22 L884 22 C854 22 834 42 833 72 L833 72 L812 688 C814 714 833 731 861 731 L895 731 L896 750 L896 750 Z " />
<glyph glyph-name="N" unicode="N" horiz-adv-x="777" d="M-19 730 L16 730 C43 730 75 714 98 689 L152 619 L151 71 L151 71 C151 41 131 21 101 21 L66 21 L66 1 L276 1 L276 21 L241 21 C211 21 191 41 191 71 L191 71 L188 575 C337 384 486 193 635 1 L662 1 L671 685 C673 713 693 731 722 731 L757 731 L757 751 L547 751 L547 731 L582 731 C612 731 632 711 632 681 L632 681 L634 223 C495 399 357 575 219 751 L-18 751 L-19 730 L-19 730 Z " />
<glyph glyph-name="O" unicode="O" horiz-adv-x="863" d="M161 375 C161 586 257 726 400 726 C557 726 661 586 661 375 C661 164 558 24 403 24 C258 24 161 164 161 375 L161 375 Z M14 375 C14 144 167 -10 396 -10 C643 -10 808 144 808 375 C808 606 647 760 406 760 C171 760 14 606 14 375 L14 375 Z " />
<glyph glyph-name="P" unicode="P" horiz-adv-x="633" d="M351 20 L316 20 C286 20 266 40 266 70 L266 336 L316 336 C494 336 613 398 613 537 C613 665 514 750 366 750 L46 750 L46 730 L81 730 C111 730 131 710 131 680 L131 70 C131 40 111 20 81 20 L46 20 L46 0 L351 0 L351 20 L351 20 Z M266 365 L266 727 L332 727 C424 727 486 660 486 560 C486 425 418 365 316 365 L266 365 L266 365 Z " />
<glyph glyph-name="Q" unicode="Q" horiz-adv-x="884" d="M1184 -37 L1174 -25 C1137 -56 1002 -77 838 -77 C665 -77 500 -51 390 -9 C656 -26 834 137 834 375 C834 606 673 760 432 760 C197 760 40 606 40 375 C40 230 100 115 201 50 C409 -94 656 -190 817 -190 C927 -190 1074 -129 1183 -37 L1184 -37 L1184 -37 Z M186 375 C186 586 282 726 425 726 C582 726 686 586 686 375 C686 154 568 6 390 6 C268 6 186 154 186 375 L186 375 Z " />
<glyph glyph-name="R" unicode="R" horiz-adv-x="831" d="M51 730 L86 730 C116 730 136 710 136 680 L136 70 C136 40 116 20 86 20 L51 20 L51 0 L356 0 L356 20 L321 20 C291 20 271 40 271 70 L271 346 L342 346 C367 307 439 208 537 81 C596 4 607 1 821 1 L821 28 C740 28 735 30 696 81 C594 214 517 315 482 361 C584 385 647 442 647 537 C647 665 527 751 348 751 L52 751 L51 730 L51 730 Z M272 381 L272 724 L308 724 C422 724 498 660 498 564 C498 438 438 381 348 381 L272 381 L272 381 Z " />
<glyph glyph-name="S" unicode="S" horiz-adv-x="555" d="M65 -2 C66 5 68 14 69 21 C75 51 103 57 139 36 C182 6 232 -11 283 -11 C422 -11 515 76 515 206 C515 307 450 398 323 444 C217 482 163 542 163 602 C163 676 203 725 264 725 C269 725 319 720 318 718 C370 705 421 647 445 573 C448 565 452 553 455 545 L477 545 L477 755 L460 755 C459 750 456 744 455 739 C449 716 424 712 393 728 C356 748 311 759 263 759 C139 759 57 675 57 550 C57 443 120 348 241 304 C350 264 406 213 406 167 C406 86 356 32 282 32 C248 32 215 41 185 57 C142 83 100 144 77 214 C74 223 71 234 68 243 L45 243 L45 -3 L65 -2 L65 -2 Z " />
<glyph glyph-name="T" unicode="T" horiz-adv-x="788" d="M235 0 L540 0 L540 20 L505 20 C475 20 455 40 455 70 L455 716 L602 716 C653 716 709 682 740 631 L766 591 L783 591 C765 634 769 624 727 732 C727 732 724 732 720 732 L720 733 L727 733 C725 737 720 745 720 750 L720 750 C714 765 707 781 702 795 L690 795 L686 788 C671 765 628 750 579 750 L196 750 C147 750 104 765 89 788 L85 795 L73 795 C66 776 56 756 50 734 C50 734 52 734 55 734 L55 733 L50 733 C32 690 10 634 -8 591 L9 591 L35 631 C66 682 122 716 173 716 L320 716 L320 70 C320 40 300 20 270 20 L235 20 L235 0 L235 0 Z " />
<glyph glyph-name="U" unicode="U" horiz-adv-x="812" d="M782 61 L747 51 C717 43 697 58 697 88 L697 750 L477 750 L477 730 L512 730 C542 730 562 710 562 680 L562 202 C527 127 451 77 372 77 C290 77 236 134 236 220 L236 750 L16 750 L16 730 L51 730 C81 730 101 710 101 680 L101 220 C101 82 188 -10 318 -10 C422 -10 520 50 562 141 L562 0 L630 0 L668 10 C706 20 748 31 782 41 L782 61 L782 61 Z " />
<glyph glyph-name="V" unicode="V" horiz-adv-x="874" d="M117 625 L117 625 C212 413 308 202 402 -10 L429 -10 L696 635 C722 689 766 724 809 724 L823 724 L823 749 L538 749 L538 724 L579 724 C638 724 663 686 643 628 L402 -11 L474 182 C407 329 339 477 273 624 C246 684 267 724 327 724 L351 724 L351 749 L-4 749 L-4 724 L7 724 C45 724 89 684 116 624 L117 625 L117 625 Z " />
<glyph glyph-name="W" unicode="W" horiz-adv-x="1201" d="M525 645 L525 645 C546 597 568 548 589 500 L476 162 L277 654 C264 697 284 725 329 725 L349 725 L349 750 L26 750 L26 725 L37 725 C75 725 114 693 135 645 L135 645 C229 427 323 208 418 -10 L452 -10 L453 -5 L614 444 C681 293 748 142 815 -9 L849 -9 L849 -4 L1042 652 C1058 696 1098 725 1144 725 L1159 725 L1159 750 L873 750 L873 725 L931 725 C978 725 1002 695 991 649 L868 188 L669 656 C656 698 675 726 720 726 L759 726 L759 751 L411 751 L411 726 L423 726 C464 726 505 694 526 646 L525 645 L525 645 Z " />
<glyph glyph-name="X" unicode="X" horiz-adv-x="876" d="M812 750 L547 750 L547 730 L602 730 C634 730 641 710 620 679 L443 438 L282 679 C263 710 271 730 303 730 L340 730 L340 750 L18 750 L18 730 L33 730 C66 730 103 708 125 675 L347 342 C280 253 214 163 146 75 C121 42 83 20 50 20 L10 20 L10 0 L270 0 L270 20 L214 20 C183 20 175 39 193 68 L365 315 L525 75 C547 42 540 20 507 20 L470 20 L470 0 L793 0 L793 20 L778 20 C745 20 708 42 686 75 L461 412 L679 682 C706 711 743 730 774 730 L814 730 L812 750 L812 750 Z " />
<glyph glyph-name="Y" unicode="Y" horiz-adv-x="831" d="M243 0 L588 0 L588 20 L553 20 C511 20 483 48 483 90 L483 320 C548 438 613 557 679 675 C697 708 731 730 764 730 L804 730 L804 750 L527 750 L527 730 L588 730 C618 730 631 711 620 682 L469 361 C401 465 332 570 265 674 C244 707 251 729 284 729 L321 729 L321 749 L-1 749 L-1 729 L14 729 C47 729 84 707 106 674 L106 674 L347 315 L347 89 C347 47 319 19 277 19 L242 19 L243 0 L243 0 Z " />
<glyph glyph-name="Z" unicode="Z" horiz-adv-x="652" d="M73 587 L79 608 C98 670 153 713 215 715 L465 720 L25 27 L25 0 L606 0 C615 41 617 47 644 166 L627 166 L617 145 C590 86 536 45 477 38 L184 31 L611 723 L611 750 L71 750 L70 731 C70 731 65 673 57 587 L73 587 L73 587 Z " />
<glyph glyph-name="bracketleft" unicode="&#x5b;" horiz-adv-x="302" d="M142 716 L352 716 L352 750 L102 750 L102 -195 L352 -195 L352 -161 L142 -161 L142 716 L142 716 Z " />
<glyph glyph-name="backslash" unicode="&#x5c;" horiz-adv-x="356" d="M18 770 L278 -80 L346 -80 L86 770 L18 770 L18 770 Z " />
<glyph glyph-name="bracketright" unicode="&#x5d;" horiz-adv-x="305" d="M155 716 L155 -161 L-55 -161 L-55 -195 L195 -195 L195 750 L-55 750 L-55 716 L155 716 L155 716 Z " />
<glyph glyph-name="asciicircum" unicode="&#x5e;" horiz-adv-x="340" d="M211 746 C203 758 183 787 170 787 C158 787 138 758 130 746 L16 568 L31 555 L170 672 L309 555 L324 568 L211 746 L211 746 Z " />
<glyph glyph-name="underscore" unicode="&#x5f;" horiz-adv-x="455" d="M5 -50 L5 -114 L450 -114 L450 -50 L5 -50 L5 -50 Z " />
<glyph glyph-name="grave" unicode="&#x60;" horiz-adv-x="340" d="M-33 738 C-33 730 -9 708 27 679 L171 561 L186 576 L79 731 C53 770 32 796 25 796 C-6 796 -33 769 -33 738 L-33 738 Z " />
<glyph glyph-name="a" unicode="a" horiz-adv-x="514" d="M524 123 L507 131 C501 99 479 77 452 77 C421 77 400 94 400 120 L400 353 C400 461 342 510 256 510 C137 510 57 414 57 360 C57 312 86 280 129 280 C163 280 185 313 185 337 C185 356 165 377 165 399 C165 422 191 463 229 463 C263 463 285 442 285 394 L285 264 C84 202 37 176 37 93 C37 31 82 -11 149 -11 C185 -11 231 14 290 80 C304 27 347 -6 406 -6 C464 -6 511 45 525 122 L524 123 L524 123 Z M286 236 L286 119 C286 114 286 109 286 104 C252 65 227 50 210 50 C176 50 153 72 153 105 C153 183 178 202 285 235 L286 236 L286 236 Z " />
<glyph glyph-name="b" unicode="b" horiz-adv-x="611" d="M12 706 L32 706 C57 705 74 688 76 664 L74 75 L74 0 L81 0 L117 58 C160 16 228 -10 306 -10 C461 -10 565 95 565 253 C565 404 471 505 331 505 C276 505 222 484 189 451 L189 750 L132 750 L131 749 C94 739 47 727 11 717 L12 706 L12 706 Z M189 110 L189 416 C214 441 250 457 284 457 C375 457 436 370 436 239 C436 105 386 15 312 15 C259 15 211 53 188 110 L189 110 L189 110 Z " />
<glyph glyph-name="c" unicode="c" horiz-adv-x="537" d="M507 128 L491 135 C471 90 416 60 353 60 C241 60 167 147 167 277 C167 401 229 484 322 484 C347 484 375 452 392 405 C404 371 428 348 450 348 C497 348 519 371 507 405 C484 468 413 510 329 510 C159 510 45 400 45 234 C45 88 152 -10 313 -10 C393 -10 470 45 507 128 L507 128 Z " />
<glyph glyph-name="d" unicode="d" horiz-adv-x="608" d="M328 718 L328 706 L348 705 C375 704 393 685 393 658 L393 489 C356 502 312 510 264 510 C119 510 44 406 44 249 C44 97 124 -5 243 -5 C301 -5 359 21 393 61 L393 0 L450 0 L450 -1 C493 11 550 26 593 38 L593 58 L558 48 C528 40 508 55 508 85 L508 750 L451 750 C413 741 365 727 328 718 L328 718 Z M393 375 L393 101 C365 66 325 43 291 43 C214 43 163 138 163 281 C163 399 202 477 279 477 C329 477 376 430 393 375 L393 375 Z " />
<glyph glyph-name="e" unicode="e" horiz-adv-x="530" d="M152 340 L500 340 C478 462 397 510 287 510 C131 510 27 431 27 228 C27 85 122 -10 264 -10 C367 -10 456 47 487 132 L473 136 C458 94 385 66 291 66 C205 66 148 150 148 275 C148 299 149 321 152 340 L152 340 Z M367 372 L157 367 C175 450 220 484 281 484 C317 484 348 452 367 372 L367 372 Z " />
<glyph glyph-name="f" unicode="f" horiz-adv-x="390" d="M292 20 L242 20 C233 20 227 26 227 35 L227 439 L380 439 L380 500 L227 500 C227 631 259 719 321 719 C368 719 413 635 452 635 C479 635 497 653 497 680 C497 725 443 755 362 755 C197 755 112 653 112 500 L26 453 L26 439 L112 439 L112 35 C112 26 106 20 97 20 L47 20 L47 0 L292 0 L292 20 L292 20 Z " />
<glyph glyph-name="g" unicode="g" horiz-adv-x="520" d="M543 461 C543 502 513 530 468 530 C437 530 403 507 379 471 C347 496 303 510 251 510 C141 510 67 446 67 350 C67 281 104 228 165 203 C94 187 50 150 50 101 C50 47 79 7 125 -9 C73 -26 40 -60 40 -98 C40 -178 129 -231 263 -231 C397 -231 486 -163 486 -60 C486 35 434 98 299 98 L179 98 C143 98 119 113 119 136 C119 167 172 187 252 187 C362 187 436 252 436 349 C436 391 422 427 397 454 C399 456 401 457 402 457 C430 457 467 410 495 410 C524 410 544 430 544 460 L543 461 L543 461 Z M252 214 C211 214 183 268 183 349 C183 429 211 482 252 482 C293 482 321 429 321 349 C321 268 293 214 252 214 L252 214 Z M156 -15 C161 -16 167 -16 173 -16 L287 -16 C362 -16 391 -44 391 -87 C391 -158 343 -205 270 -205 C189 -205 135 -151 135 -71 C135 -47 143 -27 156 -15 L156 -15 Z " />
<glyph glyph-name="h" unicode="h" horiz-adv-x="623" d="M11 706 L31 705 C58 704 76 685 76 658 L76 35 C76 26 70 20 61 20 L11 20 L11 0 L256 0 L256 20 L206 20 C197 20 191 26 191 35 L191 359 C215 401 270 429 328 429 C384 429 413 377 413 300 L413 35 C413 26 407 20 398 20 L348 20 L348 0 L593 0 L593 20 L543 20 C534 20 528 26 528 35 L528 300 C528 426 482 510 393 510 C312 510 232 463 191 393 L191 751 L134 751 C97 741 48 728 11 718 L11 706 L11 706 Z " />
<glyph glyph-name="i" unicode="i" horiz-adv-x="296" d="M144 615 C188 615 218 645 218 689 C218 734 188 764 144 764 C99 764 69 734 69 689 C69 645 99 615 144 615 L144 615 Z M21 456 L41 455 C68 454 86 435 86 408 L86 35 C86 26 80 20 71 20 L21 20 L21 0 L266 0 L266 20 L216 20 C207 20 201 26 201 35 L201 501 L144 501 C107 491 58 478 21 468 L21 456 L21 456 Z " />
<glyph glyph-name="j" unicode="j" horiz-adv-x="300" d="M153 615 C197 615 227 645 227 689 C227 734 197 764 153 764 C108 764 78 734 78 689 C78 645 108 615 153 615 L153 615 Z M30 456 L50 455 C77 454 95 435 95 408 L95 68 C95 -22 72 -95 38 -115 C9 -115 -31 -100 -60 -100 C-87 -100 -105 -116 -105 -140 C-105 -169 -81 -187 -45 -185 C-38 -185 4 -163 60 -130 C150 -78 210 1 210 68 L210 500 L154 500 C102 488 67 478 30 468 L30 456 L30 456 Z " />
<glyph glyph-name="k" unicode="k" horiz-adv-x="635" d="M607 500 L326 500 L326 480 L373 480 C431 480 418 443 340 386 L192 281 C192 441 191 597 191 736 L191 752 L134 752 C97 742 48 729 11 719 L11 707 L31 706 C58 705 76 686 76 659 L76 36 C76 27 70 21 61 21 L11 21 L11 1 L256 1 L256 21 L206 21 C198 21 192 26 191 33 C192 115 192 198 192 280 C256 207 321 134 384 61 C409 32 400 21 372 21 L372 1 L618 1 L618 21 C585 21 554 37 525 71 L525 71 L304 326 L439 422 C492 458 550 481 587 481 L607 481 L607 500 L607 500 Z " />
<glyph glyph-name="l" unicode="l" horiz-adv-x="286" d="M12 707 L32 706 C58 706 76 687 77 661 C77 460 76 141 76 36 C76 27 70 21 61 21 L11 21 L11 1 L256 1 L256 21 L206 21 C197 21 191 27 191 36 L191 751 L134 751 C97 741 49 730 12 720 L12 707 L12 707 Z " />
<glyph glyph-name="m" unicode="m" horiz-adv-x="912" d="M11 456 L31 455 C58 454 76 435 76 408 L76 35 C76 26 70 20 61 20 L11 20 L11 0 L256 0 L256 20 L206 20 C197 20 191 26 191 35 L191 364 C212 401 262 425 316 425 C369 425 389 375 389 300 L389 35 C389 26 383 20 374 20 L324 20 L324 0 L569 0 L569 20 L519 20 C510 20 504 26 504 35 L504 300 C504 324 503 347 500 368 C522 403 573 425 629 425 C682 425 702 375 702 300 L702 35 C702 26 696 20 687 20 L637 20 L637 0 L882 0 L882 20 L832 20 C823 20 817 26 817 35 L817 300 C817 426 778 510 676 510 C607 510 536 465 497 398 L497 383 C482 462 441 511 363 511 C299 511 230 466 191 399 L191 501 L134 501 L131 499 C94 491 48 478 12 468 L11 456 L11 456 Z " />
<glyph glyph-name="n" unicode="n" horiz-adv-x="599" d="M11 457 L31 456 C58 455 76 436 76 409 L76 35 C76 26 70 20 61 20 L11 20 L11 0 L256 0 L256 20 L206 20 C197 20 191 26 191 35 L191 359 C214 399 256 426 295 426 C357 426 389 384 389 321 L389 35 C389 26 383 20 374 20 L324 20 L324 0 L569 0 L569 20 L519 20 C510 20 504 26 504 35 L504 321 C504 434 456 510 363 510 C300 510 232 463 191 393 L191 500 L134 500 C97 490 48 479 11 469 L11 457 L11 457 Z " />
<glyph glyph-name="o" unicode="o" horiz-adv-x="595" d="M154 250 C154 385 210 475 293 475 C376 475 432 385 432 250 C432 115 376 25 293 25 C210 25 154 115 154 250 L154 250 Z M27 250 C27 94 133 -10 293 -10 C453 -10 559 94 559 250 C559 406 453 510 293 510 C133 510 27 406 27 250 L27 250 Z " />
<glyph glyph-name="p" unicode="p" horiz-adv-x="602" d="M-4 457 L16 456 C43 455 61 436 61 409 L61 -185 C61 -194 55 -200 46 -200 L-4 -200 L-4 -220 L241 -220 L241 -200 L191 -200 C182 -200 176 -194 176 -185 L176 20 C213 4 256 -5 303 -5 C455 -5 557 116 557 259 C557 410 465 510 328 510 C268 510 210 485 177 445 L177 500 L120 500 C83 490 34 479 -3 469 L-4 457 L-4 457 Z M177 130 L177 399 C205 437 243 462 276 462 C369 462 431 366 431 223 C431 116 383 24 311 24 C250 24 196 66 177 130 L177 130 Z " />
<glyph glyph-name="q" unicode="q" horiz-adv-x="546" d="M541 -200 L491 -200 C482 -200 476 -194 476 -185 L476 500 L469 500 L434 445 C395 485 337 509 272 509 C109 509 25 405 25 248 C25 96 106 -6 227 -6 C275 -6 325 18 360 56 L360 -187 C360 -196 354 -202 345 -202 L295 -202 L295 -222 L540 -222 L541 -200 L541 -200 Z M360 388 L360 96 C332 62 300 41 275 41 C196 41 144 136 144 279 C144 401 185 482 266 482 C302 482 339 445 360 388 L360 388 Z " />
<glyph glyph-name="r" unicode="r" horiz-adv-x="468" d="M13 457 L33 456 C59 456 77 437 78 411 C78 342 77 35 77 35 C77 26 71 20 62 20 L12 20 L12 0 L257 0 L257 20 L207 20 C198 20 192 26 192 35 L192 351 C215 415 250 456 283 456 C307 456 323 442 323 421 C323 380 350 353 391 353 C431 353 458 380 458 421 C458 474 410 510 337 510 C273 510 218 471 193 410 L193 500 L136 500 C99 490 51 479 14 469 L13 457 L13 457 Z " />
<glyph glyph-name="s" unicode="s" horiz-adv-x="434" d="M74 180 L60 180 L60 -2 L74 -2 C75 2 76 7 77 11 C80 24 110 21 150 3 L150 3 C169 -6 190 -11 211 -11 C315 -11 384 48 384 137 C384 207 334 267 236 293 C171 311 137 356 137 411 C137 466 189 493 248 478 C297 464 333 407 347 338 L361 338 L361 510 L348 510 C347 506 345 502 344 498 C341 487 311 488 269 501 C252 506 234 509 215 509 C119 509 55 454 55 371 C55 292 100 228 186 205 C258 186 295 147 295 104 C295 51 261 16 211 16 C208 16 172 21 173 24 C125 43 88 106 73 179 L74 180 L74 180 Z " />
<glyph glyph-name="t" unicode="t" horiz-adv-x="412" d="M362 500 L210 500 L210 620 L202 620 L30 449 L30 439 L95 439 L95 186 C95 45 157 -10 249 -10 C328 -10 389 43 402 122 L387 125 C379 76 338 44 284 44 C238 44 207 77 207 161 L210 439 L362 439 L362 500 L362 500 Z " />
<glyph glyph-name="u" unicode="u" horiz-adv-x="590" d="M575 55 L550 48 C520 40 500 55 500 85 L500 500 L320 500 L320 480 L370 480 C379 480 385 474 385 465 L385 151 C362 102 318 70 271 70 C221 70 187 106 187 160 L187 500 L7 500 L7 480 L57 480 C66 480 72 474 72 465 L72 160 C72 58 130 -10 217 -10 C286 -10 352 40 385 117 L385 0 L442 0 L442 -1 C482 10 535 24 575 35 L575 55 L575 55 Z " />
<glyph glyph-name="v" unicode="v" horiz-adv-x="600" d="M569 500 L394 500 L394 480 L403 480 C432 480 444 458 433 425 L433 425 L341 156 C304 246 265 337 229 426 C215 459 225 481 254 481 L262 481 L262 501 L14 501 L14 481 C55 481 86 464 102 426 L102 426 L285 -9 L319 -9 L487 433 C504 467 532 481 571 481 L569 500 L569 500 Z " />
<glyph glyph-name="w" unicode="w" horiz-adv-x="950" d="M581 500 L330 500 L330 480 C369 480 399 465 416 431 L450 350 L313 -9 L347 -9 L472 298 L602 -9 L636 -9 C695 136 753 282 813 426 C828 464 859 481 900 481 L900 501 L724 501 L724 481 L733 481 C762 481 773 459 761 426 L762 426 L662 154 C624 245 585 336 547 426 C533 459 543 481 572 481 L580 481 L581 500 L581 500 Z M281 501 L31 501 L31 481 C72 481 103 464 120 426 L120 426 L313 -9 L372 147 L247 430 C233 466 248 481 281 481 L281 501 L281 501 Z " />
<glyph glyph-name="x" unicode="x" horiz-adv-x="607" d="M331 0 L589 0 L589 20 C548 20 516 37 492 73 L361 282 L477 432 C506 465 540 480 580 480 L580 500 L412 500 L412 480 L420 480 C463 480 425 425 425 425 L345 309 C321 348 297 387 273 426 C252 459 256 481 283 481 L291 481 L291 501 L33 501 L33 481 C74 481 106 464 130 428 L252 233 L125 67 C96 35 64 21 24 21 L24 1 L192 1 L192 21 L184 21 C158 21 156 43 178 76 L268 208 C295 164 323 120 350 76 C371 43 367 21 340 21 L332 21 L331 0 L331 0 Z " />
<glyph glyph-name="y" unicode="y" horiz-adv-x="602" d="M261 500 L15 500 L15 480 C55 480 85 464 104 428 L308 3 L302 -10 L247 -151 C237 -177 222 -194 220 -194 C198 -194 193 -156 170 -156 C141 -156 121 -176 121 -205 C121 -238 143 -260 175 -260 C205 -260 253 -222 275 -166 L337 -10 C394 137 450 285 506 432 C522 466 550 480 589 480 L589 500 L414 500 L414 480 L423 480 C452 480 465 458 454 425 L454 425 L364 150 L231 427 C216 459 225 480 252 480 L260 480 L261 500 L261 500 Z " />
<glyph glyph-name="z" unicode="z" horiz-adv-x="475" d="M429 138 L423 123 C402 76 359 42 311 36 L179 31 L434 472 L434 499 L123 499 C105 499 94 510 95 526 L97 531 L75 531 C70 515 65 494 60 478 L61 478 C59 471 47 426 30 361 L49 361 L58 376 C85 423 134 457 182 463 L299 468 L40 27 L40 0 L430 0 L430 5 L432 5 C432 5 441 67 448 138 L429 138 L429 138 Z " />
<glyph glyph-name="braceleft" unicode="&#x7b;" horiz-adv-x="254" d="M249 750 L209 750 C126 750 70 696 70 614 L70 383 C70 342 49 320 15 320 L15 300 C49 300 70 275 70 230 L70 6 C70 -76 126 -130 209 -130 L249 -130 L249 -111 L235 -111 C189 -111 159 -64 159 6 L159 166 C159 242 124 296 71 309 C124 322 159 374 159 447 L159 614 C159 684 189 731 235 731 L249 731 L249 750 L249 750 Z " />
<glyph glyph-name="bar" unicode="&#x7c;" horiz-adv-x="209" d="M60 800 L60 -250 L149 -250 L149 800 L60 800 L60 800 Z " />
<glyph glyph-name="braceright" unicode="&#x7d;" horiz-adv-x="254" d="M5 750 L5 731 L19 731 C65 731 95 684 95 614 L95 447 C95 374 130 322 183 309 C130 296 95 242 95 166 L95 6 C95 -64 65 -111 19 -111 L5 -111 L5 -130 L45 -130 C128 -130 184 -76 184 6 L184 230 C184 275 205 300 239 300 L239 320 C205 320 184 342 184 383 L184 614 C184 696 128 750 45 750 L5 750 L5 750 Z " />
<glyph glyph-name="asciitilde" unicode="&#x7e;" horiz-adv-x="340" d="M31 310 C31 343 46 365 69 365 C119 365 187 300 237 300 C292 300 329 356 329 441 L309 441 C309 405 291 381 264 381 C214 381 146 446 96 446 C45 446 11 392 11 310 L31 310 L31 310 Z " />
<glyph glyph-name="exclamdown" unicode="&#xa1;" horiz-adv-x="281" d="M141 505 C93 505 61 473 61 425 C61 377 93 345 141 345 C189 345 221 377 221 425 C221 473 189 505 141 505 L141 505 Z M141 -255 C196 -255 221 -206 211 -132 C211 -132 151 163 151 290 L130 290 C130 163 70 -132 70 -132 C60 -206 86 -255 141 -255 L141 -255 Z " />
<glyph glyph-name="cent" unicode="&#xa2;" horiz-adv-x="537" d="M294 575 L294 508 C144 494 45 388 45 234 C45 94 144 -2 294 -9 L294 -74 L334 -74 L334 -8 C406 1 473 53 507 129 L491 136 C469 87 406 55 334 62 L334 483 C356 475 378 446 392 406 C404 372 428 349 450 349 C497 349 519 372 507 406 C484 468 415 510 333 512 L333 577 L294 575 L294 575 Z M293 71 C215 96 166 173 166 279 C166 390 216 468 293 483 L293 71 L293 71 Z " />
<glyph glyph-name="acute" unicode="&#xb4;" horiz-adv-x="340" d="M179 561 L323 679 C359 709 383 732 383 738 C383 769 356 796 325 796 C319 796 299 770 271 731 L164 576 L179 561 L179 561 Z " />
<glyph glyph-name="questiondown" unicode="&#xbf;" horiz-adv-x="295" d="M170 505 C122 505 90 473 90 425 C90 377 122 345 170 345 C218 345 250 377 250 425 C250 473 218 505 170 505 L170 505 Z M168 260 C168 260 169 140 170 140 C70 140 38 109 7 63 C-12 35 -24 -13 -24 -57 C-24 -179 46 -260 150 -260 C215 -260 258 -226 258 -175 C258 -141 233 -118 196 -118 C170 -118 134 -138 108 -138 C49 -138 10 -100 10 -43 C10 -32 19 -12 32 8 C53 39 80 60 198 60 C192 58 188 260 188 260 L168 260 L168 260 Z " />
<glyph glyph-name="Agrave" unicode="&#xc0;" horiz-adv-x="831" d="M216 125 L216 125 L262 272 L506 272 L556 116 C570 61 543 25 486 25 L459 25 L459 0 L824 0 L824 25 L809 25 C763 25 719 61 698 116 C625 334 551 551 479 770 L465 770 C470 743 429 718 364 709 L367 699 L367 699 C304 508 241 316 178 125 C158 65 105 25 45 25 L10 25 L10 0 L312 0 L312 25 L285 25 C225 25 197 65 216 125 L216 125 Z M229 988 C229 979 253 957 288 929 L433 811 L447 826 L341 981 C315 1020 294 1046 286 1046 C255 1046 229 1019 229 988 L229 988 Z M272 307 L381 657 L494 307 L272 307 L272 307 Z " />
<glyph glyph-name="Aacute" unicode="&#xc1;" horiz-adv-x="831" d="M440 811 L585 929 C620 958 644 981 644 988 C644 1019 618 1046 587 1046 C580 1046 559 1020 532 981 L426 826 L440 811 L440 811 Z M216 125 L216 125 L262 272 L506 272 L556 116 C570 61 543 25 486 25 L459 25 L459 0 L824 0 L824 25 L809 25 C763 25 719 61 698 116 C625 334 551 551 479 770 L465 770 C470 743 429 718 364 709 L367 699 L367 699 C304 508 241 316 178 125 C158 65 105 25 45 25 L10 25 L10 0 L312 0 L312 25 L285 25 C225 25 197 65 216 125 L216 125 Z M272 307 L381 657 L494 307 L272 307 L272 307 Z " />
<glyph glyph-name="Acircumflex" unicode="&#xc2;" horiz-adv-x="831" d="M216 125 L216 125 L262 272 L506 272 L556 116 C570 61 543 25 486 25 L459 25 L459 0 L824 0 L824 25 L809 25 C763 25 719 61 698 116 C625 334 551 551 479 770 L465 770 C470 743 429 718 364 709 L367 699 L367 699 C304 508 241 316 178 125 C158 65 105 25 45 25 L10 25 L10 0 L312 0 L312 25 L285 25 C225 25 197 65 216 125 L216 125 Z M472 996 C464 1008 444 1037 432 1037 C419 1037 399 1008 391 996 L277 818 L293 805 L432 921 L570 805 L586 818 L472 996 L472 996 Z M272 307 L381 657 L494 307 L272 307 L272 307 Z " />
<glyph glyph-name="Atilde" unicode="&#xc3;" horiz-adv-x="831" d="M293 870 C293 903 308 925 331 925 C381 925 449 860 499 860 C554 860 591 916 591 1001 L570 1001 C570 965 552 941 526 941 C475 941 408 1006 357 1006 C306 1006 272 952 272 870 L293 870 L293 870 Z M216 125 L216 125 L262 272 L506 272 L556 116 C570 61 543 25 486 25 L459 25 L459 0 L824 0 L824 25 L809 25 C763 25 719 61 698 116 C625 334 551 551 479 770 L465 770 C470 743 429 718 364 709 L367 699 L367 699 C304 508 241 316 178 125 C158 65 105 25 45 25 L10 25 L10 0 L312 0 L312 25 L285 25 C225 25 197 65 216 125 L216 125 Z M272 307 L381 657 L494 307 L272 307 L272 307 Z " />
<glyph glyph-name="Adieresis" unicode="&#xc4;" horiz-adv-x="831" d="M512 865 C556 865 586 895 586 939 C586 984 556 1014 512 1014 C467 1014 437 984 437 939 C437 895 467 865 512 865 L512 865 Z M351 865 C396 865 426 895 426 939 C426 984 396 1014 351 1014 C307 1014 277 984 277 939 C277 895 307 865 351 865 L351 865 Z M216 125 L216 125 L262 272 L506 272 L556 116 C570 61 543 25 486 25 L459 25 L459 0 L824 0 L824 25 L809 25 C763 25 719 61 698 116 C625 334 551 551 479 770 L465 770 C470 743 429 718 364 709 L367 699 L367 699 C304 508 241 316 178 125 C158 65 105 25 45 25 L10 25 L10 0 L312 0 L312 25 L285 25 C225 25 197 65 216 125 L216 125 Z M272 307 L381 657 L494 307 L272 307 L272 307 Z " />
<glyph glyph-name="Aring" unicode="&#xc5;" horiz-adv-x="831" d="M367 905 C367 946 393 973 432 973 C470 973 496 946 496 905 C496 868 467 837 432 837 C397 837 367 868 367 905 L367 905 Z M333 905 C333 854 379 810 432 810 C485 810 530 854 530 905 C530 962 491 1000 432 1000 C373 1000 333 962 333 905 L333 905 Z M216 125 L216 125 L262 272 L506 272 L556 116 C570 61 543 25 486 25 L459 25 L459 0 L824 0 L824 25 L809 25 C763 25 719 61 698 116 C625 334 551 551 479 770 L465 770 C470 743 429 718 364 709 L367 699 L367 699 C304 508 241 316 178 125 C158 65 105 25 45 25 L10 25 L10 0 L312 0 L312 25 L285 25 C225 25 197 65 216 125 L216 125 Z M272 307 L381 657 L494 307 L272 307 L272 307 Z " />
<glyph glyph-name="Egrave" unicode="&#xc8;" horiz-adv-x="678" d="M156 988 C156 979 180 957 215 929 L360 811 L374 826 L268 981 C242 1020 221 1046 213 1046 C182 1046 156 1019 156 988 L156 988 Z M31 730 L66 730 C108 730 136 702 136 660 L136 90 C136 48 108 20 66 20 L31 20 L31 0 L606 0 L609 15 L608 15 C616 57 626 112 633 154 L616 154 L609 134 C583 71 524 29 461 29 L351 29 C279 29 271 49 271 80 L271 385 L396 385 C444 385 483 353 493 305 L504 250 L521 250 L521 552 L504 552 L493 497 C483 449 444 417 396 417 L271 417 L271 721 L460 721 C508 721 551 689 567 641 L585 586 L602 586 C596 629 587 684 581 728 L581 736 L582 736 L581 750 L31 750 L31 730 L31 730 Z " />
<glyph glyph-name="Eacute" unicode="&#xc9;" horiz-adv-x="678" d="M367 811 L512 929 C547 958 571 981 571 988 C571 1019 545 1046 514 1046 C507 1046 486 1020 459 981 L353 826 L367 811 L367 811 Z M31 730 L66 730 C108 730 136 702 136 660 L136 90 C136 48 108 20 66 20 L31 20 L31 0 L606 0 L609 15 L608 15 C616 57 626 112 633 154 L616 154 L609 134 C583 71 524 29 461 29 L351 29 C279 29 271 49 271 80 L271 385 L396 385 C444 385 483 353 493 305 L504 250 L521 250 L521 552 L504 552 L493 497 C483 449 444 417 396 417 L271 417 L271 721 L460 721 C508 721 551 689 567 641 L585 586 L602 586 C596 629 587 684 581 728 L581 736 L582 736 L581 750 L31 750 L31 730 L31 730 Z " />
<glyph glyph-name="Ecircumflex" unicode="&#xca;" horiz-adv-x="678" d="M399 996 C391 1008 371 1037 359 1037 C346 1037 326 1008 318 996 L204 818 L220 805 L359 921 L497 805 L513 818 L399 996 L399 996 Z M31 730 L66 730 C108 730 136 702 136 660 L136 90 C136 48 108 20 66 20 L31 20 L31 0 L606 0 L609 15 L608 15 C616 57 626 112 633 154 L616 154 L609 134 C583 71 524 29 461 29 L351 29 C279 29 271 49 271 80 L271 385 L396 385 C444 385 483 353 493 305 L504 250 L521 250 L521 552 L504 552 L493 497 C483 449 444 417 396 417 L271 417 L271 721 L460 721 C508 721 551 689 567 641 L585 586 L602 586 C596 629 587 684 581 728 L581 736 L582 736 L581 750 L31 750 L31 730 L31 730 Z " />
<glyph glyph-name="Edieresis" unicode="&#xcb;" horiz-adv-x="678" d="M439 865 C483 865 513 895 513 939 C513 984 483 1014 439 1014 C394 1014 364 984 364 939 C364 895 394 865 439 865 L439 865 Z M278 865 C323 865 353 895 353 939 C353 984 323 1014 278 1014 C234 1014 204 984 204 939 C204 895 234 865 278 865 L278 865 Z M31 730 L66 730 C108 730 136 702 136 660 L136 90 C136 48 108 20 66 20 L31 20 L31 0 L606 0 L609 15 L608 15 C616 57 626 112 633 154 L616 154 L609 134 C583 71 524 29 461 29 L351 29 C279 29 271 49 271 80 L271 385 L396 385 C444 385 483 353 493 305 L504 250 L521 250 L521 552 L504 552 L493 497 C483 449 444 417 396 417 L271 417 L271 721 L460 721 C508 721 551 689 567 641 L585 586 L602 586 C596 629 587 684 581 728 L581 736 L582 736 L581 750 L31 750 L31 730 L31 730 Z " />
<glyph glyph-name="Igrave" unicode="&#xcc;" horiz-adv-x="403" d="M-13 988 C-13 980 11 958 47 929 L191 811 L206 826 L99 981 C73 1020 52 1046 45 1046 C14 1046 -13 1019 -13 988 L-13 988 Z M343 20 L308 20 C278 20 258 40 258 70 L258 680 C258 710 278 730 308 730 L343 730 L343 750 L37 750 L37 730 L72 730 C102 730 122 710 122 680 L122 70 C122 40 102 20 72 20 L37 20 L37 0 L343 0 L343 20 L343 20 Z " />
<glyph glyph-name="Iacute" unicode="&#xcd;" horiz-adv-x="403" d="M199 811 L343 929 C379 959 403 982 403 988 C403 1019 376 1046 345 1046 C339 1046 319 1020 291 981 L184 826 L199 811 L199 811 Z M343 20 L308 20 C278 20 258 40 258 70 L258 680 C258 710 278 730 308 730 L343 730 L343 750 L37 750 L37 730 L72 730 C102 730 122 710 122 680 L122 70 C122 40 102 20 72 20 L37 20 L37 0 L343 0 L343 20 L343 20 Z " />
<glyph glyph-name="Icircumflex" unicode="&#xce;" horiz-adv-x="403" d="M231 996 C223 1008 203 1037 190 1037 C178 1037 158 1008 150 996 L36 818 L51 805 L190 922 L329 805 L344 818 L231 996 L231 996 Z M343 20 L308 20 C278 20 258 40 258 70 L258 680 C258 710 278 730 308 730 L343 730 L343 750 L37 750 L37 730 L72 730 C102 730 122 710 122 680 L122 70 C122 40 102 20 72 20 L37 20 L37 0 L343 0 L343 20 L343 20 Z " />
<glyph glyph-name="Idieresis" unicode="&#xcf;" horiz-adv-x="403" d="M270 865 C315 865 345 895 345 939 C345 984 315 1014 270 1014 C226 1014 196 984 196 939 C196 895 226 865 270 865 L270 865 Z M110 865 C154 865 184 895 184 939 C184 984 154 1014 110 1014 C65 1014 35 984 35 939 C35 895 65 865 110 865 L110 865 Z M343 20 L308 20 C278 20 258 40 258 70 L258 680 C258 710 278 730 308 730 L343 730 L343 750 L37 750 L37 730 L72 730 C102 730 122 710 122 680 L122 70 C122 40 102 20 72 20 L37 20 L37 0 L343 0 L343 20 L343 20 Z " />
<glyph glyph-name="Ntilde" unicode="&#xd1;" horiz-adv-x="800" d="M256 870 C256 903 271 925 294 925 C344 925 412 860 462 860 C517 860 554 916 554 1001 L534 1001 C534 965 516 941 489 941 C439 941 371 1006 321 1006 C270 1006 236 952 236 870 L256 870 L256 870 Z M-35 730 L0 730 C27 730 59 714 82 689 L136 619 L135 71 L135 71 C135 41 115 21 85 21 L50 21 L50 1 L260 1 L260 21 L225 21 C195 21 175 41 175 71 L175 71 L172 575 C321 384 470 193 619 1 L646 1 L655 685 C657 713 677 731 706 731 L741 731 L741 751 L531 751 L531 731 L566 731 C596 731 616 711 616 681 L616 681 L618 223 C479 399 341 575 203 751 L-34 751 L-35 730 L-35 730 Z " />
<glyph glyph-name="Ograve" unicode="&#xd2;" horiz-adv-x="889" d="M187 375 C187 586 283 726 426 726 C583 726 687 586 687 375 C687 164 584 24 429 24 C284 24 187 164 187 375 L187 375 Z M40 375 C40 144 193 -10 422 -10 C669 -10 834 144 834 375 C834 606 673 760 432 760 C197 760 40 606 40 375 L40 375 Z M229 988 C229 980 253 958 289 929 L433 811 L448 826 L341 981 C315 1020 294 1046 287 1046 C256 1046 229 1019 229 988 L229 988 Z " />
<glyph glyph-name="Oacute" unicode="&#xd3;" horiz-adv-x="889" d="M441 811 L585 929 C621 959 645 982 645 988 C645 1019 618 1046 587 1046 C581 1046 561 1020 533 981 L426 826 L441 811 L441 811 Z M187 375 C187 586 283 726 426 726 C583 726 687 586 687 375 C687 164 584 24 429 24 C284 24 187 164 187 375 L187 375 Z M40 375 C40 144 193 -10 422 -10 C669 -10 834 144 834 375 C834 606 673 760 432 760 C197 760 40 606 40 375 L40 375 Z " />
<glyph glyph-name="Ocircumflex" unicode="&#xd4;" horiz-adv-x="889" d="M187 375 C187 586 283 726 426 726 C583 726 687 586 687 375 C687 164 584 24 429 24 C284 24 187 164 187 375 L187 375 Z M40 375 C40 144 193 -10 422 -10 C669 -10 834 144 834 375 C834 606 673 760 432 760 C197 760 40 606 40 375 L40 375 Z M473 996 C465 1008 445 1037 432 1037 C420 1037 400 1008 392 996 L278 818 L293 805 L432 922 L571 805 L586 818 L473 996 L473 996 Z " />
<glyph glyph-name="Otilde" unicode="&#xd5;" horiz-adv-x="889" d="M293 870 C293 903 308 925 331 925 C381 925 449 860 499 860 C554 860 591 916 591 1001 L571 1001 C571 965 553 941 526 941 C476 941 408 1006 358 1006 C307 1006 273 952 273 870 L293 870 L293 870 Z M187 375 C187 586 283 726 426 726 C583 726 687 586 687 375 C687 164 584 24 429 24 C284 24 187 164 187 375 L187 375 Z M40 375 C40 144 193 -10 422 -10 C669 -10 834 144 834 375 C834 606 673 760 432 760 C197 760 40 606 40 375 L40 375 Z " />
<glyph glyph-name="Odieresis" unicode="&#xd6;" horiz-adv-x="889" d="M512 865 C557 865 587 895 587 939 C587 984 557 1014 512 1014 C468 1014 438 984 438 939 C438 895 468 865 512 865 L512 865 Z M352 865 C396 865 426 895 426 939 C426 984 396 1014 352 1014 C307 1014 277 984 277 939 C277 895 307 865 352 865 L352 865 Z M187 375 C187 586 283 726 426 726 C583 726 687 586 687 375 C687 164 584 24 429 24 C284 24 187 164 187 375 L187 375 Z M40 375 C40 144 193 -10 422 -10 C669 -10 834 144 834 375 C834 606 673 760 432 760 C197 760 40 606 40 375 L40 375 Z " />
<glyph glyph-name="Oslash" unicode="&#xd8;" horiz-adv-x="889" d="M61 -32 C61 -32 100 5 170 73 C235 20 321 -10 422 -10 C669 -10 834 144 834 375 C834 478 802 566 745 632 C781 667 818 703 856 740 L814 784 C776 747 739 711 703 676 C634 731 542 762 434 762 C199 762 42 608 42 377 C42 273 73 184 128 118 C59 51 21 14 21 14 L61 -32 L61 -32 Z M633 608 C462 442 319 304 215 203 C198 253 189 312 189 378 C189 589 285 729 428 729 C516 729 587 685 633 609 L633 608 L633 608 Z M661 551 C679 502 689 444 689 379 C689 168 586 28 431 28 C350 28 284 71 241 146 C344 246 487 385 660 553 L661 551 L661 551 Z " />
<glyph glyph-name="Ugrave" unicode="&#xd9;" horiz-adv-x="812" d="M196 988 C196 980 220 958 256 929 L400 811 L415 826 L308 981 C282 1020 261 1046 254 1046 C223 1046 196 1019 196 988 L196 988 Z M782 61 L747 51 C717 43 697 58 697 88 L697 750 L477 750 L477 730 L512 730 C542 730 562 710 562 680 L562 202 C527 127 451 77 372 77 C290 77 236 134 236 220 L236 750 L16 750 L16 730 L51 730 C81 730 101 710 101 680 L101 220 C101 82 188 -10 318 -10 C422 -10 520 50 562 141 L562 0 L630 0 L668 10 C706 20 748 31 782 41 L782 61 L782 61 Z " />
<glyph glyph-name="Uacute" unicode="&#xda;" horiz-adv-x="812" d="M408 811 L552 929 C588 959 612 982 612 988 C612 1019 585 1046 554 1046 C548 1046 528 1020 500 981 L393 826 L408 811 L408 811 Z M782 61 L747 51 C717 43 697 58 697 88 L697 750 L477 750 L477 730 L512 730 C542 730 562 710 562 680 L562 202 C527 127 451 77 372 77 C290 77 236 134 236 220 L236 750 L16 750 L16 730 L51 730 C81 730 101 710 101 680 L101 220 C101 82 188 -10 318 -10 C422 -10 520 50 562 141 L562 0 L630 0 L668 10 C706 20 748 31 782 41 L782 61 L782 61 Z " />
<glyph glyph-name="Ucircumflex" unicode="&#xdb;" horiz-adv-x="812" d="M440 996 C432 1008 412 1037 399 1037 C387 1037 367 1008 359 996 L245 818 L260 805 L399 922 L538 805 L553 818 L440 996 L440 996 Z M782 61 L747 51 C717 43 697 58 697 88 L697 750 L477 750 L477 730 L512 730 C542 730 562 710 562 680 L562 202 C527 127 451 77 372 77 C290 77 236 134 236 220 L236 750 L16 750 L16 730 L51 730 C81 730 101 710 101 680 L101 220 C101 82 188 -10 318 -10 C422 -10 520 50 562 141 L562 0 L630 0 L668 10 C706 20 748 31 782 41 L782 61 L782 61 Z " />
<glyph glyph-name="Udieresis" unicode="&#xdc;" horiz-adv-x="812" d="M479 865 C524 865 554 895 554 939 C554 984 524 1014 479 1014 C435 1014 405 984 405 939 C405 895 435 865 479 865 L479 865 Z M319 865 C363 865 393 895 393 939 C393 984 363 1014 319 1014 C274 1014 244 984 244 939 C244 895 274 865 319 865 L319 865 Z M782 61 L747 51 C717 43 697 58 697 88 L697 750 L477 750 L477 730 L512 730 C542 730 562 710 562 680 L562 202 C527 127 451 77 372 77 C290 77 236 134 236 220 L236 750 L16 750 L16 730 L51 730 C81 730 101 710 101 680 L101 220 C101 82 188 -10 318 -10 C422 -10 520 50 562 141 L562 0 L630 0 L668 10 C706 20 748 31 782 41 L782 61 L782 61 Z " />
<glyph glyph-name="Yacute" unicode="&#xdd;" horiz-adv-x="808" d="M422 811 L567 929 C602 958 626 981 626 988 C626 1019 600 1046 569 1046 C562 1046 541 1020 514 981 L408 826 L422 811 L422 811 Z M241 0 L586 0 L586 20 L551 20 C509 20 481 48 481 90 L481 320 C546 438 611 557 677 675 C695 708 729 730 762 730 L802 730 L802 750 L525 750 L525 730 L586 730 C616 730 629 711 618 682 L467 361 C399 465 330 570 263 674 C242 707 249 729 282 729 L319 729 L319 749 L-3 749 L-3 729 L12 729 C45 729 82 707 104 674 L104 674 L345 315 L345 89 C345 47 317 19 275 19 L240 19 L241 0 L241 0 Z " />
<glyph glyph-name="agrave" unicode="&#xe0;" horiz-adv-x="514" d="M524 123 L507 131 C501 99 479 77 452 77 C421 77 400 94 400 120 L400 353 C400 461 342 510 256 510 C137 510 57 414 57 360 C57 312 86 280 129 280 C163 280 185 313 185 337 C185 356 165 377 165 399 C165 422 191 463 229 463 C263 463 285 442 285 394 L285 264 C84 202 37 176 37 93 C37 31 82 -11 149 -11 C185 -11 231 14 290 80 C304 27 347 -6 406 -6 C464 -6 511 45 525 122 L524 123 L524 123 Z M54 737 C54 729 78 707 114 678 L258 560 L273 575 L166 730 C140 769 119 795 112 795 C81 795 54 768 54 737 L54 737 Z M286 236 L286 119 C286 114 286 109 286 104 C252 65 227 50 210 50 C176 50 153 72 153 105 C153 183 178 202 285 235 L286 236 L286 236 Z " />
<glyph glyph-name="aacute" unicode="&#xe1;" horiz-adv-x="514" d="M265 561 L409 679 C445 709 469 732 469 738 C469 769 442 796 411 796 C405 796 385 770 357 731 L250 576 L265 561 L265 561 Z M524 123 L507 131 C501 99 479 77 452 77 C421 77 400 94 400 120 L400 353 C400 461 342 510 256 510 C137 510 57 414 57 360 C57 312 86 280 129 280 C163 280 185 313 185 337 C185 356 165 377 165 399 C165 422 191 463 229 463 C263 463 285 442 285 394 L285 264 C84 202 37 176 37 93 C37 31 82 -11 149 -11 C185 -11 231 14 290 80 C304 27 347 -6 406 -6 C464 -6 511 45 525 122 L524 123 L524 123 Z M286 236 L286 119 C286 114 286 109 286 104 C252 65 227 50 210 50 C176 50 153 72 153 105 C153 183 178 202 285 235 L286 236 L286 236 Z " />
<glyph glyph-name="acircumflex" unicode="&#xe2;" horiz-adv-x="514" d="M524 123 L507 131 C501 99 479 77 452 77 C421 77 400 94 400 120 L400 353 C400 461 342 510 256 510 C137 510 57 414 57 360 C57 312 86 280 129 280 C163 280 185 313 185 337 C185 356 165 377 165 399 C165 422 191 463 229 463 C263 463 285 442 285 394 L285 264 C84 202 37 176 37 93 C37 31 82 -11 149 -11 C185 -11 231 14 290 80 C304 27 347 -6 406 -6 C464 -6 511 45 525 122 L524 123 L524 123 Z M298 745 C290 757 270 786 257 786 C245 786 225 757 217 745 L103 567 L118 554 L257 671 L396 554 L411 567 L298 745 L298 745 Z M286 236 L286 119 C286 114 286 109 286 104 C252 65 227 50 210 50 C176 50 153 72 153 105 C153 183 178 202 285 235 L286 236 L286 236 Z " />
<glyph glyph-name="atilde" unicode="&#xe3;" horiz-adv-x="514" d="M117 620 C117 653 132 675 155 675 C205 675 273 610 323 610 C378 610 415 666 415 751 L395 751 C395 715 377 691 350 691 C300 691 232 756 182 756 C131 756 97 702 97 620 L117 620 L117 620 Z M524 123 L507 131 C501 99 479 77 452 77 C421 77 400 94 400 120 L400 353 C400 461 342 510 256 510 C137 510 57 414 57 360 C57 312 86 280 129 280 C163 280 185 313 185 337 C185 356 165 377 165 399 C165 422 191 463 229 463 C263 463 285 442 285 394 L285 264 C84 202 37 176 37 93 C37 31 82 -11 149 -11 C185 -11 231 14 290 80 C304 27 347 -6 406 -6 C464 -6 511 45 525 122 L524 123 L524 123 Z M286 236 L286 119 C286 114 286 109 286 104 C252 65 227 50 210 50 C176 50 153 72 153 105 C153 183 178 202 285 235 L286 236 L286 236 Z " />
<glyph glyph-name="adieresis" unicode="&#xe4;" horiz-adv-x="514" d="M336 615 C381 615 411 645 411 689 C411 734 381 764 336 764 C292 764 262 734 262 689 C262 645 292 615 336 615 L336 615 Z M176 615 C220 615 250 645 250 689 C250 734 220 764 176 764 C131 764 101 734 101 689 C101 645 131 615 176 615 L176 615 Z M524 123 L507 131 C501 99 479 77 452 77 C421 77 400 94 400 120 L400 353 C400 461 342 510 256 510 C137 510 57 414 57 360 C57 312 86 280 129 280 C163 280 185 313 185 337 C185 356 165 377 165 399 C165 422 191 463 229 463 C263 463 285 442 285 394 L285 264 C84 202 37 176 37 93 C37 31 82 -11 149 -11 C185 -11 231 14 290 80 C304 27 347 -6 406 -6 C464 -6 511 45 525 122 L524 123 L524 123 Z M286 236 L286 119 C286 114 286 109 286 104 C252 65 227 50 210 50 C176 50 153 72 153 105 C153 183 178 202 285 235 L286 236 L286 236 Z " />
<glyph glyph-name="aring" unicode="&#xe5;" horiz-adv-x="514" d="M191 655 C191 696 217 723 256 723 C295 723 321 696 321 655 C321 618 291 587 256 587 C221 587 191 618 191 655 L191 655 Z M158 655 C158 604 203 560 256 560 C309 560 354 604 354 655 C354 712 315 750 256 750 C197 750 158 712 158 655 L158 655 Z M524 123 L507 131 C501 99 479 77 452 77 C421 77 400 94 400 120 L400 353 C400 461 342 510 256 510 C137 510 57 414 57 360 C57 312 86 280 129 280 C163 280 185 313 185 337 C185 356 165 377 165 399 C165 422 191 463 229 463 C263 463 285 442 285 394 L285 264 C84 202 37 176 37 93 C37 31 82 -11 149 -11 C185 -11 231 14 290 80 C304 27 347 -6 406 -6 C464 -6 511 45 525 122 L524 123 L524 123 Z M286 236 L286 119 C286 114 286 109 286 104 C252 65 227 50 210 50 C176 50 153 72 153 105 C153 183 178 202 285 235 L286 236 L286 236 Z " />
<glyph glyph-name="egrave" unicode="&#xe8;" horiz-adv-x="548" d="M102 738 C102 730 126 708 162 679 L306 561 L321 576 L214 731 C188 770 167 796 160 796 C129 796 102 769 102 738 L102 738 Z M170 340 L518 340 C496 462 415 510 305 510 C149 510 45 431 45 228 C45 85 140 -10 282 -10 C385 -10 474 47 505 132 L491 136 C476 94 403 66 309 66 C223 66 166 150 166 275 C166 299 167 321 170 340 L170 340 Z M385 372 L175 367 C193 450 238 484 299 484 C335 484 366 452 385 372 L385 372 Z " />
<glyph glyph-name="eacute" unicode="&#xe9;" horiz-adv-x="548" d="M314 561 L458 679 C494 709 518 732 518 738 C518 769 491 796 460 796 C454 796 434 770 406 731 L299 576 L314 561 L314 561 Z M170 340 L518 340 C496 462 415 510 305 510 C149 510 45 431 45 228 C45 85 140 -10 282 -10 C385 -10 474 47 505 132 L491 136 C476 94 403 66 309 66 C223 66 166 150 166 275 C166 299 167 321 170 340 L170 340 Z M385 372 L175 367 C193 450 238 484 299 484 C335 484 366 452 385 372 L385 372 Z " />
<glyph glyph-name="ecircumflex" unicode="&#xea;" horiz-adv-x="548" d="M346 746 C338 758 318 787 305 787 C293 787 273 758 265 746 L151 568 L166 555 L305 672 L444 555 L459 568 L346 746 L346 746 Z M170 340 L518 340 C496 462 415 510 305 510 C149 510 45 431 45 228 C45 85 140 -10 282 -10 C385 -10 474 47 505 132 L491 136 C476 94 403 66 309 66 C223 66 166 150 166 275 C166 299 167 321 170 340 L170 340 Z M385 372 L175 367 C193 450 238 484 299 484 C335 484 366 452 385 372 L385 372 Z " />
<glyph glyph-name="edieresis" unicode="&#xeb;" horiz-adv-x="548" d="M385 615 C430 615 460 645 460 689 C460 734 430 764 385 764 C341 764 311 734 311 689 C311 645 341 615 385 615 L385 615 Z M225 615 C269 615 299 645 299 689 C299 734 269 764 225 764 C180 764 150 734 150 689 C150 645 180 615 225 615 L225 615 Z M170 340 L518 340 C496 462 415 510 305 510 C149 510 45 431 45 228 C45 85 140 -10 282 -10 C385 -10 474 47 505 132 L491 136 C476 94 403 66 309 66 C223 66 166 150 166 275 C166 299 167 321 170 340 L170 340 Z M385 372 L175 367 C193 450 238 484 299 484 C335 484 366 452 385 372 L385 372 Z " />
<glyph glyph-name="igrave" unicode="&#xec;" horiz-adv-x="342" d="M-28 738 C-28 729 -4 707 31 679 L176 561 L190 576 L84 731 C58 770 37 796 29 796 C-2 796 -28 769 -28 738 L-28 738 Z M52 448 L102 461 C111 464 117 459 117 450 L117 35 C117 26 111 20 102 20 L52 20 L52 0 L297 0 L297 20 L247 20 C238 20 232 26 232 35 L232 500 L175 500 L175 501 C138 491 89 478 52 468 L52 448 L52 448 Z " />
<glyph glyph-name="iacute" unicode="&#xed;" horiz-adv-x="342" d="M-28 738 C-28 729 -4 707 31 679 L176 561 L190 576 L84 731 C58 770 37 796 29 796 C-2 796 -28 769 -28 738 L-28 738 Z M52 448 L102 461 C111 464 117 459 117 450 L117 35 C117 26 111 20 102 20 L52 20 L52 0 L297 0 L297 20 L247 20 C238 20 232 26 232 35 L232 500 L175 500 L175 501 C138 491 89 478 52 468 L52 448 L52 448 Z " />
<glyph glyph-name="icircumflex" unicode="&#xee;" horiz-adv-x="342" d="M215 746 C207 758 187 787 175 787 C162 787 142 758 134 746 L20 568 L36 555 L175 671 L313 555 L329 568 L215 746 L215 746 Z M52 448 L102 461 C111 464 117 459 117 450 L117 35 C117 26 111 20 102 20 L52 20 L52 0 L297 0 L297 20 L247 20 C238 20 232 26 232 35 L232 500 L175 500 L175 501 C138 491 89 478 52 468 L52 448 L52 448 Z " />
<glyph glyph-name="idieresis" unicode="&#xef;" horiz-adv-x="342" d="M255 615 C299 615 329 645 329 689 C329 734 299 764 255 764 C210 764 180 734 180 689 C180 645 210 615 255 615 L255 615 Z M94 615 C139 615 169 645 169 689 C169 734 139 764 94 764 C50 764 20 734 20 689 C20 645 50 615 94 615 L94 615 Z M52 448 L102 461 C111 464 117 459 117 450 L117 35 C117 26 111 20 102 20 L52 20 L52 0 L297 0 L297 20 L247 20 C238 20 232 26 232 35 L232 500 L175 500 L175 501 C138 491 89 478 52 468 L52 448 L52 448 Z " />
<glyph glyph-name="ntilde" unicode="&#xf1;" horiz-adv-x="599" d="M151 620 C151 653 166 675 189 675 C239 675 307 610 357 610 C412 610 449 666 449 751 L429 751 C429 715 411 691 384 691 C334 691 266 756 216 756 C165 756 131 702 131 620 L151 620 L151 620 Z M11 457 L31 456 C58 455 76 436 76 409 L76 35 C76 26 70 20 61 20 L11 20 L11 0 L256 0 L256 20 L206 20 C197 20 191 26 191 35 L191 359 C214 399 256 426 295 426 C357 426 389 384 389 321 L389 35 C389 26 383 20 374 20 L324 20 L324 0 L569 0 L569 20 L519 20 C510 20 504 26 504 35 L504 321 C504 434 456 510 363 510 C300 510 232 463 191 393 L191 500 L134 500 C97 490 48 479 11 469 L11 457 L11 457 Z " />
<glyph glyph-name="ograve" unicode="&#xf2;" horiz-adv-x="622" d="M172 250 C172 385 228 475 311 475 C394 475 450 385 450 250 C450 115 394 25 311 25 C228 25 172 115 172 250 L172 250 Z M45 250 C45 94 151 -10 311 -10 C471 -10 577 94 577 250 C577 406 471 510 311 510 C151 510 45 406 45 250 L45 250 Z M108 738 C108 730 132 708 168 679 L312 561 L327 576 L220 731 C194 770 173 796 166 796 C135 796 108 769 108 738 L108 738 Z " />
<glyph glyph-name="oacute" unicode="&#xf3;" horiz-adv-x="622" d="M320 561 L464 679 C500 709 524 732 524 738 C524 769 497 796 466 796 C460 796 440 770 412 731 L305 576 L320 561 L320 561 Z M172 250 C172 385 228 475 311 475 C394 475 450 385 450 250 C450 115 394 25 311 25 C228 25 172 115 172 250 L172 250 Z M45 250 C45 94 151 -10 311 -10 C471 -10 577 94 577 250 C577 406 471 510 311 510 C151 510 45 406 45 250 L45 250 Z " />
<glyph glyph-name="ocircumflex" unicode="&#xf4;" horiz-adv-x="622" d="M172 250 C172 385 228 475 311 475 C394 475 450 385 450 250 C450 115 394 25 311 25 C228 25 172 115 172 250 L172 250 Z M45 250 C45 94 151 -10 311 -10 C471 -10 577 94 577 250 C577 406 471 510 311 510 C151 510 45 406 45 250 L45 250 Z M352 746 C344 758 324 787 311 787 C299 787 279 758 271 746 L157 568 L172 555 L311 672 L450 555 L465 568 L352 746 L352 746 Z " />
<glyph glyph-name="otilde" unicode="&#xf5;" horiz-adv-x="622" d="M172 620 C172 653 187 675 210 675 C260 675 328 610 378 610 C433 610 470 666 470 751 L450 751 C450 715 432 691 405 691 C355 691 287 756 237 756 C186 756 152 702 152 620 L172 620 L172 620 Z M172 250 C172 385 228 475 311 475 C394 475 450 385 450 250 C450 115 394 25 311 25 C228 25 172 115 172 250 L172 250 Z M45 250 C45 94 151 -10 311 -10 C471 -10 577 94 577 250 C577 406 471 510 311 510 C151 510 45 406 45 250 L45 250 Z " />
<glyph glyph-name="odieresis" unicode="&#xf6;" horiz-adv-x="622" d="M391 615 C436 615 466 645 466 689 C466 734 436 764 391 764 C347 764 317 734 317 689 C317 645 347 615 391 615 L391 615 Z M231 615 C275 615 305 645 305 689 C305 734 275 764 231 764 C186 764 156 734 156 689 C156 645 186 615 231 615 L231 615 Z M172 250 C172 385 228 475 311 475 C394 475 450 385 450 250 C450 115 394 25 311 25 C228 25 172 115 172 250 L172 250 Z M45 250 C45 94 151 -10 311 -10 C471 -10 577 94 577 250 C577 406 471 510 311 510 C151 510 45 406 45 250 L45 250 Z " />
<glyph glyph-name="oslash" unicode="&#xf8;" horiz-adv-x="622" d="M59 -25 C59 -25 85 1 133 48 C178 11 239 -10 311 -10 C471 -10 577 94 577 250 C577 320 556 379 518 423 C542 446 566 470 591 494 L563 524 C538 499 513 475 489 451 C444 488 383 509 311 509 C151 509 45 405 45 249 C45 179 66 120 104 76 C57 30 31 5 31 5 L59 -25 L59 -25 Z M424 389 C328 296 246 216 182 154 C175 182 171 214 171 250 C171 385 227 475 310 475 C359 475 399 443 423 389 L424 389 L424 389 Z M438 346 C445 318 449 286 449 251 C449 116 393 26 310 26 C261 26 221 58 197 112 C260 173 342 253 439 347 L438 346 L438 346 Z " />
<glyph glyph-name="ugrave" unicode="&#xf9;" horiz-adv-x="590" d="M83 738 C83 730 107 708 143 679 L287 561 L302 576 L195 731 C169 770 148 796 141 796 C110 796 83 769 83 738 L83 738 Z M575 55 L550 48 C520 40 500 55 500 85 L500 500 L320 500 L320 480 L370 480 C379 480 385 474 385 465 L385 151 C362 102 318 70 271 70 C221 70 187 106 187 160 L187 500 L7 500 L7 480 L57 480 C66 480 72 474 72 465 L72 160 C72 58 130 -10 217 -10 C286 -10 352 40 385 117 L385 0 L442 0 L442 -1 C482 10 535 24 575 35 L575 55 L575 55 Z " />
<glyph glyph-name="uacute" unicode="&#xfa;" horiz-adv-x="590" d="M295 561 L439 679 C475 709 499 732 499 738 C499 769 472 796 441 796 C435 796 415 770 387 731 L280 576 L295 561 L295 561 Z M575 55 L550 48 C520 40 500 55 500 85 L500 500 L320 500 L320 480 L370 480 C379 480 385 474 385 465 L385 151 C362 102 318 70 271 70 C221 70 187 106 187 160 L187 500 L7 500 L7 480 L57 480 C66 480 72 474 72 465 L72 160 C72 58 130 -10 217 -10 C286 -10 352 40 385 117 L385 0 L442 0 L442 -1 C482 10 535 24 575 35 L575 55 L575 55 Z " />
<glyph glyph-name="ucircumflex" unicode="&#xfb;" horiz-adv-x="590" d="M327 746 C319 758 299 787 286 787 C274 787 254 758 246 746 L132 568 L147 555 L286 672 L425 555 L440 568 L327 746 L327 746 Z M575 55 L550 48 C520 40 500 55 500 85 L500 500 L320 500 L320 480 L370 480 C379 480 385 474 385 465 L385 151 C362 102 318 70 271 70 C221 70 187 106 187 160 L187 500 L7 500 L7 480 L57 480 C66 480 72 474 72 465 L72 160 C72 58 130 -10 217 -10 C286 -10 352 40 385 117 L385 0 L442 0 L442 -1 C482 10 535 24 575 35 L575 55 L575 55 Z " />
<glyph glyph-name="udieresis" unicode="&#xfc;" horiz-adv-x="590" d="M366 615 C411 615 441 645 441 689 C441 734 411 764 366 764 C322 764 292 734 292 689 C292 645 322 615 366 615 L366 615 Z M206 615 C250 615 280 645 280 689 C280 734 250 764 206 764 C161 764 131 734 131 689 C131 645 161 615 206 615 L206 615 Z M575 55 L550 48 C520 40 500 55 500 85 L500 500 L320 500 L320 480 L370 480 C379 480 385 474 385 465 L385 151 C362 102 318 70 271 70 C221 70 187 106 187 160 L187 500 L7 500 L7 480 L57 480 C66 480 72 474 72 465 L72 160 C72 58 130 -10 217 -10 C286 -10 352 40 385 117 L385 0 L442 0 L442 -1 C482 10 535 24 575 35 L575 55 L575 55 Z " />
<glyph glyph-name="ydieresis" unicode="&#xff;" horiz-adv-x="602" d="M418 615 C462 615 492 645 492 689 C492 734 462 764 418 764 C373 764 343 734 343 689 C343 645 373 615 418 615 L418 615 Z M257 615 C302 615 332 645 332 689 C332 734 302 764 257 764 C213 764 183 734 183 689 C183 645 213 615 257 615 L257 615 Z M261 500 L15 500 L15 480 C55 480 85 464 104 428 L308 3 L302 -10 L247 -151 C237 -177 222 -194 220 -194 C198 -194 193 -156 170 -156 C141 -156 121 -176 121 -205 C121 -238 143 -260 175 -260 C205 -260 253 -222 275 -166 L337 -10 C394 137 450 285 506 432 C522 466 550 480 589 480 L589 500 L414 500 L414 480 L423 480 C452 480 465 458 454 425 L454 425 L364 150 L231 427 C216 459 225 480 252 480 L260 480 L261 500 L261 500 Z " />
<glyph glyph-name="Amacron" unicode="&#x100;" horiz-adv-x="831" d="M282 890 L582 890 L582 970 L282 970 L282 890 L282 890 Z M216 125 L216 125 L262 272 L506 272 L556 116 C570 61 543 25 486 25 L459 25 L459 0 L824 0 L824 25 L809 25 C763 25 719 61 698 116 C625 334 551 551 479 770 L465 770 C470 743 429 718 364 709 L367 699 L367 699 C304 508 241 316 178 125 C158 65 105 25 45 25 L10 25 L10 0 L312 0 L312 25 L285 25 C225 25 197 65 216 125 L216 125 Z M272 307 L381 657 L494 307 L272 307 L272 307 Z " />
<glyph glyph-name="amacron" unicode="&#x101;" horiz-adv-x="514" d="M106 640 L406 640 L406 720 L106 720 L106 640 L106 640 Z M524 123 L507 131 C501 99 479 77 452 77 C421 77 400 94 400 120 L400 353 C400 461 342 510 256 510 C137 510 57 414 57 360 C57 312 86 280 129 280 C163 280 185 313 185 337 C185 356 165 377 165 399 C165 422 191 463 229 463 C263 463 285 442 285 394 L285 264 C84 202 37 176 37 93 C37 31 82 -11 149 -11 C185 -11 231 14 290 80 C304 27 347 -6 406 -6 C464 -6 511 45 525 122 L524 123 L524 123 Z M286 236 L286 119 C286 114 286 109 286 104 C252 65 227 50 210 50 C176 50 153 72 153 105 C153 183 178 202 285 235 L286 236 L286 236 Z " />
<glyph glyph-name="Abreve" unicode="&#x102;" horiz-adv-x="831" d="M288 994 C298 910 356 854 432 854 C507 854 564 909 574 992 L550 995 C546 959 499 935 432 935 C365 935 317 960 313 998 L288 994 L288 994 Z M216 125 L216 125 L262 272 L506 272 L556 116 C570 61 543 25 486 25 L459 25 L459 0 L824 0 L824 25 L809 25 C763 25 719 61 698 116 C625 334 551 551 479 770 L465 770 C470 743 429 718 364 709 L367 699 L367 699 C304 508 241 316 178 125 C158 65 105 25 45 25 L10 25 L10 0 L312 0 L312 25 L285 25 C225 25 197 65 216 125 L216 125 Z M272 307 L381 657 L494 307 L272 307 L272 307 Z " />
<glyph glyph-name="abreve" unicode="&#x103;" horiz-adv-x="514" d="M113 744 C123 660 180 604 256 604 C332 604 389 659 399 742 L375 745 C371 709 323 685 256 685 C189 685 141 710 137 748 L113 744 L113 744 Z M524 123 L507 131 C501 99 479 77 452 77 C421 77 400 94 400 120 L400 353 C400 461 342 510 256 510 C137 510 57 414 57 360 C57 312 86 280 129 280 C163 280 185 313 185 337 C185 356 165 377 165 399 C165 422 191 463 229 463 C263 463 285 442 285 394 L285 264 C84 202 37 176 37 93 C37 31 82 -11 149 -11 C185 -11 231 14 290 80 C304 27 347 -6 406 -6 C464 -6 511 45 525 122 L524 123 L524 123 Z M286 236 L286 119 C286 114 286 109 286 104 C252 65 227 50 210 50 C176 50 153 72 153 105 C153 183 178 202 285 235 L286 236 L286 236 Z " />
<glyph glyph-name="Cacute" unicode="&#x106;" horiz-adv-x="769" d="M448 811 L592 929 C628 959 652 982 652 988 C652 1019 625 1046 594 1046 C588 1046 568 1020 540 981 L433 826 L448 811 L448 811 Z M729 -3 L729 231 L707 231 C663 114 593 21 441 21 C290 21 189 163 189 375 C189 586 294 726 452 726 C505 726 546 715 581 695 L581 695 C627 670 673 609 697 544 C700 536 704 527 707 519 L729 519 L729 750 L712 750 C711 744 708 737 707 731 C700 701 673 695 638 716 C591 744 530 760 439 760 C200 760 40 606 40 375 C40 144 196 -10 429 -10 C518 -10 584 7 636 37 C671 56 699 49 706 17 C707 11 710 3 711 -3 L729 -3 L729 -3 Z M708 134 L708 134 L708 134 L708 134 Z " />
<glyph glyph-name="Ccircumflex" unicode="&#x108;" horiz-adv-x="769" d="M729 -3 L729 231 L707 231 C663 114 593 21 441 21 C290 21 189 163 189 375 C189 586 294 726 452 726 C505 726 546 715 581 695 L581 695 C627 670 673 609 697 544 C700 536 704 527 707 519 L729 519 L729 750 L712 750 C711 744 708 737 707 731 C700 701 673 695 638 716 C591 744 530 760 439 760 C200 760 40 606 40 375 C40 144 196 -10 429 -10 C518 -10 584 7 636 37 C671 56 699 49 706 17 C707 11 710 3 711 -3 L729 -3 L729 -3 Z M479 996 C471 1008 451 1037 438 1037 C426 1037 406 1008 398 996 L284 818 L299 805 L438 922 L577 805 L592 818 L479 996 L479 996 Z M708 134 L708 134 L708 134 L708 134 Z " />
<glyph glyph-name="Cdot" unicode="&#x10a;" horiz-adv-x="769" d="M439 865 C483 865 513 895 513 939 C513 984 483 1014 439 1014 C395 1014 365 984 365 939 C365 895 395 865 439 865 L439 865 Z M729 -3 L729 231 L707 231 C663 114 593 21 441 21 C290 21 189 163 189 375 C189 586 294 726 452 726 C505 726 546 715 581 695 L581 695 C627 670 673 609 697 544 C700 536 704 527 707 519 L729 519 L729 750 L712 750 C711 744 708 737 707 731 C700 701 673 695 638 716 C591 744 530 760 439 760 C200 760 40 606 40 375 C40 144 196 -10 429 -10 C518 -10 584 7 636 37 C671 56 699 49 706 17 C707 11 710 3 711 -3 L729 -3 L729 -3 Z M708 134 L708 134 L708 134 L708 134 Z " />
<glyph glyph-name="cdot" unicode="&#x10b;" horiz-adv-x="537" d="M329 615 C373 615 403 645 403 689 C403 734 373 764 329 764 C285 764 255 734 255 689 C255 645 285 615 329 615 L329 615 Z M507 128 L491 135 C471 90 416 60 353 60 C241 60 167 147 167 277 C167 401 229 484 322 484 C347 484 375 452 392 405 C404 371 428 348 450 348 C497 348 519 371 507 405 C484 468 413 510 329 510 C159 510 45 400 45 234 C45 88 152 -10 313 -10 C393 -10 470 45 507 128 L507 128 Z " />
<glyph glyph-name="Ccaron" unicode="&#x10c;" horiz-adv-x="769" d="M578 1045 L439 928 L300 1045 L285 1032 L399 854 C407 842 427 813 439 813 C452 813 472 842 480 854 L593 1032 L578 1045 L578 1045 Z M729 -3 L729 231 L707 231 C663 114 593 21 441 21 C290 21 189 163 189 375 C189 586 294 726 452 726 C505 726 546 715 581 695 L581 695 C627 670 673 609 697 544 C700 536 704 527 707 519 L729 519 L729 750 L712 750 C711 744 708 737 707 731 C700 701 673 695 638 716 C591 744 530 760 439 760 C200 760 40 606 40 375 C40 144 196 -10 429 -10 C518 -10 584 7 636 37 C671 56 699 49 706 17 C707 11 710 3 711 -3 L729 -3 L729 -3 Z M708 134 L708 134 L708 134 L708 134 Z " />
<glyph glyph-name="ccaron" unicode="&#x10d;" horiz-adv-x="537" d="M468 795 L329 678 L190 795 L175 782 L289 604 C297 592 317 563 329 563 C342 563 362 592 370 604 L483 782 L468 795 L468 795 Z M507 128 L491 135 C471 90 416 60 353 60 C241 60 167 147 167 277 C167 401 229 484 322 484 C347 484 375 452 392 405 C404 371 428 348 450 348 C497 348 519 371 507 405 C484 468 413 510 329 510 C159 510 45 400 45 234 C45 88 152 -10 313 -10 C393 -10 470 45 507 128 L507 128 Z " />
<glyph glyph-name="Dcaron" unicode="&#x10e;" horiz-adv-x="888" d="M549 1045 L410 928 L271 1045 L256 1032 L370 854 C378 842 398 813 410 813 C423 813 443 842 451 854 L564 1032 L549 1045 L549 1045 Z M311 27 C275 27 271 48 271 80 L271 723 L283 723 C548 723 684 584 684 375 C684 145 535 27 311 27 L311 27 Z M51 730 L86 730 C116 730 136 710 136 680 L136 70 C136 40 116 20 86 20 L51 20 L51 0 L351 0 C640 0 833 128 833 375 C833 600 683 750 391 750 L51 750 L51 730 L51 730 Z " />
<glyph glyph-name="dcaron" unicode="&#x10f;" horiz-adv-x="608" d="M596 757 C572 757 562 694 560 648 L553 536 L573 532 L620 636 C637 672 648 714 648 740 C648 752 627 757 596 757 L596 757 Z M328 718 L328 706 L348 705 C375 704 393 685 393 658 L393 489 C356 502 312 510 264 510 C119 510 44 406 44 249 C44 97 124 -5 243 -5 C301 -5 359 21 393 61 L393 0 L450 0 L450 -1 C493 11 550 26 593 38 L593 58 L558 48 C528 40 508 55 508 85 L508 750 L451 750 C413 741 365 727 328 718 L328 718 Z M393 375 L393 101 C365 66 325 43 291 43 C214 43 163 138 163 281 C163 399 202 477 279 477 C329 477 376 430 393 375 L393 375 Z " />
<glyph glyph-name="Emacron" unicode="&#x112;" horiz-adv-x="678" d="M209 890 L509 890 L509 970 L209 970 L209 890 L209 890 Z M31 730 L66 730 C108 730 136 702 136 660 L136 90 C136 48 108 20 66 20 L31 20 L31 0 L606 0 L609 15 L608 15 C616 57 626 112 633 154 L616 154 L609 134 C583 71 524 29 461 29 L351 29 C279 29 271 49 271 80 L271 385 L396 385 C444 385 483 353 493 305 L504 250 L521 250 L521 552 L504 552 L493 497 C483 449 444 417 396 417 L271 417 L271 721 L460 721 C508 721 551 689 567 641 L585 586 L602 586 C596 629 587 684 581 728 L581 736 L582 736 L581 750 L31 750 L31 730 L31 730 Z " />
<glyph glyph-name="emacron" unicode="&#x113;" horiz-adv-x="548" d="M155 640 L455 640 L455 720 L155 720 L155 640 L155 640 Z M170 340 L518 340 C496 462 415 510 305 510 C149 510 45 431 45 228 C45 85 140 -10 282 -10 C385 -10 474 47 505 132 L491 136 C476 94 403 66 309 66 C223 66 166 150 166 275 C166 299 167 321 170 340 L170 340 Z M385 372 L175 367 C193 450 238 484 299 484 C335 484 366 452 385 372 L385 372 Z " />
<glyph glyph-name="Ebreve" unicode="&#x114;" horiz-adv-x="678" d="M215 994 C225 910 283 854 359 854 C434 854 491 909 501 992 L477 995 C473 959 426 935 359 935 C292 935 244 960 240 998 L215 994 L215 994 Z M31 730 L66 730 C108 730 136 702 136 660 L136 90 C136 48 108 20 66 20 L31 20 L31 0 L606 0 L609 15 L608 15 C616 57 626 112 633 154 L616 154 L609 134 C583 71 524 29 461 29 L351 29 C279 29 271 49 271 80 L271 385 L396 385 C444 385 483 353 493 305 L504 250 L521 250 L521 552 L504 552 L493 497 C483 449 444 417 396 417 L271 417 L271 721 L460 721 C508 721 551 689 567 641 L585 586 L602 586 C596 629 587 684 581 728 L581 736 L582 736 L581 750 L31 750 L31 730 L31 730 Z " />
<glyph glyph-name="ebreve" unicode="&#x115;" horiz-adv-x="548" d="M162 744 C172 660 229 604 305 604 C381 604 438 659 448 742 L424 745 C420 709 372 685 305 685 C238 685 190 710 186 748 L162 744 L162 744 Z M170 340 L518 340 C496 462 415 510 305 510 C149 510 45 431 45 228 C45 85 140 -10 282 -10 C385 -10 474 47 505 132 L491 136 C476 94 403 66 309 66 C223 66 166 150 166 275 C166 299 167 321 170 340 L170 340 Z M385 372 L175 367 C193 450 238 484 299 484 C335 484 366 452 385 372 L385 372 Z " />
<glyph glyph-name="Edot" unicode="&#x116;" horiz-adv-x="678" d="M359 865 C403 865 433 895 433 939 C433 984 403 1014 359 1014 C314 1014 284 984 284 939 C284 895 314 865 359 865 L359 865 Z M31 730 L66 730 C108 730 136 702 136 660 L136 90 C136 48 108 20 66 20 L31 20 L31 0 L606 0 L609 15 L608 15 C616 57 626 112 633 154 L616 154 L609 134 C583 71 524 29 461 29 L351 29 C279 29 271 49 271 80 L271 385 L396 385 C444 385 483 353 493 305 L504 250 L521 250 L521 552 L504 552 L493 497 C483 449 444 417 396 417 L271 417 L271 721 L460 721 C508 721 551 689 567 641 L585 586 L602 586 C596 629 587 684 581 728 L581 736 L582 736 L581 750 L31 750 L31 730 L31 730 Z " />
<glyph glyph-name="edot" unicode="&#x117;" horiz-adv-x="548" d="M305 615 C349 615 379 645 379 689 C379 734 349 764 305 764 C261 764 231 734 231 689 C231 645 261 615 305 615 L305 615 Z M170 340 L518 340 C496 462 415 510 305 510 C149 510 45 431 45 228 C45 85 140 -10 282 -10 C385 -10 474 47 505 132 L491 136 C476 94 403 66 309 66 C223 66 166 150 166 275 C166 299 167 321 170 340 L170 340 Z M385 372 L175 367 C193 450 238 484 299 484 C335 484 366 452 385 372 L385 372 Z " />
<glyph glyph-name="Ecaron" unicode="&#x11a;" horiz-adv-x="678" d="M497 1045 L359 929 L220 1045 L204 1032 L318 854 C326 842 346 813 359 813 C371 813 391 842 399 854 L513 1032 L497 1045 L497 1045 Z M31 730 L66 730 C108 730 136 702 136 660 L136 90 C136 48 108 20 66 20 L31 20 L31 0 L606 0 L609 15 L608 15 C616 57 626 112 633 154 L616 154 L609 134 C583 71 524 29 461 29 L351 29 C279 29 271 49 271 80 L271 385 L396 385 C444 385 483 353 493 305 L504 250 L521 250 L521 552 L504 552 L493 497 C483 449 444 417 396 417 L271 417 L271 721 L460 721 C508 721 551 689 567 641 L585 586 L602 586 C596 629 587 684 581 728 L581 736 L582 736 L581 750 L31 750 L31 730 L31 730 Z " />
<glyph glyph-name="ecaron" unicode="&#x11b;" horiz-adv-x="548" d="M444 795 L305 678 L166 795 L151 782 L265 604 C273 592 293 563 305 563 C318 563 338 592 346 604 L459 782 L444 795 L444 795 Z M170 340 L518 340 C496 462 415 510 305 510 C149 510 45 431 45 228 C45 85 140 -10 282 -10 C385 -10 474 47 505 132 L491 136 C476 94 403 66 309 66 C223 66 166 150 166 275 C166 299 167 321 170 340 L170 340 Z M385 372 L175 367 C193 450 238 484 299 484 C335 484 366 452 385 372 L385 372 Z " />
<glyph glyph-name="Gcircumflex" unicode="&#x11c;" horiz-adv-x="848" d="M712 750 C711 744 708 737 707 731 C700 701 673 695 638 716 C591 744 530 760 439 760 C200 760 40 606 40 375 C40 144 200 -10 440 -10 C592 -10 694 17 781 58 L772 78 C751 68 729 59 705 51 C705 86 705 155 705 215 C705 266 737 300 786 300 L800 300 L800 325 L474 325 L474 300 L488 300 C537 300 569 266 569 215 C570 215 570 133 570 124 C563 59 521 17 461 17 C297 17 188 160 188 375 C188 586 293 726 451 726 C504 726 545 715 580 695 L580 695 C626 670 672 609 696 544 C699 536 703 527 706 519 L728 519 L728 750 L712 750 L712 750 Z M479 996 C471 1008 451 1037 438 1037 C426 1037 406 1008 398 996 L284 818 L299 805 L438 922 L577 805 L592 818 L479 996 L479 996 Z " />
<glyph glyph-name="Gbreve" unicode="&#x11e;" horiz-adv-x="848" d="M296 994 C306 910 363 854 439 854 C515 854 572 909 582 992 L558 995 C554 959 506 935 439 935 C372 935 324 960 320 998 L296 994 L296 994 Z M712 750 C711 744 708 737 707 731 C700 701 673 695 638 716 C591 744 530 760 439 760 C200 760 40 606 40 375 C40 144 200 -10 440 -10 C592 -10 694 17 781 58 L772 78 C751 68 729 59 705 51 C705 86 705 155 705 215 C705 266 737 300 786 300 L800 300 L800 325 L474 325 L474 300 L488 300 C537 300 569 266 569 215 C570 215 570 133 570 124 C563 59 521 17 461 17 C297 17 188 160 188 375 C188 586 293 726 451 726 C504 726 545 715 580 695 L580 695 C626 670 672 609 696 544 C699 536 703 527 706 519 L728 519 L728 750 L712 750 L712 750 Z " />
<glyph glyph-name="gbreve" unicode="&#x11f;" horiz-adv-x="520" d="M108 744 C118 660 175 604 251 604 C327 604 384 659 394 742 L370 745 C366 709 318 685 251 685 C184 685 136 710 132 748 L108 744 L108 744 Z M543 461 C543 502 513 530 468 530 C437 530 403 507 379 471 C347 496 303 510 251 510 C141 510 67 446 67 350 C67 281 104 228 165 203 C94 187 50 150 50 101 C50 47 79 7 125 -9 C73 -26 40 -60 40 -98 C40 -178 129 -231 263 -231 C397 -231 486 -163 486 -60 C486 35 434 98 299 98 L179 98 C143 98 119 113 119 136 C119 167 172 187 252 187 C362 187 436 252 436 349 C436 391 422 427 397 454 C399 456 401 457 402 457 C430 457 467 410 495 410 C524 410 544 430 544 460 L543 461 L543 461 Z M252 214 C211 214 183 268 183 349 C183 429 211 482 252 482 C293 482 321 429 321 349 C321 268 293 214 252 214 L252 214 Z M156 -15 C161 -16 167 -16 173 -16 L287 -16 C362 -16 391 -44 391 -87 C391 -158 343 -205 270 -205 C189 -205 135 -151 135 -71 C135 -47 143 -27 156 -15 L156 -15 Z " />
<glyph glyph-name="Gdot" unicode="&#x120;" horiz-adv-x="848" d="M439 865 C483 865 513 895 513 939 C513 984 483 1014 439 1014 C395 1014 365 984 365 939 C365 895 395 865 439 865 L439 865 Z M712 750 C711 744 708 737 707 731 C700 701 673 695 638 716 C591 744 530 760 439 760 C200 760 40 606 40 375 C40 144 200 -10 440 -10 C592 -10 694 17 781 58 L772 78 C751 68 729 59 705 51 C705 86 705 155 705 215 C705 266 737 300 786 300 L800 300 L800 325 L474 325 L474 300 L488 300 C537 300 569 266 569 215 C570 215 570 133 570 124 C563 59 521 17 461 17 C297 17 188 160 188 375 C188 586 293 726 451 726 C504 726 545 715 580 695 L580 695 C626 670 672 609 696 544 C699 536 703 527 706 519 L728 519 L728 750 L712 750 L712 750 Z " />
<glyph glyph-name="gdot" unicode="&#x121;" horiz-adv-x="520" d="M251 615 C295 615 325 645 325 689 C325 734 295 764 251 764 C207 764 177 734 177 689 C177 645 207 615 251 615 L251 615 Z M543 461 C543 502 513 530 468 530 C437 530 403 507 379 471 C347 496 303 510 251 510 C141 510 67 446 67 350 C67 281 104 228 165 203 C94 187 50 150 50 101 C50 47 79 7 125 -9 C73 -26 40 -60 40 -98 C40 -178 129 -231 263 -231 C397 -231 486 -163 486 -60 C486 35 434 98 299 98 L179 98 C143 98 119 113 119 136 C119 167 172 187 252 187 C362 187 436 252 436 349 C436 391 422 427 397 454 C399 456 401 457 402 457 C430 457 467 410 495 410 C524 410 544 430 544 460 L543 461 L543 461 Z M252 214 C211 214 183 268 183 349 C183 429 211 482 252 482 C293 482 321 429 321 349 C321 268 293 214 252 214 L252 214 Z M156 -15 C161 -16 167 -16 173 -16 L287 -16 C362 -16 391 -44 391 -87 C391 -158 343 -205 270 -205 C189 -205 135 -151 135 -71 C135 -47 143 -27 156 -15 L156 -15 Z " />
<glyph glyph-name="Hcircumflex" unicode="&#x124;" horiz-adv-x="896" d="M502 996 C494 1008 474 1037 462 1037 C449 1037 429 1008 421 996 L307 818 L323 805 L462 921 L600 805 L616 818 L502 996 L502 996 Z M836 20 L801 20 C771 20 751 40 751 70 L751 680 C751 710 771 730 801 730 L836 730 L836 750 L531 750 L531 730 L566 730 C596 730 616 710 616 680 L616 418 L307 418 L307 680 C307 710 327 730 357 730 L392 730 L392 750 L87 750 L87 730 L122 730 C152 730 172 710 172 680 L172 70 C172 40 152 20 122 20 L87 20 L87 0 L392 0 L392 20 L357 20 C327 20 307 40 307 70 L307 383 L616 383 L616 70 C616 40 596 20 566 20 L531 20 L531 0 L836 0 L836 20 L836 20 Z " />
<glyph glyph-name="Itilde" unicode="&#x128;" horiz-adv-x="403" d="M51 870 C51 903 66 925 89 925 C139 925 207 860 257 860 C312 860 349 916 349 1001 L329 1001 C329 965 311 941 284 941 C234 941 166 1006 116 1006 C65 1006 31 952 31 870 L51 870 L51 870 Z M343 20 L308 20 C278 20 258 40 258 70 L258 680 C258 710 278 730 308 730 L343 730 L343 750 L37 750 L37 730 L72 730 C102 730 122 710 122 680 L122 70 C122 40 102 20 72 20 L37 20 L37 0 L343 0 L343 20 L343 20 Z " />
<glyph glyph-name="itilde" unicode="&#x129;" horiz-adv-x="342" d="M36 620 C36 653 51 675 74 675 C124 675 192 610 242 610 C297 610 334 666 334 751 L313 751 C313 715 295 691 269 691 C218 691 151 756 100 756 C49 756 15 702 15 620 L36 620 L36 620 Z M52 448 L102 461 C111 464 117 459 117 450 L117 35 C117 26 111 20 102 20 L52 20 L52 0 L297 0 L297 20 L247 20 C238 20 232 26 232 35 L232 500 L175 500 L175 501 C138 491 89 478 52 468 L52 448 L52 448 Z " />
<glyph glyph-name="Imacron" unicode="&#x12a;" horiz-adv-x="403" d="M40 890 L340 890 L340 970 L40 970 L40 890 L40 890 Z M343 20 L308 20 C278 20 258 40 258 70 L258 680 C258 710 278 730 308 730 L343 730 L343 750 L37 750 L37 730 L72 730 C102 730 122 710 122 680 L122 70 C122 40 102 20 72 20 L37 20 L37 0 L343 0 L343 20 L343 20 Z " />
<glyph glyph-name="imacron" unicode="&#x12b;" horiz-adv-x="342" d="M25 640 L325 640 L325 720 L25 720 L25 640 L25 640 Z M52 448 L102 461 C111 464 117 459 117 450 L117 35 C117 26 111 20 102 20 L52 20 L52 0 L297 0 L297 20 L247 20 C238 20 232 26 232 35 L232 500 L175 500 L175 501 C138 491 89 478 52 468 L52 448 L52 448 Z " />
<glyph glyph-name="Ibreve" unicode="&#x12c;" horiz-adv-x="403" d="M47 994 C57 910 114 854 190 854 C266 854 323 909 333 992 L309 995 C305 959 257 935 190 935 C123 935 75 960 71 998 L47 994 L47 994 Z M343 20 L308 20 C278 20 258 40 258 70 L258 680 C258 710 278 730 308 730 L343 730 L343 750 L37 750 L37 730 L72 730 C102 730 122 710 122 680 L122 70 C122 40 102 20 72 20 L37 20 L37 0 L343 0 L343 20 L343 20 Z " />
<glyph glyph-name="ibreve" unicode="&#x12d;" horiz-adv-x="342" d="M31 744 C41 660 99 604 175 604 C250 604 307 659 317 742 L293 745 C289 709 242 685 175 685 C108 685 60 710 56 748 L31 744 L31 744 Z M52 448 L102 461 C111 464 117 459 117 450 L117 35 C117 26 111 20 102 20 L52 20 L52 0 L297 0 L297 20 L247 20 C238 20 232 26 232 35 L232 500 L175 500 L175 501 C138 491 89 478 52 468 L52 448 L52 448 Z " />
<glyph glyph-name="Idot" unicode="&#x130;" horiz-adv-x="403" d="M190 865 C234 865 264 895 264 939 C264 984 234 1014 190 1014 C146 1014 116 984 116 939 C116 895 146 865 190 865 L190 865 Z M343 20 L308 20 C278 20 258 40 258 70 L258 680 C258 710 278 730 308 730 L343 730 L343 750 L37 750 L37 730 L72 730 C102 730 122 710 122 680 L122 70 C122 40 102 20 72 20 L37 20 L37 0 L343 0 L343 20 L343 20 Z " />
<glyph glyph-name="dotlessi" unicode="&#x131;" horiz-adv-x="342" d="M52 448 L102 461 C111 464 117 459 117 450 L117 35 C117 26 111 20 102 20 L52 20 L52 0 L297 0 L297 20 L247 20 C238 20 232 26 232 35 L232 500 L175 500 L175 501 C138 491 89 478 52 468 L52 448 L52 448 Z " />
<glyph glyph-name="Jcircumflex" unicode="&#x134;" horiz-adv-x="403" d="M231 996 C223 1008 203 1037 190 1037 C178 1037 158 1008 150 996 L36 818 L51 805 L190 922 L329 805 L344 818 L231 996 L231 996 Z M343 750 L37 750 L37 730 L72 730 C102 730 122 710 122 680 L122 -106 C122 -161 69 -172 30 -172 C-37 -172 -4 -64 -71 -64 C-108 -64 -132 -88 -132 -125 C-132 -182 -80 -220 -3 -220 C107 -220 258 -161 258 150 L258 680 C258 710 278 730 308 730 L343 730 L343 750 L343 750 Z " />
<glyph glyph-name="Lacute" unicode="&#x139;" horiz-adv-x="668" d="M199 811 L343 929 C379 959 403 982 403 988 C403 1019 376 1046 345 1046 C339 1046 319 1020 291 981 L184 826 L199 811 L199 811 Z M343 750 L37 750 L37 730 L72 730 C102 730 122 710 122 680 L122 70 C122 40 102 20 72 20 L37 20 L37 0 L593 0 L596 11 L596 11 C603 52 613 107 620 148 L603 148 L596 128 C570 65 511 23 448 23 L338 23 C266 23 258 46 258 80 L258 680 C258 710 278 730 308 730 L343 730 L343 750 L343 750 Z " />
<glyph glyph-name="Lcaron" unicode="&#x13d;" horiz-adv-x="668" d="M446 807 C422 807 412 744 410 698 L403 586 L423 582 L470 686 C487 722 498 764 498 790 C498 802 477 807 446 807 L446 807 Z M343 750 L37 750 L37 730 L72 730 C102 730 122 710 122 680 L122 70 C122 40 102 20 72 20 L37 20 L37 0 L593 0 L596 11 L596 11 C603 52 613 107 620 148 L603 148 L596 128 C570 65 511 23 448 23 L338 23 C266 23 258 46 258 80 L258 680 C258 710 278 730 308 730 L343 730 L343 750 L343 750 Z " />
<glyph glyph-name="lcaron" unicode="&#x13e;" horiz-adv-x="286" d="M279 757 C255 757 245 694 243 648 L236 536 L256 532 L303 636 C320 672 331 714 331 740 C331 752 310 757 279 757 L279 757 Z M12 707 L32 706 C58 706 76 687 77 661 C77 460 76 141 76 36 C76 27 70 21 61 21 L11 21 L11 1 L256 1 L256 21 L206 21 C197 21 191 27 191 36 L191 751 L134 751 C97 741 49 730 12 720 L12 707 L12 707 Z " />
<glyph glyph-name="Nacute" unicode="&#x143;" horiz-adv-x="800" d="M304 811 L448 929 C484 959 508 982 508 988 C508 1019 481 1046 450 1046 C444 1046 424 1020 396 981 L289 826 L304 811 L304 811 Z M-35 730 L0 730 C27 730 59 714 82 689 L136 619 L135 71 L135 71 C135 41 115 21 85 21 L50 21 L50 1 L260 1 L260 21 L225 21 C195 21 175 41 175 71 L175 71 L172 575 C321 384 470 193 619 1 L646 1 L655 685 C657 713 677 731 706 731 L741 731 L741 751 L531 751 L531 731 L566 731 C596 731 616 711 616 681 L616 681 L618 223 C479 399 341 575 203 751 L-34 751 L-35 730 L-35 730 Z " />
<glyph glyph-name="Ncaron" unicode="&#x147;" horiz-adv-x="800" d="M534 1045 L395 928 L256 1045 L241 1032 L355 854 C363 842 383 813 395 813 C408 813 428 842 436 854 L549 1032 L534 1045 L534 1045 Z M-35 730 L0 730 C27 730 59 714 82 689 L136 619 L135 71 L135 71 C135 41 115 21 85 21 L50 21 L50 1 L260 1 L260 21 L225 21 C195 21 175 41 175 71 L175 71 L172 575 C321 384 470 193 619 1 L646 1 L655 685 C657 713 677 731 706 731 L741 731 L741 751 L531 751 L531 731 L566 731 C596 731 616 711 616 681 L616 681 L618 223 C479 399 341 575 203 751 L-34 751 L-35 730 L-35 730 Z " />
<glyph glyph-name="ncaron" unicode="&#x148;" horiz-adv-x="599" d="M429 795 L290 678 L151 795 L136 782 L250 604 C258 592 278 563 290 563 C303 563 323 592 331 604 L444 782 L429 795 L429 795 Z M11 457 L31 456 C58 455 76 436 76 409 L76 35 C76 26 70 20 61 20 L11 20 L11 0 L256 0 L256 20 L206 20 C197 20 191 26 191 35 L191 359 C214 399 256 426 295 426 C357 426 389 384 389 321 L389 35 C389 26 383 20 374 20 L324 20 L324 0 L569 0 L569 20 L519 20 C510 20 504 26 504 35 L504 321 C504 434 456 510 363 510 C300 510 232 463 191 393 L191 500 L134 500 C97 490 48 479 11 469 L11 457 L11 457 Z " />
<glyph glyph-name="Omacron" unicode="&#x14c;" horiz-adv-x="889" d="M282 890 L582 890 L582 970 L282 970 L282 890 L282 890 Z M187 375 C187 586 283 726 426 726 C583 726 687 586 687 375 C687 164 584 24 429 24 C284 24 187 164 187 375 L187 375 Z M40 375 C40 144 193 -10 422 -10 C669 -10 834 144 834 375 C834 606 673 760 432 760 C197 760 40 606 40 375 L40 375 Z " />
<glyph glyph-name="omacron" unicode="&#x14d;" horiz-adv-x="622" d="M161 640 L461 640 L461 720 L161 720 L161 640 L161 640 Z M172 250 C172 385 228 475 311 475 C394 475 450 385 450 250 C450 115 394 25 311 25 C228 25 172 115 172 250 L172 250 Z M45 250 C45 94 151 -10 311 -10 C471 -10 577 94 577 250 C577 406 471 510 311 510 C151 510 45 406 45 250 L45 250 Z " />
<glyph glyph-name="Obreve" unicode="&#x14e;" horiz-adv-x="889" d="M289 994 C299 910 356 854 432 854 C508 854 565 909 575 992 L551 995 C547 959 499 935 432 935 C365 935 317 960 313 998 L289 994 L289 994 Z M187 375 C187 586 283 726 426 726 C583 726 687 586 687 375 C687 164 584 24 429 24 C284 24 187 164 187 375 L187 375 Z M40 375 C40 144 193 -10 422 -10 C669 -10 834 144 834 375 C834 606 673 760 432 760 C197 760 40 606 40 375 L40 375 Z " />
<glyph glyph-name="obreve" unicode="&#x14f;" horiz-adv-x="622" d="M168 744 C178 660 235 604 311 604 C387 604 444 659 454 742 L430 745 C426 709 378 685 311 685 C244 685 196 710 192 748 L168 744 L168 744 Z M172 250 C172 385 228 475 311 475 C394 475 450 385 450 250 C450 115 394 25 311 25 C228 25 172 115 172 250 L172 250 Z M45 250 C45 94 151 -10 311 -10 C471 -10 577 94 577 250 C577 406 471 510 311 510 C151 510 45 406 45 250 L45 250 Z " />
<glyph glyph-name="Racute" unicode="&#x154;" horiz-adv-x="831" d="M325 811 L470 929 C505 958 529 981 529 988 C529 1019 503 1046 472 1046 C465 1046 444 1020 417 981 L311 826 L325 811 L325 811 Z M51 730 L86 730 C116 730 136 710 136 680 L136 70 C136 40 116 20 86 20 L51 20 L51 0 L356 0 L356 20 L321 20 C291 20 271 40 271 70 L271 346 L342 346 C367 307 439 208 537 81 C596 4 607 1 821 1 L821 28 C740 28 735 30 696 81 C594 214 517 315 482 361 C584 385 647 442 647 537 C647 665 527 751 348 751 L52 751 L51 730 L51 730 Z M272 381 L272 724 L308 724 C422 724 498 660 498 564 C498 438 438 381 348 381 L272 381 L272 381 Z " />
<glyph glyph-name="Rcaron" unicode="&#x158;" horiz-adv-x="831" d="M455 1045 L317 929 L178 1045 L162 1032 L276 854 C284 842 304 813 317 813 C329 813 349 842 357 854 L471 1032 L455 1045 L455 1045 Z M51 730 L86 730 C116 730 136 710 136 680 L136 70 C136 40 116 20 86 20 L51 20 L51 0 L356 0 L356 20 L321 20 C291 20 271 40 271 70 L271 346 L342 346 C367 307 439 208 537 81 C596 4 607 1 821 1 L821 28 C740 28 735 30 696 81 C594 214 517 315 482 361 C584 385 647 442 647 537 C647 665 527 751 348 751 L52 751 L51 730 L51 730 Z M272 381 L272 724 L308 724 C422 724 498 660 498 564 C498 438 438 381 348 381 L272 381 L272 381 Z " />
<glyph glyph-name="rcaron" unicode="&#x159;" horiz-adv-x="468" d="M396 795 L258 679 L119 795 L103 782 L217 604 C225 592 245 563 258 563 C270 563 290 592 298 604 L412 782 L396 795 L396 795 Z M13 457 L33 456 C59 456 77 437 78 411 C78 342 77 35 77 35 C77 26 71 20 62 20 L12 20 L12 0 L257 0 L257 20 L207 20 C198 20 192 26 192 35 L192 351 C215 415 250 456 283 456 C307 456 323 442 323 421 C323 380 350 353 391 353 C431 353 458 380 458 421 C458 474 410 510 337 510 C273 510 218 471 193 410 L193 500 L136 500 C99 490 51 479 14 469 L13 457 L13 457 Z " />
<glyph glyph-name="Sacute" unicode="&#x15a;" horiz-adv-x="555" d="M282 811 L427 929 C462 958 486 981 486 988 C486 1019 460 1046 429 1046 C422 1046 401 1020 374 981 L268 826 L282 811 L282 811 Z M65 -2 C66 5 68 14 69 21 C75 51 103 57 139 36 C182 6 232 -11 283 -11 C422 -11 515 76 515 206 C515 307 450 398 323 444 C217 482 163 542 163 602 C163 676 203 725 264 725 C269 725 319 720 318 718 C370 705 421 647 445 573 C448 565 452 553 455 545 L477 545 L477 755 L460 755 C459 750 456 744 455 739 C449 716 424 712 393 728 C356 748 311 759 263 759 C139 759 57 675 57 550 C57 443 120 348 241 304 C350 264 406 213 406 167 C406 86 356 32 282 32 C248 32 215 41 185 57 C142 83 100 144 77 214 C74 223 71 234 68 243 L45 243 L45 -3 L65 -2 L65 -2 Z " />
<glyph glyph-name="Scircumflex" unicode="&#x15c;" horiz-adv-x="555" d="M65 -2 C66 5 68 14 69 21 C75 51 103 57 139 36 C182 6 232 -11 283 -11 C422 -11 515 76 515 206 C515 307 450 398 323 444 C217 482 163 542 163 602 C163 676 203 725 264 725 C269 725 319 720 318 718 C370 705 421 647 445 573 C448 565 452 553 455 545 L477 545 L477 755 L460 755 C459 750 456 744 455 739 C449 716 424 712 393 728 C356 748 311 759 263 759 C139 759 57 675 57 550 C57 443 120 348 241 304 C350 264 406 213 406 167 C406 86 356 32 282 32 C248 32 215 41 185 57 C142 83 100 144 77 214 C74 223 71 234 68 243 L45 243 L45 -3 L65 -2 L65 -2 Z M312 995 C304 1007 284 1036 272 1036 C259 1036 239 1007 231 995 L117 817 L133 804 L272 920 L410 804 L426 817 L312 995 L312 995 Z " />
<glyph glyph-name="Scaron" unicode="&#x160;" horiz-adv-x="555" d="M412 1045 L274 929 L135 1045 L119 1032 L233 854 C241 842 261 813 274 813 C286 813 306 842 314 854 L428 1032 L412 1045 L412 1045 Z M65 -2 C66 5 68 14 69 21 C75 51 103 57 139 36 C182 6 232 -11 283 -11 C422 -11 515 76 515 206 C515 307 450 398 323 444 C217 482 163 542 163 602 C163 676 203 725 264 725 C269 725 319 720 318 718 C370 705 421 647 445 573 C448 565 452 553 455 545 L477 545 L477 755 L460 755 C459 750 456 744 455 739 C449 716 424 712 393 728 C356 748 311 759 263 759 C139 759 57 675 57 550 C57 443 120 348 241 304 C350 264 406 213 406 167 C406 86 356 32 282 32 C248 32 215 41 185 57 C142 83 100 144 77 214 C74 223 71 234 68 243 L45 243 L45 -3 L65 -2 L65 -2 Z " />
<glyph glyph-name="scaron" unicode="&#x161;" horiz-adv-x="434" d="M350 795 L211 678 L72 795 L57 782 L171 604 C179 592 199 563 211 563 C224 563 244 592 252 604 L365 782 L350 795 L350 795 Z M74 180 L60 180 L60 -2 L74 -2 C75 2 76 7 77 11 C80 24 110 21 150 3 L150 3 C169 -6 190 -11 211 -11 C315 -11 384 48 384 137 C384 207 334 267 236 293 C171 311 137 356 137 411 C137 466 189 493 248 478 C297 464 333 407 347 338 L361 338 L361 510 L348 510 C347 506 345 502 344 498 C341 487 311 488 269 501 C252 506 234 509 215 509 C119 509 55 454 55 371 C55 292 100 228 186 205 C258 186 295 147 295 104 C295 51 261 16 211 16 C208 16 172 21 173 24 C125 43 88 106 73 179 L74 180 L74 180 Z " />
<glyph glyph-name="Tcaron" unicode="&#x164;" horiz-adv-x="775" d="M527 1045 L388 928 L249 1045 L234 1032 L348 854 C356 842 376 813 388 813 C401 813 421 842 429 854 L542 1032 L527 1045 L527 1045 Z M235 0 L540 0 L540 20 L505 20 C475 20 455 40 455 70 L455 716 L602 716 C653 716 709 682 740 631 L766 591 L783 591 C765 634 769 624 727 732 C727 732 724 732 720 732 L720 733 L727 733 C725 737 720 745 720 750 L720 750 C714 765 707 781 702 795 L690 795 L686 788 C671 765 628 750 579 750 L196 750 C147 750 104 765 89 788 L85 795 L73 795 C66 776 56 756 50 734 C50 734 52 734 55 734 L55 733 L50 733 C32 690 10 634 -8 591 L9 591 L35 631 C66 682 122 716 173 716 L320 716 L320 70 C320 40 300 20 270 20 L235 20 L235 0 L235 0 Z " />
<glyph glyph-name="tcaron" unicode="&#x165;" horiz-adv-x="412" d="M362 500 L210 500 L210 620 L202 620 L30 449 L30 439 L95 439 L95 186 C95 45 157 -10 249 -10 C328 -10 389 43 402 122 L387 125 C379 76 338 44 284 44 C238 44 207 77 207 161 L210 439 L362 439 L362 500 L362 500 Z M460 757 C436 757 426 694 424 648 L417 536 L437 532 L484 636 C501 672 512 714 512 740 C512 752 491 757 460 757 L460 757 Z " />
<glyph glyph-name="Utilde" unicode="&#x168;" horiz-adv-x="812" d="M260 870 C260 903 275 925 298 925 C348 925 416 860 466 860 C521 860 558 916 558 1001 L538 1001 C538 965 520 941 493 941 C443 941 375 1006 325 1006 C274 1006 240 952 240 870 L260 870 L260 870 Z M782 61 L747 51 C717 43 697 58 697 88 L697 750 L477 750 L477 730 L512 730 C542 730 562 710 562 680 L562 202 C527 127 451 77 372 77 C290 77 236 134 236 220 L236 750 L16 750 L16 730 L51 730 C81 730 101 710 101 680 L101 220 C101 82 188 -10 318 -10 C422 -10 520 50 562 141 L562 0 L630 0 L668 10 C706 20 748 31 782 41 L782 61 L782 61 Z " />
<glyph glyph-name="utilde" unicode="&#x169;" horiz-adv-x="590" d="M147 620 C147 653 162 675 185 675 C235 675 303 610 353 610 C408 610 445 666 445 751 L425 751 C425 715 407 691 380 691 C330 691 262 756 212 756 C161 756 127 702 127 620 L147 620 L147 620 Z M575 55 L550 48 C520 40 500 55 500 85 L500 500 L320 500 L320 480 L370 480 C379 480 385 474 385 465 L385 151 C362 102 318 70 271 70 C221 70 187 106 187 160 L187 500 L7 500 L7 480 L57 480 C66 480 72 474 72 465 L72 160 C72 58 130 -10 217 -10 C286 -10 352 40 385 117 L385 0 L442 0 L442 -1 C482 10 535 24 575 35 L575 55 L575 55 Z " />
<glyph glyph-name="Umacron" unicode="&#x16a;" horiz-adv-x="812" d="M249 890 L549 890 L549 970 L249 970 L249 890 L249 890 Z M782 61 L747 51 C717 43 697 58 697 88 L697 750 L477 750 L477 730 L512 730 C542 730 562 710 562 680 L562 202 C527 127 451 77 372 77 C290 77 236 134 236 220 L236 750 L16 750 L16 730 L51 730 C81 730 101 710 101 680 L101 220 C101 82 188 -10 318 -10 C422 -10 520 50 562 141 L562 0 L630 0 L668 10 C706 20 748 31 782 41 L782 61 L782 61 Z " />
<glyph glyph-name="umacron" unicode="&#x16b;" horiz-adv-x="590" d="M136 640 L436 640 L436 720 L136 720 L136 640 L136 640 Z M575 55 L550 48 C520 40 500 55 500 85 L500 500 L320 500 L320 480 L370 480 C379 480 385 474 385 465 L385 151 C362 102 318 70 271 70 C221 70 187 106 187 160 L187 500 L7 500 L7 480 L57 480 C66 480 72 474 72 465 L72 160 C72 58 130 -10 217 -10 C286 -10 352 40 385 117 L385 0 L442 0 L442 -1 C482 10 535 24 575 35 L575 55 L575 55 Z " />
<glyph glyph-name="Ubreve" unicode="&#x16c;" horiz-adv-x="812" d="M256 994 C266 910 323 854 399 854 C475 854 532 909 542 992 L518 995 C514 959 466 935 399 935 C332 935 284 960 280 998 L256 994 L256 994 Z M782 61 L747 51 C717 43 697 58 697 88 L697 750 L477 750 L477 730 L512 730 C542 730 562 710 562 680 L562 202 C527 127 451 77 372 77 C290 77 236 134 236 220 L236 750 L16 750 L16 730 L51 730 C81 730 101 710 101 680 L101 220 C101 82 188 -10 318 -10 C422 -10 520 50 562 141 L562 0 L630 0 L668 10 C706 20 748 31 782 41 L782 61 L782 61 Z " />
<glyph glyph-name="ubreve" unicode="&#x16d;" horiz-adv-x="590" d="M143 744 C153 660 210 604 286 604 C362 604 419 659 429 742 L405 745 C401 709 353 685 286 685 C219 685 171 710 167 748 L143 744 L143 744 Z M575 55 L550 48 C520 40 500 55 500 85 L500 500 L320 500 L320 480 L370 480 C379 480 385 474 385 465 L385 151 C362 102 318 70 271 70 C221 70 187 106 187 160 L187 500 L7 500 L7 480 L57 480 C66 480 72 474 72 465 L72 160 C72 58 130 -10 217 -10 C286 -10 352 40 385 117 L385 0 L442 0 L442 -1 C482 10 535 24 575 35 L575 55 L575 55 Z " />
<glyph glyph-name="Uring" unicode="&#x16e;" horiz-adv-x="812" d="M334 905 C334 946 360 973 399 973 C438 973 464 946 464 905 C464 868 434 837 399 837 C364 837 334 868 334 905 L334 905 Z M301 905 C301 854 346 810 399 810 C452 810 497 854 497 905 C497 962 458 1000 399 1000 C340 1000 301 962 301 905 L301 905 Z M782 61 L747 51 C717 43 697 58 697 88 L697 750 L477 750 L477 730 L512 730 C542 730 562 710 562 680 L562 202 C527 127 451 77 372 77 C290 77 236 134 236 220 L236 750 L16 750 L16 730 L51 730 C81 730 101 710 101 680 L101 220 C101 82 188 -10 318 -10 C422 -10 520 50 562 141 L562 0 L630 0 L668 10 C706 20 748 31 782 41 L782 61 L782 61 Z " />
<glyph glyph-name="uring" unicode="&#x16f;" horiz-adv-x="590" d="M221 655 C221 696 247 723 286 723 C325 723 351 696 351 655 C351 618 321 587 286 587 C251 587 221 618 221 655 L221 655 Z M188 655 C188 604 233 560 286 560 C339 560 384 604 384 655 C384 712 345 750 286 750 C227 750 188 712 188 655 L188 655 Z M575 55 L550 48 C520 40 500 55 500 85 L500 500 L320 500 L320 480 L370 480 C379 480 385 474 385 465 L385 151 C362 102 318 70 271 70 C221 70 187 106 187 160 L187 500 L7 500 L7 480 L57 480 C66 480 72 474 72 465 L72 160 C72 58 130 -10 217 -10 C286 -10 352 40 385 117 L385 0 L442 0 L442 -1 C482 10 535 24 575 35 L575 55 L575 55 Z " />
<glyph glyph-name="Wcircumflex" unicode="&#x174;" horiz-adv-x="1149" d="M499 645 L499 645 C520 597 542 548 563 500 L450 162 L251 654 C238 697 258 725 303 725 L323 725 L323 750 L0 750 L0 725 L11 725 C49 725 88 693 109 645 L109 645 C203 427 297 208 392 -10 L426 -10 L427 -5 L588 444 C655 293 722 142 789 -9 L823 -9 L823 -4 L1016 652 C1032 696 1072 725 1118 725 L1133 725 L1133 750 L847 750 L847 725 L905 725 C952 725 976 695 965 649 L842 188 L643 656 C630 698 649 726 694 726 L733 726 L733 751 L385 751 L385 726 L397 726 C438 726 479 694 500 646 L499 645 L499 645 Z M595 997 C587 1009 567 1038 555 1038 C542 1038 522 1009 514 997 L400 819 L416 806 L555 922 L693 806 L709 819 L595 997 L595 997 Z " />
<glyph glyph-name="Ycircumflex" unicode="&#x176;" horiz-adv-x="808" d="M241 0 L586 0 L586 20 L551 20 C509 20 481 48 481 90 L481 320 C546 438 611 557 677 675 C695 708 729 730 762 730 L802 730 L802 750 L525 750 L525 730 L586 730 C616 730 629 711 618 682 L467 361 C399 465 330 570 263 674 C242 707 249 729 282 729 L319 729 L319 749 L-3 749 L-3 729 L12 729 C45 729 82 707 104 674 L104 674 L345 315 L345 89 C345 47 317 19 275 19 L240 19 L241 0 L241 0 Z M453 995 C445 1007 425 1036 413 1036 C400 1036 380 1007 372 995 L258 817 L274 804 L413 920 L551 804 L567 817 L453 995 L453 995 Z " />
<glyph glyph-name="Ydieresis" unicode="&#x178;" horiz-adv-x="808" d="M494 865 C538 865 568 895 568 939 C568 984 538 1014 494 1014 C449 1014 419 984 419 939 C419 895 449 865 494 865 L494 865 Z M333 865 C378 865 408 895 408 939 C408 984 378 1014 333 1014 C289 1014 259 984 259 939 C259 895 289 865 333 865 L333 865 Z M241 0 L586 0 L586 20 L551 20 C509 20 481 48 481 90 L481 320 C546 438 611 557 677 675 C695 708 729 730 762 730 L802 730 L802 750 L525 750 L525 730 L586 730 C616 730 629 711 618 682 L467 361 C399 465 330 570 263 674 C242 707 249 729 282 729 L319 729 L319 749 L-3 749 L-3 729 L12 729 C45 729 82 707 104 674 L104 674 L345 315 L345 89 C345 47 317 19 275 19 L240 19 L241 0 L241 0 Z " />
<glyph glyph-name="Zacute" unicode="&#x179;" horiz-adv-x="652" d="M349 811 L493 929 C529 959 553 982 553 988 C553 1019 526 1046 495 1046 C489 1046 469 1020 441 981 L334 826 L349 811 L349 811 Z M73 587 L79 608 C98 670 153 713 215 715 L465 720 L25 27 L25 0 L606 0 C615 41 617 47 644 166 L627 166 L617 145 C590 86 536 45 477 38 L184 31 L611 723 L611 750 L71 750 L70 731 C70 731 65 673 57 587 L73 587 L73 587 Z " />
<glyph glyph-name="Zdot" unicode="&#x17b;" horiz-adv-x="652" d="M340 865 C384 865 414 895 414 939 C414 984 384 1014 340 1014 C296 1014 266 984 266 939 C266 895 296 865 340 865 L340 865 Z M73 587 L79 608 C98 670 153 713 215 715 L465 720 L25 27 L25 0 L606 0 C615 41 617 47 644 166 L627 166 L617 145 C590 86 536 45 477 38 L184 31 L611 723 L611 750 L71 750 L70 731 C70 731 65 673 57 587 L73 587 L73 587 Z " />
<glyph glyph-name="zdot" unicode="&#x17c;" horiz-adv-x="475" d="M255 615 C299 615 329 645 329 689 C329 734 299 764 255 764 C211 764 181 734 181 689 C181 645 211 615 255 615 L255 615 Z M429 138 L423 123 C402 76 359 42 311 36 L179 31 L434 472 L434 499 L123 499 C105 499 94 510 95 526 L97 531 L75 531 C70 515 65 494 60 478 L61 478 C59 471 47 426 30 361 L49 361 L58 376 C85 423 134 457 182 463 L299 468 L40 27 L40 0 L430 0 L430 5 L432 5 C432 5 441 67 448 138 L429 138 L429 138 Z " />
<glyph glyph-name="Zcaron" unicode="&#x17d;" horiz-adv-x="652" d="M479 1045 L340 928 L201 1045 L186 1032 L300 854 C308 842 328 813 340 813 C353 813 373 842 381 854 L494 1032 L479 1045 L479 1045 Z M73 587 L79 608 C98 670 153 713 215 715 L465 720 L25 27 L25 0 L606 0 C615 41 617 47 644 166 L627 166 L617 145 C590 86 536 45 477 38 L184 31 L611 723 L611 750 L71 750 L70 731 C70 731 65 673 57 587 L73 587 L73 587 Z " />
<glyph glyph-name="zcaron" unicode="&#x17e;" horiz-adv-x="475" d="M394 795 L255 678 L116 795 L101 782 L215 604 C223 592 243 563 255 563 C268 563 288 592 296 604 L409 782 L394 795 L394 795 Z M429 138 L423 123 C402 76 359 42 311 36 L179 31 L434 472 L434 499 L123 499 C105 499 94 510 95 526 L97 531 L75 531 C70 515 65 494 60 478 L61 478 C59 471 47 426 30 361 L49 361 L58 376 C85 423 134 457 182 463 L299 468 L40 27 L40 0 L430 0 L430 5 L432 5 C432 5 441 67 448 138 L429 138 L429 138 Z " />
<glyph glyph-name="oogonek" unicode="&#x1eb;" horiz-adv-x="794" d="M1019 -39 L1010 -28 C974 -59 859 -79 724 -79 C586 -79 444 -52 343 -9 C580 -27 744 103 744 292 C744 473 602 593 389 593 C182 593 44 473 44 292 C44 185 91 99 171 47 C371 -88 586 -179 706 -179 C793 -179 918 -123 1019 -38 L1019 -39 L1019 -39 Z M176 293 C176 456 259 564 384 564 C521 564 612 456 612 293 C612 120 508 5 351 5 C246 5 176 120 176 293 L176 293 Z " />
<glyph glyph-name="Adotabove" unicode="&#x226;" horiz-adv-x="831" d="M432 865 C476 865 506 895 506 939 C506 984 476 1014 432 1014 C387 1014 357 984 357 939 C357 895 387 865 432 865 L432 865 Z M216 125 L216 125 L262 272 L506 272 L556 116 C570 61 543 25 486 25 L459 25 L459 0 L824 0 L824 25 L809 25 C763 25 719 61 698 116 C625 334 551 551 479 770 L465 770 C470 743 429 718 364 709 L367 699 L367 699 C304 508 241 316 178 125 C158 65 105 25 45 25 L10 25 L10 0 L312 0 L312 25 L285 25 C225 25 197 65 216 125 L216 125 Z M272 307 L381 657 L494 307 L272 307 L272 307 Z " />
<glyph glyph-name="G_sc" unicode="&#x262;" horiz-adv-x="760" d="M624 610 C623 604 620 596 619 590 C613 561 585 551 549 567 L549 567 C511 584 462 594 391 594 C183 594 44 474 44 293 C44 112 185 -9 396 -9 C409 -9 500 -5 500 -1 L500 -1 L510 2 C544 8 576 16 607 26 L617 29 L617 30 C643 39 668 49 693 60 L685 77 C663 67 640 58 617 50 L617 145 C617 196 649 230 698 230 L712 230 L712 255 L400 255 L400 230 L414 230 C463 230 495 196 495 145 L496 145 C496 134 496 123 496 112 C492 54 460 16 415 16 C272 16 176 127 176 293 C176 456 266 564 402 564 C436 564 464 559 488 551 L488 551 C535 535 583 479 607 410 C610 402 614 392 617 384 L639 384 L639 611 L624 610 L624 610 Z " />
<glyph glyph-name="I_sc" unicode="&#x26a;" horiz-adv-x="396" d="M336 20 L301 20 C271 20 251 40 251 70 L251 513 C251 543 271 563 301 563 L336 563 L336 583 L44 583 L44 563 L79 563 C109 563 129 543 129 513 L129 70 C129 40 109 20 79 20 L44 20 L44 0 L336 0 L336 20 L336 20 Z " />
<glyph glyph-name="N_sc" unicode="&#x274;" horiz-adv-x="719" d="M-23 563 L12 563 C40 563 74 546 99 520 L137 475 L136 70 L136 70 C136 40 116 20 86 20 L51 20 L51 0 L257 0 L257 20 L222 20 C192 20 172 40 172 70 L172 70 L169 437 C293 291 417 145 541 -1 L565 -1 L573 512 C573 542 594 562 624 562 L659 562 L659 582 L453 582 L453 562 L488 562 C518 562 538 542 538 512 L538 512 L540 143 C426 290 311 436 196 582 L-23 582 L-23 563 L-23 563 Z " />
<glyph glyph-name="R_sc" unicode="&#x280;" horiz-adv-x="692" d="M55 563 L90 563 C120 563 140 543 140 513 L140 70 C140 40 120 20 90 20 L55 20 L55 0 L346 0 L346 20 L311 20 C281 20 261 40 261 70 L261 265 L287 265 C308 233 366 158 443 62 C491 2 501 0 681 0 L681 24 C619 24 616 26 586 62 C505 162 443 239 412 277 C503 297 559 342 559 417 C559 517 451 584 290 584 L55 584 L55 563 L55 563 Z M261 297 L261 560 C360 558 425 511 425 442 C425 343 371 298 290 298 L261 297 L261 297 Z " />
<glyph glyph-name="Y_sc" unicode="&#x28f;" horiz-adv-x="716" d="M201 0 L533 0 L533 20 L498 20 C456 20 428 48 428 90 L428 246 L582 508 C601 541 636 563 669 563 L709 563 L709 583 L440 583 L440 563 L500 563 C531 563 543 544 531 515 L415 283 C362 358 309 433 256 508 C233 541 239 563 272 563 L308 563 L308 583 L3 583 L3 563 L18 563 C51 563 89 541 113 508 L113 508 L306 242 L306 90 C306 48 278 20 236 20 L201 20 L201 0 L201 0 Z " />
<glyph glyph-name="B_sc" unicode="&#x299;" horiz-adv-x="626" d="M344 12 L294 12 C274 12 261 44 261 91 L261 299 L344 299 C410 291 453 237 453 160 C453 39 409 11 344 11 L344 12 L344 12 Z M381 -1 C504 -1 586 30 586 160 C586 240 536 298 457 315 C516 338 552 384 552 444 C552 527 508 582 320 582 L54 582 L54 557 L89 557 C119 557 139 537 139 507 L139 74 C139 44 119 24 89 24 L54 24 L54 -1 L381 -1 L381 -1 Z M348 320 L260 320 L260 558 C260 558 271 558 271 557 C401 557 431 507 431 431 C431 364 398 320 348 320 L348 320 Z " />
<glyph glyph-name="H_sc" unicode="&#x29c;" horiz-adv-x="812" d="M752 20 L717 20 C687 20 667 40 667 70 L667 513 C667 543 687 563 717 563 L752 563 L752 583 L460 583 L460 563 L495 563 C525 563 545 543 545 513 L545 329 L297 329 L297 513 C297 543 317 563 347 563 L382 563 L382 583 L91 583 L91 563 L126 563 C156 563 176 543 176 513 L176 70 C176 40 156 20 126 20 L91 20 L91 0 L382 0 L382 20 L347 20 C317 20 297 40 297 70 L297 298 L545 298 L545 70 C545 40 525 20 495 20 L460 20 L460 0 L752 0 L752 20 L752 20 Z " />
<glyph glyph-name="L_sc" unicode="&#x29f;" horiz-adv-x="586" d="M336 583 L44 583 L44 563 L79 563 C109 563 129 543 129 513 L129 70 C129 40 109 20 79 20 L44 20 L44 0 L511 0 L513 10 L514 10 C521 51 531 105 538 146 L521 146 L514 126 C488 63 429 21 366 21 L331 21 C259 21 251 45 251 80 L251 513 C251 543 271 563 301 563 L336 563 L336 583 L336 583 Z " />
<glyph glyph-name="circumflex" unicode="&#x2c6;" horiz-adv-x="340" d="M211 746 C203 758 183 787 170 787 C158 787 138 758 130 746 L16 568 L31 555 L170 672 L309 555 L324 568 L211 746 L211 746 Z " />
<glyph glyph-name="caron" unicode="&#x2c7;" horiz-adv-x="340" d="M309 795 L170 678 L31 795 L16 782 L130 604 C138 592 158 563 170 563 C183 563 203 592 211 604 L324 782 L309 795 L309 795 Z " />
<glyph glyph-name="firsttonechinese" unicode="&#x2c9;" horiz-adv-x="340" d="M20 640 L320 640 L320 720 L20 720 L20 640 L20 640 Z " />
<glyph glyph-name="breve" unicode="&#x2d8;" horiz-adv-x="340" d="M27 744 C37 660 94 604 170 604 C246 604 303 659 313 742 L289 745 C285 709 237 685 170 685 C103 685 55 710 51 748 L27 744 L27 744 Z " />
<glyph glyph-name="dotaccent" unicode="&#x2d9;" horiz-adv-x="340" d="M170 615 C214 615 244 645 244 689 C244 734 214 764 170 764 C126 764 96 734 96 689 C96 645 126 615 170 615 L170 615 Z " />
<glyph glyph-name="ring" unicode="&#x2da;" horiz-adv-x="340" d="M105 655 C105 696 131 723 170 723 C209 723 235 696 235 655 C235 618 205 587 170 587 C135 587 105 618 105 655 L105 655 Z M72 655 C72 604 117 560 170 560 C223 560 268 604 268 655 C268 712 229 750 170 750 C111 750 72 712 72 655 L72 655 Z " />
<glyph glyph-name="A_sc" unicode="&#x1d00;" horiz-adv-x="747" d="M282 25 C222 25 196 65 216 125 L244 208 L451 208 C461 180 471 152 480 124 C501 64 475 24 415 24 L389 24 L389 -1 L738 -1 L738 24 L724 24 C676 24 629 64 607 124 L607 124 C549 283 492 443 433 601 L421 601 C425 580 388 561 329 553 L333 542 L180 113 C157 58 105 22 48 22 L13 22 L13 -3 L310 -3 L310 22 L282 25 L282 25 Z M256 237 L346 506 L441 237 L256 237 L256 237 Z " />
<glyph glyph-name="C_sc" unicode="&#x1d04;" horiz-adv-x="682" d="M641 -30 L641 201 L619 201 C616 193 612 183 609 175 C587 115 545 63 501 40 C470 26 434 18 392 18 C262 18 176 128 176 292 C176 455 266 563 402 563 C436 563 464 558 488 550 L488 550 C535 534 583 478 607 409 C610 401 614 391 617 383 L639 383 L639 610 L622 610 C621 604 618 596 617 590 C611 561 583 551 547 567 L547 567 C509 584 460 594 389 594 C181 594 42 474 42 293 C42 112 177 -9 380 -9 C450 -9 503 1 545 19 L545 19 C582 35 611 24 618 -8 C619 -14 622 -23 623 -29 L641 -30 L641 -30 Z " />
<glyph glyph-name="D_sc" unicode="&#x1d05;" horiz-adv-x="799" d="M281 25 C263 25 261 47 261 80 L261 559 C492 555 611 449 611 292 C611 116 479 25 281 25 L281 25 Z M55 563 L90 563 C120 563 140 543 140 513 L140 70 C140 40 120 20 90 20 L55 20 L55 0 L317 0 C573 0 744 99 744 292 C744 467 608 583 345 583 L55 583 L55 563 L55 563 Z " />
<glyph glyph-name="E_sc" unicode="&#x1d07;" horiz-adv-x="608" d="M35 563 L70 563 C112 563 140 535 140 493 L140 90 C140 48 112 20 70 20 L35 20 L35 0 L536 0 L538 13 L539 13 C546 54 556 110 563 151 L546 151 L539 131 C513 68 454 26 391 26 L341 26 C269 26 261 48 261 80 L261 299 L326 299 C374 299 413 267 423 219 L434 164 L451 164 L451 463 L434 463 L423 408 C413 360 374 328 326 328 L261 328 L261 557 L389 557 C437 557 480 525 496 477 L514 422 L531 422 C525 463 516 517 511 560 L511 569 L512 569 L511 582 L35 582 L35 563 L35 563 Z " />
<glyph glyph-name="J_sc" unicode="&#x1d0a;" horiz-adv-x="396" d="M336 583 L44 583 L44 563 L79 563 C109 563 129 543 129 513 L129 -93 C129 -164 82 -177 48 -177 C-12 -177 17 -80 -43 -80 C-76 -80 -98 -102 -98 -134 C-98 -186 -52 -220 18 -220 C116 -220 251 -163 251 137 L251 513 C251 543 271 563 301 563 L336 563 L336 583 L336 583 Z " />
<glyph glyph-name="K_sc" unicode="&#x1d0b;" horiz-adv-x="725" d="M623 583 L55 583 L55 563 L90 563 C120 563 140 543 140 513 L140 70 C140 40 120 20 90 20 L55 20 L55 0 L346 0 L346 20 L311 20 C281 20 261 40 261 70 L261 292 L492 0 L709 0 L709 20 L674 20 C644 20 609 40 586 70 L586 70 L354 369 C391 412 427 455 464 498 C497 537 545 563 584 563 L624 563 L623 583 L623 583 Z M374 563 C433 563 443 524 398 465 L262 292 L262 513 C262 543 282 563 312 563 L374 563 L374 563 Z " />
<glyph glyph-name="M_sc" unicode="&#x1d0d;" horiz-adv-x="845" d="M53 563 L88 563 C111 563 134 551 150 532 L131 58 C125 35 105 20 79 20 L44 20 L44 0 L256 0 L256 20 L221 20 C194 20 175 37 173 63 L181 472 C254 315 327 158 400 1 L430 1 L612 480 L626 65 C624 38 605 21 577 21 L543 21 L543 1 L833 1 L833 21 L798 21 C770 21 750 39 747 67 C741 216 735 365 729 514 C728 544 747 564 777 564 L811 564 L811 584 L610 584 L460 164 L460 167 L276 584 L54 584 L53 563 L53 563 Z " />
<glyph glyph-name="O_sc" unicode="&#x1d0f;" horiz-adv-x="799" d="M176 292 C176 455 259 563 384 563 C521 563 612 455 612 292 C612 129 521 21 385 21 C260 21 176 129 176 292 L176 292 Z M44 292 C44 111 178 -10 379 -10 C598 -10 744 111 744 292 C744 473 602 593 389 593 C182 593 44 473 44 292 L44 292 Z " />
<glyph glyph-name="P_sc" unicode="&#x1d18;" horiz-adv-x="561" d="M377 20 L342 20 C312 20 292 40 292 70 L292 258 L327 258 C455 258 541 307 541 417 C541 517 469 583 362 583 L85 583 L85 563 L120 563 C150 563 170 543 170 513 L170 70 C170 40 150 20 120 20 L85 20 L85 0 L377 0 L377 20 L377 20 Z M292 284 L292 563 C292 563 319 562 331 562 C389 562 427 512 427 437 C427 331 387 284 327 284 L292 284 L292 284 Z " />
<glyph glyph-name="T_sc" unicode="&#x1d1b;" horiz-adv-x="715" d="M50 569 C50 569 52 569 55 569 L55 568 L51 568 C34 526 11 470 -6 428 L11 428 L37 468 C68 519 124 553 175 553 L297 553 L297 70 C297 40 277 20 247 20 L212 20 L212 0 L503 0 L503 20 L468 20 C438 20 418 40 418 70 L418 553 L540 553 C591 553 647 519 678 468 L704 428 L721 428 C704 470 707 460 665 567 C665 567 663 567 660 567 L660 568 L666 568 C659 586 649 610 642 628 L630 628 L626 621 C611 598 568 583 519 583 L196 583 C147 583 104 598 89 621 L85 628 L73 628 C66 610 56 588 50 569 L50 569 Z " />
<glyph glyph-name="U_sc" unicode="&#x1d1c;" horiz-adv-x="717" d="M687 59 L652 49 C622 41 602 56 602 86 L602 583 L396 583 L396 563 L431 563 C461 563 481 543 481 513 L481 179 C450 112 386 68 320 68 C264 68 226 122 226 202 L226 583 L20 583 L20 563 L55 563 C85 563 105 543 105 513 L105 202 C105 75 171 -10 271 -10 C360 -10 444 44 481 124 L481 0 L542 0 L564 6 C604 16 650 29 687 39 L687 59 L687 59 Z " />
<glyph glyph-name="V_sc" unicode="&#x1d20;" horiz-adv-x="757" d="M14 558 C52 558 97 518 127 458 C204 302 281 146 359 -10 L383 -10 C454 146 524 303 595 458 C622 518 671 558 716 558 L730 558 L730 583 L452 583 L452 558 L492 558 C549 558 573 522 554 467 L438 185 C385 276 330 368 277 459 C242 519 258 559 318 559 L338 559 L338 584 L0 584 L0 559 L14 558 L14 558 Z " />
<glyph glyph-name="W_sc" unicode="&#x1d21;" horiz-adv-x="1013" d="M828 478 L828 478 L735 168 C684 271 633 375 582 478 C558 526 574 558 622 558 L660 558 L660 583 L328 583 L328 558 L340 558 C378 558 418 530 442 488 L490 388 L405 146 L246 484 C228 528 246 557 292 557 L310 557 L310 582 L4 582 L4 557 L15 557 C52 557 92 526 115 479 C193 315 271 151 349 -12 L380 -12 L511 340 C568 223 625 106 682 -11 L713 -11 L877 486 C895 529 935 557 980 557 L995 557 L995 582 L715 582 L715 557 L772 557 C820 557 842 525 828 477 L828 478 L828 478 Z " />
<glyph glyph-name="Z_sc" unicode="&#x1d22;" horiz-adv-x="592" d="M583 162 L566 162 L556 141 C529 81 474 39 414 33 L171 27 L550 558 L550 582 L70 582 L69 565 C67 565 64 509 56 423 L73 423 L79 444 C98 507 154 550 217 551 L417 555 L25 23 L25 -1 L546 -1 C545 -1 572 115 583 161 L583 162 L583 162 Z " />
<glyph glyph-name="Wgrave" unicode="&#x1e80;" horiz-adv-x="1149" d="M499 645 L499 645 C520 597 542 548 563 500 L450 162 L251 654 C238 697 258 725 303 725 L323 725 L323 750 L0 750 L0 725 L11 725 C49 725 88 693 109 645 L109 645 C203 427 297 208 392 -10 L426 -10 L427 -5 L588 444 C655 293 722 142 789 -9 L823 -9 L823 -4 L1016 652 C1032 696 1072 725 1118 725 L1133 725 L1133 750 L847 750 L847 725 L905 725 C952 725 976 695 965 649 L842 188 L643 656 C630 698 649 726 694 726 L733 726 L733 751 L385 751 L385 726 L397 726 C438 726 479 694 500 646 L499 645 L499 645 Z M352 989 C352 980 376 958 411 930 L556 812 L570 827 L464 982 C438 1021 417 1047 409 1047 C378 1047 352 1020 352 989 L352 989 Z " />
<glyph glyph-name="Wacute" unicode="&#x1e82;" horiz-adv-x="1149" d="M562 811 L707 929 C742 958 766 981 766 988 C766 1019 740 1046 709 1046 C702 1046 681 1020 654 981 L548 826 L562 811 L562 811 Z M499 645 L499 645 C520 597 542 548 563 500 L450 162 L251 654 C238 697 258 725 303 725 L323 725 L323 750 L0 750 L0 725 L11 725 C49 725 88 693 109 645 L109 645 C203 427 297 208 392 -10 L426 -10 L427 -5 L588 444 C655 293 722 142 789 -9 L823 -9 L823 -4 L1016 652 C1032 696 1072 725 1118 725 L1133 725 L1133 750 L847 750 L847 725 L905 725 C952 725 976 695 965 649 L842 188 L643 656 C630 698 649 726 694 726 L733 726 L733 751 L385 751 L385 726 L397 726 C438 726 479 694 500 646 L499 645 L499 645 Z " />
<glyph glyph-name="Wdieresis" unicode="&#x1e84;" horiz-adv-x="1149" d="M634 865 C678 865 708 895 708 939 C708 984 678 1014 634 1014 C589 1014 559 984 559 939 C559 895 589 865 634 865 L634 865 Z M473 865 C518 865 548 895 548 939 C548 984 518 1014 473 1014 C429 1014 399 984 399 939 C399 895 429 865 473 865 L473 865 Z M499 645 L499 645 C520 597 542 548 563 500 L450 162 L251 654 C238 697 258 725 303 725 L323 725 L323 750 L0 750 L0 725 L11 725 C49 725 88 693 109 645 L109 645 C203 427 297 208 392 -10 L426 -10 L427 -5 L588 444 C655 293 722 142 789 -9 L823 -9 L823 -4 L1016 652 C1032 696 1072 725 1118 725 L1133 725 L1133 750 L847 750 L847 725 L905 725 C952 725 976 695 965 649 L842 188 L643 656 C630 698 649 726 694 726 L733 726 L733 751 L385 751 L385 726 L397 726 C438 726 479 694 500 646 L499 645 L499 645 Z " />
<glyph glyph-name="Etilde" unicode="&#x1ebc;" horiz-adv-x="678" d="M220 870 C220 903 235 925 258 925 C308 925 376 860 426 860 C481 860 518 916 518 1001 L497 1001 C497 965 479 941 453 941 C402 941 335 1006 284 1006 C233 1006 199 952 199 870 L220 870 L220 870 Z M31 730 L66 730 C108 730 136 702 136 660 L136 90 C136 48 108 20 66 20 L31 20 L31 0 L606 0 L609 15 L608 15 C616 57 626 112 633 154 L616 154 L609 134 C583 71 524 29 461 29 L351 29 C279 29 271 49 271 80 L271 385 L396 385 C444 385 483 353 493 305 L504 250 L521 250 L521 552 L504 552 L493 497 C483 449 444 417 396 417 L271 417 L271 721 L460 721 C508 721 551 689 567 641 L585 586 L602 586 C596 629 587 684 581 728 L581 736 L582 736 L581 750 L31 750 L31 730 L31 730 Z " />
<glyph glyph-name="Ygrave" unicode="&#x1ef2;" horiz-adv-x="808" d="M241 0 L586 0 L586 20 L551 20 C509 20 481 48 481 90 L481 320 C546 438 611 557 677 675 C695 708 729 730 762 730 L802 730 L802 750 L525 750 L525 730 L586 730 C616 730 629 711 618 682 L467 361 C399 465 330 570 263 674 C242 707 249 729 282 729 L319 729 L319 749 L-3 749 L-3 729 L12 729 C45 729 82 707 104 674 L104 674 L345 315 L345 89 C345 47 317 19 275 19 L240 19 L241 0 L241 0 Z M210 987 C210 978 234 956 269 928 L414 810 L428 825 L322 980 C296 1019 275 1045 267 1045 C236 1045 210 1018 210 987 L210 987 Z " />
<glyph glyph-name="quoteleft" unicode="&#x2018;" horiz-adv-x="638" d="M90 640 C76 640 65 634 57 623 C57 695 85 746 130 750 L120 761 C62 756 23 693 23 604 C23 561 50 533 90 533 C122 533 144 555 144 587 C144 619 122 641 90 641 L90 640 L90 640 Z " />
<glyph glyph-name="quoteright" unicode="&#x2019;" horiz-adv-x="178" d="M111 669 C110 602 77 552 28 543 L39 532 C103 543 145 608 145 694 C145 734 118 760 78 760 C46 760 24 738 24 706 C24 674 46 652 78 652 C92 652 103 658 111 669 L111 669 Z " />
<glyph glyph-name="quotedblleft" unicode="&#x201c;" horiz-adv-x="638" d="M273 640 C259 640 248 634 240 623 C240 695 268 746 313 750 L303 761 C245 756 206 693 206 604 C206 561 233 533 273 533 C306 533 328 555 328 587 C328 619 306 641 273 641 L273 640 L273 640 Z M78 641 C64 641 53 635 45 624 C45 696 73 747 118 751 L108 762 C50 757 11 694 11 605 C11 562 38 534 78 534 C110 534 132 556 132 588 C132 620 110 642 78 642 L78 641 L78 641 Z " />
<glyph glyph-name="quotedblright" unicode="&#x201d;" horiz-adv-x="638" d="M307 670 C306 603 272 552 223 543 L234 532 C298 543 341 608 341 694 C341 734 314 760 273 760 C241 760 219 738 219 706 C219 674 241 652 273 652 C287 652 299 659 307 670 L307 670 Z M111 669 C110 602 77 552 28 543 L39 532 C103 543 145 608 145 694 C145 734 118 760 78 760 C46 760 24 738 24 706 C24 674 46 652 78 652 C92 652 103 658 111 669 L111 669 Z " />
<glyph glyph-name="perthousand" unicode="&#x2030;" horiz-adv-x="1152" d="M942 213 C942 302 953 361 970 361 C1007 361 1032 284 1032 168 C1032 83 1018 27 996 27 C964 27 942 101 942 213 L942 213 Z M830 192 C830 71 892 -10 986 -10 C1078 -10 1140 77 1140 207 C1140 320 1078 395 986 395 C892 395 830 314 830 192 L830 192 Z M143 574 C143 665 154 726 171 726 C208 726 233 647 233 528 C233 446 219 392 197 392 C165 392 143 465 143 574 L143 574 Z M31 552 C31 434 93 355 187 355 C279 355 341 440 341 567 C341 683 279 760 187 760 C93 760 31 677 31 552 L31 552 Z M574 213 C574 302 588 361 610 361 C656 361 686 283 686 167 C686 83 666 27 636 27 C599 27 574 101 574 213 L574 213 Z M461 191 C461 70 527 -10 626 -10 C727 -10 794 76 794 206 C794 319 727 395 626 395 C527 395 461 313 461 191 L461 191 Z M212 -16 L677 734 L626 766 L161 16 L212 -16 L212 -16 Z " />
<glyph glyph-name="fraction" unicode="&#x2044;" horiz-adv-x="481" d="M56 -16 L521 734 L469 766 L4 16 L56 -16 L56 -16 Z " />
<glyph glyph-name="Euro" unicode="&#x20ac;" horiz-adv-x="819" d="M764 750 C763 744 761 735 760 729 C754 700 730 692 699 709 C650 741 587 760 489 760 C289 760 144 652 102 482 L66 482 L54 400 L90 400 C89 384 89 367 90 351 L54 351 L42 269 L101 269 C142 99 283 -9 478 -9 C570 -9 638 9 691 41 C726 61 753 53 759 20 C760 13 762 5 763 -2 L778 -2 L778 117 L758 134 L758 134 L778 116 L778 231 L757 231 C754 224 752 214 749 207 C727 146 681 87 633 59 L633 59 C592 35 545 21 489 21 C365 21 275 117 247 268 L534 268 L546 350 L238 350 C237 366 237 383 238 399 L545 399 L557 481 L247 481 C277 631 371 725 500 725 C562 725 608 710 647 684 C689 654 728 599 748 542 C751 535 753 525 756 518 L777 518 L777 749 L764 750 L764 750 Z M690 39 L690 39 L690 39 L690 39 Z " />
<glyph glyph-name="F_sc" unicode="&#xa730;" horiz-adv-x="583" d="M35 563 L70 563 C112 563 140 535 140 493 L140 90 C140 48 112 20 70 20 L35 20 L35 0 L366 0 L366 20 L331 20 C289 20 261 48 261 90 L261 299 L316 299 C364 299 403 267 413 219 L424 164 L441 164 L441 463 L424 463 L413 408 C403 360 364 328 316 328 L261 328 L261 563 L389 563 C437 563 480 531 496 483 L514 428 L531 428 C525 472 518 530 513 573 L512 573 L511 583 L35 583 L35 563 L35 563 Z " />
<glyph glyph-name="S_sc" unicode="&#xa731;" horiz-adv-x="493" d="M66 -34 C67 -27 69 -17 70 -10 C76 23 106 33 145 16 C177 0 214 -9 251 -9 C372 -9 453 60 453 164 C453 243 397 316 287 356 C200 388 155 432 155 473 C155 537 195 569 257 563 C310 555 360 506 383 435 C386 426 390 415 393 406 L415 406 L415 614 L398 614 C397 609 394 602 393 597 C387 573 360 565 327 578 C300 588 269 594 237 594 C131 594 60 527 60 427 C60 342 112 266 214 229 C308 195 356 158 356 128 C356 69 314 30 251 30 C232 30 213 33 195 38 C147 56 102 111 80 181 C77 190 74 201 71 210 L48 210 L48 -33 L66 -34 L66 -34 Z " />
<glyph glyph-name="X_sc" unicode="&#xf078;" horiz-adv-x="736" d="M721 583 L465 583 L465 563 L519 563 C551 563 556 542 533 511 L399 344 L279 511 C257 543 264 564 296 564 L332 564 L332 584 L27 584 L27 564 L42 564 C74 564 111 543 135 512 L312 265 L151 70 C124 40 86 20 55 20 L15 20 L15 0 L268 0 L268 20 L213 20 C182 20 176 39 196 69 L328 242 C368 186 408 130 448 74 C472 41 466 19 433 19 L397 19 L397 -1 L703 -1 L703 19 L688 19 C655 19 617 41 593 74 L415 321 C470 383 525 445 580 507 C609 540 650 562 683 562 L723 562 L721 583 L721 583 Z " />
</font>
</svg>
