<?xml version="1.0" encoding="UTF-8"?>
<svg xmlns="http://www.w3.org/2000/svg" xmlns:xlink="http://www.w3.org/1999/xlink" version="1.2" >
<font id="Adallyn Light">
<font-face  font-family="Adallyn" units-per-em="1024" ascent="975" descent="-300" font-style="normal" font-weight="300" font-stretch="normal" cap-height="1042" x-height="488" underline-position="-125" underline-thickness="50" />
<missing-glyph  horiz-adv-x="100" d="" />
<glyph glyph-name="NULL" d="" />
<glyph glyph-name="CR" unicode="&#xd;" horiz-adv-x="256" d="" />
<glyph glyph-name="space" unicode="&#x20;" horiz-adv-x="250" d="" />
<glyph glyph-name="exclam" unicode="&#x21;" horiz-adv-x="201" d="M136 30 C136 77 66 77 66 30 C66 -16 136 -16 136 30 L136 30 Z M101 755 C77 755 67 721 70 671 L96 210 L105 210 L131 671 C134 721 124 755 101 755 L101 755 Z " />
<glyph glyph-name="quotedbl" unicode="&#x22;" horiz-adv-x="325" d="M216 750 C204 750 198 732 201 705 L219 560 L225 560 L243 705 C246 732 240 750 228 750 L216 750 L216 750 Z M96 750 C84 750 78 732 81 705 L99 560 L105 560 L123 705 C126 732 120 750 108 750 L96 750 L96 750 Z " />
<glyph glyph-name="numbersign" unicode="&#x23;" horiz-adv-x="534" d="M390 681 L361 479 L215 479 L244 681 L224 681 L195 479 L64 479 L58 441 L190 441 L158 219 L25 219 L19 181 L153 181 L127 0 L147 0 L173 181 L319 181 L293 0 L313 0 L339 181 L464 181 L470 219 L344 219 L376 441 L509 441 L514 479 L381 479 L410 681 L390 681 L390 681 Z M210 441 L356 441 L324 219 L178 219 L210 441 L210 441 Z " />
<glyph glyph-name="dollar" unicode="&#x24;" horiz-adv-x="546" d="M71 1 C72 8 74 17 75 24 C81 55 109 61 145 40 C170 23 197 10 226 1 L226 -75 L244 -75 L244 -3 C264 -8 284 -10 305 -10 L305 -75 L323 -75 L323 -9 C433 -1 506 74 506 183 C506 263 443 346 323 404 L323 732 C371 710 412 656 431 588 C434 578 438 564 441 554 L463 554 L463 753 L446 753 C440 724 422 707 385 724 C366 735 345 744 323 750 L323 825 L305 825 L305 754 C285 758 265 760 243 760 L243 825 L225 825 L225 759 C133 750 73 679 73 577 C73 509 125 436 225 376 L225 22 C158 44 109 111 85 201 C82 212 79 226 76 237 L53 237 L53 2 L71 1 L71 1 Z M305 739 L305 413 C282 424 261 435 242 446 L242 744 C263 744 285 742 304 737 L305 739 L305 739 Z M454 637 L454 637 L454 637 L454 637 Z M242 364 C261 353 283 343 303 333 L303 8 C281 8 261 10 241 15 L242 364 L242 364 Z M321 323 C411 273 457 215 457 164 C457 77 403 17 321 8 L321 323 L321 323 Z M223 456 C152 504 116 553 116 596 C116 676 158 732 223 742 L223 456 L223 456 Z " />
<glyph glyph-name="percent" unicode="&#x25;" horiz-adv-x="797" d="M79 565 C79 673 116 745 171 745 C235 745 278 665 278 545 C278 441 240 371 182 371 C120 371 79 449 79 565 L79 565 Z M30 555 C30 435 89 355 178 355 C266 355 325 438 325 562 C325 681 266 760 178 760 C89 760 30 678 30 555 L30 555 Z M532 204 C532 310 569 380 625 380 C693 380 738 302 738 184 C738 77 697 6 636 6 C574 6 532 85 532 204 L532 204 Z M483 194 C483 72 543 -10 632 -10 C724 -10 785 74 785 201 C785 317 724 395 632 395 C543 395 483 315 483 194 L483 194 Z M189 -7 L654 743 L632 757 L167 7 L189 -7 L189 -7 Z " />
<glyph glyph-name="ampersand" unicode="&#x26;" horiz-adv-x="906" d="M311 471 L316 466 C407 494 468 553 468 613 C468 701 407 760 315 760 C218 760 153 697 153 603 C153 568 207 501 289 404 C289 404 368 315 505 153 C431 79 351 37 274 37 C170 37 101 109 101 217 C101 322 163 411 256 439 L247 442 C128 406 49 310 49 202 C49 75 127 -9 245 -9 C336 -9 431 45 517 139 C528 126 539 113 550 99 C605 34 665 -10 700 -10 C767 -10 819 53 831 148 L822 151 C813 79 773 31 721 31 C692 31 641 69 594 125 C579 143 564 161 550 178 C617 263 677 373 723 501 L711 501 C666 376 606 270 539 191 C408 346 332 431 332 431 C250 528 196 595 196 631 C196 702 243 749 314 749 C381 749 426 696 426 617 C426 551 380 493 310 472 L311 471 L311 471 Z " />
<glyph glyph-name="quotesingle" unicode="&#x27;" horiz-adv-x="204" d="M96 750 C84 750 78 732 81 705 L99 560 L105 560 L123 705 C126 732 120 750 108 750 L96 750 L96 750 Z " />
<glyph glyph-name="parenleft" unicode="&#x28;" horiz-adv-x="198" d="M182 760 C109 673 60 539 60 273 C60 7 109 -127 182 -214 L188 -209 C135 -145 99 -20 99 273 C99 566 135 691 188 755 L182 760 L182 760 Z " />
<glyph glyph-name="parenright" unicode="&#x29;" horiz-adv-x="152" d="M7 754 C67 715 107 523 107 273 C107 23 67 -170 7 -209 L10 -214 C89 -163 142 32 142 273 C142 514 89 709 10 760 L7 754 L7 754 Z " />
<glyph glyph-name="asterisk" unicode="&#x2a;" horiz-adv-x="268" d="M261 677 L246 703 C246 703 257 685 261 677 L261 677 Z M261 677 C282 688 267 718 245 704 L150 633 L164 751 C166 776 132 776 134 751 L148 634 L53 704 C31 719 17 689 38 678 C42 686 53 704 53 704 L38 678 L147 631 L38 584 C16 573 32 544 53 558 C48 566 38 584 38 584 L53 558 L148 628 L134 511 C132 486 166 486 164 511 L150 629 L245 558 C266 544 282 573 260 584 C260 584 250 566 245 558 L260 584 L152 631 L261 677 L261 677 Z " />
<glyph glyph-name="plus" unicode="&#x2b;" horiz-adv-x="620" d="M291 460 L291 268 L100 268 L100 232 L291 232 L291 40 L329 40 L329 232 L520 232 L520 268 L329 268 L329 460 L291 460 L291 460 Z " />
<glyph glyph-name="comma" unicode="&#x2c;" horiz-adv-x="261" d="M169 25 C179 -51 142 -101 65 -101 L65 -113 C141 -113 191 -63 191 12 C191 74 165 115 125 115 C89 115 65 91 65 55 C65 19 89 -5 125 -5 C145 -5 161 6 169 24 L169 25 L169 25 Z " />
<glyph glyph-name="hyphen" unicode="&#x2d;" horiz-adv-x="430" d="M80 264 L350 264 L350 306 L80 306 L80 264 L80 264 Z " />
<glyph glyph-name="period" unicode="&#x2e;" horiz-adv-x="195" d="M160 30 C160 77 90 77 90 30 C90 -16 160 -16 160 30 L160 30 Z " />
<glyph glyph-name="slash" unicode="&#x2f;" horiz-adv-x="379" d="M319 770 L37 -80 L67 -80 L349 770 L319 770 L319 770 Z " />
<glyph glyph-name="zero" unicode="0" horiz-adv-x="606" d="M73 250 C73 379 166 489 305 489 C430 489 537 393 537 250 C537 121 444 11 305 11 C180 11 73 107 73 250 L73 250 Z M49 250 C49 94 167 -10 305 -10 C459 -10 561 110 561 250 C561 406 443 510 305 510 C151 510 49 390 49 250 L49 250 Z " />
<glyph glyph-name="one" unicode="1" horiz-adv-x="330" d="M275 20 L240 20 C210 20 190 40 190 70 L190 430 C190 460 210 480 240 480 L275 480 L275 500 L55 500 L55 480 L90 480 C120 480 140 460 140 430 L140 70 C140 40 120 20 90 20 L55 20 L55 0 L275 0 L275 20 L275 20 Z " />
<glyph glyph-name="two" unicode="2" horiz-adv-x="527" d="M486 109 L478 99 C450 66 407 44 368 44 L113 44 C289 142 427 248 427 343 C427 443 360 510 260 510 C156 510 70 424 45 294 L56 291 C77 400 148 472 234 472 C320 472 378 416 378 331 C378 218 215 103 23 5 L29 1 C27 1 25 1 23 1 L425 1 L452 44 C466 64 482 86 494 104 C492 106 486 110 486 110 L486 109 L486 109 Z M38 5 C39 6 40 7 41 8 C40 7 39 6 38 5 L38 5 Z " />
<glyph glyph-name="three" unicode="3" horiz-adv-x="409" d="M18 -222 L20 -232 C229 -210 369 -118 369 -2 C369 99 270 164 116 166 C270 234 372 308 372 383 C372 459 309 509 214 509 C121 509 44 445 22 350 L33 347 C51 423 115 474 194 474 C269 474 319 431 319 366 C319 290 229 223 93 165 L93 155 C227 136 316 67 316 -18 C316 -122 197 -204 18 -223 L18 -222 L18 -222 Z " />
<glyph glyph-name="four" unicode="4" horiz-adv-x="620" d="M591 108 L583 83 C576 56 552 38 525 38 L415 38 L415 530 L409 530 L15 9 L15 0 L365 0 L365 -220 L415 -220 L415 0 L520 0 C551 0 568 -21 568 -55 C568 -55 584 -58 587 -58 C590 -35 594 -5 598 19 L595 19 L595 20 C596 20 597 20 597 20 C601 44 606 78 609 104 C609 106 591 108 591 108 L591 108 Z M366 443 L365 442 L365 38 L61 38 L366 443 L366 443 Z " />
<glyph glyph-name="five" unicode="5" horiz-adv-x="428" d="M60 -232 C263 -207 398 -95 398 47 C398 185 271 268 83 268 L121 455 L340 457 L344 478 C345 482 346 486 347 490 L349 501 C352 520 356 540 360 556 L341 556 L337 546 C326 519 301 501 274 501 L112 501 L57 224 L66 216 L89 216 C249 216 355 142 355 31 C355 -99 237 -200 60 -222 L60 -232 L60 -232 Z " />
<glyph glyph-name="six" unicode="6" horiz-adv-x="567" d="M550 750 C255 687 59 502 59 287 C59 109 153 -10 294 -10 C427 -10 515 90 515 239 C515 374 422 464 282 464 C210 464 154 431 124 377 C173 556 333 696 553 743 L550 750 L550 750 Z M109 260 C109 373 177 449 278 449 C391 449 467 366 467 242 C467 99 397 4 293 4 C183 4 109 106 109 260 L109 260 Z " />
<glyph glyph-name="seven" unicode="7" horiz-adv-x="447" d="M37 407 C41 405 53 400 53 400 L63 415 C81 442 110 460 137 460 L416 460 L116 -220 L154 -220 L442 485 L442 500 L154 500 C127 500 112 516 119 540 L120 547 C120 547 108 552 104 554 C96 537 88 520 79 500 L79 500 C65 468 52 437 37 407 L37 407 Z " />
<glyph glyph-name="eight" unicode="8" horiz-adv-x="543" d="M237 384 C244 381 251 378 258 375 C382 325 464 277 464 197 C464 80 388 2 275 2 C165 2 91 71 91 174 C91 263 149 346 237 384 L237 384 Z M223 390 C115 342 46 258 46 173 C46 63 137 -11 274 -11 C411 -11 502 64 502 176 C502 293 425 354 307 406 C408 451 474 524 474 596 C474 694 393 759 271 759 C150 759 70 688 70 582 C70 503 129 435 222 389 L223 390 L223 390 Z M295 411 C288 414 281 417 274 420 C176 460 110 525 110 601 C110 692 178 752 280 752 C371 752 431 688 431 592 C431 518 377 447 295 411 L295 411 Z " />
<glyph glyph-name="nine" unicode="9" horiz-adv-x="567" d="M17 -250 C312 -187 508 -2 508 213 C508 391 414 510 273 510 C140 510 52 410 52 261 C52 126 145 36 285 36 C357 36 413 69 443 123 C394 -56 234 -196 14 -243 L17 -250 L17 -250 Z M458 240 C458 127 390 51 289 51 C176 51 100 134 100 258 C100 401 170 496 274 496 C384 496 458 394 458 240 L458 240 Z " />
<glyph glyph-name="colon" unicode="&#x3a;" horiz-adv-x="135" d="M160 420 C160 467 90 467 90 420 C90 374 160 374 160 420 L160 420 Z M160 30 C160 77 90 77 90 30 C90 -16 160 -16 160 30 L160 30 Z " />
<glyph glyph-name="semicolon" unicode="&#x3b;" horiz-adv-x="261" d="M160 420 C160 467 90 467 90 420 C90 374 160 374 160 420 L160 420 Z M169 25 C179 -51 142 -101 65 -101 L65 -113 C141 -113 191 -63 191 12 C191 74 165 115 125 115 C89 115 65 91 65 55 C65 19 89 -5 125 -5 C145 -5 161 6 169 24 L169 25 L169 25 Z " />
<glyph glyph-name="equal" unicode="&#x3d;" horiz-adv-x="528" d="M78 211 L78 189 L458 189 L458 211 L78 211 L78 211 Z M78 311 L78 289 L458 289 L458 311 L78 311 L78 311 Z " />
<glyph glyph-name="question" unicode="&#x3f;" horiz-adv-x="305" d="M160 30 C160 77 90 77 90 30 C90 -16 160 -16 160 30 L160 30 Z M121 175 C121 175 123 359 125 360 C209 360 243 397 281 453 C298 478 309 518 309 553 C309 677 243 760 145 760 C117 760 98 745 98 723 C98 708 109 698 125 698 C136 698 152 707 163 707 C242 707 295 643 295 547 C295 527 285 498 270 476 C243 436 214 410 108 410 C104 408 113 175 113 175 L121 175 L121 175 Z " />
<glyph glyph-name="at" unicode="&#x40;" horiz-adv-x="1139" d="M1044 0 C977 -144 789 -240 575 -240 C286 -240 94 -40 94 259 C94 558 284 757 570 757 C855 757 1045 591 1045 343 C1045 140 968 4 852 4 C733 4 673 82 702 200 L772 480 L725 480 L702 386 C691 449 643 490 576 490 C410 490 299 373 299 197 C299 87 368 13 471 13 C546 13 613 61 649 137 C653 45 725 -13 844 -13 C989 -13 1085 129 1085 343 C1085 599 879 770 571 770 C262 770 56 566 56 259 C56 -45 268 -248 587 -248 C803 -248 993 -149 1062 0 L1044 0 L1044 0 Z M695 356 L656 200 C632 105 569 41 497 41 C411 41 353 107 353 207 C353 368 442 476 575 476 C647 476 695 428 695 356 L695 356 Z " />
<glyph glyph-name="A" unicode="A" horiz-adv-x="753" d="M295 0 L295 25 L268 25 C210 25 183 62 198 119 L252 287 L511 287 C527 233 544 178 559 125 C577 65 549 25 489 25 L462 25 L462 0 L745 0 L745 25 L731 25 C685 25 641 62 622 119 C556 336 492 554 424 770 L419 770 C422 751 406 736 377 732 L380 722 L184 125 C164 65 111 25 51 25 L16 25 L16 0 L295 0 L295 0 Z M257 302 L386 703 L506 302 L257 302 L257 302 Z " />
<glyph glyph-name="B" unicode="B" horiz-adv-x="632" d="M316 6 L266 6 C235 6 214 40 214 91 L214 385 L314 385 C442 385 527 314 527 198 C527 42 443 6 316 6 L316 6 Z M334 0 C489 0 592 38 592 198 C592 305 516 380 398 393 C507 415 576 480 576 569 C576 678 523 750 299 750 L70 750 L70 725 L105 725 C135 725 155 705 155 675 L155 75 C155 45 135 25 105 25 L70 25 L70 0 L334 0 L334 0 Z M308 395 L214 395 L214 738 L275 738 C471 738 517 668 517 563 C517 462 433 395 308 395 L308 395 Z " />
<glyph glyph-name="C" unicode="C" horiz-adv-x="706" d="M661 2 L661 216 L639 216 C636 207 632 194 629 185 C607 114 558 51 506 29 L506 29 C469 13 427 4 378 4 C226 4 125 152 125 375 C125 597 231 745 389 745 C437 745 476 737 509 723 L509 723 C558 702 606 639 628 565 C631 556 635 543 638 534 L660 534 L660 745 L643 745 C642 739 639 732 638 726 C631 697 603 693 567 715 C521 744 464 761 382 761 C188 761 59 607 59 376 C59 145 184 -9 372 -9 C452 -9 513 8 563 38 C601 60 630 54 637 23 C638 17 641 9 642 3 L661 2 L661 2 Z M650 130 L650 130 L650 130 L650 130 Z " />
<glyph glyph-name="D" unicode="D" horiz-adv-x="769" d="M276 12 C220 12 214 39 214 80 L214 738 L287 738 C553 738 690 593 690 375 C690 135 524 12 276 12 L276 12 Z M70 730 L105 730 C135 730 155 710 155 680 L155 70 C155 40 135 20 105 20 L70 20 L70 0 L294 0 C571 0 755 128 755 375 C755 600 612 750 334 750 L70 750 L70 730 L70 730 Z " />
<glyph glyph-name="E" unicode="E" horiz-adv-x="621" d="M524 750 L50 750 L50 730 L85 730 C127 730 155 702 155 660 L155 90 C155 48 127 20 85 20 L50 20 L50 0 L549 0 L550 6 L550 6 C557 46 566 98 573 138 L556 138 L549 118 C523 55 464 13 401 13 L294 13 C222 13 214 40 214 80 L214 385 L339 385 C387 385 426 353 436 305 L447 250 L464 250 L464 534 L447 534 L436 479 C426 431 387 399 339 399 L214 399 L214 738 L401 738 C449 738 492 706 508 658 L526 603 L543 603 C537 643 528 696 522 737 L523 737 L524 750 L524 750 Z " />
<glyph glyph-name="F" unicode="F" horiz-adv-x="596" d="M50 730 L85 730 C127 730 155 702 155 660 L155 90 C155 48 127 20 85 20 L50 20 L50 0 L319 0 L319 20 L284 20 C242 20 214 48 214 90 L214 385 L329 385 C377 385 416 353 426 305 L437 250 L454 250 L454 534 L437 534 L426 479 C416 431 377 399 329 399 L214 399 L214 740 L400 740 C448 740 491 708 507 660 L525 605 L542 605 C536 647 530 703 524 745 L525 745 L524 750 L50 750 L50 730 L50 730 Z " />
<glyph glyph-name="G" unicode="G" horiz-adv-x="781" d="M644 745 C643 739 640 732 639 726 C632 697 604 693 568 715 L568 715 C522 744 465 761 383 761 C189 761 60 607 60 376 C60 145 187 -9 377 -9 C482 -9 564 5 636 29 L638 29 L638 29 C665 38 691 49 716 61 L712 69 C688 58 664 48 638 39 L638 215 C638 266 670 300 719 300 L733 300 L733 325 L484 325 L484 300 L498 300 C547 300 579 266 579 215 C579 167 579 112 579 72 C573 36 518 11 434 4 C459 6 487 8 512 10 C474 5 432 2 386 2 C229 2 124 151 124 375 C124 597 230 745 388 745 C436 745 475 737 508 723 L508 723 C557 702 605 639 627 565 C630 556 634 543 637 534 L659 534 L659 745 L644 745 L644 745 Z M434 4 C419 3 403 2 386 2 C399 2 416 3 434 4 L434 4 Z " />
<glyph glyph-name="H" unicode="H" horiz-adv-x="820" d="M760 20 L725 20 C695 20 675 40 675 70 L675 680 C675 710 695 730 725 730 L760 730 L760 750 L531 750 L531 730 L566 730 C596 730 616 710 616 680 L616 398 L250 398 L250 680 C250 710 270 730 300 730 L335 730 L335 750 L106 750 L106 730 L141 730 C171 730 191 710 191 680 L191 70 C191 40 171 20 141 20 L106 20 L106 0 L335 0 L335 20 L300 20 C270 20 250 40 250 70 L250 383 L616 383 L616 70 C616 40 596 20 566 20 L531 20 L531 0 L760 0 L760 20 L760 20 Z " />
<glyph glyph-name="I" unicode="I" horiz-adv-x="364" d="M304 20 L269 20 C239 20 219 40 219 70 L219 680 C219 710 239 730 269 730 L304 730 L304 750 L76 750 L76 730 L111 730 C141 730 161 710 161 680 L161 70 C161 40 141 20 111 20 L76 20 L76 0 L304 0 L304 20 L304 20 Z " />
<glyph glyph-name="J" unicode="J" horiz-adv-x="364" d="M304 750 L76 750 L76 730 L111 730 C140 730 160 712 162 684 C162 531 161 151 161 -34 C161 -173 98 -199 52 -199 C23 -199 37 -152 8 -152 C-8 -152 -19 -162 -19 -178 C-19 -203 3 -220 37 -220 C114 -220 221 -172 221 78 C221 233 220 547 220 684 C222 712 242 730 271 730 L306 730 L304 750 L304 750 Z " />
<glyph glyph-name="K" unicode="K" horiz-adv-x="717" d="M640 750 L373 750 L373 730 L411 730 C467 730 477 695 436 641 L214 375 L214 680 C214 710 234 730 264 730 L299 730 L299 750 L70 750 L70 730 L105 730 C135 730 155 710 155 680 L155 70 C155 40 135 20 105 20 L70 20 L70 0 L299 0 L299 20 L264 20 C234 20 214 40 214 70 L214 375 L556 0 L699 0 L699 20 L664 20 C634 20 596 40 569 70 L569 70 L261 412 C334 496 407 581 480 665 C514 704 562 730 601 730 L641 730 L640 750 L640 750 Z " />
<glyph glyph-name="L" unicode="L" horiz-adv-x="629" d="M578 135 L561 135 L554 115 C528 52 469 10 406 10 L299 10 C227 10 219 38 219 80 L219 680 C219 710 239 730 269 730 L304 730 L304 750 L76 750 L76 730 L111 730 C141 730 161 710 161 680 L161 70 C161 40 141 20 111 20 L76 20 L76 0 L554 0 C562 40 571 94 578 135 L578 135 Z " />
<glyph glyph-name="M" unicode="M" horiz-adv-x="863" d="M828 750 L687 750 L457 76 L206 750 L58 750 L58 730 L93 730 C117 730 140 717 154 696 L136 59 C131 35 112 20 86 20 L51 20 L51 0 L240 0 L240 20 L205 20 C178 20 159 36 156 61 L169 663 L431 0 L446 0 L447 5 L689 694 C694 486 700 277 705 69 C706 39 686 19 656 19 L622 19 L622 -1 L850 -1 L850 19 L815 19 C785 19 765 39 764 69 L746 682 C746 710 766 729 795 729 L829 729 L828 750 L828 750 Z " />
<glyph glyph-name="N" unicode="N" horiz-adv-x="743" d="M42 730 L77 730 C106 730 137 712 157 684 L157 70 C157 40 137 20 107 20 L72 20 L72 0 L259 0 L259 20 L224 20 C194 20 174 40 174 70 L174 70 L172 662 C321 441 470 219 620 -1 L632 -1 L636 679 L636 679 C636 709 656 729 686 729 L721 729 L721 749 L534 749 L534 729 L569 729 C599 729 619 709 619 679 L620 104 L615 111 L185 749 L41 749 L42 730 L42 730 Z " />
<glyph glyph-name="O" unicode="O" horiz-adv-x="780" d="M99 375 C99 597 208 745 372 745 C545 745 661 597 661 375 C661 153 544 5 368 5 C207 5 99 153 99 375 L99 375 Z M35 375 C35 144 167 -10 365 -10 C581 -10 725 144 725 375 C725 606 585 760 375 760 C171 760 35 606 35 375 L35 375 Z " />
<glyph glyph-name="P" unicode="P" horiz-adv-x="539" d="M275 20 L240 20 C210 20 190 40 190 70 L190 353 L240 353 C407 353 519 411 519 541 C519 666 427 750 290 750 L46 750 L46 730 L81 730 C111 730 131 710 131 680 L131 70 C131 40 111 20 81 20 L46 20 L46 0 L275 0 L275 20 L275 20 Z M190 365 L190 740 L275 740 C388 740 464 664 464 550 C464 422 374 365 240 365 L190 365 L190 365 Z " />
<glyph glyph-name="Q" unicode="Q" horiz-adv-x="801" d="M1101 -47 L1097 -42 C1065 -69 944 -87 796 -87 C607 -87 431 -56 348 -8 C362 -10 376 -11 391 -11 C607 -11 751 143 751 374 C751 605 611 759 401 759 C197 759 61 605 61 374 C61 183 151 45 294 2 C416 -82 614 -138 789 -138 C913 -138 1038 -102 1102 -49 L1101 -47 L1101 -47 Z M126 373 C126 595 235 743 399 743 C572 743 688 595 688 373 C688 146 564 -5 379 -5 C227 -5 126 146 126 373 L126 373 Z " />
<glyph glyph-name="R" unicode="R" horiz-adv-x="718" d="M70 730 L105 730 C135 730 155 710 155 680 L155 70 C155 40 135 20 105 20 L70 20 L70 0 L299 0 L299 20 L264 20 C234 20 214 40 214 70 L214 365 L350 365 C364 334 426 225 511 80 C556 3 564 0 709 0 L709 12 C623 12 618 15 580 80 C495 226 433 333 411 370 C508 385 569 439 569 541 C569 667 483 751 354 751 L71 751 L70 730 L70 730 Z M215 381 L215 739 L336 739 C437 739 504 665 504 553 C504 434 444 381 354 381 L215 381 L215 381 Z " />
<glyph glyph-name="S" unicode="S" horiz-adv-x="546" d="M455 638 L455 638 L455 638 L455 638 Z M71 1 C72 8 74 17 75 24 C81 55 109 61 145 40 C191 8 246 -10 303 -10 C425 -10 507 67 507 183 C507 264 443 348 320 406 C187 468 119 539 119 598 C119 686 170 745 247 745 C267 745 286 743 304 739 C360 725 411 666 432 588 C435 578 439 564 442 554 L464 554 L464 753 L447 753 C441 724 423 707 386 724 C347 747 298 760 247 760 C143 760 74 686 74 576 C74 496 146 409 285 344 C401 290 460 223 460 165 C460 71 397 9 303 9 C269 9 236 16 206 29 C154 53 107 120 86 201 C83 212 80 226 77 237 L54 237 L54 2 L71 1 L71 1 Z " />
<glyph glyph-name="T" unicode="T" horiz-adv-x="788" d="M-1 610 L16 610 L42 650 C73 701 129 735 180 735 L358 735 L358 70 C358 40 338 20 308 20 L273 20 L273 0 L502 0 L502 20 L467 20 C437 20 417 40 417 70 L417 735 L595 735 C646 735 702 701 733 650 L759 610 L776 610 C759 650 764 637 723 742 C722 744 720 747 720 749 C714 764 707 781 702 794 L690 794 L686 787 C671 764 628 749 579 749 L196 749 C147 749 104 764 89 787 L85 794 L73 794 C68 780 61 763 56 748 L56 748 L56 747 C41 704 18 650 0 608 L-1 610 L-1 610 Z " />
<glyph glyph-name="U" unicode="U" horiz-adv-x="698" d="M668 51 L633 41 C603 33 583 48 583 78 L583 750 L439 750 L439 730 L474 730 C504 730 524 710 524 680 L524 176 C483 87 389 28 289 28 C223 28 179 105 179 220 L179 750 L35 750 L35 730 L70 730 C100 730 120 710 120 680 L120 220 C120 82 178 -10 265 -10 C376 -10 480 54 524 149 L524 0 L554 0 L576 6 C606 14 640 23 667 31 L668 51 L668 51 Z " />
<glyph glyph-name="V" unicode="V" horiz-adv-x="785" d="M123 637 C200 421 277 205 354 -11 L366 -11 C446 201 526 413 606 624 C629 684 674 724 720 724 L734 724 L734 749 L479 749 L479 724 L520 724 C577 724 603 688 586 633 L385 79 L193 625 C172 685 198 725 258 725 L284 725 L284 750 L15 750 L15 725 L26 725 C62 725 99 690 121 637 L123 637 L123 637 Z " />
<glyph glyph-name="W" unicode="W" horiz-adv-x="1115" d="M533 645 L533 645 L579 500 L394 71 C332 262 270 454 209 645 C194 693 215 725 263 725 L285 725 L285 750 L43 750 L43 725 L54 725 C92 725 128 693 144 645 L144 645 C216 427 288 210 358 -9 L373 -9 L586 476 C637 314 688 152 739 -9 L754 -9 L954 656 C971 699 1011 727 1056 727 L1071 727 L1071 752 L816 752 L816 727 L874 727 C922 727 944 695 930 647 L930 647 L766 84 C710 272 653 460 597 647 C583 695 605 727 653 727 L695 727 L695 752 L428 752 L428 727 L440 727 C481 727 518 695 533 647 L533 645 L533 645 Z " />
<glyph glyph-name="X" unicode="X" horiz-adv-x="800" d="M294 750 L63 750 L63 730 L78 730 C110 730 144 709 165 678 L363 362 L162 72 C139 41 103 20 71 20 L31 20 L31 0 L261 0 L261 20 L204 20 C172 20 164 40 183 71 L370 350 C427 258 485 166 542 74 C563 41 554 19 521 19 L484 19 L484 -1 L716 -1 L716 19 L701 19 C668 19 633 41 612 74 L411 394 L605 674 C628 707 665 729 698 729 L738 729 L738 749 L506 749 L506 729 L563 729 C596 729 603 707 581 674 L581 674 L403 406 L235 674 C215 706 222 729 256 729 L293 729 L294 750 L294 750 Z " />
<glyph glyph-name="Y" unicode="Y" horiz-adv-x="734" d="M254 750 L22 750 L22 730 L37 730 C70 730 105 708 125 675 L125 675 L334 329 L334 90 C334 48 306 20 264 20 L229 20 L229 0 L498 0 L498 20 L463 20 C421 20 393 48 393 90 L393 331 C456 446 519 561 582 675 C600 708 634 730 667 730 L707 730 L707 750 L469 750 L469 730 L529 730 C562 730 572 708 555 675 L555 675 L387 350 C323 458 257 567 194 675 C174 708 183 730 216 730 L254 730 L254 750 L254 750 Z " />
<glyph glyph-name="Z" unicode="Z" horiz-adv-x="652" d="M75 609 L81 629 C100 692 156 735 219 735 L546 737 L25 11 L25 -1 L606 -1 C611 23 620 62 639 142 L622 142 L613 122 C586 62 530 21 471 16 L95 12 L610 737 L610 749 L70 749 C70 736 66 698 58 608 L75 609 L75 609 Z " />
<glyph glyph-name="bracketleft" unicode="&#x5b;" horiz-adv-x="285" d="M125 735 L335 735 L335 750 L108 750 L108 -195 L335 -195 L335 -180 L125 -180 L125 735 L125 735 Z " />
<glyph glyph-name="backslash" unicode="&#x5c;" horiz-adv-x="337" d="M37 770 L297 -80 L327 -80 L67 770 L37 770 L37 770 Z " />
<glyph glyph-name="bracketright" unicode="&#x5d;" horiz-adv-x="288" d="M161 735 L161 -180 L-49 -180 L-49 -195 L178 -195 L178 750 L-49 750 L-49 735 L161 735 L161 735 Z " />
<glyph glyph-name="asciicircum" unicode="&#x5e;" horiz-adv-x="340" d="M188 765 C184 770 176 783 170 783 C164 783 156 770 152 765 L21 563 L28 558 L170 726 L312 558 L319 563 L188 765 L188 765 Z " />
<glyph glyph-name="underscore" unicode="&#x5f;" horiz-adv-x="455" d="M5 -50 L5 -78 L450 -78 L450 -50 L5 -50 L5 -50 Z " />
<glyph glyph-name="grave" unicode="&#x60;" horiz-adv-x="340" d="M-36 755 C-36 749 -8 722 34 686 L173 563 L180 570 L57 709 C21 751 -6 779 -12 779 C-25 779 -36 768 -36 755 L-36 755 Z " />
<glyph glyph-name="a" unicode="a" horiz-adv-x="513" d="M523 77 L512 83 C506 52 484 31 457 31 C423 31 400 51 400 81 C400 81 400 360 399 358 C399 463 345 510 263 510 C149 510 73 414 73 360 C73 339 83 325 98 325 C118 325 131 340 131 350 C131 363 111 382 111 392 C111 429 165 495 245 495 C308 495 350 458 350 377 L350 265 C109 191 53 164 53 80 C53 26 99 -10 168 -10 C215 -10 275 17 349 87 C349 31 380 -5 436 -5 C479 -5 513 28 522 77 L523 77 L523 77 Z M349 253 L349 99 C287 40 235 17 194 17 C139 17 103 45 103 86 C103 168 150 192 349 253 L349 253 Z " />
<glyph glyph-name="b" unicode="b" horiz-adv-x="528" d="M77 743 L77 743 C55 738 31 732 11 727 L11 715 L31 714 C56 713 73 696 75 672 L73 127 L71 126 C72 124 73 122 74 120 L74 76 L74 1 L77 1 L98 75 C135 23 199 -9 272 -9 C398 -9 482 95 482 252 C482 404 395 506 264 506 C217 506 162 474 124 425 L124 752 L99 752 C93 748 86 745 76 745 L77 743 L77 743 Z M124 113 L124 410 C159 455 206 485 244 485 C354 485 427 390 427 247 C427 100 367 2 276 2 C210 2 152 46 126 112 L124 113 L124 113 Z " />
<glyph glyph-name="c" unicode="c" horiz-adv-x="465" d="M435 128 L428 131 C399 65 332 21 262 21 C162 21 95 118 95 264 C95 405 161 499 259 499 C314 499 364 461 385 405 C390 390 400 380 410 380 C430 380 440 390 435 405 C412 468 343 510 262 510 C132 510 45 402 45 239 C45 90 125 -10 245 -10 C322 -10 398 45 435 128 L435 128 Z " />
<glyph glyph-name="d" unicode="d" horiz-adv-x="592" d="M377 714 L397 713 C424 712 442 693 442 666 L442 456 C406 489 354 511 298 511 C131 511 45 409 45 255 C45 100 136 -4 273 -4 C340 -4 407 26 442 73 L442 1 L467 1 L577 31 L577 51 L542 41 C512 33 492 48 492 78 L492 751 L467 751 C440 744 404 734 377 727 L377 714 L377 714 Z M442 376 L442 90 C409 46 350 17 294 17 C175 17 96 117 96 268 C96 405 167 496 304 496 C365 496 422 441 442 376 L442 376 Z " />
<glyph glyph-name="e" unicode="e" horiz-adv-x="512" d="M87 340 L482 340 C460 462 382 510 278 510 C127 510 27 433 27 235 C27 88 118 -10 255 -10 C353 -10 440 48 471 134 L465 135 C441 68 361 23 267 23 C155 23 80 116 80 255 C80 287 83 315 88 340 L87 340 L87 340 Z M425 355 L91 352 C116 457 184 499 276 499 C347 499 403 458 425 355 L425 355 Z " />
<glyph glyph-name="f" unicode="f" horiz-adv-x="342" d="M244 20 L194 20 C185 20 179 26 179 35 L179 474 L332 474 L332 500 L179 500 C179 644 219 740 296 740 C335 740 372 635 404 635 C431 635 449 653 449 680 C449 725 395 755 314 755 C192 755 129 653 129 500 L26 480 L26 474 L129 474 L129 35 C129 26 123 20 114 20 L64 20 L64 0 L244 0 L244 20 L244 20 Z " />
<glyph glyph-name="g" unicode="g" horiz-adv-x="520" d="M540 459 C540 477 527 489 508 489 C469 489 434 467 416 432 C388 481 333 511 261 511 C155 511 85 447 85 351 C85 273 130 216 203 197 C116 188 61 155 61 109 C61 62 98 29 157 21 C95 3 54 -41 54 -91 C54 -173 140 -228 270 -228 C400 -228 486 -168 486 -77 C486 11 434 69 302 69 L187 69 C129 69 90 91 90 124 C90 164 158 190 261 190 C367 190 437 255 437 352 C437 379 432 403 422 424 C435 446 456 459 479 459 C491 459 508 439 520 439 C533 439 541 448 541 461 L540 459 L540 459 Z M261 202 C185 202 135 262 135 352 C135 441 185 500 261 500 C337 500 387 441 387 352 C387 262 337 202 261 202 L261 202 Z M168 20 C173 20 178 20 183 20 L296 20 C403 20 444 -23 444 -87 C444 -164 375 -216 272 -216 C165 -216 94 -161 94 -78 C94 -33 123 4 168 20 L168 20 Z " />
<glyph glyph-name="h" unicode="h" horiz-adv-x="537" d="M93 743 L93 743 C71 737 47 731 28 725 L28 713 L48 713 C75 712 93 693 93 666 L93 35 C93 26 87 20 78 20 L28 20 L28 0 L208 0 L208 20 L158 20 C149 20 143 26 143 35 L143 362 C182 430 243 475 294 475 C359 475 392 431 392 365 L392 35 C392 26 386 20 377 20 L327 20 L327 0 L507 0 L507 20 L457 20 C448 20 442 26 442 35 L442 365 C442 452 401 510 322 510 C261 510 189 456 143 376 L143 751 L118 751 C112 747 102 743 93 743 L93 743 Z " />
<glyph glyph-name="i" unicode="i" horiz-adv-x="248" d="M160 647 C160 690 96 690 96 647 C96 605 160 605 160 647 L160 647 Z M103 493 L103 493 C81 487 57 481 38 475 L38 463 L58 463 C85 462 103 443 103 416 L103 35 C103 26 97 20 88 20 L38 20 L38 0 L218 0 L218 20 L168 20 C159 20 153 26 153 35 L153 501 L128 501 C122 497 112 493 103 493 L103 493 Z " />
<glyph glyph-name="j" unicode="j" horiz-adv-x="235" d="M152 647 C152 690 88 690 88 647 C88 605 152 605 152 647 L152 647 Z M95 493 L95 492 C69 486 51 481 30 476 L30 464 L50 463 C77 463 95 444 95 417 L95 30 C95 -46 77 -106 50 -122 C17 -122 -27 -99 -60 -99 C-87 -99 -105 -115 -105 -139 C-105 -168 -81 -186 -45 -184 C-38 -184 4 -162 60 -129 C111 -100 145 -36 145 30 L145 501 L121 501 C114 497 104 494 94 494 L95 493 L95 493 Z " />
<glyph glyph-name="k" unicode="k" horiz-adv-x="480" d="M477 500 L219 500 L219 480 L271 480 C331 480 325 440 257 380 L144 281 C144 446 143 606 143 751 L118 751 C112 747 102 743 93 743 L93 743 C71 737 47 731 28 725 L28 713 L48 713 C75 712 93 693 93 666 L93 35 C93 26 87 20 78 20 L28 20 L28 0 L208 0 L208 20 L158 20 C150 20 144 25 143 32 C144 114 144 197 144 279 C202 206 261 133 318 60 C337 36 334 20 310 20 L301 20 L301 0 L464 0 L464 20 C432 20 402 37 375 70 L375 70 L191 303 L323 418 C366 455 420 480 458 480 L478 480 L477 500 L477 500 Z " />
<glyph glyph-name="l" unicode="l" horiz-adv-x="238" d="M29 715 L49 714 C75 713 93 695 94 669 C94 465 93 141 93 35 C93 26 87 20 78 20 L28 20 L28 0 L208 0 L208 20 L158 20 C149 20 143 26 143 35 L143 750 L118 750 L114 748 C88 741 55 734 30 727 L29 715 L29 715 Z " />
<glyph glyph-name="m" unicode="m" horiz-adv-x="832" d="M93 493 L93 492 C71 487 47 481 28 475 L28 463 L48 463 C75 462 93 443 93 416 L93 35 C93 26 87 20 78 20 L28 20 L28 0 L208 0 L208 20 L158 20 C149 20 143 26 143 35 L143 367 C180 431 237 473 286 473 C361 473 390 430 390 365 L390 35 C390 26 384 20 375 20 L325 20 L325 0 L505 0 L505 20 L455 20 C446 20 440 26 440 35 L440 365 C440 367 440 369 440 371 C477 432 533 473 583 473 C658 473 687 430 687 365 L687 35 C687 26 681 20 672 20 L622 20 L622 0 L802 0 L802 20 L752 20 C743 20 737 26 737 35 L737 365 C737 452 699 510 603 510 C549 510 484 460 439 385 C433 461 394 510 306 510 C253 510 188 458 143 381 L143 500 L118 500 C111 496 104 493 93 493 L93 493 Z " />
<glyph glyph-name="n" unicode="n" horiz-adv-x="535" d="M93 492 C71 487 47 482 28 476 L28 464 L48 464 C75 463 93 444 93 417 L93 35 C93 26 87 20 78 20 L28 20 L28 0 L208 0 L208 20 L158 20 C149 20 143 26 143 35 L143 362 C181 429 235 473 277 473 C352 473 390 416 390 330 L390 35 C390 26 384 20 375 20 L325 20 L325 0 L505 0 L505 20 L455 20 C446 20 440 26 440 35 L440 330 C440 438 394 510 306 510 C255 510 189 456 143 376 L143 500 L118 500 C112 497 102 492 93 492 L93 492 Z " />
<glyph glyph-name="o" unicode="o" horiz-adv-x="577" d="M82 250 C82 397 163 495 284 495 C405 495 486 397 486 250 C486 103 405 5 284 5 C163 5 82 103 82 250 L82 250 Z M27 250 C27 94 130 -10 284 -10 C438 -10 541 94 541 250 C541 406 438 510 284 510 C130 510 27 406 27 250 L27 250 Z " />
<glyph glyph-name="p" unicode="p" horiz-adv-x="536" d="M78 492 C56 487 32 482 13 476 L13 464 L33 464 C60 463 78 444 78 417 L78 -185 C78 -194 72 -200 63 -200 L13 -200 L13 -220 L193 -220 L193 -200 L143 -200 C134 -200 128 -194 128 -185 L128 49 C160 15 202 -5 248 -5 C394 -5 491 114 491 254 C491 408 404 510 273 510 C216 510 159 480 128 434 L128 499 L103 499 C97 496 87 491 78 491 L78 492 L78 492 Z M128 129 L128 413 C158 458 206 488 250 488 C362 488 436 388 436 237 C436 113 362 7 251 7 C200 7 150 56 128 129 L128 129 Z " />
<glyph glyph-name="q" unicode="q" horiz-adv-x="557" d="M552 -200 L502 -200 C493 -200 487 -194 487 -185 L487 500 L484 500 L468 440 L458 431 C420 480 357 510 285 510 C121 510 36 408 36 254 C36 99 130 -5 271 -5 C336 -5 400 24 436 68 L436 -184 C436 -193 430 -199 421 -199 L371 -199 L371 -219 L551 -219 L552 -200 L552 -200 Z M436 390 L436 86 C403 44 347 17 292 17 C170 17 88 117 88 268 C88 407 154 500 282 500 C350 500 410 456 436 390 L436 390 Z " />
<glyph glyph-name="r" unicode="r" horiz-adv-x="363" d="M30 465 L50 464 C76 463 94 445 95 419 C95 291 95 110 95 35 C95 26 89 20 80 20 L30 20 L30 0 L210 0 L210 20 L160 20 C151 20 145 26 145 35 L145 365 C169 439 217 488 267 488 C284 488 295 474 295 453 C295 416 354 415 354 453 C354 488 328 511 290 511 C226 511 169 464 145 392 L145 500 L120 500 L116 498 C90 491 57 484 32 477 L30 465 L30 465 Z " />
<glyph glyph-name="s" unicode="s" horiz-adv-x="422" d="M344 345 L344 509 L331 509 C330 505 328 501 327 497 C324 486 299 486 263 496 C241 505 216 510 191 510 C113 510 61 462 61 389 C61 328 113 268 214 231 C292 203 332 156 332 107 C332 44 289 2 225 2 C221 2 178 7 179 9 C128 25 87 81 77 149 C76 157 74 166 73 174 L59 174 L59 0 L73 0 C74 4 75 9 76 13 C80 28 109 25 148 7 L148 7 C172 -4 198 -10 225 -10 C313 -10 371 42 371 121 C371 180 325 237 236 269 C144 302 97 354 97 406 C97 474 152 509 224 495 C276 483 316 434 326 368 C327 361 328 351 329 344 L344 345 L344 345 Z " />
<glyph glyph-name="t" unicode="t" horiz-adv-x="339" d="M299 500 L145 500 L145 620 L141 620 L30 500 L30 490 L95 490 L95 129 C95 29 142 -10 212 -10 C253 -10 299 21 329 68 L324 71 C302 37 264 14 227 14 C177 14 144 43 144 118 L145 474 L299 474 L299 500 L299 500 Z " />
<glyph glyph-name="u" unicode="u" horiz-adv-x="526" d="M511 47 L486 40 C456 32 436 47 436 77 L436 500 L321 500 L321 480 L371 480 C380 480 386 474 386 465 L386 136 C356 68 300 24 241 24 C180 24 139 78 139 159 L139 499 L24 499 L24 479 L74 479 C83 479 89 473 89 464 L89 159 C89 57 140 -11 217 -11 C286 -11 352 40 386 119 L386 -2 L411 -2 C441 6 481 17 511 25 L511 47 L511 47 Z " />
<glyph glyph-name="v" unicode="v" horiz-adv-x="506" d="M476 500 L330 500 L330 480 L339 480 C369 480 381 458 370 425 L370 425 L226 -10 L240 -10 C291 135 341 280 392 425 C406 463 435 480 476 480 L476 500 L476 500 Z M190 500 L11 500 L11 480 C51 480 80 464 93 428 L227 -10 L255 76 C220 192 184 309 149 425 C139 458 152 480 182 480 L191 480 L190 500 L190 500 Z " />
<glyph glyph-name="w" unicode="w" horiz-adv-x="765" d="M209 500 L29 500 L29 480 C68 480 95 465 108 430 L236 -10 L251 -10 L365 319 L459 -10 L474 -10 C527 135 579 280 632 425 C646 463 676 480 717 480 L717 500 L571 500 L571 480 L580 480 C609 480 621 459 611 427 L491 80 L390 433 C384 468 402 482 436 482 L436 502 L256 502 L256 482 C297 482 326 465 336 427 L336 427 L357 351 L266 81 C233 196 199 312 166 427 C156 460 170 482 200 482 L209 482 L209 500 L209 500 Z " />
<glyph glyph-name="x" unicode="x" horiz-adv-x="517" d="M479 500 L338 500 L338 480 L346 480 C373 480 378 458 359 425 L359 425 L276 282 L184 434 C170 462 176 480 201 480 L209 480 L209 500 L30 500 L30 480 C72 480 106 463 129 425 L129 425 L243 237 L123 70 C95 36 62 21 22 21 L22 1 L161 1 L161 21 L153 21 C127 21 125 43 147 76 L249 227 L346 68 C360 40 354 22 329 22 L321 22 L321 2 L500 2 L500 22 C458 22 424 39 401 77 L401 77 L283 271 C315 323 347 375 379 427 C402 465 437 482 479 482 L479 500 L479 500 Z " />
<glyph glyph-name="y" unicode="y" horiz-adv-x="508" d="M496 500 L350 500 L350 480 L359 480 C388 480 401 458 390 425 C390 425 285 105 275 76 C234 192 192 309 152 425 C140 458 152 480 181 480 L190 480 L190 500 L12 500 L12 480 C53 480 82 463 96 425 L96 425 L247 -2 C228 -55 209 -109 190 -162 C183 -181 169 -194 163 -194 C141 -194 136 -175 114 -175 C89 -175 73 -191 73 -216 C73 -242 91 -260 118 -260 C140 -260 183 -223 203 -168 C233 -83 263 2 293 87 C333 200 372 313 412 426 C426 464 455 481 496 481 L496 500 L496 500 Z " />
<glyph glyph-name="z" unicode="z" horiz-adv-x="475" d="M424 116 L418 101 C396 51 349 17 298 16 L102 13 L435 488 L435 500 L121 500 C103 500 92 511 93 527 L95 532 L73 532 C69 520 65 503 62 491 C62 491 50 448 33 384 L52 384 L61 399 C90 449 143 483 195 484 L375 487 L40 12 L40 0 L368 0 L428 -6 C428 -6 428 -4 429 0 L430 0 C430 28 438 66 443 116 L424 116 L424 116 Z " />
<glyph glyph-name="braceleft" unicode="&#x7b;" horiz-adv-x="242" d="M237 750 L197 750 C121 750 70 700 70 625 L70 383 C70 339 49 314 15 314 L15 306 C50 306 70 280 70 230 L70 -5 C70 -80 121 -130 197 -130 L237 -130 L237 -122 L208 -122 C149 -122 109 -75 109 -5 L109 202 C109 261 83 303 43 310 C83 317 109 356 109 412 L109 626 C109 696 149 743 208 743 L237 743 L237 750 L237 750 Z " />
<glyph glyph-name="bar" unicode="&#x7c;" horiz-adv-x="159" d="M60 800 L60 -250 L99 -250 L99 800 L60 800 L60 800 Z " />
<glyph glyph-name="braceright" unicode="&#x7d;" horiz-adv-x="242" d="M5 750 L5 742 L34 742 C93 742 133 695 133 625 L133 411 C133 355 159 316 199 309 C159 302 133 260 133 201 L133 -6 C133 -76 93 -123 34 -123 L5 -123 L5 -131 L45 -131 C121 -131 172 -81 172 -6 L172 229 C172 279 192 305 227 305 L227 313 C193 313 172 338 172 382 L172 624 C172 699 121 749 45 749 L5 750 L5 750 Z " />
<glyph glyph-name="asciitilde" unicode="&#x7e;" horiz-adv-x="340" d="M28 310 C28 350 46 376 73 376 C127 376 198 311 252 311 C293 311 321 349 321 406 L312 406 C312 370 293 346 264 346 C210 346 139 411 85 411 C45 411 19 371 19 310 L28 310 L28 310 Z " />
<glyph glyph-name="exclamdown" unicode="&#xa1;" horiz-adv-x="201" d="M65 470 C65 423 135 423 135 470 C135 516 65 516 65 470 L65 470 Z M100 -255 C124 -255 134 -221 131 -171 C131 -171 105 152 105 290 L96 290 C96 152 70 -171 70 -171 C67 -221 77 -255 100 -255 L100 -255 Z " />
<glyph glyph-name="cent" unicode="&#xa2;" horiz-adv-x="465" d="M238 575 L238 509 C121 496 45 392 45 239 C45 93 122 -6 238 -10 L238 -75 L256 -75 L256 -10 C329 -5 400 49 435 128 L428 131 C399 64 330 18 256 21 L256 499 C313 500 363 462 384 405 C389 390 399 380 409 380 C429 380 439 390 434 405 C411 469 340 512 256 510 L256 575 L238 575 L238 575 Z M238 23 C151 37 95 130 95 264 C95 395 152 485 238 498 L238 23 L238 23 Z " />
<glyph glyph-name="acute" unicode="&#xb4;" horiz-adv-x="340" d="M177 563 L316 686 C358 724 386 751 386 755 C386 768 375 779 362 779 C358 779 331 751 293 709 L170 570 L177 563 L177 563 Z " />
<glyph glyph-name="questiondown" unicode="&#xbf;" horiz-adv-x="305" d="M145 470 C145 423 215 423 215 470 C215 516 145 516 145 470 L145 470 Z M184 325 C184 325 182 141 180 140 C96 140 62 103 24 47 C7 22 -4 -18 -4 -53 C-4 -177 62 -260 160 -260 C188 -260 207 -245 207 -223 C207 -208 196 -198 180 -198 C169 -198 153 -207 142 -207 C63 -207 10 -143 10 -47 C10 -27 20 2 35 24 C62 64 91 90 197 90 C194 89 192 325 192 325 L184 325 L184 325 Z " />
<glyph glyph-name="Agrave" unicode="&#xc0;" horiz-adv-x="753" d="M201 1005 C201 999 229 972 271 936 L410 813 L416 820 L294 959 C258 1001 232 1029 226 1029 C213 1029 201 1018 201 1005 L201 1005 Z M295 0 L295 25 L268 25 C210 25 183 62 198 119 L252 287 L511 287 C527 233 544 178 559 125 C577 65 549 25 489 25 L462 25 L462 0 L745 0 L745 25 L731 25 C685 25 641 62 622 119 C556 336 492 554 424 770 L419 770 C422 751 406 736 377 732 L380 722 L184 125 C164 65 111 25 51 25 L16 25 L16 0 L295 0 L295 0 Z M257 302 L386 703 L506 302 L257 302 L257 302 Z " />
<glyph glyph-name="Aacute" unicode="&#xc1;" horiz-adv-x="753" d="M413 813 L552 936 C594 974 622 1001 622 1005 C622 1018 611 1029 597 1029 C593 1029 567 1001 529 959 L407 820 L413 813 L413 813 Z M295 0 L295 25 L268 25 C210 25 183 62 198 119 L252 287 L511 287 C527 233 544 178 559 125 C577 65 549 25 489 25 L462 25 L462 0 L745 0 L745 25 L731 25 C685 25 641 62 622 119 C556 336 492 554 424 770 L419 770 C422 751 406 736 377 732 L380 722 L184 125 C164 65 111 25 51 25 L16 25 L16 0 L295 0 L295 0 Z M257 302 L386 703 L506 302 L257 302 L257 302 Z " />
<glyph glyph-name="Acircumflex" unicode="&#xc2;" horiz-adv-x="753" d="M424 1015 C420 1020 412 1033 407 1033 C401 1033 393 1020 389 1015 L257 813 L264 808 L406 977 L549 808 L556 813 L424 1015 L424 1015 Z M295 0 L295 25 L268 25 C210 25 183 62 198 119 L252 287 L511 287 C527 233 544 178 559 125 C577 65 549 25 489 25 L462 25 L462 0 L745 0 L745 25 L731 25 C685 25 641 62 622 119 C556 336 492 554 424 770 L419 770 C422 751 406 736 377 732 L380 722 L184 125 C164 65 111 25 51 25 L16 25 L16 0 L295 0 L295 0 Z M257 302 L386 703 L506 302 L257 302 L257 302 Z " />
<glyph glyph-name="Atilde" unicode="&#xc3;" horiz-adv-x="753" d="M265 870 C265 910 283 936 310 936 C364 936 435 871 489 871 C530 871 557 909 557 966 L548 966 C548 930 529 906 501 906 C447 906 375 971 321 971 C282 971 256 931 256 870 L265 870 L265 870 Z M295 0 L295 25 L268 25 C210 25 183 62 198 119 L252 287 L511 287 C527 233 544 178 559 125 C577 65 549 25 489 25 L462 25 L462 0 L745 0 L745 25 L731 25 C685 25 641 62 622 119 C556 336 492 554 424 770 L419 770 C422 751 406 736 377 732 L380 722 L184 125 C164 65 111 25 51 25 L16 25 L16 0 L295 0 L295 0 Z M257 302 L386 703 L506 302 L257 302 L257 302 Z " />
<glyph glyph-name="Adieresis" unicode="&#xc4;" horiz-adv-x="753" d="M508 897 C508 940 443 941 443 897 C443 855 508 856 508 897 L508 897 Z M370 897 C370 941 305 940 305 897 C305 856 370 855 370 897 L370 897 Z M295 0 L295 25 L268 25 C210 25 183 62 198 119 L252 287 L511 287 C527 233 544 178 559 125 C577 65 549 25 489 25 L462 25 L462 0 L745 0 L745 25 L731 25 C685 25 641 62 622 119 C556 336 492 554 424 770 L419 770 C422 751 406 736 377 732 L380 722 L184 125 C164 65 111 25 51 25 L16 25 L16 0 L295 0 L295 0 Z M257 302 L386 703 L506 302 L257 302 L257 302 Z " />
<glyph glyph-name="Aring" unicode="&#xc5;" horiz-adv-x="753" d="M325 905 C325 955 358 988 407 988 C456 988 488 955 488 905 C488 860 451 822 407 822 C363 822 325 860 325 905 L325 905 Z M310 905 C310 854 355 810 407 810 C459 810 503 854 503 905 C503 962 465 1000 407 1000 C349 1000 310 962 310 905 L310 905 Z M295 0 L295 25 L268 25 C210 25 183 62 198 119 L252 287 L511 287 C527 233 544 178 559 125 C577 65 549 25 489 25 L462 25 L462 0 L745 0 L745 25 L731 25 C685 25 641 62 622 119 C556 336 492 554 424 770 L419 770 C422 751 406 736 377 732 L380 722 L184 125 C164 65 111 25 51 25 L16 25 L16 0 L295 0 L295 0 Z M257 302 L386 703 L506 302 L257 302 L257 302 Z " />
<glyph glyph-name="Egrave" unicode="&#xc8;" horiz-adv-x="621" d="M134 1005 C134 999 162 972 204 936 L343 813 L349 820 L227 959 C191 1001 165 1029 159 1029 C146 1029 134 1018 134 1005 L134 1005 Z M524 750 L50 750 L50 730 L85 730 C127 730 155 702 155 660 L155 90 C155 48 127 20 85 20 L50 20 L50 0 L549 0 L550 6 L550 6 C557 46 566 98 573 138 L556 138 L549 118 C523 55 464 13 401 13 L294 13 C222 13 214 40 214 80 L214 385 L339 385 C387 385 426 353 436 305 L447 250 L464 250 L464 534 L447 534 L436 479 C426 431 387 399 339 399 L214 399 L214 738 L401 738 C449 738 492 706 508 658 L526 603 L543 603 C537 643 528 696 522 737 L523 737 L524 750 L524 750 Z " />
<glyph glyph-name="Eacute" unicode="&#xc9;" horiz-adv-x="621" d="M346 813 L485 936 C527 974 555 1001 555 1005 C555 1018 544 1029 530 1029 C526 1029 500 1001 462 959 L340 820 L346 813 L346 813 Z M524 750 L50 750 L50 730 L85 730 C127 730 155 702 155 660 L155 90 C155 48 127 20 85 20 L50 20 L50 0 L549 0 L550 6 L550 6 C557 46 566 98 573 138 L556 138 L549 118 C523 55 464 13 401 13 L294 13 C222 13 214 40 214 80 L214 385 L339 385 C387 385 426 353 436 305 L447 250 L464 250 L464 534 L447 534 L436 479 C426 431 387 399 339 399 L214 399 L214 738 L401 738 C449 738 492 706 508 658 L526 603 L543 603 C537 643 528 696 522 737 L523 737 L524 750 L524 750 Z " />
<glyph glyph-name="Ecircumflex" unicode="&#xca;" horiz-adv-x="621" d="M357 1015 C353 1020 345 1033 340 1033 C334 1033 326 1020 322 1015 L190 813 L197 808 L339 977 L482 808 L489 813 L357 1015 L357 1015 Z M524 750 L50 750 L50 730 L85 730 C127 730 155 702 155 660 L155 90 C155 48 127 20 85 20 L50 20 L50 0 L549 0 L550 6 L550 6 C557 46 566 98 573 138 L556 138 L549 118 C523 55 464 13 401 13 L294 13 C222 13 214 40 214 80 L214 385 L339 385 C387 385 426 353 436 305 L447 250 L464 250 L464 534 L447 534 L436 479 C426 431 387 399 339 399 L214 399 L214 738 L401 738 C449 738 492 706 508 658 L526 603 L543 603 C537 643 528 696 522 737 L523 737 L524 750 L524 750 Z " />
<glyph glyph-name="Edieresis" unicode="&#xcb;" horiz-adv-x="621" d="M441 897 C441 940 376 941 376 897 C376 855 441 856 441 897 L441 897 Z M303 897 C303 941 238 940 238 897 C238 856 303 855 303 897 L303 897 Z M524 750 L50 750 L50 730 L85 730 C127 730 155 702 155 660 L155 90 C155 48 127 20 85 20 L50 20 L50 0 L549 0 L550 6 L550 6 C557 46 566 98 573 138 L556 138 L549 118 C523 55 464 13 401 13 L294 13 C222 13 214 40 214 80 L214 385 L339 385 C387 385 426 353 436 305 L447 250 L464 250 L464 534 L447 534 L436 479 C426 431 387 399 339 399 L214 399 L214 738 L401 738 C449 738 492 706 508 658 L526 603 L543 603 C537 643 528 696 522 737 L523 737 L524 750 L524 750 Z " />
<glyph glyph-name="Igrave" unicode="&#xcc;" horiz-adv-x="364" d="M-16 1005 C-16 999 12 972 54 936 L193 813 L200 820 L77 959 C41 1001 14 1029 8 1029 C-5 1029 -16 1018 -16 1005 L-16 1005 Z M304 20 L269 20 C239 20 219 40 219 70 L219 680 C219 710 239 730 269 730 L304 730 L304 750 L76 750 L76 730 L111 730 C141 730 161 710 161 680 L161 70 C161 40 141 20 111 20 L76 20 L76 0 L304 0 L304 20 L304 20 Z " />
<glyph glyph-name="Iacute" unicode="&#xcd;" horiz-adv-x="364" d="M197 813 L336 936 C378 974 406 1001 406 1005 C406 1018 395 1029 382 1029 C378 1029 351 1001 313 959 L190 820 L197 813 L197 813 Z M304 20 L269 20 C239 20 219 40 219 70 L219 680 C219 710 239 730 269 730 L304 730 L304 750 L76 750 L76 730 L111 730 C141 730 161 710 161 680 L161 70 C161 40 141 20 111 20 L76 20 L76 0 L304 0 L304 20 L304 20 Z " />
<glyph glyph-name="Icircumflex" unicode="&#xce;" horiz-adv-x="364" d="M208 1015 C204 1020 196 1033 190 1033 C184 1033 176 1020 172 1015 L41 813 L48 808 L190 976 L332 808 L339 813 L208 1015 L208 1015 Z M304 20 L269 20 C239 20 219 40 219 70 L219 680 C219 710 239 730 269 730 L304 730 L304 750 L76 750 L76 730 L111 730 C141 730 161 710 161 680 L161 70 C161 40 141 20 111 20 L76 20 L76 0 L304 0 L304 20 L304 20 Z " />
<glyph glyph-name="Idieresis" unicode="&#xcf;" horiz-adv-x="364" d="M291 897 C291 941 226 940 226 897 C226 856 291 855 291 897 L291 897 Z M154 897 C154 940 89 941 89 897 C89 855 154 856 154 897 L154 897 Z M304 20 L269 20 C239 20 219 40 219 70 L219 680 C219 710 239 730 269 730 L304 730 L304 750 L76 750 L76 730 L111 730 C141 730 161 710 161 680 L161 70 C161 40 141 20 111 20 L76 20 L76 0 L304 0 L304 20 L304 20 Z " />
<glyph glyph-name="Ntilde" unicode="&#xd1;" horiz-adv-x="766" d="M239 870 C239 910 257 936 284 936 C338 936 409 871 463 871 C504 871 532 909 532 966 L523 966 C523 930 504 906 475 906 C421 906 350 971 296 971 C256 971 230 931 230 870 L239 870 L239 870 Z M26 730 L61 730 C90 730 121 712 141 684 L141 70 C141 40 121 20 91 20 L56 20 L56 0 L243 0 L243 20 L208 20 C178 20 158 40 158 70 L158 70 L156 662 C305 441 454 219 604 -1 L616 -1 L620 679 L620 679 C620 709 640 729 670 729 L705 729 L705 749 L518 749 L518 729 L553 729 C583 729 603 709 603 679 L604 104 L599 111 L169 749 L25 749 L26 730 L26 730 Z " />
<glyph glyph-name="Ograve" unicode="&#xd2;" horiz-adv-x="806" d="M125 375 C125 597 234 745 398 745 C571 745 687 597 687 375 C687 153 570 5 394 5 C233 5 125 153 125 375 L125 375 Z M61 375 C61 144 193 -10 391 -10 C607 -10 751 144 751 375 C751 606 611 760 401 760 C197 760 61 606 61 375 L61 375 Z M195 1005 C195 999 223 972 265 936 L404 813 L411 820 L288 959 C252 1001 225 1029 219 1029 C206 1029 195 1018 195 1005 L195 1005 Z " />
<glyph glyph-name="Oacute" unicode="&#xd3;" horiz-adv-x="806" d="M408 813 L547 936 C589 974 617 1001 617 1005 C617 1018 606 1029 593 1029 C589 1029 562 1001 524 959 L401 820 L408 813 L408 813 Z M125 375 C125 597 234 745 398 745 C571 745 687 597 687 375 C687 153 570 5 394 5 C233 5 125 153 125 375 L125 375 Z M61 375 C61 144 193 -10 391 -10 C607 -10 751 144 751 375 C751 606 611 760 401 760 C197 760 61 606 61 375 L61 375 Z " />
<glyph glyph-name="Ocircumflex" unicode="&#xd4;" horiz-adv-x="806" d="M125 375 C125 597 234 745 398 745 C571 745 687 597 687 375 C687 153 570 5 394 5 C233 5 125 153 125 375 L125 375 Z M61 375 C61 144 193 -10 391 -10 C607 -10 751 144 751 375 C751 606 611 760 401 760 C197 760 61 606 61 375 L61 375 Z M419 1015 C415 1020 407 1033 401 1033 C395 1033 387 1020 383 1015 L252 813 L259 808 L401 976 L543 808 L550 813 L419 1015 L419 1015 Z " />
<glyph glyph-name="Otilde" unicode="&#xd5;" horiz-adv-x="806" d="M259 870 C259 910 277 936 304 936 C358 936 429 871 483 871 C524 871 552 909 552 966 L543 966 C543 930 524 906 495 906 C441 906 370 971 316 971 C276 971 250 931 250 870 L259 870 L259 870 Z M125 375 C125 597 234 745 398 745 C571 745 687 597 687 375 C687 153 570 5 394 5 C233 5 125 153 125 375 L125 375 Z M61 375 C61 144 193 -10 391 -10 C607 -10 751 144 751 375 C751 606 611 760 401 760 C197 760 61 606 61 375 L61 375 Z " />
<glyph glyph-name="Odieresis" unicode="&#xd6;" horiz-adv-x="806" d="M502 897 C502 941 437 940 437 897 C437 856 502 855 502 897 L502 897 Z M365 897 C365 940 300 941 300 897 C300 855 365 856 365 897 L365 897 Z M125 375 C125 597 234 745 398 745 C571 745 687 597 687 375 C687 153 570 5 394 5 C233 5 125 153 125 375 L125 375 Z M61 375 C61 144 193 -10 391 -10 C607 -10 751 144 751 375 C751 606 611 760 401 760 C197 760 61 606 61 375 L61 375 Z " />
<glyph glyph-name="Oslash" unicode="&#xd8;" horiz-adv-x="806" d="M71 -19 L163 84 C220 24 298 -10 391 -10 C607 -10 751 144 751 375 C751 484 720 576 665 643 L762 751 L742 769 L647 663 C586 725 502 760 402 760 C198 760 62 606 62 375 C62 264 92 171 146 104 L52 -1 L71 -19 L71 -19 Z M618 630 L179 140 C145 202 126 282 126 375 C126 597 235 745 399 745 C491 745 567 703 618 630 L618 630 Z M633 606 C668 545 688 466 688 374 C688 152 571 4 395 4 C311 4 241 45 194 116 L633 606 L633 606 Z " />
<glyph glyph-name="Ugrave" unicode="&#xd9;" horiz-adv-x="698" d="M146 1005 C146 999 174 972 216 936 L355 813 L361 820 L239 959 C203 1001 177 1029 171 1029 C158 1029 146 1018 146 1005 L146 1005 Z M668 51 L633 41 C603 33 583 48 583 78 L583 750 L439 750 L439 730 L474 730 C504 730 524 710 524 680 L524 176 C483 87 389 28 289 28 C223 28 179 105 179 220 L179 750 L35 750 L35 730 L70 730 C100 730 120 710 120 680 L120 220 C120 82 178 -10 265 -10 C376 -10 480 54 524 149 L524 0 L554 0 L576 6 C606 14 640 23 667 31 L668 51 L668 51 Z " />
<glyph glyph-name="Uacute" unicode="&#xda;" horiz-adv-x="698" d="M358 813 L497 936 C539 974 567 1001 567 1005 C567 1018 556 1029 542 1029 C538 1029 512 1001 474 959 L352 820 L358 813 L358 813 Z M668 51 L633 41 C603 33 583 48 583 78 L583 750 L439 750 L439 730 L474 730 C504 730 524 710 524 680 L524 176 C483 87 389 28 289 28 C223 28 179 105 179 220 L179 750 L35 750 L35 730 L70 730 C100 730 120 710 120 680 L120 220 C120 82 178 -10 265 -10 C376 -10 480 54 524 149 L524 0 L554 0 L576 6 C606 14 640 23 667 31 L668 51 L668 51 Z " />
<glyph glyph-name="Ucircumflex" unicode="&#xdb;" horiz-adv-x="698" d="M369 1015 C365 1020 357 1033 352 1033 C346 1033 338 1020 334 1015 L202 813 L209 808 L351 977 L494 808 L501 813 L369 1015 L369 1015 Z M668 51 L633 41 C603 33 583 48 583 78 L583 750 L439 750 L439 730 L474 730 C504 730 524 710 524 680 L524 176 C483 87 389 28 289 28 C223 28 179 105 179 220 L179 750 L35 750 L35 730 L70 730 C100 730 120 710 120 680 L120 220 C120 82 178 -10 265 -10 C376 -10 480 54 524 149 L524 0 L554 0 L576 6 C606 14 640 23 667 31 L668 51 L668 51 Z " />
<glyph glyph-name="Udieresis" unicode="&#xdc;" horiz-adv-x="698" d="M453 897 C453 940 388 941 388 897 C388 855 453 856 453 897 L453 897 Z M315 897 C315 941 250 940 250 897 C250 856 315 855 315 897 L315 897 Z M668 51 L633 41 C603 33 583 48 583 78 L583 750 L439 750 L439 730 L474 730 C504 730 524 710 524 680 L524 176 C483 87 389 28 289 28 C223 28 179 105 179 220 L179 750 L35 750 L35 730 L70 730 C100 730 120 710 120 680 L120 220 C120 82 178 -10 265 -10 C376 -10 480 54 524 149 L524 0 L554 0 L576 6 C606 14 640 23 667 31 L668 51 L668 51 Z " />
<glyph glyph-name="Yacute" unicode="&#xdd;" horiz-adv-x="711" d="M368 813 L507 936 C549 974 577 1001 577 1005 C577 1018 566 1029 552 1029 C548 1029 522 1001 484 959 L362 820 L368 813 L368 813 Z M252 750 L20 750 L20 730 L35 730 C68 730 103 708 123 675 L123 675 L332 329 L332 90 C332 48 304 20 262 20 L227 20 L227 0 L496 0 L496 20 L461 20 C419 20 391 48 391 90 L391 331 C454 446 517 561 580 675 C598 708 632 730 665 730 L705 730 L705 750 L467 750 L467 730 L527 730 C560 730 570 708 553 675 L553 675 L385 350 C321 458 255 567 192 675 C172 708 181 730 214 730 L252 730 L252 750 L252 750 Z " />
<glyph glyph-name="agrave" unicode="&#xe0;" horiz-adv-x="513" d="M523 77 L512 83 C506 52 484 31 457 31 C423 31 400 51 400 81 C400 81 400 360 399 358 C399 463 345 510 263 510 C149 510 73 414 73 360 C73 339 83 325 98 325 C118 325 131 340 131 350 C131 363 111 382 111 392 C111 429 165 495 245 495 C308 495 350 458 350 377 L350 265 C109 191 53 164 53 80 C53 26 99 -10 168 -10 C215 -10 275 17 349 87 C349 31 380 -5 436 -5 C479 -5 513 28 522 77 L523 77 L523 77 Z M56 755 C56 749 84 722 126 686 L265 563 L272 570 L149 709 C113 751 86 779 80 779 C67 779 56 768 56 755 L56 755 Z M349 253 L349 99 C287 40 235 17 194 17 C139 17 103 45 103 86 C103 168 150 192 349 253 L349 253 Z " />
<glyph glyph-name="aacute" unicode="&#xe1;" horiz-adv-x="513" d="M270 563 L409 686 C451 724 479 751 479 755 C479 768 468 779 455 779 C451 779 424 751 386 709 L263 570 L270 563 L270 563 Z M523 77 L512 83 C506 52 484 31 457 31 C423 31 400 51 400 81 C400 81 400 360 399 358 C399 463 345 510 263 510 C149 510 73 414 73 360 C73 339 83 325 98 325 C118 325 131 340 131 350 C131 363 111 382 111 392 C111 429 165 495 245 495 C308 495 350 458 350 377 L350 265 C109 191 53 164 53 80 C53 26 99 -10 168 -10 C215 -10 275 17 349 87 C349 31 380 -5 436 -5 C479 -5 513 28 522 77 L523 77 L523 77 Z M349 253 L349 99 C287 40 235 17 194 17 C139 17 103 45 103 86 C103 168 150 192 349 253 L349 253 Z " />
<glyph glyph-name="acircumflex" unicode="&#xe2;" horiz-adv-x="513" d="M523 77 L512 83 C506 52 484 31 457 31 C423 31 400 51 400 81 C400 81 400 360 399 358 C399 463 345 510 263 510 C149 510 73 414 73 360 C73 339 83 325 98 325 C118 325 131 340 131 350 C131 363 111 382 111 392 C111 429 165 495 245 495 C308 495 350 458 350 377 L350 265 C109 191 53 164 53 80 C53 26 99 -10 168 -10 C215 -10 275 17 349 87 C349 31 380 -5 436 -5 C479 -5 513 28 522 77 L523 77 L523 77 Z M280 765 C276 770 268 783 262 783 C256 783 248 770 244 765 L113 563 L120 558 L262 726 L404 558 L411 563 L280 765 L280 765 Z M349 253 L349 99 C287 40 235 17 194 17 C139 17 103 45 103 86 C103 168 150 192 349 253 L349 253 Z " />
<glyph glyph-name="atilde" unicode="&#xe3;" horiz-adv-x="513" d="M121 620 C121 660 139 686 166 686 C220 686 291 621 345 621 C386 621 414 659 414 716 L405 716 C405 680 386 656 357 656 C303 656 232 721 178 721 C138 721 112 681 112 620 L121 620 L121 620 Z M523 77 L512 83 C506 52 484 31 457 31 C423 31 400 51 400 81 C400 81 400 360 399 358 C399 463 345 510 263 510 C149 510 73 414 73 360 C73 339 83 325 98 325 C118 325 131 340 131 350 C131 363 111 382 111 392 C111 429 165 495 245 495 C308 495 350 458 350 377 L350 265 C109 191 53 164 53 80 C53 26 99 -10 168 -10 C215 -10 275 17 349 87 C349 31 380 -5 436 -5 C479 -5 513 28 522 77 L523 77 L523 77 Z M349 253 L349 99 C287 40 235 17 194 17 C139 17 103 45 103 86 C103 168 150 192 349 253 L349 253 Z " />
<glyph glyph-name="adieresis" unicode="&#xe4;" horiz-adv-x="513" d="M364 647 C364 691 299 690 299 647 C299 606 364 605 364 647 L364 647 Z M227 647 C227 690 162 691 162 647 C162 605 227 606 227 647 L227 647 Z M523 77 L512 83 C506 52 484 31 457 31 C423 31 400 51 400 81 C400 81 400 360 399 358 C399 463 345 510 263 510 C149 510 73 414 73 360 C73 339 83 325 98 325 C118 325 131 340 131 350 C131 363 111 382 111 392 C111 429 165 495 245 495 C308 495 350 458 350 377 L350 265 C109 191 53 164 53 80 C53 26 99 -10 168 -10 C215 -10 275 17 349 87 C349 31 380 -5 436 -5 C479 -5 513 28 522 77 L523 77 L523 77 Z M349 253 L349 99 C287 40 235 17 194 17 C139 17 103 45 103 86 C103 168 150 192 349 253 L349 253 Z " />
<glyph glyph-name="aring" unicode="&#xe5;" horiz-adv-x="513" d="M181 655 C181 705 214 738 263 738 C312 738 345 705 345 655 C345 610 307 572 263 572 C219 572 181 610 181 655 L181 655 Z M167 655 C167 604 211 560 263 560 C315 560 359 604 359 655 C359 712 321 750 263 750 C205 750 167 712 167 655 L167 655 Z M523 77 L512 83 C506 52 484 31 457 31 C423 31 400 51 400 81 C400 81 400 360 399 358 C399 463 345 510 263 510 C149 510 73 414 73 360 C73 339 83 325 98 325 C118 325 131 340 131 350 C131 363 111 382 111 392 C111 429 165 495 245 495 C308 495 350 458 350 377 L350 265 C109 191 53 164 53 80 C53 26 99 -10 168 -10 C215 -10 275 17 349 87 C349 31 380 -5 436 -5 C479 -5 513 28 522 77 L523 77 L523 77 Z M349 253 L349 99 C287 40 235 17 194 17 C139 17 103 45 103 86 C103 168 150 192 349 253 L349 253 Z " />
<glyph glyph-name="egrave" unicode="&#xe8;" horiz-adv-x="530" d="M90 755 C90 749 118 722 160 686 L299 563 L306 570 L183 709 C147 751 120 779 114 779 C101 779 90 768 90 755 L90 755 Z M105 340 L500 340 C478 462 400 510 296 510 C145 510 45 433 45 235 C45 88 136 -10 273 -10 C371 -10 458 48 489 134 L483 135 C459 68 379 23 285 23 C173 23 98 116 98 255 C98 287 101 315 106 340 L105 340 L105 340 Z M443 355 L109 352 C134 457 202 499 294 499 C365 499 421 458 443 355 L443 355 Z " />
<glyph glyph-name="eacute" unicode="&#xe9;" horiz-adv-x="530" d="M303 563 L442 686 C484 724 512 751 512 755 C512 768 501 779 488 779 C484 779 457 751 419 709 L296 570 L303 563 L303 563 Z M105 340 L500 340 C478 462 400 510 296 510 C145 510 45 433 45 235 C45 88 136 -10 273 -10 C371 -10 458 48 489 134 L483 135 C459 68 379 23 285 23 C173 23 98 116 98 255 C98 287 101 315 106 340 L105 340 L105 340 Z M443 355 L109 352 C134 457 202 499 294 499 C365 499 421 458 443 355 L443 355 Z " />
<glyph glyph-name="ecircumflex" unicode="&#xea;" horiz-adv-x="530" d="M314 765 C310 770 302 783 296 783 C290 783 282 770 278 765 L147 563 L154 558 L296 726 L438 558 L445 563 L314 765 L314 765 Z M105 340 L500 340 C478 462 400 510 296 510 C145 510 45 433 45 235 C45 88 136 -10 273 -10 C371 -10 458 48 489 134 L483 135 C459 68 379 23 285 23 C173 23 98 116 98 255 C98 287 101 315 106 340 L105 340 L105 340 Z M443 355 L109 352 C134 457 202 499 294 499 C365 499 421 458 443 355 L443 355 Z " />
<glyph glyph-name="edieresis" unicode="&#xeb;" horiz-adv-x="530" d="M397 647 C397 691 332 690 332 647 C332 606 397 605 397 647 L397 647 Z M260 647 C260 690 195 691 195 647 C195 605 260 606 260 647 L260 647 Z M105 340 L500 340 C478 462 400 510 296 510 C145 510 45 433 45 235 C45 88 136 -10 273 -10 C371 -10 458 48 489 134 L483 135 C459 68 379 23 285 23 C173 23 98 116 98 255 C98 287 101 315 106 340 L105 340 L105 340 Z M443 355 L109 352 C134 457 202 499 294 499 C365 499 421 458 443 355 L443 355 Z " />
<glyph glyph-name="igrave" unicode="&#xec;" horiz-adv-x="294" d="M-47 755 C-47 749 -19 722 23 686 L162 563 L169 570 L46 709 C10 751 -17 779 -23 779 C-36 779 -47 768 -47 755 L-47 755 Z M134 493 L134 493 C112 487 88 481 69 475 L69 455 L119 469 C128 471 134 467 134 458 L134 35 C134 26 128 20 119 20 L69 20 L69 0 L249 0 L249 20 L199 20 C190 20 184 26 184 35 L184 500 L159 500 C153 497 142 493 133 493 L134 493 L134 493 Z " />
<glyph glyph-name="iacute" unicode="&#xed;" horiz-adv-x="294" d="M-47 755 C-47 749 -19 722 23 686 L162 563 L169 570 L46 709 C10 751 -17 779 -23 779 C-36 779 -47 768 -47 755 L-47 755 Z M134 493 L134 493 C112 487 88 481 69 475 L69 455 L119 469 C128 471 134 467 134 458 L134 35 C134 26 128 20 119 20 L69 20 L69 0 L249 0 L249 20 L199 20 C190 20 184 26 184 35 L184 500 L159 500 C153 497 142 493 133 493 L134 493 L134 493 Z " />
<glyph glyph-name="icircumflex" unicode="&#xee;" horiz-adv-x="294" d="M177 765 C173 770 165 783 159 783 C153 783 145 770 141 765 L10 563 L17 558 L159 726 L301 558 L308 563 L177 765 L177 765 Z M134 493 L134 493 C112 487 88 481 69 475 L69 455 L119 469 C128 471 134 467 134 458 L134 35 C134 26 128 20 119 20 L69 20 L69 0 L249 0 L249 20 L199 20 C190 20 184 26 184 35 L184 500 L159 500 C153 497 142 493 133 493 L134 493 L134 493 Z " />
<glyph glyph-name="idieresis" unicode="&#xef;" horiz-adv-x="294" d="M260 647 C260 691 195 690 195 647 C195 606 260 605 260 647 L260 647 Z M123 647 C123 690 58 691 58 647 C58 605 123 606 123 647 L123 647 Z M134 493 L134 493 C112 487 88 481 69 475 L69 455 L119 469 C128 471 134 467 134 458 L134 35 C134 26 128 20 119 20 L69 20 L69 0 L249 0 L249 20 L199 20 C190 20 184 26 184 35 L184 500 L159 500 C153 497 142 493 133 493 L134 493 L134 493 Z " />
<glyph glyph-name="ntilde" unicode="&#xf1;" horiz-adv-x="535" d="M125 620 C125 660 143 686 170 686 C224 686 295 621 349 621 C390 621 417 659 417 716 L408 716 C408 680 389 656 361 656 C307 656 235 721 181 721 C142 721 116 681 116 620 L125 620 L125 620 Z M93 492 C71 487 47 482 28 476 L28 464 L48 464 C75 463 93 444 93 417 L93 35 C93 26 87 20 78 20 L28 20 L28 0 L208 0 L208 20 L158 20 C149 20 143 26 143 35 L143 362 C181 429 235 473 277 473 C352 473 390 416 390 330 L390 35 C390 26 384 20 375 20 L325 20 L325 0 L505 0 L505 20 L455 20 C446 20 440 26 440 35 L440 330 C440 438 394 510 306 510 C255 510 189 456 143 376 L143 500 L118 500 C112 497 102 492 93 492 L93 492 Z " />
<glyph glyph-name="ograve" unicode="&#xf2;" horiz-adv-x="604" d="M100 250 C100 397 181 495 302 495 C423 495 504 397 504 250 C504 103 423 5 302 5 C181 5 100 103 100 250 L100 250 Z M45 250 C45 94 148 -10 302 -10 C456 -10 559 94 559 250 C559 406 456 510 302 510 C148 510 45 406 45 250 L45 250 Z M96 755 C96 749 124 722 166 686 L305 563 L312 570 L189 709 C153 751 126 779 120 779 C107 779 96 768 96 755 L96 755 Z " />
<glyph glyph-name="oacute" unicode="&#xf3;" horiz-adv-x="604" d="M309 563 L448 686 C490 724 518 751 518 755 C518 768 507 779 494 779 C490 779 463 751 425 709 L302 570 L309 563 L309 563 Z M100 250 C100 397 181 495 302 495 C423 495 504 397 504 250 C504 103 423 5 302 5 C181 5 100 103 100 250 L100 250 Z M45 250 C45 94 148 -10 302 -10 C456 -10 559 94 559 250 C559 406 456 510 302 510 C148 510 45 406 45 250 L45 250 Z " />
<glyph glyph-name="ocircumflex" unicode="&#xf4;" horiz-adv-x="604" d="M100 250 C100 397 181 495 302 495 C423 495 504 397 504 250 C504 103 423 5 302 5 C181 5 100 103 100 250 L100 250 Z M45 250 C45 94 148 -10 302 -10 C456 -10 559 94 559 250 C559 406 456 510 302 510 C148 510 45 406 45 250 L45 250 Z M320 765 C316 770 308 783 302 783 C296 783 288 770 284 765 L153 563 L160 558 L302 726 L444 558 L451 563 L320 765 L320 765 Z " />
<glyph glyph-name="otilde" unicode="&#xf5;" horiz-adv-x="604" d="M160 620 C160 660 178 686 205 686 C259 686 330 621 384 621 C425 621 453 659 453 716 L444 716 C444 680 425 656 396 656 C342 656 271 721 217 721 C177 721 151 681 151 620 L160 620 L160 620 Z M100 250 C100 397 181 495 302 495 C423 495 504 397 504 250 C504 103 423 5 302 5 C181 5 100 103 100 250 L100 250 Z M45 250 C45 94 148 -10 302 -10 C456 -10 559 94 559 250 C559 406 456 510 302 510 C148 510 45 406 45 250 L45 250 Z " />
<glyph glyph-name="odieresis" unicode="&#xf6;" horiz-adv-x="604" d="M403 647 C403 691 338 690 338 647 C338 606 403 605 403 647 L403 647 Z M266 647 C266 690 201 691 201 647 C201 605 266 606 266 647 L266 647 Z M100 250 C100 397 181 495 302 495 C423 495 504 397 504 250 C504 103 423 5 302 5 C181 5 100 103 100 250 L100 250 Z M45 250 C45 94 148 -10 302 -10 C456 -10 559 94 559 250 C559 406 456 510 302 510 C148 510 45 406 45 250 L45 250 Z " />
<glyph glyph-name="oslash" unicode="&#xf8;" horiz-adv-x="604" d="M51 -16 C51 -16 76 9 122 55 C167 13 229 -11 303 -11 C457 -11 560 93 560 249 C560 324 537 387 496 432 C519 455 543 479 567 504 L555 516 C531 491 507 467 484 444 C439 486 377 510 303 510 C149 510 46 406 46 250 C46 175 70 112 111 67 C65 21 40 -4 40 -4 L51 -16 L51 -16 Z M457 418 C322 281 212 170 139 96 C114 137 100 189 100 250 C100 397 181 495 302 495 C367 495 420 467 456 418 L457 418 L457 418 Z M466 404 C491 363 505 311 505 250 C505 103 424 5 303 5 C238 5 185 33 149 82 C221 155 331 266 466 403 L466 404 L466 404 Z " />
<glyph glyph-name="ugrave" unicode="&#xf9;" horiz-adv-x="526" d="M57 755 C57 749 85 722 127 686 L266 563 L272 570 L150 709 C114 751 88 779 82 779 C69 779 57 768 57 755 L57 755 Z M511 47 L486 40 C456 32 436 47 436 77 L436 500 L321 500 L321 480 L371 480 C380 480 386 474 386 465 L386 136 C356 68 300 24 241 24 C180 24 139 78 139 159 L139 499 L24 499 L24 479 L74 479 C83 479 89 473 89 464 L89 159 C89 57 140 -11 217 -11 C286 -11 352 40 386 119 L386 -2 L411 -2 C441 6 481 17 511 25 L511 47 L511 47 Z " />
<glyph glyph-name="uacute" unicode="&#xfa;" horiz-adv-x="526" d="M269 563 L408 686 C450 724 478 751 478 755 C478 768 467 779 453 779 C449 779 423 751 385 709 L263 570 L269 563 L269 563 Z M511 47 L486 40 C456 32 436 47 436 77 L436 500 L321 500 L321 480 L371 480 C380 480 386 474 386 465 L386 136 C356 68 300 24 241 24 C180 24 139 78 139 159 L139 499 L24 499 L24 479 L74 479 C83 479 89 473 89 464 L89 159 C89 57 140 -11 217 -11 C286 -11 352 40 386 119 L386 -2 L411 -2 C441 6 481 17 511 25 L511 47 L511 47 Z " />
<glyph glyph-name="ucircumflex" unicode="&#xfb;" horiz-adv-x="526" d="M280 765 C276 770 268 783 263 783 C257 783 249 770 245 765 L113 563 L120 558 L262 727 L405 558 L412 563 L280 765 L280 765 Z M511 47 L486 40 C456 32 436 47 436 77 L436 500 L321 500 L321 480 L371 480 C380 480 386 474 386 465 L386 136 C356 68 300 24 241 24 C180 24 139 78 139 159 L139 499 L24 499 L24 479 L74 479 C83 479 89 473 89 464 L89 159 C89 57 140 -11 217 -11 C286 -11 352 40 386 119 L386 -2 L411 -2 C441 6 481 17 511 25 L511 47 L511 47 Z " />
<glyph glyph-name="udieresis" unicode="&#xfc;" horiz-adv-x="526" d="M364 647 C364 690 299 691 299 647 C299 605 364 606 364 647 L364 647 Z M226 647 C226 691 161 690 161 647 C161 606 226 605 226 647 L226 647 Z M511 47 L486 40 C456 32 436 47 436 77 L436 500 L321 500 L321 480 L371 480 C380 480 386 474 386 465 L386 136 C356 68 300 24 241 24 C180 24 139 78 139 159 L139 499 L24 499 L24 479 L74 479 C83 479 89 473 89 464 L89 159 C89 57 140 -11 217 -11 C286 -11 352 40 386 119 L386 -2 L411 -2 C441 6 481 17 511 25 L511 47 L511 47 Z " />
<glyph glyph-name="ydieresis" unicode="&#xff;" horiz-adv-x="508" d="M371 647 C371 691 306 690 306 647 C306 606 371 605 371 647 L371 647 Z M234 647 C234 690 169 691 169 647 C169 605 234 606 234 647 L234 647 Z M496 500 L350 500 L350 480 L359 480 C388 480 401 458 390 425 C390 425 285 105 275 76 C234 192 192 309 152 425 C140 458 152 480 181 480 L190 480 L190 500 L12 500 L12 480 C53 480 82 463 96 425 L96 425 L247 -2 C228 -55 209 -109 190 -162 C183 -181 169 -194 163 -194 C141 -194 136 -175 114 -175 C89 -175 73 -191 73 -216 C73 -242 91 -260 118 -260 C140 -260 183 -223 203 -168 C233 -83 263 2 293 87 C333 200 372 313 412 426 C426 464 455 481 496 481 L496 500 L496 500 Z " />
<glyph glyph-name="Amacron" unicode="&#x100;" horiz-adv-x="753" d="M257 901 L557 901 L557 936 L257 936 L257 901 L257 901 Z M295 0 L295 25 L268 25 C210 25 183 62 198 119 L252 287 L511 287 C527 233 544 178 559 125 C577 65 549 25 489 25 L462 25 L462 0 L745 0 L745 25 L731 25 C685 25 641 62 622 119 C556 336 492 554 424 770 L419 770 C422 751 406 736 377 732 L380 722 L184 125 C164 65 111 25 51 25 L16 25 L16 0 L295 0 L295 0 Z M257 302 L386 703 L506 302 L257 302 L257 302 Z " />
<glyph glyph-name="amacron" unicode="&#x101;" horiz-adv-x="513" d="M113 651 L413 651 L413 686 L113 686 L113 651 L113 651 Z M523 77 L512 83 C506 52 484 31 457 31 C423 31 400 51 400 81 C400 81 400 360 399 358 C399 463 345 510 263 510 C149 510 73 414 73 360 C73 339 83 325 98 325 C118 325 131 340 131 350 C131 363 111 382 111 392 C111 429 165 495 245 495 C308 495 350 458 350 377 L350 265 C109 191 53 164 53 80 C53 26 99 -10 168 -10 C215 -10 275 17 349 87 C349 31 380 -5 436 -5 C479 -5 513 28 522 77 L523 77 L523 77 Z M349 253 L349 99 C287 40 235 17 194 17 C139 17 103 45 103 86 C103 168 150 192 349 253 L349 253 Z " />
<glyph glyph-name="Abreve" unicode="&#x102;" horiz-adv-x="753" d="M282 995 C285 931 335 889 407 889 C478 889 527 931 530 994 L520 995 C518 952 473 924 407 924 C341 924 295 953 293 996 L282 995 L282 995 Z M295 0 L295 25 L268 25 C210 25 183 62 198 119 L252 287 L511 287 C527 233 544 178 559 125 C577 65 549 25 489 25 L462 25 L462 0 L745 0 L745 25 L731 25 C685 25 641 62 622 119 C556 336 492 554 424 770 L419 770 C422 751 406 736 377 732 L380 722 L184 125 C164 65 111 25 51 25 L16 25 L16 0 L295 0 L295 0 Z M257 302 L386 703 L506 302 L257 302 L257 302 Z " />
<glyph glyph-name="abreve" unicode="&#x103;" horiz-adv-x="513" d="M139 745 C142 681 192 639 263 639 C334 639 384 681 387 744 L377 745 C375 702 329 674 263 674 C197 674 151 703 149 746 L139 745 L139 745 Z M523 77 L512 83 C506 52 484 31 457 31 C423 31 400 51 400 81 C400 81 400 360 399 358 C399 463 345 510 263 510 C149 510 73 414 73 360 C73 339 83 325 98 325 C118 325 131 340 131 350 C131 363 111 382 111 392 C111 429 165 495 245 495 C308 495 350 458 350 377 L350 265 C109 191 53 164 53 80 C53 26 99 -10 168 -10 C215 -10 275 17 349 87 C349 31 380 -5 436 -5 C479 -5 513 28 522 77 L523 77 L523 77 Z M349 253 L349 99 C287 40 235 17 194 17 C139 17 103 45 103 86 C103 168 150 192 349 253 L349 253 Z " />
<glyph glyph-name="Cacute" unicode="&#x106;" horiz-adv-x="706" d="M391 813 L530 936 C572 974 600 1001 600 1005 C600 1018 589 1029 576 1029 C572 1029 545 1001 507 959 L384 820 L391 813 L391 813 Z M661 2 L661 216 L639 216 C636 207 632 194 629 185 C607 114 558 51 506 29 L506 29 C469 13 427 4 378 4 C226 4 125 152 125 375 C125 597 231 745 389 745 C437 745 476 737 509 723 L509 723 C558 702 606 639 628 565 C631 556 635 543 638 534 L660 534 L660 745 L643 745 C642 739 639 732 638 726 C631 697 603 693 567 715 C521 744 464 761 382 761 C188 761 59 607 59 376 C59 145 184 -9 372 -9 C452 -9 513 8 563 38 C601 60 630 54 637 23 C638 17 641 9 642 3 L661 2 L661 2 Z M650 130 L650 130 L650 130 L650 130 Z " />
<glyph glyph-name="Ccircumflex" unicode="&#x108;" horiz-adv-x="706" d="M661 2 L661 216 L639 216 C636 207 632 194 629 185 C607 114 558 51 506 29 L506 29 C469 13 427 4 378 4 C226 4 125 152 125 375 C125 597 231 745 389 745 C437 745 476 737 509 723 L509 723 C558 702 606 639 628 565 C631 556 635 543 638 534 L660 534 L660 745 L643 745 C642 739 639 732 638 726 C631 697 603 693 567 715 C521 744 464 761 382 761 C188 761 59 607 59 376 C59 145 184 -9 372 -9 C452 -9 513 8 563 38 C601 60 630 54 637 23 C638 17 641 9 642 3 L661 2 L661 2 Z M400 1016 C396 1021 388 1034 382 1034 C376 1034 368 1021 364 1016 L233 814 L240 809 L382 977 L524 809 L531 814 L400 1016 L400 1016 Z M650 130 L650 130 L650 130 L650 130 Z " />
<glyph glyph-name="Cdot" unicode="&#x10a;" horiz-adv-x="706" d="M416 897 C416 940 352 940 352 897 C352 855 416 855 416 897 L416 897 Z M661 2 L661 216 L639 216 C636 207 632 194 629 185 C607 114 558 51 506 29 L506 29 C469 13 427 4 378 4 C226 4 125 152 125 375 C125 597 231 745 389 745 C437 745 476 737 509 723 L509 723 C558 702 606 639 628 565 C631 556 635 543 638 534 L660 534 L660 745 L643 745 C642 739 639 732 638 726 C631 697 603 693 567 715 C521 744 464 761 382 761 C188 761 59 607 59 376 C59 145 184 -9 372 -9 C452 -9 513 8 563 38 C601 60 630 54 637 23 C638 17 641 9 642 3 L661 2 L661 2 Z M650 130 L650 130 L650 130 L650 130 Z " />
<glyph glyph-name="cdot" unicode="&#x10b;" horiz-adv-x="465" d="M294 647 C294 690 230 690 230 647 C230 605 294 605 294 647 L294 647 Z M435 128 L428 131 C399 65 332 21 262 21 C162 21 95 118 95 264 C95 405 161 499 259 499 C314 499 364 461 385 405 C390 390 400 380 410 380 C430 380 440 390 435 405 C412 468 343 510 262 510 C132 510 45 402 45 239 C45 90 125 -10 245 -10 C322 -10 398 45 435 128 L435 128 Z " />
<glyph glyph-name="Ccaron" unicode="&#x10c;" horiz-adv-x="706" d="M526 1042 L384 874 L242 1042 L235 1037 L366 835 C370 830 378 817 384 817 C390 817 398 830 402 835 L533 1037 L526 1042 L526 1042 Z M661 2 L661 216 L639 216 C636 207 632 194 629 185 C607 114 558 51 506 29 L506 29 C469 13 427 4 378 4 C226 4 125 152 125 375 C125 597 231 745 389 745 C437 745 476 737 509 723 L509 723 C558 702 606 639 628 565 C631 556 635 543 638 534 L660 534 L660 745 L643 745 C642 739 639 732 638 726 C631 697 603 693 567 715 C521 744 464 761 382 761 C188 761 59 607 59 376 C59 145 184 -9 372 -9 C452 -9 513 8 563 38 C601 60 630 54 637 23 C638 17 641 9 642 3 L661 2 L661 2 Z M650 130 L650 130 L650 130 L650 130 Z " />
<glyph glyph-name="ccaron" unicode="&#x10d;" horiz-adv-x="465" d="M404 792 L262 624 L120 792 L113 787 L244 585 C248 580 256 567 262 567 C268 567 276 580 280 585 L411 787 L404 792 L404 792 Z M435 128 L428 131 C399 65 332 21 262 21 C162 21 95 118 95 264 C95 405 161 499 259 499 C314 499 364 461 385 405 C390 390 400 380 410 380 C430 380 440 390 435 405 C412 468 343 510 262 510 C132 510 45 402 45 239 C45 90 125 -10 245 -10 C322 -10 398 45 435 128 L435 128 Z " />
<glyph glyph-name="Dcaron" unicode="&#x10e;" horiz-adv-x="810" d="M565 1042 L422 873 L280 1042 L273 1037 L405 835 C409 830 417 817 423 817 C428 817 436 830 440 835 L572 1037 L565 1042 L565 1042 Z M276 12 C220 12 214 39 214 80 L214 738 L287 738 C553 738 690 593 690 375 C690 135 524 12 276 12 L276 12 Z M70 730 L105 730 C135 730 155 710 155 680 L155 70 C155 40 135 20 105 20 L70 20 L70 0 L294 0 C571 0 755 128 755 375 C755 600 612 750 334 750 L70 750 L70 730 L70 730 Z " />
<glyph glyph-name="dcaron" unicode="&#x10f;" horiz-adv-x="592" d="M578 759 C567 759 558 697 553 652 L540 541 L548 540 L578 647 C591 692 600 734 600 752 C600 757 591 759 578 759 L578 759 Z M377 714 L397 713 C424 712 442 693 442 666 L442 456 C406 489 354 511 298 511 C131 511 45 409 45 255 C45 100 136 -4 273 -4 C340 -4 407 26 442 73 L442 1 L467 1 L577 31 L577 51 L542 41 C512 33 492 48 492 78 L492 751 L467 751 C440 744 404 734 377 727 L377 714 L377 714 Z M442 376 L442 90 C409 46 350 17 294 17 C175 17 96 117 96 268 C96 405 167 496 304 496 C365 496 422 441 442 376 L442 376 Z " />
<glyph glyph-name="Emacron" unicode="&#x112;" horiz-adv-x="621" d="M190 901 L490 901 L490 936 L190 936 L190 901 L190 901 Z M524 750 L50 750 L50 730 L85 730 C127 730 155 702 155 660 L155 90 C155 48 127 20 85 20 L50 20 L50 0 L549 0 L550 6 L550 6 C557 46 566 98 573 138 L556 138 L549 118 C523 55 464 13 401 13 L294 13 C222 13 214 40 214 80 L214 385 L339 385 C387 385 426 353 436 305 L447 250 L464 250 L464 534 L447 534 L436 479 C426 431 387 399 339 399 L214 399 L214 738 L401 738 C449 738 492 706 508 658 L526 603 L543 603 C537 643 528 696 522 737 L523 737 L524 750 L524 750 Z " />
<glyph glyph-name="emacron" unicode="&#x113;" horiz-adv-x="530" d="M146 651 L446 651 L446 686 L146 686 L146 651 L146 651 Z M105 340 L500 340 C478 462 400 510 296 510 C145 510 45 433 45 235 C45 88 136 -10 273 -10 C371 -10 458 48 489 134 L483 135 C459 68 379 23 285 23 C173 23 98 116 98 255 C98 287 101 315 106 340 L105 340 L105 340 Z M443 355 L109 352 C134 457 202 499 294 499 C365 499 421 458 443 355 L443 355 Z " />
<glyph glyph-name="Ebreve" unicode="&#x114;" horiz-adv-x="621" d="M215 995 C218 931 268 889 340 889 C411 889 460 931 463 994 L453 995 C451 952 406 924 340 924 C274 924 228 953 226 996 L215 995 L215 995 Z M524 750 L50 750 L50 730 L85 730 C127 730 155 702 155 660 L155 90 C155 48 127 20 85 20 L50 20 L50 0 L549 0 L550 6 L550 6 C557 46 566 98 573 138 L556 138 L549 118 C523 55 464 13 401 13 L294 13 C222 13 214 40 214 80 L214 385 L339 385 C387 385 426 353 436 305 L447 250 L464 250 L464 534 L447 534 L436 479 C426 431 387 399 339 399 L214 399 L214 738 L401 738 C449 738 492 706 508 658 L526 603 L543 603 C537 643 528 696 522 737 L523 737 L524 750 L524 750 Z " />
<glyph glyph-name="ebreve" unicode="&#x115;" horiz-adv-x="530" d="M172 745 C175 681 225 639 296 639 C367 639 417 681 420 744 L410 745 C408 702 362 674 296 674 C230 674 184 703 182 746 L172 745 L172 745 Z M105 340 L500 340 C478 462 400 510 296 510 C145 510 45 433 45 235 C45 88 136 -10 273 -10 C371 -10 458 48 489 134 L483 135 C459 68 379 23 285 23 C173 23 98 116 98 255 C98 287 101 315 106 340 L105 340 L105 340 Z M443 355 L109 352 C134 457 202 499 294 499 C365 499 421 458 443 355 L443 355 Z " />
<glyph glyph-name="Edot" unicode="&#x116;" horiz-adv-x="621" d="M372 897 C372 941 307 940 307 897 C307 856 372 855 372 897 L372 897 Z M524 750 L50 750 L50 730 L85 730 C127 730 155 702 155 660 L155 90 C155 48 127 20 85 20 L50 20 L50 0 L549 0 L550 6 L550 6 C557 46 566 98 573 138 L556 138 L549 118 C523 55 464 13 401 13 L294 13 C222 13 214 40 214 80 L214 385 L339 385 C387 385 426 353 436 305 L447 250 L464 250 L464 534 L447 534 L436 479 C426 431 387 399 339 399 L214 399 L214 738 L401 738 C449 738 492 706 508 658 L526 603 L543 603 C537 643 528 696 522 737 L523 737 L524 750 L524 750 Z " />
<glyph glyph-name="edot" unicode="&#x117;" horiz-adv-x="530" d="M328 647 C328 690 264 690 264 647 C264 605 328 605 328 647 L328 647 Z M105 340 L500 340 C478 462 400 510 296 510 C145 510 45 433 45 235 C45 88 136 -10 273 -10 C371 -10 458 48 489 134 L483 135 C459 68 379 23 285 23 C173 23 98 116 98 255 C98 287 101 315 106 340 L105 340 L105 340 Z M443 355 L109 352 C134 457 202 499 294 499 C365 499 421 458 443 355 L443 355 Z " />
<glyph glyph-name="Ecaron" unicode="&#x11a;" horiz-adv-x="621" d="M482 1042 L339 873 L197 1042 L190 1037 L322 835 C326 830 334 817 340 817 C345 817 353 830 357 835 L489 1037 L482 1042 L482 1042 Z M524 750 L50 750 L50 730 L85 730 C127 730 155 702 155 660 L155 90 C155 48 127 20 85 20 L50 20 L50 0 L549 0 L550 6 L550 6 C557 46 566 98 573 138 L556 138 L549 118 C523 55 464 13 401 13 L294 13 C222 13 214 40 214 80 L214 385 L339 385 C387 385 426 353 436 305 L447 250 L464 250 L464 534 L447 534 L436 479 C426 431 387 399 339 399 L214 399 L214 738 L401 738 C449 738 492 706 508 658 L526 603 L543 603 C537 643 528 696 522 737 L523 737 L524 750 L524 750 Z " />
<glyph glyph-name="ecaron" unicode="&#x11b;" horiz-adv-x="530" d="M438 792 L296 624 L154 792 L147 787 L278 585 C282 580 290 567 296 567 C302 567 310 580 314 585 L445 787 L438 792 L438 792 Z M105 340 L500 340 C478 462 400 510 296 510 C145 510 45 433 45 235 C45 88 136 -10 273 -10 C371 -10 458 48 489 134 L483 135 C459 68 379 23 285 23 C173 23 98 116 98 255 C98 287 101 315 106 340 L105 340 L105 340 Z M443 355 L109 352 C134 457 202 499 294 499 C365 499 421 458 443 355 L443 355 Z " />
<glyph glyph-name="Gcircumflex" unicode="&#x11c;" horiz-adv-x="781" d="M644 745 C643 739 640 732 639 726 C632 697 604 693 568 715 L568 715 C522 744 465 761 383 761 C189 761 60 607 60 376 C60 145 187 -9 377 -9 C482 -9 564 5 636 29 L638 29 L638 29 C665 38 691 49 716 61 L712 69 C688 58 664 48 638 39 L638 215 C638 266 670 300 719 300 L733 300 L733 325 L484 325 L484 300 L498 300 C547 300 579 266 579 215 C579 167 579 112 579 72 C573 36 518 11 434 4 C459 6 487 8 512 10 C474 5 432 2 386 2 C229 2 124 151 124 375 C124 597 230 745 388 745 C436 745 475 737 508 723 L508 723 C557 702 605 639 627 565 C630 556 634 543 637 534 L659 534 L659 745 L644 745 L644 745 Z M400 1015 C396 1020 388 1033 382 1033 C376 1033 368 1020 364 1015 L233 813 L240 808 L382 976 L524 808 L531 813 L400 1015 L400 1015 Z M434 4 C419 3 403 2 386 2 C399 2 416 3 434 4 L434 4 Z " />
<glyph glyph-name="Gbreve" unicode="&#x11e;" horiz-adv-x="781" d="M260 995 C263 931 313 889 384 889 C455 889 505 931 508 994 L498 995 C496 952 450 924 384 924 C318 924 272 953 270 996 L260 995 L260 995 Z M644 745 C643 739 640 732 639 726 C632 697 604 693 568 715 L568 715 C522 744 465 761 383 761 C189 761 60 607 60 376 C60 145 187 -9 377 -9 C482 -9 564 5 636 29 L638 29 L638 29 C665 38 691 49 716 61 L712 69 C688 58 664 48 638 39 L638 215 C638 266 670 300 719 300 L733 300 L733 325 L484 325 L484 300 L498 300 C547 300 579 266 579 215 C579 167 579 112 579 72 C573 36 518 11 434 4 C459 6 487 8 512 10 C474 5 432 2 386 2 C229 2 124 151 124 375 C124 597 230 745 388 745 C436 745 475 737 508 723 L508 723 C557 702 605 639 627 565 C630 556 634 543 637 534 L659 534 L659 745 L644 745 L644 745 Z M434 4 C419 3 403 2 386 2 C399 2 416 3 434 4 L434 4 Z " />
<glyph glyph-name="gbreve" unicode="&#x11f;" horiz-adv-x="520" d="M136 745 C139 681 189 639 260 639 C331 639 381 681 384 744 L374 745 C372 702 326 674 260 674 C194 674 148 703 146 746 L136 745 L136 745 Z M540 459 C540 477 527 489 508 489 C469 489 434 467 416 432 C388 481 333 511 261 511 C155 511 85 447 85 351 C85 273 130 216 203 197 C116 188 61 155 61 109 C61 62 98 29 157 21 C95 3 54 -41 54 -91 C54 -173 140 -228 270 -228 C400 -228 486 -168 486 -77 C486 11 434 69 302 69 L187 69 C129 69 90 91 90 124 C90 164 158 190 261 190 C367 190 437 255 437 352 C437 379 432 403 422 424 C435 446 456 459 479 459 C491 459 508 439 520 439 C533 439 541 448 541 461 L540 459 L540 459 Z M261 202 C185 202 135 262 135 352 C135 441 185 500 261 500 C337 500 387 441 387 352 C387 262 337 202 261 202 L261 202 Z M168 20 C173 20 178 20 183 20 L296 20 C403 20 444 -23 444 -87 C444 -164 375 -216 272 -216 C165 -216 94 -161 94 -78 C94 -33 123 4 168 20 L168 20 Z " />
<glyph glyph-name="Gdot" unicode="&#x120;" horiz-adv-x="781" d="M416 897 C416 940 352 940 352 897 C352 855 416 855 416 897 L416 897 Z M644 745 C643 739 640 732 639 726 C632 697 604 693 568 715 L568 715 C522 744 465 761 383 761 C189 761 60 607 60 376 C60 145 187 -9 377 -9 C482 -9 564 5 636 29 L638 29 L638 29 C665 38 691 49 716 61 L712 69 C688 58 664 48 638 39 L638 215 C638 266 670 300 719 300 L733 300 L733 325 L484 325 L484 300 L498 300 C547 300 579 266 579 215 C579 167 579 112 579 72 C573 36 518 11 434 4 C459 6 487 8 512 10 C474 5 432 2 386 2 C229 2 124 151 124 375 C124 597 230 745 388 745 C436 745 475 737 508 723 L508 723 C557 702 605 639 627 565 C630 556 634 543 637 534 L659 534 L659 745 L644 745 L644 745 Z M434 4 C419 3 403 2 386 2 C399 2 416 3 434 4 L434 4 Z " />
<glyph glyph-name="gdot" unicode="&#x121;" horiz-adv-x="520" d="M292 647 C292 690 228 690 228 647 C228 605 292 605 292 647 L292 647 Z M540 459 C540 477 527 489 508 489 C469 489 434 467 416 432 C388 481 333 511 261 511 C155 511 85 447 85 351 C85 273 130 216 203 197 C116 188 61 155 61 109 C61 62 98 29 157 21 C95 3 54 -41 54 -91 C54 -173 140 -228 270 -228 C400 -228 486 -168 486 -77 C486 11 434 69 302 69 L187 69 C129 69 90 91 90 124 C90 164 158 190 261 190 C367 190 437 255 437 352 C437 379 432 403 422 424 C435 446 456 459 479 459 C491 459 508 439 520 439 C533 439 541 448 541 461 L540 459 L540 459 Z M261 202 C185 202 135 262 135 352 C135 441 185 500 261 500 C337 500 387 441 387 352 C387 262 337 202 261 202 L261 202 Z M168 20 C173 20 178 20 183 20 L296 20 C403 20 444 -23 444 -87 C444 -164 375 -216 272 -216 C165 -216 94 -161 94 -78 C94 -33 123 4 168 20 L168 20 Z " />
<glyph glyph-name="Hcircumflex" unicode="&#x124;" horiz-adv-x="820" d="M451 1015 C447 1020 439 1033 433 1033 C427 1033 419 1020 415 1015 L284 813 L291 808 L433 976 L575 808 L582 813 L451 1015 L451 1015 Z M760 20 L725 20 C695 20 675 40 675 70 L675 680 C675 710 695 730 725 730 L760 730 L760 750 L531 750 L531 730 L566 730 C596 730 616 710 616 680 L616 398 L250 398 L250 680 C250 710 270 730 300 730 L335 730 L335 750 L106 750 L106 730 L141 730 C171 730 191 710 191 680 L191 70 C191 40 171 20 141 20 L106 20 L106 0 L335 0 L335 20 L300 20 C270 20 250 40 250 70 L250 383 L616 383 L616 70 C616 40 596 20 566 20 L531 20 L531 0 L760 0 L760 20 L760 20 Z " />
<glyph glyph-name="Itilde" unicode="&#x128;" horiz-adv-x="364" d="M48 870 C48 910 66 936 93 936 C147 936 218 871 272 871 C313 871 341 909 341 966 L332 966 C332 930 313 906 284 906 C230 906 159 971 105 971 C65 971 39 931 39 870 L48 870 L48 870 Z M304 20 L269 20 C239 20 219 40 219 70 L219 680 C219 710 239 730 269 730 L304 730 L304 750 L76 750 L76 730 L111 730 C141 730 161 710 161 680 L161 70 C161 40 141 20 111 20 L76 20 L76 0 L304 0 L304 20 L304 20 Z " />
<glyph glyph-name="itilde" unicode="&#x129;" horiz-adv-x="294" d="M17 620 C17 660 35 686 62 686 C116 686 187 621 241 621 C282 621 310 659 310 716 L301 716 C301 680 282 656 253 656 C199 656 128 721 74 721 C34 721 8 681 8 620 L17 620 L17 620 Z M134 493 L134 493 C112 487 88 481 69 475 L69 455 L119 469 C128 471 134 467 134 458 L134 35 C134 26 128 20 119 20 L69 20 L69 0 L249 0 L249 20 L199 20 C190 20 184 26 184 35 L184 500 L159 500 C153 497 142 493 133 493 L134 493 L134 493 Z " />
<glyph glyph-name="Imacron" unicode="&#x12a;" horiz-adv-x="364" d="M40 901 L340 901 L340 936 L40 936 L40 901 L40 901 Z M304 20 L269 20 C239 20 219 40 219 70 L219 680 C219 710 239 730 269 730 L304 730 L304 750 L76 750 L76 730 L111 730 C141 730 161 710 161 680 L161 70 C161 40 141 20 111 20 L76 20 L76 0 L304 0 L304 20 L304 20 Z " />
<glyph glyph-name="imacron" unicode="&#x12b;" horiz-adv-x="294" d="M9 651 L309 651 L309 686 L9 686 L9 651 L9 651 Z M134 493 L134 493 C112 487 88 481 69 475 L69 455 L119 469 C128 471 134 467 134 458 L134 35 C134 26 128 20 119 20 L69 20 L69 0 L249 0 L249 20 L199 20 C190 20 184 26 184 35 L184 500 L159 500 C153 497 142 493 133 493 L134 493 L134 493 Z " />
<glyph glyph-name="Ibreve" unicode="&#x12c;" horiz-adv-x="364" d="M66 995 C69 931 119 889 190 889 C261 889 311 931 314 994 L304 995 C302 952 256 924 190 924 C124 924 78 953 76 996 L66 995 L66 995 Z M304 20 L269 20 C239 20 219 40 219 70 L219 680 C219 710 239 730 269 730 L304 730 L304 750 L76 750 L76 730 L111 730 C141 730 161 710 161 680 L161 70 C161 40 141 20 111 20 L76 20 L76 0 L304 0 L304 20 L304 20 Z " />
<glyph glyph-name="ibreve" unicode="&#x12d;" horiz-adv-x="294" d="M35 745 C38 681 88 639 159 639 C230 639 280 681 283 744 L273 745 C271 702 225 674 159 674 C93 674 47 703 45 746 L35 745 L35 745 Z M134 493 L134 493 C112 487 88 481 69 475 L69 455 L119 469 C128 471 134 467 134 458 L134 35 C134 26 128 20 119 20 L69 20 L69 0 L249 0 L249 20 L199 20 C190 20 184 26 184 35 L184 500 L159 500 C153 497 142 493 133 493 L134 493 L134 493 Z " />
<glyph glyph-name="Idot" unicode="&#x130;" horiz-adv-x="364" d="M222 897 C222 940 158 940 158 897 C158 855 222 855 222 897 L222 897 Z M304 20 L269 20 C239 20 219 40 219 70 L219 680 C219 710 239 730 269 730 L304 730 L304 750 L76 750 L76 730 L111 730 C141 730 161 710 161 680 L161 70 C161 40 141 20 111 20 L76 20 L76 0 L304 0 L304 20 L304 20 Z " />
<glyph glyph-name="dotlessi" unicode="&#x131;" horiz-adv-x="294" d="M134 493 L134 493 C112 487 88 481 69 475 L69 455 L119 469 C128 471 134 467 134 458 L134 35 C134 26 128 20 119 20 L69 20 L69 0 L249 0 L249 20 L199 20 C190 20 184 26 184 35 L184 500 L159 500 C153 497 142 493 133 493 L134 493 L134 493 Z " />
<glyph glyph-name="Jcircumflex" unicode="&#x134;" horiz-adv-x="364" d="M208 1015 C204 1020 196 1033 190 1033 C184 1033 176 1020 172 1015 L41 813 L48 808 L190 976 L332 808 L339 813 L208 1015 L208 1015 Z M304 750 L76 750 L76 730 L111 730 C140 730 160 712 162 684 C162 531 161 151 161 -34 C161 -173 98 -199 52 -199 C23 -199 37 -152 8 -152 C-8 -152 -19 -162 -19 -178 C-19 -203 3 -220 37 -220 C114 -220 221 -172 221 78 C221 233 220 547 220 684 C222 712 242 730 271 730 L306 730 L304 750 L304 750 Z " />
<glyph glyph-name="Lacute" unicode="&#x139;" horiz-adv-x="629" d="M197 813 L336 936 C378 974 406 1001 406 1005 C406 1018 395 1029 382 1029 C378 1029 351 1001 313 959 L190 820 L197 813 L197 813 Z M578 135 L561 135 L554 115 C528 52 469 10 406 10 L299 10 C227 10 219 38 219 80 L219 680 C219 710 239 730 269 730 L304 730 L304 750 L76 750 L76 730 L111 730 C141 730 161 710 161 680 L161 70 C161 40 141 20 111 20 L76 20 L76 0 L554 0 C562 40 571 94 578 135 L578 135 Z " />
<glyph glyph-name="Lcaron" unicode="&#x13d;" horiz-adv-x="629" d="M405 809 C394 809 385 747 380 702 L367 591 L375 590 L405 697 C418 742 427 784 427 802 C427 807 418 809 405 809 L405 809 Z M578 135 L561 135 L554 115 C528 52 469 10 406 10 L299 10 C227 10 219 38 219 80 L219 680 C219 710 239 730 269 730 L304 730 L304 750 L76 750 L76 730 L111 730 C141 730 161 710 161 680 L161 70 C161 40 141 20 111 20 L76 20 L76 0 L554 0 C562 40 571 94 578 135 L578 135 Z " />
<glyph glyph-name="lcaron" unicode="&#x13e;" horiz-adv-x="238" d="M229 759 C218 759 209 697 204 652 L191 541 L199 540 L229 647 C242 692 251 734 251 752 C251 757 242 759 229 759 L229 759 Z M29 715 L49 714 C75 713 93 695 94 669 C94 465 93 141 93 35 C93 26 87 20 78 20 L28 20 L28 0 L208 0 L208 20 L158 20 C149 20 143 26 143 35 L143 750 L118 750 L114 748 C88 741 55 734 30 727 L29 715 L29 715 Z " />
<glyph glyph-name="Nacute" unicode="&#x143;" horiz-adv-x="766" d="M288 813 L427 936 C469 974 497 1001 497 1005 C497 1018 486 1029 473 1029 C469 1029 442 1001 404 959 L281 820 L288 813 L288 813 Z M26 730 L61 730 C90 730 121 712 141 684 L141 70 C141 40 121 20 91 20 L56 20 L56 0 L243 0 L243 20 L208 20 C178 20 158 40 158 70 L158 70 L156 662 C305 441 454 219 604 -1 L616 -1 L620 679 L620 679 C620 709 640 729 670 729 L705 729 L705 749 L518 749 L518 729 L553 729 C583 729 603 709 603 679 L604 104 L599 111 L169 749 L25 749 L26 730 L26 730 Z " />
<glyph glyph-name="Ncaron" unicode="&#x147;" horiz-adv-x="766" d="M523 1042 L381 874 L239 1042 L232 1037 L363 835 C367 830 375 817 381 817 C387 817 395 830 399 835 L530 1037 L523 1042 L523 1042 Z M26 730 L61 730 C90 730 121 712 141 684 L141 70 C141 40 121 20 91 20 L56 20 L56 0 L243 0 L243 20 L208 20 C178 20 158 40 158 70 L158 70 L156 662 C305 441 454 219 604 -1 L616 -1 L620 679 L620 679 C620 709 640 729 670 729 L705 729 L705 749 L518 749 L518 729 L553 729 C583 729 603 709 603 679 L604 104 L599 111 L169 749 L25 749 L26 730 L26 730 Z " />
<glyph glyph-name="ncaron" unicode="&#x148;" horiz-adv-x="535" d="M409 792 L266 623 L124 792 L117 787 L249 585 C253 580 261 567 267 567 C272 567 280 580 284 585 L416 787 L409 792 L409 792 Z M93 492 C71 487 47 482 28 476 L28 464 L48 464 C75 463 93 444 93 417 L93 35 C93 26 87 20 78 20 L28 20 L28 0 L208 0 L208 20 L158 20 C149 20 143 26 143 35 L143 362 C181 429 235 473 277 473 C352 473 390 416 390 330 L390 35 C390 26 384 20 375 20 L325 20 L325 0 L505 0 L505 20 L455 20 C446 20 440 26 440 35 L440 330 C440 438 394 510 306 510 C255 510 189 456 143 376 L143 500 L118 500 C112 497 102 492 93 492 L93 492 Z " />
<glyph glyph-name="Omacron" unicode="&#x14c;" horiz-adv-x="806" d="M251 901 L551 901 L551 936 L251 936 L251 901 L251 901 Z M125 375 C125 597 234 745 398 745 C571 745 687 597 687 375 C687 153 570 5 394 5 C233 5 125 153 125 375 L125 375 Z M61 375 C61 144 193 -10 391 -10 C607 -10 751 144 751 375 C751 606 611 760 401 760 C197 760 61 606 61 375 L61 375 Z " />
<glyph glyph-name="omacron" unicode="&#x14d;" horiz-adv-x="604" d="M152 651 L452 651 L452 686 L152 686 L152 651 L152 651 Z M100 250 C100 397 181 495 302 495 C423 495 504 397 504 250 C504 103 423 5 302 5 C181 5 100 103 100 250 L100 250 Z M45 250 C45 94 148 -10 302 -10 C456 -10 559 94 559 250 C559 406 456 510 302 510 C148 510 45 406 45 250 L45 250 Z " />
<glyph glyph-name="Obreve" unicode="&#x14e;" horiz-adv-x="806" d="M277 995 C280 931 330 889 401 889 C472 889 522 931 525 994 L515 995 C513 952 467 924 401 924 C335 924 289 953 287 996 L277 995 L277 995 Z M125 375 C125 597 234 745 398 745 C571 745 687 597 687 375 C687 153 570 5 394 5 C233 5 125 153 125 375 L125 375 Z M61 375 C61 144 193 -10 391 -10 C607 -10 751 144 751 375 C751 606 611 760 401 760 C197 760 61 606 61 375 L61 375 Z " />
<glyph glyph-name="obreve" unicode="&#x14f;" horiz-adv-x="604" d="M178 745 C181 681 231 639 302 639 C373 639 423 681 426 744 L416 745 C414 702 368 674 302 674 C236 674 190 703 188 746 L178 745 L178 745 Z M100 250 C100 397 181 495 302 495 C423 495 504 397 504 250 C504 103 423 5 302 5 C181 5 100 103 100 250 L100 250 Z M45 250 C45 94 148 -10 302 -10 C456 -10 559 94 559 250 C559 406 456 510 302 510 C148 510 45 406 45 250 L45 250 Z " />
<glyph glyph-name="Racute" unicode="&#x154;" horiz-adv-x="718" d="M336 813 L475 936 C517 974 545 1001 545 1005 C545 1018 534 1029 521 1029 C517 1029 490 1001 452 959 L329 820 L336 813 L336 813 Z M70 730 L105 730 C135 730 155 710 155 680 L155 70 C155 40 135 20 105 20 L70 20 L70 0 L299 0 L299 20 L264 20 C234 20 214 40 214 70 L214 365 L350 365 C364 334 426 225 511 80 C556 3 564 0 709 0 L709 12 C623 12 618 15 580 80 C495 226 433 333 411 370 C508 385 569 439 569 541 C569 667 483 751 354 751 L71 751 L70 730 L70 730 Z M215 381 L215 739 L336 739 C437 739 504 665 504 553 C504 434 444 381 354 381 L215 381 L215 381 Z " />
<glyph glyph-name="Rcaron" unicode="&#x158;" horiz-adv-x="718" d="M471 1042 L329 874 L187 1042 L180 1037 L311 835 C315 830 323 817 329 817 C335 817 343 830 347 835 L478 1037 L471 1042 L471 1042 Z M70 730 L105 730 C135 730 155 710 155 680 L155 70 C155 40 135 20 105 20 L70 20 L70 0 L299 0 L299 20 L264 20 C234 20 214 40 214 70 L214 365 L350 365 C364 334 426 225 511 80 C556 3 564 0 709 0 L709 12 C623 12 618 15 580 80 C495 226 433 333 411 370 C508 385 569 439 569 541 C569 667 483 751 354 751 L71 751 L70 730 L70 730 Z M215 381 L215 739 L336 739 C437 739 504 665 504 553 C504 434 444 381 354 381 L215 381 L215 381 Z " />
<glyph glyph-name="rcaron" unicode="&#x159;" horiz-adv-x="363" d="M361 792 L219 624 L77 792 L70 787 L201 585 C205 580 213 567 219 567 C225 567 233 580 237 585 L368 787 L361 792 L361 792 Z M30 465 L50 464 C76 463 94 445 95 419 C95 291 95 110 95 35 C95 26 89 20 80 20 L30 20 L30 0 L210 0 L210 20 L160 20 C151 20 145 26 145 35 L145 365 C169 439 217 488 267 488 C284 488 295 474 295 453 C295 416 354 415 354 453 C354 488 328 511 290 511 C226 511 169 464 145 392 L145 500 L120 500 L116 498 C90 491 57 484 32 477 L30 465 L30 465 Z " />
<glyph glyph-name="Sacute" unicode="&#x15a;" horiz-adv-x="546" d="M281 813 L420 936 C462 974 490 1001 490 1005 C490 1018 479 1029 466 1029 C462 1029 435 1001 397 959 L274 820 L281 813 L281 813 Z M455 638 L455 638 L455 638 L455 638 Z M71 1 C72 8 74 17 75 24 C81 55 109 61 145 40 C191 8 246 -10 303 -10 C425 -10 507 67 507 183 C507 264 443 348 320 406 C187 468 119 539 119 598 C119 686 170 745 247 745 C267 745 286 743 304 739 C360 725 411 666 432 588 C435 578 439 564 442 554 L464 554 L464 753 L447 753 C441 724 423 707 386 724 C347 747 298 760 247 760 C143 760 74 686 74 576 C74 496 146 409 285 344 C401 290 460 223 460 165 C460 71 397 9 303 9 C269 9 236 16 206 29 C154 53 107 120 86 201 C83 212 80 226 77 237 L54 237 L54 2 L71 1 L71 1 Z " />
<glyph glyph-name="Scircumflex" unicode="&#x15c;" horiz-adv-x="546" d="M292 1015 C288 1020 280 1033 274 1033 C268 1033 260 1020 256 1015 L125 813 L132 808 L274 976 L416 808 L423 813 L292 1015 L292 1015 Z M455 638 L455 638 L455 638 L455 638 Z M71 1 C72 8 74 17 75 24 C81 55 109 61 145 40 C191 8 246 -10 303 -10 C425 -10 507 67 507 183 C507 264 443 348 320 406 C187 468 119 539 119 598 C119 686 170 745 247 745 C267 745 286 743 304 739 C360 725 411 666 432 588 C435 578 439 564 442 554 L464 554 L464 753 L447 753 C441 724 423 707 386 724 C347 747 298 760 247 760 C143 760 74 686 74 576 C74 496 146 409 285 344 C401 290 460 223 460 165 C460 71 397 9 303 9 C269 9 236 16 206 29 C154 53 107 120 86 201 C83 212 80 226 77 237 L54 237 L54 2 L71 1 L71 1 Z " />
<glyph glyph-name="Scaron" unicode="&#x160;" horiz-adv-x="546" d="M416 1042 L274 874 L132 1042 L125 1037 L256 835 C260 830 268 817 274 817 C280 817 288 830 292 835 L423 1037 L416 1042 L416 1042 Z M455 638 L455 638 L455 638 L455 638 Z M71 1 C72 8 74 17 75 24 C81 55 109 61 145 40 C191 8 246 -10 303 -10 C425 -10 507 67 507 183 C507 264 443 348 320 406 C187 468 119 539 119 598 C119 686 170 745 247 745 C267 745 286 743 304 739 C360 725 411 666 432 588 C435 578 439 564 442 554 L464 554 L464 753 L447 753 C441 724 423 707 386 724 C347 747 298 760 247 760 C143 760 74 686 74 576 C74 496 146 409 285 344 C401 290 460 223 460 165 C460 71 397 9 303 9 C269 9 236 16 206 29 C154 53 107 120 86 201 C83 212 80 226 77 237 L54 237 L54 2 L71 1 L71 1 Z " />
<glyph glyph-name="scaron" unicode="&#x161;" horiz-adv-x="422" d="M368 792 L226 624 L84 792 L77 787 L208 585 C212 580 220 567 226 567 C232 567 240 580 244 585 L375 787 L368 792 L368 792 Z M344 345 L344 509 L331 509 C330 505 328 501 327 497 C324 486 299 486 263 496 C241 505 216 510 191 510 C113 510 61 462 61 389 C61 328 113 268 214 231 C292 203 332 156 332 107 C332 44 289 2 225 2 C221 2 178 7 179 9 C128 25 87 81 77 149 C76 157 74 166 73 174 L59 174 L59 0 L73 0 C74 4 75 9 76 13 C80 28 109 25 148 7 L148 7 C172 -4 198 -10 225 -10 C313 -10 371 42 371 121 C371 180 325 237 236 269 C144 302 97 354 97 406 C97 474 152 509 224 495 C276 483 316 434 326 368 C327 361 328 351 329 344 L344 345 L344 345 Z " />
<glyph glyph-name="Tcaron" unicode="&#x164;" horiz-adv-x="775" d="M530 1042 L388 874 L246 1042 L239 1037 L370 835 C374 830 382 817 388 817 C394 817 402 830 406 835 L537 1037 L530 1042 L530 1042 Z M-1 610 L16 610 L42 650 C73 701 129 735 180 735 L358 735 L358 70 C358 40 338 20 308 20 L273 20 L273 0 L502 0 L502 20 L467 20 C437 20 417 40 417 70 L417 735 L595 735 C646 735 702 701 733 650 L759 610 L776 610 C759 650 764 637 723 742 C722 744 720 747 720 749 C714 764 707 781 702 794 L690 794 L686 787 C671 764 628 749 579 749 L196 749 C147 749 104 764 89 787 L85 794 L73 794 C68 780 61 763 56 748 L56 748 L56 747 C41 704 18 650 0 608 L-1 610 L-1 610 Z " />
<glyph glyph-name="tcaron" unicode="&#x165;" horiz-adv-x="339" d="M299 500 L145 500 L145 620 L141 620 L30 500 L30 490 L95 490 L95 129 C95 29 142 -10 212 -10 C253 -10 299 21 329 68 L324 71 C302 37 264 14 227 14 C177 14 144 43 144 118 L145 474 L299 474 L299 500 L299 500 Z M385 759 C374 759 365 697 360 652 L347 541 L355 540 L385 647 C398 692 407 734 407 752 C407 757 398 759 385 759 L385 759 Z " />
<glyph glyph-name="Utilde" unicode="&#x168;" horiz-adv-x="698" d="M210 870 C210 910 228 936 255 936 C309 936 380 871 434 871 C475 871 502 909 502 966 L493 966 C493 930 474 906 446 906 C392 906 320 971 266 971 C227 971 201 931 201 870 L210 870 L210 870 Z M668 51 L633 41 C603 33 583 48 583 78 L583 750 L439 750 L439 730 L474 730 C504 730 524 710 524 680 L524 176 C483 87 389 28 289 28 C223 28 179 105 179 220 L179 750 L35 750 L35 730 L70 730 C100 730 120 710 120 680 L120 220 C120 82 178 -10 265 -10 C376 -10 480 54 524 149 L524 0 L554 0 L576 6 C606 14 640 23 667 31 L668 51 L668 51 Z " />
<glyph glyph-name="utilde" unicode="&#x169;" horiz-adv-x="526" d="M121 620 C121 660 139 686 166 686 C220 686 291 621 345 621 C386 621 413 659 413 716 L404 716 C404 680 385 656 357 656 C303 656 231 721 177 721 C138 721 112 681 112 620 L121 620 L121 620 Z M511 47 L486 40 C456 32 436 47 436 77 L436 500 L321 500 L321 480 L371 480 C380 480 386 474 386 465 L386 136 C356 68 300 24 241 24 C180 24 139 78 139 159 L139 499 L24 499 L24 479 L74 479 C83 479 89 473 89 464 L89 159 C89 57 140 -11 217 -11 C286 -11 352 40 386 119 L386 -2 L411 -2 C441 6 481 17 511 25 L511 47 L511 47 Z " />
<glyph glyph-name="Umacron" unicode="&#x16a;" horiz-adv-x="698" d="M202 901 L502 901 L502 936 L202 936 L202 901 L202 901 Z M668 51 L633 41 C603 33 583 48 583 78 L583 750 L439 750 L439 730 L474 730 C504 730 524 710 524 680 L524 176 C483 87 389 28 289 28 C223 28 179 105 179 220 L179 750 L35 750 L35 730 L70 730 C100 730 120 710 120 680 L120 220 C120 82 178 -10 265 -10 C376 -10 480 54 524 149 L524 0 L554 0 L576 6 C606 14 640 23 667 31 L668 51 L668 51 Z " />
<glyph glyph-name="umacron" unicode="&#x16b;" horiz-adv-x="526" d="M113 651 L413 651 L413 686 L113 686 L113 651 L113 651 Z M511 47 L486 40 C456 32 436 47 436 77 L436 500 L321 500 L321 480 L371 480 C380 480 386 474 386 465 L386 136 C356 68 300 24 241 24 C180 24 139 78 139 159 L139 499 L24 499 L24 479 L74 479 C83 479 89 473 89 464 L89 159 C89 57 140 -11 217 -11 C286 -11 352 40 386 119 L386 -2 L411 -2 C441 6 481 17 511 25 L511 47 L511 47 Z " />
<glyph glyph-name="Ubreve" unicode="&#x16c;" horiz-adv-x="698" d="M227 995 C230 931 280 889 352 889 C423 889 472 931 475 994 L465 995 C463 952 418 924 352 924 C286 924 240 953 238 996 L227 995 L227 995 Z M668 51 L633 41 C603 33 583 48 583 78 L583 750 L439 750 L439 730 L474 730 C504 730 524 710 524 680 L524 176 C483 87 389 28 289 28 C223 28 179 105 179 220 L179 750 L35 750 L35 730 L70 730 C100 730 120 710 120 680 L120 220 C120 82 178 -10 265 -10 C376 -10 480 54 524 149 L524 0 L554 0 L576 6 C606 14 640 23 667 31 L668 51 L668 51 Z " />
<glyph glyph-name="ubreve" unicode="&#x16d;" horiz-adv-x="526" d="M138 745 C141 681 191 639 263 639 C334 639 383 681 386 744 L376 745 C374 702 329 674 263 674 C197 674 151 703 149 746 L138 745 L138 745 Z M511 47 L486 40 C456 32 436 47 436 77 L436 500 L321 500 L321 480 L371 480 C380 480 386 474 386 465 L386 136 C356 68 300 24 241 24 C180 24 139 78 139 159 L139 499 L24 499 L24 479 L74 479 C83 479 89 473 89 464 L89 159 C89 57 140 -11 217 -11 C286 -11 352 40 386 119 L386 -2 L411 -2 C441 6 481 17 511 25 L511 47 L511 47 Z " />
<glyph glyph-name="Uring" unicode="&#x16e;" horiz-adv-x="698" d="M270 905 C270 955 303 988 352 988 C401 988 433 955 433 905 C433 860 396 822 352 822 C308 822 270 860 270 905 L270 905 Z M255 905 C255 854 300 810 352 810 C404 810 448 854 448 905 C448 962 410 1000 352 1000 C294 1000 255 962 255 905 L255 905 Z M668 51 L633 41 C603 33 583 48 583 78 L583 750 L439 750 L439 730 L474 730 C504 730 524 710 524 680 L524 176 C483 87 389 28 289 28 C223 28 179 105 179 220 L179 750 L35 750 L35 730 L70 730 C100 730 120 710 120 680 L120 220 C120 82 178 -10 265 -10 C376 -10 480 54 524 149 L524 0 L554 0 L576 6 C606 14 640 23 667 31 L668 51 L668 51 Z " />
<glyph glyph-name="uring" unicode="&#x16f;" horiz-adv-x="526" d="M181 655 C181 705 214 738 263 738 C312 738 344 705 344 655 C344 610 307 572 263 572 C219 572 181 610 181 655 L181 655 Z M166 655 C166 604 211 560 263 560 C315 560 359 604 359 655 C359 712 321 750 263 750 C205 750 166 712 166 655 L166 655 Z M511 47 L486 40 C456 32 436 47 436 77 L436 500 L321 500 L321 480 L371 480 C380 480 386 474 386 465 L386 136 C356 68 300 24 241 24 C180 24 139 78 139 159 L139 499 L24 499 L24 479 L74 479 C83 479 89 473 89 464 L89 159 C89 57 140 -11 217 -11 C286 -11 352 40 386 119 L386 -2 L411 -2 C441 6 481 17 511 25 L511 47 L511 47 Z " />
<glyph glyph-name="Wcircumflex" unicode="&#x174;" horiz-adv-x="1063" d="M507 645 L507 645 L553 500 L368 71 C306 262 244 454 183 645 C168 693 189 725 237 725 L259 725 L259 750 L17 750 L17 725 L28 725 C66 725 102 693 118 645 L118 645 C190 427 262 210 332 -9 L347 -9 L560 476 C611 314 662 152 713 -9 L728 -9 L928 656 C945 699 985 727 1030 727 L1045 727 L1045 752 L790 752 L790 727 L848 727 C896 727 918 695 904 647 L904 647 L740 84 C684 272 627 460 571 647 C557 695 579 727 627 727 L669 727 L669 752 L402 752 L402 727 L414 727 C455 727 492 695 507 647 L507 645 L507 645 Z M539 1017 C535 1022 527 1035 521 1035 C515 1035 507 1022 503 1017 L372 815 L379 810 L521 978 L663 810 L670 815 L539 1017 L539 1017 Z " />
<glyph glyph-name="Ycircumflex" unicode="&#x176;" horiz-adv-x="711" d="M252 750 L20 750 L20 730 L35 730 C68 730 103 708 123 675 L123 675 L332 329 L332 90 C332 48 304 20 262 20 L227 20 L227 0 L496 0 L496 20 L461 20 C419 20 391 48 391 90 L391 331 C454 446 517 561 580 675 C598 708 632 730 665 730 L705 730 L705 750 L467 750 L467 730 L527 730 C560 730 570 708 553 675 L553 675 L385 350 C321 458 255 567 192 675 C172 708 181 730 214 730 L252 730 L252 750 L252 750 Z M379 1015 C375 1020 367 1033 362 1033 C356 1033 348 1020 344 1015 L212 813 L219 808 L361 977 L504 808 L511 813 L379 1015 L379 1015 Z " />
<glyph glyph-name="Ydieresis" unicode="&#x178;" horiz-adv-x="711" d="M463 897 C463 940 398 941 398 897 C398 855 463 856 463 897 L463 897 Z M325 897 C325 941 260 940 260 897 C260 856 325 855 325 897 L325 897 Z M252 750 L20 750 L20 730 L35 730 C68 730 103 708 123 675 L123 675 L332 329 L332 90 C332 48 304 20 262 20 L227 20 L227 0 L496 0 L496 20 L461 20 C419 20 391 48 391 90 L391 331 C454 446 517 561 580 675 C598 708 632 730 665 730 L705 730 L705 750 L467 750 L467 730 L527 730 C560 730 570 708 553 675 L553 675 L385 350 C321 458 255 567 192 675 C172 708 181 730 214 730 L252 730 L252 750 L252 750 Z " />
<glyph glyph-name="Zacute" unicode="&#x179;" horiz-adv-x="652" d="M347 813 L486 936 C528 974 556 1001 556 1005 C556 1018 545 1029 532 1029 C528 1029 501 1001 463 959 L340 820 L347 813 L347 813 Z M75 609 L81 629 C100 692 156 735 219 735 L546 737 L25 11 L25 -1 L606 -1 C611 23 620 62 639 142 L622 142 L613 122 C586 62 530 21 471 16 L95 12 L610 737 L610 749 L70 749 C70 736 66 698 58 608 L75 609 L75 609 Z " />
<glyph glyph-name="Zdot" unicode="&#x17b;" horiz-adv-x="652" d="M372 897 C372 940 308 940 308 897 C308 855 372 855 372 897 L372 897 Z M75 609 L81 629 C100 692 156 735 219 735 L546 737 L25 11 L25 -1 L606 -1 C611 23 620 62 639 142 L622 142 L613 122 C586 62 530 21 471 16 L95 12 L610 737 L610 749 L70 749 C70 736 66 698 58 608 L75 609 L75 609 Z " />
<glyph glyph-name="zdot" unicode="&#x17c;" horiz-adv-x="475" d="M283 647 C283 690 219 690 219 647 C219 605 283 605 283 647 L283 647 Z M424 116 L418 101 C396 51 349 17 298 16 L102 13 L435 488 L435 500 L121 500 C103 500 92 511 93 527 L95 532 L73 532 C69 520 65 503 62 491 C62 491 50 448 33 384 L52 384 L61 399 C90 449 143 483 195 484 L375 487 L40 12 L40 0 L368 0 L428 -6 C428 -6 428 -4 429 0 L430 0 C430 28 438 66 443 116 L424 116 L424 116 Z " />
<glyph glyph-name="Zcaron" unicode="&#x17d;" horiz-adv-x="652" d="M482 1042 L340 874 L198 1042 L191 1037 L322 835 C326 830 334 817 340 817 C346 817 354 830 358 835 L489 1037 L482 1042 L482 1042 Z M75 609 L81 629 C100 692 156 735 219 735 L546 737 L25 11 L25 -1 L606 -1 C611 23 620 62 639 142 L622 142 L613 122 C586 62 530 21 471 16 L95 12 L610 737 L610 749 L70 749 C70 736 66 698 58 608 L75 609 L75 609 Z " />
<glyph glyph-name="zcaron" unicode="&#x17e;" horiz-adv-x="475" d="M393 792 L251 624 L109 792 L102 787 L233 585 C237 580 245 567 251 567 C257 567 265 580 269 585 L400 787 L393 792 L393 792 Z M424 116 L418 101 C396 51 349 17 298 16 L102 13 L435 488 L435 500 L121 500 C103 500 92 511 93 527 L95 532 L73 532 C69 520 65 503 62 491 C62 491 50 448 33 384 L52 384 L61 399 C90 449 143 483 195 484 L375 487 L40 12 L40 0 L368 0 L428 -6 C428 -6 428 -4 429 0 L430 0 C430 28 438 66 443 116 L424 116 L424 116 Z " />
<glyph glyph-name="oogonek" unicode="&#x1eb;" horiz-adv-x="719" d="M944 -48 L940 -43 C908 -70 807 -88 687 -88 C540 -88 393 -56 311 -7 C324 -9 338 -10 352 -10 C543 -10 670 111 670 292 C670 473 547 593 362 593 C183 593 64 473 64 292 C64 146 139 39 259 3 C380 -78 548 -132 680 -132 C779 -132 885 -98 945 -48 L944 -48 L944 -48 Z M121 292 C121 465 217 580 360 580 C512 580 613 465 613 292 C613 114 504 -4 340 -4 C209 -4 121 114 121 292 L121 292 Z " />
<glyph glyph-name="Adotabove" unicode="&#x226;" horiz-adv-x="753" d="M439 897 C439 941 374 940 374 897 C374 856 439 855 439 897 L439 897 Z M295 0 L295 25 L268 25 C210 25 183 62 198 119 L252 287 L511 287 C527 233 544 178 559 125 C577 65 549 25 489 25 L462 25 L462 0 L745 0 L745 25 L731 25 C685 25 641 62 622 119 C556 336 492 554 424 770 L419 770 C422 751 406 736 377 732 L380 722 L184 125 C164 65 111 25 51 25 L16 25 L16 0 L295 0 L295 0 Z M257 302 L386 703 L506 302 L257 302 L257 302 Z " />
<glyph glyph-name="G_sc" unicode="&#x262;" horiz-adv-x="700" d="M350 1 C213 1 121 117 121 292 C121 465 212 580 348 580 C380 580 407 577 430 571 C480 556 527 500 548 429 C551 419 555 407 558 397 L580 397 L580 607 L563 607 C562 601 559 593 558 587 C552 560 525 552 490 566 C454 584 408 594 343 594 C174 594 62 474 62 293 C62 112 174 -9 341 -9 C408 -9 468 1 525 18 L558 26 L558 29 C585 39 611 50 637 62 L633 70 C608 58 583 47 558 38 L558 143 C558 194 590 228 639 228 L653 228 L653 253 L410 253 L410 228 L424 228 C473 228 505 194 505 143 L506 143 C506 114 506 84 506 60 C498 22 428 0 350 0 L350 1 L350 1 Z M382 1 C372 0 361 0 350 0 C359 0 370 0 382 1 L382 1 Z " />
<glyph glyph-name="I_sc" unicode="&#x26a;" horiz-adv-x="361" d="M301 20 L266 20 C236 20 216 40 216 70 L216 513 C216 543 236 563 266 563 L301 563 L301 583 L79 583 L79 563 L114 563 C144 563 164 543 164 513 L164 70 C164 40 144 20 114 20 L79 20 L79 0 L301 0 L301 20 L301 20 Z " />
<glyph glyph-name="N_sc" unicode="&#x274;" horiz-adv-x="689" d="M32 563 L67 563 C92 563 120 549 141 527 L140 71 L140 71 C140 41 120 21 90 21 L55 21 L55 1 L241 1 L241 21 L206 21 C176 21 156 41 156 71 L156 71 L154 511 C279 341 404 171 529 1 L540 1 L544 514 L544 514 C544 544 564 564 594 564 L629 564 L629 584 L443 584 L443 564 L478 564 C508 564 528 544 528 514 L528 514 L529 71 C409 242 288 412 167 583 L32 583 L32 563 L32 563 Z " />
<glyph glyph-name="R_sc" unicode="&#x280;" horiz-adv-x="622" d="M72 563 L107 563 C137 563 157 543 157 513 L157 70 C157 40 137 20 107 20 L72 20 L72 0 L295 0 L295 20 L260 20 C230 20 210 40 210 70 L210 282 L294 282 C308 257 362 173 436 61 C476 1 483 -1 612 -1 L612 10 C535 10 531 12 498 61 C424 171 369 253 348 284 C434 296 488 339 488 419 C488 517 411 582 295 582 L71 582 L72 563 L72 563 Z M209 295 L209 572 L279 572 C370 572 430 515 430 429 C430 337 376 295 295 295 L209 295 L209 295 Z " />
<glyph glyph-name="Y_sc" unicode="&#x28f;" horiz-adv-x="629" d="M247 583 L22 583 L22 563 L37 563 C68 563 102 544 124 515 L293 255 L293 91 C293 49 265 21 223 21 L188 21 L188 1 L451 1 L451 21 L416 21 C374 21 346 49 346 91 L346 257 C396 341 445 425 495 509 C514 542 549 564 582 564 L622 564 L622 584 L387 584 L387 564 L446 564 C477 564 488 545 475 516 L341 273 L190 509 C169 542 177 564 210 564 L247 564 L247 583 L247 583 Z " />
<glyph glyph-name="B_sc" unicode="&#x299;" horiz-adv-x="540" d="M314 5 L264 5 C232 5 210 39 210 91 L210 299 L310 299 C317 299 324 299 330 299 C397 294 441 237 441 154 C441 32 390 4 314 4 L314 5 L314 5 Z M330 -1 C432 -1 500 28 500 154 C500 238 451 297 376 306 C443 325 485 375 485 441 C485 525 444 581 270 581 L72 581 L72 556 L107 556 C137 556 157 536 157 506 L157 73 C157 43 137 23 107 23 L72 23 L72 -2 L330 -1 L330 -1 Z M305 307 L210 307 L210 571 L248 571 C398 571 433 517 433 435 C433 358 382 307 305 307 L305 307 Z " />
<glyph glyph-name="H_sc" unicode="&#x29c;" horiz-adv-x="744" d="M684 20 L649 20 C619 20 599 40 599 70 L599 513 C599 543 619 563 649 563 L684 563 L684 583 L461 583 L461 563 L496 563 C526 563 546 543 546 513 L546 311 L246 311 L246 513 C246 543 266 563 296 563 L331 563 L331 583 L108 583 L108 563 L143 563 C173 563 193 543 193 513 L193 70 C193 40 173 20 143 20 L108 20 L108 0 L331 0 L331 20 L296 20 C266 20 246 40 246 70 L246 298 L546 298 L546 70 C546 40 526 20 496 20 L461 20 L461 0 L684 0 L684 20 L684 20 Z " />
<glyph glyph-name="L_sc" unicode="&#x29f;" horiz-adv-x="551" d="M301 583 L79 583 L79 563 L114 563 C144 563 164 543 164 513 L164 70 C164 40 144 20 114 20 L79 20 L79 0 L476 0 L477 4 L477 4 C484 43 493 95 500 134 L483 134 L476 114 C450 51 391 9 328 9 L296 9 C224 9 216 37 216 80 L216 513 C216 543 236 563 266 563 L301 563 L301 583 L301 583 Z " />
<glyph glyph-name="circumflex" unicode="&#x2c6;" horiz-adv-x="340" d="M188 765 C184 770 176 783 170 783 C164 783 156 770 152 765 L21 563 L28 558 L170 726 L312 558 L319 563 L188 765 L188 765 Z " />
<glyph glyph-name="caron" unicode="&#x2c7;" horiz-adv-x="340" d="M312 792 L170 624 L28 792 L21 787 L152 585 C156 580 164 567 170 567 C176 567 184 580 188 585 L319 787 L312 792 L312 792 Z " />
<glyph glyph-name="firsttonechinese" unicode="&#x2c9;" horiz-adv-x="340" d="M20 651 L320 651 L320 686 L20 686 L20 651 L20 651 Z " />
<glyph glyph-name="breve" unicode="&#x2d8;" horiz-adv-x="340" d="M46 745 C49 681 99 639 170 639 C241 639 291 681 294 744 L284 745 C282 702 236 674 170 674 C104 674 58 703 56 746 L46 745 L46 745 Z " />
<glyph glyph-name="dotaccent" unicode="&#x2d9;" horiz-adv-x="340" d="M202 647 C202 690 138 690 138 647 C138 605 202 605 202 647 L202 647 Z " />
<glyph glyph-name="ring" unicode="&#x2da;" horiz-adv-x="340" d="M88 655 C88 705 121 738 170 738 C219 738 252 705 252 655 C252 610 214 572 170 572 C126 572 88 610 88 655 L88 655 Z M74 655 C74 604 118 560 170 560 C222 560 266 604 266 655 C266 712 228 750 170 750 C112 750 74 712 74 655 L74 655 Z " />
<glyph glyph-name="A_sc" unicode="&#x1d00;" horiz-adv-x="678" d="M203 125 L203 125 L237 221 L456 221 L487 125 C507 65 480 25 420 25 L393 25 L393 0 L670 0 L670 25 L655 25 C607 25 562 65 542 125 L542 125 C489 284 438 444 384 602 L379 602 C382 586 367 574 342 570 L345 560 L345 560 L186 115 C163 60 110 24 53 24 L18 24 L18 -1 L295 -1 L295 24 L269 24 C209 24 183 64 204 124 L203 125 L203 125 Z M242 234 L350 544 L452 234 L242 234 L242 234 Z " />
<glyph glyph-name="C_sc" unicode="&#x1d04;" horiz-adv-x="626" d="M563 606 C562 600 559 592 558 586 C552 559 525 551 490 565 C454 583 408 593 343 593 C174 593 62 473 62 292 C62 111 171 -10 334 -10 C395 -10 443 0 482 18 L482 18 C521 36 551 27 557 -4 C558 -10 561 -19 562 -25 L579 -25 L579 187 L557 187 C554 178 550 165 547 156 C525 84 474 26 420 12 L420 12 C237 -36 120 86 120 292 C120 465 211 580 347 580 C379 580 406 577 429 571 C479 556 526 500 547 429 C550 419 554 407 557 397 L579 397 L579 607 L563 606 L563 606 Z M571 102 L571 102 L571 102 L571 102 Z " />
<glyph glyph-name="D_sc" unicode="&#x1d05;" horiz-adv-x="730" d="M250 11 C214 11 210 39 210 80 L210 573 C210 573 252 573 252 572 C492 572 616 460 616 292 C616 107 470 11 250 11 L250 11 Z M72 563 L107 563 C137 563 157 543 157 513 L157 70 C157 40 137 20 107 20 L72 20 L72 0 L266 0 C511 0 675 99 675 292 C675 467 545 583 294 583 L72 583 L72 563 L72 563 Z " />
<glyph glyph-name="E_sc" unicode="&#x1d07;" horiz-adv-x="557" d="M460 583 L52 583 L52 563 L87 563 C129 563 157 535 157 493 L157 90 C157 48 129 20 87 20 L52 20 L52 0 L485 0 L486 5 L486 5 C493 44 502 97 509 136 L492 136 L485 116 C459 53 400 11 337 11 L290 11 C218 11 210 39 210 80 L210 299 L275 299 C323 299 362 267 372 219 L383 164 L400 164 L400 447 L383 447 L372 392 C362 344 323 312 275 312 L210 312 L210 572 L336 572 C384 572 427 540 443 492 L461 437 L478 437 C472 477 463 530 457 571 L459 571 L460 583 L460 583 Z " />
<glyph glyph-name="J_sc" unicode="&#x1d0a;" horiz-adv-x="361" d="M301 583 L79 583 L79 563 L114 563 C143 563 162 545 164 517 C164 390 163 110 163 -29 C163 -174 107 -202 66 -202 C40 -202 52 -160 26 -160 C12 -160 2 -169 2 -183 C2 -206 22 -221 53 -221 C122 -221 217 -174 217 71 C217 183 216 406 216 516 C218 543 237 561 265 561 L300 561 L301 583 L301 583 Z " />
<glyph glyph-name="K_sc" unicode="&#x1d0b;" horiz-adv-x="632" d="M614 20 L579 20 C551 20 516 37 490 63 L251 326 L405 506 C438 541 483 564 519 564 L559 564 L559 584 L296 584 L296 564 L334 564 C390 564 400 529 359 475 L209 293 L209 514 C209 544 229 564 259 564 L294 564 L294 584 L71 584 L71 564 L106 564 C136 564 156 544 156 514 L156 71 C156 41 136 21 106 21 L71 21 L71 1 L294 1 L294 21 L259 21 C229 21 209 41 209 71 L209 293 L482 1 L613 1 L614 20 L614 20 Z " />
<glyph glyph-name="M_sc" unicode="&#x1d0d;" horiz-adv-x="783" d="M547 0 L769 0 L769 20 L734 20 C706 20 686 37 682 63 C677 213 671 364 666 513 C665 543 684 563 714 563 L748 563 L748 583 L612 583 L420 72 L199 583 L59 583 L59 563 L94 563 C117 563 140 551 155 532 L137 58 C131 35 111 21 86 21 L51 21 L51 1 L239 1 L239 21 L205 21 C175 21 155 41 156 71 L168 509 C243 339 318 169 393 0 L406 0 L614 538 L630 63 C628 37 609 20 581 20 L547 20 L547 0 L547 0 Z " />
<glyph glyph-name="O_sc" unicode="&#x1d0f;" horiz-adv-x="724" d="M120 292 C120 465 216 580 359 580 C511 580 612 465 612 292 C612 119 509 3 354 3 C214 3 120 119 120 292 L120 292 Z M63 292 C63 111 178 -10 351 -10 C542 -10 669 111 669 292 C669 473 546 593 361 593 C182 593 63 473 63 292 L63 292 Z " />
<glyph glyph-name="P_sc" unicode="&#x1d18;" horiz-adv-x="476" d="M308 20 L273 20 C243 20 223 40 223 70 L223 273 L258 273 C377 273 456 319 456 420 C456 518 391 583 293 583 L85 583 L85 563 L120 563 C150 563 170 543 170 513 L170 70 C170 40 150 20 120 20 L85 20 L85 0 L308 0 L308 20 L308 20 Z M223 284 L223 574 L280 574 C356 574 406 516 406 429 C406 329 347 284 258 284 L223 284 L223 284 Z " />
<glyph glyph-name="T_sc" unicode="&#x1d1b;" horiz-adv-x="715" d="M642 628 L630 628 L626 621 C611 598 568 583 519 583 L196 583 C147 583 104 598 89 621 L85 628 L73 628 C68 614 60 598 56 583 L55 583 C55 580 54 578 54 576 L53 576 C37 536 16 484 -1 444 L16 444 L42 484 C73 535 129 569 180 569 L331 569 L331 69 C331 39 311 19 281 19 L246 19 L246 -1 L469 -1 L469 19 L434 19 C404 19 384 39 384 69 L384 569 L535 569 C586 569 642 535 673 484 L699 444 L716 444 C699 484 705 470 664 575 C657 591 648 611 642 627 L642 628 L642 628 Z " />
<glyph glyph-name="U_sc" unicode="&#x1d1c;" horiz-adv-x="615" d="M585 50 L550 40 C520 32 500 47 500 77 L500 583 L362 583 L362 563 L397 563 C427 563 447 543 447 513 L447 156 C410 77 329 24 244 24 C203 24 175 95 175 202 L175 583 L37 583 L37 563 L72 563 C102 563 122 543 122 513 L122 202 C122 75 162 -10 223 -10 C318 -10 407 47 447 132 L447 0 L473 0 C476 0 500 6 500 7 C528 15 559 23 585 30 L585 50 L585 50 Z " />
<glyph glyph-name="V_sc" unicode="&#x1d20;" horiz-adv-x="677" d="M134 458 L134 458 C195 302 257 147 318 -10 L328 -10 C392 146 456 303 521 458 C546 518 592 558 638 558 L652 558 L652 583 L401 583 L401 558 L441 558 C499 558 524 521 504 465 L353 81 L197 459 L198 459 C173 519 196 559 256 559 L281 559 L281 584 L20 584 L20 559 L31 559 C69 559 110 519 134 459 L134 458 L134 458 Z " />
<glyph glyph-name="W_sc" unicode="&#x1d21;" horiz-adv-x="936" d="M357 558 C398 558 436 526 452 478 L483 389 L482 389 L333 64 L180 484 C167 529 187 558 233 558 L254 558 L254 583 L19 583 L19 558 L30 558 C66 558 102 529 120 485 C179 320 238 154 298 -11 L311 -11 L489 367 C532 241 575 116 618 -10 L631 -10 C686 153 740 316 795 478 C811 526 854 558 902 558 L917 558 L917 583 L665 583 L665 558 L722 558 C771 558 792 526 777 478 L646 73 L506 487 C495 530 516 558 561 558 L603 558 L603 583 L344 583 L344 558 L357 558 L357 558 Z " />
<glyph glyph-name="Z_sc" unicode="&#x1d22;" horiz-adv-x="592" d="M75 444 L81 464 C100 527 156 569 219 570 L491 572 L25 10 L25 -1 L546 -1 C546 -1 548 4 550 13 C551 13 561 60 580 140 L563 140 L554 120 C526 57 463 16 400 14 L90 11 L550 572 L550 582 L505 582 L501 583 L500 582 L70 582 C70 570 66 530 58 442 L75 444 L75 444 Z " />
<glyph glyph-name="Wgrave" unicode="&#x1e80;" horiz-adv-x="1063" d="M507 645 L507 645 L553 500 L368 71 C306 262 244 454 183 645 C168 693 189 725 237 725 L259 725 L259 750 L17 750 L17 725 L28 725 C66 725 102 693 118 645 L118 645 C190 427 262 210 332 -9 L347 -9 L560 476 C611 314 662 152 713 -9 L728 -9 L928 656 C945 699 985 727 1030 727 L1045 727 L1045 752 L790 752 L790 727 L848 727 C896 727 918 695 904 647 L904 647 L740 84 C684 272 627 460 571 647 C557 695 579 727 627 727 L669 727 L669 752 L402 752 L402 727 L414 727 C455 727 492 695 507 647 L507 645 L507 645 Z M315 1007 C315 1001 343 974 385 938 L524 815 L531 822 L408 961 C372 1003 345 1031 339 1031 C326 1031 315 1020 315 1007 L315 1007 Z " />
<glyph glyph-name="Wacute" unicode="&#x1e82;" horiz-adv-x="1063" d="M528 813 L667 936 C709 974 737 1001 737 1005 C737 1018 726 1029 713 1029 C709 1029 682 1001 644 959 L521 820 L528 813 L528 813 Z M507 645 L507 645 L553 500 L368 71 C306 262 244 454 183 645 C168 693 189 725 237 725 L259 725 L259 750 L17 750 L17 725 L28 725 C66 725 102 693 118 645 L118 645 C190 427 262 210 332 -9 L347 -9 L560 476 C611 314 662 152 713 -9 L728 -9 L928 656 C945 699 985 727 1030 727 L1045 727 L1045 752 L790 752 L790 727 L848 727 C896 727 918 695 904 647 L904 647 L740 84 C684 272 627 460 571 647 C557 695 579 727 627 727 L669 727 L669 752 L402 752 L402 727 L414 727 C455 727 492 695 507 647 L507 645 L507 645 Z " />
<glyph glyph-name="Wdieresis" unicode="&#x1e84;" horiz-adv-x="1063" d="M622 897 C622 941 557 940 557 897 C557 856 622 855 622 897 L622 897 Z M485 897 C485 940 420 941 420 897 C420 855 485 856 485 897 L485 897 Z M507 645 L507 645 L553 500 L368 71 C306 262 244 454 183 645 C168 693 189 725 237 725 L259 725 L259 750 L17 750 L17 725 L28 725 C66 725 102 693 118 645 L118 645 C190 427 262 210 332 -9 L347 -9 L560 476 C611 314 662 152 713 -9 L728 -9 L928 656 C945 699 985 727 1030 727 L1045 727 L1045 752 L790 752 L790 727 L848 727 C896 727 918 695 904 647 L904 647 L740 84 C684 272 627 460 571 647 C557 695 579 727 627 727 L669 727 L669 752 L402 752 L402 727 L414 727 C455 727 492 695 507 647 L507 645 L507 645 Z " />
<glyph glyph-name="Etilde" unicode="&#x1ebc;" horiz-adv-x="621" d="M198 870 C198 910 216 936 243 936 C297 936 368 871 422 871 C463 871 490 909 490 966 L481 966 C481 930 462 906 434 906 C380 906 308 971 254 971 C215 971 189 931 189 870 L198 870 L198 870 Z M524 750 L50 750 L50 730 L85 730 C127 730 155 702 155 660 L155 90 C155 48 127 20 85 20 L50 20 L50 0 L549 0 L550 6 L550 6 C557 46 566 98 573 138 L556 138 L549 118 C523 55 464 13 401 13 L294 13 C222 13 214 40 214 80 L214 385 L339 385 C387 385 426 353 436 305 L447 250 L464 250 L464 534 L447 534 L436 479 C426 431 387 399 339 399 L214 399 L214 738 L401 738 C449 738 492 706 508 658 L526 603 L543 603 C537 643 528 696 522 737 L523 737 L524 750 L524 750 Z " />
<glyph glyph-name="Ygrave" unicode="&#x1ef2;" horiz-adv-x="711" d="M252 750 L20 750 L20 730 L35 730 C68 730 103 708 123 675 L123 675 L332 329 L332 90 C332 48 304 20 262 20 L227 20 L227 0 L496 0 L496 20 L461 20 C419 20 391 48 391 90 L391 331 C454 446 517 561 580 675 C598 708 632 730 665 730 L705 730 L705 750 L467 750 L467 730 L527 730 C560 730 570 708 553 675 L553 675 L385 350 C321 458 255 567 192 675 C172 708 181 730 214 730 L252 730 L252 750 L252 750 Z M156 1005 C156 999 184 972 226 936 L365 813 L371 820 L249 959 C213 1001 187 1029 181 1029 C168 1029 156 1018 156 1005 L156 1005 Z " />
<glyph glyph-name="quoteleft" unicode="&#x2018;" horiz-adv-x="508" d="M76 632 C76 633 76 634 76 635 C76 694 98 739 131 748 L121 759 C86 750 62 696 62 625 C62 605 74 592 91 592 C105 592 115 601 115 615 C115 634 89 649 77 631 L76 632 L76 632 Z " />
<glyph glyph-name="quoteright" unicode="&#x2019;" horiz-adv-x="48" d="M92 720 C92 656 78 609 58 604 L69 593 C92 599 108 654 108 731 C108 748 96 760 78 760 C64 760 54 750 54 736 C54 717 79 703 92 719 L92 720 L92 720 Z " />
<glyph glyph-name="quotedblleft" unicode="&#x201c;" horiz-adv-x="508" d="M137 632 C137 633 137 634 137 635 C137 694 159 739 192 748 L182 759 C147 750 123 696 123 625 C123 605 135 592 152 592 C166 592 176 601 176 615 C176 634 150 649 138 631 L137 632 L137 632 Z M65 631 C65 632 65 633 65 634 C65 693 87 738 120 747 L110 758 C75 749 51 695 51 624 C51 604 63 591 80 591 C94 591 104 600 104 614 C104 633 78 648 66 630 L65 631 L65 631 Z " />
<glyph glyph-name="quotedblright" unicode="&#x201d;" horiz-adv-x="508" d="M165 720 C165 656 152 609 132 604 L143 593 C166 599 181 654 181 731 C181 748 169 760 151 760 C121 760 120 713 151 713 C157 713 162 715 165 719 L165 720 L165 720 Z M92 719 C92 655 78 608 58 603 L69 592 C92 598 108 653 108 730 C108 747 96 759 78 759 C64 759 54 749 54 735 C54 716 79 702 92 718 L92 719 L92 719 Z " />
<glyph glyph-name="perthousand" unicode="&#x2030;" horiz-adv-x="1127" d="M869 204 C869 310 906 380 961 380 C1025 380 1068 302 1068 184 C1068 77 1030 6 972 6 C910 6 869 85 869 204 L869 204 Z M820 195 C820 72 879 -10 968 -10 C1056 -10 1115 74 1115 201 C1115 317 1056 395 968 395 C879 395 820 315 820 195 L820 195 Z M79 565 C79 673 116 745 171 745 C235 745 278 665 278 545 C278 441 240 371 182 371 C120 371 79 449 79 565 L79 565 Z M30 555 C30 435 89 355 178 355 C266 355 325 438 325 562 C325 681 266 760 178 760 C89 760 30 678 30 555 L30 555 Z M532 204 C532 310 569 380 625 380 C693 380 738 302 738 184 C738 77 697 6 636 6 C574 6 532 85 532 204 L532 204 Z M483 194 C483 72 543 -10 632 -10 C724 -10 785 74 785 201 C785 317 724 395 632 395 C543 395 483 315 483 194 L483 194 Z M189 -7 L654 743 L632 757 L167 7 L189 -7 L189 -7 Z " />
<glyph glyph-name="fraction" unicode="&#x2044;" horiz-adv-x="496" d="M41 -7 L506 743 L484 757 L19 7 L41 -7 L41 -7 Z " />
<glyph glyph-name="Euro" unicode="&#x20ac;" horiz-adv-x="756" d="M696 745 C695 739 693 730 692 724 C687 696 664 689 633 706 C585 740 525 760 434 760 C258 760 135 633 114 436 L60 436 L55 400 L112 400 C111 384 111 367 112 351 L56 351 L51 315 L115 315 C135 118 254 -9 425 -9 C526 -9 598 19 655 65 C644 56 633 48 623 42 C659 64 686 58 692 25 C693 18 695 10 696 3 L711 3 L711 122 L702 129 L702 129 L711 121 L711 216 L690 216 C687 207 685 195 682 186 C662 117 615 56 563 32 L563 32 C524 14 480 4 428 4 C290 4 194 125 177 314 L482 314 L487 350 L174 350 C173 366 173 383 174 399 L487 399 L492 435 L177 435 C195 623 295 744 438 744 C489 744 530 735 565 719 L565 719 C614 696 661 634 681 563 C684 554 686 542 689 533 L710 533 L710 744 L696 745 L696 745 Z M621 40 L621 40 L621 40 L621 40 Z " />
<glyph glyph-name="F_sc" unicode="&#xa730;" horiz-adv-x="532" d="M52 563 L87 563 C129 563 157 535 157 493 L157 90 C157 48 129 20 87 20 L52 20 L52 0 L315 0 L315 20 L280 20 C238 20 210 48 210 90 L210 299 L265 299 C313 299 352 267 362 219 L373 164 L390 164 L390 447 L373 447 L362 392 C352 344 313 312 265 312 L210 312 L210 574 L336 574 C384 574 427 542 443 494 L461 439 L478 439 C472 481 466 537 460 579 L461 579 L460 583 L52 583 L52 563 L52 563 Z " />
<glyph glyph-name="S_sc" unicode="&#xa731;" horiz-adv-x="485" d="M385 611 C384 606 381 599 380 594 C374 572 351 564 321 574 C291 587 256 594 219 594 C131 594 73 536 73 449 C73 388 134 320 251 265 C350 219 401 168 401 126 C401 34 311 -10 210 14 C155 29 105 89 84 167 C81 177 78 192 75 202 L52 202 L52 -32 L70 -32 C71 -25 73 -15 74 -8 C80 26 112 36 153 16 C187 -1 226 -10 267 -10 C373 -10 444 50 444 140 C444 202 389 270 283 319 C171 371 114 426 114 469 C114 544 163 585 238 579 C297 572 349 519 370 444 C373 434 377 421 380 411 L402 411 L402 610 L385 611 L385 611 Z M61 118 L61 118 L61 118 L61 118 Z " />
<glyph glyph-name="X_sc" unicode="&#xf078;" horiz-adv-x="667" d="M656 583 L428 583 L428 563 L484 563 C517 563 523 541 499 508 L499 508 L363 319 L232 515 C215 544 223 563 254 563 L291 563 L291 583 L66 583 L66 563 L81 563 C114 563 151 541 173 508 L173 508 L325 281 L164 67 C139 39 104 21 74 21 L34 21 L34 1 L260 1 L260 21 L205 21 C174 21 166 39 183 67 L332 272 L468 69 C485 40 477 21 446 21 L409 21 L409 1 L634 1 L634 21 L619 21 C586 21 549 43 527 76 L527 76 L370 310 C420 376 469 443 520 509 C545 542 583 564 616 564 L656 564 L656 583 L656 583 Z " />
</font>
</svg>
