<?xml version="1.0" encoding="UTF-8"?>
<svg xmlns="http://www.w3.org/2000/svg" xmlns:xlink="http://www.w3.org/1999/xlink" version="1.2" >
<font id="Adallyn Smooth">
<font-face  font-family="Adallyn" units-per-em="1024" ascent="975" descent="-300" font-style="normal" font-weight="400" font-stretch="normal" cap-height="1044" x-height="488" underline-position="-125" underline-thickness="50" />
<missing-glyph  horiz-adv-x="100" d="" />
<glyph glyph-name="NULL" d="" />
<glyph glyph-name="CR" unicode="&#xd;" horiz-adv-x="256" d="" />
<glyph glyph-name="space" unicode="&#x20;" horiz-adv-x="250" d="" />
<glyph glyph-name="exclam" unicode="&#x21;" horiz-adv-x="244" d="M122 -5 C158 -5 182 19 182 55 C182 91 158 115 122 115 C86 115 62 91 62 55 C62 19 86 -5 122 -5 L122 -5 Z M122 755 C101.5 755 87 744.5 78.375 726.125 C58.2586 683.268 78.4 566 92 430 C105.6 294 117.055 210 122 210 C126.945 210 138.4 294 152 430 C165.6 566 185.741 683.268 165.625 726.125 C157 744.5 142.5 755 122 755 L122 755 Z " />
<glyph glyph-name="quotedbl" unicode="&#x22;" horiz-adv-x="325" d="M212 750 C193 750 181 732 187 705 L202 632.5 C211.273 587.682 218.909 560 222 560 C225.091 560 232.727 587.682 242 632.5 L257 705 C263 732 252 750 232 750 L212 750 L212 750 Z M92 750 C73 750 61 732 67 705 L82 632.5 C91.2727 587.682 98.9091 560 102 560 C105.091 560 112.727 587.682 122 632.5 L137 705 C143 732 132 750 112 750 L92 750 L92 750 Z " />
<glyph glyph-name="numbersign" unicode="&#x23;" horiz-adv-x="545" d="M377 580 C368.964 526.218 337.845 493 295.5 493 C253.155 493 231.964 526.218 240 580 C248.036 633.782 246.509 667 236 667 C225.491 667 214.036 633.782 206 580 C197.964 526.218 168.945 493 130 493 C91.0545 493 65.2818 480.4 62.5 460 C59.7182 439.6 81.8636 427 120.5 427 C159.136 427 177.464 389.964 168.5 330 C159.536 270.036 129.564 233 90 233 C50.4364 233 24.0909 220.4 21 200 C17.9091 179.6 40.4364 167 80 167 C119.564 167 139.227 135.118 131.5 83.5 C123.773 31.8818 125.491 0 136 0 C146.509 0 157.773 31.8818 165.5 83.5 C173.227 135.118 204.155 167 246.5 167 C288.845 167 310.227 135.118 302.5 83.5 C294.773 31.8818 296.491 0 307 0 C317.509 0 328.773 31.8818 336.5 83.5 C344.227 135.118 371.718 167 408.5 167 C445.282 167 469.909 179.6 473 200 C476.091 220.4 455.282 233 418.5 233 C381.718 233 364.536 270.036 373.5 330 C382.464 389.964 412.436 427 452 427 C491.564 427 517.718 439.6 520.5 460 C523.282 480.4 500.755 493 461.5 493 C422.245 493 402.964 526.218 411 580 C419.036 633.782 417.509 667 407 667 C396.491 667 385.036 633.782 377 580 L377 580 Z M285.5 427 C327.845 427 348.464 389.964 339.5 330 C330.536 270.036 298.845 233 256.5 233 C214.155 233 193.536 270.036 202.5 330 C211.464 389.964 243.155 427 285.5 427 L285.5 427 Z " />
<glyph glyph-name="dollar" unicode="&#x24;" horiz-adv-x="551" d="M70 11.5 C70.75 15.5 71.5 19.5 72 23 C75 39 84.25 48.25 97.625 50.25 C129.986 55.0891 160.411 25.4229 182.375 15.25 C204.42 5.03987 219 -13.5091 219 -37 C219 -60.4909 224.727 -75 234 -75 C243.273 -75 249 -61.8273 249 -40.5 C249 -19.1727 258.517 -7.96022 274.125 -9.125 C290.085 -10.3161 300 -22.4091 300 -42.5 C300 -62.5909 305.727 -75 315 -75 C324.273 -75 330 -62.2091 330 -41.5 C330 -20.7909 401.238 -10.4876 462.25 57.25 C494 92.5 512 140 512 196 C512 243.5 496.5 289 466 328.375 C403.063 409.625 330 480.891 330 573 C330 665.109 363.114 709.923 395.125 669.125 C432.862 621.029 441.909 575.082 445 565.5 C448.091 555.918 454.2 550 461 550 C467.8 550 472 588.945 472 652 C472 715.055 468.755 754 463.5 754 C458.245 754 454.271 750.869 452.5 746 C451.5 743.25 450.5 740.5 450 738 C444 715 419 711 388 728 C379 733 369.75 737.5 360.125 741.375 C341.989 748.676 330 765.127 330 788 C330 810.873 324.273 825 315 825 C305.727 825 300 812.018 300 791 C300 769.982 290.825 758.33 275.875 759.25 C260.52 760.195 251 772.409 251 792.5 C251 812.591 245.273 825 236 825 C226.727 825 221 812.018 221 791 C221 769.982 158.401 755.974 108.25 693.75 C81.25 660.25 66 615.5 66 563 C66 518.5 79 476 104.875 438.25 C157.59 361.343 221 283.391 221 188.5 L221 35 C220 36 207 40 207 41 C181.5 51.5 156.5 73.5 135 102.875 C92.0107 161.61 82.2034 215.087 79.5 225 C76.7966 234.913 70.6091 241 63.5 241 C56.3909 241 52 195.182 52 121 C52 46.8182 55.0545 0.809091 60 0.5 C64.9455 0.190909 68.6702 4.40779 70 11.5 L70 11.5 Z M276.75 319 C291.896 313.209 301 254.4 301 166 C301 77.6 291.106 22.0586 275.25 23.5 C260.166 24.8713 251 84.6545 251 178 C251 271.345 260.8 325.099 276.75 319 L276.75 319 Z M407.5 233.625 C424.5 212.25 433 190 433 168 C433 131.5 423 100 405.25 75.75 C372.818 31.442 331 77.9727 331 160.5 C331 243.027 370 280.776 407.5 233.625 L407.5 233.625 Z M251 598 C251 682.691 260.748 735.899 276.375 734.5 C291.689 733.129 301 674.682 301 583.5 C301 492.318 290.847 440.258 274.875 448.125 C259.832 455.534 251 513.309 251 598 L251 598 Z M164.25 538.25 C151.5 558.75 145 580 145 601 C145 633 152.25 661 165.375 683 C188.236 721.32 221 681.464 221 604.5 C221 527.536 190.801 495.56 164.25 538.25 L164.25 538.25 Z " />
<glyph glyph-name="percent" unicode="&#x25;" horiz-adv-x="801" d="M114 570 C114 669 136 735 170 735 C220 735 253 655 253 536 C253 444 227 383 189 383 C144 383 114 458 114 570 L114 570 Z M30 553 C30 434 91 355 182 355 C273 355 333 439 333 565 C333 682 273 760 182 760 C91 760 30 677 30 553 L30 553 Z M554 209 C554 306 579 370 616 370 C672 370 709 292 709 175 C709 81 679 18 635 18 C586 18 554 94 554 209 L554 209 Z M470 192 C470 71 533 -10 628 -10 C725 -10 789 76 789 204 C789 319 725 395 628 395 C533 395 470 314 470 192 L470 192 Z M433.5 363 C577.227 594.818 658.745 742.582 647 750 C635.255 757.418 539.227 618.818 395.5 387 C251.773 155.182 170.255 7.41818 182 0 C193.745 -7.41818 289.773 131.182 433.5 363 L433.5 363 Z " />
<glyph glyph-name="ampersand" unicode="&#x26;" horiz-adv-x="910" d="M444.25 529.125 C472.75 554.75 489 583.5 489 612 C489 701 419 761 315 761 C213 761 145 697 145 600 C145 580 154 557.25 170.125 530.875 C206.699 471.052 162.315 427.3 94.375 345.625 C59.75 304 40 254 40 201 C40 76 122 -8 245 -8 C289 -8 333.75 4 377.875 26.625 C467.17 72.4109 512.111 118.624 520.625 108.5 C525.25 103 530 97.5 535 92 C585 32 651 -8 700 -8 C735 -8 766 7.5 789.625 34.75 C839.029 91.7349 832.136 148.955 827.5 150.5 C822.864 152.045 821.77 119.324 791.375 86.375 C776.5 70.25 757 61 735 61 C697 61 647 91 609 136 C601 145.5 593.25 154.75 585.625 163.75 C571.777 180.095 605.084 239.523 654.375 330.875 C709.026 432.162 726.182 501 720 501 C713.818 501 690.11 435.127 635.75 339.875 C587.454 255.248 487.714 280.545 391.625 390.25 C350.803 436.856 382.413 473.526 444.25 529.125 L444.25 529.125 Z M246.5 572.75 C229.5 600.5 220 624.5 220 646 C220 704 258 742 315 742 C378 742 420 692 420 618 C420 586.5 409.875 556.75 392.125 532.125 C358.878 486.001 285.09 509.758 246.5 572.75 L246.5 572.75 Z M389.75 92 C357.5 78.25 325 71 293 71 C194 71 128 133 128 226 C128 274 139.25 318 159.25 353.75 C193.843 415.586 271.055 398.912 317.375 346.125 C421.839 227.076 453.765 119.293 389.75 92 L389.75 92 Z " />
<glyph glyph-name="quotesingle" unicode="&#x27;" horiz-adv-x="204" d="M92 750 C73 750 61 732 67 705 L82 632.5 C91.2727 587.682 98.9091 560 102 560 C105.091 560 112.727 587.682 122 632.5 L137 705 C143 732 132 750 112 750 L92 750 L92 750 Z " />
<glyph glyph-name="parenleft" unicode="&#x28;" horiz-adv-x="230" d="M101.125 566.75 C75 488.5 60 393.5 60 273 C60 152.5 75 57.5 101.125 -20.75 C144.452 -150.524 211.1 -212.282 214.5 -209.5 C217.9 -206.718 174.612 -151.217 152 -47.75 C135.5 27.75 126 130.5 126 273 C126 415.5 135.5 518.25 152 593.75 C174.612 697.217 217.9 752.718 214.5 755.5 C211.1 758.282 144.452 696.524 101.125 566.75 L101.125 566.75 Z " />
<glyph glyph-name="parenright" unicode="&#x29;" horiz-adv-x="175" d="M77.5 589.5 C95 506 105 396.5 105 273 C105 149.5 95 40 77.5 -43.5 C55.1679 -150.056 5.95455 -205.909 7.5 -209 C9.04545 -212.091 82.7605 -159.503 122.375 -35 C149.5 50.25 165 157 165 273 C165 389 149.5 495.75 122.375 581 C82.7605 705.503 9.04545 758.091 7.5 755 C5.95455 751.909 55.1679 696.056 77.5 589.5 L77.5 589.5 Z " />
<glyph glyph-name="asterisk" unicode="&#x2a;" horiz-adv-x="296" d="M285.875 682.875 C291.669 696.731 278.485 719.269 263.875 721.25 C248.979 723.27 224.2 698.3 197 674.5 C169.8 650.7 157.391 657.764 164.5 693 C171.609 728.236 181.27 762.155 172 774 C167.5 779.75 160 783 150 783 C140 783 132.5 779.75 128 774 C118.73 762.155 128.391 728.236 135.5 693 C142.609 657.764 130.2 650.7 103 674.5 C75.8 698.3 51.0212 723.27 36.125 721.25 C21.515 719.269 8.33051 696.731 14.125 682.875 C20.0072 668.809 54 659.936 88 648.5 C122 637.064 122 622.936 88 611.5 C54 600.064 20.0801 591.231 14.125 577.25 C11.25 570.5 12 562.5 17 554 C22 545 28.75 540 36.125 538.875 C50.9598 536.612 52.8609 557.769 43 575.25 C36.8122 586.219 37.9636 584.218 46 570 C54.0364 555.782 75.8 561.7 103 585.5 C130.2 609.3 142.609 602.236 135.5 567 C128.391 531.764 118.73 497.845 128 486 C132.5 480.25 140 477 150 477 C160 477 167.5 480.25 172 486 C181.27 497.845 171.609 531.764 164.5 567 C157.391 602.236 169.8 609.3 197 585.5 C224.2 561.7 249.04 536.612 263.875 538.875 C271.25 540 278 545 283 554 C288 562.5 288.75 570.5 285.875 577.25 C279.92 591.231 262.036 584.218 254 570 C245.964 555.782 245.964 555.782 254 570 C262.036 584.218 246 600.064 212 611.5 C178 622.936 178 637.064 212 648.5 C246 659.936 279.993 668.809 285.875 682.875 L285.875 682.875 Z " />
<glyph glyph-name="plus" unicode="&#x2b;" horiz-adv-x="620" d="M277 370 C277 314.364 243.209 280 188.5 280 C133.791 280 100 268.545 100 250 C100 231.455 133.791 220 188.5 220 C243.209 220 277 185.636 277 130 C277 74.3636 289.6 40 310 40 C330.4 40 343 74.3636 343 130 C343 185.636 376.791 220 431.5 220 C486.209 220 520 231.455 520 250 C520 268.545 486.209 280 431.5 280 C376.791 280 343 314.364 343 370 C343 425.636 330.4 460 310 460 C289.6 460 277 425.636 277 370 L277 370 Z " />
<glyph glyph-name="comma" unicode="&#x2c;" horiz-adv-x="265" d="M159.875 -3 C160 -7 160 -11 160 -15 C160 -39 150.5 -59 133.875 -73 C99.6861 -101.791 65 -98.8182 65 -105 C65 -111.182 115.289 -123.328 159.25 -79.125 C182 -56.25 195 -23.5 195 16 C195 75 167 115 125 115 C89 115 65 91 65 55 C65 19 89 -5 125 -5 C132 -5 138.375 -3.75 144.125 -1.375 C154.723 3.00229 159.643 4.43425 159.875 -3 L159.875 -3 Z " />
<glyph glyph-name="hyphen" unicode="&#x2d;" horiz-adv-x="430" d="M215 250 C298.455 250 350 263.364 350 285 C350 306.636 298.455 320 215 320 C131.545 320 80 306.636 80 285 C80 263.364 131.545 250 215 250 L215 250 Z " />
<glyph glyph-name="period" unicode="&#x2e;" horiz-adv-x="195" d="M125 -5 C161 -5 185 19 185 55 C185 91 161 115 125 115 C89 115 65 91 65 55 C65 19 89 -5 125 -5 L125 -5 Z " />
<glyph glyph-name="slash" unicode="&#x2f;" horiz-adv-x="389" d="M168 345 C80.8364 82.2727 36.5455 -80 52 -80 C67.4545 -80 130.836 82.2727 218 345 C305.164 607.727 349.455 770 334 770 C318.545 770 255.164 607.727 168 345 L168 345 Z " />
<glyph glyph-name="zero" unicode="0" horiz-adv-x="610" d="M85 250 C85 372 173 475 305 475 C424 475 525 385 525 250 C525 128 437 25 305 25 C186 25 85 115 85 250 L85 250 Z M45 250 C45 94 165 -10 305 -10 C461 -10 565 110 565 250 C565 406 445 510 305 510 C149 510 45 390 45 250 L45 250 Z " />
<glyph glyph-name="one" unicode="1" horiz-adv-x="365" d="M292.5 20 L275 20 C245 20 225 40 225 70 L225 430 C225 460 245 480 275 480 L292.5 480 C303.318 480 310 483.818 310 490 C310 496.182 261.318 500 182.5 500 C103.682 500 55 496.182 55 490 C55 483.818 61.6818 480 72.5 480 L90 480 C120 480 140 460 140 430 L140 70 C140 40 120 20 90 20 L72.5 20 C61.6818 20 55 16.1818 55 10 C55 3.81818 103.682 0 182.5 0 C261.318 0 310 3.81818 310 10 C310 16.1818 303.318 20 292.5 20 L292.5 20 Z " />
<glyph glyph-name="two" unicode="2" horiz-adv-x="541" d="M506 135 L502 130 C474 97 431 75 392 75 L280 75 C210.764 75 255.446 112.105 363.375 213.375 C412 259 441 303.5 441 345 C441 444 373 510 270 510 C215 510 164.75 488.5 125.125 450.75 C46.1274 375.49 47.2455 293.236 52.5 292 C57.7545 290.764 62.7152 348.679 119.875 402.375 C148.75 429.5 185.5 445 226 445 C304 445 356 397 356 325 C356 269 317.25 213.25 255.625 159.875 C124.097 45.9554 19.9091 7.47273 23 5 C26.0909 2.52727 26.2818 0.618182 23.5 0 C20.7182 -0.618182 97.6545 -1 225 -1 C352.345 -1 439.973 13.3182 454.5 36.5 L478 74 C492 94 507 115 519 133 C518 134 515.875 135.625 514 137 C511.856 138.572 508.473 138.091 506 135 L506 135 Z " />
<glyph glyph-name="three" unicode="3" horiz-adv-x="434" d="M18.5 -223.5 C19.4273 -228.755 143.177 -242.723 291 -148.5 C356.5 -106.75 394 -53 394 7 C394 58 372.5 100.5 333.875 131.5 C250.918 198.081 241.373 208.695 323.5 284.875 C359.75 318.5 380 353 380 388 C380 462 315 512 217 512 C169 512 125.25 496 90.75 468.125 C25.775 415.627 23.6273 352.045 29.5 350.5 C35.3727 348.955 43.9153 390.483 89.25 423.25 C114.5 441.5 147 452 183 452 C247 452 289 415 289 359 C289 320.5 270 285.75 236.75 254.625 C164.257 186.765 99 168.755 99 163.5 C99 158.245 171.825 158.864 248.5 95.5 C284.5 65.75 305 27.5 305 -15 C305 -65.5 276.25 -110.75 225.875 -145.625 C114.168 -222.961 17.5727 -218.245 18.5 -223.5 L18.5 -223.5 Z " />
<glyph glyph-name="four" unicode="4" horiz-adv-x="620" d="M613 131 C613 132 608.5 133 604 133.75 C598.459 134.673 593.473 130.227 591 122.5 C588.527 114.773 584.654 92.0905 565.5 77.375 C555.25 69.5 542.5 65 529 65 L472 65 C436.764 65 415 153.773 415 297.5 C415 441.227 412.9 530 409.5 530 C406.1 530 329.736 431.682 209.5 272.5 C89.2636 113.318 15 12.1364 15 7.5 C15 2.86364 75.1364 0 172.5 0 C269.864 0 330 -42 330 -110 C330 -178 346.227 -220 372.5 -220 C398.773 -220 415 -178 415 -110 C415 -42 435.045 0 467.5 0 L520 0 C535.5 0 547.5 -5.25 555.625 -14.75 C572.544 -34.5328 571.191 -55.6113 576.375 -56.5 C580.75 -57.25 585.5 -58 587 -58 C596 5 604 67 613 131 L613 131 Z M211 222.5 C284.564 320.482 330 320.673 330 223 C330 125.327 284.659 64.9045 211.25 64.75 C137.841 64.5955 137.436 124.518 211 222.5 L211 222.5 Z " />
<glyph glyph-name="five" unicode="5" horiz-adv-x="436" d="M357.5 555 C351.627 555 347.236 553.091 346 550 L344 545 C333 518 308 500 281 500 L183.5 500 C123.227 500 75.5 442.918 58.5 350.5 C41.5 258.082 34.0545 198.327 39 194 C43.9455 189.673 54.2545 187 66 187 L85 187 C233 187 331 121 331 21 C331 -40.5 303.75 -95.25 256.125 -137.125 C157.208 -224.099 59.1909 -221.055 59.5 -226 C59.8091 -230.945 182.515 -242.655 311 -137 C371.5 -87.25 406 -22.5 406 50 C406 186 281 277 94 277 L84.5 277 C78.6273 277 80.1545 305.064 88.5 350.5 C96.8455 395.936 148.009 424.382 222.5 425 C296.991 425.618 347.237 451.817 354.75 493.5 C361.615 531.592 363.373 555 357.5 555 L357.5 555 Z " />
<glyph glyph-name="six" unicode="6" horiz-adv-x="568" d="M187.5 576 C100 495.75 50 397 50 291 C50 110 146 -10 290 -10 C425 -10 515 90 515 239 C515 375 427 466 295 466 C266.5 466 240.5 460.25 217.75 449.5 C176.309 429.918 183.111 513.422 304.375 617.75 C433.797 729.097 552.427 740.291 551.5 744 C550.573 747.709 370.69 744.012 187.5 576 L187.5 576 Z M135 247 C135 364 195 442 286 442 C372 442 430 363 430 244 C430 107 372 16 285 16 C195 16 135 108 135 247 L135 247 Z " />
<glyph glyph-name="seven" unicode="7" horiz-adv-x="455" d="M64.75 466.75 C50.75 435.75 36.5 404.5 24 378 C26 377 30 375.25 33.5 373.75 C37.5102 372.031 41.9091 373.864 45 378.5 L50 386 C68 413 97 431 124 431 L262 431 C347.309 431 344.445 306.718 254.5 105.5 C164.555 -95.7182 121.409 -220 141.5 -220 C161.591 -220 226.5 -85.4091 311.5 132.5 C396.5 350.409 449 487.864 449 492.5 C449 497.136 392.491 500 301 500 L153 500 C139.5 500 129 504 122.75 511 C110.651 524.551 118.191 541.336 118.5 543.5 C118.809 545.664 116.041 548.336 111.25 550.5 C106.459 552.664 89.0923 520.651 64.75 466.75 L64.75 466.75 Z " />
<glyph glyph-name="eight" unicode="8" horiz-adv-x="543" d="M232.125 365.125 C237 363 242 361 247 359 C360 313 436 271 436 208 C436 89 370 10 271 10 C177 10 114 76 114 174 C114 216.5 124.125 256.625 142.25 290.75 C174.455 351.384 223.223 369.005 232.125 365.125 L232.125 365.125 Z M83.5 288.75 C56.25 252.75 41 213 41 173 C41 63 133 -11 272 -11 C411 -11 504 62 504 172 C504 235.5 487 283.5 456.875 321.875 C397.333 397.723 385.123 432.371 437.375 497.75 C462.75 529.5 477 564 477 598 C477 695 394 760 270 760 C148 760 66 688 66 580 C66 539.5 78.75 501.75 101.625 468.375 C146.622 402.723 138.594 361.535 83.5 288.75 L83.5 288.75 Z M294.5 432 C285.536 435.709 225.495 449.672 174 509.75 C148.5 539.5 134 574.5 134 613 C134 695 195 749 286 749 C357 749 405 686 405 591 C405 557 395.625 524.25 379 495.75 C348.33 443.173 303.464 428.291 294.5 432 L294.5 432 Z " />
<glyph glyph-name="nine" unicode="9" horiz-adv-x="568" d="M380.5 -76 C468 4.25 518 103 518 209 C518 390 422 510 278 510 C143 510 53 410 53 261 C53 125 141 34 273 34 C301.5 34 327.5 39.75 350.25 50.5 C391.691 70.0819 384.889 -13.4221 263.625 -117.75 C134.203 -229.097 15.5727 -240.291 16.5 -244 C17.4273 -247.709 197.31 -244.012 380.5 -76 L380.5 -76 Z M433 253 C433 136 373 58 282 58 C196 58 138 137 138 256 C138 393 196 484 283 484 C373 484 433 392 433 253 L433 253 Z " />
<glyph glyph-name="colon" unicode="&#x3a;" horiz-adv-x="135" d="M125 385 C161 385 185 409 185 445 C185 481 161 505 125 505 C89 505 65 481 65 445 C65 409 89 385 125 385 L125 385 Z M125 -5 C161 -5 185 19 185 55 C185 91 161 115 125 115 C89 115 65 91 65 55 C65 19 89 -5 125 -5 L125 -5 Z " />
<glyph glyph-name="semicolon" unicode="&#x3b;" horiz-adv-x="265" d="M125 385 C161 385 185 409 185 445 C185 481 161 505 125 505 C89 505 65 481 65 445 C65 409 89 385 125 385 L125 385 Z M159.875 -3 C160 -7 160 -11 160 -15 C160 -39 150.5 -59 133.875 -73 C99.6861 -101.791 65 -98.8182 65 -105 C65 -111.182 115.289 -123.328 159.25 -79.125 C182 -56.25 195 -23.5 195 16 C195 75 167 115 125 115 C89 115 65 91 65 55 C65 19 89 -5 125 -5 C132 -5 138.375 -3.75 144.125 -1.375 C154.723 3.00229 159.643 4.43425 159.875 -3 L159.875 -3 Z " />
<glyph glyph-name="equal" unicode="&#x3d;" horiz-adv-x="533" d="M83 200 C83 188.255 155.545 181 273 181 C390.455 181 463 188.255 463 200 C463 211.745 390.455 219 273 219 C155.545 219 83 211.745 83 200 L83 200 Z M83 300 C83 288.255 155.545 281 273 281 C390.455 281 463 288.255 463 300 C463 311.745 390.455 319 273 319 C155.545 319 83 311.745 83 300 L83 300 Z " />
<glyph glyph-name="question" unicode="&#x3f;" horiz-adv-x="299" d="M125 -5 C161 -5 185 19 185 55 C185 91 161 115 125 115 C89 115 65 91 65 55 C65 19 89 -5 125 -5 L125 -5 Z M125 285 C125 331.364 171.884 349.476 227.125 383.25 C271.378 410.306 297.842 461.749 306.75 494.625 C312 514 315 535 315 555 C315 678 247 760 145 760 C97 760 65 735 65 697 C65 672 83 655 111 655 C131 655 157 670 176 670 C244 670 289 620 289 545 C289 537 286.75 527 282.75 516.5 C274.899 495.89 254.024 462.842 221.625 452.375 C197.25 444.5 159.5 440 97 440 C97.5 440 100.75 382.5 103.875 325 C107.738 253.913 112.864 210 117.5 210 C122.136 210 125 238.636 125 285 L125 285 Z " />
<glyph glyph-name="at" unicode="&#x40;" horiz-adv-x="1160" d="M867 -172.625 C788.25 -214.25 692.5 -238 591 -238 C310 -238 122 -39 122 259 C122 556 305 754 580 754 C855 754 1038 590 1038 343 C1038 141 965 7 855 7 C760 7 716 84 745 200 L780 340 C801.636 426.545 799.727 480 775 480 C750.273 480 731.373 465.3 725.5 441.5 C719.627 417.7 709.582 439.461 668.875 466.75 C646.5 481.75 618 490 585 490 C407 490 289 371 289 192 C289 82 360 8 466 8 C507 8 545.25 18.25 578.25 36.875 C639.114 71.226 657.729 58.463 714 15.125 C745 -8.75 788 -22 841 -22 C1000 -22 1106 124 1106 343 C1106 604 896 778 581 778 C266 778 56 570 56 259 C56 -48 278 -253 611 -253 C713.5 -253 810.5 -227.75 890.75 -183.5 C1029.61 -106.93 1064.46 0 1055.5 0 C1046.54 0 1000.96 -101.819 867 -172.625 L867 -172.625 Z M685.5 278 L666 200 C644 113 582 55 511 55 C434 55 383 116 383 208 C383 363 463 466 584 466 C620.5 466 650.75 455 671.875 435.75 C711.333 399.794 697.555 326.218 685.5 278 L685.5 278 Z " />
<glyph glyph-name="A" unicode="A" horiz-adv-x="796" d="M305 12.5 C305 20.2273 299.845 25 291.5 25 L278 25 C222 25 194 60 207 114 L233 196.5 C249.073 247.5 306.918 279 384.5 279 C462.082 279 519.545 248.645 535 199.5 L560 120 C576 63 548 25 490 25 L476.5 25 C468.155 25 463 20.2273 463 12.5 C463 4.77273 525.427 0 626.5 0 C727.573 0 790 4.77273 790 12.5 C790 20.2273 787.327 25 783 25 L776 25 C728 25 684 63 664 120 L560.5 445.5 C496.518 646.718 455.091 771 452 771 C448.909 771 447.756 752.288 429.5 740 C398.93 719.424 373.573 719.091 374.5 716 C375.427 712.909 339.437 599.272 279.875 418.5 C247.75 321 215.5 223.5 183 126 C163 66 110 26 50 26 L32.5 26 C21.6818 26 15 21.2273 15 13.5 C15 5.77273 70.3636 0.809091 160 0.5 C249.636 0.190909 305 4.77273 305 12.5 L305 12.5 Z M327 492.5 C363.473 607.791 408.336 607.791 444.5 492.5 C480.664 377.209 458.136 306 385.5 306 C312.864 306 290.527 377.209 327 492.5 L327 492.5 Z " />
<glyph glyph-name="B" unicode="B" horiz-adv-x="685" d="M334 9 L284 9 C261 9 245 42 245 91 L245 238 C245 328.873 260.273 385 285 385 L325 385 C451 385 535 311 535 201 C535 45 455 9 334 9 L334 9 Z M365 0 C533 0 645 38 645 201 C645 253 626.25 297.5 592.75 331.375 C525.06 399.822 513.947 401.267 572.75 461.875 C601.25 491.25 617 528 617 570 C617 678 562 750 330 750 L195 750 C111.545 750 60 745.227 60 737.5 C60 729.773 66.6818 725 77.5 725 L95 725 C125 725 145 705 145 675 L145 75 C145 45 125 25 95 25 L77.5 25 C66.6818 25 60 20.2273 60 12.5 C60 4.77273 118.227 0 212.5 0 L365 0 L365 0 Z M335 402 L290 402 C262.182 402 245 464.618 245 566 C245 667.382 253.591 730 267.5 730 L290 730 C474 730 517 662 517 560 C517 465 444 402 335 402 L335 402 Z " />
<glyph glyph-name="C" unicode="C" horiz-adv-x="740" d="M698 112 C698 181.236 693.8 224 687 224 C680.2 224 674.036 218.674 671 210 C667.964 201.326 656.69 158.313 621 110.25 C602.25 85 580.5 64 558 50 C517 27 470 14 414 14 C262 14 161 159 161 376 C161 592 267 736 425 736 C450.5 736 473.25 733.5 493.875 728.875 C529.79 720.821 583.802 693.633 617.5 649.25 C657.296 596.836 668.964 549.674 672 541 C675.036 532.326 681.2 527 688 527 C694.8 527 699 569.191 699 637.5 C699 705.809 695.755 748 690.5 748 C685.245 748 681.286 744.304 679.5 738.5 C678.5 735.25 677.5 732 677 729 C673.5 714.5 664.75 705.75 652.5 703.375 C623.844 697.819 578.658 736.086 526.375 749 C495 756.75 458.5 761 415 761 C197 761 51 607 51 376 C51 145 192 -9 404 -9 C446.5 -9 483.75 -4.75 516.75 3.25 C573.173 16.9282 622.078 56.5658 651.75 49.875 C664.5 47 673.5 37.5 677 22 C677.5 19 678.5 15.25 679.5 11.5 C681.219 5.05294 685.055 0.809091 690 0.5 C694.945 0.190909 698 42.7636 698 112 L698 112 Z M684 133 L684 133 L684 133 L684 133 Z " />
<glyph glyph-name="D" unicode="D" horiz-adv-x="812" d="M295 20 C250 20 245 44 245 80 L245 405 C245 605.909 252.636 730 265 730 L285 730 C551 730 688 588 688 375 C688 141 531 20 295 20 L295 20 Z M77.5 730 L95 730 C125 730 145 710 145 680 L145 70 C145 40 125 20 95 20 L77.5 20 C66.6818 20 60 16.1818 60 10 C60 3.81818 110.591 0 192.5 0 L325 0 C609 0 798 128 798 375 C798 600 651 750 365 750 L212.5 750 C118.227 750 60 746.182 60 740 C60 733.818 66.6818 730 77.5 730 L77.5 730 Z " />
<glyph glyph-name="E" unicode="E" horiz-adv-x="652" d="M297.5 750 C138.318 750 40 746.182 40 740 C40 733.818 46.6818 730 57.5 730 L75 730 C117 730 145 702 145 660 L145 90 C145 48 117 20 75 20 L57.5 20 C46.6818 20 40 16.1818 40 10 C40 3.81818 143.091 0 310 0 C476.909 0 580.382 1.90909 581 5 C581.618 8.09091 586.481 35.9816 594 78 C601.519 120.018 602.755 146 597.5 146 C592.245 146 587.664 142.182 585.5 136 L582 126 C556 63 497 21 434 21 L325 21 C253 21 245 45 245 80 L245 232.5 C245 326.773 268.864 385 307.5 385 L370 385 C418 385 457 353 467 305 L472.5 277.5 C475.9 260.5 481.245 250 486.5 250 C491.755 250 495 306.127 495 397 C495 487.873 491.755 544 486.5 544 C481.245 544 475.9 533.5 472.5 516.5 L467 489 C457 441 418 409 370 409 L307.5 409 C268.864 409 245 470.091 245 569 C245 667.909 280.891 729 339 729 L433 729 C481 729 524 697 540 649 L549 621.5 C554.564 604.5 561.245 594 566.5 594 C571.755 594 571.018 619.865 564.625 661.75 C558.104 704.476 555 734.627 555 740.5 C555 746.373 456.682 750 297.5 750 L297.5 750 Z " />
<glyph glyph-name="F" unicode="F" horiz-adv-x="627" d="M57.5 730 L75 730 C117 730 145 702 145 660 L145 90 C145 48 117 20 75 20 L57.5 20 C46.6818 20 40 16.1818 40 10 C40 3.81818 99.1818 0 195 0 C290.818 0 350 3.81818 350 10 C350 16.1818 343.318 20 332.5 20 L315 20 C273 20 245 48 245 90 L245 237.5 C245 328.682 266.955 385 302.5 385 L360 385 C408 385 447 353 457 305 L462.5 277.5 C465.9 260.5 471.245 250 476.5 250 C481.755 250 485 306.127 485 397 C485 487.873 481.755 544 476.5 544 C471.245 544 465.9 533.5 462.5 516.5 L457 489 C447 441 408 409 360 409 L302.5 409 C266.955 409 245 470.855 245 571 C245 671.145 280.7 733 338.5 733 L432 733 C480 733 523 701 539 653 L548 625.5 C553.564 608.5 560.245 598 565.5 598 C570.755 598 570.264 627.005 564.5 674 C558.736 720.995 456.682 750 297.5 750 C138.318 750 40 746.182 40 740 C40 733.818 46.6818 730 57.5 730 L57.5 730 Z " />
<glyph glyph-name="G" unicode="G" horiz-adv-x="817" d="M678.5 737.5 C677.5 734.25 676.5 731 676 728 C672.5 713.5 663.75 704.75 651.5 702.375 C622.844 696.819 577.658 735.086 525.375 748 C494 755.75 457.5 760 414 760 C196 760 50 606 50 375 C50 144 195 -10 412 -10 C487 -10 549.75 -3 604.875 9.125 C698.667 29.755 750.664 61.8636 748.5 66.5 C746.336 71.1364 732.311 67.9512 711.125 59.75 C689.04 51.201 675 79.2636 675 131.5 L675 216 C675 267 707 301 756 301 L763 301 C767.327 301 770 305.773 770 313.5 C770 321.227 714.636 326 625 326 C535.364 326 480 321.227 480 313.5 C480 305.773 482.673 301 487 301 L494 301 C543 301 575 267 575 216 C576 216 576 119 576 111 C574 51 516 12 429 12 C268 12 161 158 161 377 C161 593 267 737 425 737 C450.5 737 473.25 734.5 493.875 729.875 C529.79 721.821 583.802 694.633 617.5 650.25 C657.296 597.836 668.964 550.674 672 542 C675.036 533.326 681.2 528 688 528 C694.8 528 699 570.191 699 638.5 C699 706.809 695.564 748.618 690 748 C684.436 747.382 680.286 743.304 678.5 737.5 L678.5 737.5 Z " />
<glyph glyph-name="H" unicode="H" horiz-adv-x="861" d="M783.5 20 L766 20 C736 20 716 40 716 70 L716 680 C716 710 736 730 766 730 L783.5 730 C794.318 730 801 733.818 801 740 C801 746.182 749.455 750 666 750 C582.545 750 531 746.182 531 740 C531 733.818 537.682 730 548.5 730 L566 730 C596 730 616 710 616 680 L616 544.5 C616 460.736 552.045 409 448.5 409 C344.955 409 281 460.736 281 544.5 L281 680 C281 710 301 730 331 730 L348.5 730 C359.318 730 366 733.818 366 740 C366 746.182 314.455 750 231 750 C147.545 750 96 746.182 96 740 C96 733.818 102.682 730 113.5 730 L131 730 C161 730 181 710 181 680 L181 70 C181 40 161 20 131 20 L113.5 20 C102.682 20 96 16.1818 96 10 C96 3.81818 147.545 0 231 0 C314.455 0 366 3.81818 366 10 C366 16.1818 359.318 20 348.5 20 L331 20 C301 20 281 40 281 70 L281 226.5 C281 323.245 344.955 383 448.5 383 C552.045 383 616 323.245 616 226.5 L616 70 C616 40 596 20 566 20 L548.5 20 C537.682 20 531 16.1818 531 10 C531 3.81818 582.545 0 666 0 C749.455 0 801 3.81818 801 10 C801 16.1818 794.318 20 783.5 20 L783.5 20 Z " />
<glyph glyph-name="I" unicode="I" horiz-adv-x="385" d="M307.5 20 L290 20 C260 20 240 40 240 70 L240 680 C240 710 260 730 290 730 L307.5 730 C318.318 730 325 733.818 325 740 C325 746.182 273.455 750 190 750 C106.545 750 55 746.182 55 740 C55 733.818 61.6818 730 72.5 730 L90 730 C120 730 140 710 140 680 L140 70 C140 40 120 20 90 20 L72.5 20 C61.6818 20 55 16.1818 55 10 C55 3.81818 106.545 0 190 0 C273.455 0 325 3.81818 325 10 C325 16.1818 318.318 20 307.5 20 L307.5 20 Z " />
<glyph glyph-name="J" unicode="J" horiz-adv-x="385" d="M190 750 C106.545 750 55 746.182 55 740 C55 733.818 61.6818 730 72.5 730 L90 730 C120 730 140 710 140 680 L140 -72 C140 -167 82 -185 40 -185 C-9 -185 15 -105 -35 -105 C-62 -105 -80 -123 -80 -150 C-80 -192 -42 -220 15 -220 C110 -220 240 -166 240 116 L240 680 C240 710 260 730 290 730 L307.5 730 C318.318 730 325 733.818 325 740 C325 746.182 273.455 750 190 750 L190 750 Z " />
<glyph glyph-name="K" unicode="K" horiz-adv-x="775" d="M195 750 C111.545 750 60 746.182 60 740 C60 733.818 66.6818 730 77.5 730 L95 730 C125 730 145 710 145 680 L145 70 C145 40 125 20 95 20 L77.5 20 C66.6818 20 60 16.1818 60 10 C60 3.81818 111.545 0 195 0 C278.455 0 330 3.81818 330 10 C330 16.1818 323.318 20 312.5 20 L295 20 C265 20 245 40 245 70 L245 222.5 C245 316.773 305.136 303.409 402.5 187.5 C499.864 71.5909 597.8 0 659 0 C720.2 0 758 3.81818 758 10 C758 16.1818 751.318 20 740.5 20 L723 20 C695 20 661 38 636 65 L479.5 251 C382.755 365.982 361.373 481.864 423.5 554.5 L524 672 C557 707 602 730 639 730 L659 730 C671.364 730 679 733.818 679 740 C679 746.182 624.973 750 537.5 750 C450.027 750 396 746.182 396 740 C396 733.818 403.445 730 415.5 730 L435 730 C465 730 481.75 720 484.875 702.5 C493.481 654.304 413.291 581.318 349 502.5 C284.709 423.682 245 433.227 245 527.5 L245 680 C245 710 265 730 295 730 L312.5 730 C323.318 730 330 733.818 330 740 C330 746.182 278.455 750 195 750 L195 750 Z " />
<glyph glyph-name="L" unicode="L" horiz-adv-x="650" d="M190 750 C106.545 750 55 746.182 55 740 C55 733.818 61.6818 730 72.5 730 L90 730 C120 730 140 710 140 680 L140 70 C140 40 120 20 90 20 L72.5 20 C61.6818 20 55 16.1818 55 10 C55 3.81818 154.273 0 315 0 C475.727 0 575.382 1.52727 576 4 C576.618 6.47273 581.512 33.5944 589 75 C596.488 116.406 597.755 142 592.5 142 C587.245 142 582.664 138.182 580.5 132 L577 122 C551 59 492 17 429 17 L320 17 C248 17 240 42 240 80 L240 680 C240 710 260 730 290 730 L307.5 730 C318.318 730 325 733.818 325 740 C325 746.182 273.455 750 190 750 L190 750 Z " />
<glyph glyph-name="M" unicode="M" horiz-adv-x="900" d="M775 750 C719.364 750 645.482 631.636 581.5 440 C517.518 248.364 434.664 248.364 364.5 440 C294.336 631.636 213.391 750 152.5 750 C91.6091 750 54 746.182 54 740 C54 733.818 60.6818 730 71.5 730 L89 730 C101.5 730 113.75 726.5 124.625 720.25 C144.953 708.567 148.373 573.155 142.5 377.5 C136.627 181.845 132.041 45.1199 115.875 32 C107.25 25 96 21 83 21 L65.5 21 C54.6818 21 48 17.1818 48 11 C48 4.81818 86.9455 1 150 1 C213.055 1 252 4.81818 252 11 C252 17.1818 245.318 21 234.5 21 L217 21 C203 21 191.25 25.25 182.75 32.75 C166.732 46.8835 169.909 173.391 173 350.5 C176.091 527.609 227.255 515.582 307 319 C386.745 122.418 440.773 1 448.5 1 C456.227 1 504.336 126.236 574.5 329 C644.664 531.764 690.974 545.131 695.375 364 C699.776 182.88 705.819 51.6859 689.125 34.75 C680.5 26 668 21 653 21 L636 21 C625.491 21 619 17.1818 619 11 C619 4.81818 670.355 1 753.5 1 C836.645 1 888 4.81818 888 11 C888 17.1818 881.318 21 870.5 21 L853 21 C823 21 803 41 802 71 L792 379 C785.818 569.4 780.514 704.582 796.75 719.625 C805.25 727.5 817 732 831 732 L848 732 C858.509 732 865 735.436 865 741 C865 746.564 830.636 750 775 750 L775 750 Z " />
<glyph glyph-name="N" unicode="N" horiz-adv-x="763" d="M169 0 C230.818 0 269 3.81818 269 10 C269 16.1818 262.318 20 251.5 20 L234 20 C219 20 206.5 25 197.75 33.75 C180.803 50.6972 183.427 173.473 182.5 341 C181.573 508.527 266.283 495.09 404.625 306 C543.128 116.689 632.818 0 639 0 C645.182 0 650.336 130.964 652.5 343 C654.664 555.036 655.521 703.219 672.125 717.25 C681 724.75 693 729 707 729 L724.5 729 C735.318 729 742 732.818 742 739 C742 745.182 703.818 749 642 749 C580.182 749 542 745.182 542 739 C542 732.818 548.682 729 559.5 729 L577 729 C592 729 604.5 724 613.25 715.25 C630.197 698.303 627.191 581.827 627.5 424.5 C627.809 267.173 546.636 280.526 415.625 460 C284.775 639.253 166.964 750 107 750 C47.0364 750 10 746.182 10 740 C10 733.818 16.6818 730 27.5 730 L45 730 C60 730 76 725 91 716.25 C119.825 699.435 135.582 673.891 143 664 C150.418 654.109 154.809 537.655 154.5 359 C154.191 180.345 157.197 50.6972 140.25 33.75 C131.5 25 119 20 104 20 L86.5 20 C75.6818 20 69 16.1818 69 10 C69 3.81818 107.182 0 169 0 L169 0 Z " />
<glyph glyph-name="O" unicode="O" horiz-adv-x="825" d="M133 375 C133 591 235 735 388 735 C552 735 661 591 661 375 C661 159 551 15 387 15 C235 15 133 159 133 375 L133 375 Z M24 375 C24 144 167 -10 382 -10 C615 -10 770 144 770 375 C770 606 619 760 392 760 C171 760 24 606 24 375 L24 375 Z " />
<glyph glyph-name="P" unicode="P" horiz-adv-x="589" d="M298.5 20 L281 20 C251 20 231 40 231 70 L231 207 C231 291.691 240.545 344 256 344 L281 344 C454 344 569 404 569 539 C569 666 474 750 331 750 L188.5 750 C100.409 750 46 746.182 46 740 C46 733.818 52.6818 730 63.5 730 L81 730 C111 730 131 710 131 680 L131 70 C131 40 111 20 81 20 L63.5 20 C52.6818 20 46 16.1818 46 10 C46 3.81818 97.5455 0 181 0 C264.455 0 316 3.81818 316 10 C316 16.1818 309.318 20 298.5 20 L298.5 20 Z M231 549 C231 662.745 245.318 733 268.5 733 L306 733 C408 733 476 662 476 555 C476 424 398 365 281 365 L256 365 C240.545 365 231 435.255 231 549 L231 549 Z " />
<glyph glyph-name="Q" unicode="Q" horiz-adv-x="846" d="M1142.5 -37 C1140.34 -34.5273 1097.89 -57.022 1025 -67.875 C968.75 -76.25 897 -81 818 -81 C724 -81 633.25 -73.75 553.75 -60.875 C429.267 -40.7151 366.366 -8.33902 381.625 -9.25 C390 -9.75 398.5 -10 407 -10 C640 -10 795 144 795 375 C795 606 644 760 417 760 C196 760 49 606 49 375 C49 292.5 67.25 219.75 100.5 160.375 C159.441 55.1239 338.659 -50.1266 520.625 -112.25 C618.75 -145.75 717.5 -165 803 -165 C861.5 -165 925 -152.5 985 -130.75 C1092.13 -91.917 1144.66 -39.4727 1142.5 -37 L1142.5 -37 Z M159 375 C159 591 261 735 414 735 C578 735 687 591 687 375 C687 151 566 2 385 2 C249 2 159 151 159 375 L159 375 Z " />
<glyph glyph-name="R" unicode="R" horiz-adv-x="796" d="M77.5 730 L95 730 C125 730 145 710 145 680 L145 70 C145 40 125 20 95 20 L77.5 20 C66.6818 20 60 16.1818 60 10 C60 3.81818 111.545 0 195 0 C278.455 0 330 3.81818 330 10 C330 16.1818 323.318 20 312.5 20 L295 20 C265 20 245 40 245 70 L245 212.5 C245 300.591 264.282 355 295.5 355 C326.718 355 369.81 316.097 411.375 255.125 C485.332 146.636 548.837 31.3425 609.5 12.125 C713.133 -20.7052 785 4.81818 785 11 C785 17.1818 748.052 7.74841 699.5 29.25 C659.022 47.1758 601.882 148.848 523.875 258.625 C477.088 324.468 509.501 364.975 566.5 423.5 C594.5 452.25 610 490.5 610 539 C610 666 506 751 349 751 L204 751 C114.364 751 59.1909 746.991 59.5 740.5 C59.8091 734.009 66.6818 730 77.5 730 L77.5 730 Z M244 556 C244 664.182 258.318 731 281.5 731 L319 731 C427 731 499 662 499 559 C499 436 439 381 349 381 L296.5 381 C264.045 381 244 447.818 244 556 L244 556 Z " />
<glyph glyph-name="S" unicode="S" horiz-adv-x="551" d="M70 11.5 C70.75 15.5 71.5 19.5 72 23 C75 39 84.25 48.25 97.625 50.25 C129.986 55.0891 171.956 15.4312 217 1.5 C241.25 -6 266.5 -10 292 -10 C423 -10 511 72 511 196 C511 293 447 382 322 427 C204 470 143 536 143 601 C143 681 188 735 256 735 C265 735 274 734.5 282.875 733.5 C299.16 731.665 348.627 721.713 386 679 C431.354 627.167 440.909 575.082 444 565.5 C447.091 555.918 453.2 550 460 550 C466.8 550 471 588.945 471 652 C471 715.055 467.755 754 462.5 754 C457.245 754 453.271 750.869 451.5 746 C450.5 743.25 449.5 740.5 449 738 C446 726.5 438.25 719.75 427.375 718 C401.988 713.915 364.874 741.594 325.25 751.5 C303.25 757 280 760 256 760 C141 760 64 681 64 563 C64 512.5 80.75 464.5 113.875 423.125 C182.951 336.845 323.164 312.867 388.5 251 C416.75 224.25 431 195.5 431 167 C431 80 375 22 292 22 C262 22 232 28 204 39 C178.5 49.5 153.5 71.5 132 100.875 C89.0107 159.61 79.2034 213.087 76.5 223 C73.7966 232.913 67.6091 239 60.5 239 C53.3909 239 49 193.182 49 119 C49 44.8182 52.6273 -0.809091 58.5 -0.5 C64.3727 -0.190909 68.6702 4.40779 70 11.5 L70 11.5 Z " />
<glyph glyph-name="T" unicode="T" horiz-adv-x="788" d="M3.5 600 C8.75455 600 16.9636 607.636 25 620 C33.0364 632.364 53.6228 673.484 99.5 701.625 C123.75 716.5 150.5 725 176 725 L257 725 C307.073 725 338 599.955 338 397.5 L338 70 C338 40 318 20 288 20 L270.5 20 C259.682 20 253 16.1818 253 10 C253 3.81818 304.545 0 388 0 C471.455 0 523 3.81818 523 10 C523 16.1818 516.318 20 505.5 20 L488 20 C458 20 438 40 438 70 L438 397.5 C438 599.955 468.736 725 518.5 725 L599 725 C624.5 725 651.25 716.5 675.5 701.625 C721.377 673.484 741.964 632.364 750 620 C758.036 607.636 766.245 600 771.5 600 C776.755 600 771.835 619.165 759.375 650.5 C751 671.563 739.5 700.75 720 749.75 L711 772.375 C705.436 786.361 699.709 795 696 795 C692.291 795 689.236 793.664 688 791.5 L686 788 C671 765 628 750 579 750 L196 750 C147 750 104 765 89 788 L87 791.5 C85.7636 793.664 82.7091 795 79 795 C75.2909 795 57.8187 757.984 34 697.75 C10.1813 637.516 -1.75455 600 3.5 600 L3.5 600 Z " />
<glyph glyph-name="U" unicode="U" horiz-adv-x="760" d="M730 46 C730 52.1818 723.318 54.0909 712.5 51 L695 46 C665 38 645 53 645 83 L645 416.5 C645 622.664 609.682 750 552.5 750 C495.318 750 460 746.182 460 740 C460 733.818 466.682 730 477.5 730 L495 730 C525 730 545 710 545 680 L545 435 C545 283.545 526.809 135.165 458.625 91.25 C421.75 67.5 378.5 54 334 54 C260 54 210 120 210 220 L210 485 C210 648.818 174.682 750 117.5 750 C60.3182 750 25 746.182 25 740 C25 733.818 31.6818 730 42.5 730 L60 730 C90 730 110 710 110 680 L110 220 C110 82 184 -10 294 -10 C347.5 -10 399.5 5.5 443.5 32.625 C523.185 81.7489 545 117.318 545 72.5 C545 27.6818 554.545 0 570 0 C585.455 0 621.275 6.69987 663.625 18.25 C704.68 29.4468 730 39.8182 730 46 L730 46 Z " />
<glyph glyph-name="V" unicode="V" horiz-adv-x="832" d="M118 635 L248.5 312.5 C329.173 113.136 382.818 -10 389 -10 C395.182 -10 447.873 113.518 527 313.5 L655 637 C680 690 724 725 767 725 L773.5 725 C777.518 725 780 729.773 780 737.5 C780 745.227 728.455 750 645 750 C561.545 750 510 745.227 510 737.5 C510 729.773 517.827 725 530.5 725 L551 725 C609 725 634 688 617 632 L525 383.5 C468.127 229.882 394.627 230.264 332.5 384.5 L232 634 C214 688 239 724 296 724 L308.5 724 C316.227 724 321 728.773 321 736.5 C321 744.227 260.864 749 163.5 749 C66.1364 749 6 744.227 6 736.5 C6 728.773 8.1 724 11.5 724 L17 724 C54 724 93 688.5 118 634.5 L118 635 Z " />
<glyph glyph-name="W" unicode="W" horiz-adv-x="1161" d="M557 572 C574.309 526.873 557.318 426.645 512.5 309.5 C467.682 192.355 403.441 220.227 344.25 382.5 C285.059 544.773 229.802 672.716 249 703 C257.875 717 275 725 299 725 L309.5 725 C315.991 725 320 729.773 320 737.5 C320 745.227 265.591 750 177.5 750 C89.4091 750 35 745.227 35 737.5 C35 729.773 37.1 725 40.5 725 L46 725 C65 725 84 717 100.5 703 C133.577 674.934 188.109 520.145 266 318 C343.891 115.855 396.773 -9 404.5 -9 C412.227 -9 452.318 80.1545 509.5 224.5 C566.682 368.845 636.312 368.682 692 224.125 C747.533 79.9714 786.773 -9 794.5 -9 C802.227 -9 844.036 116.045 904 318.5 C963.964 520.955 1005.9 677.649 1040.25 704 C1058.5 718 1081 726 1105 726 L1112.5 726 C1117.14 726 1120 730.773 1120 738.5 C1120 746.227 1068.07 751 984 751 C899.927 751 848 746.227 848 738.5 C848 730.773 859.073 726 877 726 L906 726 C952 726 975 696 965 651 L894 395 C850.109 236.745 787.682 236.555 730.5 394.5 L638 650 C623 696 643 726 690 726 L710.5 726 C723.173 726 731 730.773 731 738.5 C731 746.227 671.818 751 576 751 C480.182 751 421 746.227 421 738.5 C421 730.773 423.291 726 427 726 L433 726 C453 726 472.75 717.875 489.75 703.75 C523.415 675.778 539.691 617.127 557 572 L557 572 Z " />
<glyph glyph-name="X" unicode="X" horiz-adv-x="840" d="M653 750 C575.727 750 528 746.182 528 740 C528 733.818 538.691 730 556 730 L584 730 C617 730 623 708 600 675 L512 550 C457.6 472.727 392.118 474.255 340.5 554 C288.882 633.745 242.507 698.347 252.125 717.875 C256.25 726.25 266 731 281 731 L299.5 731 C310.936 731 318 734.818 318 741 C318 747.182 264.545 751 178 751 C91.4545 751 38 747.182 38 741 C38 734.818 40.8636 731 45.5 731 L53 731 C69.5 731 86.75 725.5 102.5 715.875 C132.48 697.554 182.9 614.145 247.5 514 C312.1 413.855 313.717 299.383 252 214 C190.283 128.617 139.692 54.5456 107.875 36.125 C91.25 26.5 73.5 21 57 21 L37 21 C24.6364 21 17 17.1818 17 11 C17 4.81818 63.9636 1 140 1 C216.036 1 263 4.81818 263 11 C263 17.1818 252.309 21 235 21 L207 21 C177 21 168 40 185 69 L275 200.5 C330.636 281.791 397.455 281.791 450 200.5 L535 69 C551 40 542 21 511 21 L492.5 21 C481.064 21 474 17.1818 474 11 C474 4.81818 527.645 1 614.5 1 C701.355 1 755 4.81818 755 11 C755 17.1818 752.136 21 747.5 21 L740 21 C723.5 21 706.25 26.5 690.5 36.125 C660.52 54.446 609.336 139 543.5 241 C477.664 343 476.9 458.691 541.5 544 L646 682 C671 712 707 731 738 731 L758 731 C770.364 731 778 734.627 778 740.5 C778 746.373 730.273 750 653 750 L653 750 Z " />
<glyph glyph-name="Y" unicode="Y" horiz-adv-x="787" d="M151 750 C64.4545 750 11 746.182 11 740 C11 733.818 13.8636 730 18.5 730 L26 730 C42.5 730 59.75 724.5 75.5 714.875 C105.48 696.554 159.145 607.609 229 498.5 C298.855 389.391 342 277.709 342 206 L342 90 C342 48 314 20 272 20 L254.5 20 C243.682 20 237 16.1818 237 10 C237 3.81818 296.182 0 392 0 C487.818 0 547 3.81818 547 10 C547 16.1818 540.318 20 529.5 20 L512 20 C470 20 442 48 442 90 L442 207.5 C442 280.136 478.518 392.062 538.125 500.375 C597.644 608.528 643.687 696.636 671.875 714.875 C686.75 724.5 703.5 730 720 730 L740 730 C752.364 730 760 733.818 760 740 C760 746.182 710.555 750 630.5 750 C550.445 750 501 746.182 501 740 C501 733.818 512.455 730 531 730 L561 730 C594 730 605 708 589 675 L510.5 515.5 C461.973 416.9 394.051 416.926 332.5 515.5 C270.949 614.074 214.052 690.956 222.75 714.875 C226.25 724.5 236.5 730 253 730 L272 730 C283.745 730 291 733.818 291 740 C291 746.182 237.545 750 151 750 L151 750 Z " />
<glyph glyph-name="Z" unicode="Z" horiz-adv-x="652" d="M633.5 155 C628.245 155 623.282 150.991 620.5 144.5 L616 134 C589 75 534 34 475 28 L309 25 C206.382 23.1455 232.155 157.164 376.5 376 C520.845 594.836 610 733.818 610 740 C610 746.182 506.909 750 340 750 C173.091 750 69.8091 747.327 69.5 743 L69 736 C69 736 67.75 722 65.625 697.625 C60.2027 635.428 60.2455 597 65.5 597 C70.7545 597 75.1455 601.009 77 607.5 L80 618 C99 681 155 723 218 724 L360 726 C447.782 727.236 410.936 592.836 263.5 374 C116.064 155.164 25 16.1818 25 10 C25 3.81818 135.918 0 315.5 0 C495.082 0 611.141 22.2918 619.5 58.375 C633.341 118.123 638.755 155 633.5 155 L633.5 155 Z " />
<glyph glyph-name="bracketleft" unicode="&#x5b;" horiz-adv-x="295" d="M240 725 C304.909 725 345 729.773 345 737.5 C345 745.227 299.182 750 225 750 C150.818 750 105 569.591 105 277.5 C105 -14.5909 150.818 -195 225 -195 C299.182 -195 345 -190.227 345 -182.5 C345 -174.773 304.909 -170 240 -170 C175.091 -170 135 0.863636 135 277.5 C135 554.136 175.091 725 240 725 L240 725 Z " />
<glyph glyph-name="backslash" unicode="&#x5c;" horiz-adv-x="347" d="M157 345 C237.364 82.2727 296.545 -80 312 -80 C327.455 -80 287.364 82.2727 207 345 C126.636 607.727 67.4545 770 52 770 C36.5455 770 76.6364 607.727 157 345 L157 345 Z " />
<glyph glyph-name="bracketright" unicode="&#x5d;" horiz-adv-x="298" d="M158 277.5 C158 0.863636 117.909 -170 53 -170 C-11.9091 -170 -52 -174.773 -52 -182.5 C-52 -190.227 -6.18182 -195 68 -195 C142.182 -195 188 -14.5909 188 277.5 C188 569.591 142.182 750 68 750 C-6.18182 750 -52 745.227 -52 737.5 C-52 729.773 -11.9091 725 53 725 C117.909 725 158 554.136 158 277.5 L158 277.5 Z " />
<glyph glyph-name="asciicircum" unicode="&#x5e;" horiz-adv-x="340" d="M186.5 773.375 C181 779.75 175 785 170 785 C165 785 159 779.75 153.5 773.375 C144.293 762.703 116.709 718.918 79 660.5 C41.2909 602.082 20.2909 564.091 24 561 C27.7091 557.909 56.7273 582.536 100 625.5 C143.273 668.464 196.727 668.464 240 625.5 C283.273 582.536 312.291 557.909 316 561 C319.709 564.091 298.709 602.082 261 660.5 C223.291 718.918 195.707 762.703 186.5 773.375 L186.5 773.375 Z " />
<glyph glyph-name="underscore" unicode="&#x5f;" horiz-adv-x="455" d="M5 -73.5 C5 -88.0273 89.9545 -97 227.5 -97 C365.045 -97 450 -88.0273 450 -73.5 C450 -58.9727 365.045 -50 227.5 -50 C89.9545 -50 5 -58.9727 5 -73.5 L5 -73.5 Z " />
<glyph glyph-name="grave" unicode="&#x60;" horiz-adv-x="340" d="M-34 746 C-34 738 -8 714 30 682 L101 622 C144.891 584.909 174.1 564.1 177.5 567.5 C180.9 570.9 161.236 601.255 126 647 L69 721 C39 761 16 788 8 788 C-15 788 -34 769 -34 746 L-34 746 Z " />
<glyph glyph-name="a" unicode="a" horiz-adv-x="514" d="M516.5 105.5 C511.864 107.664 508.792 89.1646 489.875 70.5 C480.5 61.25 468.5 56 455 56 C422 56 400 74 400 102 L400 355 C400 462 344 510 259 510 C143 510 65 414 65 360 C65 324 85 300 114 300 C141 300 159 325 159 343 C159 361 139 385 139 403 C139 432 175 484 229 484 C281 484 316 454 316 386 L316 325.5 C316 288.1 220.706 259.191 99.25 183.375 C59 158.25 46 131 46 89 C46 30 91 -9 159 -9 C179.5 -9 202.75 -2.5 229 12.375 C290.025 46.9557 316.987 49.1777 351 20.125 C369 4.75 393 -4 421 -4 C446.5 -4 469.625 6.625 487.75 25.25 C524.632 63.1492 521.136 103.336 516.5 105.5 L516.5 105.5 Z M316 175 C316 131.109 296.576 77.6368 252.875 53 C234.25 42.5 218 38 204 38 C160 38 131 63 131 100 C131 140.5 140 165.75 167.625 186.625 C246.63 246.326 316 218.891 316 175 L316 175 Z " />
<glyph glyph-name="b" unicode="b" horiz-adv-x="573" d="M22 710 L32 710 C57 709 74 692 76 668 L75 396.5 C74.3818 228.664 74 115.455 74 100 L74 75 L74 0 L79 0 L94 32 C103.273 51.7818 132.381 32.0473 186.375 9.75 C217.25 -3 252.5 -10 290 -10 C432 -10 527 95 527 253 C527 404 436 505 300 505 C274 505 247.5 498.5 223.125 486.875 C178.137 465.419 159 497.564 159 594 C159 690.436 150.886 749.905 137.75 749.75 C124.614 749.595 96.1419 744.481 63.375 735.625 C30.9235 726.854 11.1909 718.9 11.5 715.5 C11.8091 712.1 15.8182 710 22 710 L22 710 Z M159 260.5 C159 354.155 173.791 434.502 209.375 453.625 C227.75 463.5 247 469 265 469 C365 469 431 378 431 241 C431 101 377 8 295 8 C265.5 8 237.5 17.875 213.875 35.5 C168.228 69.5545 159 166.845 159 260.5 L159 260.5 Z " />
<glyph glyph-name="c" unicode="c" horiz-adv-x="503" d="M467 130.5 C463.291 132.045 448.716 95.2781 401.75 66.875 C375.5 51 344 42 311 42 C204 42 133 134 133 273 C133 404 197 491 292 491 C331 491 369 457 388 405 C397 380 414 363 431 363 C448 363 460.75 367.25 468.125 374.625 C481.572 388.072 460.791 449.28 407.5 481.125 C376.75 499.5 338.5 510 297 510 C146 510 45 400 45 236 C45 88 139 -10 281 -10 C320 -10 358.75 3.75 392.375 27.875 C456.943 74.201 470.709 128.955 467 130.5 L467 130.5 Z " />
<glyph glyph-name="d" unicode="d" horiz-adv-x="600" d="M360 709 L370 709 C397 708 415 689 415 662 L415 569.5 C415 512.318 392.735 490.894 352.75 501 C330 506.75 305.5 510 280 510 C125 510 45 406 45 251 C45 97 130 -5 257 -5 C288 -5 319 2 346.5 14.375 C394.854 36.1345 415 53.4 415 33 C415 12.6 423.018 -0.0954545 436 -0.25 C448.982 -0.404545 464.863 1.91724 477.75 5.25 C491.504 8.80704 516.782 15.6012 544 22.875 C569.372 29.6553 585 37.8182 585 44 C585 50.1818 578.318 52.0909 567.5 49 L550 44 C520 36 500 51 500 81 L500 415.5 C500 622.282 491.982 750 479 750 C466.018 750 449.547 748.262 436 744.875 C428.5 743 421 741 414 739 L381.5 730.5 C361.409 725.245 349.191 719.518 349.5 715.5 C349.809 711.482 353.818 709 360 709 L360 709 Z M414 236.5 C414 150.264 397.786 70.7418 357.375 49 C336 37.5 313 31 291 31 C195 31 131 129 131 275 C131 402 185 486 289 486 C316.5 486 343.25 473.25 365.375 453.125 C407.069 415.2 414 322.736 414 236.5 L414 236.5 Z " />
<glyph glyph-name="e" unicode="e" horiz-adv-x="522" d="M307 340 C421.364 340 493.189 415.071 419.375 470.75 C383.25 498 336.5 510 283 510 C129 510 27 432 27 231 C27 86 120 -10 260 -10 C310.5 -10 357.75 4.25 396.25 29.25 C465.379 74.1391 477.9 133.573 474.5 134.5 C471.1 135.427 454.326 95.6047 402.25 70.75 C369.25 55 327 46 280 46 C182 46 117 134 117 266 C117 279.5 117.375 292.5 118.25 304.875 C119.793 326.693 192.636 340 307 340 L307 340 Z M260.5 362 C177.973 360.764 127.491 415.451 182.25 460.375 C208 481.5 240.5 491 278 491 C304 491 327.625 482 347.375 461.625 C393.831 413.698 343.027 363.236 260.5 362 L260.5 362 Z " />
<glyph glyph-name="f" unicode="f" horiz-adv-x="368" d="M245 20 L220 20 C211 20 205 26 205 35 L205 245 C205 374.818 234.209 455 281.5 455 C328.791 455 358 463.591 358 477.5 C358 491.409 328.791 500 281.5 500 C234.209 500 189.859 570.79 231.625 665.875 C249.25 706 275.5 729 310 729 C353 729 394 635 430 635 C457 635 475 653 475 680 C475 725 421 755 340 755 C267.5 755 212.5 729.5 175.625 684.875 C99.6016 592.874 102.055 493.318 73 482.5 C43.9455 471.682 26 463.091 26 460 C26 456.909 43.9455 455 73 455 C102.055 455 120 374.818 120 245 L120 35 C120 26 114 20 105 20 L80 20 C64.5455 20 55 16.1818 55 10 C55 3.81818 96.0455 0 162.5 0 C228.955 0 270 3.81818 270 10 C270 16.1818 260.455 20 245 20 L245 20 Z " />
<glyph glyph-name="g" unicode="g" horiz-adv-x="520" d="M541 479 C541 510 519 530 486 530 C469 530 451.25 523.25 434.75 511.25 C401.44 487.025 372.349 482.49 332.375 497.125 C309.5 505.5 283.5 510 255 510 C147 510 75 446 75 350 C75 313.5 85 281.5 103.25 255.75 C137.658 207.202 137.569 200.724 88.75 164.25 C67 148 55 127.5 55 104 C55 78.5 63 56.5 77.375 39.375 C105.272 6.14088 103.495 -0.703559 69.625 -36.125 C53.25 -53.25 44 -73.5 44 -95 C44 -176 132 -230 264 -230 C396 -230 484 -165 484 -68 C484 23 432 84 298 84 L180 84 C134 84 103 102 103 130 C103 165 163 188 254 188 C362 188 434 253 434 350 C434 369.5 431 387.75 425.375 404.375 C415.301 434.15 406.126 458.712 419.25 469.375 C425.25 474.25 431 477 436 477 C457 477 484 442 505 442 C527 442 541 457 541 479 L541 479 Z M255 208 C198 208 160 265 160 350 C160 434 198 490 255 490 C312 490 350 434 350 350 C350 265 312 208 255 208 L255 208 Z M168 0.5 C173.564 0.190909 198.764 0 234 0 L291 0 C380 0 414 -35 414 -88 C414 -162 356 -211 270 -211 C178 -211 116 -157 116 -75 C116 -58.5 120.25 -43.25 127.75 -30.25 C141.402 -6.58578 162.436 0.809091 168 0.5 L168 0.5 Z " />
<glyph glyph-name="h" unicode="h" horiz-adv-x="589" d="M29 709.5 C35.1818 709.191 56.6934 711.505 71.625 695.625 C79.5 687.25 84 675.5 84 662 L84 35 C84 26 78 20 69 20 L44 20 C28.5455 20 19 16.1818 19 10 C19 3.81818 60.0455 0 126.5 0 C192.955 0 234 3.81818 234 10 C234 16.1818 224.455 20 209 20 L184 20 C175 20 169 26 169 35 L169 197.5 C169 297.955 184.643 395.825 232.75 425.25 C258.5 441 287.5 450 316 450 C377 450 409 402 409 330 L409 35 C409 26 403 20 394 20 L369 20 C353.545 20 344 16.1818 344 10 C344 3.81818 385.045 0 451.5 0 C517.955 0 559 3.81818 559 10 C559 16.1818 549.455 20 534 20 L509 20 C500 20 494 26 494 35 L494 330 C494 438 450 510 364 510 C327 510 289 497.5 254.875 475.625 C189.899 433.974 169 454.873 169 568 C169 681.127 160.982 751 148 751 C135.018 751 106.426 745.296 73 736.5 C39.5737 727.704 19 719.709 19 716 C19 712.291 22.8182 709.809 29 709.5 L29 709.5 Z " />
<glyph glyph-name="i" unicode="i" horiz-adv-x="274" d="M137 615 C170 615 192 637 192 670 C192 703 170 725 137 725 C104 725 82 703 82 670 C82 637 104 615 137 615 L137 615 Z M39 459.5 C45.1818 459.191 66.6934 461.505 81.625 445.625 C89.5 437.25 94 425.5 94 412 L94 35 C94 26 88 20 79 20 L54 20 C38.5455 20 29 16.1818 29 10 C29 3.81818 70.0455 0 136.5 0 C202.955 0 244 3.81818 244 10 C244 16.1818 234.455 20 219 20 L194 20 C185 20 179 26 179 35 L179 268 C179 412.036 170.982 501 158 501 C145.018 501 116.426 495.296 83 486.5 C49.5737 477.704 29 469.709 29 466 C29 462.291 32.8182 459.809 39 459.5 L39 459.5 Z " />
<glyph glyph-name="j" unicode="j" horiz-adv-x="270" d="M138 615 C171 615 193 637 193 670 C193 703 171 725 138 725 C105 725 83 703 83 670 C83 637 105 615 138 615 L138 615 Z M40 459.5 C46.1818 459.191 67.6934 461.505 82.625 445.625 C90.5 437.25 95 425.5 95 412 L95 50 C95 8.5 89.75 -29.25 80.625 -58.875 C67.7181 -100.778 22.8019 -117.76 -8.5 -109.5 C-26.5 -104.75 -44.5 -100 -60 -100 C-87 -100 -105 -116 -105 -140 C-105 -169 -81 -187 -45 -185 C-38 -185 4 -163 60 -130 C132 -88 180 -16 180 50 L180 275 C180 414.091 172.173 500 159.5 500 C146.827 500 115.805 495.455 78.875 485.625 C48.5648 477.557 30 469.709 30 466 C30 462.291 33.8182 459.809 40 459.5 L40 459.5 Z " />
<glyph glyph-name="k" unicode="k" horiz-adv-x="564" d="M412 500 C328.545 500 277 496.182 277 490 C277 483.818 286.355 480 301.5 480 L326 480 C383 480 376 444 310 389 L240 334.5 C196.727 300.809 169.976 370.491 169.5 517 C169.25 594 169 668.5 169 739 L169 745 C169 748.709 160.982 751 148 751 C135.018 751 106.426 745.296 73 736.5 C39.5737 727.704 19 719.709 19 716 C19 712.291 22.8182 709.809 29 709.5 C35.1818 709.191 56.6934 711.505 71.625 695.625 C79.5 687.25 84 675.5 84 662 L84 35 C84 26 78 20 69 20 L44 20 C28.5455 20 19 16.1818 19 10 C19 3.81818 60.0455 0 126.5 0 C192.955 0 234 3.81818 234 10 C234 16.1818 224.455 20 209 20 L184 20 C180 20 176.5 21.25 173.875 23.375 C169.115 27.2286 169.644 79.153 169.875 155.5 C170.106 231.845 206.082 236.045 264.5 166.5 C322.918 96.9545 375.686 40.7557 365.5 26.75 C355.461 12.9465 339 15.1818 339 9 C339 2.81818 378.709 -1 443 -1 C507.291 -1 547 2.81818 547 9 C547 15.1818 526.37 17.1433 500 31.625 C484.75 40 470 52.5 456 69 L353.5 192 C290.136 268.036 275.494 333.825 315 364.5 C354.506 395.175 405.493 438.427 457.125 461.125 C483 472.5 507.5 479 527 479 L537 479 C543.182 479 547 483.009 547 489.5 C547 495.991 495.455 500 412 500 L412 500 Z " />
<glyph glyph-name="l" unicode="l" horiz-adv-x="264" d="M30 711 L40 711 C66 710 84 692 85 666 C85 464 84 142 84 36 C84 27 78 21 69 21 L44 21 C28.5455 21 19 17.1818 19 11 C19 4.81818 60.0455 1 126.5 1 C192.955 1 234 4.81818 234 11 C234 17.1818 224.455 21 209 21 L184 21 C175 21 169 27 169 36 L169 393.5 C169 614.5 160.982 751 148 751 C135.018 751 106.668 745.46 73.5 737.5 C40.3324 729.54 20 721.518 20 717.5 C20 713.482 23.8182 711 30 711 L30 711 Z " />
<glyph glyph-name="m" unicode="m" horiz-adv-x="874" d="M29 459.5 C35.1818 459.191 56.6934 461.505 71.625 445.625 C79.5 437.25 84 425.5 84 412 L84 35 C84 26 78 20 69 20 L44 20 C28.5455 20 19 16.1818 19 10 C19 3.81818 60.0455 0 126.5 0 C192.955 0 234 3.81818 234 10 C234 16.1818 224.455 20 209 20 L184 20 C175 20 169 26 169 35 L169 200 C169 302 183.214 397.525 226.875 424.375 C250.25 438.75 276.5 447 302 447 C365 447 389 400 389 330 L389 35 C389 26 383 20 374 20 L349 20 C333.545 20 324 16.1818 324 10 C324 3.81818 365.045 0 431.5 0 C497.955 0 539 3.81818 539 10 C539 16.1818 529.455 20 514 20 L489 20 C480 20 474 26 474 35 L474 330 C474 337 473.75 343.75 473.375 350.375 C472.688 362.517 487.356 400.882 530.875 425.75 C554.5 439.25 581 447 607 447 C670 447 694 400 694 330 L694 35 C694 26 688 20 679 20 L654 20 C638.545 20 629 16.1818 629 10 C629 3.81818 670.045 0 736.5 0 C802.955 0 844 3.81818 844 10 C844 16.1818 834.455 20 819 20 L794 20 C785 20 779 26 779 35 L779 330 C779 438 741 510 642 510 C611 510 578.25 498 548 477 C488.324 435.572 470.88 436.125 427.75 477.75 C406.25 498.5 376.5 510 337 510 C307.5 510 276 498 246.625 477 C187.99 435.082 169 411 169 445 C169 479 160.695 499.809 147.25 499.5 C133.805 499.191 105.05 494.581 72.375 485.75 C39.9033 476.974 19.8091 468.9 19.5 465.5 C19.1909 462.1 22.8182 459.809 29 459.5 L29 459.5 Z " />
<glyph glyph-name="n" unicode="n" horiz-adv-x="569" d="M29 460.5 C35.1818 460.191 56.6934 462.505 71.625 446.625 C79.5 438.25 84 426.5 84 413 L84 35 C84 26 78 20 69 20 L44 20 C28.5455 20 19 16.1818 19 10 C19 3.81818 60.0455 0 126.5 0 C192.955 0 234 3.81818 234 10 C234 16.1818 224.455 20 209 20 L184 20 C175 20 169 26 169 35 L169 197.5 C169 297.955 182.145 392.671 223.75 423.875 C244.25 439.25 266 448 286 448 C354 448 389 401 389 330 L389 35 C389 26 383 20 374 20 L349 20 C333.545 20 324 16.1818 324 10 C324 3.81818 365.045 0 431.5 0 C497.955 0 539 3.81818 539 10 C539 16.1818 529.455 20 514 20 L489 20 C480 20 474 26 474 35 L474 330 C474 438 427 510 337 510 C308.5 510 277.25 497.5 247.75 475.625 C188.133 431.418 169 406.955 169 442.5 C169 478.045 160.982 500 148 500 C135.018 500 106.483 494.43 73 486.5 C39.5171 478.57 19 470.709 19 467 C19 463.291 22.8182 460.809 29 460.5 L29 460.5 Z " />
<glyph glyph-name="o" unicode="o" horiz-adv-x="586" d="M121 250 C121 390 188 484 289 484 C390 484 457 390 457 250 C457 110 390 16 289 16 C188 16 121 110 121 250 L121 250 Z M27 250 C27 94 132 -10 289 -10 C446 -10 550 94 550 250 C550 406 446 510 289 510 C132 510 27 406 27 250 L27 250 Z " />
<glyph glyph-name="p" unicode="p" horiz-adv-x="571" d="M14 460.5 C20.1818 460.191 41.6934 462.505 56.625 446.625 C64.5 438.25 69 426.5 69 413 L69 -185 C69 -194 63 -200 54 -200 L29 -200 C13.5455 -200 4 -203.818 4 -210 C4 -216.182 45.0455 -220 111.5 -220 C177.955 -220 219 -216.182 219 -210 C219 -203.818 209.455 -200 194 -200 L169 -200 C160 -200 154 -194 154 -185 L154 -78 C154 -11.8545 174.242 14.1158 211.875 3.75 C232.75 -2 255 -5 278 -5 C427 -5 526 116 526 257 C526 409 437 510 303 510 C273.5 510 244.25 503.25 218.375 491.25 C172.577 470.01 154 452.455 154 471 C154 489.545 145.982 501 133 501 C120.018 501 91.4829 495.43 58 487.5 C24.5171 479.57 4 471.518 4 467.5 C4 463.482 7.81818 460.809 14 460.5 L14 460.5 Z M154 269 C154 354.309 167.721 433.392 205 457.25 C223.75 469.25 243.5 476 262 476 C364 476 432 378 432 231 C432 115 372 17 282 17 C254 17 227.125 28.5 204.625 48.5 C159.781 88.361 154 183.691 154 269 L154 269 Z " />
<glyph glyph-name="q" unicode="q" horiz-adv-x="551" d="M521 -200 L496 -200 C487 -200 481 -194 481 -185 L481 500 L476 500 L461.5 469.5 C452.536 450.645 425.31 469.841 374.25 491.375 C345.5 503.5 313 510 279 510 C115 510 31 406 31 251 C31 97 118 -5 248 -5 C275.5 -5 303.5 1.5 329 13.125 C375.195 34.1846 395 14.8455 395 -61.5 L395 -185 C395 -194 389 -200 380 -200 L355 -200 C339.545 -200 330 -203.818 330 -210 C330 -216.182 371.045 -220 437.5 -220 C503.955 -220 545.191 -216.182 545.5 -210 C545.809 -203.818 536.455 -200 521 -200 L521 -200 Z M395 241 C395 148.891 379.45 67.7368 341.625 46.75 C322.25 36 302 30 283 30 C184 30 118 128 118 275 C118 405 171 491 273 491 C298.5 491 323.25 481.125 344.5 463.5 C387.128 428.144 395 333.109 395 241 L395 241 Z " />
<glyph glyph-name="r" unicode="r" horiz-adv-x="420" d="M31 461 L41 461 C67 460 85 442 86 416 L86 34 C86 25 80 19 71 19 L46 19 C30.5455 19 21 15.1818 21 9 C21 2.81818 62.0455 -1 128.5 -1 C194.955 -1 236 2.81818 236 9 C236 15.1818 226.455 19 211 19 L186 19 C177 19 171 25 171 34 L171 195 C171 294.527 177.356 395.368 216.75 438 C235 457.75 255.5 469 276 469 C297 469 311 455 311 434 C311 404 331 384 361 384 C391 384 411 404 411 434 C411 479 373 509 316 509 C284 509 254 498.25 229 479.25 C180.954 442.735 172 418.9 172 449.5 C172 480.1 163.982 499 151 499 C138.018 499 109.668 493.46 76.5 485.5 C43.3324 477.54 22.6182 469.9 22 466.5 C21.3818 463.1 24.8182 461 31 461 L31 461 Z " />
<glyph glyph-name="s" unicode="s" horiz-adv-x="428" d="M353 426 C353 477.927 350.518 510 346.5 510 L340 510 C339 506 337 502 336 498 C333 487 306 488 267 499 C247 506 226 510 204 510 C117 510 59 458 59 380 C59 342.5 71 308.25 94.5 280.25 C142.84 222.654 242.285 215.262 284.125 172.875 C303.25 153.5 313 130.5 313 106 C313 69 296.5 40.25 270.875 24.125 C220.088 -7.83382 140.584 28.1763 112.5 68.625 C79.3808 116.327 77.2364 160.009 76 166.5 C74.7636 172.991 71.3273 177 67 177 C62.6727 177 60 143.018 60 88 C60 32.9818 62.6727 -1 67 -1 C71.3273 -1 74.5727 1.48182 75.5 5.5 L77 12 C81 26 109 23 149 5 C171 -5 194 -10 218 -10 C314 -10 378 46 378 130 C378 199 330 257 237 282 C159 303 119 352 119 409 C119 470 172 501 237 486 C285 474 324 425 335 363 L336.5 352.5 C337.427 346.009 340.864 342 345.5 342 C350.136 342 353 374.073 353 426 L353 426 Z " />
<glyph glyph-name="t" unicode="t" horiz-adv-x="378" d="M256.5 500 C209.209 500 180 522.909 180 560 C180 597.091 178.855 620 177 620 C175.145 620 146.509 590.6 102 543 C57.4909 495.4 30 464.091 30 461 C30 457.909 42.4091 456 62.5 456 C82.5909 456 95 399.491 95 308 L95 160 C95 38 150 -10 232 -10 C261 -10 289.25 0.5 313.125 19 C359.328 54.8016 366.091 96.7636 363 98 C359.909 99.2364 351.587 71.8859 319.25 49.25 C301.75 37 280.5 30 258 30 C210 30 178 61 178 141 L179 298 C179.618 395.055 209.209 455 256.5 455 C303.791 455 333 463.591 333 477.5 C333 491.409 303.791 500 256.5 500 L256.5 500 Z " />
<glyph glyph-name="u" unicode="u" horiz-adv-x="560" d="M532.5 47.5 L520 44 C490 36 470 51 470 81 L470 290.5 C470 420.009 441.364 500 395 500 C348.636 500 320 496.182 320 490 C320 483.818 329.545 480 345 480 L370 480 C379 480 385 474 385 465 L385 304.5 C385 205.282 374.391 107.103 330.75 74.25 C308.5 57.5 283 48 257 48 C202 48 165 92 165 159 L165 329 C165 434.091 136.364 499 90 499 C43.6364 499 15 495.182 15 489 C15 482.818 24.5455 479 40 479 L65 479 C74 479 80 473 80 464 L80 159 C80 57 135 -11 217 -11 C251.5 -11 285.25 1.75 314.5 24.25 C371.975 68.4618 385 95.2818 385 58.5 C385 21.7182 393.018 -1.09545 406 -1.25 C418.982 -1.40455 434.863 0.917239 447.75 4.25 C461.504 7.80704 484.883 13.9911 509 20.375 C531.269 26.2698 545 34.0091 545 40.5 C545 46.9909 540.227 49.6636 532.5 47.5 L532.5 47.5 Z " />
<glyph glyph-name="v" unicode="v" horiz-adv-x="556" d="M445 500 C394.927 500 364 496.182 364 490 C364 483.818 384.718 486.145 401.125 468.625 C408.5 460.75 410.5 448.5 406 431 L354 276.5 C321.855 180.991 280.716 179.816 246.125 273.375 C211.74 366.376 178.48 441.872 189.625 463.875 C194.5 473.5 204.5 479 219 479 L223.5 479 C226.282 479 228 482.818 228 489 C228 495.182 186.764 499 120 499 C53.2364 499 12 495.182 12 489 C12 482.818 36.2447 483.521 64.875 465.75 C92.7046 448.476 128.141 340.955 177.75 206.5 C227.359 72.0455 262.773 -11 270.5 -11 C278.227 -11 313.211 72.1886 362.125 206.875 C410.944 341.302 446.693 448.419 474.375 465.75 C502.809 483.552 526.809 483.009 526.5 489.5 C526.191 495.991 495.073 500 445 500 L445 500 Z " />
<glyph glyph-name="w" unicode="w" horiz-adv-x="864" d="M734 500 C683.927 500 653 496.182 653 490 C653 483.818 654.718 480 657.5 480 L662 480 C676.5 480 686.75 474.5 691.875 464.875 C703.463 443.112 661.409 341.955 613.5 207.5 C565.591 73.0455 540.773 -10 548.5 -10 C556.227 -10 593.264 73.4273 645.5 208.5 L730 427 C737.5 445.5 748.5 458.75 762.625 467.375 C790.537 484.419 814.191 483.818 814.5 490 C814.809 496.182 784.073 500 734 500 L734 500 Z M138 500 C70.6182 500 29 496.182 29 490 C29 483.818 52.4814 484.289 80.875 467.5 C95.25 459 106.5 446 114 428 L195.5 208.5 C245.882 72.8091 281.773 -11 289.5 -11 C297.227 -11 324.909 49.1364 362 146.5 C399.091 243.864 443.573 243.864 478.5 146.5 C513.427 49.1364 543.973 14.3909 558.5 55.5 C573.027 96.6091 561.431 179.815 528 273.375 C494.716 366.524 461.537 442.112 473.125 463.875 C478.25 473.5 488.5 479 503 479 L507.5 479 C510.282 479 512 482.818 512 489 C512 495.182 470.382 499 403 499 C335.618 499 294 495.182 294 489 C294 482.818 317.369 483.353 345.375 466.5 C359.5 458 370.5 445 378 427 L392 387.5 C400.655 363.082 390.345 304.282 365 233.5 C339.655 162.718 302.236 177.418 267 272 L210 425 C199 457 210 478 239 478 L243.5 478 C246.282 478 247.809 482.2 247.5 489 C247.191 495.8 205.382 500 138 500 L138 500 Z " />
<glyph glyph-name="x" unicode="x" horiz-adv-x="565" d="M454 500 C406.4 500 377 496.182 377 490 C377 483.818 378.527 480 381 480 L385 480 C428 480 390 425 390 425 L348.5 365 C322.845 327.909 292.3 329.055 268.5 368 L230 431 C214 461 219 481 245 481 L249 481 C251.473 481 253 484.818 253 491 C253 497.182 210.618 501 142 501 C73.3818 501 31 497.182 31 491 C31 484.818 56.1387 484.809 88.125 467.75 C120.767 450.341 153.527 389.536 190 330.5 C226.473 271.464 226.091 204.264 189 154.5 L129 74 C115 56 99.5 42.75 82.375 34 C50.5269 17.7272 26 17.1818 26 11 C26 4.81818 55.4 1 103 1 C150.6 1 180 4.81818 180 11 C180 17.1818 178.473 21 176 21 L172 21 C146 21 144 43 166 76 L213.5 146 C242.864 189.273 278.182 188.127 306 143 L351 70 C367 40 362 20 336 20 L332 20 C329.527 20 328 16.1818 328 10 C328 3.81818 370.382 0 439 0 C507.618 0 550 3.81818 550 10 C550 16.1818 524.861 16.1906 492.875 33.25 C460.233 50.6592 425.373 115.091 385.5 180 C345.627 244.909 340.971 311.926 373.5 355.375 C405.806 398.527 438.824 448.424 473.25 466.375 C505.774 483.334 531 483.818 531 490 C531 496.182 501.6 500 454 500 L454 500 Z " />
<glyph glyph-name="y" unicode="y" horiz-adv-x="558" d="M465 500 C414.927 500 384 496.182 384 490 C384 483.818 385.718 480 388.5 480 L393 480 C407.5 480 418 474.5 423.5 464.875 C435.731 443.471 404.718 366.391 373.5 271.5 C342.282 176.609 297.609 178.327 256.5 276 C215.391 373.673 178.454 453.043 193.125 469.375 C207.791 485.702 227 483.818 227 490 C227 496.182 185.955 500 119.5 500 C53.0455 500 12 496.182 12 490 C12 483.818 36.2878 484.349 65.375 466.75 C80.25 457.75 92 444 100 425 L189 213 C244.018 81.9455 265.946 -28.7986 247.625 -77.5 C237.75 -103.75 228 -130 218 -156 C209 -179 195 -194 191 -194 C169 -194 164 -165 141 -165 C114 -165 96 -183 96 -210 C96 -240 116 -260 146 -260 C172 -260 218 -223 239 -167 L269 -88.5 C287.545 -39.9727 329.877 74.591 380 211.5 C430.123 348.409 467.489 454.312 493.75 468.875 C521.046 484.012 543.573 483.818 544.5 490 C545.427 496.182 515.073 500 465 500 L465 500 Z " />
<glyph glyph-name="z" unicode="z" horiz-adv-x="475" d="M301 27 L222.5 25 C173.973 23.7636 199.555 110.245 289.5 251.5 C379.445 392.755 435 483.818 435 490 C435 496.182 375.245 500 278.5 500 L122 500 C113 500 105.75 502.75 100.875 507.5 C91.7203 516.42 94.3818 527.955 95 529.5 C95.6182 531.045 91.8 532 85 532 C78.2 532 66.8648 508.788 56.5 470.875 C39.9702 410.411 33.6273 373 39.5 373 C45.3727 373 50.7182 375.673 53.5 380 C56.2818 384.327 70.7255 417.3 110.125 445.375 C147.018 471.664 207.4 473.764 255 475 C302.6 476.236 276.064 389.755 185.5 248.5 C94.9364 107.245 39 16.1818 39 10 C39 3.81818 113.455 0 234 0 L429 0 C430 0 432.25 14.75 435.125 38.125 C441.948 93.6004 441.373 128 435.5 128 C429.627 128 424.855 125.136 423 120.5 L420 113 C398 63 351 29 300 27 L301 27 Z " />
<glyph glyph-name="braceleft" unicode="&#x7b;" horiz-adv-x="249" d="M224 750 L204 750 C124 750 70 698 70 619 L70 383 C70 361.5 64.75 345 55.25 333.875 C37.7296 313.358 15 314.327 15 310 C15 305.673 38.5153 305.924 55.25 284.125 C64.75 271.75 70 253.5 70 230 L70 1 C70 -78 124 -130 204 -130 L224 -130 C236.364 -130 244 -127.327 244 -123 C244 -118.673 239.991 -116 233.5 -116 L223 -116 C171 -116 136 -69 136 1 L136 182 C136 216.5 128.5 246 115.125 268.125 C92.7304 305.17 92.1643 314.039 115.125 349.875 C128.5 370.75 136 398.5 136 431 L136.5 525.5 C136.809 583.918 128.395 660.874 160.5 704.75 C175.5 725.25 197 737 223 737 L233.5 737 C239.991 737 244 739.482 244 743.5 C244 747.518 236.364 750 224 750 L224 750 Z " />
<glyph glyph-name="bar" unicode="&#x7c;" horiz-adv-x="186" d="M60 275 C60 -49.5455 72.6 -250 93 -250 C113.4 -250 126 -49.5455 126 275 C126 599.545 113.4 800 93 800 C72.6 800 60 599.545 60 275 L60 275 Z " />
<glyph glyph-name="braceright" unicode="&#x7d;" horiz-adv-x="249" d="M5 743 C5 738.673 9.00909 736 15.5 736 L26 736 C52 736 73.5 724.25 88.5 703.75 C120.605 659.874 112.191 582.918 112.5 524.5 L113 430 C113 397.5 120.5 369.75 133.875 348.875 C156.836 313.039 156.27 304.17 133.875 267.125 C120.5 245 113 215.5 113 181 L113 0 C113 -70 78 -117 26 -117 L15.5 -117 C9.00909 -117 5 -119.673 5 -124 C5 -128.327 12.6364 -131 25 -131 L45 -131 C125 -131 179 -79 179 0 L179 229 C179 253 184.25 271.25 193.75 283.5 C210.532 305.14 234 304.673 234 309 C234 313.327 211.27 312.358 193.75 332.875 C184.25 344 179 360.5 179 382 L179 618 C179 697 125 749 45 749 L25 749.5 C12.6364 749.809 5 747.327 5 743 L5 743 Z " />
<glyph glyph-name="asciitilde" unicode="&#x7e;" horiz-adv-x="340" d="M41.125 353.5 C48.25 364 58.5 370 71 370 C123 370 192 305 244 305 C268.5 305 288.75 317 302.875 338 C333.847 384.047 322.136 425 317.5 425 C312.864 425 314.457 403.755 297.5 381.5 C289.5 371 278 365 264 365 C212 365 143 430 91 430 C68 430 49 418 35.75 397 C6.24629 350.239 17.8636 310 22.5 310 C27.1364 310 25.5397 330.532 41.125 353.5 L41.125 353.5 Z " />
<glyph glyph-name="exclamdown" unicode="&#xa1;" horiz-adv-x="244" d="M122 505 C86 505 62 481 62 445 C62 409 86 385 122 385 C158 385 182 409 182 445 C182 481 158 505 122 505 L122 505 Z M122 -255 C142.5 -255 157 -244.5 165.625 -226.125 C185.741 -183.268 164.417 -85.0459 152 20.5 C132.469 186.509 126.945 290 122 290 C117.055 290 111.531 186.509 92 20.5 C79.5828 -85.0459 58.2586 -183.268 78.375 -226.125 C87 -244.5 101.5 -255 122 -255 L122 -255 Z " />
<glyph glyph-name="cent" unicode="&#xa2;" horiz-adv-x="503" d="M267 542 C267 521.6 176.979 511.708 105.75 424.625 C67 377.25 45 312.5 45 236 C45 164.5 67 104.75 105.75 62.125 C179.036 -18.49 267 -21.4091 267 -41.5 C267 -61.5909 272.727 -74 282 -74 C291.273 -74 297 -61.4 297 -41 C297 -20.6 345.013 -7.59417 398.75 34.25 C457.164 79.7363 469.709 129.955 466 131.5 C462.291 133.045 447.021 93.3087 396.375 65 C341.039 34.0699 296 129.527 296 268 C296 406.473 322.27 491.319 348.625 466.625 C364.5 451.75 378 431 387 406 C396 381 413 364 430 364 C447 364 459.75 368.25 467.125 375.625 C480.572 389.072 459.791 450.28 406.5 482.125 C345.893 518.341 296 523.409 296 543.5 C296 563.591 290.464 575.809 281.5 575.5 C272.536 575.191 267 562.4 267 542 L267 542 Z M168.25 125.625 C145 164.5 132 215.5 132 275 C132 334.5 145.25 385 168.625 422.375 C207.674 484.812 266 406.618 266 270 C266 133.382 207.66 59.7305 168.25 125.625 L168.25 125.625 Z " />
<glyph glyph-name="acute" unicode="&#xb4;" horiz-adv-x="340" d="M249 622 C292.891 659.091 338.752 696.933 366.25 724.125 C377.5 735.25 384 743 384 746 C384 769 365 788 342 788 C339 788 331.75 781.25 321.25 769.5 C295.289 740.448 259.236 692.745 224 647 C188.764 601.255 169.1 570.9 172.5 567.5 C175.9 564.1 205.109 584.909 249 622 L249 622 Z " />
<glyph glyph-name="questiondown" unicode="&#xbf;" horiz-adv-x="299" d="M174 505 C138 505 114 481 114 445 C114 409 138 385 174 385 C210 385 234 409 234 445 C234 481 210 505 174 505 L174 505 Z M174 215 C174 168.636 127.116 150.524 71.875 116.75 C27.6221 89.6938 1.15832 38.2509 -7.75 5.375 C-13 -14 -16 -35 -16 -55 C-16 -178 52 -260 154 -260 C202 -260 234 -235 234 -197 C234 -172 216 -155 188 -155 C168 -155 142 -170 123 -170 C55 -170 10 -120 10 -45 C10 -37 12.25 -27 16.25 -16.5 C24.1013 4.10972 44.976 37.1576 77.375 47.625 C151.045 71.4262 195.335 104.155 192.5 176.125 C189.728 246.499 186.136 290 181.5 290 C176.864 290 174 261.364 174 215 L174 215 Z M202 60 L202 60 L202 60 L202 60 Z " />
<glyph glyph-name="Agrave" unicode="&#xc0;" horiz-adv-x="796" d="M217 996 C217 988 243 964 281 932 L352 872 C395.891 834.909 425.1 814.1 428.5 817.5 C431.9 820.9 412.236 851.255 377 897 L320 971 C290 1011 267 1038 259 1038 C236 1038 217 1019 217 996 L217 996 Z M305 12.5 C305 20.2273 299.845 25 291.5 25 L278 25 C222 25 194 60 207 114 L233 196.5 C249.073 247.5 306.918 279 384.5 279 C462.082 279 519.545 248.645 535 199.5 L560 120 C576 63 548 25 490 25 L476.5 25 C468.155 25 463 20.2273 463 12.5 C463 4.77273 525.427 0 626.5 0 C727.573 0 790 4.77273 790 12.5 C790 20.2273 787.327 25 783 25 L776 25 C728 25 684 63 664 120 L560.5 445.5 C496.518 646.718 455.091 771 452 771 C448.909 771 447.756 752.288 429.5 740 C398.93 719.424 373.573 719.091 374.5 716 C375.427 712.909 339.437 599.272 279.875 418.5 C247.75 321 215.5 223.5 183 126 C163 66 110 26 50 26 L32.5 26 C21.6818 26 15 21.2273 15 13.5 C15 5.77273 70.3636 0.809091 160 0.5 C249.636 0.190909 305 4.77273 305 12.5 L305 12.5 Z M327 492.5 C363.473 607.791 408.336 607.791 444.5 492.5 C480.664 377.209 458.136 306 385.5 306 C312.864 306 290.527 377.209 327 492.5 L327 492.5 Z " />
<glyph glyph-name="Aacute" unicode="&#xc1;" horiz-adv-x="796" d="M500 872 C543.891 909.091 589.752 946.933 617.25 974.125 C628.5 985.25 635 993 635 996 C635 1019 616 1038 593 1038 C590 1038 582.75 1031.25 572.25 1019.5 C546.289 990.448 510.236 942.745 475 897 C439.764 851.255 420.1 820.9 423.5 817.5 C426.9 814.1 456.109 834.909 500 872 L500 872 Z M305 12.5 C305 20.2273 299.845 25 291.5 25 L278 25 C222 25 194 60 207 114 L233 196.5 C249.073 247.5 306.918 279 384.5 279 C462.082 279 519.545 248.645 535 199.5 L560 120 C576 63 548 25 490 25 L476.5 25 C468.155 25 463 20.2273 463 12.5 C463 4.77273 525.427 0 626.5 0 C727.573 0 790 4.77273 790 12.5 C790 20.2273 787.327 25 783 25 L776 25 C728 25 684 63 664 120 L560.5 445.5 C496.518 646.718 455.091 771 452 771 C448.909 771 447.756 752.288 429.5 740 C398.93 719.424 373.573 719.091 374.5 716 C375.427 712.909 339.437 599.272 279.875 418.5 C247.75 321 215.5 223.5 183 126 C163 66 110 26 50 26 L32.5 26 C21.6818 26 15 21.2273 15 13.5 C15 5.77273 70.3636 0.809091 160 0.5 C249.636 0.190909 305 4.77273 305 12.5 L305 12.5 Z M327 492.5 C363.473 607.791 408.336 607.791 444.5 492.5 C480.664 377.209 458.136 306 385.5 306 C312.864 306 290.527 377.209 327 492.5 L327 492.5 Z " />
<glyph glyph-name="Acircumflex" unicode="&#xc2;" horiz-adv-x="796" d="M437.5 1023.38 C432 1029.75 426 1035 421 1035 C416 1035 410 1029.75 404.5 1023.38 C395.293 1012.7 367.709 968.918 330 910.5 C292.291 852.082 271.291 814.091 275 811 C278.709 807.909 307.727 832.536 351 875.5 C394.273 918.464 447.727 918.464 491 875.5 C534.273 832.536 563.291 807.909 567 811 C570.709 814.091 549.709 852.082 512 910.5 C474.291 968.918 446.707 1012.7 437.5 1023.38 L437.5 1023.38 Z M305 12.5 C305 20.2273 299.845 25 291.5 25 L278 25 C222 25 194 60 207 114 L233 196.5 C249.073 247.5 306.918 279 384.5 279 C462.082 279 519.545 248.645 535 199.5 L560 120 C576 63 548 25 490 25 L476.5 25 C468.155 25 463 20.2273 463 12.5 C463 4.77273 525.427 0 626.5 0 C727.573 0 790 4.77273 790 12.5 C790 20.2273 787.327 25 783 25 L776 25 C728 25 684 63 664 120 L560.5 445.5 C496.518 646.718 455.091 771 452 771 C448.909 771 447.756 752.288 429.5 740 C398.93 719.424 373.573 719.091 374.5 716 C375.427 712.909 339.437 599.272 279.875 418.5 C247.75 321 215.5 223.5 183 126 C163 66 110 26 50 26 L32.5 26 C21.6818 26 15 21.2273 15 13.5 C15 5.77273 70.3636 0.809091 160 0.5 C249.636 0.190909 305 4.77273 305 12.5 L305 12.5 Z M327 492.5 C363.473 607.791 408.336 607.791 444.5 492.5 C480.664 377.209 458.136 306 385.5 306 C312.864 306 290.527 377.209 327 492.5 L327 492.5 Z " />
<glyph glyph-name="Atilde" unicode="&#xc3;" horiz-adv-x="796" d="M292.125 913.5 C299.25 924 309.5 930 322 930 C374 930 443 865 495 865 C519.5 865 539.75 877 553.875 898 C584.847 944.047 573.136 985 568.5 985 C563.864 985 565.457 963.755 548.5 941.5 C540.5 931 529 925 515 925 C463 925 394 990 342 990 C319 990 300 978 286.75 957 C257.246 910.239 268.864 870 273.5 870 C278.136 870 276.54 890.532 292.125 913.5 L292.125 913.5 Z M305 12.5 C305 20.2273 299.845 25 291.5 25 L278 25 C222 25 194 60 207 114 L233 196.5 C249.073 247.5 306.918 279 384.5 279 C462.082 279 519.545 248.645 535 199.5 L560 120 C576 63 548 25 490 25 L476.5 25 C468.155 25 463 20.2273 463 12.5 C463 4.77273 525.427 0 626.5 0 C727.573 0 790 4.77273 790 12.5 C790 20.2273 787.327 25 783 25 L776 25 C728 25 684 63 664 120 L560.5 445.5 C496.518 646.718 455.091 771 452 771 C448.909 771 447.756 752.288 429.5 740 C398.93 719.424 373.573 719.091 374.5 716 C375.427 712.909 339.437 599.272 279.875 418.5 C247.75 321 215.5 223.5 183 126 C163 66 110 26 50 26 L32.5 26 C21.6818 26 15 21.2273 15 13.5 C15 5.77273 70.3636 0.809091 160 0.5 C249.636 0.190909 305 4.77273 305 12.5 L305 12.5 Z M327 492.5 C363.473 607.791 408.336 607.791 444.5 492.5 C480.664 377.209 458.136 306 385.5 306 C312.864 306 290.527 377.209 327 492.5 L327 492.5 Z " />
<glyph glyph-name="Adieresis" unicode="&#xc4;" horiz-adv-x="796" d="M496 865 C529 865 551 887 551 920 C551 953 529 975 496 975 C463 975 441 953 441 920 C441 887 463 865 496 865 L496 865 Z M346 865 C379 865 401 887 401 920 C401 953 379 975 346 975 C313 975 291 953 291 920 C291 887 313 865 346 865 L346 865 Z M305 12.5 C305 20.2273 299.845 25 291.5 25 L278 25 C222 25 194 60 207 114 L233 196.5 C249.073 247.5 306.918 279 384.5 279 C462.082 279 519.545 248.645 535 199.5 L560 120 C576 63 548 25 490 25 L476.5 25 C468.155 25 463 20.2273 463 12.5 C463 4.77273 525.427 0 626.5 0 C727.573 0 790 4.77273 790 12.5 C790 20.2273 787.327 25 783 25 L776 25 C728 25 684 63 664 120 L560.5 445.5 C496.518 646.718 455.091 771 452 771 C448.909 771 447.756 752.288 429.5 740 C398.93 719.424 373.573 719.091 374.5 716 C375.427 712.909 339.437 599.272 279.875 418.5 C247.75 321 215.5 223.5 183 126 C163 66 110 26 50 26 L32.5 26 C21.6818 26 15 21.2273 15 13.5 C15 5.77273 70.3636 0.809091 160 0.5 C249.636 0.190909 305 4.77273 305 12.5 L305 12.5 Z M327 492.5 C363.473 607.791 408.336 607.791 444.5 492.5 C480.664 377.209 458.136 306 385.5 306 C312.864 306 290.527 377.209 327 492.5 L327 492.5 Z " />
<glyph glyph-name="Aring" unicode="&#xc5;" horiz-adv-x="796" d="M349 905 C349 950 378 980 421 980 C465 980 494 950 494 905 C494 864 460 830 421 830 C382 830 349 865 349 905 L349 905 Z M324 905 C324 854 369 810 421 810 C474 810 519 854 519 905 C519 962 480 1000 421 1000 C363 1000 324 962 324 905 L324 905 Z M305 12.5 C305 20.2273 299.845 25 291.5 25 L278 25 C222 25 194 60 207 114 L233 196.5 C249.073 247.5 306.918 279 384.5 279 C462.082 279 519.545 248.645 535 199.5 L560 120 C576 63 548 25 490 25 L476.5 25 C468.155 25 463 20.2273 463 12.5 C463 4.77273 525.427 0 626.5 0 C727.573 0 790 4.77273 790 12.5 C790 20.2273 787.327 25 783 25 L776 25 C728 25 684 63 664 120 L560.5 445.5 C496.518 646.718 455.091 771 452 771 C448.909 771 447.756 752.288 429.5 740 C398.93 719.424 373.573 719.091 374.5 716 C375.427 712.909 339.437 599.272 279.875 418.5 C247.75 321 215.5 223.5 183 126 C163 66 110 26 50 26 L32.5 26 C21.6818 26 15 21.2273 15 13.5 C15 5.77273 70.3636 0.809091 160 0.5 C249.636 0.190909 305 4.77273 305 12.5 L305 12.5 Z M327 492.5 C363.473 607.791 408.336 607.791 444.5 492.5 C480.664 377.209 458.136 306 385.5 306 C312.864 306 290.527 377.209 327 492.5 L327 492.5 Z " />
<glyph glyph-name="Egrave" unicode="&#xc8;" horiz-adv-x="652" d="M146 996 C146 988 172 964 210 932 L281 872 C324.891 834.909 354.1 814.1 357.5 817.5 C360.9 820.9 341.236 851.255 306 897 L249 971 C219 1011 196 1038 188 1038 C165 1038 146 1019 146 996 L146 996 Z M297.5 750 C138.318 750 40 746.182 40 740 C40 733.818 46.6818 730 57.5 730 L75 730 C117 730 145 702 145 660 L145 90 C145 48 117 20 75 20 L57.5 20 C46.6818 20 40 16.1818 40 10 C40 3.81818 143.091 0 310 0 C476.909 0 580.382 1.90909 581 5 C581.618 8.09091 586.481 35.9816 594 78 C601.519 120.018 602.755 146 597.5 146 C592.245 146 587.664 142.182 585.5 136 L582 126 C556 63 497 21 434 21 L325 21 C253 21 245 45 245 80 L245 232.5 C245 326.773 268.864 385 307.5 385 L370 385 C418 385 457 353 467 305 L472.5 277.5 C475.9 260.5 481.245 250 486.5 250 C491.755 250 495 306.127 495 397 C495 487.873 491.755 544 486.5 544 C481.245 544 475.9 533.5 472.5 516.5 L467 489 C457 441 418 409 370 409 L307.5 409 C268.864 409 245 470.091 245 569 C245 667.909 280.891 729 339 729 L433 729 C481 729 524 697 540 649 L549 621.5 C554.564 604.5 561.245 594 566.5 594 C571.755 594 571.018 619.865 564.625 661.75 C558.104 704.476 555 734.627 555 740.5 C555 746.373 456.682 750 297.5 750 L297.5 750 Z " />
<glyph glyph-name="Eacute" unicode="&#xc9;" horiz-adv-x="652" d="M429 872 C472.891 909.091 518.752 946.933 546.25 974.125 C557.5 985.25 564 993 564 996 C564 1019 545 1038 522 1038 C519 1038 511.75 1031.25 501.25 1019.5 C475.289 990.448 439.236 942.745 404 897 C368.764 851.255 349.1 820.9 352.5 817.5 C355.9 814.1 385.109 834.909 429 872 L429 872 Z M297.5 750 C138.318 750 40 746.182 40 740 C40 733.818 46.6818 730 57.5 730 L75 730 C117 730 145 702 145 660 L145 90 C145 48 117 20 75 20 L57.5 20 C46.6818 20 40 16.1818 40 10 C40 3.81818 143.091 0 310 0 C476.909 0 580.382 1.90909 581 5 C581.618 8.09091 586.481 35.9816 594 78 C601.519 120.018 602.755 146 597.5 146 C592.245 146 587.664 142.182 585.5 136 L582 126 C556 63 497 21 434 21 L325 21 C253 21 245 45 245 80 L245 232.5 C245 326.773 268.864 385 307.5 385 L370 385 C418 385 457 353 467 305 L472.5 277.5 C475.9 260.5 481.245 250 486.5 250 C491.755 250 495 306.127 495 397 C495 487.873 491.755 544 486.5 544 C481.245 544 475.9 533.5 472.5 516.5 L467 489 C457 441 418 409 370 409 L307.5 409 C268.864 409 245 470.091 245 569 C245 667.909 280.891 729 339 729 L433 729 C481 729 524 697 540 649 L549 621.5 C554.564 604.5 561.245 594 566.5 594 C571.755 594 571.018 619.865 564.625 661.75 C558.104 704.476 555 734.627 555 740.5 C555 746.373 456.682 750 297.5 750 L297.5 750 Z " />
<glyph glyph-name="Ecircumflex" unicode="&#xca;" horiz-adv-x="652" d="M366.5 1023.38 C361 1029.75 355 1035 350 1035 C345 1035 339 1029.75 333.5 1023.38 C324.293 1012.7 296.709 968.918 259 910.5 C221.291 852.082 200.291 814.091 204 811 C207.709 807.909 236.727 832.536 280 875.5 C323.273 918.464 376.727 918.464 420 875.5 C463.273 832.536 492.291 807.909 496 811 C499.709 814.091 478.709 852.082 441 910.5 C403.291 968.918 375.707 1012.7 366.5 1023.38 L366.5 1023.38 Z M297.5 750 C138.318 750 40 746.182 40 740 C40 733.818 46.6818 730 57.5 730 L75 730 C117 730 145 702 145 660 L145 90 C145 48 117 20 75 20 L57.5 20 C46.6818 20 40 16.1818 40 10 C40 3.81818 143.091 0 310 0 C476.909 0 580.382 1.90909 581 5 C581.618 8.09091 586.481 35.9816 594 78 C601.519 120.018 602.755 146 597.5 146 C592.245 146 587.664 142.182 585.5 136 L582 126 C556 63 497 21 434 21 L325 21 C253 21 245 45 245 80 L245 232.5 C245 326.773 268.864 385 307.5 385 L370 385 C418 385 457 353 467 305 L472.5 277.5 C475.9 260.5 481.245 250 486.5 250 C491.755 250 495 306.127 495 397 C495 487.873 491.755 544 486.5 544 C481.245 544 475.9 533.5 472.5 516.5 L467 489 C457 441 418 409 370 409 L307.5 409 C268.864 409 245 470.091 245 569 C245 667.909 280.891 729 339 729 L433 729 C481 729 524 697 540 649 L549 621.5 C554.564 604.5 561.245 594 566.5 594 C571.755 594 571.018 619.865 564.625 661.75 C558.104 704.476 555 734.627 555 740.5 C555 746.373 456.682 750 297.5 750 L297.5 750 Z " />
<glyph glyph-name="Edieresis" unicode="&#xcb;" horiz-adv-x="652" d="M425 865 C458 865 480 887 480 920 C480 953 458 975 425 975 C392 975 370 953 370 920 C370 887 392 865 425 865 L425 865 Z M275 865 C308 865 330 887 330 920 C330 953 308 975 275 975 C242 975 220 953 220 920 C220 887 242 865 275 865 L275 865 Z M297.5 750 C138.318 750 40 746.182 40 740 C40 733.818 46.6818 730 57.5 730 L75 730 C117 730 145 702 145 660 L145 90 C145 48 117 20 75 20 L57.5 20 C46.6818 20 40 16.1818 40 10 C40 3.81818 143.091 0 310 0 C476.909 0 580.382 1.90909 581 5 C581.618 8.09091 586.481 35.9816 594 78 C601.519 120.018 602.755 146 597.5 146 C592.245 146 587.664 142.182 585.5 136 L582 126 C556 63 497 21 434 21 L325 21 C253 21 245 45 245 80 L245 232.5 C245 326.773 268.864 385 307.5 385 L370 385 C418 385 457 353 467 305 L472.5 277.5 C475.9 260.5 481.245 250 486.5 250 C491.755 250 495 306.127 495 397 C495 487.873 491.755 544 486.5 544 C481.245 544 475.9 533.5 472.5 516.5 L467 489 C457 441 418 409 370 409 L307.5 409 C268.864 409 245 470.091 245 569 C245 667.909 280.891 729 339 729 L433 729 C481 729 524 697 540 649 L549 621.5 C554.564 604.5 561.245 594 566.5 594 C571.755 594 571.018 619.865 564.625 661.75 C558.104 704.476 555 734.627 555 740.5 C555 746.373 456.682 750 297.5 750 L297.5 750 Z " />
<glyph glyph-name="Igrave" unicode="&#xcc;" horiz-adv-x="385" d="M-14 996 C-14 988 12 964 50 932 L121 872 C164.891 834.909 194.1 814.1 197.5 817.5 C200.9 820.9 181.236 851.255 146 897 L89 971 C59 1011 36 1038 28 1038 C5 1038 -14 1019 -14 996 L-14 996 Z M307.5 20 L290 20 C260 20 240 40 240 70 L240 680 C240 710 260 730 290 730 L307.5 730 C318.318 730 325 733.818 325 740 C325 746.182 273.455 750 190 750 C106.545 750 55 746.182 55 740 C55 733.818 61.6818 730 72.5 730 L90 730 C120 730 140 710 140 680 L140 70 C140 40 120 20 90 20 L72.5 20 C61.6818 20 55 16.1818 55 10 C55 3.81818 106.545 0 190 0 C273.455 0 325 3.81818 325 10 C325 16.1818 318.318 20 307.5 20 L307.5 20 Z " />
<glyph glyph-name="Iacute" unicode="&#xcd;" horiz-adv-x="385" d="M269 872 C312.891 909.091 358.752 946.933 386.25 974.125 C397.5 985.25 404 993 404 996 C404 1019 385 1038 362 1038 C359 1038 351.75 1031.25 341.25 1019.5 C315.289 990.448 279.236 942.745 244 897 C208.764 851.255 189.1 820.9 192.5 817.5 C195.9 814.1 225.109 834.909 269 872 L269 872 Z M307.5 20 L290 20 C260 20 240 40 240 70 L240 680 C240 710 260 730 290 730 L307.5 730 C318.318 730 325 733.818 325 740 C325 746.182 273.455 750 190 750 C106.545 750 55 746.182 55 740 C55 733.818 61.6818 730 72.5 730 L90 730 C120 730 140 710 140 680 L140 70 C140 40 120 20 90 20 L72.5 20 C61.6818 20 55 16.1818 55 10 C55 3.81818 106.545 0 190 0 C273.455 0 325 3.81818 325 10 C325 16.1818 318.318 20 307.5 20 L307.5 20 Z " />
<glyph glyph-name="Icircumflex" unicode="&#xce;" horiz-adv-x="385" d="M206.5 1023.38 C201 1029.75 195 1035 190 1035 C185 1035 179 1029.75 173.5 1023.38 C164.293 1012.7 136.709 968.918 99 910.5 C61.2909 852.082 40.2909 814.091 44 811 C47.7091 807.909 76.7273 832.536 120 875.5 C163.273 918.464 216.727 918.464 260 875.5 C303.273 832.536 332.291 807.909 336 811 C339.709 814.091 318.709 852.082 281 910.5 C243.291 968.918 215.707 1012.7 206.5 1023.38 L206.5 1023.38 Z M307.5 20 L290 20 C260 20 240 40 240 70 L240 680 C240 710 260 730 290 730 L307.5 730 C318.318 730 325 733.818 325 740 C325 746.182 273.455 750 190 750 C106.545 750 55 746.182 55 740 C55 733.818 61.6818 730 72.5 730 L90 730 C120 730 140 710 140 680 L140 70 C140 40 120 20 90 20 L72.5 20 C61.6818 20 55 16.1818 55 10 C55 3.81818 106.545 0 190 0 C273.455 0 325 3.81818 325 10 C325 16.1818 318.318 20 307.5 20 L307.5 20 Z " />
<glyph glyph-name="Idieresis" unicode="&#xcf;" horiz-adv-x="385" d="M265 865 C298 865 320 887 320 920 C320 953 298 975 265 975 C232 975 210 953 210 920 C210 887 232 865 265 865 L265 865 Z M115 865 C148 865 170 887 170 920 C170 953 148 975 115 975 C82 975 60 953 60 920 C60 887 82 865 115 865 L115 865 Z M307.5 20 L290 20 C260 20 240 40 240 70 L240 680 C240 710 260 730 290 730 L307.5 730 C318.318 730 325 733.818 325 740 C325 746.182 273.455 750 190 750 C106.545 750 55 746.182 55 740 C55 733.818 61.6818 730 72.5 730 L90 730 C120 730 140 710 140 680 L140 70 C140 40 120 20 90 20 L72.5 20 C61.6818 20 55 16.1818 55 10 C55 3.81818 106.545 0 190 0 C273.455 0 325 3.81818 325 10 C325 16.1818 318.318 20 307.5 20 L307.5 20 Z " />
<glyph glyph-name="Ntilde" unicode="&#xd1;" horiz-adv-x="786" d="M260.625 913.5 C268 924 278.5 930 291 930 C343 930 412 865 464 865 C488.5 865 508.75 877 522.875 898 C553.847 944.047 542.136 985 537.5 985 C532.864 985 534.457 963.755 517.5 941.5 C509.5 931 498 925 484 925 C432 925 362 990 310 990 C287 990 268 978 254.75 957 C225.246 910.239 236.864 870 241.5 870 C246.136 870 244.627 890.723 260.625 913.5 L260.625 913.5 Z M153 0 C214.818 0 253 3.81818 253 10 C253 16.1818 246.318 20 235.5 20 L218 20 C203 20 190.5 25 181.75 33.75 C164.803 50.6972 167.427 173.473 166.5 341 C165.573 508.527 250.283 495.09 388.625 306 C527.128 116.689 616.818 0 623 0 C629.182 0 634.336 130.964 636.5 343 C638.664 555.036 639.521 703.219 656.125 717.25 C665 724.75 677 729 691 729 L708.5 729 C719.318 729 726 732.818 726 739 C726 745.182 687.818 749 626 749 C564.182 749 526 745.182 526 739 C526 732.818 532.682 729 543.5 729 L561 729 C576 729 588.5 724 597.25 715.25 C614.197 698.303 611.191 581.827 611.5 424.5 C611.809 267.173 530.636 280.526 399.625 460 C268.775 639.253 150.964 750 91 750 C31.0364 750 -6 746.182 -6 740 C-6 733.818 0.681818 730 11.5 730 L29 730 C44 730 60 725 75 716.25 C103.825 699.435 119.582 673.891 127 664 C134.418 654.109 138.809 537.655 138.5 359 C138.191 180.345 141.197 50.6972 124.25 33.75 C115.5 25 103 20 88 20 L70.5 20 C59.6818 20 53 16.1818 53 10 C53 3.81818 91.1818 0 153 0 L153 0 Z " />
<glyph glyph-name="Ograve" unicode="&#xd2;" horiz-adv-x="851" d="M159 375 C159 591 261 735 414 735 C578 735 687 591 687 375 C687 159 577 15 413 15 C261 15 159 159 159 375 L159 375 Z M50 375 C50 144 193 -10 408 -10 C641 -10 796 144 796 375 C796 606 645 760 418 760 C197 760 50 606 50 375 L50 375 Z M214 996 C214 988 240 964 278 932 L349 872 C392.891 834.909 422.1 814.1 425.5 817.5 C428.9 820.9 409.236 851.255 374 897 L317 971 C287 1011 264 1038 256 1038 C233 1038 214 1019 214 996 L214 996 Z " />
<glyph glyph-name="Oacute" unicode="&#xd3;" horiz-adv-x="851" d="M497 872 C540.891 909.091 586.752 946.933 614.25 974.125 C625.5 985.25 632 993 632 996 C632 1019 613 1038 590 1038 C587 1038 579.75 1031.25 569.25 1019.5 C543.289 990.448 507.236 942.745 472 897 C436.764 851.255 417.1 820.9 420.5 817.5 C423.9 814.1 453.109 834.909 497 872 L497 872 Z M159 375 C159 591 261 735 414 735 C578 735 687 591 687 375 C687 159 577 15 413 15 C261 15 159 159 159 375 L159 375 Z M50 375 C50 144 193 -10 408 -10 C641 -10 796 144 796 375 C796 606 645 760 418 760 C197 760 50 606 50 375 L50 375 Z " />
<glyph glyph-name="Ocircumflex" unicode="&#xd4;" horiz-adv-x="851" d="M159 375 C159 591 261 735 414 735 C578 735 687 591 687 375 C687 159 577 15 413 15 C261 15 159 159 159 375 L159 375 Z M50 375 C50 144 193 -10 408 -10 C641 -10 796 144 796 375 C796 606 645 760 418 760 C197 760 50 606 50 375 L50 375 Z M434.5 1023.38 C429 1029.75 423 1035 418 1035 C413 1035 407 1029.75 401.5 1023.38 C392.293 1012.7 364.709 968.918 327 910.5 C289.291 852.082 268.291 814.091 272 811 C275.709 807.909 304.727 832.536 348 875.5 C391.273 918.464 444.727 918.464 488 875.5 C531.273 832.536 560.291 807.909 564 811 C567.709 814.091 546.709 852.082 509 910.5 C471.291 968.918 443.707 1012.7 434.5 1023.38 L434.5 1023.38 Z " />
<glyph glyph-name="Otilde" unicode="&#xd5;" horiz-adv-x="851" d="M289.125 913.5 C296.25 924 306.5 930 319 930 C371 930 440 865 492 865 C516.5 865 536.75 877 550.875 898 C581.847 944.047 570.136 985 565.5 985 C560.864 985 562.457 963.755 545.5 941.5 C537.5 931 526 925 512 925 C460 925 391 990 339 990 C316 990 297 978 283.75 957 C254.246 910.239 265.864 870 270.5 870 C275.136 870 273.54 890.532 289.125 913.5 L289.125 913.5 Z M159 375 C159 591 261 735 414 735 C578 735 687 591 687 375 C687 159 577 15 413 15 C261 15 159 159 159 375 L159 375 Z M50 375 C50 144 193 -10 408 -10 C641 -10 796 144 796 375 C796 606 645 760 418 760 C197 760 50 606 50 375 L50 375 Z " />
<glyph glyph-name="Odieresis" unicode="&#xd6;" horiz-adv-x="851" d="M493 865 C526 865 548 887 548 920 C548 953 526 975 493 975 C460 975 438 953 438 920 C438 887 460 865 493 865 L493 865 Z M343 865 C376 865 398 887 398 920 C398 953 376 975 343 975 C310 975 288 953 288 920 C288 887 310 865 343 865 L343 865 Z M159 375 C159 591 261 735 414 735 C578 735 687 591 687 375 C687 159 577 15 413 15 C261 15 159 159 159 375 L159 375 Z M50 375 C50 144 193 -10 408 -10 C641 -10 796 144 796 375 C796 606 645 760 418 760 C197 760 50 606 50 375 L50 375 Z " />
<glyph glyph-name="Oslash" unicode="&#xd8;" horiz-adv-x="851" d="M116.5 26 C147.718 58.1455 201.46 39.8301 274.125 13 C314.75 -2 360 -10 409 -10 C642 -10 797 144 797 375 C797 428 789 477 774 521 C747.476 598.803 729.045 657.618 761.5 691 C793.955 724.382 807.891 751.109 798 761 C788.109 770.891 761.955 756.382 729.5 723 C697.045 689.618 639.825 708.697 562.5 736.25 C519 751.75 470.5 760 418 760 C197 760 50 606 50 375 C50 321.5 57.75 272 72.375 227.625 C98.0818 149.626 107.094 81.2019 60.25 33 C44.0261 16.3058 40.1091 -0.109091 50 -10 C59.8909 -19.8909 85.2818 -6.14545 116.5 26 L116.5 26 Z M382 365.875 C267.099 247.183 179.39 207.946 168.5 266.75 C162.25 300.5 159 337 159 376 C159 592 261 736 414 736 C459 736 499.75 725.125 535.25 704.875 C602.509 666.509 532.252 521.083 382 365.875 L382 365.875 Z M676.875 484.25 C683.5 450.75 687 414.5 687 376 C687 160 577 16 413 16 C371.5 16 333.75 26.5 300.75 46.125 C237.396 83.8017 287.602 204.339 402.25 322.75 C553.844 479.319 665.339 542.581 676.875 484.25 L676.875 484.25 Z " />
<glyph glyph-name="Ugrave" unicode="&#xd9;" horiz-adv-x="760" d="M174 996 C174 988 200 964 238 932 L309 872 C352.891 834.909 381.909 814.1 385 817.5 C388.091 820.9 368.427 851.255 333.5 897 L277 971 C247 1011 224 1038 216 1038 C193 1038 174 1019 174 996 L174 996 Z M730 46 C730 52.1818 723.318 54.0909 712.5 51 L695 46 C665 38 645 53 645 83 L645 416.5 C645 622.664 609.682 750 552.5 750 C495.318 750 460 746.182 460 740 C460 733.818 466.682 730 477.5 730 L495 730 C525 730 545 710 545 680 L545 435 C545 283.545 526.809 135.165 458.625 91.25 C421.75 67.5 378.5 54 334 54 C260 54 210 120 210 220 L210 485 C210 648.818 174.682 750 117.5 750 C60.3182 750 25 746.182 25 740 C25 733.818 31.6818 730 42.5 730 L60 730 C90 730 110 710 110 680 L110 220 C110 82 184 -10 294 -10 C347.5 -10 399.5 5.5 443.5 32.625 C523.185 81.7489 545 117.318 545 72.5 C545 27.6818 554.545 0 570 0 C585.455 0 621.275 6.69987 663.625 18.25 C704.68 29.4468 730 39.8182 730 46 L730 46 Z " />
<glyph glyph-name="Uacute" unicode="&#xda;" horiz-adv-x="760" d="M456 872 C499.891 909.091 545.752 946.933 573.25 974.125 C584.5 985.25 591 993 591 996 C591 1019 572 1038 549 1038 C546 1038 538.5 1031.25 527.875 1019.5 C501.842 990.711 466.427 942.745 431.5 897 C396.573 851.255 376.909 820.9 380 817.5 C383.091 814.1 412.109 834.909 456 872 L456 872 Z M730 46 C730 52.1818 723.318 54.0909 712.5 51 L695 46 C665 38 645 53 645 83 L645 416.5 C645 622.664 609.682 750 552.5 750 C495.318 750 460 746.182 460 740 C460 733.818 466.682 730 477.5 730 L495 730 C525 730 545 710 545 680 L545 435 C545 283.545 526.809 135.165 458.625 91.25 C421.75 67.5 378.5 54 334 54 C260 54 210 120 210 220 L210 485 C210 648.818 174.682 750 117.5 750 C60.3182 750 25 746.182 25 740 C25 733.818 31.6818 730 42.5 730 L60 730 C90 730 110 710 110 680 L110 220 C110 82 184 -10 294 -10 C347.5 -10 399.5 5.5 443.5 32.625 C523.185 81.7489 545 117.318 545 72.5 C545 27.6818 554.545 0 570 0 C585.455 0 621.275 6.69987 663.625 18.25 C704.68 29.4468 730 39.8182 730 46 L730 46 Z " />
<glyph glyph-name="Ucircumflex" unicode="&#xdb;" horiz-adv-x="760" d="M394.5 1023.38 C389 1029.75 383 1035 378 1035 C373 1035 367 1029.75 361.5 1023.38 C352.293 1012.7 324.709 968.918 287 910.5 C249.291 852.082 228.1 814.091 231.5 811 C234.9 807.909 263.727 832.536 307 875.5 C350.273 918.464 403.918 918.464 447.5 875.5 C491.082 832.536 520.1 807.909 523.5 811 C526.9 814.091 505.9 852.082 468.5 910.5 C431.1 968.918 403.707 1012.7 394.5 1023.38 L394.5 1023.38 Z M730 46 C730 52.1818 723.318 54.0909 712.5 51 L695 46 C665 38 645 53 645 83 L645 416.5 C645 622.664 609.682 750 552.5 750 C495.318 750 460 746.182 460 740 C460 733.818 466.682 730 477.5 730 L495 730 C525 730 545 710 545 680 L545 435 C545 283.545 526.809 135.165 458.625 91.25 C421.75 67.5 378.5 54 334 54 C260 54 210 120 210 220 L210 485 C210 648.818 174.682 750 117.5 750 C60.3182 750 25 746.182 25 740 C25 733.818 31.6818 730 42.5 730 L60 730 C90 730 110 710 110 680 L110 220 C110 82 184 -10 294 -10 C347.5 -10 399.5 5.5 443.5 32.625 C523.185 81.7489 545 117.318 545 72.5 C545 27.6818 554.545 0 570 0 C585.455 0 621.275 6.69987 663.625 18.25 C704.68 29.4468 730 39.8182 730 46 L730 46 Z " />
<glyph glyph-name="Udieresis" unicode="&#xdc;" horiz-adv-x="760" d="M453 865 C486 865 508 887 508 920 C508 953 486 975 453 975 C420 975 398 953 398 920 C398 887 420 865 453 865 L453 865 Z M303 865 C336 865 358 887 358 920 C358 953 336 975 303 975 C270 975 248 953 248 920 C248 887 270 865 303 865 L303 865 Z M730 46 C730 52.1818 723.318 54.0909 712.5 51 L695 46 C665 38 645 53 645 83 L645 416.5 C645 622.664 609.682 750 552.5 750 C495.318 750 460 746.182 460 740 C460 733.818 466.682 730 477.5 730 L495 730 C525 730 545 710 545 680 L545 435 C545 283.545 526.809 135.165 458.625 91.25 C421.75 67.5 378.5 54 334 54 C260 54 210 120 210 220 L210 485 C210 648.818 174.682 750 117.5 750 C60.3182 750 25 746.182 25 740 C25 733.818 31.6818 730 42.5 730 L60 730 C90 730 110 710 110 680 L110 220 C110 82 184 -10 294 -10 C347.5 -10 399.5 5.5 443.5 32.625 C523.185 81.7489 545 117.318 545 72.5 C545 27.6818 554.545 0 570 0 C585.455 0 621.275 6.69987 663.625 18.25 C704.68 29.4468 730 39.8182 730 46 L730 46 Z " />
<glyph glyph-name="Yacute" unicode="&#xdd;" horiz-adv-x="764" d="M469 872 C512.891 909.091 558.752 946.933 586.25 974.125 C597.5 985.25 604 993 604 996 C604 1019 585 1038 562 1038 C559 1038 551.75 1031.25 541.25 1019.5 C515.289 990.448 479.236 942.745 444 897 C408.764 851.255 389.1 820.9 392.5 817.5 C395.9 814.1 425.109 834.909 469 872 L469 872 Z M149 750 C62.4545 750 9 746.182 9 740 C9 733.818 11.8636 730 16.5 730 L24 730 C40.5 730 57.75 724.5 73.5 714.875 C103.48 696.554 157.145 607.609 227 498.5 C296.855 389.391 340 277.709 340 206 L340 90 C340 48 312 20 270 20 L252.5 20 C241.682 20 235 16.1818 235 10 C235 3.81818 294.182 0 390 0 C485.818 0 545 3.81818 545 10 C545 16.1818 538.318 20 527.5 20 L510 20 C468 20 440 48 440 90 L440 207.5 C440 280.136 476.518 392.062 536.125 500.375 C595.644 608.528 641.687 696.636 669.875 714.875 C684.75 724.5 701.5 730 718 730 L738 730 C750.364 730 758 733.818 758 740 C758 746.182 708.555 750 628.5 750 C548.445 750 499 746.182 499 740 C499 733.818 510.455 730 529 730 L559 730 C592 730 603 708 587 675 L508.5 515.5 C459.973 416.9 392.051 416.926 330.5 515.5 C268.949 614.074 212.052 690.956 220.75 714.875 C224.25 724.5 234.5 730 251 730 L270 730 C281.745 730 289 733.818 289 740 C289 746.182 235.545 750 149 750 L149 750 Z " />
<glyph glyph-name="agrave" unicode="&#xe0;" horiz-adv-x="514" d="M516.5 105.5 C511.864 107.664 508.792 89.1646 489.875 70.5 C480.5 61.25 468.5 56 455 56 C422 56 400 74 400 102 L400 355 C400 462 344 510 259 510 C143 510 65 414 65 360 C65 324 85 300 114 300 C141 300 159 325 159 343 C159 361 139 385 139 403 C139 432 175 484 229 484 C281 484 316 454 316 386 L316 325.5 C316 288.1 220.706 259.191 99.25 183.375 C59 158.25 46 131 46 89 C46 30 91 -9 159 -9 C179.5 -9 202.75 -2.5 229 12.375 C290.025 46.9557 316.987 49.1777 351 20.125 C369 4.75 393 -4 421 -4 C446.5 -4 469.625 6.625 487.75 25.25 C524.632 63.1492 521.136 103.336 516.5 105.5 L516.5 105.5 Z M56 747 C56 739 82 715 120 683 L191 623 C234.891 585.909 264.1 565.1 267.5 568.5 C270.9 571.9 251.236 602.255 216 648 L159 722 C129 762 106 789 98 789 C75 789 56 770 56 747 L56 747 Z M316 175 C316 131.109 296.576 77.6368 252.875 53 C234.25 42.5 218 38 204 38 C160 38 131 63 131 100 C131 140.5 140 165.75 167.625 186.625 C246.63 246.326 316 218.891 316 175 L316 175 Z " />
<glyph glyph-name="aacute" unicode="&#xe1;" horiz-adv-x="514" d="M338 622 C381.891 659.091 427.752 696.933 455.25 724.125 C466.5 735.25 473 743 473 746 C473 769 454 788 431 788 C428 788 420.75 781.25 410.25 769.5 C384.289 740.448 348.236 692.745 313 647 C277.764 601.255 258.1 570.9 261.5 567.5 C264.9 564.1 294.109 584.909 338 622 L338 622 Z M516.5 105.5 C511.864 107.664 508.792 89.1646 489.875 70.5 C480.5 61.25 468.5 56 455 56 C422 56 400 74 400 102 L400 355 C400 462 344 510 259 510 C143 510 65 414 65 360 C65 324 85 300 114 300 C141 300 159 325 159 343 C159 361 139 385 139 403 C139 432 175 484 229 484 C281 484 316 454 316 386 L316 325.5 C316 288.1 220.706 259.191 99.25 183.375 C59 158.25 46 131 46 89 C46 30 91 -9 159 -9 C179.5 -9 202.75 -2.5 229 12.375 C290.025 46.9557 316.987 49.1777 351 20.125 C369 4.75 393 -4 421 -4 C446.5 -4 469.625 6.625 487.75 25.25 C524.632 63.1492 521.136 103.336 516.5 105.5 L516.5 105.5 Z M316 175 C316 131.109 296.576 77.6368 252.875 53 C234.25 42.5 218 38 204 38 C160 38 131 63 131 100 C131 140.5 140 165.75 167.625 186.625 C246.63 246.326 316 218.891 316 175 L316 175 Z " />
<glyph glyph-name="acircumflex" unicode="&#xe2;" horiz-adv-x="514" d="M516.5 105.5 C511.864 107.664 508.792 89.1646 489.875 70.5 C480.5 61.25 468.5 56 455 56 C422 56 400 74 400 102 L400 355 C400 462 344 510 259 510 C143 510 65 414 65 360 C65 324 85 300 114 300 C141 300 159 325 159 343 C159 361 139 385 139 403 C139 432 175 484 229 484 C281 484 316 454 316 386 L316 325.5 C316 288.1 220.706 259.191 99.25 183.375 C59 158.25 46 131 46 89 C46 30 91 -9 159 -9 C179.5 -9 202.75 -2.5 229 12.375 C290.025 46.9557 316.987 49.1777 351 20.125 C369 4.75 393 -4 421 -4 C446.5 -4 469.625 6.625 487.75 25.25 C524.632 63.1492 521.136 103.336 516.5 105.5 L516.5 105.5 Z M276.5 774.375 C271 780.75 265 786 260 786 C255 786 249 780.75 243.5 774.375 C234.293 763.703 206.709 719.918 169 661.5 C131.291 603.082 110.291 565.091 114 562 C117.709 558.909 146.727 583.536 190 626.5 C233.273 669.464 286.727 669.464 330 626.5 C373.273 583.536 402.291 558.909 406 562 C409.709 565.091 388.709 603.082 351 661.5 C313.291 719.918 285.707 763.703 276.5 774.375 L276.5 774.375 Z M316 175 C316 131.109 296.576 77.6368 252.875 53 C234.25 42.5 218 38 204 38 C160 38 131 63 131 100 C131 140.5 140 165.75 167.625 186.625 C246.63 246.326 316 218.891 316 175 L316 175 Z " />
<glyph glyph-name="atilde" unicode="&#xe3;" horiz-adv-x="514" d="M130.125 663.5 C137.25 674 147.5 680 160 680 C212 680 281 615 333 615 C357.5 615 377.75 627 391.875 648 C422.847 694.047 411.136 735 406.5 735 C401.864 735 403.457 713.755 386.5 691.5 C378.5 681 367 675 353 675 C301 675 232 740 180 740 C157 740 138 728 124.75 707 C95.2463 660.239 106.864 620 111.5 620 C116.136 620 114.54 640.532 130.125 663.5 L130.125 663.5 Z M516.5 105.5 C511.864 107.664 508.792 89.1646 489.875 70.5 C480.5 61.25 468.5 56 455 56 C422 56 400 74 400 102 L400 355 C400 462 344 510 259 510 C143 510 65 414 65 360 C65 324 85 300 114 300 C141 300 159 325 159 343 C159 361 139 385 139 403 C139 432 175 484 229 484 C281 484 316 454 316 386 L316 325.5 C316 288.1 220.706 259.191 99.25 183.375 C59 158.25 46 131 46 89 C46 30 91 -9 159 -9 C179.5 -9 202.75 -2.5 229 12.375 C290.025 46.9557 316.987 49.1777 351 20.125 C369 4.75 393 -4 421 -4 C446.5 -4 469.625 6.625 487.75 25.25 C524.632 63.1492 521.136 103.336 516.5 105.5 L516.5 105.5 Z M316 175 C316 131.109 296.576 77.6368 252.875 53 C234.25 42.5 218 38 204 38 C160 38 131 63 131 100 C131 140.5 140 165.75 167.625 186.625 C246.63 246.326 316 218.891 316 175 L316 175 Z " />
<glyph glyph-name="adieresis" unicode="&#xe4;" horiz-adv-x="514" d="M334 615 C367 615 389 637 389 670 C389 703 367 725 334 725 C301 725 279 703 279 670 C279 637 301 615 334 615 L334 615 Z M184 615 C217 615 239 637 239 670 C239 703 217 725 184 725 C151 725 129 703 129 670 C129 637 151 615 184 615 L184 615 Z M516.5 105.5 C511.864 107.664 508.792 89.1646 489.875 70.5 C480.5 61.25 468.5 56 455 56 C422 56 400 74 400 102 L400 355 C400 462 344 510 259 510 C143 510 65 414 65 360 C65 324 85 300 114 300 C141 300 159 325 159 343 C159 361 139 385 139 403 C139 432 175 484 229 484 C281 484 316 454 316 386 L316 325.5 C316 288.1 220.706 259.191 99.25 183.375 C59 158.25 46 131 46 89 C46 30 91 -9 159 -9 C179.5 -9 202.75 -2.5 229 12.375 C290.025 46.9557 316.987 49.1777 351 20.125 C369 4.75 393 -4 421 -4 C446.5 -4 469.625 6.625 487.75 25.25 C524.632 63.1492 521.136 103.336 516.5 105.5 L516.5 105.5 Z M316 175 C316 131.109 296.576 77.6368 252.875 53 C234.25 42.5 218 38 204 38 C160 38 131 63 131 100 C131 140.5 140 165.75 167.625 186.625 C246.63 246.326 316 218.891 316 175 L316 175 Z " />
<glyph glyph-name="aring" unicode="&#xe5;" horiz-adv-x="514" d="M187 655 C187 700 216 730 259 730 C303 730 332 700 332 655 C332 615 298 580 259 580 C220 580 187 615 187 655 L187 655 Z M162 655 C162 604 207 560 259 560 C312 560 357 604 357 655 C357 712 318 750 259 750 C201 750 162 712 162 655 L162 655 Z M516.5 105.5 C511.864 107.664 508.792 89.1646 489.875 70.5 C480.5 61.25 468.5 56 455 56 C422 56 400 74 400 102 L400 355 C400 462 344 510 259 510 C143 510 65 414 65 360 C65 324 85 300 114 300 C141 300 159 325 159 343 C159 361 139 385 139 403 C139 432 175 484 229 484 C281 484 316 454 316 386 L316 325.5 C316 288.1 220.706 259.191 99.25 183.375 C59 158.25 46 131 46 89 C46 30 91 -9 159 -9 C179.5 -9 202.75 -2.5 229 12.375 C290.025 46.9557 316.987 49.1777 351 20.125 C369 4.75 393 -4 421 -4 C446.5 -4 469.625 6.625 487.75 25.25 C524.632 63.1492 521.136 103.336 516.5 105.5 L516.5 105.5 Z M316 175 C316 131.109 296.576 77.6368 252.875 53 C234.25 42.5 218 38 204 38 C160 38 131 63 131 100 C131 140.5 140 165.75 167.625 186.625 C246.63 246.326 316 218.891 316 175 L316 175 Z " />
<glyph glyph-name="egrave" unicode="&#xe8;" horiz-adv-x="540" d="M97 746 C97 738 123 714 161 682 L232 622 C275.891 584.909 305.1 564.1 308.5 567.5 C311.9 570.9 292.236 601.255 257 647 L200 721 C170 761 147 788 139 788 C116 788 97 769 97 746 L97 746 Z M325 340 C439.364 340 511.189 415.071 437.375 470.75 C401.25 498 354.5 510 301 510 C147 510 45 432 45 231 C45 86 138 -10 278 -10 C328.5 -10 375.75 4.25 414.25 29.25 C483.379 74.1391 495.9 133.573 492.5 134.5 C489.1 135.427 472.326 95.6047 420.25 70.75 C387.25 55 345 46 298 46 C200 46 135 134 135 266 C135 279.5 135.375 292.5 136.25 304.875 C137.793 326.693 210.636 340 325 340 L325 340 Z M278.5 362 C195.973 360.764 145.491 415.451 200.25 460.375 C226 481.5 258.5 491 296 491 C322 491 345.625 482 365.375 461.625 C411.831 413.698 361.027 363.236 278.5 362 L278.5 362 Z " />
<glyph glyph-name="eacute" unicode="&#xe9;" horiz-adv-x="540" d="M380 622 C423.891 659.091 469.752 696.933 497.25 724.125 C508.5 735.25 515 743 515 746 C515 769 496 788 473 788 C470 788 462.75 781.25 452.25 769.5 C426.289 740.448 390.236 692.745 355 647 C319.764 601.255 300.1 570.9 303.5 567.5 C306.9 564.1 336.109 584.909 380 622 L380 622 Z M325 340 C439.364 340 511.189 415.071 437.375 470.75 C401.25 498 354.5 510 301 510 C147 510 45 432 45 231 C45 86 138 -10 278 -10 C328.5 -10 375.75 4.25 414.25 29.25 C483.379 74.1391 495.9 133.573 492.5 134.5 C489.1 135.427 472.326 95.6047 420.25 70.75 C387.25 55 345 46 298 46 C200 46 135 134 135 266 C135 279.5 135.375 292.5 136.25 304.875 C137.793 326.693 210.636 340 325 340 L325 340 Z M278.5 362 C195.973 360.764 145.491 415.451 200.25 460.375 C226 481.5 258.5 491 296 491 C322 491 345.625 482 365.375 461.625 C411.831 413.698 361.027 363.236 278.5 362 L278.5 362 Z " />
<glyph glyph-name="ecircumflex" unicode="&#xea;" horiz-adv-x="540" d="M317.5 773.375 C312 779.75 306 785 301 785 C296 785 290 779.75 284.5 773.375 C275.293 762.703 247.709 718.918 210 660.5 C172.291 602.082 151.291 564.091 155 561 C158.709 557.909 187.727 582.536 231 625.5 C274.273 668.464 327.727 668.464 371 625.5 C414.273 582.536 443.291 557.909 447 561 C450.709 564.091 429.709 602.082 392 660.5 C354.291 718.918 326.707 762.703 317.5 773.375 L317.5 773.375 Z M325 340 C439.364 340 511.189 415.071 437.375 470.75 C401.25 498 354.5 510 301 510 C147 510 45 432 45 231 C45 86 138 -10 278 -10 C328.5 -10 375.75 4.25 414.25 29.25 C483.379 74.1391 495.9 133.573 492.5 134.5 C489.1 135.427 472.326 95.6047 420.25 70.75 C387.25 55 345 46 298 46 C200 46 135 134 135 266 C135 279.5 135.375 292.5 136.25 304.875 C137.793 326.693 210.636 340 325 340 L325 340 Z M278.5 362 C195.973 360.764 145.491 415.451 200.25 460.375 C226 481.5 258.5 491 296 491 C322 491 345.625 482 365.375 461.625 C411.831 413.698 361.027 363.236 278.5 362 L278.5 362 Z " />
<glyph glyph-name="edieresis" unicode="&#xeb;" horiz-adv-x="540" d="M376 615 C409 615 431 637 431 670 C431 703 409 725 376 725 C343 725 321 703 321 670 C321 637 343 615 376 615 L376 615 Z M226 615 C259 615 281 637 281 670 C281 703 259 725 226 725 C193 725 171 703 171 670 C171 637 193 615 226 615 L226 615 Z M325 340 C439.364 340 511.189 415.071 437.375 470.75 C401.25 498 354.5 510 301 510 C147 510 45 432 45 231 C45 86 138 -10 278 -10 C328.5 -10 375.75 4.25 414.25 29.25 C483.379 74.1391 495.9 133.573 492.5 134.5 C489.1 135.427 472.326 95.6047 420.25 70.75 C387.25 55 345 46 298 46 C200 46 135 134 135 266 C135 279.5 135.375 292.5 136.25 304.875 C137.793 326.693 210.636 340 325 340 L325 340 Z M278.5 362 C195.973 360.764 145.491 415.451 200.25 460.375 C226 481.5 258.5 491 296 491 C322 491 345.625 482 365.375 461.625 C411.831 413.698 361.027 363.236 278.5 362 L278.5 362 Z " />
<glyph glyph-name="igrave" unicode="&#xec;" horiz-adv-x="320" d="M-36 746 C-36 738 -10 714 28 682 L99 622 C142.891 584.909 171.909 564.1 175 567.5 C178.091 570.9 158.427 601.255 123.5 647 L67 721 C37 761 14 788 6 788 C-17 788 -36 769 -36 746 L-36 746 Z M85 458.5 C100.455 462.518 115.505 468.091 120.875 464 C123.5 462 125 458.5 125 454 L125 35 C125 26 119 20 110 20 L85 20 C69.5455 20 60 16.1818 60 10 C60 3.81818 101.045 0 167.5 0 C233.955 0 275 3.81818 275 10 C275 16.1818 265.455 20 250 20 L225 20 C216 20 210 26 210 35 L210 267.5 C210 411.227 201.982 500.095 189 500.25 C176.018 500.405 147.441 494.83 114 486.25 C80.5587 477.67 60 468.182 60 462 C60 455.818 69.5455 454.482 85 458.5 L85 458.5 Z " />
<glyph glyph-name="iacute" unicode="&#xed;" horiz-adv-x="320" d="M-36 746 C-36 738 -10 714 28 682 L99 622 C142.891 584.909 171.909 564.1 175 567.5 C178.091 570.9 158.427 601.255 123.5 647 L67 721 C37 761 14 788 6 788 C-17 788 -36 769 -36 746 L-36 746 Z M85 458.5 C100.455 462.518 115.505 468.091 120.875 464 C123.5 462 125 458.5 125 454 L125 35 C125 26 119 20 110 20 L85 20 C69.5455 20 60 16.1818 60 10 C60 3.81818 101.045 0 167.5 0 C233.955 0 275 3.81818 275 10 C275 16.1818 265.455 20 250 20 L225 20 C216 20 210 26 210 35 L210 267.5 C210 411.227 201.982 500.095 189 500.25 C176.018 500.405 147.441 494.83 114 486.25 C80.5587 477.67 60 468.182 60 462 C60 455.818 69.5455 454.482 85 458.5 L85 458.5 Z " />
<glyph glyph-name="icircumflex" unicode="&#xee;" horiz-adv-x="320" d="M184.5 773.375 C179 779.75 173 785 168 785 C163 785 157 779.75 151.5 773.375 C142.293 762.703 114.709 718.918 77 660.5 C39.2909 602.082 18.1 564.091 21.5 561 C24.9 557.909 53.7273 582.536 97 625.5 C140.273 668.464 193.918 668.464 237.5 625.5 C281.082 582.536 310.1 557.909 313.5 561 C316.9 564.091 295.9 602.082 258.5 660.5 C221.1 718.918 193.707 762.703 184.5 773.375 L184.5 773.375 Z M85 458.5 C100.455 462.518 115.505 468.091 120.875 464 C123.5 462 125 458.5 125 454 L125 35 C125 26 119 20 110 20 L85 20 C69.5455 20 60 16.1818 60 10 C60 3.81818 101.045 0 167.5 0 C233.955 0 275 3.81818 275 10 C275 16.1818 265.455 20 250 20 L225 20 C216 20 210 26 210 35 L210 267.5 C210 411.227 201.982 500.095 189 500.25 C176.018 500.405 147.441 494.83 114 486.25 C80.5587 477.67 60 468.182 60 462 C60 455.818 69.5455 454.482 85 458.5 L85 458.5 Z " />
<glyph glyph-name="idieresis" unicode="&#xef;" horiz-adv-x="320" d="M243 615 C276 615 298 637 298 670 C298 703 276 725 243 725 C210 725 188 703 188 670 C188 637 210 615 243 615 L243 615 Z M93 615 C126 615 148 637 148 670 C148 703 126 725 93 725 C60 725 38 703 38 670 C38 637 60 615 93 615 L93 615 Z M85 458.5 C100.455 462.518 115.505 468.091 120.875 464 C123.5 462 125 458.5 125 454 L125 35 C125 26 119 20 110 20 L85 20 C69.5455 20 60 16.1818 60 10 C60 3.81818 101.045 0 167.5 0 C233.955 0 275 3.81818 275 10 C275 16.1818 265.455 20 250 20 L225 20 C216 20 210 26 210 35 L210 267.5 C210 411.227 201.982 500.095 189 500.25 C176.018 500.405 147.441 494.83 114 486.25 C80.5587 477.67 60 468.182 60 462 C60 455.818 69.5455 454.482 85 458.5 L85 458.5 Z " />
<glyph glyph-name="ntilde" unicode="&#xf1;" horiz-adv-x="569" d="M150.125 663.5 C157.25 674 167.5 680 180 680 C232 680 301 615 353 615 C377.5 615 397.75 627 411.875 648 C442.847 694.047 431.136 735 426.5 735 C421.864 735 423.457 713.755 406.5 691.5 C398.5 681 387 675 373 675 C321 675 252 740 200 740 C177 740 158 728 144.75 707 C115.246 660.239 126.864 620 131.5 620 C136.136 620 134.54 640.532 150.125 663.5 L150.125 663.5 Z M29 460.5 C35.1818 460.191 56.6934 462.505 71.625 446.625 C79.5 438.25 84 426.5 84 413 L84 35 C84 26 78 20 69 20 L44 20 C28.5455 20 19 16.1818 19 10 C19 3.81818 60.0455 0 126.5 0 C192.955 0 234 3.81818 234 10 C234 16.1818 224.455 20 209 20 L184 20 C175 20 169 26 169 35 L169 197.5 C169 297.955 182.145 392.671 223.75 423.875 C244.25 439.25 266 448 286 448 C354 448 389 401 389 330 L389 35 C389 26 383 20 374 20 L349 20 C333.545 20 324 16.1818 324 10 C324 3.81818 365.045 0 431.5 0 C497.955 0 539 3.81818 539 10 C539 16.1818 529.455 20 514 20 L489 20 C480 20 474 26 474 35 L474 330 C474 438 427 510 337 510 C308.5 510 277.25 497.5 247.75 475.625 C188.133 431.418 169 406.955 169 442.5 C169 478.045 160.982 500 148 500 C135.018 500 106.483 494.43 73 486.5 C39.5171 478.57 19 470.709 19 467 C19 463.291 22.8182 460.809 29 460.5 L29 460.5 Z " />
<glyph glyph-name="ograve" unicode="&#xf2;" horiz-adv-x="613" d="M139 250 C139 390 206 484 307 484 C408 484 475 390 475 250 C475 110 408 16 307 16 C206 16 139 110 139 250 L139 250 Z M45 250 C45 94 150 -10 307 -10 C464 -10 568 94 568 250 C568 406 464 510 307 510 C150 510 45 406 45 250 L45 250 Z M103 746 C103 738 129 714 167 682 L238 622 C281.891 584.909 311.1 564.1 314.5 567.5 C317.9 570.9 298.236 601.255 263 647 L206 721 C176 761 153 788 145 788 C122 788 103 769 103 746 L103 746 Z " />
<glyph glyph-name="oacute" unicode="&#xf3;" horiz-adv-x="613" d="M386 622 C429.891 659.091 475.752 696.933 503.25 724.125 C514.5 735.25 521 743 521 746 C521 769 502 788 479 788 C476 788 468.75 781.25 458.25 769.5 C432.289 740.448 396.236 692.745 361 647 C325.764 601.255 306.1 570.9 309.5 567.5 C312.9 564.1 342.109 584.909 386 622 L386 622 Z M139 250 C139 390 206 484 307 484 C408 484 475 390 475 250 C475 110 408 16 307 16 C206 16 139 110 139 250 L139 250 Z M45 250 C45 94 150 -10 307 -10 C464 -10 568 94 568 250 C568 406 464 510 307 510 C150 510 45 406 45 250 L45 250 Z " />
<glyph glyph-name="ocircumflex" unicode="&#xf4;" horiz-adv-x="613" d="M139 250 C139 390 206 484 307 484 C408 484 475 390 475 250 C475 110 408 16 307 16 C206 16 139 110 139 250 L139 250 Z M45 250 C45 94 150 -10 307 -10 C464 -10 568 94 568 250 C568 406 464 510 307 510 C150 510 45 406 45 250 L45 250 Z M323.5 773.375 C318 779.75 312 785 307 785 C302 785 296 779.75 290.5 773.375 C281.293 762.703 253.709 718.918 216 660.5 C178.291 602.082 157.291 564.091 161 561 C164.709 557.909 193.727 582.536 237 625.5 C280.273 668.464 333.727 668.464 377 625.5 C420.273 582.536 449.291 557.909 453 561 C456.709 564.091 435.709 602.082 398 660.5 C360.291 718.918 332.707 762.703 323.5 773.375 L323.5 773.375 Z " />
<glyph glyph-name="otilde" unicode="&#xf5;" horiz-adv-x="613" d="M178.125 663.5 C185.25 674 195.5 680 208 680 C260 680 329 615 381 615 C405.5 615 425.75 627 439.875 648 C470.847 694.047 459.136 735 454.5 735 C449.864 735 451.457 713.755 434.5 691.5 C426.5 681 415 675 401 675 C349 675 280 740 228 740 C205 740 186 728 172.75 707 C143.246 660.239 154.864 620 159.5 620 C164.136 620 162.54 640.532 178.125 663.5 L178.125 663.5 Z M139 250 C139 390 206 484 307 484 C408 484 475 390 475 250 C475 110 408 16 307 16 C206 16 139 110 139 250 L139 250 Z M45 250 C45 94 150 -10 307 -10 C464 -10 568 94 568 250 C568 406 464 510 307 510 C150 510 45 406 45 250 L45 250 Z " />
<glyph glyph-name="odieresis" unicode="&#xf6;" horiz-adv-x="613" d="M382 615 C415 615 437 637 437 670 C437 703 415 725 382 725 C349 725 327 703 327 670 C327 637 349 615 382 615 L382 615 Z M232 615 C265 615 287 637 287 670 C287 703 265 725 232 725 C199 725 177 703 177 670 C177 637 199 615 232 615 L232 615 Z M139 250 C139 390 206 484 307 484 C408 484 475 390 475 250 C475 110 408 16 307 16 C206 16 139 110 139 250 L139 250 Z M45 250 C45 94 150 -10 307 -10 C464 -10 568 94 568 250 C568 406 464 510 307 510 C150 510 45 406 45 250 L45 250 Z " />
<glyph glyph-name="oslash" unicode="&#xf8;" horiz-adv-x="613" d="M92.5 15.5 C115.064 38.0636 154.809 25.3037 207.875 6.875 C237.75 -3.5 271 -9 307 -9 C464 -9 568 95 568 251 C568 287 562.5 320.25 552.125 350.125 C533.696 403.191 520.745 442.745 543 465 C565.255 487.255 574.8 505.2 568 512 C561.2 518.8 543.255 509.255 521 487 C498.745 464.745 459.191 477.696 406.125 496.125 C376.25 506.5 343 512 307 512 C150 512 45 408 45 252 C45 216 50.5 182.75 60.875 152.875 C79.3037 99.8091 85.4161 53.7747 51.875 21.25 C40.2232 9.95127 37.3909 -1.58182 44.5 -9 C51.6091 -16.4182 69.9364 -7.06364 92.5 15.5 L92.5 15.5 Z M299 267 C213.073 181.073 150.319 149.151 143.75 185.5 C140 206.25 138 228.5 138 252 C138 392 205 486 306 486 C334.5 486 360.25 478.625 382.5 464.875 C425.24 438.463 384.927 352.927 299 267 L299 267 Z M468.25 317.5 C472 296.75 474 274.5 474 251 C474 111 407 17 306 17 C277.5 17 251.75 24.5 229.5 38.375 C186.771 65.0204 220.281 144.358 295.375 219.25 C392.057 315.673 461.681 353.849 468.25 317.5 L468.25 317.5 Z " />
<glyph glyph-name="ugrave" unicode="&#xf9;" horiz-adv-x="560" d="M71 746 C71 738 97 714 135 682 L206 622 C249.891 584.909 279.1 564.1 282.5 567.5 C285.9 570.9 266.236 601.255 231 647 L174 721 C144 761 121 788 113 788 C90 788 71 769 71 746 L71 746 Z M532.5 47.5 L520 44 C490 36 470 51 470 81 L470 290.5 C470 420.009 441.364 500 395 500 C348.636 500 320 496.182 320 490 C320 483.818 329.545 480 345 480 L370 480 C379 480 385 474 385 465 L385 304.5 C385 205.282 374.391 107.103 330.75 74.25 C308.5 57.5 283 48 257 48 C202 48 165 92 165 159 L165 329 C165 434.091 136.364 499 90 499 C43.6364 499 15 495.182 15 489 C15 482.818 24.5455 479 40 479 L65 479 C74 479 80 473 80 464 L80 159 C80 57 135 -11 217 -11 C251.5 -11 285.25 1.75 314.5 24.25 C371.975 68.4618 385 95.2818 385 58.5 C385 21.7182 393.018 -1.09545 406 -1.25 C418.982 -1.40455 434.863 0.917239 447.75 4.25 C461.504 7.80704 484.883 13.9911 509 20.375 C531.269 26.2698 545 34.0091 545 40.5 C545 46.9909 540.227 49.6636 532.5 47.5 L532.5 47.5 Z " />
<glyph glyph-name="uacute" unicode="&#xfa;" horiz-adv-x="560" d="M354 622 C397.891 659.091 443.752 696.933 471.25 724.125 C482.5 735.25 489 743 489 746 C489 769 470 788 447 788 C444 788 436.75 781.25 426.25 769.5 C400.289 740.448 364.236 692.745 329 647 C293.764 601.255 274.1 570.9 277.5 567.5 C280.9 564.1 310.109 584.909 354 622 L354 622 Z M532.5 47.5 L520 44 C490 36 470 51 470 81 L470 290.5 C470 420.009 441.364 500 395 500 C348.636 500 320 496.182 320 490 C320 483.818 329.545 480 345 480 L370 480 C379 480 385 474 385 465 L385 304.5 C385 205.282 374.391 107.103 330.75 74.25 C308.5 57.5 283 48 257 48 C202 48 165 92 165 159 L165 329 C165 434.091 136.364 499 90 499 C43.6364 499 15 495.182 15 489 C15 482.818 24.5455 479 40 479 L65 479 C74 479 80 473 80 464 L80 159 C80 57 135 -11 217 -11 C251.5 -11 285.25 1.75 314.5 24.25 C371.975 68.4618 385 95.2818 385 58.5 C385 21.7182 393.018 -1.09545 406 -1.25 C418.982 -1.40455 434.863 0.917239 447.75 4.25 C461.504 7.80704 484.883 13.9911 509 20.375 C531.269 26.2698 545 34.0091 545 40.5 C545 46.9909 540.227 49.6636 532.5 47.5 L532.5 47.5 Z " />
<glyph glyph-name="ucircumflex" unicode="&#xfb;" horiz-adv-x="560" d="M291.5 773.375 C286 779.75 280 785 275 785 C270 785 264 779.75 258.5 773.375 C249.293 762.703 221.709 718.918 184 660.5 C146.291 602.082 125.291 564.091 129 561 C132.709 557.909 161.727 582.536 205 625.5 C248.273 668.464 301.727 668.464 345 625.5 C388.273 582.536 417.291 557.909 421 561 C424.709 564.091 403.709 602.082 366 660.5 C328.291 718.918 300.707 762.703 291.5 773.375 L291.5 773.375 Z M532.5 47.5 L520 44 C490 36 470 51 470 81 L470 290.5 C470 420.009 441.364 500 395 500 C348.636 500 320 496.182 320 490 C320 483.818 329.545 480 345 480 L370 480 C379 480 385 474 385 465 L385 304.5 C385 205.282 374.391 107.103 330.75 74.25 C308.5 57.5 283 48 257 48 C202 48 165 92 165 159 L165 329 C165 434.091 136.364 499 90 499 C43.6364 499 15 495.182 15 489 C15 482.818 24.5455 479 40 479 L65 479 C74 479 80 473 80 464 L80 159 C80 57 135 -11 217 -11 C251.5 -11 285.25 1.75 314.5 24.25 C371.975 68.4618 385 95.2818 385 58.5 C385 21.7182 393.018 -1.09545 406 -1.25 C418.982 -1.40455 434.863 0.917239 447.75 4.25 C461.504 7.80704 484.883 13.9911 509 20.375 C531.269 26.2698 545 34.0091 545 40.5 C545 46.9909 540.227 49.6636 532.5 47.5 L532.5 47.5 Z " />
<glyph glyph-name="udieresis" unicode="&#xfc;" horiz-adv-x="560" d="M350 615 C383 615 405 637 405 670 C405 703 383 725 350 725 C317 725 295 703 295 670 C295 637 317 615 350 615 L350 615 Z M200 615 C233 615 255 637 255 670 C255 703 233 725 200 725 C167 725 145 703 145 670 C145 637 167 615 200 615 L200 615 Z M532.5 47.5 L520 44 C490 36 470 51 470 81 L470 290.5 C470 420.009 441.364 500 395 500 C348.636 500 320 496.182 320 490 C320 483.818 329.545 480 345 480 L370 480 C379 480 385 474 385 465 L385 304.5 C385 205.282 374.391 107.103 330.75 74.25 C308.5 57.5 283 48 257 48 C202 48 165 92 165 159 L165 329 C165 434.091 136.364 499 90 499 C43.6364 499 15 495.182 15 489 C15 482.818 24.5455 479 40 479 L65 479 C74 479 80 473 80 464 L80 159 C80 57 135 -11 217 -11 C251.5 -11 285.25 1.75 314.5 24.25 C371.975 68.4618 385 95.2818 385 58.5 C385 21.7182 393.018 -1.09545 406 -1.25 C418.982 -1.40455 434.863 0.917239 447.75 4.25 C461.504 7.80704 484.883 13.9911 509 20.375 C531.269 26.2698 545 34.0091 545 40.5 C545 46.9909 540.227 49.6636 532.5 47.5 L532.5 47.5 Z " />
<glyph glyph-name="ydieresis" unicode="&#xff;" horiz-adv-x="558" d="M381 615 C414 615 436 637 436 670 C436 703 414 725 381 725 C348 725 326 703 326 670 C326 637 348 615 381 615 L381 615 Z M231 615 C264 615 286 637 286 670 C286 703 264 725 231 725 C198 725 176 703 176 670 C176 637 198 615 231 615 L231 615 Z M465 500 C414.927 500 384 496.182 384 490 C384 483.818 385.718 480 388.5 480 L393 480 C407.5 480 418 474.5 423.5 464.875 C435.731 443.471 404.718 366.391 373.5 271.5 C342.282 176.609 297.609 178.327 256.5 276 C215.391 373.673 178.454 453.043 193.125 469.375 C207.791 485.702 227 483.818 227 490 C227 496.182 185.955 500 119.5 500 C53.0455 500 12 496.182 12 490 C12 483.818 36.2878 484.349 65.375 466.75 C80.25 457.75 92 444 100 425 L189 213 C244.018 81.9455 265.946 -28.7986 247.625 -77.5 C237.75 -103.75 228 -130 218 -156 C209 -179 195 -194 191 -194 C169 -194 164 -165 141 -165 C114 -165 96 -183 96 -210 C96 -240 116 -260 146 -260 C172 -260 218 -223 239 -167 L269 -88.5 C287.545 -39.9727 329.877 74.591 380 211.5 C430.123 348.409 467.489 454.312 493.75 468.875 C521.046 484.012 543.573 483.818 544.5 490 C545.427 496.182 515.073 500 465 500 L465 500 Z " />
<glyph glyph-name="Amacron" unicode="&#x100;" horiz-adv-x="796" d="M421 895 C513.727 895 571 906.264 571 924.5 C571 942.736 513.727 954 421 954 C328.273 954 271 942.736 271 924.5 C271 906.264 328.273 895 421 895 L421 895 Z M305 12.5 C305 20.2273 299.845 25 291.5 25 L278 25 C222 25 194 60 207 114 L233 196.5 C249.073 247.5 306.918 279 384.5 279 C462.082 279 519.545 248.645 535 199.5 L560 120 C576 63 548 25 490 25 L476.5 25 C468.155 25 463 20.2273 463 12.5 C463 4.77273 525.427 0 626.5 0 C727.573 0 790 4.77273 790 12.5 C790 20.2273 787.327 25 783 25 L776 25 C728 25 684 63 664 120 L560.5 445.5 C496.518 646.718 455.091 771 452 771 C448.909 771 447.756 752.288 429.5 740 C398.93 719.424 373.573 719.091 374.5 716 C375.427 712.909 339.437 599.272 279.875 418.5 C247.75 321 215.5 223.5 183 126 C163 66 110 26 50 26 L32.5 26 C21.6818 26 15 21.2273 15 13.5 C15 5.77273 70.3636 0.809091 160 0.5 C249.636 0.190909 305 4.77273 305 12.5 L305 12.5 Z M327 492.5 C363.473 607.791 408.336 607.791 444.5 492.5 C480.664 377.209 458.136 306 385.5 306 C312.864 306 290.527 377.209 327 492.5 L327 492.5 Z " />
<glyph glyph-name="amacron" unicode="&#x101;" horiz-adv-x="514" d="M259 645 C351.727 645 409 656.264 409 674.5 C409 692.736 351.727 704 259 704 C166.273 704 109 692.736 109 674.5 C109 656.264 166.273 645 259 645 L259 645 Z M516.5 105.5 C511.864 107.664 508.792 89.1646 489.875 70.5 C480.5 61.25 468.5 56 455 56 C422 56 400 74 400 102 L400 355 C400 462 344 510 259 510 C143 510 65 414 65 360 C65 324 85 300 114 300 C141 300 159 325 159 343 C159 361 139 385 139 403 C139 432 175 484 229 484 C281 484 316 454 316 386 L316 325.5 C316 288.1 220.706 259.191 99.25 183.375 C59 158.25 46 131 46 89 C46 30 91 -9 159 -9 C179.5 -9 202.75 -2.5 229 12.375 C290.025 46.9557 316.987 49.1777 351 20.125 C369 4.75 393 -4 421 -4 C446.5 -4 469.625 6.625 487.75 25.25 C524.632 63.1492 521.136 103.336 516.5 105.5 L516.5 105.5 Z M316 175 C316 131.109 296.576 77.6368 252.875 53 C234.25 42.5 218 38 204 38 C160 38 131 63 131 100 C131 140.5 140 165.75 167.625 186.625 C246.63 246.326 316 218.891 316 175 L316 175 Z " />
<glyph glyph-name="Abreve" unicode="&#x102;" horiz-adv-x="796" d="M328.875 904.25 C352.25 882.5 384 870 421 870 C458.5 870 490.75 882.25 514.375 903.625 C559.155 944.14 552.564 992.573 547 993.5 C541.436 994.427 535.07 965.392 503.5 947.875 C483 936.5 454.5 930 421 930 C387.5 930 359.25 936.75 338.875 948.5 C306.885 966.948 300.755 996.427 295.5 995.5 C290.245 994.573 284.053 945.956 328.875 904.25 L328.875 904.25 Z M305 12.5 C305 20.2273 299.845 25 291.5 25 L278 25 C222 25 194 60 207 114 L233 196.5 C249.073 247.5 306.918 279 384.5 279 C462.082 279 519.545 248.645 535 199.5 L560 120 C576 63 548 25 490 25 L476.5 25 C468.155 25 463 20.2273 463 12.5 C463 4.77273 525.427 0 626.5 0 C727.573 0 790 4.77273 790 12.5 C790 20.2273 787.327 25 783 25 L776 25 C728 25 684 63 664 120 L560.5 445.5 C496.518 646.718 455.091 771 452 771 C448.909 771 447.756 752.288 429.5 740 C398.93 719.424 373.573 719.091 374.5 716 C375.427 712.909 339.437 599.272 279.875 418.5 C247.75 321 215.5 223.5 183 126 C163 66 110 26 50 26 L32.5 26 C21.6818 26 15 21.2273 15 13.5 C15 5.77273 70.3636 0.809091 160 0.5 C249.636 0.190909 305 4.77273 305 12.5 L305 12.5 Z M327 492.5 C363.473 607.791 408.336 607.791 444.5 492.5 C480.664 377.209 458.136 306 385.5 306 C312.864 306 290.527 377.209 327 492.5 L327 492.5 Z " />
<glyph glyph-name="abreve" unicode="&#x103;" horiz-adv-x="514" d="M166.875 654.25 C190.25 632.5 222 620 259 620 C296.5 620 328.75 632.25 352.375 653.625 C397.155 694.14 390.564 742.573 385 743.5 C379.436 744.427 373.07 715.392 341.5 697.875 C321 686.5 292.5 680 259 680 C225.5 680 197.25 686.75 176.875 698.5 C144.885 716.948 138.755 746.427 133.5 745.5 C128.245 744.573 122.053 695.956 166.875 654.25 L166.875 654.25 Z M516.5 105.5 C511.864 107.664 508.792 89.1646 489.875 70.5 C480.5 61.25 468.5 56 455 56 C422 56 400 74 400 102 L400 355 C400 462 344 510 259 510 C143 510 65 414 65 360 C65 324 85 300 114 300 C141 300 159 325 159 343 C159 361 139 385 139 403 C139 432 175 484 229 484 C281 484 316 454 316 386 L316 325.5 C316 288.1 220.706 259.191 99.25 183.375 C59 158.25 46 131 46 89 C46 30 91 -9 159 -9 C179.5 -9 202.75 -2.5 229 12.375 C290.025 46.9557 316.987 49.1777 351 20.125 C369 4.75 393 -4 421 -4 C446.5 -4 469.625 6.625 487.75 25.25 C524.632 63.1492 521.136 103.336 516.5 105.5 L516.5 105.5 Z M316 175 C316 131.109 296.576 77.6368 252.875 53 C234.25 42.5 218 38 204 38 C160 38 131 63 131 100 C131 140.5 140 165.75 167.625 186.625 C246.63 246.326 316 218.891 316 175 L316 175 Z " />
<glyph glyph-name="Cacute" unicode="&#x106;" horiz-adv-x="740" d="M493 872 C536.891 909.091 582.752 946.933 610.25 974.125 C621.5 985.25 628 993 628 996 C628 1019 609 1038 586 1038 C583 1038 575.75 1031.25 565.25 1019.5 C539.289 990.448 503.236 942.745 468 897 C432.764 851.255 413.1 820.9 416.5 817.5 C419.9 814.1 449.109 834.909 493 872 L493 872 Z M698 112 C698 181.236 693.8 224 687 224 C680.2 224 674.036 218.674 671 210 C667.964 201.326 656.69 158.313 621 110.25 C602.25 85 580.5 64 558 50 C517 27 470 14 414 14 C262 14 161 159 161 376 C161 592 267 736 425 736 C450.5 736 473.25 733.5 493.875 728.875 C529.79 720.821 583.802 693.633 617.5 649.25 C657.296 596.836 668.964 549.674 672 541 C675.036 532.326 681.2 527 688 527 C694.8 527 699 569.191 699 637.5 C699 705.809 695.755 748 690.5 748 C685.245 748 681.286 744.304 679.5 738.5 C678.5 735.25 677.5 732 677 729 C673.5 714.5 664.75 705.75 652.5 703.375 C623.844 697.819 578.658 736.086 526.375 749 C495 756.75 458.5 761 415 761 C197 761 51 607 51 376 C51 145 192 -9 404 -9 C446.5 -9 483.75 -4.75 516.75 3.25 C573.173 16.9282 622.078 56.5658 651.75 49.875 C664.5 47 673.5 37.5 677 22 C677.5 19 678.5 15.25 679.5 11.5 C681.219 5.05294 685.055 0.809091 690 0.5 C694.945 0.190909 698 42.7636 698 112 L698 112 Z M684 133 L684 133 L684 133 L684 133 Z " />
<glyph glyph-name="Ccircumflex" unicode="&#x108;" horiz-adv-x="740" d="M698 112 C698 181.236 693.8 224 687 224 C680.2 224 674.036 218.674 671 210 C667.964 201.326 656.69 158.313 621 110.25 C602.25 85 580.5 64 558 50 C517 27 470 14 414 14 C262 14 161 159 161 376 C161 592 267 736 425 736 C450.5 736 473.25 733.5 493.875 728.875 C529.79 720.821 583.802 693.633 617.5 649.25 C657.296 596.836 668.964 549.674 672 541 C675.036 532.326 681.2 527 688 527 C694.8 527 699 569.191 699 637.5 C699 705.809 695.755 748 690.5 748 C685.245 748 681.286 744.304 679.5 738.5 C678.5 735.25 677.5 732 677 729 C673.5 714.5 664.75 705.75 652.5 703.375 C623.844 697.819 578.658 736.086 526.375 749 C495 756.75 458.5 761 415 761 C197 761 51 607 51 376 C51 145 192 -9 404 -9 C446.5 -9 483.75 -4.75 516.75 3.25 C573.173 16.9282 622.078 56.5658 651.75 49.875 C664.5 47 673.5 37.5 677 22 C677.5 19 678.5 15.25 679.5 11.5 C681.219 5.05294 685.055 0.809091 690 0.5 C694.945 0.190909 698 42.7636 698 112 L698 112 Z M431.5 1024.38 C426 1030.75 420 1036 415 1036 C410 1036 404 1030.75 398.5 1024.38 C389.293 1013.7 361.709 969.918 324 911.5 C286.291 853.082 265.291 815.091 269 812 C272.709 808.909 301.727 833.536 345 876.5 C388.273 919.464 441.727 919.464 485 876.5 C528.273 833.536 557.291 808.909 561 812 C564.709 815.091 543.709 853.082 506 911.5 C468.291 969.918 440.707 1013.7 431.5 1024.38 L431.5 1024.38 Z M684 133 L684 133 L684 133 L684 133 Z " />
<glyph glyph-name="Cdot" unicode="&#x10a;" horiz-adv-x="740" d="M414 865 C447 865 469 887 469 920 C469 953 447 975 414 975 C381 975 359 953 359 920 C359 887 381 865 414 865 L414 865 Z M698 112 C698 181.236 693.8 224 687 224 C680.2 224 674.036 218.674 671 210 C667.964 201.326 656.69 158.313 621 110.25 C602.25 85 580.5 64 558 50 C517 27 470 14 414 14 C262 14 161 159 161 376 C161 592 267 736 425 736 C450.5 736 473.25 733.5 493.875 728.875 C529.79 720.821 583.802 693.633 617.5 649.25 C657.296 596.836 668.964 549.674 672 541 C675.036 532.326 681.2 527 688 527 C694.8 527 699 569.191 699 637.5 C699 705.809 695.755 748 690.5 748 C685.245 748 681.286 744.304 679.5 738.5 C678.5 735.25 677.5 732 677 729 C673.5 714.5 664.75 705.75 652.5 703.375 C623.844 697.819 578.658 736.086 526.375 749 C495 756.75 458.5 761 415 761 C197 761 51 607 51 376 C51 145 192 -9 404 -9 C446.5 -9 483.75 -4.75 516.75 3.25 C573.173 16.9282 622.078 56.5658 651.75 49.875 C664.5 47 673.5 37.5 677 22 C677.5 19 678.5 15.25 679.5 11.5 C681.219 5.05294 685.055 0.809091 690 0.5 C694.945 0.190909 698 42.7636 698 112 L698 112 Z M684 133 L684 133 L684 133 L684 133 Z " />
<glyph glyph-name="cdot" unicode="&#x10b;" horiz-adv-x="503" d="M297 615 C330 615 352 637 352 670 C352 703 330 725 297 725 C264 725 242 703 242 670 C242 637 264 615 297 615 L297 615 Z M467 130.5 C463.291 132.045 448.716 95.2781 401.75 66.875 C375.5 51 344 42 311 42 C204 42 133 134 133 273 C133 404 197 491 292 491 C331 491 369 457 388 405 C397 380 414 363 431 363 C448 363 460.75 367.25 468.125 374.625 C481.572 388.072 460.791 449.28 407.5 481.125 C376.75 499.5 338.5 510 297 510 C146 510 45 400 45 236 C45 88 139 -10 281 -10 C320 -10 358.75 3.75 392.375 27.875 C456.943 74.201 470.709 128.955 467 130.5 L467 130.5 Z " />
<glyph glyph-name="Ccaron" unicode="&#x10c;" horiz-adv-x="740" d="M484 974.5 C440.727 931.536 387.273 931.536 344 974.5 C300.727 1017.46 271.709 1042.09 268 1039 C264.291 1035.91 285.291 997.918 323 939.5 C360.709 881.082 388.293 837.297 397.5 826.625 C403 820.25 409 815 414 815 C419 815 425 820.25 430.5 826.625 C439.707 837.297 467.291 881.082 505 939.5 C542.709 997.918 563.709 1035.91 560 1039 C556.291 1042.09 527.273 1017.46 484 974.5 L484 974.5 Z M698 112 C698 181.236 693.8 224 687 224 C680.2 224 674.036 218.674 671 210 C667.964 201.326 656.69 158.313 621 110.25 C602.25 85 580.5 64 558 50 C517 27 470 14 414 14 C262 14 161 159 161 376 C161 592 267 736 425 736 C450.5 736 473.25 733.5 493.875 728.875 C529.79 720.821 583.802 693.633 617.5 649.25 C657.296 596.836 668.964 549.674 672 541 C675.036 532.326 681.2 527 688 527 C694.8 527 699 569.191 699 637.5 C699 705.809 695.755 748 690.5 748 C685.245 748 681.286 744.304 679.5 738.5 C678.5 735.25 677.5 732 677 729 C673.5 714.5 664.75 705.75 652.5 703.375 C623.844 697.819 578.658 736.086 526.375 749 C495 756.75 458.5 761 415 761 C197 761 51 607 51 376 C51 145 192 -9 404 -9 C446.5 -9 483.75 -4.75 516.75 3.25 C573.173 16.9282 622.078 56.5658 651.75 49.875 C664.5 47 673.5 37.5 677 22 C677.5 19 678.5 15.25 679.5 11.5 C681.219 5.05294 685.055 0.809091 690 0.5 C694.945 0.190909 698 42.7636 698 112 L698 112 Z M684 133 L684 133 L684 133 L684 133 Z " />
<glyph glyph-name="ccaron" unicode="&#x10d;" horiz-adv-x="503" d="M367 724.5 C323.727 681.536 270.273 681.536 227 724.5 C183.727 767.464 154.709 792.091 151 789 C147.291 785.909 168.291 747.918 206 689.5 C243.709 631.082 271.293 587.297 280.5 576.625 C286 570.25 292 565 297 565 C302 565 308 570.25 313.5 576.625 C322.707 587.297 350.291 631.082 388 689.5 C425.709 747.918 446.709 785.909 443 789 C439.291 792.091 410.273 767.464 367 724.5 L367 724.5 Z M467 130.5 C463.291 132.045 448.716 95.2781 401.75 66.875 C375.5 51 344 42 311 42 C204 42 133 134 133 273 C133 404 197 491 292 491 C331 491 369 457 388 405 C397 380 414 363 431 363 C448 363 460.75 367.25 468.125 374.625 C481.572 388.072 460.791 449.28 407.5 481.125 C376.75 499.5 338.5 510 297 510 C146 510 45 400 45 236 C45 88 139 -10 281 -10 C320 -10 358.75 3.75 392.375 27.875 C456.943 74.201 470.709 128.955 467 130.5 L467 130.5 Z " />
<glyph glyph-name="Dcaron" unicode="&#x10e;" horiz-adv-x="853" d="M486.5 974.5 C442.918 931.536 389.273 931.536 346 974.5 C302.727 1017.46 273.9 1042.09 270.5 1039 C267.1 1035.91 288.291 997.918 326 939.5 C363.709 881.082 391.293 837.297 400.5 826.625 C406 820.25 412 815 417 815 C422 815 428 820.25 433.5 826.625 C442.707 837.297 470.1 881.082 507.5 939.5 C544.9 997.918 565.9 1035.91 562.5 1039 C559.1 1042.09 530.082 1017.46 486.5 974.5 L486.5 974.5 Z M295 20 C250 20 245 44 245 80 L245 405 C245 605.909 252.636 730 265 730 L285 730 C551 730 688 588 688 375 C688 141 531 20 295 20 L295 20 Z M77.5 730 L95 730 C125 730 145 710 145 680 L145 70 C145 40 125 20 95 20 L77.5 20 C66.6818 20 60 16.1818 60 10 C60 3.81818 110.591 0 192.5 0 L325 0 C609 0 798 128 798 375 C798 600 651 750 365 750 L212.5 750 C118.227 750 60 746.182 60 740 C60 733.818 66.6818 730 77.5 730 L77.5 730 Z " />
<glyph glyph-name="dcaron" unicode="&#x10f;" horiz-adv-x="600" d="M587 758 C570 758 560 695 556 650 L551 594.5 C547.909 560.191 548.864 538.427 553.5 537.5 C558.136 536.573 568.445 556.045 580.5 588.5 L600 641 C615 680 625 722 625 746 C625 755 610 758 587 758 L587 758 Z M360 709 L370 709 C397 708 415 689 415 662 L415 569.5 C415 512.318 392.735 490.894 352.75 501 C330 506.75 305.5 510 280 510 C125 510 45 406 45 251 C45 97 130 -5 257 -5 C288 -5 319 2 346.5 14.375 C394.854 36.1345 415 53.4 415 33 C415 12.6 423.018 -0.0954545 436 -0.25 C448.982 -0.404545 464.863 1.91724 477.75 5.25 C491.504 8.80704 516.782 15.6012 544 22.875 C569.372 29.6553 585 37.8182 585 44 C585 50.1818 578.318 52.0909 567.5 49 L550 44 C520 36 500 51 500 81 L500 415.5 C500 622.282 491.982 750 479 750 C466.018 750 449.547 748.262 436 744.875 C428.5 743 421 741 414 739 L381.5 730.5 C361.409 725.245 349.191 719.518 349.5 715.5 C349.809 711.482 353.818 709 360 709 L360 709 Z M414 236.5 C414 150.264 397.786 70.7418 357.375 49 C336 37.5 313 31 291 31 C195 31 131 129 131 275 C131 402 185 486 289 486 C316.5 486 343.25 473.25 365.375 453.125 C407.069 415.2 414 322.736 414 236.5 L414 236.5 Z " />
<glyph glyph-name="Emacron" unicode="&#x112;" horiz-adv-x="652" d="M350 895 C442.727 895 500 906.264 500 924.5 C500 942.736 442.727 954 350 954 C257.273 954 200 942.736 200 924.5 C200 906.264 257.273 895 350 895 L350 895 Z M297.5 750 C138.318 750 40 746.182 40 740 C40 733.818 46.6818 730 57.5 730 L75 730 C117 730 145 702 145 660 L145 90 C145 48 117 20 75 20 L57.5 20 C46.6818 20 40 16.1818 40 10 C40 3.81818 143.091 0 310 0 C476.909 0 580.382 1.90909 581 5 C581.618 8.09091 586.481 35.9816 594 78 C601.519 120.018 602.755 146 597.5 146 C592.245 146 587.664 142.182 585.5 136 L582 126 C556 63 497 21 434 21 L325 21 C253 21 245 45 245 80 L245 232.5 C245 326.773 268.864 385 307.5 385 L370 385 C418 385 457 353 467 305 L472.5 277.5 C475.9 260.5 481.245 250 486.5 250 C491.755 250 495 306.127 495 397 C495 487.873 491.755 544 486.5 544 C481.245 544 475.9 533.5 472.5 516.5 L467 489 C457 441 418 409 370 409 L307.5 409 C268.864 409 245 470.091 245 569 C245 667.909 280.891 729 339 729 L433 729 C481 729 524 697 540 649 L549 621.5 C554.564 604.5 561.245 594 566.5 594 C571.755 594 571.018 619.865 564.625 661.75 C558.104 704.476 555 734.627 555 740.5 C555 746.373 456.682 750 297.5 750 L297.5 750 Z " />
<glyph glyph-name="emacron" unicode="&#x113;" horiz-adv-x="540" d="M301 645 C393.727 645 451 656.264 451 674.5 C451 692.736 393.727 704 301 704 C208.273 704 151 692.736 151 674.5 C151 656.264 208.273 645 301 645 L301 645 Z M325 340 C439.364 340 511.189 415.071 437.375 470.75 C401.25 498 354.5 510 301 510 C147 510 45 432 45 231 C45 86 138 -10 278 -10 C328.5 -10 375.75 4.25 414.25 29.25 C483.379 74.1391 495.9 133.573 492.5 134.5 C489.1 135.427 472.326 95.6047 420.25 70.75 C387.25 55 345 46 298 46 C200 46 135 134 135 266 C135 279.5 135.375 292.5 136.25 304.875 C137.793 326.693 210.636 340 325 340 L325 340 Z M278.5 362 C195.973 360.764 145.491 415.451 200.25 460.375 C226 481.5 258.5 491 296 491 C322 491 345.625 482 365.375 461.625 C411.831 413.698 361.027 363.236 278.5 362 L278.5 362 Z " />
<glyph glyph-name="Ebreve" unicode="&#x114;" horiz-adv-x="652" d="M257.875 904.25 C281.25 882.5 313 870 350 870 C387.5 870 419.75 882.25 443.375 903.625 C488.155 944.14 481.564 992.573 476 993.5 C470.436 994.427 464.07 965.392 432.5 947.875 C412 936.5 383.5 930 350 930 C316.5 930 288.25 936.75 267.875 948.5 C235.885 966.948 229.755 996.427 224.5 995.5 C219.245 994.573 213.053 945.956 257.875 904.25 L257.875 904.25 Z M297.5 750 C138.318 750 40 746.182 40 740 C40 733.818 46.6818 730 57.5 730 L75 730 C117 730 145 702 145 660 L145 90 C145 48 117 20 75 20 L57.5 20 C46.6818 20 40 16.1818 40 10 C40 3.81818 143.091 0 310 0 C476.909 0 580.382 1.90909 581 5 C581.618 8.09091 586.481 35.9816 594 78 C601.519 120.018 602.755 146 597.5 146 C592.245 146 587.664 142.182 585.5 136 L582 126 C556 63 497 21 434 21 L325 21 C253 21 245 45 245 80 L245 232.5 C245 326.773 268.864 385 307.5 385 L370 385 C418 385 457 353 467 305 L472.5 277.5 C475.9 260.5 481.245 250 486.5 250 C491.755 250 495 306.127 495 397 C495 487.873 491.755 544 486.5 544 C481.245 544 475.9 533.5 472.5 516.5 L467 489 C457 441 418 409 370 409 L307.5 409 C268.864 409 245 470.091 245 569 C245 667.909 280.891 729 339 729 L433 729 C481 729 524 697 540 649 L549 621.5 C554.564 604.5 561.245 594 566.5 594 C571.755 594 571.018 619.865 564.625 661.75 C558.104 704.476 555 734.627 555 740.5 C555 746.373 456.682 750 297.5 750 L297.5 750 Z " />
<glyph glyph-name="ebreve" unicode="&#x115;" horiz-adv-x="540" d="M208.875 654.25 C232.25 632.5 264 620 301 620 C338.5 620 370.75 632.25 394.375 653.625 C439.155 694.14 432.564 742.573 427 743.5 C421.436 744.427 415.07 715.392 383.5 697.875 C363 686.5 334.5 680 301 680 C267.5 680 239.25 686.75 218.875 698.5 C186.885 716.948 180.755 746.427 175.5 745.5 C170.245 744.573 164.053 695.956 208.875 654.25 L208.875 654.25 Z M325 340 C439.364 340 511.189 415.071 437.375 470.75 C401.25 498 354.5 510 301 510 C147 510 45 432 45 231 C45 86 138 -10 278 -10 C328.5 -10 375.75 4.25 414.25 29.25 C483.379 74.1391 495.9 133.573 492.5 134.5 C489.1 135.427 472.326 95.6047 420.25 70.75 C387.25 55 345 46 298 46 C200 46 135 134 135 266 C135 279.5 135.375 292.5 136.25 304.875 C137.793 326.693 210.636 340 325 340 L325 340 Z M278.5 362 C195.973 360.764 145.491 415.451 200.25 460.375 C226 481.5 258.5 491 296 491 C322 491 345.625 482 365.375 461.625 C411.831 413.698 361.027 363.236 278.5 362 L278.5 362 Z " />
<glyph glyph-name="Edot" unicode="&#x116;" horiz-adv-x="652" d="M350 865 C383 865 405 887 405 920 C405 953 383 975 350 975 C317 975 295 953 295 920 C295 887 317 865 350 865 L350 865 Z M297.5 750 C138.318 750 40 746.182 40 740 C40 733.818 46.6818 730 57.5 730 L75 730 C117 730 145 702 145 660 L145 90 C145 48 117 20 75 20 L57.5 20 C46.6818 20 40 16.1818 40 10 C40 3.81818 143.091 0 310 0 C476.909 0 580.382 1.90909 581 5 C581.618 8.09091 586.481 35.9816 594 78 C601.519 120.018 602.755 146 597.5 146 C592.245 146 587.664 142.182 585.5 136 L582 126 C556 63 497 21 434 21 L325 21 C253 21 245 45 245 80 L245 232.5 C245 326.773 268.864 385 307.5 385 L370 385 C418 385 457 353 467 305 L472.5 277.5 C475.9 260.5 481.245 250 486.5 250 C491.755 250 495 306.127 495 397 C495 487.873 491.755 544 486.5 544 C481.245 544 475.9 533.5 472.5 516.5 L467 489 C457 441 418 409 370 409 L307.5 409 C268.864 409 245 470.091 245 569 C245 667.909 280.891 729 339 729 L433 729 C481 729 524 697 540 649 L549 621.5 C554.564 604.5 561.245 594 566.5 594 C571.755 594 571.018 619.865 564.625 661.75 C558.104 704.476 555 734.627 555 740.5 C555 746.373 456.682 750 297.5 750 L297.5 750 Z " />
<glyph glyph-name="edot" unicode="&#x117;" horiz-adv-x="540" d="M301 615 C334 615 356 637 356 670 C356 703 334 725 301 725 C268 725 246 703 246 670 C246 637 268 615 301 615 L301 615 Z M325 340 C439.364 340 511.189 415.071 437.375 470.75 C401.25 498 354.5 510 301 510 C147 510 45 432 45 231 C45 86 138 -10 278 -10 C328.5 -10 375.75 4.25 414.25 29.25 C483.379 74.1391 495.9 133.573 492.5 134.5 C489.1 135.427 472.326 95.6047 420.25 70.75 C387.25 55 345 46 298 46 C200 46 135 134 135 266 C135 279.5 135.375 292.5 136.25 304.875 C137.793 326.693 210.636 340 325 340 L325 340 Z M278.5 362 C195.973 360.764 145.491 415.451 200.25 460.375 C226 481.5 258.5 491 296 491 C322 491 345.625 482 365.375 461.625 C411.831 413.698 361.027 363.236 278.5 362 L278.5 362 Z " />
<glyph glyph-name="Ecaron" unicode="&#x11a;" horiz-adv-x="652" d="M420 974.5 C376.727 931.536 323.273 931.536 280 974.5 C236.727 1017.46 207.709 1042.09 204 1039 C200.291 1035.91 221.291 997.918 259 939.5 C296.709 881.082 324.293 837.297 333.5 826.625 C339 820.25 345 815 350 815 C355 815 361 820.25 366.5 826.625 C375.707 837.297 403.291 881.082 441 939.5 C478.709 997.918 499.709 1035.91 496 1039 C492.291 1042.09 463.273 1017.46 420 974.5 L420 974.5 Z M297.5 750 C138.318 750 40 746.182 40 740 C40 733.818 46.6818 730 57.5 730 L75 730 C117 730 145 702 145 660 L145 90 C145 48 117 20 75 20 L57.5 20 C46.6818 20 40 16.1818 40 10 C40 3.81818 143.091 0 310 0 C476.909 0 580.382 1.90909 581 5 C581.618 8.09091 586.481 35.9816 594 78 C601.519 120.018 602.755 146 597.5 146 C592.245 146 587.664 142.182 585.5 136 L582 126 C556 63 497 21 434 21 L325 21 C253 21 245 45 245 80 L245 232.5 C245 326.773 268.864 385 307.5 385 L370 385 C418 385 457 353 467 305 L472.5 277.5 C475.9 260.5 481.245 250 486.5 250 C491.755 250 495 306.127 495 397 C495 487.873 491.755 544 486.5 544 C481.245 544 475.9 533.5 472.5 516.5 L467 489 C457 441 418 409 370 409 L307.5 409 C268.864 409 245 470.091 245 569 C245 667.909 280.891 729 339 729 L433 729 C481 729 524 697 540 649 L549 621.5 C554.564 604.5 561.245 594 566.5 594 C571.755 594 571.018 619.865 564.625 661.75 C558.104 704.476 555 734.627 555 740.5 C555 746.373 456.682 750 297.5 750 L297.5 750 Z " />
<glyph glyph-name="ecaron" unicode="&#x11b;" horiz-adv-x="540" d="M371 724.5 C327.727 681.536 274.273 681.536 231 724.5 C187.727 767.464 158.709 792.091 155 789 C151.291 785.909 172.291 747.918 210 689.5 C247.709 631.082 275.293 587.297 284.5 576.625 C290 570.25 296 565 301 565 C306 565 312 570.25 317.5 576.625 C326.707 587.297 354.291 631.082 392 689.5 C429.709 747.918 450.709 785.909 447 789 C443.291 792.091 414.273 767.464 371 724.5 L371 724.5 Z M325 340 C439.364 340 511.189 415.071 437.375 470.75 C401.25 498 354.5 510 301 510 C147 510 45 432 45 231 C45 86 138 -10 278 -10 C328.5 -10 375.75 4.25 414.25 29.25 C483.379 74.1391 495.9 133.573 492.5 134.5 C489.1 135.427 472.326 95.6047 420.25 70.75 C387.25 55 345 46 298 46 C200 46 135 134 135 266 C135 279.5 135.375 292.5 136.25 304.875 C137.793 326.693 210.636 340 325 340 L325 340 Z M278.5 362 C195.973 360.764 145.491 415.451 200.25 460.375 C226 481.5 258.5 491 296 491 C322 491 345.625 482 365.375 461.625 C411.831 413.698 361.027 363.236 278.5 362 L278.5 362 Z " />
<glyph glyph-name="Gcircumflex" unicode="&#x11c;" horiz-adv-x="817" d="M678.5 737.5 C677.5 734.25 676.5 731 676 728 C672.5 713.5 663.75 704.75 651.5 702.375 C622.844 696.819 577.658 735.086 525.375 748 C494 755.75 457.5 760 414 760 C196 760 50 606 50 375 C50 144 195 -10 412 -10 C487 -10 549.75 -3 604.875 9.125 C698.667 29.755 750.664 61.8636 748.5 66.5 C746.336 71.1364 732.311 67.9512 711.125 59.75 C689.04 51.201 675 79.2636 675 131.5 L675 216 C675 267 707 301 756 301 L763 301 C767.327 301 770 305.773 770 313.5 C770 321.227 714.636 326 625 326 C535.364 326 480 321.227 480 313.5 C480 305.773 482.673 301 487 301 L494 301 C543 301 575 267 575 216 C576 216 576 119 576 111 C574 51 516 12 429 12 C268 12 161 158 161 377 C161 593 267 737 425 737 C450.5 737 473.25 734.5 493.875 729.875 C529.79 721.821 583.802 694.633 617.5 650.25 C657.296 597.836 668.964 550.674 672 542 C675.036 533.326 681.2 528 688 528 C694.8 528 699 570.191 699 638.5 C699 706.809 695.564 748.618 690 748 C684.436 747.382 680.286 743.304 678.5 737.5 L678.5 737.5 Z M431.5 1025.38 C426 1031.75 420 1037 415 1037 C410 1037 404 1031.75 398.5 1025.38 C389.293 1014.7 361.709 970.918 324 912.5 C286.291 854.082 265.291 816.091 269 813 C272.709 809.909 301.727 834.536 345 877.5 C388.273 920.464 441.727 920.464 485 877.5 C528.273 834.536 557.291 809.909 561 813 C564.709 816.091 543.709 854.082 506 912.5 C468.291 970.918 440.707 1014.7 431.5 1025.38 L431.5 1025.38 Z " />
<glyph glyph-name="Gbreve" unicode="&#x11e;" horiz-adv-x="817" d="M321.875 904.25 C345.25 882.5 377 870 414 870 C451.5 870 483.75 882.25 507.375 903.625 C552.155 944.14 545.564 992.573 540 993.5 C534.436 994.427 528.07 965.392 496.5 947.875 C476 936.5 447.5 930 414 930 C380.5 930 352.25 936.75 331.875 948.5 C299.885 966.948 293.755 996.427 288.5 995.5 C283.245 994.573 277.053 945.956 321.875 904.25 L321.875 904.25 Z M678.5 737.5 C677.5 734.25 676.5 731 676 728 C672.5 713.5 663.75 704.75 651.5 702.375 C622.844 696.819 577.658 735.086 525.375 748 C494 755.75 457.5 760 414 760 C196 760 50 606 50 375 C50 144 195 -10 412 -10 C487 -10 549.75 -3 604.875 9.125 C698.667 29.755 750.664 61.8636 748.5 66.5 C746.336 71.1364 732.311 67.9512 711.125 59.75 C689.04 51.201 675 79.2636 675 131.5 L675 216 C675 267 707 301 756 301 L763 301 C767.327 301 770 305.773 770 313.5 C770 321.227 714.636 326 625 326 C535.364 326 480 321.227 480 313.5 C480 305.773 482.673 301 487 301 L494 301 C543 301 575 267 575 216 C576 216 576 119 576 111 C574 51 516 12 429 12 C268 12 161 158 161 377 C161 593 267 737 425 737 C450.5 737 473.25 734.5 493.875 729.875 C529.79 721.821 583.802 694.633 617.5 650.25 C657.296 597.836 668.964 550.674 672 542 C675.036 533.326 681.2 528 688 528 C694.8 528 699 570.191 699 638.5 C699 706.809 695.564 748.618 690 748 C684.436 747.382 680.286 743.304 678.5 737.5 L678.5 737.5 Z " />
<glyph glyph-name="gbreve" unicode="&#x11f;" horiz-adv-x="520" d="M162.875 654.25 C186.25 632.5 218 620 255 620 C292.5 620 324.75 632.25 348.375 653.625 C393.155 694.14 386.564 742.573 381 743.5 C375.436 744.427 369.07 715.392 337.5 697.875 C317 686.5 288.5 680 255 680 C221.5 680 193.25 686.75 172.875 698.5 C140.885 716.948 134.755 746.427 129.5 745.5 C124.245 744.573 118.053 695.956 162.875 654.25 L162.875 654.25 Z M541 479 C541 510 519 530 486 530 C469 530 451.25 523.25 434.75 511.25 C401.44 487.025 372.349 482.49 332.375 497.125 C309.5 505.5 283.5 510 255 510 C147 510 75 446 75 350 C75 313.5 85 281.5 103.25 255.75 C137.658 207.202 137.569 200.724 88.75 164.25 C67 148 55 127.5 55 104 C55 78.5 63 56.5 77.375 39.375 C105.272 6.14088 103.495 -0.703559 69.625 -36.125 C53.25 -53.25 44 -73.5 44 -95 C44 -176 132 -230 264 -230 C396 -230 484 -165 484 -68 C484 23 432 84 298 84 L180 84 C134 84 103 102 103 130 C103 165 163 188 254 188 C362 188 434 253 434 350 C434 369.5 431 387.75 425.375 404.375 C415.301 434.15 406.126 458.712 419.25 469.375 C425.25 474.25 431 477 436 477 C457 477 484 442 505 442 C527 442 541 457 541 479 L541 479 Z M255 208 C198 208 160 265 160 350 C160 434 198 490 255 490 C312 490 350 434 350 350 C350 265 312 208 255 208 L255 208 Z M168 0.5 C173.564 0.190909 198.764 0 234 0 L291 0 C380 0 414 -35 414 -88 C414 -162 356 -211 270 -211 C178 -211 116 -157 116 -75 C116 -58.5 120.25 -43.25 127.75 -30.25 C141.402 -6.58578 162.436 0.809091 168 0.5 L168 0.5 Z " />
<glyph glyph-name="Gdot" unicode="&#x120;" horiz-adv-x="817" d="M414 865 C447 865 469 887 469 920 C469 953 447 975 414 975 C381 975 359 953 359 920 C359 887 381 865 414 865 L414 865 Z M678.5 737.5 C677.5 734.25 676.5 731 676 728 C672.5 713.5 663.75 704.75 651.5 702.375 C622.844 696.819 577.658 735.086 525.375 748 C494 755.75 457.5 760 414 760 C196 760 50 606 50 375 C50 144 195 -10 412 -10 C487 -10 549.75 -3 604.875 9.125 C698.667 29.755 750.664 61.8636 748.5 66.5 C746.336 71.1364 732.311 67.9512 711.125 59.75 C689.04 51.201 675 79.2636 675 131.5 L675 216 C675 267 707 301 756 301 L763 301 C767.327 301 770 305.773 770 313.5 C770 321.227 714.636 326 625 326 C535.364 326 480 321.227 480 313.5 C480 305.773 482.673 301 487 301 L494 301 C543 301 575 267 575 216 C576 216 576 119 576 111 C574 51 516 12 429 12 C268 12 161 158 161 377 C161 593 267 737 425 737 C450.5 737 473.25 734.5 493.875 729.875 C529.79 721.821 583.802 694.633 617.5 650.25 C657.296 597.836 668.964 550.674 672 542 C675.036 533.326 681.2 528 688 528 C694.8 528 699 570.191 699 638.5 C699 706.809 695.564 748.618 690 748 C684.436 747.382 680.286 743.304 678.5 737.5 L678.5 737.5 Z " />
<glyph glyph-name="gdot" unicode="&#x121;" horiz-adv-x="520" d="M255 615 C288 615 310 637 310 670 C310 703 288 725 255 725 C222 725 200 703 200 670 C200 637 222 615 255 615 L255 615 Z M541 479 C541 510 519 530 486 530 C469 530 451.25 523.25 434.75 511.25 C401.44 487.025 372.349 482.49 332.375 497.125 C309.5 505.5 283.5 510 255 510 C147 510 75 446 75 350 C75 313.5 85 281.5 103.25 255.75 C137.658 207.202 137.569 200.724 88.75 164.25 C67 148 55 127.5 55 104 C55 78.5 63 56.5 77.375 39.375 C105.272 6.14088 103.495 -0.703559 69.625 -36.125 C53.25 -53.25 44 -73.5 44 -95 C44 -176 132 -230 264 -230 C396 -230 484 -165 484 -68 C484 23 432 84 298 84 L180 84 C134 84 103 102 103 130 C103 165 163 188 254 188 C362 188 434 253 434 350 C434 369.5 431 387.75 425.375 404.375 C415.301 434.15 406.126 458.712 419.25 469.375 C425.25 474.25 431 477 436 477 C457 477 484 442 505 442 C527 442 541 457 541 479 L541 479 Z M255 208 C198 208 160 265 160 350 C160 434 198 490 255 490 C312 490 350 434 350 350 C350 265 312 208 255 208 L255 208 Z M168 0.5 C173.564 0.190909 198.764 0 234 0 L291 0 C380 0 414 -35 414 -88 C414 -162 356 -211 270 -211 C178 -211 116 -157 116 -75 C116 -58.5 120.25 -43.25 127.75 -30.25 C141.402 -6.58578 162.436 0.809091 168 0.5 L168 0.5 Z " />
<glyph glyph-name="Hcircumflex" unicode="&#x124;" horiz-adv-x="861" d="M465.5 1023.38 C460 1029.75 454 1035 449 1035 C444 1035 438 1029.75 432.5 1023.38 C423.293 1012.7 395.709 968.918 358 910.5 C320.291 852.082 299.1 814.091 302.5 811 C305.9 807.909 334.727 832.536 378 875.5 C421.273 918.464 474.918 918.464 518.5 875.5 C562.082 832.536 591.1 807.909 594.5 811 C597.9 814.091 576.9 852.082 539.5 910.5 C502.1 968.918 474.707 1012.7 465.5 1023.38 L465.5 1023.38 Z M783.5 20 L766 20 C736 20 716 40 716 70 L716 680 C716 710 736 730 766 730 L783.5 730 C794.318 730 801 733.818 801 740 C801 746.182 749.455 750 666 750 C582.545 750 531 746.182 531 740 C531 733.818 537.682 730 548.5 730 L566 730 C596 730 616 710 616 680 L616 544.5 C616 460.736 552.045 409 448.5 409 C344.955 409 281 460.736 281 544.5 L281 680 C281 710 301 730 331 730 L348.5 730 C359.318 730 366 733.818 366 740 C366 746.182 314.455 750 231 750 C147.545 750 96 746.182 96 740 C96 733.818 102.682 730 113.5 730 L131 730 C161 730 181 710 181 680 L181 70 C181 40 161 20 131 20 L113.5 20 C102.682 20 96 16.1818 96 10 C96 3.81818 147.545 0 231 0 C314.455 0 366 3.81818 366 10 C366 16.1818 359.318 20 348.5 20 L331 20 C301 20 281 40 281 70 L281 226.5 C281 323.245 344.955 383 448.5 383 C552.045 383 616 323.245 616 226.5 L616 70 C616 40 596 20 566 20 L548.5 20 C537.682 20 531 16.1818 531 10 C531 3.81818 582.545 0 666 0 C749.455 0 801 3.81818 801 10 C801 16.1818 794.318 20 783.5 20 L783.5 20 Z " />
<glyph glyph-name="Itilde" unicode="&#x128;" horiz-adv-x="385" d="M61.125 913.5 C68.25 924 78.5 930 91 930 C143 930 212 865 264 865 C288.5 865 308.75 877 322.875 898 C353.847 944.047 342.136 985 337.5 985 C332.864 985 334.457 963.755 317.5 941.5 C309.5 931 298 925 284 925 C232 925 163 990 111 990 C88 990 69 978 55.75 957 C26.2463 910.239 37.8636 870 42.5 870 C47.1364 870 45.5397 890.532 61.125 913.5 L61.125 913.5 Z M307.5 20 L290 20 C260 20 240 40 240 70 L240 680 C240 710 260 730 290 730 L307.5 730 C318.318 730 325 733.818 325 740 C325 746.182 273.455 750 190 750 C106.545 750 55 746.182 55 740 C55 733.818 61.6818 730 72.5 730 L90 730 C120 730 140 710 140 680 L140 70 C140 40 120 20 90 20 L72.5 20 C61.6818 20 55 16.1818 55 10 C55 3.81818 106.545 0 190 0 C273.455 0 325 3.81818 325 10 C325 16.1818 318.318 20 307.5 20 L307.5 20 Z " />
<glyph glyph-name="itilde" unicode="&#x129;" horiz-adv-x="320" d="M38.625 663.5 C46 674 56.5 680 69 680 C121 680 190 615 242 615 C266.5 615 286.75 627 300.875 648 C331.847 694.047 320.136 735 315.5 735 C310.864 735 312.457 713.755 295.5 691.5 C287.5 681 276 675 262 675 C210 675 140 740 88 740 C65 740 46 728 32.75 707 C3.24629 660.239 14.8636 620 19.5 620 C24.1364 620 22.6265 640.723 38.625 663.5 L38.625 663.5 Z M85 458.5 C100.455 462.518 115.505 468.091 120.875 464 C123.5 462 125 458.5 125 454 L125 35 C125 26 119 20 110 20 L85 20 C69.5455 20 60 16.1818 60 10 C60 3.81818 101.045 0 167.5 0 C233.955 0 275 3.81818 275 10 C275 16.1818 265.455 20 250 20 L225 20 C216 20 210 26 210 35 L210 267.5 C210 411.227 201.982 500.095 189 500.25 C176.018 500.405 147.441 494.83 114 486.25 C80.5587 477.67 60 468.182 60 462 C60 455.818 69.5455 454.482 85 458.5 L85 458.5 Z " />
<glyph glyph-name="Imacron" unicode="&#x12a;" horiz-adv-x="385" d="M190 895 C282.727 895 340 906.264 340 924.5 C340 942.736 282.727 954 190 954 C97.2727 954 40 942.736 40 924.5 C40 906.264 97.2727 895 190 895 L190 895 Z M307.5 20 L290 20 C260 20 240 40 240 70 L240 680 C240 710 260 730 290 730 L307.5 730 C318.318 730 325 733.818 325 740 C325 746.182 273.455 750 190 750 C106.545 750 55 746.182 55 740 C55 733.818 61.6818 730 72.5 730 L90 730 C120 730 140 710 140 680 L140 70 C140 40 120 20 90 20 L72.5 20 C61.6818 20 55 16.1818 55 10 C55 3.81818 106.545 0 190 0 C273.455 0 325 3.81818 325 10 C325 16.1818 318.318 20 307.5 20 L307.5 20 Z " />
<glyph glyph-name="imacron" unicode="&#x12b;" horiz-adv-x="320" d="M168 645 C260.727 645 318 656.264 318 674.5 C318 692.736 260.727 704 168 704 C75.2727 704 18 692.736 18 674.5 C18 656.264 75.2727 645 168 645 L168 645 Z M85 458.5 C100.455 462.518 115.505 468.091 120.875 464 C123.5 462 125 458.5 125 454 L125 35 C125 26 119 20 110 20 L85 20 C69.5455 20 60 16.1818 60 10 C60 3.81818 101.045 0 167.5 0 C233.955 0 275 3.81818 275 10 C275 16.1818 265.455 20 250 20 L225 20 C216 20 210 26 210 35 L210 267.5 C210 411.227 201.982 500.095 189 500.25 C176.018 500.405 147.441 494.83 114 486.25 C80.5587 477.67 60 468.182 60 462 C60 455.818 69.5455 454.482 85 458.5 L85 458.5 Z " />
<glyph glyph-name="Ibreve" unicode="&#x12c;" horiz-adv-x="385" d="M97.875 904.25 C121.25 882.5 153 870 190 870 C227.5 870 259.75 882.25 283.375 903.625 C328.155 944.14 321.564 992.573 316 993.5 C310.436 994.427 304.07 965.392 272.5 947.875 C252 936.5 223.5 930 190 930 C156.5 930 128.25 936.75 107.875 948.5 C75.8849 966.948 69.7545 996.427 64.5 995.5 C59.2455 994.573 53.0534 945.956 97.875 904.25 L97.875 904.25 Z M307.5 20 L290 20 C260 20 240 40 240 70 L240 680 C240 710 260 730 290 730 L307.5 730 C318.318 730 325 733.818 325 740 C325 746.182 273.455 750 190 750 C106.545 750 55 746.182 55 740 C55 733.818 61.6818 730 72.5 730 L90 730 C120 730 140 710 140 680 L140 70 C140 40 120 20 90 20 L72.5 20 C61.6818 20 55 16.1818 55 10 C55 3.81818 106.545 0 190 0 C273.455 0 325 3.81818 325 10 C325 16.1818 318.318 20 307.5 20 L307.5 20 Z " />
<glyph glyph-name="ibreve" unicode="&#x12d;" horiz-adv-x="320" d="M75.375 654.25 C99 632.5 131 620 168 620 C205 620 237 632.25 260.5 653.625 C305.149 694.236 298.564 742.573 293 743.5 C287.436 744.427 281.109 715.452 249.625 697.875 C229.25 686.5 201 680 168 680 C134.5 680 106.25 686.75 85.875 698.5 C53.8849 716.948 47.5636 746.427 42 745.5 C36.4364 744.573 30.2362 695.806 75.375 654.25 L75.375 654.25 Z M85 458.5 C100.455 462.518 115.505 468.091 120.875 464 C123.5 462 125 458.5 125 454 L125 35 C125 26 119 20 110 20 L85 20 C69.5455 20 60 16.1818 60 10 C60 3.81818 101.045 0 167.5 0 C233.955 0 275 3.81818 275 10 C275 16.1818 265.455 20 250 20 L225 20 C216 20 210 26 210 35 L210 267.5 C210 411.227 201.982 500.095 189 500.25 C176.018 500.405 147.441 494.83 114 486.25 C80.5587 477.67 60 468.182 60 462 C60 455.818 69.5455 454.482 85 458.5 L85 458.5 Z " />
<glyph glyph-name="Idot" unicode="&#x130;" horiz-adv-x="385" d="M190 865 C223 865 245 887 245 920 C245 953 223 975 190 975 C157 975 135 953 135 920 C135 887 157 865 190 865 L190 865 Z M307.5 20 L290 20 C260 20 240 40 240 70 L240 680 C240 710 260 730 290 730 L307.5 730 C318.318 730 325 733.818 325 740 C325 746.182 273.455 750 190 750 C106.545 750 55 746.182 55 740 C55 733.818 61.6818 730 72.5 730 L90 730 C120 730 140 710 140 680 L140 70 C140 40 120 20 90 20 L72.5 20 C61.6818 20 55 16.1818 55 10 C55 3.81818 106.545 0 190 0 C273.455 0 325 3.81818 325 10 C325 16.1818 318.318 20 307.5 20 L307.5 20 Z " />
<glyph glyph-name="dotlessi" unicode="&#x131;" horiz-adv-x="320" d="M85 458.5 C100.455 462.518 115.505 468.091 120.875 464 C123.5 462 125 458.5 125 454 L125 35 C125 26 119 20 110 20 L85 20 C69.5455 20 60 16.1818 60 10 C60 3.81818 101.045 0 167.5 0 C233.955 0 275 3.81818 275 10 C275 16.1818 265.455 20 250 20 L225 20 C216 20 210 26 210 35 L210 267.5 C210 411.227 201.982 500.095 189 500.25 C176.018 500.405 147.441 494.83 114 486.25 C80.5587 477.67 60 468.182 60 462 C60 455.818 69.5455 454.482 85 458.5 L85 458.5 Z " />
<glyph glyph-name="Jcircumflex" unicode="&#x134;" horiz-adv-x="385" d="M206.5 1023.38 C201 1029.75 195 1035 190 1035 C185 1035 179 1029.75 173.5 1023.38 C164.293 1012.7 136.709 968.918 99 910.5 C61.2909 852.082 40.2909 814.091 44 811 C47.7091 807.909 76.7273 832.536 120 875.5 C163.273 918.464 216.727 918.464 260 875.5 C303.273 832.536 332.291 807.909 336 811 C339.709 814.091 318.709 852.082 281 910.5 C243.291 968.918 215.707 1012.7 206.5 1023.38 L206.5 1023.38 Z M190 750 C106.545 750 55 746.182 55 740 C55 733.818 61.6818 730 72.5 730 L90 730 C120 730 140 710 140 680 L140 -72 C140 -167 82 -185 40 -185 C-9 -185 15 -105 -35 -105 C-62 -105 -80 -123 -80 -150 C-80 -192 -42 -220 15 -220 C110 -220 240 -166 240 116 L240 680 C240 710 260 730 290 730 L307.5 730 C318.318 730 325 733.818 325 740 C325 746.182 273.455 750 190 750 L190 750 Z " />
<glyph glyph-name="Lacute" unicode="&#x139;" horiz-adv-x="650" d="M269 872 C312.891 909.091 358.752 946.933 386.25 974.125 C397.5 985.25 404 993 404 996 C404 1019 385 1038 362 1038 C359 1038 351.75 1031.25 341.25 1019.5 C315.289 990.448 279.236 942.745 244 897 C208.764 851.255 189.1 820.9 192.5 817.5 C195.9 814.1 225.109 834.909 269 872 L269 872 Z M190 750 C106.545 750 55 746.182 55 740 C55 733.818 61.6818 730 72.5 730 L90 730 C120 730 140 710 140 680 L140 70 C140 40 120 20 90 20 L72.5 20 C61.6818 20 55 16.1818 55 10 C55 3.81818 154.273 0 315 0 C475.727 0 575.382 1.52727 576 4 C576.618 6.47273 581.512 33.5944 589 75 C596.488 116.406 597.755 142 592.5 142 C587.245 142 582.664 138.182 580.5 132 L577 122 C551 59 492 17 429 17 L320 17 C248 17 240 42 240 80 L240 680 C240 710 260 730 290 730 L307.5 730 C318.318 730 325 733.818 325 740 C325 746.182 273.455 750 190 750 L190 750 Z " />
<glyph glyph-name="Lcaron" unicode="&#x13d;" horiz-adv-x="650" d="M427 808 C410 808 400 745 396 700 L391 644.5 C387.909 610.191 388.864 588.427 393.5 587.5 C398.136 586.573 408.445 606.045 420.5 638.5 L440 691 C455 730 465 772 465 796 C465 805 450 808 427 808 L427 808 Z M190 750 C106.545 750 55 746.182 55 740 C55 733.818 61.6818 730 72.5 730 L90 730 C120 730 140 710 140 680 L140 70 C140 40 120 20 90 20 L72.5 20 C61.6818 20 55 16.1818 55 10 C55 3.81818 154.273 0 315 0 C475.727 0 575.382 1.52727 576 4 C576.618 6.47273 581.512 33.5944 589 75 C596.488 116.406 597.755 142 592.5 142 C587.245 142 582.664 138.182 580.5 132 L577 122 C551 59 492 17 429 17 L320 17 C248 17 240 42 240 80 L240 680 C240 710 260 730 290 730 L307.5 730 C318.318 730 325 733.818 325 740 C325 746.182 273.455 750 190 750 L190 750 Z " />
<glyph glyph-name="lcaron" unicode="&#x13e;" horiz-adv-x="264" d="M256 758 C239 758 229 695 225 650 L220 594.5 C216.909 560.191 217.864 538.427 222.5 537.5 C227.136 536.573 237.445 556.045 249.5 588.5 L269 641 C284 680 294 722 294 746 C294 755 279 758 256 758 L256 758 Z M30 711 L40 711 C66 710 84 692 85 666 C85 464 84 142 84 36 C84 27 78 21 69 21 L44 21 C28.5455 21 19 17.1818 19 11 C19 4.81818 60.0455 1 126.5 1 C192.955 1 234 4.81818 234 11 C234 17.1818 224.455 21 209 21 L184 21 C175 21 169 27 169 36 L169 393.5 C169 614.5 160.982 751 148 751 C135.018 751 106.668 745.46 73.5 737.5 C40.3324 729.54 20 721.518 20 717.5 C20 713.482 23.8182 711 30 711 L30 711 Z " />
<glyph glyph-name="Nacute" unicode="&#x143;" horiz-adv-x="786" d="M368 872 C411.891 909.091 457.752 946.933 485.25 974.125 C496.5 985.25 503 993 503 996 C503 1019 484 1038 461 1038 C458 1038 450.5 1031.25 439.875 1019.5 C413.842 990.711 378.427 942.745 343.5 897 C308.573 851.255 288.909 820.9 292 817.5 C295.091 814.1 324.109 834.909 368 872 L368 872 Z M153 0 C214.818 0 253 3.81818 253 10 C253 16.1818 246.318 20 235.5 20 L218 20 C203 20 190.5 25 181.75 33.75 C164.803 50.6972 167.427 173.473 166.5 341 C165.573 508.527 250.283 495.09 388.625 306 C527.128 116.689 616.818 0 623 0 C629.182 0 634.336 130.964 636.5 343 C638.664 555.036 639.521 703.219 656.125 717.25 C665 724.75 677 729 691 729 L708.5 729 C719.318 729 726 732.818 726 739 C726 745.182 687.818 749 626 749 C564.182 749 526 745.182 526 739 C526 732.818 532.682 729 543.5 729 L561 729 C576 729 588.5 724 597.25 715.25 C614.197 698.303 611.191 581.827 611.5 424.5 C611.809 267.173 530.636 280.526 399.625 460 C268.775 639.253 150.964 750 91 750 C31.0364 750 -6 746.182 -6 740 C-6 733.818 0.681818 730 11.5 730 L29 730 C44 730 60 725 75 716.25 C103.825 699.435 119.582 673.891 127 664 C134.418 654.109 138.809 537.655 138.5 359 C138.191 180.345 141.197 50.6972 124.25 33.75 C115.5 25 103 20 88 20 L70.5 20 C59.6818 20 53 16.1818 53 10 C53 3.81818 91.1818 0 153 0 L153 0 Z " />
<glyph glyph-name="Ncaron" unicode="&#x147;" horiz-adv-x="786" d="M459.5 974.5 C415.918 931.536 362.273 931.536 319 974.5 C275.727 1017.46 246.9 1042.09 243.5 1039 C240.1 1035.91 261.291 997.918 299 939.5 C336.709 881.082 364.293 837.297 373.5 826.625 C379 820.25 385 815 390 815 C395 815 401 820.25 406.5 826.625 C415.707 837.297 443.1 881.082 480.5 939.5 C517.9 997.918 538.9 1035.91 535.5 1039 C532.1 1042.09 503.082 1017.46 459.5 974.5 L459.5 974.5 Z M153 0 C214.818 0 253 3.81818 253 10 C253 16.1818 246.318 20 235.5 20 L218 20 C203 20 190.5 25 181.75 33.75 C164.803 50.6972 167.427 173.473 166.5 341 C165.573 508.527 250.283 495.09 388.625 306 C527.128 116.689 616.818 0 623 0 C629.182 0 634.336 130.964 636.5 343 C638.664 555.036 639.521 703.219 656.125 717.25 C665 724.75 677 729 691 729 L708.5 729 C719.318 729 726 732.818 726 739 C726 745.182 687.818 749 626 749 C564.182 749 526 745.182 526 739 C526 732.818 532.682 729 543.5 729 L561 729 C576 729 588.5 724 597.25 715.25 C614.197 698.303 611.191 581.827 611.5 424.5 C611.809 267.173 530.636 280.526 399.625 460 C268.775 639.253 150.964 750 91 750 C31.0364 750 -6 746.182 -6 740 C-6 733.818 0.681818 730 11.5 730 L29 730 C44 730 60 725 75 716.25 C103.825 699.435 119.582 673.891 127 664 C134.418 654.109 138.809 537.655 138.5 359 C138.191 180.345 141.197 50.6972 124.25 33.75 C115.5 25 103 20 88 20 L70.5 20 C59.6818 20 53 16.1818 53 10 C53 3.81818 91.1818 0 153 0 L153 0 Z " />
<glyph glyph-name="ncaron" unicode="&#x148;" horiz-adv-x="569" d="M349 724.5 C305.727 681.536 252.273 681.536 209 724.5 C165.727 767.464 136.709 792.091 133 789 C129.291 785.909 150.291 747.918 188 689.5 C225.709 631.082 253.293 587.297 262.5 576.625 C268 570.25 274 565 279 565 C284 565 290 570.25 295.5 576.625 C304.707 587.297 332.291 631.082 370 689.5 C407.709 747.918 428.709 785.909 425 789 C421.291 792.091 392.273 767.464 349 724.5 L349 724.5 Z M29 460.5 C35.1818 460.191 56.6934 462.505 71.625 446.625 C79.5 438.25 84 426.5 84 413 L84 35 C84 26 78 20 69 20 L44 20 C28.5455 20 19 16.1818 19 10 C19 3.81818 60.0455 0 126.5 0 C192.955 0 234 3.81818 234 10 C234 16.1818 224.455 20 209 20 L184 20 C175 20 169 26 169 35 L169 197.5 C169 297.955 182.145 392.671 223.75 423.875 C244.25 439.25 266 448 286 448 C354 448 389 401 389 330 L389 35 C389 26 383 20 374 20 L349 20 C333.545 20 324 16.1818 324 10 C324 3.81818 365.045 0 431.5 0 C497.955 0 539 3.81818 539 10 C539 16.1818 529.455 20 514 20 L489 20 C480 20 474 26 474 35 L474 330 C474 438 427 510 337 510 C308.5 510 277.25 497.5 247.75 475.625 C188.133 431.418 169 406.955 169 442.5 C169 478.045 160.982 500 148 500 C135.018 500 106.483 494.43 73 486.5 C39.5171 478.57 19 470.709 19 467 C19 463.291 22.8182 460.809 29 460.5 L29 460.5 Z " />
<glyph glyph-name="Omacron" unicode="&#x14c;" horiz-adv-x="851" d="M418 895 C510.727 895 568 906.264 568 924.5 C568 942.736 510.727 954 418 954 C325.273 954 268 942.736 268 924.5 C268 906.264 325.273 895 418 895 L418 895 Z M159 375 C159 591 261 735 414 735 C578 735 687 591 687 375 C687 159 577 15 413 15 C261 15 159 159 159 375 L159 375 Z M50 375 C50 144 193 -10 408 -10 C641 -10 796 144 796 375 C796 606 645 760 418 760 C197 760 50 606 50 375 L50 375 Z " />
<glyph glyph-name="omacron" unicode="&#x14d;" horiz-adv-x="613" d="M307 645 C399.727 645 457 656.264 457 674.5 C457 692.736 399.727 704 307 704 C214.273 704 157 692.736 157 674.5 C157 656.264 214.273 645 307 645 L307 645 Z M139 250 C139 390 206 484 307 484 C408 484 475 390 475 250 C475 110 408 16 307 16 C206 16 139 110 139 250 L139 250 Z M45 250 C45 94 150 -10 307 -10 C464 -10 568 94 568 250 C568 406 464 510 307 510 C150 510 45 406 45 250 L45 250 Z " />
<glyph glyph-name="Obreve" unicode="&#x14e;" horiz-adv-x="851" d="M325.875 904.25 C349.25 882.5 381 870 418 870 C455.5 870 487.75 882.25 511.375 903.625 C556.155 944.14 549.564 992.573 544 993.5 C538.436 994.427 532.07 965.392 500.5 947.875 C480 936.5 451.5 930 418 930 C384.5 930 356.25 936.75 335.875 948.5 C303.885 966.948 297.755 996.427 292.5 995.5 C287.245 994.573 281.053 945.956 325.875 904.25 L325.875 904.25 Z M159 375 C159 591 261 735 414 735 C578 735 687 591 687 375 C687 159 577 15 413 15 C261 15 159 159 159 375 L159 375 Z M50 375 C50 144 193 -10 408 -10 C641 -10 796 144 796 375 C796 606 645 760 418 760 C197 760 50 606 50 375 L50 375 Z " />
<glyph glyph-name="obreve" unicode="&#x14f;" horiz-adv-x="613" d="M214.875 654.25 C238.25 632.5 270 620 307 620 C344.5 620 376.75 632.25 400.375 653.625 C445.155 694.14 438.564 742.573 433 743.5 C427.436 744.427 421.07 715.392 389.5 697.875 C369 686.5 340.5 680 307 680 C273.5 680 245.25 686.75 224.875 698.5 C192.885 716.948 186.755 746.427 181.5 745.5 C176.245 744.573 170.053 695.956 214.875 654.25 L214.875 654.25 Z M139 250 C139 390 206 484 307 484 C408 484 475 390 475 250 C475 110 408 16 307 16 C206 16 139 110 139 250 L139 250 Z M45 250 C45 94 150 -10 307 -10 C464 -10 568 94 568 250 C568 406 464 510 307 510 C150 510 45 406 45 250 L45 250 Z " />
<glyph glyph-name="Racute" unicode="&#x154;" horiz-adv-x="796" d="M401 872 C444.891 909.091 490.752 946.933 518.25 974.125 C529.5 985.25 536 993 536 996 C536 1019 517 1038 494 1038 C491 1038 483.5 1031.25 472.875 1019.5 C446.842 990.711 411.427 942.745 376.5 897 C341.573 851.255 321.909 820.9 325 817.5 C328.091 814.1 357.109 834.909 401 872 L401 872 Z M77.5 730 L95 730 C125 730 145 710 145 680 L145 70 C145 40 125 20 95 20 L77.5 20 C66.6818 20 60 16.1818 60 10 C60 3.81818 111.545 0 195 0 C278.455 0 330 3.81818 330 10 C330 16.1818 323.318 20 312.5 20 L295 20 C265 20 245 40 245 70 L245 212.5 C245 300.591 264.282 355 295.5 355 C326.718 355 369.81 316.097 411.375 255.125 C485.332 146.636 548.837 31.3425 609.5 12.125 C713.133 -20.7052 785 4.81818 785 11 C785 17.1818 748.052 7.74841 699.5 29.25 C659.022 47.1758 601.882 148.848 523.875 258.625 C477.088 324.468 509.501 364.975 566.5 423.5 C594.5 452.25 610 490.5 610 539 C610 666 506 751 349 751 L204 751 C114.364 751 59.1909 746.991 59.5 740.5 C59.8091 734.009 66.6818 730 77.5 730 L77.5 730 Z M244 556 C244 664.182 258.318 731 281.5 731 L319 731 C427 731 499 662 499 559 C499 436 439 381 349 381 L296.5 381 C264.045 381 244 447.818 244 556 L244 556 Z " />
<glyph glyph-name="Rcaron" unicode="&#x158;" horiz-adv-x="796" d="M392.5 974.5 C348.918 931.536 295.273 931.536 252 974.5 C208.727 1017.46 179.9 1042.09 176.5 1039 C173.1 1035.91 194.291 997.918 232 939.5 C269.709 881.082 297.293 837.297 306.5 826.625 C312 820.25 318 815 323 815 C328 815 334 820.25 339.5 826.625 C348.707 837.297 376.1 881.082 413.5 939.5 C450.9 997.918 471.9 1035.91 468.5 1039 C465.1 1042.09 436.082 1017.46 392.5 974.5 L392.5 974.5 Z M77.5 730 L95 730 C125 730 145 710 145 680 L145 70 C145 40 125 20 95 20 L77.5 20 C66.6818 20 60 16.1818 60 10 C60 3.81818 111.545 0 195 0 C278.455 0 330 3.81818 330 10 C330 16.1818 323.318 20 312.5 20 L295 20 C265 20 245 40 245 70 L245 212.5 C245 300.591 264.282 355 295.5 355 C326.718 355 369.81 316.097 411.375 255.125 C485.332 146.636 548.837 31.3425 609.5 12.125 C713.133 -20.7052 785 4.81818 785 11 C785 17.1818 748.052 7.74841 699.5 29.25 C659.022 47.1758 601.882 148.848 523.875 258.625 C477.088 324.468 509.501 364.975 566.5 423.5 C594.5 452.25 610 490.5 610 539 C610 666 506 751 349 751 L204 751 C114.364 751 59.1909 746.991 59.5 740.5 C59.8091 734.009 66.6818 730 77.5 730 L77.5 730 Z M244 556 C244 664.182 258.318 731 281.5 731 L319 731 C427 731 499 662 499 559 C499 436 439 381 349 381 L296.5 381 C264.045 381 244 447.818 244 556 L244 556 Z " />
<glyph glyph-name="rcaron" unicode="&#x159;" horiz-adv-x="420" d="M310 724.5 C266.727 681.536 213.273 681.536 170 724.5 C126.727 767.464 97.7091 792.091 94 789 C90.2909 785.909 111.291 747.918 149 689.5 C186.709 631.082 214.293 587.297 223.5 576.625 C229 570.25 235 565 240 565 C245 565 251 570.25 256.5 576.625 C265.707 587.297 293.291 631.082 331 689.5 C368.709 747.918 389.709 785.909 386 789 C382.291 792.091 353.273 767.464 310 724.5 L310 724.5 Z M31 461 L41 461 C67 460 85 442 86 416 L86 34 C86 25 80 19 71 19 L46 19 C30.5455 19 21 15.1818 21 9 C21 2.81818 62.0455 -1 128.5 -1 C194.955 -1 236 2.81818 236 9 C236 15.1818 226.455 19 211 19 L186 19 C177 19 171 25 171 34 L171 195 C171 294.527 177.356 395.368 216.75 438 C235 457.75 255.5 469 276 469 C297 469 311 455 311 434 C311 404 331 384 361 384 C391 384 411 404 411 434 C411 479 373 509 316 509 C284 509 254 498.25 229 479.25 C180.954 442.735 172 418.9 172 449.5 C172 480.1 163.982 499 151 499 C138.018 499 109.668 493.46 76.5 485.5 C43.3324 477.54 22.6182 469.9 22 466.5 C21.3818 463.1 24.8182 461 31 461 L31 461 Z " />
<glyph glyph-name="Sacute" unicode="&#x15a;" horiz-adv-x="551" d="M353 872 C396.891 909.091 442.752 946.933 470.25 974.125 C481.5 985.25 488 993 488 996 C488 1019 469 1038 446 1038 C443 1038 435.75 1031.25 425.25 1019.5 C399.289 990.448 363.236 942.745 328 897 C292.764 851.255 273.1 820.9 276.5 817.5 C279.9 814.1 309.109 834.909 353 872 L353 872 Z M70 11.5 C70.75 15.5 71.5 19.5 72 23 C75 39 84.25 48.25 97.625 50.25 C129.986 55.0891 171.956 15.4312 217 1.5 C241.25 -6 266.5 -10 292 -10 C423 -10 511 72 511 196 C511 293 447 382 322 427 C204 470 143 536 143 601 C143 681 188 735 256 735 C265 735 274 734.5 282.875 733.5 C299.16 731.665 348.627 721.713 386 679 C431.354 627.167 440.909 575.082 444 565.5 C447.091 555.918 453.2 550 460 550 C466.8 550 471 588.945 471 652 C471 715.055 467.755 754 462.5 754 C457.245 754 453.271 750.869 451.5 746 C450.5 743.25 449.5 740.5 449 738 C446 726.5 438.25 719.75 427.375 718 C401.988 713.915 364.874 741.594 325.25 751.5 C303.25 757 280 760 256 760 C141 760 64 681 64 563 C64 512.5 80.75 464.5 113.875 423.125 C182.951 336.845 323.164 312.867 388.5 251 C416.75 224.25 431 195.5 431 167 C431 80 375 22 292 22 C262 22 232 28 204 39 C178.5 49.5 153.5 71.5 132 100.875 C89.0107 159.61 79.2034 213.087 76.5 223 C73.7966 232.913 67.6091 239 60.5 239 C53.3909 239 49 193.182 49 119 C49 44.8182 52.6273 -0.809091 58.5 -0.5 C64.3727 -0.190909 68.6702 4.40779 70 11.5 L70 11.5 Z " />
<glyph glyph-name="Scircumflex" unicode="&#x15c;" horiz-adv-x="551" d="M70 11.5 C70.75 15.5 71.5 19.5 72 23 C75 39 84.25 48.25 97.625 50.25 C129.986 55.0891 171.956 15.4312 217 1.5 C241.25 -6 266.5 -10 292 -10 C423 -10 511 72 511 196 C511 293 447 382 322 427 C204 470 143 536 143 601 C143 681 188 735 256 735 C265 735 274 734.5 282.875 733.5 C299.16 731.665 348.627 721.713 386 679 C431.354 627.167 440.909 575.082 444 565.5 C447.091 555.918 453.2 550 460 550 C466.8 550 471 588.945 471 652 C471 715.055 467.755 754 462.5 754 C457.245 754 453.271 750.869 451.5 746 C450.5 743.25 449.5 740.5 449 738 C446 726.5 438.25 719.75 427.375 718 C401.988 713.915 364.874 741.594 325.25 751.5 C303.25 757 280 760 256 760 C141 760 64 681 64 563 C64 512.5 80.75 464.5 113.875 423.125 C182.951 336.845 323.164 312.867 388.5 251 C416.75 224.25 431 195.5 431 167 C431 80 375 22 292 22 C262 22 232 28 204 39 C178.5 49.5 153.5 71.5 132 100.875 C89.0107 159.61 79.2034 213.087 76.5 223 C73.7966 232.913 67.6091 239 60.5 239 C53.3909 239 49 193.182 49 119 C49 44.8182 52.6273 -0.809091 58.5 -0.5 C64.3727 -0.190909 68.6702 4.40779 70 11.5 L70 11.5 Z M289.5 1022.38 C284 1028.75 278 1034 273 1034 C268 1034 262 1028.75 256.5 1022.38 C247.293 1011.7 219.709 967.918 182 909.5 C144.291 851.082 123.291 813.091 127 810 C130.709 806.909 159.727 831.536 203 874.5 C246.273 917.464 299.727 917.464 343 874.5 C386.273 831.536 415.291 806.909 419 810 C422.709 813.091 401.709 851.082 364 909.5 C326.291 967.918 298.707 1011.7 289.5 1022.38 L289.5 1022.38 Z " />
<glyph glyph-name="Scaron" unicode="&#x160;" horiz-adv-x="551" d="M344 974.5 C300.727 931.536 247.273 931.536 204 974.5 C160.727 1017.46 131.709 1042.09 128 1039 C124.291 1035.91 145.291 997.918 183 939.5 C220.709 881.082 248.293 837.297 257.5 826.625 C263 820.25 269 815 274 815 C279 815 285 820.25 290.5 826.625 C299.707 837.297 327.291 881.082 365 939.5 C402.709 997.918 423.709 1035.91 420 1039 C416.291 1042.09 387.273 1017.46 344 974.5 L344 974.5 Z M70 11.5 C70.75 15.5 71.5 19.5 72 23 C75 39 84.25 48.25 97.625 50.25 C129.986 55.0891 171.956 15.4312 217 1.5 C241.25 -6 266.5 -10 292 -10 C423 -10 511 72 511 196 C511 293 447 382 322 427 C204 470 143 536 143 601 C143 681 188 735 256 735 C265 735 274 734.5 282.875 733.5 C299.16 731.665 348.627 721.713 386 679 C431.354 627.167 440.909 575.082 444 565.5 C447.091 555.918 453.2 550 460 550 C466.8 550 471 588.945 471 652 C471 715.055 467.755 754 462.5 754 C457.245 754 453.271 750.869 451.5 746 C450.5 743.25 449.5 740.5 449 738 C446 726.5 438.25 719.75 427.375 718 C401.988 713.915 364.874 741.594 325.25 751.5 C303.25 757 280 760 256 760 C141 760 64 681 64 563 C64 512.5 80.75 464.5 113.875 423.125 C182.951 336.845 323.164 312.867 388.5 251 C416.75 224.25 431 195.5 431 167 C431 80 375 22 292 22 C262 22 232 28 204 39 C178.5 49.5 153.5 71.5 132 100.875 C89.0107 159.61 79.2034 213.087 76.5 223 C73.7966 232.913 67.6091 239 60.5 239 C53.3909 239 49 193.182 49 119 C49 44.8182 52.6273 -0.809091 58.5 -0.5 C64.3727 -0.190909 68.6702 4.40779 70 11.5 L70 11.5 Z " />
<glyph glyph-name="scaron" unicode="&#x161;" horiz-adv-x="428" d="M288 724.5 C244.727 681.536 191.273 681.536 148 724.5 C104.727 767.464 75.7091 792.091 72 789 C68.2909 785.909 89.2909 747.918 127 689.5 C164.709 631.082 192.293 587.297 201.5 576.625 C207 570.25 213 565 218 565 C223 565 229 570.25 234.5 576.625 C243.707 587.297 271.291 631.082 309 689.5 C346.709 747.918 367.709 785.909 364 789 C360.291 792.091 331.273 767.464 288 724.5 L288 724.5 Z M353 426 C353 477.927 350.518 510 346.5 510 L340 510 C339 506 337 502 336 498 C333 487 306 488 267 499 C247 506 226 510 204 510 C117 510 59 458 59 380 C59 342.5 71 308.25 94.5 280.25 C142.84 222.654 242.285 215.262 284.125 172.875 C303.25 153.5 313 130.5 313 106 C313 69 296.5 40.25 270.875 24.125 C220.088 -7.83382 140.584 28.1763 112.5 68.625 C79.3808 116.327 77.2364 160.009 76 166.5 C74.7636 172.991 71.3273 177 67 177 C62.6727 177 60 143.018 60 88 C60 32.9818 62.6727 -1 67 -1 C71.3273 -1 74.5727 1.48182 75.5 5.5 L77 12 C81 26 109 23 149 5 C171 -5 194 -10 218 -10 C314 -10 378 46 378 130 C378 199 330 257 237 282 C159 303 119 352 119 409 C119 470 172 501 237 486 C285 474 324 425 335 363 L336.5 352.5 C337.427 346.009 340.864 342 345.5 342 C350.136 342 353 374.073 353 426 L353 426 Z " />
<glyph glyph-name="Tcaron" unicode="&#x164;" horiz-adv-x="775" d="M458 974.5 C414.727 931.536 361.273 931.536 318 974.5 C274.727 1017.46 245.709 1042.09 242 1039 C238.291 1035.91 259.291 997.918 297 939.5 C334.709 881.082 362.293 837.297 371.5 826.625 C377 820.25 383 815 388 815 C393 815 399 820.25 404.5 826.625 C413.707 837.297 441.291 881.082 479 939.5 C516.709 997.918 537.709 1035.91 534 1039 C530.291 1042.09 501.273 1017.46 458 974.5 L458 974.5 Z M3.5 600 C8.75455 600 16.9636 607.636 25 620 C33.0364 632.364 53.6228 673.484 99.5 701.625 C123.75 716.5 150.5 725 176 725 L257 725 C307.073 725 338 599.955 338 397.5 L338 70 C338 40 318 20 288 20 L270.5 20 C259.682 20 253 16.1818 253 10 C253 3.81818 304.545 0 388 0 C471.455 0 523 3.81818 523 10 C523 16.1818 516.318 20 505.5 20 L488 20 C458 20 438 40 438 70 L438 397.5 C438 599.955 468.736 725 518.5 725 L599 725 C624.5 725 651.25 716.5 675.5 701.625 C721.377 673.484 741.964 632.364 750 620 C758.036 607.636 766.245 600 771.5 600 C776.755 600 771.835 619.165 759.375 650.5 C751 671.563 739.5 700.75 720 749.75 L711 772.375 C705.436 786.361 699.709 795 696 795 C692.291 795 689.236 793.664 688 791.5 L686 788 C671 765 628 750 579 750 L196 750 C147 750 104 765 89 788 L87 791.5 C85.7636 793.664 82.7091 795 79 795 C75.2909 795 57.8187 757.984 34 697.75 C10.1813 637.516 -1.75455 600 3.5 600 L3.5 600 Z " />
<glyph glyph-name="tcaron" unicode="&#x165;" horiz-adv-x="378" d="M256.5 500 C209.209 500 180 522.909 180 560 C180 597.091 178.855 620 177 620 C175.145 620 146.509 590.6 102 543 C57.4909 495.4 30 464.091 30 461 C30 457.909 42.4091 456 62.5 456 C82.5909 456 95 399.491 95 308 L95 160 C95 38 150 -10 232 -10 C261 -10 289.25 0.5 313.125 19 C359.328 54.8016 366.091 96.7636 363 98 C359.909 99.2364 351.587 71.8859 319.25 49.25 C301.75 37 280.5 30 258 30 C210 30 178 61 178 141 L179 298 C179.618 395.055 209.209 455 256.5 455 C303.791 455 333 463.591 333 477.5 C333 491.409 303.791 500 256.5 500 L256.5 500 Z M425 758 C408 758 398 695 394 650 L389 594.5 C385.909 560.191 386.864 538.427 391.5 537.5 C396.136 536.573 406.445 556.045 418.5 588.5 L438 641 C453 680 463 722 463 746 C463 755 448 758 425 758 L425 758 Z " />
<glyph glyph-name="Utilde" unicode="&#x168;" horiz-adv-x="760" d="M248.625 913.5 C256 924 266.5 930 279 930 C331 930 400 865 452 865 C476.5 865 496.75 877 510.875 898 C541.847 944.047 530.136 985 525.5 985 C520.864 985 522.457 963.755 505.5 941.5 C497.5 931 486 925 472 925 C420 925 350 990 298 990 C275 990 256 978 242.75 957 C213.246 910.239 224.864 870 229.5 870 C234.136 870 232.627 890.723 248.625 913.5 L248.625 913.5 Z M730 46 C730 52.1818 723.318 54.0909 712.5 51 L695 46 C665 38 645 53 645 83 L645 416.5 C645 622.664 609.682 750 552.5 750 C495.318 750 460 746.182 460 740 C460 733.818 466.682 730 477.5 730 L495 730 C525 730 545 710 545 680 L545 435 C545 283.545 526.809 135.165 458.625 91.25 C421.75 67.5 378.5 54 334 54 C260 54 210 120 210 220 L210 485 C210 648.818 174.682 750 117.5 750 C60.3182 750 25 746.182 25 740 C25 733.818 31.6818 730 42.5 730 L60 730 C90 730 110 710 110 680 L110 220 C110 82 184 -10 294 -10 C347.5 -10 399.5 5.5 443.5 32.625 C523.185 81.7489 545 117.318 545 72.5 C545 27.6818 554.545 0 570 0 C585.455 0 621.275 6.69987 663.625 18.25 C704.68 29.4468 730 39.8182 730 46 L730 46 Z " />
<glyph glyph-name="utilde" unicode="&#x169;" horiz-adv-x="560" d="M146.125 663.5 C153.25 674 163.5 680 176 680 C228 680 297 615 349 615 C373.5 615 393.75 627 407.875 648 C438.847 694.047 427.136 735 422.5 735 C417.864 735 419.457 713.755 402.5 691.5 C394.5 681 383 675 369 675 C317 675 248 740 196 740 C173 740 154 728 140.75 707 C111.246 660.239 122.864 620 127.5 620 C132.136 620 130.54 640.532 146.125 663.5 L146.125 663.5 Z M532.5 47.5 L520 44 C490 36 470 51 470 81 L470 290.5 C470 420.009 441.364 500 395 500 C348.636 500 320 496.182 320 490 C320 483.818 329.545 480 345 480 L370 480 C379 480 385 474 385 465 L385 304.5 C385 205.282 374.391 107.103 330.75 74.25 C308.5 57.5 283 48 257 48 C202 48 165 92 165 159 L165 329 C165 434.091 136.364 499 90 499 C43.6364 499 15 495.182 15 489 C15 482.818 24.5455 479 40 479 L65 479 C74 479 80 473 80 464 L80 159 C80 57 135 -11 217 -11 C251.5 -11 285.25 1.75 314.5 24.25 C371.975 68.4618 385 95.2818 385 58.5 C385 21.7182 393.018 -1.09545 406 -1.25 C418.982 -1.40455 434.863 0.917239 447.75 4.25 C461.504 7.80704 484.883 13.9911 509 20.375 C531.269 26.2698 545 34.0091 545 40.5 C545 46.9909 540.227 49.6636 532.5 47.5 L532.5 47.5 Z " />
<glyph glyph-name="Umacron" unicode="&#x16a;" horiz-adv-x="760" d="M378 895 C470.727 895 528 906.264 528 924.5 C528 942.736 470.727 954 378 954 C285.273 954 228 942.736 228 924.5 C228 906.264 285.273 895 378 895 L378 895 Z M730 46 C730 52.1818 723.318 54.0909 712.5 51 L695 46 C665 38 645 53 645 83 L645 416.5 C645 622.664 609.682 750 552.5 750 C495.318 750 460 746.182 460 740 C460 733.818 466.682 730 477.5 730 L495 730 C525 730 545 710 545 680 L545 435 C545 283.545 526.809 135.165 458.625 91.25 C421.75 67.5 378.5 54 334 54 C260 54 210 120 210 220 L210 485 C210 648.818 174.682 750 117.5 750 C60.3182 750 25 746.182 25 740 C25 733.818 31.6818 730 42.5 730 L60 730 C90 730 110 710 110 680 L110 220 C110 82 184 -10 294 -10 C347.5 -10 399.5 5.5 443.5 32.625 C523.185 81.7489 545 117.318 545 72.5 C545 27.6818 554.545 0 570 0 C585.455 0 621.275 6.69987 663.625 18.25 C704.68 29.4468 730 39.8182 730 46 L730 46 Z " />
<glyph glyph-name="umacron" unicode="&#x16b;" horiz-adv-x="560" d="M275 645 C367.727 645 425 656.264 425 674.5 C425 692.736 367.727 704 275 704 C182.273 704 125 692.736 125 674.5 C125 656.264 182.273 645 275 645 L275 645 Z M532.5 47.5 L520 44 C490 36 470 51 470 81 L470 290.5 C470 420.009 441.364 500 395 500 C348.636 500 320 496.182 320 490 C320 483.818 329.545 480 345 480 L370 480 C379 480 385 474 385 465 L385 304.5 C385 205.282 374.391 107.103 330.75 74.25 C308.5 57.5 283 48 257 48 C202 48 165 92 165 159 L165 329 C165 434.091 136.364 499 90 499 C43.6364 499 15 495.182 15 489 C15 482.818 24.5455 479 40 479 L65 479 C74 479 80 473 80 464 L80 159 C80 57 135 -11 217 -11 C251.5 -11 285.25 1.75 314.5 24.25 C371.975 68.4618 385 95.2818 385 58.5 C385 21.7182 393.018 -1.09545 406 -1.25 C418.982 -1.40455 434.863 0.917239 447.75 4.25 C461.504 7.80704 484.883 13.9911 509 20.375 C531.269 26.2698 545 34.0091 545 40.5 C545 46.9909 540.227 49.6636 532.5 47.5 L532.5 47.5 Z " />
<glyph glyph-name="Ubreve" unicode="&#x16c;" horiz-adv-x="760" d="M285.375 904.25 C309 882.5 341 870 378 870 C415 870 447 882.25 470.5 903.625 C515.149 944.236 508.564 992.573 503 993.5 C497.436 994.427 491.109 965.452 459.625 947.875 C439.25 936.5 411 930 378 930 C344.5 930 316.25 936.75 295.875 948.5 C263.885 966.948 257.564 996.427 252 995.5 C246.436 994.573 240.236 945.806 285.375 904.25 L285.375 904.25 Z M730 46 C730 52.1818 723.318 54.0909 712.5 51 L695 46 C665 38 645 53 645 83 L645 416.5 C645 622.664 609.682 750 552.5 750 C495.318 750 460 746.182 460 740 C460 733.818 466.682 730 477.5 730 L495 730 C525 730 545 710 545 680 L545 435 C545 283.545 526.809 135.165 458.625 91.25 C421.75 67.5 378.5 54 334 54 C260 54 210 120 210 220 L210 485 C210 648.818 174.682 750 117.5 750 C60.3182 750 25 746.182 25 740 C25 733.818 31.6818 730 42.5 730 L60 730 C90 730 110 710 110 680 L110 220 C110 82 184 -10 294 -10 C347.5 -10 399.5 5.5 443.5 32.625 C523.185 81.7489 545 117.318 545 72.5 C545 27.6818 554.545 0 570 0 C585.455 0 621.275 6.69987 663.625 18.25 C704.68 29.4468 730 39.8182 730 46 L730 46 Z " />
<glyph glyph-name="ubreve" unicode="&#x16d;" horiz-adv-x="560" d="M182.875 654.25 C206.25 632.5 238 620 275 620 C312.5 620 344.75 632.25 368.375 653.625 C413.155 694.14 406.564 742.573 401 743.5 C395.436 744.427 389.07 715.392 357.5 697.875 C337 686.5 308.5 680 275 680 C241.5 680 213.25 686.75 192.875 698.5 C160.885 716.948 154.755 746.427 149.5 745.5 C144.245 744.573 138.053 695.956 182.875 654.25 L182.875 654.25 Z M532.5 47.5 L520 44 C490 36 470 51 470 81 L470 290.5 C470 420.009 441.364 500 395 500 C348.636 500 320 496.182 320 490 C320 483.818 329.545 480 345 480 L370 480 C379 480 385 474 385 465 L385 304.5 C385 205.282 374.391 107.103 330.75 74.25 C308.5 57.5 283 48 257 48 C202 48 165 92 165 159 L165 329 C165 434.091 136.364 499 90 499 C43.6364 499 15 495.182 15 489 C15 482.818 24.5455 479 40 479 L65 479 C74 479 80 473 80 464 L80 159 C80 57 135 -11 217 -11 C251.5 -11 285.25 1.75 314.5 24.25 C371.975 68.4618 385 95.2818 385 58.5 C385 21.7182 393.018 -1.09545 406 -1.25 C418.982 -1.40455 434.863 0.917239 447.75 4.25 C461.504 7.80704 484.883 13.9911 509 20.375 C531.269 26.2698 545 34.0091 545 40.5 C545 46.9909 540.227 49.6636 532.5 47.5 L532.5 47.5 Z " />
<glyph glyph-name="Uring" unicode="&#x16e;" horiz-adv-x="760" d="M305 905 C305 950 334 980 378 980 C421 980 450 950 450 905 C450 865 417 830 378 830 C339 830 305 865 305 905 L305 905 Z M280 905 C280 854 325 810 378 810 C430 810 475 854 475 905 C475 962 436 1000 378 1000 C319 1000 280 962 280 905 L280 905 Z M730 46 C730 52.1818 723.318 54.0909 712.5 51 L695 46 C665 38 645 53 645 83 L645 416.5 C645 622.664 609.682 750 552.5 750 C495.318 750 460 746.182 460 740 C460 733.818 466.682 730 477.5 730 L495 730 C525 730 545 710 545 680 L545 435 C545 283.545 526.809 135.165 458.625 91.25 C421.75 67.5 378.5 54 334 54 C260 54 210 120 210 220 L210 485 C210 648.818 174.682 750 117.5 750 C60.3182 750 25 746.182 25 740 C25 733.818 31.6818 730 42.5 730 L60 730 C90 730 110 710 110 680 L110 220 C110 82 184 -10 294 -10 C347.5 -10 399.5 5.5 443.5 32.625 C523.185 81.7489 545 117.318 545 72.5 C545 27.6818 554.545 0 570 0 C585.455 0 621.275 6.69987 663.625 18.25 C704.68 29.4468 730 39.8182 730 46 L730 46 Z " />
<glyph glyph-name="uring" unicode="&#x16f;" horiz-adv-x="560" d="M203 655 C203 700 232 730 275 730 C319 730 348 700 348 655 C348 615 314 580 275 580 C236 580 203 615 203 655 L203 655 Z M178 655 C178 604 223 560 275 560 C328 560 373 604 373 655 C373 712 334 750 275 750 C217 750 178 712 178 655 L178 655 Z M532.5 47.5 L520 44 C490 36 470 51 470 81 L470 290.5 C470 420.009 441.364 500 395 500 C348.636 500 320 496.182 320 490 C320 483.818 329.545 480 345 480 L370 480 C379 480 385 474 385 465 L385 304.5 C385 205.282 374.391 107.103 330.75 74.25 C308.5 57.5 283 48 257 48 C202 48 165 92 165 159 L165 329 C165 434.091 136.364 499 90 499 C43.6364 499 15 495.182 15 489 C15 482.818 24.5455 479 40 479 L65 479 C74 479 80 473 80 464 L80 159 C80 57 135 -11 217 -11 C251.5 -11 285.25 1.75 314.5 24.25 C371.975 68.4618 385 95.2818 385 58.5 C385 21.7182 393.018 -1.09545 406 -1.25 C418.982 -1.40455 434.863 0.917239 447.75 4.25 C461.504 7.80704 484.883 13.9911 509 20.375 C531.269 26.2698 545 34.0091 545 40.5 C545 46.9909 540.227 49.6636 532.5 47.5 L532.5 47.5 Z " />
<glyph glyph-name="Wcircumflex" unicode="&#x174;" horiz-adv-x="1109" d="M531 572 C548.309 526.873 531.318 426.645 486.5 309.5 C441.682 192.355 377.441 220.227 318.25 382.5 C259.059 544.773 203.802 672.716 223 703 C231.875 717 249 725 273 725 L283.5 725 C289.991 725 294 729.773 294 737.5 C294 745.227 239.591 750 151.5 750 C63.4091 750 9 745.227 9 737.5 C9 729.773 11.1 725 14.5 725 L20 725 C39 725 58 717 74.5 703 C107.577 674.934 162.109 520.145 240 318 C317.891 115.855 370.773 -9 378.5 -9 C386.227 -9 426.318 80.1545 483.5 224.5 C540.682 368.845 610.312 368.682 666 224.125 C721.533 79.9714 760.773 -9 768.5 -9 C776.227 -9 818.036 116.045 878 318.5 C937.964 520.955 979.9 677.649 1014.25 704 C1032.5 718 1055 726 1079 726 L1086.5 726 C1091.14 726 1094 730.773 1094 738.5 C1094 746.227 1042.07 751 958 751 C873.927 751 822 746.227 822 738.5 C822 730.773 833.073 726 851 726 L880 726 C926 726 949 696 939 651 L868 395 C824.109 236.745 761.682 236.555 704.5 394.5 L612 650 C597 696 617 726 664 726 L684.5 726 C697.173 726 705 730.773 705 738.5 C705 746.227 645.818 751 550 751 C454.182 751 395 746.227 395 738.5 C395 730.773 397.291 726 401 726 L407 726 C427 726 446.75 717.875 463.75 703.75 C497.415 675.778 513.691 617.127 531 572 L531 572 Z M557.5 1024.38 C552 1030.75 546 1036 541 1036 C536 1036 530 1030.75 524.5 1024.38 C515.293 1013.7 487.709 969.918 450 911.5 C412.291 853.082 391.1 815.091 394.5 812 C397.9 808.909 426.727 833.536 470 876.5 C513.273 919.464 566.918 919.464 610.5 876.5 C654.082 833.536 683.1 808.909 686.5 812 C689.9 815.091 668.9 853.082 631.5 911.5 C594.1 969.918 566.707 1013.7 557.5 1024.38 L557.5 1024.38 Z " />
<glyph glyph-name="Ycircumflex" unicode="&#x176;" horiz-adv-x="764" d="M149 750 C62.4545 750 9 746.182 9 740 C9 733.818 11.8636 730 16.5 730 L24 730 C40.5 730 57.75 724.5 73.5 714.875 C103.48 696.554 157.145 607.609 227 498.5 C296.855 389.391 340 277.709 340 206 L340 90 C340 48 312 20 270 20 L252.5 20 C241.682 20 235 16.1818 235 10 C235 3.81818 294.182 0 390 0 C485.818 0 545 3.81818 545 10 C545 16.1818 538.318 20 527.5 20 L510 20 C468 20 440 48 440 90 L440 207.5 C440 280.136 476.518 392.062 536.125 500.375 C595.644 608.528 641.687 696.636 669.875 714.875 C684.75 724.5 701.5 730 718 730 L738 730 C750.364 730 758 733.818 758 740 C758 746.182 708.555 750 628.5 750 C548.445 750 499 746.182 499 740 C499 733.818 510.455 730 529 730 L559 730 C592 730 603 708 587 675 L508.5 515.5 C459.973 416.9 392.051 416.926 330.5 515.5 C268.949 614.074 212.052 690.956 220.75 714.875 C224.25 724.5 234.5 730 251 730 L270 730 C281.745 730 289 733.818 289 740 C289 746.182 235.545 750 149 750 L149 750 Z M406.5 1023.38 C401 1029.75 395 1035 390 1035 C385 1035 379 1029.75 373.5 1023.38 C364.293 1012.7 336.709 968.918 299 910.5 C261.291 852.082 240.291 814.091 244 811 C247.709 807.909 276.727 832.536 320 875.5 C363.273 918.464 416.727 918.464 460 875.5 C503.273 832.536 532.291 807.909 536 811 C539.709 814.091 518.709 852.082 481 910.5 C443.291 968.918 415.707 1012.7 406.5 1023.38 L406.5 1023.38 Z " />
<glyph glyph-name="Ydieresis" unicode="&#x178;" horiz-adv-x="764" d="M465 865 C498 865 520 887 520 920 C520 953 498 975 465 975 C432 975 410 953 410 920 C410 887 432 865 465 865 L465 865 Z M315 865 C348 865 370 887 370 920 C370 953 348 975 315 975 C282 975 260 953 260 920 C260 887 282 865 315 865 L315 865 Z M149 750 C62.4545 750 9 746.182 9 740 C9 733.818 11.8636 730 16.5 730 L24 730 C40.5 730 57.75 724.5 73.5 714.875 C103.48 696.554 157.145 607.609 227 498.5 C296.855 389.391 340 277.709 340 206 L340 90 C340 48 312 20 270 20 L252.5 20 C241.682 20 235 16.1818 235 10 C235 3.81818 294.182 0 390 0 C485.818 0 545 3.81818 545 10 C545 16.1818 538.318 20 527.5 20 L510 20 C468 20 440 48 440 90 L440 207.5 C440 280.136 476.518 392.062 536.125 500.375 C595.644 608.528 641.687 696.636 669.875 714.875 C684.75 724.5 701.5 730 718 730 L738 730 C750.364 730 758 733.818 758 740 C758 746.182 708.555 750 628.5 750 C548.445 750 499 746.182 499 740 C499 733.818 510.455 730 529 730 L559 730 C592 730 603 708 587 675 L508.5 515.5 C459.973 416.9 392.051 416.926 330.5 515.5 C268.949 614.074 212.052 690.956 220.75 714.875 C224.25 724.5 234.5 730 251 730 L270 730 C281.745 730 289 733.818 289 740 C289 746.182 235.545 750 149 750 L149 750 Z " />
<glyph glyph-name="Zacute" unicode="&#x179;" horiz-adv-x="652" d="M419 872 C462.891 909.091 508.752 946.933 536.25 974.125 C547.5 985.25 554 993 554 996 C554 1019 535 1038 512 1038 C509 1038 501.75 1031.25 491.25 1019.5 C465.289 990.448 429.236 942.745 394 897 C358.764 851.255 339.1 820.9 342.5 817.5 C345.9 814.1 375.109 834.909 419 872 L419 872 Z M633.5 155 C628.245 155 623.282 150.991 620.5 144.5 L616 134 C589 75 534 34 475 28 L309 25 C206.382 23.1455 232.155 157.164 376.5 376 C520.845 594.836 610 733.818 610 740 C610 746.182 506.909 750 340 750 C173.091 750 69.8091 747.327 69.5 743 L69 736 C69 736 67.75 722 65.625 697.625 C60.2027 635.428 60.2455 597 65.5 597 C70.7545 597 75.1455 601.009 77 607.5 L80 618 C99 681 155 723 218 724 L360 726 C447.782 727.236 410.936 592.836 263.5 374 C116.064 155.164 25 16.1818 25 10 C25 3.81818 135.918 0 315.5 0 C495.082 0 611.141 22.2918 619.5 58.375 C633.341 118.123 638.755 155 633.5 155 L633.5 155 Z " />
<glyph glyph-name="Zdot" unicode="&#x17b;" horiz-adv-x="652" d="M340 865 C373 865 395 887 395 920 C395 953 373 975 340 975 C307 975 285 953 285 920 C285 887 307 865 340 865 L340 865 Z M633.5 155 C628.245 155 623.282 150.991 620.5 144.5 L616 134 C589 75 534 34 475 28 L309 25 C206.382 23.1455 232.155 157.164 376.5 376 C520.845 594.836 610 733.818 610 740 C610 746.182 506.909 750 340 750 C173.091 750 69.8091 747.327 69.5 743 L69 736 C69 736 67.75 722 65.625 697.625 C60.2027 635.428 60.2455 597 65.5 597 C70.7545 597 75.1455 601.009 77 607.5 L80 618 C99 681 155 723 218 724 L360 726 C447.782 727.236 410.936 592.836 263.5 374 C116.064 155.164 25 16.1818 25 10 C25 3.81818 135.918 0 315.5 0 C495.082 0 611.141 22.2918 619.5 58.375 C633.341 118.123 638.755 155 633.5 155 L633.5 155 Z " />
<glyph glyph-name="zdot" unicode="&#x17c;" horiz-adv-x="475" d="M253 615 C286 615 308 637 308 670 C308 703 286 725 253 725 C220 725 198 703 198 670 C198 637 220 615 253 615 L253 615 Z M301 27 L222.5 25 C173.973 23.7636 199.555 110.245 289.5 251.5 C379.445 392.755 435 483.818 435 490 C435 496.182 375.245 500 278.5 500 L122 500 C113 500 105.75 502.75 100.875 507.5 C91.7203 516.42 94.3818 527.955 95 529.5 C95.6182 531.045 91.8 532 85 532 C78.2 532 66.8648 508.788 56.5 470.875 C39.9702 410.411 33.6273 373 39.5 373 C45.3727 373 50.7182 375.673 53.5 380 C56.2818 384.327 70.7255 417.3 110.125 445.375 C147.018 471.664 207.4 473.764 255 475 C302.6 476.236 276.064 389.755 185.5 248.5 C94.9364 107.245 39 16.1818 39 10 C39 3.81818 113.455 0 234 0 L429 0 C430 0 432.25 14.75 435.125 38.125 C441.948 93.6004 441.373 128 435.5 128 C429.627 128 424.855 125.136 423 120.5 L420 113 C398 63 351 29 300 27 L301 27 Z " />
<glyph glyph-name="Zcaron" unicode="&#x17d;" horiz-adv-x="652" d="M410 974.5 C366.727 931.536 313.273 931.536 270 974.5 C226.727 1017.46 197.709 1042.09 194 1039 C190.291 1035.91 211.291 997.918 249 939.5 C286.709 881.082 314.293 837.297 323.5 826.625 C329 820.25 335 815 340 815 C345 815 351 820.25 356.5 826.625 C365.707 837.297 393.291 881.082 431 939.5 C468.709 997.918 489.709 1035.91 486 1039 C482.291 1042.09 453.273 1017.46 410 974.5 L410 974.5 Z M633.5 155 C628.245 155 623.282 150.991 620.5 144.5 L616 134 C589 75 534 34 475 28 L309 25 C206.382 23.1455 232.155 157.164 376.5 376 C520.845 594.836 610 733.818 610 740 C610 746.182 506.909 750 340 750 C173.091 750 69.8091 747.327 69.5 743 L69 736 C69 736 67.75 722 65.625 697.625 C60.2027 635.428 60.2455 597 65.5 597 C70.7545 597 75.1455 601.009 77 607.5 L80 618 C99 681 155 723 218 724 L360 726 C447.782 727.236 410.936 592.836 263.5 374 C116.064 155.164 25 16.1818 25 10 C25 3.81818 135.918 0 315.5 0 C495.082 0 611.141 22.2918 619.5 58.375 C633.341 118.123 638.755 155 633.5 155 L633.5 155 Z " />
<glyph glyph-name="zcaron" unicode="&#x17e;" horiz-adv-x="475" d="M323 724.5 C279.727 681.536 226.273 681.536 183 724.5 C139.727 767.464 110.709 792.091 107 789 C103.291 785.909 124.291 747.918 162 689.5 C199.709 631.082 227.293 587.297 236.5 576.625 C242 570.25 248 565 253 565 C258 565 264 570.25 269.5 576.625 C278.707 587.297 306.291 631.082 344 689.5 C381.709 747.918 402.709 785.909 399 789 C395.291 792.091 366.273 767.464 323 724.5 L323 724.5 Z M301 27 L222.5 25 C173.973 23.7636 199.555 110.245 289.5 251.5 C379.445 392.755 435 483.818 435 490 C435 496.182 375.245 500 278.5 500 L122 500 C113 500 105.75 502.75 100.875 507.5 C91.7203 516.42 94.3818 527.955 95 529.5 C95.6182 531.045 91.8 532 85 532 C78.2 532 66.8648 508.788 56.5 470.875 C39.9702 410.411 33.6273 373 39.5 373 C45.3727 373 50.7182 375.673 53.5 380 C56.2818 384.327 70.7255 417.3 110.125 445.375 C147.018 471.664 207.4 473.764 255 475 C302.6 476.236 276.064 389.755 185.5 248.5 C94.9364 107.245 39 16.1818 39 10 C39 3.81818 113.455 0 234 0 L429 0 C430 0 432.25 14.75 435.125 38.125 C441.948 93.6004 441.373 128 435.5 128 C429.627 128 424.855 125.136 423 120.5 L420 113 C398 63 351 29 300 27 L301 27 Z " />
<glyph glyph-name="oogonek" unicode="&#x1eb;" horiz-adv-x="759" d="M981 -39 C979.145 -36.5273 942.321 -58.498 877.625 -69.875 C830 -78.25 770.5 -83 706 -83 C631 -83 556 -75.75 488.25 -62.625 C377.24 -41.1194 323.413 -8.34785 338.75 -9.25 C347.25 -9.75 356 -10 365 -10 C571 -10 708 111 708 292 C708 473 575 593 375 593 C181 593 52 473 52 292 C52 229.5 67 174 94.375 128.125 C144.325 44.4189 299.498 -46.6693 464.625 -108.5 C548.75 -140 628.5 -158 692 -158 C738 -158 790.375 -146.5 841.5 -126.375 C936.22 -89.0891 982.855 -41.4727 981 -39 L981 -39 Z M149 292 C149 459 238 571 371 571 C515 571 611 459 611 292 C611 117 504 0 344 0 C227 0 149 117 149 292 L149 292 Z " />
<glyph glyph-name="Adotabove" unicode="&#x226;" horiz-adv-x="796" d="M421 865 C454 865 476 887 476 920 C476 953 454 975 421 975 C388 975 366 953 366 920 C366 887 388 865 421 865 L421 865 Z M305 12.5 C305 20.2273 299.845 25 291.5 25 L278 25 C222 25 194 60 207 114 L233 196.5 C249.073 247.5 306.918 279 384.5 279 C462.082 279 519.545 248.645 535 199.5 L560 120 C576 63 548 25 490 25 L476.5 25 C468.155 25 463 20.2273 463 12.5 C463 4.77273 525.427 0 626.5 0 C727.573 0 790 4.77273 790 12.5 C790 20.2273 787.327 25 783 25 L776 25 C728 25 684 63 664 120 L560.5 445.5 C496.518 646.718 455.091 771 452 771 C448.909 771 447.756 752.288 429.5 740 C398.93 719.424 373.573 719.091 374.5 716 C375.427 712.909 339.437 599.272 279.875 418.5 C247.75 321 215.5 223.5 183 126 C163 66 110 26 50 26 L32.5 26 C21.6818 26 15 21.2273 15 13.5 C15 5.77273 70.3636 0.809091 160 0.5 C249.636 0.190909 305 4.77273 305 12.5 L305 12.5 Z M327 492.5 C363.473 607.791 408.336 607.791 444.5 492.5 C480.664 377.209 458.136 306 385.5 306 C312.864 306 290.527 377.209 327 492.5 L327 492.5 Z " />
<glyph glyph-name="G_sc" unicode="&#x262;" horiz-adv-x="732" d="M593.5 598 C592.5 594.5 591.5 591 591 588 C585 559 556 551 520 567 C483 584 435 593 368 593 C178 593 52 473 52 292 C52 111 179 -10 370 -10 C445 -10 510 2 571 22 L580.5 25 C586.373 26.8545 605.592 32.9681 629.875 43.375 C654.257 53.8246 667.664 63.4818 665.5 67.5 C663.336 71.5182 648.807 67.4844 626.875 58.25 C604.882 48.9899 591 62.9 591 93.5 L591 143 C591 194 623 228 672 228 L679 228 C683.327 228 686 232.773 686 240.5 C686 248.227 632.545 253 546 253 C459.455 253 406 248.227 406 240.5 C406 232.773 408.673 228 413 228 L420 228 C469 228 501.5 194 501.5 143 C501.5 127 502 111 502 95 C499 43 454 8 386 8 C246 8 152 122 152 292 C152 459 242 571 378 571 C392 571 462 564 461 560 C486 552.5 510.5 534.75 531.625 510 C573.72 460.682 583.909 412.464 587 403.5 C590.091 394.536 596.2 389 603 389 C609.8 389 614 430.809 614 498.5 C614 566.191 610.564 608 605 608 C599.436 608 595.251 604.127 593.5 598 L593.5 598 Z " />
<glyph glyph-name="I_sc" unicode="&#x26a;" horiz-adv-x="380" d="M302.5 20 L285 20 C255 20 235 40 235 70 L235 513 C235 543 255 563 285 563 L302.5 563 C313.318 563 320 566.818 320 573 C320 579.182 270.364 583 190 583 C109.636 583 60 579.182 60 573 C60 566.818 66.6818 563 77.5 563 L95 563 C125 563 145 543 145 513 L145 70 C145 40 125 20 95 20 L77.5 20 C66.6818 20 60 16.1818 60 10 C60 3.81818 109.636 0 190 0 C270.364 0 320 3.81818 320 10 C320 16.1818 313.318 20 302.5 20 L302.5 20 Z " />
<glyph glyph-name="N_sc" unicode="&#x274;" horiz-adv-x="705" d="M19.5 563 L37 563 C66 563 101 544 125 516 L132 507 C136.327 501.436 138.809 416.291 138.5 284 C138.191 151.709 141.197 50.6972 124.25 33.75 C115.5 25 103 20 88 20 L70.5 20 C59.6818 20 53 16.1818 53 10 C53 3.81818 90.6091 0 151.5 0 C212.391 0 250 3.81818 250 10 C250 16.1818 243.318 20 232.5 20 L215 20 C200 20 187.5 25 178.75 33.75 C161.803 50.6972 164.618 145.982 164 269 C163.382 392.018 234.713 378.742 350.375 233.875 C466.083 88.9502 540.436 -1 546 -1 C551.564 -1 555.955 98.2727 557.5 259 C559.045 419.727 559.521 536.219 576.125 550.25 C585 557.75 597 562 611 562 L628.5 562 C639.318 562 646 565.818 646 572 C646 578.182 608.391 582 547.5 582 C486.609 582 449 578.182 449 572 C449 565.818 455.682 562 466.5 562 L484 562 C499 562 511.5 557 520.25 548.25 C537.197 531.303 534.382 435.255 535 311 C535.618 186.745 469.099 200.511 359.875 346.375 C250.707 492.164 148.445 582 92.5 582 C36.5545 582 2 578.373 2 572.5 C2 566.627 8.68182 563 19.5 563 L19.5 563 Z " />
</font>
</svg>
