<?xml version="1.0" encoding="UTF-8"?>
<svg xmlns="http://www.w3.org/2000/svg" xmlns:xlink="http://www.w3.org/1999/xlink" version="1.2" >
<font id="Adallyn regular">
<font-face  font-family="Adallyn" units-per-em="1024" ascent="975" descent="-300" font-style="normal" font-weight="400" font-stretch="normal" cap-height="1044" x-height="488" underline-position="-125" underline-thickness="50" />
<missing-glyph  horiz-adv-x="100" d="" />
<glyph glyph-name="NULL" d="" />
<glyph glyph-name="CR" unicode="&#xd;" horiz-adv-x="256" d="" />
<glyph glyph-name="space" unicode="&#x20;" horiz-adv-x="250" d="" />
<glyph glyph-name="exclam" unicode="&#x21;" horiz-adv-x="244" d="M122 -5 C158 -5 182 19 182 55 C182 91 158 115 122 115 C86 115 62 91 62 55 C62 19 86 -5 122 -5 L122 -5 Z M122 755 C81 755 64 713 70 650 L114 210 L130 210 L174 650 C180 713 163 755 122 755 L122 755 Z " />
<glyph glyph-name="quotedbl" unicode="&#x22;" horiz-adv-x="325" d="M212 750 C193 750 181 732 187 705 L217 560 L227 560 L257 705 C263 732 252 750 232 750 L212 750 L212 750 Z M92 750 C73 750 61 732 67 705 L97 560 L107 560 L137 705 C143 732 132 750 112 750 L92 750 L92 750 Z " />
<glyph glyph-name="numbersign" unicode="&#x23;" horiz-adv-x="545" d="M390 667 L364 493 L227 493 L253 667 L219 667 L193 493 L67 493 L58 427 L183 427 L154 233 L26 233 L16 167 L144 167 L119 0 L153 0 L178 167 L315 167 L290 0 L324 0 L349 167 L468 167 L478 233 L359 233 L388 427 L516 427 L525 493 L398 493 L424 667 L390 667 L390 667 Z M217 427 L354 427 L325 233 L188 233 L217 427 L217 427 Z " />
<glyph glyph-name="dollar" unicode="&#x24;" horiz-adv-x="551" d="M68 0 C69 7 71 16 72 23 C78 55 109 60 148 34 L148 34 C170 20 194 9 219 1 L219 -75 L249 -75 L249 -6 C266 -9 282 -10 300 -10 L300 -75 L330 -75 L330 -8 C440 6 512 84 512 196 C512 291 450 378 330 424 L330 722 C377 702 420 648 440 581 C443 572 447 559 450 550 L472 550 L472 754 L455 754 C454 749 451 743 450 738 C444 715 419 711 388 728 L388 728 C370 738 351 746 330 751 L330 825 L300 825 L300 757 C284 759 268 760 251 760 L251 825 L221 825 L221 757 C127 742 66 668 66 563 C66 474 118 393 221 342 L221 35 C220 36 207 40 207 41 C156 62 107 129 84 209 C81 219 78 231 75 241 L52 241 L52 1 L68 0 L68 0 Z M251 329 C268 322 286 316 301 309 L301 23 C283 22 267 24 251 27 L251 329 L251 329 Z M331 294 C399 257 433 212 433 168 C433 95 393 42 331 27 L331 294 L331 294 Z M251 461 L251 735 C268 736 285 734 301 731 L301 436 C283 444 266 452 251 461 L251 461 Z M221 480 C171 516 145 559 145 601 C145 665 174 713 221 729 L221 480 L221 480 Z " />
<glyph glyph-name="percent" unicode="&#x25;" horiz-adv-x="801" d="M114 570 C114 669 136 735 170 735 C220 735 253 655 253 536 C253 444 227 383 189 383 C144 383 114 458 114 570 L114 570 Z M30 553 C30 434 91 355 182 355 C273 355 333 439 333 565 C333 682 273 760 182 760 C91 760 30 677 30 553 L30 553 Z M554 209 C554 306 579 370 616 370 C672 370 709 292 709 175 C709 81 679 18 635 18 C586 18 554 94 554 209 L554 209 Z M470 192 C470 71 533 -10 628 -10 C725 -10 789 76 789 204 C789 319 725 395 628 395 C533 395 470 314 470 192 L470 192 Z M201 -12 L666 738 L628 762 L163 12 L201 -12 L201 -12 Z " />
<glyph glyph-name="ampersand" unicode="&#x26;" horiz-adv-x="910" d="M326 465 C424 497 489 555 489 612 C489 701 419 761 315 761 C213 761 145 697 145 600 C145 560 181 509 238 440 C119 401 40 307 40 201 C40 76 122 -8 245 -8 C333 -8 424 40 507 125 C516 114 525 103 535 92 C585 32 651 -8 700 -8 C770 -8 824 54 835 148 L820 153 C813 98 779 61 735 61 C697 61 647 91 609 136 C593 155 578 173 563 190 C628 273 686 379 730 501 L710 501 C667 384 610 285 545 211 C391 394 363 422 326 467 L326 465 L326 465 Z M318 477 C258 550 220 603 220 646 C220 704 258 742 315 742 C378 742 420 692 420 618 C420 555 380 499 319 477 L318 477 L318 477 Z M485 152 C423 100 357 71 293 71 C194 71 128 133 128 226 C128 322 173 402 243 432 C290 375 313 353 483 151 L485 152 L485 152 Z " />
<glyph glyph-name="quotesingle" unicode="&#x27;" horiz-adv-x="204" d="M92 750 C73 750 61 732 67 705 L97 560 L107 560 L137 705 C143 732 132 750 112 750 L92 750 L92 750 Z " />
<glyph glyph-name="parenleft" unicode="&#x28;" horiz-adv-x="230" d="M209 760 C120 653 60 514 60 273 C60 32 120 -107 209 -214 L220 -205 C164 -138 126 -12 126 273 C126 558 164 684 220 751 L209 760 L209 760 Z " />
<glyph glyph-name="parenright" unicode="&#x29;" horiz-adv-x="175" d="M5 750 C65 711 105 520 105 273 C105 26 65 -165 5 -204 L10 -214 C103 -154 165 41 165 273 C165 505 103 700 10 760 L5 750 L5 750 Z " />
<glyph glyph-name="asterisk" unicode="&#x2a;" horiz-adv-x="296" d="M267 667 C286 674 293 689 283 707 C273 724 256 726 241 713 L153 636 L176 750 C180 770 170 783 150 783 C130 783 120 770 124 750 L147 636 L59 713 C44 726 27 724 17 707 C7 689 14 674 33 667 L143 630 L33 593 C14 586 7 571 17 554 C27 536 44 534 59 547 C51 561 33 593 33 593 L59 547 L147 624 L124 510 C120 490 130 477 150 477 C170 477 180 490 176 510 L153 624 L241 547 C256 534 273 536 283 554 C293 571 286 586 267 593 C267 593 249 561 241 547 L267 593 L157 630 L267 667 L267 667 Z " />
<glyph glyph-name="plus" unicode="&#x2b;" horiz-adv-x="620" d="M277 460 L277 280 L100 280 L100 220 L277 220 L277 40 L343 40 L343 220 L520 220 L520 280 L343 280 L343 460 L277 460 L277 460 Z " />
<glyph glyph-name="comma" unicode="&#x2c;" horiz-adv-x="265" d="M159 9 C160 1 160 -7 160 -15 C160 -63 122 -95 65 -95 L65 -115 C143 -115 195 -63 195 16 C195 75 167 115 125 115 C89 115 65 91 65 55 C65 19 89 -5 125 -5 C139 -5 151 0 160 9 L159 9 L159 9 Z " />
<glyph glyph-name="hyphen" unicode="&#x2d;" horiz-adv-x="430" d="M80 250 L350 250 L350 320 L80 320 L80 250 L80 250 Z " />
<glyph glyph-name="period" unicode="&#x2e;" horiz-adv-x="195" d="M125 -5 C161 -5 185 19 185 55 C185 91 161 115 125 115 C89 115 65 91 65 55 C65 19 89 -5 125 -5 L125 -5 Z " />
<glyph glyph-name="slash" unicode="&#x2f;" horiz-adv-x="389" d="M309 770 L27 -80 L77 -80 L359 770 L309 770 L309 770 Z " />
<glyph glyph-name="zero" unicode="0" horiz-adv-x="610" d="M85 250 C85 372 173 475 305 475 C424 475 525 385 525 250 C525 128 437 25 305 25 C186 25 85 115 85 250 L85 250 Z M45 250 C45 94 165 -10 305 -10 C461 -10 565 110 565 250 C565 406 445 510 305 510 C149 510 45 390 45 250 L45 250 Z " />
<glyph glyph-name="one" unicode="1" horiz-adv-x="365" d="M310 20 L275 20 C245 20 225 40 225 70 L225 430 C225 460 245 480 275 480 L310 480 L310 500 L55 500 L55 480 L90 480 C120 480 140 460 140 430 L140 70 C140 40 120 20 90 20 L55 20 L55 0 L310 0 L310 20 L310 20 Z " />
<glyph glyph-name="two" unicode="2" horiz-adv-x="541" d="M510 140 L502 130 C474 97 431 75 392 75 L168 75 C325 167 441 262 441 345 C441 444 373 510 270 510 C160 510 69 424 44 294 L61 290 C79 383 145 445 226 445 C304 445 356 397 356 325 C356 213 201 102 18 9 L28 1 C25 0 22 -1 19 -1 L431 -1 L478 74 C492 94 507 115 519 133 C517 135 511 139 511 139 L510 140 L510 140 Z " />
<glyph glyph-name="three" unicode="3" horiz-adv-x="434" d="M17 -215 L20 -232 C244 -208 394 -113 394 7 C394 109 308 177 171 187 C299 250 380 318 380 388 C380 462 315 512 217 512 C121 512 42 448 20 353 L39 348 C53 410 111 452 183 452 C247 452 289 415 289 359 C289 282 213 220 99 172 L99 155 C223 138 305 70 305 -15 C305 -116 190 -195 17 -213 L17 -215 L17 -215 Z " />
<glyph glyph-name="four" unicode="4" horiz-adv-x="620" d="M613 131 C613 133 595 135 595 135 L587 110 C580 83 556 65 529 65 L415 65 L415 530 L404 530 L15 15 L15 0 L330 0 L330 -220 L415 -220 L415 0 L520 0 C551 0 568 -21 568 -55 C568 -55 584 -58 587 -58 C596 5 604 67 613 131 L613 131 Z M92 64 L330 381 L330 65 L93 65 L92 64 L92 64 Z " />
<glyph glyph-name="five" unicode="5" horiz-adv-x="436" d="M367 555 L348 555 L344 545 C333 518 308 500 281 500 L86 500 L31 201 L47 187 L85 187 C233 187 331 121 331 21 C331 -102 222 -198 59 -218 L60 -234 C268 -209 406 -95 406 50 C406 186 281 277 94 277 L75 277 L102 424 L343 426 C351 473 358 516 366 555 L367 555 L367 555 Z " />
<glyph glyph-name="six" unicode="6" horiz-adv-x="568" d="M550 750 C250 686 50 503 50 291 C50 110 146 -10 290 -10 C425 -10 515 90 515 239 C515 375 427 466 295 466 C238 466 191 443 160 403 C215 570 359 697 553 738 L550 750 L550 750 Z M135 247 C135 364 195 442 286 442 C372 442 430 363 430 244 C430 107 372 16 285 16 C195 16 135 108 135 247 L135 247 Z " />
<glyph glyph-name="seven" unicode="7" horiz-adv-x="455" d="M104 554 C81 503 49 431 24 378 C28 376 40 371 40 371 L50 386 C68 413 97 431 124 431 L400 431 L109 -220 L174 -220 L449 485 L449 500 L153 500 C126 500 111 516 118 540 L119 547 C119 547 107 552 103 554 L104 554 L104 554 Z " />
<glyph glyph-name="eight" unicode="8" horiz-adv-x="543" d="M218 372 C227 367 237 363 247 359 C360 313 436 271 436 208 C436 89 370 10 271 10 C177 10 114 76 114 174 C114 259 155 334 219 371 L218 372 L218 372 Z M198 382 C102 332 41 253 41 173 C41 63 133 -11 272 -11 C411 -11 504 62 504 172 C504 299 436 364 331 414 C420 460 477 530 477 598 C477 695 394 760 270 760 C148 760 66 688 66 580 C66 499 117 430 198 384 L198 382 L198 382 Z M309 426 C300 430 290 434 280 438 C192 473 134 536 134 613 C134 695 195 749 286 749 C357 749 405 686 405 591 C405 523 368 460 310 426 L309 426 L309 426 Z " />
<glyph glyph-name="nine" unicode="9" horiz-adv-x="568" d="M18 -250 C318 -186 518 -3 518 209 C518 390 422 510 278 510 C143 510 53 410 53 261 C53 125 141 34 273 34 C330 34 377 57 408 97 C353 -70 209 -197 15 -238 L18 -250 L18 -250 Z M433 253 C433 136 373 58 282 58 C196 58 138 137 138 256 C138 393 196 484 283 484 C373 484 433 392 433 253 L433 253 Z " />
<glyph glyph-name="colon" unicode="&#x3a;" horiz-adv-x="135" d="M125 385 C161 385 185 409 185 445 C185 481 161 505 125 505 C89 505 65 481 65 445 C65 409 89 385 125 385 L125 385 Z M125 -5 C161 -5 185 19 185 55 C185 91 161 115 125 115 C89 115 65 91 65 55 C65 19 89 -5 125 -5 L125 -5 Z " />
<glyph glyph-name="semicolon" unicode="&#x3b;" horiz-adv-x="265" d="M125 385 C161 385 185 409 185 445 C185 481 161 505 125 505 C89 505 65 481 65 445 C65 409 89 385 125 385 L125 385 Z M159 9 C160 1 160 -7 160 -15 C160 -63 122 -95 65 -95 L65 -115 C143 -115 195 -63 195 16 C195 75 167 115 125 115 C89 115 65 91 65 55 C65 19 89 -5 125 -5 C139 -5 151 0 160 9 L159 9 L159 9 Z " />
<glyph glyph-name="equal" unicode="&#x3d;" horiz-adv-x="533" d="M83 219 L83 181 L463 181 L463 219 L83 219 L83 219 Z M83 319 L83 281 L463 281 L463 319 L83 319 L83 319 Z " />
<glyph glyph-name="question" unicode="&#x3f;" horiz-adv-x="299" d="M125 -5 C161 -5 185 19 185 55 C185 91 161 115 125 115 C89 115 65 91 65 55 C65 19 89 -5 125 -5 L125 -5 Z M125 210 L125 360 C218 360 251 394 285 444 C303 471 315 515 315 555 C315 678 247 760 145 760 C97 760 65 735 65 697 C65 672 83 655 111 655 C131 655 157 670 176 670 C244 670 289 620 289 545 C289 529 280 505 266 485 C248 458 222 440 97 440 C98 440 110 210 110 210 L125 210 L125 210 Z " />
<glyph glyph-name="at" unicode="&#x40;" horiz-adv-x="1160" d="M1041 0 C974 -143 794 -238 591 -238 C310 -238 122 -39 122 259 C122 556 305 754 580 754 C855 754 1038 590 1038 343 C1038 141 965 7 855 7 C760 7 716 84 745 200 L815 480 L735 480 L716 403 C699 457 651 490 585 490 C407 490 289 371 289 192 C289 82 360 8 466 8 C548 8 619 49 659 116 C669 31 735 -22 841 -22 C1000 -22 1106 124 1106 343 C1106 604 896 778 581 778 C266 778 56 570 56 259 C56 -48 278 -253 611 -253 C816 -253 999 -152 1070 0 L1041 0 L1041 0 Z M705 356 L666 200 C644 113 582 55 511 55 C434 55 383 116 383 208 C383 363 463 466 584 466 C657 466 705 422 705 356 L705 356 Z " />
<glyph glyph-name="A" unicode="A" horiz-adv-x="796" d="M305 0 L305 25 L278 25 C222 25 194 60 207 114 L259 279 L510 279 L560 120 C576 63 548 25 490 25 L463 25 L463 0 L790 0 L790 25 L776 25 C728 25 684 63 664 120 C595 337 526 554 457 771 L447 771 C451 748 421 728 373 721 C374 718 375 714 376 711 C312 516 248 321 183 126 C163 66 110 26 50 26 L15 26 L15 1 L305 0 L305 0 Z M268 306 L386 679 L503 306 L268 306 L268 306 Z " />
<glyph glyph-name="B" unicode="B" horiz-adv-x="685" d="M334 9 L284 9 C261 9 245 42 245 91 L245 385 L325 385 C451 385 535 311 535 201 C535 45 455 9 334 9 L334 9 Z M365 0 C533 0 645 38 645 201 C645 305 570 379 452 398 C554 423 617 486 617 570 C617 678 562 750 330 750 L60 750 L60 725 L95 725 C125 725 145 705 145 675 L145 75 C145 45 125 25 95 25 L60 25 L60 0 L365 0 L365 0 Z M335 402 L245 402 L245 730 L290 730 C474 730 517 662 517 560 C517 465 444 402 335 402 L335 402 Z " />
<glyph glyph-name="C" unicode="C" horiz-adv-x="740" d="M698 0 L698 224 L676 224 C673 216 669 204 666 196 C645 134 603 78 558 50 C517 27 470 14 414 14 C262 14 161 159 161 376 C161 592 267 736 425 736 C476 736 516 726 550 709 L550 709 C597 686 644 624 667 555 C670 547 674 535 677 527 L699 527 L699 748 L682 748 C681 742 678 735 677 729 C670 700 642 694 607 716 L607 716 C561 744 502 761 415 761 C197 761 51 607 51 376 C51 145 192 -9 404 -9 C489 -9 553 8 604 38 L604 38 C641 60 670 53 677 22 C678 16 681 7 682 1 L698 0 L698 0 Z M684 133 L684 133 L684 133 L684 133 Z " />
<glyph glyph-name="D" unicode="D" horiz-adv-x="812" d="M295 20 C250 20 245 44 245 80 L245 730 L285 730 C551 730 688 588 688 375 C688 141 531 20 295 20 L295 20 Z M60 730 L95 730 C125 730 145 710 145 680 L145 70 C145 40 125 20 95 20 L60 20 L60 0 L325 0 C609 0 798 128 798 375 C798 600 651 750 365 750 L60 750 L60 730 L60 730 Z " />
<glyph glyph-name="E" unicode="E" horiz-adv-x="652" d="M555 750 L40 750 L40 730 L75 730 C117 730 145 702 145 660 L145 90 C145 48 117 20 75 20 L40 20 L40 0 L580 0 L582 10 L582 10 C589 51 599 105 606 146 L589 146 L582 126 C556 63 497 21 434 21 L325 21 C253 21 245 45 245 80 L245 385 L370 385 C418 385 457 353 467 305 L478 250 L495 250 L495 544 L478 544 L467 489 C457 441 418 409 370 409 L245 409 L245 729 L433 729 C481 729 524 697 540 649 L558 594 L575 594 C569 635 560 688 555 731 L555 750 L555 750 Z " />
<glyph glyph-name="F" unicode="F" horiz-adv-x="627" d="M40 730 L75 730 C117 730 145 702 145 660 L145 90 C145 48 117 20 75 20 L40 20 L40 0 L350 0 L350 20 L315 20 C273 20 245 48 245 90 L245 385 L360 385 C408 385 447 353 457 305 L468 250 L485 250 L485 544 L468 544 L457 489 C447 441 408 409 360 409 L245 409 L245 733 L432 733 C480 733 523 701 539 653 L557 598 L574 598 C568 644 561 704 555 750 L40 750 L40 730 L40 730 Z " />
<glyph glyph-name="G" unicode="G" horiz-adv-x="817" d="M681 747 C680 741 677 734 676 728 C669 699 641 693 606 715 L606 715 C560 743 501 760 414 760 C196 760 50 606 50 375 C50 144 195 -10 412 -10 C562 -10 663 18 752 59 L745 74 C723 64 700 55 675 47 L675 216 C675 267 707 301 756 301 L770 301 L770 326 L480 326 L480 301 L494 301 C543 301 575 267 575 216 C576 216 576 119 576 111 C574 51 516 12 429 12 C268 12 161 158 161 377 C161 593 267 737 425 737 C476 737 516 727 550 710 L550 710 C597 687 644 625 667 556 C670 548 674 536 677 528 L699 528 L699 749 L681 747 L681 747 Z " />
<glyph glyph-name="H" unicode="H" horiz-adv-x="861" d="M801 20 L766 20 C736 20 716 40 716 70 L716 680 C716 710 736 730 766 730 L801 730 L801 750 L531 750 L531 730 L566 730 C596 730 616 710 616 680 L616 409 L281 409 L281 680 C281 710 301 730 331 730 L366 730 L366 750 L96 750 L96 730 L131 730 C161 730 181 710 181 680 L181 70 C181 40 161 20 131 20 L96 20 L96 0 L366 0 L366 20 L331 20 C301 20 281 40 281 70 L281 383 L616 383 L616 70 C616 40 596 20 566 20 L531 20 L531 0 L801 0 L801 20 L801 20 Z " />
<glyph glyph-name="I" unicode="I" horiz-adv-x="385" d="M325 20 L290 20 C260 20 240 40 240 70 L240 680 C240 710 260 730 290 730 L325 730 L325 750 L55 750 L55 730 L90 730 C120 730 140 710 140 680 L140 70 C140 40 120 20 90 20 L55 20 L55 0 L325 0 L325 20 L325 20 Z " />
<glyph glyph-name="J" unicode="J" horiz-adv-x="385" d="M325 750 L55 750 L55 730 L90 730 C120 730 140 710 140 680 L140 -72 C140 -167 82 -185 40 -185 C-9 -185 15 -105 -35 -105 C-62 -105 -80 -123 -80 -150 C-80 -192 -42 -220 15 -220 C110 -220 240 -166 240 116 L240 680 C240 710 260 730 290 730 L325 730 L325 750 L325 750 Z " />
<glyph glyph-name="K" unicode="K" horiz-adv-x="775" d="M330 750 L60 750 L60 730 L95 730 C125 730 145 710 145 680 L145 70 C145 40 125 20 95 20 L60 20 L60 0 L330 0 L330 20 L295 20 C265 20 245 40 245 70 L245 375 L560 0 L758 0 L758 20 L723 20 C695 20 661 38 636 65 L323 437 L524 672 C557 707 602 730 639 730 L679 730 L679 750 L396 750 L396 730 L435 730 C495 730 502 690 453 630 L245 375 L245 680 C245 710 265 730 295 730 L330 730 L330 750 L330 750 Z " />
<glyph glyph-name="L" unicode="L" horiz-adv-x="650" d="M325 750 L55 750 L55 730 L90 730 C120 730 140 710 140 680 L140 70 C140 40 120 20 90 20 L55 20 L55 0 L575 0 L577 8 L577 8 C584 48 594 102 601 142 L584 142 L577 122 C551 59 492 17 429 17 L320 17 C248 17 240 42 240 80 L240 680 C240 710 260 730 290 730 L325 730 L325 750 L325 750 Z " />
<glyph glyph-name="M" unicode="M" horiz-adv-x="900" d="M865 750 L685 750 L478 130 L251 750 L54 750 L54 730 L89 730 C114 730 138 716 152 694 L133 61 C128 37 109 21 83 21 L48 21 L48 1 L252 1 L252 21 L217 21 C189 21 170 38 168 64 L178 637 C264 425 350 213 436 1 L461 1 L688 657 C693 462 698 266 702 71 C703 41 683 21 653 21 L619 21 L619 1 L888 1 L888 21 L853 21 C823 21 803 41 802 71 L802 71 L782 687 C784 714 803 732 831 732 L865 732 L865 750 L865 750 Z " />
<glyph glyph-name="N" unicode="N" horiz-adv-x="763" d="M69 0 L269 0 L269 20 L234 20 C204 20 184 40 184 70 L184 70 L181 612 C330 408 479 204 629 0 L649 0 L656 686 C659 712 679 729 707 729 L742 729 L742 749 L542 749 L542 729 L577 729 C607 729 627 709 627 679 L627 679 L628 170 C486 363 345 557 204 750 L10 750 L10 730 L45 730 C75 730 109 710 131 680 L131 680 L155 648 L154 70 C154 40 134 20 104 20 L69 20 L69 0 L69 0 Z " />
<glyph glyph-name="O" unicode="O" horiz-adv-x="825" d="M133 375 C133 591 235 735 388 735 C552 735 661 591 661 375 C661 159 551 15 387 15 C235 15 133 159 133 375 L133 375 Z M24 375 C24 144 167 -10 382 -10 C615 -10 770 144 770 375 C770 606 619 760 392 760 C171 760 24 606 24 375 L24 375 Z " />
<glyph glyph-name="P" unicode="P" horiz-adv-x="589" d="M316 20 L281 20 C251 20 231 40 231 70 L231 344 L281 344 C454 344 569 404 569 539 C569 666 474 750 331 750 L46 750 L46 730 L81 730 C111 730 131 710 131 680 L131 70 C131 40 111 20 81 20 L46 20 L46 0 L316 0 L316 20 L316 20 Z M231 365 L231 733 L306 733 C408 733 476 662 476 555 C476 424 398 365 281 365 L231 365 L231 365 Z " />
<glyph glyph-name="Q" unicode="Q" horiz-adv-x="846" d="M1146 -41 L1139 -33 C1105 -62 976 -81 818 -81 C630 -81 455 -52 357 -7 C373 -9 390 -10 407 -10 C640 -10 795 144 795 375 C795 606 644 760 417 760 C196 760 49 606 49 375 C49 210 122 84 242 26 L242 26 C408 -88 632 -165 803 -165 C920 -165 1057 -115 1146 -41 L1146 -41 Z M159 375 C159 591 261 735 414 735 C578 735 687 591 687 375 C687 151 566 2 385 2 C249 2 159 151 159 375 L159 375 Z " />
<glyph glyph-name="R" unicode="R" horiz-adv-x="796" d="M60 730 L95 730 C125 730 145 710 145 680 L145 70 C145 40 125 20 95 20 L60 20 L60 0 L330 0 L330 20 L295 20 C265 20 245 40 245 70 L245 355 L346 355 C367 319 437 216 533 81 C588 4 598 1 785 1 L785 21 C696 21 691 23 650 81 C552 219 479 322 448 365 C548 386 610 442 610 539 C610 666 506 751 349 751 L59 751 L60 730 L60 730 Z M244 381 L244 731 L319 731 C427 731 499 662 499 559 C499 436 439 381 349 381 L244 381 L244 381 Z " />
<glyph glyph-name="S" unicode="S" horiz-adv-x="551" d="M68 0 C69 7 71 16 72 23 C78 55 109 60 148 34 L148 34 C191 6 241 -10 292 -10 C423 -10 511 72 511 196 C511 293 447 382 322 427 C204 470 143 536 143 601 C143 681 188 735 256 735 C274 735 292 733 309 729 C364 717 416 657 439 581 C442 572 446 559 449 550 L471 550 L471 754 L454 754 C453 749 450 743 449 738 C443 715 418 711 387 728 L387 728 C349 748 304 760 256 760 C141 760 64 681 64 563 C64 462 131 371 262 323 C374 282 431 224 431 167 C431 80 375 22 292 22 C262 22 232 28 204 39 L204 39 C153 60 104 127 81 207 C78 217 75 229 72 239 L49 239 L49 -1 L68 0 L68 0 Z " />
<glyph glyph-name="T" unicode="T" horiz-adv-x="788" d="M-5 600 L12 600 L38 640 C69 691 125 725 176 725 L338 725 L338 70 C338 40 318 20 288 20 L253 20 L253 0 L523 0 L523 20 L488 20 C458 20 438 40 438 70 L438 725 L599 725 C650 725 706 691 737 640 L763 600 L780 600 C766 633 759 651 720 749 L720 750 L720 750 C714 765 707 782 702 795 L690 795 L686 788 C671 765 628 750 579 750 L196 750 C147 750 104 765 89 788 L85 795 L73 795 C47 732 21 664 -5 601 L-5 600 L-5 600 Z " />
<glyph glyph-name="U" unicode="U" horiz-adv-x="760" d="M730 36 L730 56 L695 46 C665 38 645 53 645 83 L645 750 L460 750 L460 730 L495 730 C525 730 545 710 545 680 L545 190 C507 108 423 54 334 54 C260 54 210 120 210 220 L210 750 L25 750 L25 730 L60 730 C90 730 110 710 110 680 L110 220 C110 82 184 -10 294 -10 C401 -10 502 52 545 145 L545 0 L595 0 C638 11 690 26 730 37 L730 36 L730 36 Z " />
<glyph glyph-name="V" unicode="V" horiz-adv-x="832" d="M118 635 C205 420 292 205 379 -10 L399 -10 L655 637 C680 690 724 725 767 725 L780 725 L780 750 L510 750 L510 725 L551 725 C609 725 634 688 617 632 L433 135 L232 634 C214 688 239 724 296 724 L321 724 L321 749 L6 749 L6 724 L17 724 C54 724 93 688 118 634 L118 635 L118 635 Z " />
<glyph glyph-name="W" unicode="W" horiz-adv-x="1161" d="M529 645 L529 645 L585 499 L440 120 L248 645 L249 645 C231 693 251 725 299 725 L320 725 L320 750 L35 750 L35 725 L46 725 C84 725 122 693 140 645 L140 645 C224 427 308 209 392 -9 L417 -9 L602 458 C662 302 722 146 782 -9 L807 -9 L1001 646 C1015 694 1057 726 1105 726 L1120 726 L1120 751 L848 751 L848 726 L906 726 C952 726 975 696 965 651 L823 139 L638 650 C623 696 643 726 690 726 L731 726 L731 751 L421 751 L421 726 L433 726 C473 726 513 694 531 646 L529 645 L529 645 Z " />
<glyph glyph-name="X" unicode="X" horiz-adv-x="840" d="M778 750 L528 750 L528 730 L584 730 C617 730 623 708 600 675 L600 675 L424 425 L257 683 C242 712 251 731 281 731 L318 731 L318 751 L38 751 L38 731 L53 731 C86 731 122 709 143 676 L143 676 L352 352 C285 260 219 168 152 76 C128 43 90 21 57 21 L17 21 L17 1 L263 1 L263 21 L207 21 C177 21 168 40 185 69 L365 332 L535 69 C551 40 542 21 511 21 L474 21 L474 1 L755 1 L755 21 L740 21 C707 21 671 43 650 76 L650 76 L437 406 L646 682 C671 712 707 731 738 731 L778 731 L778 750 L778 750 Z " />
<glyph glyph-name="Y" unicode="Y" horiz-adv-x="787" d="M291 750 L11 750 L11 730 L26 730 C59 730 95 708 116 675 L116 675 L342 322 L342 90 C342 48 314 20 272 20 L237 20 L237 0 L547 0 L547 20 L512 20 C470 20 442 48 442 90 L442 325 C506 442 570 559 635 675 C653 708 687 730 720 730 L760 730 L760 750 L501 750 L501 730 L561 730 C594 730 605 708 589 675 L432 356 C366 462 299 569 233 675 C212 708 220 730 253 730 L291 730 L291 750 L291 750 Z " />
<glyph glyph-name="Z" unicode="Z" horiz-adv-x="652" d="M642 155 L625 155 L616 134 C589 75 534 34 475 28 L143 22 L610 730 L610 750 L70 750 L69 736 C69 736 64 680 57 597 L74 597 L80 618 C99 681 155 723 218 724 L502 728 L25 20 L25 0 L606 0 C606 0 630 104 642 155 L642 155 Z " />
<glyph glyph-name="bracketleft" unicode="&#x5b;" horiz-adv-x="295" d="M135 725 L345 725 L345 750 L105 750 L105 -195 L345 -195 L345 -170 L135 -170 L135 725 L135 725 Z " />
<glyph glyph-name="backslash" unicode="&#x5c;" horiz-adv-x="347" d="M27 770 L287 -80 L337 -80 L77 770 L27 770 L27 770 Z " />
<glyph glyph-name="bracketright" unicode="&#x5d;" horiz-adv-x="298" d="M158 725 L158 -170 L-52 -170 L-52 -195 L188 -195 L188 750 L-52 750 L-52 725 L158 725 L158 725 Z " />
<glyph glyph-name="asciicircum" unicode="&#x5e;" horiz-adv-x="340" d="M200 755 C194 764 180 785 170 785 C160 785 146 764 140 755 L18 566 L30 556 L170 695 L310 556 L322 566 L200 755 L200 755 Z " />
<glyph glyph-name="underscore" unicode="&#x5f;" horiz-adv-x="455" d="M5 -50 L5 -97 L450 -97 L450 -50 L5 -50 L5 -50 Z " />
<glyph glyph-name="grave" unicode="&#x60;" horiz-adv-x="340" d="M-34 746 C-34 738 -8 714 30 682 L172 562 L183 573 L69 721 C39 761 16 788 8 788 C-15 788 -34 769 -34 746 L-34 746 Z " />
<glyph glyph-name="a" unicode="a" horiz-adv-x="514" d="M524 102 L509 109 C503 77 482 56 455 56 C422 56 400 74 400 102 L400 355 C400 462 344 510 259 510 C143 510 65 414 65 360 C65 324 85 300 114 300 C141 300 159 325 159 343 C159 361 139 385 139 403 C139 432 175 484 229 484 C281 484 316 454 316 386 C316 385 316 328 316 265 C98 198 46 173 46 89 C46 30 91 -9 159 -9 C200 -9 252 17 317 84 C325 31 365 -4 421 -4 C472 -4 514 39 525 103 L524 102 L524 102 Z M316 246 C316 175 316 104 316 104 C269 56 232 38 204 38 C160 38 131 63 131 100 C131 181 167 202 316 248 L316 246 L316 246 Z " />
<glyph glyph-name="b" unicode="b" horiz-adv-x="573" d="M12 710 L32 710 C57 709 74 692 76 668 L74 125 L74 125 L74 75 L74 0 L79 0 L109 64 C149 18 215 -10 290 -10 C432 -10 527 95 527 253 C527 404 436 505 300 505 C248 505 194 479 159 438 L159 750 L117 750 L116 749 C84 741 42 730 11 721 L12 710 L12 710 Z M159 109 L159 412 C188 447 229 469 265 469 C365 469 431 378 431 241 C431 101 377 8 295 8 C236 8 183 48 159 110 L159 109 L159 109 Z " />
<glyph glyph-name="c" unicode="c" horiz-adv-x="503" d="M473 128 L461 133 C437 78 377 42 311 42 C204 42 133 134 133 273 C133 404 197 491 292 491 C331 491 369 457 388 405 C397 380 414 363 431 363 C465 363 482 380 473 405 C450 468 380 510 297 510 C146 510 45 400 45 236 C45 88 139 -10 281 -10 C359 -10 436 45 473 128 L473 128 Z " />
<glyph glyph-name="d" unicode="d" horiz-adv-x="600" d="M350 709 L370 709 C397 708 415 689 415 662 L415 477 C378 497 331 510 280 510 C125 510 45 406 45 251 C45 97 130 -5 257 -5 C319 -5 381 23 415 66 L415 0 L457 0 L457 -1 C470 3 485 7 500 11 L500 11 L500 11 C529 19 560 27 585 34 L585 54 L550 44 C520 36 500 51 500 81 L500 750 L458 750 C444 747 428 743 414 739 C391 733 368 727 349 722 L350 709 L350 709 Z M414 376 L414 97 C383 57 335 31 291 31 C195 31 131 129 131 275 C131 402 185 486 289 486 C344 486 396 435 414 376 L414 376 Z " />
<glyph glyph-name="e" unicode="e" horiz-adv-x="522" d="M122 340 L492 340 C470 462 390 510 283 510 C129 510 27 432 27 231 C27 86 120 -10 260 -10 C361 -10 449 47 480 133 L469 136 C449 82 374 46 280 46 C182 46 117 134 117 266 C117 293 119 318 123 340 L122 340 L122 340 Z M394 364 L127 360 C148 453 203 491 278 491 C330 491 372 455 393 364 L394 364 L394 364 Z " />
<glyph glyph-name="f" unicode="f" horiz-adv-x="368" d="M270 20 L220 20 C211 20 205 26 205 35 L205 455 L358 455 L358 500 L205 500 C205 637 241 729 310 729 C353 729 394 635 430 635 C457 635 475 653 475 680 C475 725 421 755 340 755 C195 755 120 653 120 500 L26 465 L26 455 L120 455 L120 35 C120 26 114 20 105 20 L55 20 L55 0 L270 0 L270 20 L270 20 Z " />
<glyph glyph-name="g" unicode="g" horiz-adv-x="520" d="M541 479 C541 510 519 530 486 530 C452 530 415 503 391 461 C359 492 312 510 255 510 C147 510 75 446 75 350 C75 277 115 222 181 199 C103 186 55 151 55 104 C55 53 87 16 138 4 C81 -14 44 -52 44 -95 C44 -176 132 -230 264 -230 C396 -230 484 -165 484 -68 C484 23 432 84 298 84 L180 84 C134 84 103 102 103 130 C103 165 163 188 254 188 C362 188 434 253 434 350 C434 389 422 423 401 449 C413 466 426 477 436 477 C457 477 484 442 505 442 C527 442 541 457 541 479 L541 479 Z M255 208 C198 208 160 265 160 350 C160 434 198 490 255 490 C312 490 350 434 350 350 C350 265 312 208 255 208 L255 208 Z M159 1 C165 0 171 0 177 0 L291 0 C380 0 414 -35 414 -88 C414 -162 356 -211 270 -211 C178 -211 116 -157 116 -75 C116 -42 133 -14 159 1 L159 1 Z " />
<glyph glyph-name="h" unicode="h" horiz-adv-x="589" d="M19 710 L39 709 C66 709 84 689 84 662 L84 35 C84 26 78 20 69 20 L19 20 L19 0 L234 0 L234 20 L184 20 C175 20 169 26 169 35 L169 360 C200 414 259 450 316 450 C377 450 409 402 409 330 L409 35 C409 26 403 20 394 20 L344 20 L344 0 L559 0 L559 20 L509 20 C500 20 494 26 494 35 L494 330 C494 438 450 510 364 510 C290 510 212 460 169 385 L169 751 L127 751 C95 742 51 731 19 722 L19 710 L19 710 Z " />
<glyph glyph-name="i" unicode="i" horiz-adv-x="274" d="M137 615 C170 615 192 637 192 670 C192 703 170 725 137 725 C104 725 82 703 82 670 C82 637 104 615 137 615 L137 615 Z M29 460 L49 459 C76 459 94 439 94 412 L94 35 C94 26 88 20 79 20 L29 20 L29 0 L244 0 L244 20 L194 20 C185 20 179 26 179 35 L179 501 L137 501 C105 492 61 481 29 472 L29 460 L29 460 Z " />
<glyph glyph-name="j" unicode="j" horiz-adv-x="270" d="M138 615 C171 615 193 637 193 670 C193 703 171 725 138 725 C105 725 83 703 83 670 C83 637 105 615 138 615 L138 615 Z M30 460 L50 459 C77 459 95 439 95 412 L95 50 C95 -33 74 -101 43 -119 C12 -119 -29 -100 -60 -100 C-87 -100 -105 -116 -105 -140 C-105 -169 -81 -187 -45 -185 C-38 -185 4 -163 60 -130 C132 -88 180 -16 180 50 L180 500 L139 500 C92 490 62 481 30 472 L30 460 L30 460 Z " />
<glyph glyph-name="k" unicode="k" horiz-adv-x="564" d="M547 500 L277 500 L277 480 L326 480 C383 480 376 444 310 389 L170 280 C170 441 169 598 169 739 L169 751 L127 751 C95 742 51 731 19 722 L19 710 L39 709 C66 709 84 689 84 662 L84 35 C84 26 78 20 69 20 L19 20 L19 0 L234 0 L234 20 L184 20 C176 20 170 25 169 32 C170 114 170 197 170 279 L359 54 C377 28 365 19 339 19 L339 -1 L547 -1 L547 19 C515 19 484 36 456 69 L456 69 L251 315 C294 348 336 381 379 414 C429 453 488 479 527 479 L547 479 L547 500 L547 500 Z " />
<glyph glyph-name="l" unicode="l" horiz-adv-x="264" d="M20 711 L40 711 C66 710 84 692 85 666 C85 464 84 142 84 36 C84 27 78 21 69 21 L19 21 L19 1 L234 1 L234 21 L184 21 C175 21 169 27 169 36 L169 751 L127 751 C95 742 52 733 20 724 L20 711 L20 711 Z " />
<glyph glyph-name="m" unicode="m" horiz-adv-x="874" d="M19 460 L39 459 C66 459 84 439 84 412 L84 35 C84 26 78 20 69 20 L19 20 L19 0 L234 0 L234 20 L184 20 C175 20 169 26 169 35 L169 365 C197 414 251 447 302 447 C365 447 389 400 389 330 L389 35 C389 26 383 20 374 20 L324 20 L324 0 L539 0 L539 20 L489 20 C480 20 474 26 474 35 L474 330 C474 344 473 357 472 370 C501 416 555 447 607 447 C670 447 694 400 694 330 L694 35 C694 26 688 20 679 20 L629 20 L629 0 L844 0 L844 20 L794 20 C785 20 779 26 779 35 L779 330 C779 438 741 510 642 510 C580 510 511 462 469 390 C456 464 416 510 337 510 C278 510 211 462 169 390 L169 500 L127 500 L124 498 C92 491 51 480 20 471 L19 460 L19 460 Z " />
<glyph glyph-name="n" unicode="n" horiz-adv-x="569" d="M19 461 L39 460 C66 460 84 440 84 413 L84 35 C84 26 78 20 69 20 L19 20 L19 0 L234 0 L234 20 L184 20 C175 20 169 26 169 35 L169 360 C199 413 246 448 286 448 C354 448 389 401 389 330 L389 35 C389 26 383 20 374 20 L324 20 L324 0 L539 0 L539 20 L489 20 C480 20 474 26 474 35 L474 330 C474 438 427 510 337 510 C280 510 212 460 169 385 L169 500 L127 500 C95 491 51 482 19 473 L19 461 L19 461 Z " />
<glyph glyph-name="o" unicode="o" horiz-adv-x="586" d="M121 250 C121 390 188 484 289 484 C390 484 457 390 457 250 C457 110 390 16 289 16 C188 16 121 110 121 250 L121 250 Z M27 250 C27 94 132 -10 289 -10 C446 -10 550 94 550 250 C550 406 446 510 289 510 C132 510 27 406 27 250 L27 250 Z " />
<glyph glyph-name="p" unicode="p" horiz-adv-x="571" d="M4 461 L24 460 C51 460 69 440 69 413 L69 -185 C69 -194 63 -200 54 -200 L4 -200 L4 -220 L219 -220 L219 -200 L169 -200 C160 -200 154 -194 154 -185 L154 29 C189 7 232 -5 278 -5 C427 -5 526 116 526 257 C526 409 437 510 303 510 C244 510 186 483 154 441 L154 501 L112 501 C80 492 36 483 4 474 L4 461 L4 461 Z M154 131 L154 407 C183 449 225 476 262 476 C364 476 432 378 432 231 C432 115 372 17 282 17 C226 17 174 63 153 131 L154 131 L154 131 Z " />
<glyph glyph-name="q" unicode="q" horiz-adv-x="551" d="M546 -200 L496 -200 C487 -200 481 -194 481 -185 L481 500 L476 500 L448 440 L446 438 C408 483 347 510 279 510 C115 510 31 406 31 251 C31 97 118 -5 248 -5 C303 -5 360 21 395 62 L395 -185 C395 -194 389 -200 380 -200 L330 -200 L330 -220 L545 -220 L546 -200 L546 -200 Z M395 390 L395 92 C364 54 321 30 283 30 C184 30 118 128 118 275 C118 405 171 491 273 491 C324 491 372 451 395 389 L395 390 L395 390 Z " />
<glyph glyph-name="r" unicode="r" horiz-adv-x="420" d="M21 461 L41 461 C67 460 85 442 86 416 C86 289 86 109 86 34 C86 25 80 19 71 19 L21 19 L21 -1 L236 -1 L236 19 L186 19 C177 19 171 25 171 34 L171 356 C194 424 235 469 276 469 C297 469 311 455 311 434 C311 404 331 384 361 384 C391 384 411 404 411 434 C411 479 373 509 316 509 C252 509 196 466 172 400 L172 499 L130 499 C98 490 55 481 23 472 L21 461 L21 461 Z " />
<glyph glyph-name="s" unicode="s" horiz-adv-x="428" d="M353 342 L353 510 L340 510 C339 506 337 502 336 498 C333 487 306 488 267 499 C247 506 226 510 204 510 C117 510 59 458 59 380 C59 305 107 243 199 218 C274 198 313 155 313 106 C313 32 247 -9 174 18 C127 35 89 90 78 156 C77 162 75 171 74 177 L60 177 L60 -1 L74 -1 C75 3 76 8 77 12 C81 26 109 23 149 5 L149 5 C171 -5 194 -10 218 -10 C314 -10 378 46 378 130 C378 199 330 257 237 282 C159 303 119 352 119 409 C119 470 172 501 237 486 C285 474 324 425 335 363 C336 357 337 348 338 342 L353 342 L353 342 Z " />
<glyph glyph-name="t" unicode="t" horiz-adv-x="378" d="M333 500 L180 500 L180 620 L174 620 L30 466 L30 456 L95 456 L95 160 C95 38 150 -10 232 -10 C290 -10 345 32 368 96 L358 100 C343 58 303 30 258 30 C210 30 178 61 178 141 L180 455 L333 455 L333 500 L333 500 Z " />
<glyph glyph-name="u" unicode="u" horiz-adv-x="560" d="M545 51 L520 44 C490 36 470 51 470 81 L470 500 L320 500 L320 480 L370 480 C379 480 385 474 385 465 L385 144 C359 86 309 48 257 48 C202 48 165 92 165 159 L165 499 L15 499 L15 479 L65 479 C74 479 80 473 80 464 L80 159 C80 57 135 -11 217 -11 C286 -11 352 40 385 118 L385 -1 L427 -1 L427 -2 C440 2 455 6 470 10 C496 17 523 24 545 30 L545 51 L545 51 Z " />
<glyph glyph-name="v" unicode="v" horiz-adv-x="556" d="M526 500 L364 500 L364 480 C398 480 415 466 406 431 L302 122 C265 223 227 324 191 424 C179 457 190 479 219 479 L228 479 L228 499 L12 499 L12 479 C53 479 83 462 97 424 L98 424 L258 -11 L283 -11 C336 134 388 280 442 424 C456 462 486 479 527 479 L526 500 L526 500 Z " />
<glyph glyph-name="w" unicode="w" horiz-adv-x="864" d="M815 500 L653 500 L653 480 L662 480 C691 480 703 458 691 425 L691 425 L536 -10 L561 -10 L730 427 C745 464 774 480 814 480 L815 500 L815 500 Z M247 500 L29 500 L29 480 C69 480 99 464 114 428 L277 -11 L302 -11 L422 304 L535 -11 L582 122 C546 223 510 324 474 424 C462 457 474 479 503 479 L512 479 L512 499 L294 499 L294 479 C334 479 363 463 378 427 L406 348 L324 119 L210 425 C199 457 210 478 239 478 L248 478 L247 500 L247 500 Z " />
<glyph glyph-name="x" unicode="x" horiz-adv-x="565" d="M531 500 L377 500 L377 480 L385 480 C428 480 390 425 390 425 L307 305 L230 431 C214 461 219 481 245 481 L253 481 L253 501 L31 501 L31 481 C73 481 108 464 131 426 L131 426 L249 235 L129 74 C101 38 67 21 26 21 L26 1 L180 1 L180 21 L172 21 C146 21 144 43 166 76 L261 216 L351 70 C367 40 362 20 336 20 L328 20 L328 0 L550 0 L550 20 C508 20 473 37 450 75 L450 75 L321 285 C356 332 391 379 426 425 C454 462 489 480 531 480 L531 500 L531 500 Z " />
<glyph glyph-name="y" unicode="y" horiz-adv-x="558" d="M546 500 L384 500 L384 480 L393 480 C422 480 435 458 424 425 L424 425 L323 118 L190 434 C180 467 196 480 227 480 L227 500 L12 500 L12 480 C53 480 84 463 100 425 L100 425 L278 1 C257 -51 238 -104 218 -156 C209 -179 195 -194 191 -194 C169 -194 164 -165 141 -165 C114 -165 96 -183 96 -210 C96 -240 116 -260 146 -260 C172 -260 218 -223 239 -167 L299 -10 C353 138 407 285 461 433 C477 466 505 480 543 480 L546 500 L546 500 Z " />
<glyph glyph-name="z" unicode="z" horiz-adv-x="475" d="M301 27 L144 23 L435 480 L435 500 L122 500 C104 500 93 511 94 527 L96 532 L74 532 C55 467 61 487 30 373 L49 373 L58 387 C84 434 131 467 178 473 L332 477 L39 20 L39 0 L429 0 C431 0 438 59 445 128 L426 128 L420 113 C398 63 350 29 299 27 L301 27 L301 27 Z " />
<glyph glyph-name="braceleft" unicode="&#x7b;" horiz-adv-x="249" d="M244 750 L204 750 C124 750 70 698 70 619 L70 383 C70 340 49 317 15 317 L15 303 C49 303 70 277 70 230 L70 1 C70 -78 124 -130 204 -130 L244 -130 L244 -116 L223 -116 C171 -116 136 -69 136 1 L136 182 C136 251 106 300 59 310 C106 320 136 366 136 431 L137 620 C137 690 171 737 223 737 L244 737 L244 750 L244 750 Z " />
<glyph glyph-name="bar" unicode="&#x7c;" horiz-adv-x="186" d="M60 800 L60 -250 L126 -250 L126 800 L60 800 L60 800 Z " />
<glyph glyph-name="braceright" unicode="&#x7d;" horiz-adv-x="249" d="M5 750 L5 736 L26 736 C78 736 112 689 112 619 L113 430 C113 365 143 319 190 309 C143 299 113 250 113 181 L113 0 C113 -70 78 -117 26 -117 L5 -117 L5 -131 L45 -131 C125 -131 179 -79 179 0 L179 229 C179 277 200 302 234 302 L234 316 C200 316 179 339 179 382 L179 618 C179 697 125 749 45 749 L5 750 L5 750 Z " />
<glyph glyph-name="asciitilde" unicode="&#x7e;" horiz-adv-x="340" d="M30 310 C30 346 46 370 71 370 C123 370 192 305 244 305 C293 305 325 353 325 425 L310 425 C310 389 292 365 264 365 C212 365 143 430 91 430 C45 430 15 382 15 310 L30 310 L30 310 Z " />
<glyph glyph-name="exclamdown" unicode="&#xa1;" horiz-adv-x="244" d="M122 505 C86 505 62 481 62 445 C62 409 86 385 122 385 C158 385 182 409 182 445 C182 481 158 505 122 505 L122 505 Z M122 -255 C163 -255 180 -213 174 -150 C174 -150 130 158 130 290 L114 290 C114 158 70 -150 70 -150 C64 -213 81 -255 122 -255 L122 -255 Z " />
<glyph glyph-name="cent" unicode="&#xa2;" horiz-adv-x="503" d="M267 575 L267 509 C133 495 45 389 45 236 C45 93 133 -3 267 -9 L267 -74 L297 -74 L297 -8 C369 -1 438 52 472 129 L460 134 C435 76 370 38 296 44 L296 492 C333 489 369 456 387 406 C396 381 413 364 430 364 C464 364 481 381 472 406 C449 469 379 511 296 511 L296 576 L267 575 L267 575 Z M266 49 C184 71 132 156 132 275 C132 394 185 477 266 491 L266 49 L266 49 Z " />
<glyph glyph-name="acute" unicode="&#xb4;" horiz-adv-x="340" d="M178 562 L320 682 C358 715 384 740 384 746 C384 769 365 788 342 788 C336 788 313 761 281 721 L167 573 L178 562 L178 562 Z " />
<glyph glyph-name="questiondown" unicode="&#xbf;" horiz-adv-x="299" d="M174 505 C138 505 114 481 114 445 C114 409 138 385 174 385 C210 385 234 409 234 445 C234 481 210 505 174 505 L174 505 Z M174 290 L174 140 C81 140 48 106 14 56 C-4 29 -16 -15 -16 -55 C-16 -178 52 -260 154 -260 C202 -260 234 -235 234 -197 C234 -172 216 -155 188 -155 C168 -155 142 -170 123 -170 C55 -170 10 -120 10 -45 C10 -29 19 -5 33 15 C51 42 77 60 202 60 C194 63 189 290 189 290 L174 290 L174 290 Z M202 60 L202 60 L202 60 L202 60 Z " />
<glyph glyph-name="Agrave" unicode="&#xc0;" horiz-adv-x="796" d="M217 996 C217 988 243 964 281 932 L423 812 L434 823 L320 971 C290 1011 267 1038 259 1038 C236 1038 217 1019 217 996 L217 996 Z M305 0 L305 25 L278 25 C222 25 194 60 207 114 L259 279 L510 279 L560 120 C576 63 548 25 490 25 L463 25 L463 0 L790 0 L790 25 L776 25 C728 25 684 63 664 120 C595 337 526 554 457 771 L447 771 C451 748 421 728 373 721 C374 718 375 714 376 711 C312 516 248 321 183 126 C163 66 110 26 50 26 L15 26 L15 1 L305 0 L305 0 Z M268 306 L386 679 L503 306 L268 306 L268 306 Z " />
<glyph glyph-name="Aacute" unicode="&#xc1;" horiz-adv-x="796" d="M429 812 L571 932 C609 965 635 990 635 996 C635 1019 616 1038 593 1038 C587 1038 564 1011 532 971 L418 823 L429 812 L429 812 Z M305 0 L305 25 L278 25 C222 25 194 60 207 114 L259 279 L510 279 L560 120 C576 63 548 25 490 25 L463 25 L463 0 L790 0 L790 25 L776 25 C728 25 684 63 664 120 C595 337 526 554 457 771 L447 771 C451 748 421 728 373 721 C374 718 375 714 376 711 C312 516 248 321 183 126 C163 66 110 26 50 26 L15 26 L15 1 L305 0 L305 0 Z M268 306 L386 679 L503 306 L268 306 L268 306 Z " />
<glyph glyph-name="Acircumflex" unicode="&#xc2;" horiz-adv-x="796" d="M451 1005 C445 1014 431 1035 421 1035 C411 1035 397 1014 391 1005 L269 816 L281 806 L421 945 L561 806 L573 816 L451 1005 L451 1005 Z M305 0 L305 25 L278 25 C222 25 194 60 207 114 L259 279 L510 279 L560 120 C576 63 548 25 490 25 L463 25 L463 0 L790 0 L790 25 L776 25 C728 25 684 63 664 120 C595 337 526 554 457 771 L447 771 C451 748 421 728 373 721 C374 718 375 714 376 711 C312 516 248 321 183 126 C163 66 110 26 50 26 L15 26 L15 1 L305 0 L305 0 Z M268 306 L386 679 L503 306 L268 306 L268 306 Z " />
<glyph glyph-name="Atilde" unicode="&#xc3;" horiz-adv-x="796" d="M281 870 C281 906 297 930 322 930 C374 930 443 865 495 865 C544 865 576 913 576 985 L561 985 C561 949 543 925 515 925 C463 925 394 990 342 990 C296 990 266 942 266 870 L281 870 L281 870 Z M305 0 L305 25 L278 25 C222 25 194 60 207 114 L259 279 L510 279 L560 120 C576 63 548 25 490 25 L463 25 L463 0 L790 0 L790 25 L776 25 C728 25 684 63 664 120 C595 337 526 554 457 771 L447 771 C451 748 421 728 373 721 C374 718 375 714 376 711 C312 516 248 321 183 126 C163 66 110 26 50 26 L15 26 L15 1 L305 0 L305 0 Z M268 306 L386 679 L503 306 L268 306 L268 306 Z " />
<glyph glyph-name="Adieresis" unicode="&#xc4;" horiz-adv-x="796" d="M496 865 C529 865 551 887 551 920 C551 953 529 975 496 975 C463 975 441 953 441 920 C441 887 463 865 496 865 L496 865 Z M346 865 C379 865 401 887 401 920 C401 953 379 975 346 975 C313 975 291 953 291 920 C291 887 313 865 346 865 L346 865 Z M305 0 L305 25 L278 25 C222 25 194 60 207 114 L259 279 L510 279 L560 120 C576 63 548 25 490 25 L463 25 L463 0 L790 0 L790 25 L776 25 C728 25 684 63 664 120 C595 337 526 554 457 771 L447 771 C451 748 421 728 373 721 C374 718 375 714 376 711 C312 516 248 321 183 126 C163 66 110 26 50 26 L15 26 L15 1 L305 0 L305 0 Z M268 306 L386 679 L503 306 L268 306 L268 306 Z " />
<glyph glyph-name="Aring" unicode="&#xc5;" horiz-adv-x="796" d="M349 905 C349 950 378 980 421 980 C465 980 494 950 494 905 C494 864 460 830 421 830 C382 830 349 865 349 905 L349 905 Z M324 905 C324 854 369 810 421 810 C474 810 519 854 519 905 C519 962 480 1000 421 1000 C363 1000 324 962 324 905 L324 905 Z M305 0 L305 25 L278 25 C222 25 194 60 207 114 L259 279 L510 279 L560 120 C576 63 548 25 490 25 L463 25 L463 0 L790 0 L790 25 L776 25 C728 25 684 63 664 120 C595 337 526 554 457 771 L447 771 C451 748 421 728 373 721 C374 718 375 714 376 711 C312 516 248 321 183 126 C163 66 110 26 50 26 L15 26 L15 1 L305 0 L305 0 Z M268 306 L386 679 L503 306 L268 306 L268 306 Z " />
<glyph glyph-name="Egrave" unicode="&#xc8;" horiz-adv-x="652" d="M146 996 C146 988 172 964 210 932 L352 812 L363 823 L249 971 C219 1011 196 1038 188 1038 C165 1038 146 1019 146 996 L146 996 Z M555 750 L40 750 L40 730 L75 730 C117 730 145 702 145 660 L145 90 C145 48 117 20 75 20 L40 20 L40 0 L580 0 L582 10 L582 10 C589 51 599 105 606 146 L589 146 L582 126 C556 63 497 21 434 21 L325 21 C253 21 245 45 245 80 L245 385 L370 385 C418 385 457 353 467 305 L478 250 L495 250 L495 544 L478 544 L467 489 C457 441 418 409 370 409 L245 409 L245 729 L433 729 C481 729 524 697 540 649 L558 594 L575 594 C569 635 560 688 555 731 L555 750 L555 750 Z " />
<glyph glyph-name="Eacute" unicode="&#xc9;" horiz-adv-x="652" d="M358 812 L500 932 C538 965 564 990 564 996 C564 1019 545 1038 522 1038 C516 1038 493 1011 461 971 L347 823 L358 812 L358 812 Z M555 750 L40 750 L40 730 L75 730 C117 730 145 702 145 660 L145 90 C145 48 117 20 75 20 L40 20 L40 0 L580 0 L582 10 L582 10 C589 51 599 105 606 146 L589 146 L582 126 C556 63 497 21 434 21 L325 21 C253 21 245 45 245 80 L245 385 L370 385 C418 385 457 353 467 305 L478 250 L495 250 L495 544 L478 544 L467 489 C457 441 418 409 370 409 L245 409 L245 729 L433 729 C481 729 524 697 540 649 L558 594 L575 594 C569 635 560 688 555 731 L555 750 L555 750 Z " />
<glyph glyph-name="Ecircumflex" unicode="&#xca;" horiz-adv-x="652" d="M380 1005 C374 1014 360 1035 350 1035 C340 1035 326 1014 320 1005 L198 816 L210 806 L350 945 L490 806 L502 816 L380 1005 L380 1005 Z M555 750 L40 750 L40 730 L75 730 C117 730 145 702 145 660 L145 90 C145 48 117 20 75 20 L40 20 L40 0 L580 0 L582 10 L582 10 C589 51 599 105 606 146 L589 146 L582 126 C556 63 497 21 434 21 L325 21 C253 21 245 45 245 80 L245 385 L370 385 C418 385 457 353 467 305 L478 250 L495 250 L495 544 L478 544 L467 489 C457 441 418 409 370 409 L245 409 L245 729 L433 729 C481 729 524 697 540 649 L558 594 L575 594 C569 635 560 688 555 731 L555 750 L555 750 Z " />
<glyph glyph-name="Edieresis" unicode="&#xcb;" horiz-adv-x="652" d="M425 865 C458 865 480 887 480 920 C480 953 458 975 425 975 C392 975 370 953 370 920 C370 887 392 865 425 865 L425 865 Z M275 865 C308 865 330 887 330 920 C330 953 308 975 275 975 C242 975 220 953 220 920 C220 887 242 865 275 865 L275 865 Z M555 750 L40 750 L40 730 L75 730 C117 730 145 702 145 660 L145 90 C145 48 117 20 75 20 L40 20 L40 0 L580 0 L582 10 L582 10 C589 51 599 105 606 146 L589 146 L582 126 C556 63 497 21 434 21 L325 21 C253 21 245 45 245 80 L245 385 L370 385 C418 385 457 353 467 305 L478 250 L495 250 L495 544 L478 544 L467 489 C457 441 418 409 370 409 L245 409 L245 729 L433 729 C481 729 524 697 540 649 L558 594 L575 594 C569 635 560 688 555 731 L555 750 L555 750 Z " />
<glyph glyph-name="Igrave" unicode="&#xcc;" horiz-adv-x="385" d="M-14 996 C-14 988 12 964 50 932 L192 812 L203 823 L89 971 C59 1011 36 1038 28 1038 C5 1038 -14 1019 -14 996 L-14 996 Z M325 20 L290 20 C260 20 240 40 240 70 L240 680 C240 710 260 730 290 730 L325 730 L325 750 L55 750 L55 730 L90 730 C120 730 140 710 140 680 L140 70 C140 40 120 20 90 20 L55 20 L55 0 L325 0 L325 20 L325 20 Z " />
<glyph glyph-name="Iacute" unicode="&#xcd;" horiz-adv-x="385" d="M198 812 L340 932 C378 965 404 990 404 996 C404 1019 385 1038 362 1038 C356 1038 333 1011 301 971 L187 823 L198 812 L198 812 Z M325 20 L290 20 C260 20 240 40 240 70 L240 680 C240 710 260 730 290 730 L325 730 L325 750 L55 750 L55 730 L90 730 C120 730 140 710 140 680 L140 70 C140 40 120 20 90 20 L55 20 L55 0 L325 0 L325 20 L325 20 Z " />
<glyph glyph-name="Icircumflex" unicode="&#xce;" horiz-adv-x="385" d="M220 1005 C214 1014 200 1035 190 1035 C180 1035 166 1014 160 1005 L38 816 L50 806 L190 945 L330 806 L342 816 L220 1005 L220 1005 Z M325 20 L290 20 C260 20 240 40 240 70 L240 680 C240 710 260 730 290 730 L325 730 L325 750 L55 750 L55 730 L90 730 C120 730 140 710 140 680 L140 70 C140 40 120 20 90 20 L55 20 L55 0 L325 0 L325 20 L325 20 Z " />
<glyph glyph-name="Idieresis" unicode="&#xcf;" horiz-adv-x="385" d="M265 865 C298 865 320 887 320 920 C320 953 298 975 265 975 C232 975 210 953 210 920 C210 887 232 865 265 865 L265 865 Z M115 865 C148 865 170 887 170 920 C170 953 148 975 115 975 C82 975 60 953 60 920 C60 887 82 865 115 865 L115 865 Z M325 20 L290 20 C260 20 240 40 240 70 L240 680 C240 710 260 730 290 730 L325 730 L325 750 L55 750 L55 730 L90 730 C120 730 140 710 140 680 L140 70 C140 40 120 20 90 20 L55 20 L55 0 L325 0 L325 20 L325 20 Z " />
<glyph glyph-name="Ntilde" unicode="&#xd1;" horiz-adv-x="786" d="M249 870 C249 906 266 930 291 930 C343 930 412 865 464 865 C513 865 545 913 545 985 L530 985 C530 949 512 925 484 925 C432 925 362 990 310 990 C264 990 234 942 234 870 L249 870 L249 870 Z M53 0 L253 0 L253 20 L218 20 C188 20 168 40 168 70 L168 70 L165 612 C314 408 463 204 613 0 L633 0 L640 686 C643 712 663 729 691 729 L726 729 L726 749 L526 749 L526 729 L561 729 C591 729 611 709 611 679 L611 679 L612 170 C470 363 329 557 188 750 L-6 750 L-6 730 L29 730 C59 730 93 710 115 680 L115 680 L139 648 L138 70 C138 40 118 20 88 20 L53 20 L53 0 L53 0 Z " />
<glyph glyph-name="Ograve" unicode="&#xd2;" horiz-adv-x="851" d="M159 375 C159 591 261 735 414 735 C578 735 687 591 687 375 C687 159 577 15 413 15 C261 15 159 159 159 375 L159 375 Z M50 375 C50 144 193 -10 408 -10 C641 -10 796 144 796 375 C796 606 645 760 418 760 C197 760 50 606 50 375 L50 375 Z M214 996 C214 988 240 964 278 932 L420 812 L431 823 L317 971 C287 1011 264 1038 256 1038 C233 1038 214 1019 214 996 L214 996 Z " />
<glyph glyph-name="Oacute" unicode="&#xd3;" horiz-adv-x="851" d="M426 812 L568 932 C606 965 632 990 632 996 C632 1019 613 1038 590 1038 C584 1038 561 1011 529 971 L415 823 L426 812 L426 812 Z M159 375 C159 591 261 735 414 735 C578 735 687 591 687 375 C687 159 577 15 413 15 C261 15 159 159 159 375 L159 375 Z M50 375 C50 144 193 -10 408 -10 C641 -10 796 144 796 375 C796 606 645 760 418 760 C197 760 50 606 50 375 L50 375 Z " />
<glyph glyph-name="Ocircumflex" unicode="&#xd4;" horiz-adv-x="851" d="M159 375 C159 591 261 735 414 735 C578 735 687 591 687 375 C687 159 577 15 413 15 C261 15 159 159 159 375 L159 375 Z M50 375 C50 144 193 -10 408 -10 C641 -10 796 144 796 375 C796 606 645 760 418 760 C197 760 50 606 50 375 L50 375 Z M448 1005 C442 1014 428 1035 418 1035 C408 1035 394 1014 388 1005 L266 816 L278 806 L418 945 L558 806 L570 816 L448 1005 L448 1005 Z " />
<glyph glyph-name="Otilde" unicode="&#xd5;" horiz-adv-x="851" d="M278 870 C278 906 294 930 319 930 C371 930 440 865 492 865 C541 865 573 913 573 985 L558 985 C558 949 540 925 512 925 C460 925 391 990 339 990 C293 990 263 942 263 870 L278 870 L278 870 Z M159 375 C159 591 261 735 414 735 C578 735 687 591 687 375 C687 159 577 15 413 15 C261 15 159 159 159 375 L159 375 Z M50 375 C50 144 193 -10 408 -10 C641 -10 796 144 796 375 C796 606 645 760 418 760 C197 760 50 606 50 375 L50 375 Z " />
<glyph glyph-name="Odieresis" unicode="&#xd6;" horiz-adv-x="851" d="M493 865 C526 865 548 887 548 920 C548 953 526 975 493 975 C460 975 438 953 438 920 C438 887 460 865 493 865 L493 865 Z M343 865 C376 865 398 887 398 920 C398 953 376 975 343 975 C310 975 288 953 288 920 C288 887 310 865 343 865 L343 865 Z M159 375 C159 591 261 735 414 735 C578 735 687 591 687 375 C687 159 577 15 413 15 C261 15 159 159 159 375 L159 375 Z M50 375 C50 144 193 -10 408 -10 C641 -10 796 144 796 375 C796 606 645 760 418 760 C197 760 50 606 50 375 L50 375 Z " />
<glyph glyph-name="Oslash" unicode="&#xd8;" horiz-adv-x="851" d="M66 -26 C66 -26 102 11 167 78 C228 22 311 -10 409 -10 C642 -10 797 144 797 375 C797 481 765 571 709 637 C743 672 778 708 814 745 L782 777 C746 740 711 704 677 669 C612 727 523 760 418 760 C197 760 50 606 50 375 C50 268 81 177 136 111 C70 43 34 6 34 6 L66 -26 L66 -26 Z M625 617 C446 432 299 280 196 174 C172 230 159 298 159 376 C159 592 261 736 414 736 C504 736 577 693 625 618 L625 617 L625 617 Z M648 576 C673 521 687 453 687 376 C687 160 577 16 413 16 C330 16 262 58 217 131 C318 236 466 389 647 576 L648 576 L648 576 Z " />
<glyph glyph-name="Ugrave" unicode="&#xd9;" horiz-adv-x="760" d="M174 996 C174 988 200 964 238 932 L380 812 L390 823 L277 971 C247 1011 224 1038 216 1038 C193 1038 174 1019 174 996 L174 996 Z M730 36 L730 56 L695 46 C665 38 645 53 645 83 L645 750 L460 750 L460 730 L495 730 C525 730 545 710 545 680 L545 190 C507 108 423 54 334 54 C260 54 210 120 210 220 L210 750 L25 750 L25 730 L60 730 C90 730 110 710 110 680 L110 220 C110 82 184 -10 294 -10 C401 -10 502 52 545 145 L545 0 L595 0 C638 11 690 26 730 37 L730 36 L730 36 Z " />
<glyph glyph-name="Uacute" unicode="&#xda;" horiz-adv-x="760" d="M385 812 L527 932 C565 965 591 990 591 996 C591 1019 572 1038 549 1038 C543 1038 519 1011 488 971 L375 823 L385 812 L385 812 Z M730 36 L730 56 L695 46 C665 38 645 53 645 83 L645 750 L460 750 L460 730 L495 730 C525 730 545 710 545 680 L545 190 C507 108 423 54 334 54 C260 54 210 120 210 220 L210 750 L25 750 L25 730 L60 730 C90 730 110 710 110 680 L110 220 C110 82 184 -10 294 -10 C401 -10 502 52 545 145 L545 0 L595 0 C638 11 690 26 730 37 L730 36 L730 36 Z " />
<glyph glyph-name="Ucircumflex" unicode="&#xdb;" horiz-adv-x="760" d="M408 1005 C402 1014 388 1035 378 1035 C368 1035 354 1014 348 1005 L226 816 L237 806 L377 945 L518 806 L529 816 L408 1005 L408 1005 Z M730 36 L730 56 L695 46 C665 38 645 53 645 83 L645 750 L460 750 L460 730 L495 730 C525 730 545 710 545 680 L545 190 C507 108 423 54 334 54 C260 54 210 120 210 220 L210 750 L25 750 L25 730 L60 730 C90 730 110 710 110 680 L110 220 C110 82 184 -10 294 -10 C401 -10 502 52 545 145 L545 0 L595 0 C638 11 690 26 730 37 L730 36 L730 36 Z " />
<glyph glyph-name="Udieresis" unicode="&#xdc;" horiz-adv-x="760" d="M453 865 C486 865 508 887 508 920 C508 953 486 975 453 975 C420 975 398 953 398 920 C398 887 420 865 453 865 L453 865 Z M303 865 C336 865 358 887 358 920 C358 953 336 975 303 975 C270 975 248 953 248 920 C248 887 270 865 303 865 L303 865 Z M730 36 L730 56 L695 46 C665 38 645 53 645 83 L645 750 L460 750 L460 730 L495 730 C525 730 545 710 545 680 L545 190 C507 108 423 54 334 54 C260 54 210 120 210 220 L210 750 L25 750 L25 730 L60 730 C90 730 110 710 110 680 L110 220 C110 82 184 -10 294 -10 C401 -10 502 52 545 145 L545 0 L595 0 C638 11 690 26 730 37 L730 36 L730 36 Z " />
<glyph glyph-name="Yacute" unicode="&#xdd;" horiz-adv-x="764" d="M398 812 L540 932 C578 965 604 990 604 996 C604 1019 585 1038 562 1038 C556 1038 533 1011 501 971 L387 823 L398 812 L398 812 Z M289 750 L9 750 L9 730 L24 730 C57 730 93 708 114 675 L114 675 L340 322 L340 90 C340 48 312 20 270 20 L235 20 L235 0 L545 0 L545 20 L510 20 C468 20 440 48 440 90 L440 325 C504 442 568 559 633 675 C651 708 685 730 718 730 L758 730 L758 750 L499 750 L499 730 L559 730 C592 730 603 708 587 675 L430 356 C364 462 297 569 231 675 C210 708 218 730 251 730 L289 730 L289 750 L289 750 Z " />
<glyph glyph-name="agrave" unicode="&#xe0;" horiz-adv-x="514" d="M524 102 L509 109 C503 77 482 56 455 56 C422 56 400 74 400 102 L400 355 C400 462 344 510 259 510 C143 510 65 414 65 360 C65 324 85 300 114 300 C141 300 159 325 159 343 C159 361 139 385 139 403 C139 432 175 484 229 484 C281 484 316 454 316 386 C316 385 316 328 316 265 C98 198 46 173 46 89 C46 30 91 -9 159 -9 C200 -9 252 17 317 84 C325 31 365 -4 421 -4 C472 -4 514 39 525 103 L524 102 L524 102 Z M56 747 C56 739 82 715 120 683 L262 563 L273 574 L159 722 C129 762 106 789 98 789 C75 789 56 770 56 747 L56 747 Z M316 246 C316 175 316 104 316 104 C269 56 232 38 204 38 C160 38 131 63 131 100 C131 181 167 202 316 248 L316 246 L316 246 Z " />
<glyph glyph-name="aacute" unicode="&#xe1;" horiz-adv-x="514" d="M267 562 L409 682 C447 715 473 740 473 746 C473 769 454 788 431 788 C425 788 402 761 370 721 L256 573 L267 562 L267 562 Z M524 102 L509 109 C503 77 482 56 455 56 C422 56 400 74 400 102 L400 355 C400 462 344 510 259 510 C143 510 65 414 65 360 C65 324 85 300 114 300 C141 300 159 325 159 343 C159 361 139 385 139 403 C139 432 175 484 229 484 C281 484 316 454 316 386 C316 385 316 328 316 265 C98 198 46 173 46 89 C46 30 91 -9 159 -9 C200 -9 252 17 317 84 C325 31 365 -4 421 -4 C472 -4 514 39 525 103 L524 102 L524 102 Z M316 246 C316 175 316 104 316 104 C269 56 232 38 204 38 C160 38 131 63 131 100 C131 181 167 202 316 248 L316 246 L316 246 Z " />
<glyph glyph-name="acircumflex" unicode="&#xe2;" horiz-adv-x="514" d="M524 102 L509 109 C503 77 482 56 455 56 C422 56 400 74 400 102 L400 355 C400 462 344 510 259 510 C143 510 65 414 65 360 C65 324 85 300 114 300 C141 300 159 325 159 343 C159 361 139 385 139 403 C139 432 175 484 229 484 C281 484 316 454 316 386 C316 385 316 328 316 265 C98 198 46 173 46 89 C46 30 91 -9 159 -9 C200 -9 252 17 317 84 C325 31 365 -4 421 -4 C472 -4 514 39 525 103 L524 102 L524 102 Z M290 756 C284 765 270 786 260 786 C250 786 236 765 230 756 L108 567 L120 557 L260 696 L400 557 L412 567 L290 756 L290 756 Z M316 246 C316 175 316 104 316 104 C269 56 232 38 204 38 C160 38 131 63 131 100 C131 181 167 202 316 248 L316 246 L316 246 Z " />
<glyph glyph-name="atilde" unicode="&#xe3;" horiz-adv-x="514" d="M119 620 C119 656 135 680 160 680 C212 680 281 615 333 615 C382 615 414 663 414 735 L399 735 C399 699 381 675 353 675 C301 675 232 740 180 740 C134 740 104 692 104 620 L119 620 L119 620 Z M524 102 L509 109 C503 77 482 56 455 56 C422 56 400 74 400 102 L400 355 C400 462 344 510 259 510 C143 510 65 414 65 360 C65 324 85 300 114 300 C141 300 159 325 159 343 C159 361 139 385 139 403 C139 432 175 484 229 484 C281 484 316 454 316 386 C316 385 316 328 316 265 C98 198 46 173 46 89 C46 30 91 -9 159 -9 C200 -9 252 17 317 84 C325 31 365 -4 421 -4 C472 -4 514 39 525 103 L524 102 L524 102 Z M316 246 C316 175 316 104 316 104 C269 56 232 38 204 38 C160 38 131 63 131 100 C131 181 167 202 316 248 L316 246 L316 246 Z " />
<glyph glyph-name="adieresis" unicode="&#xe4;" horiz-adv-x="514" d="M334 615 C367 615 389 637 389 670 C389 703 367 725 334 725 C301 725 279 703 279 670 C279 637 301 615 334 615 L334 615 Z M184 615 C217 615 239 637 239 670 C239 703 217 725 184 725 C151 725 129 703 129 670 C129 637 151 615 184 615 L184 615 Z M524 102 L509 109 C503 77 482 56 455 56 C422 56 400 74 400 102 L400 355 C400 462 344 510 259 510 C143 510 65 414 65 360 C65 324 85 300 114 300 C141 300 159 325 159 343 C159 361 139 385 139 403 C139 432 175 484 229 484 C281 484 316 454 316 386 C316 385 316 328 316 265 C98 198 46 173 46 89 C46 30 91 -9 159 -9 C200 -9 252 17 317 84 C325 31 365 -4 421 -4 C472 -4 514 39 525 103 L524 102 L524 102 Z M316 246 C316 175 316 104 316 104 C269 56 232 38 204 38 C160 38 131 63 131 100 C131 181 167 202 316 248 L316 246 L316 246 Z " />
<glyph glyph-name="aring" unicode="&#xe5;" horiz-adv-x="514" d="M187 655 C187 700 216 730 259 730 C303 730 332 700 332 655 C332 615 298 580 259 580 C220 580 187 615 187 655 L187 655 Z M162 655 C162 604 207 560 259 560 C312 560 357 604 357 655 C357 712 318 750 259 750 C201 750 162 712 162 655 L162 655 Z M524 102 L509 109 C503 77 482 56 455 56 C422 56 400 74 400 102 L400 355 C400 462 344 510 259 510 C143 510 65 414 65 360 C65 324 85 300 114 300 C141 300 159 325 159 343 C159 361 139 385 139 403 C139 432 175 484 229 484 C281 484 316 454 316 386 C316 385 316 328 316 265 C98 198 46 173 46 89 C46 30 91 -9 159 -9 C200 -9 252 17 317 84 C325 31 365 -4 421 -4 C472 -4 514 39 525 103 L524 102 L524 102 Z M316 246 C316 175 316 104 316 104 C269 56 232 38 204 38 C160 38 131 63 131 100 C131 181 167 202 316 248 L316 246 L316 246 Z " />
<glyph glyph-name="egrave" unicode="&#xe8;" horiz-adv-x="540" d="M97 746 C97 738 123 714 161 682 L303 562 L314 573 L200 721 C170 761 147 788 139 788 C116 788 97 769 97 746 L97 746 Z M140 340 L510 340 C488 462 408 510 301 510 C147 510 45 432 45 231 C45 86 138 -10 278 -10 C379 -10 467 47 498 133 L487 136 C467 82 392 46 298 46 C200 46 135 134 135 266 C135 293 137 318 141 340 L140 340 L140 340 Z M412 364 L145 360 C166 453 221 491 296 491 C348 491 390 455 411 364 L412 364 L412 364 Z " />
<glyph glyph-name="eacute" unicode="&#xe9;" horiz-adv-x="540" d="M309 562 L451 682 C489 715 515 740 515 746 C515 769 496 788 473 788 C467 788 444 761 412 721 L298 573 L309 562 L309 562 Z M140 340 L510 340 C488 462 408 510 301 510 C147 510 45 432 45 231 C45 86 138 -10 278 -10 C379 -10 467 47 498 133 L487 136 C467 82 392 46 298 46 C200 46 135 134 135 266 C135 293 137 318 141 340 L140 340 L140 340 Z M412 364 L145 360 C166 453 221 491 296 491 C348 491 390 455 411 364 L412 364 L412 364 Z " />
<glyph glyph-name="ecircumflex" unicode="&#xea;" horiz-adv-x="540" d="M331 755 C325 764 311 785 301 785 C291 785 277 764 271 755 L149 566 L161 556 L301 695 L441 556 L453 566 L331 755 L331 755 Z M140 340 L510 340 C488 462 408 510 301 510 C147 510 45 432 45 231 C45 86 138 -10 278 -10 C379 -10 467 47 498 133 L487 136 C467 82 392 46 298 46 C200 46 135 134 135 266 C135 293 137 318 141 340 L140 340 L140 340 Z M412 364 L145 360 C166 453 221 491 296 491 C348 491 390 455 411 364 L412 364 L412 364 Z " />
<glyph glyph-name="edieresis" unicode="&#xeb;" horiz-adv-x="540" d="M376 615 C409 615 431 637 431 670 C431 703 409 725 376 725 C343 725 321 703 321 670 C321 637 343 615 376 615 L376 615 Z M226 615 C259 615 281 637 281 670 C281 703 259 725 226 725 C193 725 171 703 171 670 C171 637 193 615 226 615 L226 615 Z M140 340 L510 340 C488 462 408 510 301 510 C147 510 45 432 45 231 C45 86 138 -10 278 -10 C379 -10 467 47 498 133 L487 136 C467 82 392 46 298 46 C200 46 135 134 135 266 C135 293 137 318 141 340 L140 340 L140 340 Z M412 364 L145 360 C166 453 221 491 296 491 C348 491 390 455 411 364 L412 364 L412 364 Z " />
<glyph glyph-name="igrave" unicode="&#xec;" horiz-adv-x="320" d="M-36 746 C-36 738 -10 714 28 682 L170 562 L180 573 L67 721 C37 761 14 788 6 788 C-17 788 -36 769 -36 746 L-36 746 Z M60 452 L110 465 C119 468 125 463 125 454 L125 35 C125 26 119 20 110 20 L60 20 L60 0 L275 0 L275 20 L225 20 C216 20 210 26 210 35 L210 500 L168 500 L168 501 C136 492 92 481 60 472 L60 452 L60 452 Z " />
<glyph glyph-name="iacute" unicode="&#xed;" horiz-adv-x="320" d="M-36 746 C-36 738 -10 714 28 682 L170 562 L180 573 L67 721 C37 761 14 788 6 788 C-17 788 -36 769 -36 746 L-36 746 Z M60 452 L110 465 C119 468 125 463 125 454 L125 35 C125 26 119 20 110 20 L60 20 L60 0 L275 0 L275 20 L225 20 C216 20 210 26 210 35 L210 500 L168 500 L168 501 C136 492 92 481 60 472 L60 452 L60 452 Z " />
<glyph glyph-name="icircumflex" unicode="&#xee;" horiz-adv-x="320" d="M198 755 C192 764 178 785 168 785 C158 785 144 764 138 755 L16 566 L27 556 L167 695 L308 556 L319 566 L198 755 L198 755 Z M60 452 L110 465 C119 468 125 463 125 454 L125 35 C125 26 119 20 110 20 L60 20 L60 0 L275 0 L275 20 L225 20 C216 20 210 26 210 35 L210 500 L168 500 L168 501 C136 492 92 481 60 472 L60 452 L60 452 Z " />
<glyph glyph-name="idieresis" unicode="&#xef;" horiz-adv-x="320" d="M243 615 C276 615 298 637 298 670 C298 703 276 725 243 725 C210 725 188 703 188 670 C188 637 210 615 243 615 L243 615 Z M93 615 C126 615 148 637 148 670 C148 703 126 725 93 725 C60 725 38 703 38 670 C38 637 60 615 93 615 L93 615 Z M60 452 L110 465 C119 468 125 463 125 454 L125 35 C125 26 119 20 110 20 L60 20 L60 0 L275 0 L275 20 L225 20 C216 20 210 26 210 35 L210 500 L168 500 L168 501 C136 492 92 481 60 472 L60 452 L60 452 Z " />
<glyph glyph-name="ntilde" unicode="&#xf1;" horiz-adv-x="569" d="M139 620 C139 656 155 680 180 680 C232 680 301 615 353 615 C402 615 434 663 434 735 L419 735 C419 699 401 675 373 675 C321 675 252 740 200 740 C154 740 124 692 124 620 L139 620 L139 620 Z M19 461 L39 460 C66 460 84 440 84 413 L84 35 C84 26 78 20 69 20 L19 20 L19 0 L234 0 L234 20 L184 20 C175 20 169 26 169 35 L169 360 C199 413 246 448 286 448 C354 448 389 401 389 330 L389 35 C389 26 383 20 374 20 L324 20 L324 0 L539 0 L539 20 L489 20 C480 20 474 26 474 35 L474 330 C474 438 427 510 337 510 C280 510 212 460 169 385 L169 500 L127 500 C95 491 51 482 19 473 L19 461 L19 461 Z " />
<glyph glyph-name="ograve" unicode="&#xf2;" horiz-adv-x="613" d="M139 250 C139 390 206 484 307 484 C408 484 475 390 475 250 C475 110 408 16 307 16 C206 16 139 110 139 250 L139 250 Z M45 250 C45 94 150 -10 307 -10 C464 -10 568 94 568 250 C568 406 464 510 307 510 C150 510 45 406 45 250 L45 250 Z M103 746 C103 738 129 714 167 682 L309 562 L320 573 L206 721 C176 761 153 788 145 788 C122 788 103 769 103 746 L103 746 Z " />
<glyph glyph-name="oacute" unicode="&#xf3;" horiz-adv-x="613" d="M315 562 L457 682 C495 715 521 740 521 746 C521 769 502 788 479 788 C473 788 450 761 418 721 L304 573 L315 562 L315 562 Z M139 250 C139 390 206 484 307 484 C408 484 475 390 475 250 C475 110 408 16 307 16 C206 16 139 110 139 250 L139 250 Z M45 250 C45 94 150 -10 307 -10 C464 -10 568 94 568 250 C568 406 464 510 307 510 C150 510 45 406 45 250 L45 250 Z " />
<glyph glyph-name="ocircumflex" unicode="&#xf4;" horiz-adv-x="613" d="M139 250 C139 390 206 484 307 484 C408 484 475 390 475 250 C475 110 408 16 307 16 C206 16 139 110 139 250 L139 250 Z M45 250 C45 94 150 -10 307 -10 C464 -10 568 94 568 250 C568 406 464 510 307 510 C150 510 45 406 45 250 L45 250 Z M337 755 C331 764 317 785 307 785 C297 785 283 764 277 755 L155 566 L167 556 L307 695 L447 556 L459 566 L337 755 L337 755 Z " />
<glyph glyph-name="otilde" unicode="&#xf5;" horiz-adv-x="613" d="M167 620 C167 656 183 680 208 680 C260 680 329 615 381 615 C430 615 462 663 462 735 L447 735 C447 699 429 675 401 675 C349 675 280 740 228 740 C182 740 152 692 152 620 L167 620 L167 620 Z M139 250 C139 390 206 484 307 484 C408 484 475 390 475 250 C475 110 408 16 307 16 C206 16 139 110 139 250 L139 250 Z M45 250 C45 94 150 -10 307 -10 C464 -10 568 94 568 250 C568 406 464 510 307 510 C150 510 45 406 45 250 L45 250 Z " />
<glyph glyph-name="odieresis" unicode="&#xf6;" horiz-adv-x="613" d="M382 615 C415 615 437 637 437 670 C437 703 415 725 382 725 C349 725 327 703 327 670 C327 637 349 615 382 615 L382 615 Z M232 615 C265 615 287 637 287 670 C287 703 265 725 232 725 C199 725 177 703 177 670 C177 637 199 615 232 615 L232 615 Z M139 250 C139 390 206 484 307 484 C408 484 475 390 475 250 C475 110 408 16 307 16 C206 16 139 110 139 250 L139 250 Z M45 250 C45 94 150 -10 307 -10 C464 -10 568 94 568 250 C568 406 464 510 307 510 C150 510 45 406 45 250 L45 250 Z " />
<glyph glyph-name="oslash" unicode="&#xf8;" horiz-adv-x="613" d="M56 -21 C56 -21 82 5 129 52 C174 13 235 -9 307 -9 C464 -9 568 95 568 251 C568 323 546 384 507 429 C530 452 554 476 579 501 L557 523 C532 498 508 474 485 451 C440 490 379 512 307 512 C150 512 45 408 45 252 C45 180 67 119 106 74 C59 28 33 3 33 3 L56 -21 L56 -21 Z M438 406 C324 292 229 197 160 128 C146 163 138 205 138 252 C138 392 205 486 306 486 C363 486 409 456 438 405 L438 406 L438 406 Z M452 375 C466 340 474 298 474 251 C474 111 407 17 306 17 C249 17 203 47 174 98 C242 166 337 261 452 375 L452 375 Z " />
<glyph glyph-name="ugrave" unicode="&#xf9;" horiz-adv-x="560" d="M71 746 C71 738 97 714 135 682 L277 562 L288 573 L174 721 C144 761 121 788 113 788 C90 788 71 769 71 746 L71 746 Z M545 51 L520 44 C490 36 470 51 470 81 L470 500 L320 500 L320 480 L370 480 C379 480 385 474 385 465 L385 144 C359 86 309 48 257 48 C202 48 165 92 165 159 L165 499 L15 499 L15 479 L65 479 C74 479 80 473 80 464 L80 159 C80 57 135 -11 217 -11 C286 -11 352 40 385 118 L385 -1 L427 -1 L427 -2 C440 2 455 6 470 10 C496 17 523 24 545 30 L545 51 L545 51 Z " />
<glyph glyph-name="uacute" unicode="&#xfa;" horiz-adv-x="560" d="M283 562 L425 682 C463 715 489 740 489 746 C489 769 470 788 447 788 C441 788 418 761 386 721 L272 573 L283 562 L283 562 Z M545 51 L520 44 C490 36 470 51 470 81 L470 500 L320 500 L320 480 L370 480 C379 480 385 474 385 465 L385 144 C359 86 309 48 257 48 C202 48 165 92 165 159 L165 499 L15 499 L15 479 L65 479 C74 479 80 473 80 464 L80 159 C80 57 135 -11 217 -11 C286 -11 352 40 385 118 L385 -1 L427 -1 L427 -2 C440 2 455 6 470 10 C496 17 523 24 545 30 L545 51 L545 51 Z " />
<glyph glyph-name="ucircumflex" unicode="&#xfb;" horiz-adv-x="560" d="M305 755 C299 764 285 785 275 785 C265 785 251 764 245 755 L123 566 L135 556 L275 695 L415 556 L427 566 L305 755 L305 755 Z M545 51 L520 44 C490 36 470 51 470 81 L470 500 L320 500 L320 480 L370 480 C379 480 385 474 385 465 L385 144 C359 86 309 48 257 48 C202 48 165 92 165 159 L165 499 L15 499 L15 479 L65 479 C74 479 80 473 80 464 L80 159 C80 57 135 -11 217 -11 C286 -11 352 40 385 118 L385 -1 L427 -1 L427 -2 C440 2 455 6 470 10 C496 17 523 24 545 30 L545 51 L545 51 Z " />
<glyph glyph-name="udieresis" unicode="&#xfc;" horiz-adv-x="560" d="M350 615 C383 615 405 637 405 670 C405 703 383 725 350 725 C317 725 295 703 295 670 C295 637 317 615 350 615 L350 615 Z M200 615 C233 615 255 637 255 670 C255 703 233 725 200 725 C167 725 145 703 145 670 C145 637 167 615 200 615 L200 615 Z M545 51 L520 44 C490 36 470 51 470 81 L470 500 L320 500 L320 480 L370 480 C379 480 385 474 385 465 L385 144 C359 86 309 48 257 48 C202 48 165 92 165 159 L165 499 L15 499 L15 479 L65 479 C74 479 80 473 80 464 L80 159 C80 57 135 -11 217 -11 C286 -11 352 40 385 118 L385 -1 L427 -1 L427 -2 C440 2 455 6 470 10 C496 17 523 24 545 30 L545 51 L545 51 Z " />
<glyph glyph-name="ydieresis" unicode="&#xff;" horiz-adv-x="558" d="M381 615 C414 615 436 637 436 670 C436 703 414 725 381 725 C348 725 326 703 326 670 C326 637 348 615 381 615 L381 615 Z M231 615 C264 615 286 637 286 670 C286 703 264 725 231 725 C198 725 176 703 176 670 C176 637 198 615 231 615 L231 615 Z M546 500 L384 500 L384 480 L393 480 C422 480 435 458 424 425 L424 425 L323 118 L190 434 C180 467 196 480 227 480 L227 500 L12 500 L12 480 C53 480 84 463 100 425 L100 425 L278 1 C257 -51 238 -104 218 -156 C209 -179 195 -194 191 -194 C169 -194 164 -165 141 -165 C114 -165 96 -183 96 -210 C96 -240 116 -260 146 -260 C172 -260 218 -223 239 -167 L299 -10 C353 138 407 285 461 433 C477 466 505 480 543 480 L546 500 L546 500 Z " />
<glyph glyph-name="Amacron" unicode="&#x100;" horiz-adv-x="796" d="M271 895 L571 895 L571 954 L271 954 L271 895 L271 895 Z M305 0 L305 25 L278 25 C222 25 194 60 207 114 L259 279 L510 279 L560 120 C576 63 548 25 490 25 L463 25 L463 0 L790 0 L790 25 L776 25 C728 25 684 63 664 120 C595 337 526 554 457 771 L447 771 C451 748 421 728 373 721 C374 718 375 714 376 711 C312 516 248 321 183 126 C163 66 110 26 50 26 L15 26 L15 1 L305 0 L305 0 Z M268 306 L386 679 L503 306 L268 306 L268 306 Z " />
<glyph glyph-name="amacron" unicode="&#x101;" horiz-adv-x="514" d="M109 645 L409 645 L409 704 L109 704 L109 645 L109 645 Z M524 102 L509 109 C503 77 482 56 455 56 C422 56 400 74 400 102 L400 355 C400 462 344 510 259 510 C143 510 65 414 65 360 C65 324 85 300 114 300 C141 300 159 325 159 343 C159 361 139 385 139 403 C139 432 175 484 229 484 C281 484 316 454 316 386 C316 385 316 328 316 265 C98 198 46 173 46 89 C46 30 91 -9 159 -9 C200 -9 252 17 317 84 C325 31 365 -4 421 -4 C472 -4 514 39 525 103 L524 102 L524 102 Z M316 246 C316 175 316 104 316 104 C269 56 232 38 204 38 C160 38 131 63 131 100 C131 181 167 202 316 248 L316 246 L316 246 Z " />
<glyph glyph-name="Abreve" unicode="&#x102;" horiz-adv-x="796" d="M287 994 C294 920 347 870 421 870 C496 870 550 919 556 992 L538 995 C535 956 488 930 421 930 C354 930 308 957 304 997 L287 994 L287 994 Z M305 0 L305 25 L278 25 C222 25 194 60 207 114 L259 279 L510 279 L560 120 C576 63 548 25 490 25 L463 25 L463 0 L790 0 L790 25 L776 25 C728 25 684 63 664 120 C595 337 526 554 457 771 L447 771 C451 748 421 728 373 721 C374 718 375 714 376 711 C312 516 248 321 183 126 C163 66 110 26 50 26 L15 26 L15 1 L305 0 L305 0 Z M268 306 L386 679 L503 306 L268 306 L268 306 Z " />
<glyph glyph-name="abreve" unicode="&#x103;" horiz-adv-x="514" d="M125 744 C132 670 185 620 259 620 C334 620 388 669 394 742 L376 745 C373 706 326 680 259 680 C192 680 146 707 142 747 L125 744 L125 744 Z M524 102 L509 109 C503 77 482 56 455 56 C422 56 400 74 400 102 L400 355 C400 462 344 510 259 510 C143 510 65 414 65 360 C65 324 85 300 114 300 C141 300 159 325 159 343 C159 361 139 385 139 403 C139 432 175 484 229 484 C281 484 316 454 316 386 C316 385 316 328 316 265 C98 198 46 173 46 89 C46 30 91 -9 159 -9 C200 -9 252 17 317 84 C325 31 365 -4 421 -4 C472 -4 514 39 525 103 L524 102 L524 102 Z M316 246 C316 175 316 104 316 104 C269 56 232 38 204 38 C160 38 131 63 131 100 C131 181 167 202 316 248 L316 246 L316 246 Z " />
<glyph glyph-name="Cacute" unicode="&#x106;" horiz-adv-x="740" d="M422 812 L564 932 C602 965 628 990 628 996 C628 1019 609 1038 586 1038 C580 1038 557 1011 525 971 L411 823 L422 812 L422 812 Z M698 0 L698 224 L676 224 C673 216 669 204 666 196 C645 134 603 78 558 50 C517 27 470 14 414 14 C262 14 161 159 161 376 C161 592 267 736 425 736 C476 736 516 726 550 709 L550 709 C597 686 644 624 667 555 C670 547 674 535 677 527 L699 527 L699 748 L682 748 C681 742 678 735 677 729 C670 700 642 694 607 716 L607 716 C561 744 502 761 415 761 C197 761 51 607 51 376 C51 145 192 -9 404 -9 C489 -9 553 8 604 38 L604 38 C641 60 670 53 677 22 C678 16 681 7 682 1 L698 0 L698 0 Z M684 133 L684 133 L684 133 L684 133 Z " />
<glyph glyph-name="Ccircumflex" unicode="&#x108;" horiz-adv-x="740" d="M698 0 L698 224 L676 224 C673 216 669 204 666 196 C645 134 603 78 558 50 C517 27 470 14 414 14 C262 14 161 159 161 376 C161 592 267 736 425 736 C476 736 516 726 550 709 L550 709 C597 686 644 624 667 555 C670 547 674 535 677 527 L699 527 L699 748 L682 748 C681 742 678 735 677 729 C670 700 642 694 607 716 L607 716 C561 744 502 761 415 761 C197 761 51 607 51 376 C51 145 192 -9 404 -9 C489 -9 553 8 604 38 L604 38 C641 60 670 53 677 22 C678 16 681 7 682 1 L698 0 L698 0 Z M445 1006 C439 1015 425 1036 415 1036 C405 1036 391 1015 385 1006 L263 817 L275 807 L415 946 L555 807 L567 817 L445 1006 L445 1006 Z M684 133 L684 133 L684 133 L684 133 Z " />
<glyph glyph-name="Cdot" unicode="&#x10a;" horiz-adv-x="740" d="M414 865 C447 865 469 887 469 920 C469 953 447 975 414 975 C381 975 359 953 359 920 C359 887 381 865 414 865 L414 865 Z M698 0 L698 224 L676 224 C673 216 669 204 666 196 C645 134 603 78 558 50 C517 27 470 14 414 14 C262 14 161 159 161 376 C161 592 267 736 425 736 C476 736 516 726 550 709 L550 709 C597 686 644 624 667 555 C670 547 674 535 677 527 L699 527 L699 748 L682 748 C681 742 678 735 677 729 C670 700 642 694 607 716 L607 716 C561 744 502 761 415 761 C197 761 51 607 51 376 C51 145 192 -9 404 -9 C489 -9 553 8 604 38 L604 38 C641 60 670 53 677 22 C678 16 681 7 682 1 L698 0 L698 0 Z M684 133 L684 133 L684 133 L684 133 Z " />
<glyph glyph-name="cdot" unicode="&#x10b;" horiz-adv-x="503" d="M297 615 C330 615 352 637 352 670 C352 703 330 725 297 725 C264 725 242 703 242 670 C242 637 264 615 297 615 L297 615 Z M473 128 L461 133 C437 78 377 42 311 42 C204 42 133 134 133 273 C133 404 197 491 292 491 C331 491 369 457 388 405 C397 380 414 363 431 363 C465 363 482 380 473 405 C450 468 380 510 297 510 C146 510 45 400 45 236 C45 88 139 -10 281 -10 C359 -10 436 45 473 128 L473 128 Z " />
<glyph glyph-name="Ccaron" unicode="&#x10c;" horiz-adv-x="740" d="M554 1044 L414 905 L274 1044 L262 1034 L384 845 C390 836 404 815 414 815 C424 815 438 836 444 845 L566 1034 L554 1044 L554 1044 Z M698 0 L698 224 L676 224 C673 216 669 204 666 196 C645 134 603 78 558 50 C517 27 470 14 414 14 C262 14 161 159 161 376 C161 592 267 736 425 736 C476 736 516 726 550 709 L550 709 C597 686 644 624 667 555 C670 547 674 535 677 527 L699 527 L699 748 L682 748 C681 742 678 735 677 729 C670 700 642 694 607 716 L607 716 C561 744 502 761 415 761 C197 761 51 607 51 376 C51 145 192 -9 404 -9 C489 -9 553 8 604 38 L604 38 C641 60 670 53 677 22 C678 16 681 7 682 1 L698 0 L698 0 Z M684 133 L684 133 L684 133 L684 133 Z " />
<glyph glyph-name="ccaron" unicode="&#x10d;" horiz-adv-x="503" d="M437 794 L297 655 L157 794 L145 784 L267 595 C273 586 287 565 297 565 C307 565 321 586 327 595 L449 784 L437 794 L437 794 Z M473 128 L461 133 C437 78 377 42 311 42 C204 42 133 134 133 273 C133 404 197 491 292 491 C331 491 369 457 388 405 C397 380 414 363 431 363 C465 363 482 380 473 405 C450 468 380 510 297 510 C146 510 45 400 45 236 C45 88 139 -10 281 -10 C359 -10 436 45 473 128 L473 128 Z " />
<glyph glyph-name="Dcaron" unicode="&#x10e;" horiz-adv-x="853" d="M557 1044 L416 905 L276 1044 L265 1034 L387 845 C393 836 407 815 417 815 C427 815 441 836 447 845 L568 1034 L557 1044 L557 1044 Z M295 20 C250 20 245 44 245 80 L245 730 L285 730 C551 730 688 588 688 375 C688 141 531 20 295 20 L295 20 Z M60 730 L95 730 C125 730 145 710 145 680 L145 70 C145 40 125 20 95 20 L60 20 L60 0 L325 0 C609 0 798 128 798 375 C798 600 651 750 365 750 L60 750 L60 730 L60 730 Z " />
<glyph glyph-name="dcaron" unicode="&#x10f;" horiz-adv-x="600" d="M587 758 C570 758 560 695 556 650 L546 539 L561 536 L600 641 C615 680 625 722 625 746 C625 755 610 758 587 758 L587 758 Z M350 709 L370 709 C397 708 415 689 415 662 L415 477 C378 497 331 510 280 510 C125 510 45 406 45 251 C45 97 130 -5 257 -5 C319 -5 381 23 415 66 L415 0 L457 0 L457 -1 C470 3 485 7 500 11 L500 11 L500 11 C529 19 560 27 585 34 L585 54 L550 44 C520 36 500 51 500 81 L500 750 L458 750 C444 747 428 743 414 739 C391 733 368 727 349 722 L350 709 L350 709 Z M414 376 L414 97 C383 57 335 31 291 31 C195 31 131 129 131 275 C131 402 185 486 289 486 C344 486 396 435 414 376 L414 376 Z " />
<glyph glyph-name="Emacron" unicode="&#x112;" horiz-adv-x="652" d="M200 895 L500 895 L500 954 L200 954 L200 895 L200 895 Z M555 750 L40 750 L40 730 L75 730 C117 730 145 702 145 660 L145 90 C145 48 117 20 75 20 L40 20 L40 0 L580 0 L582 10 L582 10 C589 51 599 105 606 146 L589 146 L582 126 C556 63 497 21 434 21 L325 21 C253 21 245 45 245 80 L245 385 L370 385 C418 385 457 353 467 305 L478 250 L495 250 L495 544 L478 544 L467 489 C457 441 418 409 370 409 L245 409 L245 729 L433 729 C481 729 524 697 540 649 L558 594 L575 594 C569 635 560 688 555 731 L555 750 L555 750 Z " />
<glyph glyph-name="emacron" unicode="&#x113;" horiz-adv-x="540" d="M151 645 L451 645 L451 704 L151 704 L151 645 L151 645 Z M140 340 L510 340 C488 462 408 510 301 510 C147 510 45 432 45 231 C45 86 138 -10 278 -10 C379 -10 467 47 498 133 L487 136 C467 82 392 46 298 46 C200 46 135 134 135 266 C135 293 137 318 141 340 L140 340 L140 340 Z M412 364 L145 360 C166 453 221 491 296 491 C348 491 390 455 411 364 L412 364 L412 364 Z " />
<glyph glyph-name="Ebreve" unicode="&#x114;" horiz-adv-x="652" d="M216 994 C223 920 276 870 350 870 C425 870 479 919 485 992 L467 995 C464 956 417 930 350 930 C283 930 237 957 233 997 L216 994 L216 994 Z M555 750 L40 750 L40 730 L75 730 C117 730 145 702 145 660 L145 90 C145 48 117 20 75 20 L40 20 L40 0 L580 0 L582 10 L582 10 C589 51 599 105 606 146 L589 146 L582 126 C556 63 497 21 434 21 L325 21 C253 21 245 45 245 80 L245 385 L370 385 C418 385 457 353 467 305 L478 250 L495 250 L495 544 L478 544 L467 489 C457 441 418 409 370 409 L245 409 L245 729 L433 729 C481 729 524 697 540 649 L558 594 L575 594 C569 635 560 688 555 731 L555 750 L555 750 Z " />
<glyph glyph-name="ebreve" unicode="&#x115;" horiz-adv-x="540" d="M167 744 C174 670 227 620 301 620 C376 620 430 669 436 742 L418 745 C415 706 368 680 301 680 C234 680 188 707 184 747 L167 744 L167 744 Z M140 340 L510 340 C488 462 408 510 301 510 C147 510 45 432 45 231 C45 86 138 -10 278 -10 C379 -10 467 47 498 133 L487 136 C467 82 392 46 298 46 C200 46 135 134 135 266 C135 293 137 318 141 340 L140 340 L140 340 Z M412 364 L145 360 C166 453 221 491 296 491 C348 491 390 455 411 364 L412 364 L412 364 Z " />
<glyph glyph-name="Edot" unicode="&#x116;" horiz-adv-x="652" d="M350 865 C383 865 405 887 405 920 C405 953 383 975 350 975 C317 975 295 953 295 920 C295 887 317 865 350 865 L350 865 Z M555 750 L40 750 L40 730 L75 730 C117 730 145 702 145 660 L145 90 C145 48 117 20 75 20 L40 20 L40 0 L580 0 L582 10 L582 10 C589 51 599 105 606 146 L589 146 L582 126 C556 63 497 21 434 21 L325 21 C253 21 245 45 245 80 L245 385 L370 385 C418 385 457 353 467 305 L478 250 L495 250 L495 544 L478 544 L467 489 C457 441 418 409 370 409 L245 409 L245 729 L433 729 C481 729 524 697 540 649 L558 594 L575 594 C569 635 560 688 555 731 L555 750 L555 750 Z " />
<glyph glyph-name="edot" unicode="&#x117;" horiz-adv-x="540" d="M301 615 C334 615 356 637 356 670 C356 703 334 725 301 725 C268 725 246 703 246 670 C246 637 268 615 301 615 L301 615 Z M140 340 L510 340 C488 462 408 510 301 510 C147 510 45 432 45 231 C45 86 138 -10 278 -10 C379 -10 467 47 498 133 L487 136 C467 82 392 46 298 46 C200 46 135 134 135 266 C135 293 137 318 141 340 L140 340 L140 340 Z M412 364 L145 360 C166 453 221 491 296 491 C348 491 390 455 411 364 L412 364 L412 364 Z " />
<glyph glyph-name="Ecaron" unicode="&#x11a;" horiz-adv-x="652" d="M490 1044 L350 905 L210 1044 L198 1034 L320 845 C326 836 340 815 350 815 C360 815 374 836 380 845 L502 1034 L490 1044 L490 1044 Z M555 750 L40 750 L40 730 L75 730 C117 730 145 702 145 660 L145 90 C145 48 117 20 75 20 L40 20 L40 0 L580 0 L582 10 L582 10 C589 51 599 105 606 146 L589 146 L582 126 C556 63 497 21 434 21 L325 21 C253 21 245 45 245 80 L245 385 L370 385 C418 385 457 353 467 305 L478 250 L495 250 L495 544 L478 544 L467 489 C457 441 418 409 370 409 L245 409 L245 729 L433 729 C481 729 524 697 540 649 L558 594 L575 594 C569 635 560 688 555 731 L555 750 L555 750 Z " />
<glyph glyph-name="ecaron" unicode="&#x11b;" horiz-adv-x="540" d="M441 794 L301 655 L161 794 L149 784 L271 595 C277 586 291 565 301 565 C311 565 325 586 331 595 L453 784 L441 794 L441 794 Z M140 340 L510 340 C488 462 408 510 301 510 C147 510 45 432 45 231 C45 86 138 -10 278 -10 C379 -10 467 47 498 133 L487 136 C467 82 392 46 298 46 C200 46 135 134 135 266 C135 293 137 318 141 340 L140 340 L140 340 Z M412 364 L145 360 C166 453 221 491 296 491 C348 491 390 455 411 364 L412 364 L412 364 Z " />
<glyph glyph-name="Gcircumflex" unicode="&#x11c;" horiz-adv-x="817" d="M681 747 C680 741 677 734 676 728 C669 699 641 693 606 715 L606 715 C560 743 501 760 414 760 C196 760 50 606 50 375 C50 144 195 -10 412 -10 C562 -10 663 18 752 59 L745 74 C723 64 700 55 675 47 L675 216 C675 267 707 301 756 301 L770 301 L770 326 L480 326 L480 301 L494 301 C543 301 575 267 575 216 C576 216 576 119 576 111 C574 51 516 12 429 12 C268 12 161 158 161 377 C161 593 267 737 425 737 C476 737 516 727 550 710 L550 710 C597 687 644 625 667 556 C670 548 674 536 677 528 L699 528 L699 749 L681 747 L681 747 Z M445 1007 C439 1016 425 1037 415 1037 C405 1037 391 1016 385 1007 L263 818 L275 808 L415 947 L555 808 L567 818 L445 1007 L445 1007 Z " />
<glyph glyph-name="Gbreve" unicode="&#x11e;" horiz-adv-x="817" d="M280 994 C287 920 340 870 414 870 C489 870 543 919 549 992 L531 995 C528 956 481 930 414 930 C347 930 301 957 297 997 L280 994 L280 994 Z M681 747 C680 741 677 734 676 728 C669 699 641 693 606 715 L606 715 C560 743 501 760 414 760 C196 760 50 606 50 375 C50 144 195 -10 412 -10 C562 -10 663 18 752 59 L745 74 C723 64 700 55 675 47 L675 216 C675 267 707 301 756 301 L770 301 L770 326 L480 326 L480 301 L494 301 C543 301 575 267 575 216 C576 216 576 119 576 111 C574 51 516 12 429 12 C268 12 161 158 161 377 C161 593 267 737 425 737 C476 737 516 727 550 710 L550 710 C597 687 644 625 667 556 C670 548 674 536 677 528 L699 528 L699 749 L681 747 L681 747 Z " />
<glyph glyph-name="gbreve" unicode="&#x11f;" horiz-adv-x="520" d="M121 744 C128 670 181 620 255 620 C330 620 384 669 390 742 L372 745 C369 706 322 680 255 680 C188 680 142 707 138 747 L121 744 L121 744 Z M541 479 C541 510 519 530 486 530 C452 530 415 503 391 461 C359 492 312 510 255 510 C147 510 75 446 75 350 C75 277 115 222 181 199 C103 186 55 151 55 104 C55 53 87 16 138 4 C81 -14 44 -52 44 -95 C44 -176 132 -230 264 -230 C396 -230 484 -165 484 -68 C484 23 432 84 298 84 L180 84 C134 84 103 102 103 130 C103 165 163 188 254 188 C362 188 434 253 434 350 C434 389 422 423 401 449 C413 466 426 477 436 477 C457 477 484 442 505 442 C527 442 541 457 541 479 L541 479 Z M255 208 C198 208 160 265 160 350 C160 434 198 490 255 490 C312 490 350 434 350 350 C350 265 312 208 255 208 L255 208 Z M159 1 C165 0 171 0 177 0 L291 0 C380 0 414 -35 414 -88 C414 -162 356 -211 270 -211 C178 -211 116 -157 116 -75 C116 -42 133 -14 159 1 L159 1 Z " />
<glyph glyph-name="Gdot" unicode="&#x120;" horiz-adv-x="817" d="M414 865 C447 865 469 887 469 920 C469 953 447 975 414 975 C381 975 359 953 359 920 C359 887 381 865 414 865 L414 865 Z M681 747 C680 741 677 734 676 728 C669 699 641 693 606 715 L606 715 C560 743 501 760 414 760 C196 760 50 606 50 375 C50 144 195 -10 412 -10 C562 -10 663 18 752 59 L745 74 C723 64 700 55 675 47 L675 216 C675 267 707 301 756 301 L770 301 L770 326 L480 326 L480 301 L494 301 C543 301 575 267 575 216 C576 216 576 119 576 111 C574 51 516 12 429 12 C268 12 161 158 161 377 C161 593 267 737 425 737 C476 737 516 727 550 710 L550 710 C597 687 644 625 667 556 C670 548 674 536 677 528 L699 528 L699 749 L681 747 L681 747 Z " />
<glyph glyph-name="gdot" unicode="&#x121;" horiz-adv-x="520" d="M255 615 C288 615 310 637 310 670 C310 703 288 725 255 725 C222 725 200 703 200 670 C200 637 222 615 255 615 L255 615 Z M541 479 C541 510 519 530 486 530 C452 530 415 503 391 461 C359 492 312 510 255 510 C147 510 75 446 75 350 C75 277 115 222 181 199 C103 186 55 151 55 104 C55 53 87 16 138 4 C81 -14 44 -52 44 -95 C44 -176 132 -230 264 -230 C396 -230 484 -165 484 -68 C484 23 432 84 298 84 L180 84 C134 84 103 102 103 130 C103 165 163 188 254 188 C362 188 434 253 434 350 C434 389 422 423 401 449 C413 466 426 477 436 477 C457 477 484 442 505 442 C527 442 541 457 541 479 L541 479 Z M255 208 C198 208 160 265 160 350 C160 434 198 490 255 490 C312 490 350 434 350 350 C350 265 312 208 255 208 L255 208 Z M159 1 C165 0 171 0 177 0 L291 0 C380 0 414 -35 414 -88 C414 -162 356 -211 270 -211 C178 -211 116 -157 116 -75 C116 -42 133 -14 159 1 L159 1 Z " />
<glyph glyph-name="Hcircumflex" unicode="&#x124;" horiz-adv-x="861" d="M479 1005 C473 1014 459 1035 449 1035 C439 1035 425 1014 419 1005 L297 816 L308 806 L448 945 L589 806 L600 816 L479 1005 L479 1005 Z M801 20 L766 20 C736 20 716 40 716 70 L716 680 C716 710 736 730 766 730 L801 730 L801 750 L531 750 L531 730 L566 730 C596 730 616 710 616 680 L616 409 L281 409 L281 680 C281 710 301 730 331 730 L366 730 L366 750 L96 750 L96 730 L131 730 C161 730 181 710 181 680 L181 70 C181 40 161 20 131 20 L96 20 L96 0 L366 0 L366 20 L331 20 C301 20 281 40 281 70 L281 383 L616 383 L616 70 C616 40 596 20 566 20 L531 20 L531 0 L801 0 L801 20 L801 20 Z " />
<glyph glyph-name="Itilde" unicode="&#x128;" horiz-adv-x="385" d="M50 870 C50 906 66 930 91 930 C143 930 212 865 264 865 C313 865 345 913 345 985 L330 985 C330 949 312 925 284 925 C232 925 163 990 111 990 C65 990 35 942 35 870 L50 870 L50 870 Z M325 20 L290 20 C260 20 240 40 240 70 L240 680 C240 710 260 730 290 730 L325 730 L325 750 L55 750 L55 730 L90 730 C120 730 140 710 140 680 L140 70 C140 40 120 20 90 20 L55 20 L55 0 L325 0 L325 20 L325 20 Z " />
<glyph glyph-name="itilde" unicode="&#x129;" horiz-adv-x="320" d="M27 620 C27 656 44 680 69 680 C121 680 190 615 242 615 C291 615 323 663 323 735 L308 735 C308 699 290 675 262 675 C210 675 140 740 88 740 C42 740 12 692 12 620 L27 620 L27 620 Z M60 452 L110 465 C119 468 125 463 125 454 L125 35 C125 26 119 20 110 20 L60 20 L60 0 L275 0 L275 20 L225 20 C216 20 210 26 210 35 L210 500 L168 500 L168 501 C136 492 92 481 60 472 L60 452 L60 452 Z " />
<glyph glyph-name="Imacron" unicode="&#x12a;" horiz-adv-x="385" d="M40 895 L340 895 L340 954 L40 954 L40 895 L40 895 Z M325 20 L290 20 C260 20 240 40 240 70 L240 680 C240 710 260 730 290 730 L325 730 L325 750 L55 750 L55 730 L90 730 C120 730 140 710 140 680 L140 70 C140 40 120 20 90 20 L55 20 L55 0 L325 0 L325 20 L325 20 Z " />
<glyph glyph-name="imacron" unicode="&#x12b;" horiz-adv-x="320" d="M18 645 L318 645 L318 704 L18 704 L18 645 L18 645 Z M60 452 L110 465 C119 468 125 463 125 454 L125 35 C125 26 119 20 110 20 L60 20 L60 0 L275 0 L275 20 L225 20 C216 20 210 26 210 35 L210 500 L168 500 L168 501 C136 492 92 481 60 472 L60 452 L60 452 Z " />
<glyph glyph-name="Ibreve" unicode="&#x12c;" horiz-adv-x="385" d="M56 994 C63 920 116 870 190 870 C265 870 319 919 325 992 L307 995 C304 956 257 930 190 930 C123 930 77 957 73 997 L56 994 L56 994 Z M325 20 L290 20 C260 20 240 40 240 70 L240 680 C240 710 260 730 290 730 L325 730 L325 750 L55 750 L55 730 L90 730 C120 730 140 710 140 680 L140 70 C140 40 120 20 90 20 L55 20 L55 0 L325 0 L325 20 L325 20 Z " />
<glyph glyph-name="ibreve" unicode="&#x12d;" horiz-adv-x="320" d="M33 744 C40 670 94 620 168 620 C242 620 296 669 302 742 L284 745 C281 706 234 680 168 680 C101 680 55 707 51 747 L33 744 L33 744 Z M60 452 L110 465 C119 468 125 463 125 454 L125 35 C125 26 119 20 110 20 L60 20 L60 0 L275 0 L275 20 L225 20 C216 20 210 26 210 35 L210 500 L168 500 L168 501 C136 492 92 481 60 472 L60 452 L60 452 Z " />
<glyph glyph-name="Idot" unicode="&#x130;" horiz-adv-x="385" d="M190 865 C223 865 245 887 245 920 C245 953 223 975 190 975 C157 975 135 953 135 920 C135 887 157 865 190 865 L190 865 Z M325 20 L290 20 C260 20 240 40 240 70 L240 680 C240 710 260 730 290 730 L325 730 L325 750 L55 750 L55 730 L90 730 C120 730 140 710 140 680 L140 70 C140 40 120 20 90 20 L55 20 L55 0 L325 0 L325 20 L325 20 Z " />
<glyph glyph-name="dotlessi" unicode="&#x131;" horiz-adv-x="320" d="M60 452 L110 465 C119 468 125 463 125 454 L125 35 C125 26 119 20 110 20 L60 20 L60 0 L275 0 L275 20 L225 20 C216 20 210 26 210 35 L210 500 L168 500 L168 501 C136 492 92 481 60 472 L60 452 L60 452 Z " />
<glyph glyph-name="Jcircumflex" unicode="&#x134;" horiz-adv-x="385" d="M220 1005 C214 1014 200 1035 190 1035 C180 1035 166 1014 160 1005 L38 816 L50 806 L190 945 L330 806 L342 816 L220 1005 L220 1005 Z M325 750 L55 750 L55 730 L90 730 C120 730 140 710 140 680 L140 -72 C140 -167 82 -185 40 -185 C-9 -185 15 -105 -35 -105 C-62 -105 -80 -123 -80 -150 C-80 -192 -42 -220 15 -220 C110 -220 240 -166 240 116 L240 680 C240 710 260 730 290 730 L325 730 L325 750 L325 750 Z " />
<glyph glyph-name="Lacute" unicode="&#x139;" horiz-adv-x="650" d="M198 812 L340 932 C378 965 404 990 404 996 C404 1019 385 1038 362 1038 C356 1038 333 1011 301 971 L187 823 L198 812 L198 812 Z M325 750 L55 750 L55 730 L90 730 C120 730 140 710 140 680 L140 70 C140 40 120 20 90 20 L55 20 L55 0 L575 0 L577 8 L577 8 C584 48 594 102 601 142 L584 142 L577 122 C551 59 492 17 429 17 L320 17 C248 17 240 42 240 80 L240 680 C240 710 260 730 290 730 L325 730 L325 750 L325 750 Z " />
<glyph glyph-name="Lcaron" unicode="&#x13d;" horiz-adv-x="650" d="M427 808 C410 808 400 745 396 700 L386 589 L401 586 L440 691 C455 730 465 772 465 796 C465 805 450 808 427 808 L427 808 Z M325 750 L55 750 L55 730 L90 730 C120 730 140 710 140 680 L140 70 C140 40 120 20 90 20 L55 20 L55 0 L575 0 L577 8 L577 8 C584 48 594 102 601 142 L584 142 L577 122 C551 59 492 17 429 17 L320 17 C248 17 240 42 240 80 L240 680 C240 710 260 730 290 730 L325 730 L325 750 L325 750 Z " />
<glyph glyph-name="lcaron" unicode="&#x13e;" horiz-adv-x="264" d="M256 758 C239 758 229 695 225 650 L215 539 L230 536 L269 641 C284 680 294 722 294 746 C294 755 279 758 256 758 L256 758 Z M20 711 L40 711 C66 710 84 692 85 666 C85 464 84 142 84 36 C84 27 78 21 69 21 L19 21 L19 1 L234 1 L234 21 L184 21 C175 21 169 27 169 36 L169 751 L127 751 C95 742 52 733 20 724 L20 711 L20 711 Z " />
<glyph glyph-name="Nacute" unicode="&#x143;" horiz-adv-x="786" d="M297 812 L439 932 C477 965 503 990 503 996 C503 1019 484 1038 461 1038 C455 1038 431 1011 400 971 L287 823 L297 812 L297 812 Z M53 0 L253 0 L253 20 L218 20 C188 20 168 40 168 70 L168 70 L165 612 C314 408 463 204 613 0 L633 0 L640 686 C643 712 663 729 691 729 L726 729 L726 749 L526 749 L526 729 L561 729 C591 729 611 709 611 679 L611 679 L612 170 C470 363 329 557 188 750 L-6 750 L-6 730 L29 730 C59 730 93 710 115 680 L115 680 L139 648 L138 70 C138 40 118 20 88 20 L53 20 L53 0 L53 0 Z " />
<glyph glyph-name="Ncaron" unicode="&#x147;" horiz-adv-x="786" d="M530 1044 L389 905 L249 1044 L238 1034 L360 845 C366 836 380 815 390 815 C400 815 414 836 420 845 L541 1034 L530 1044 L530 1044 Z M53 0 L253 0 L253 20 L218 20 C188 20 168 40 168 70 L168 70 L165 612 C314 408 463 204 613 0 L633 0 L640 686 C643 712 663 729 691 729 L726 729 L726 749 L526 749 L526 729 L561 729 C591 729 611 709 611 679 L611 679 L612 170 C470 363 329 557 188 750 L-6 750 L-6 730 L29 730 C59 730 93 710 115 680 L115 680 L139 648 L138 70 C138 40 118 20 88 20 L53 20 L53 0 L53 0 Z " />
<glyph glyph-name="ncaron" unicode="&#x148;" horiz-adv-x="569" d="M419 794 L279 655 L139 794 L127 784 L249 595 C255 586 269 565 279 565 C289 565 303 586 309 595 L431 784 L419 794 L419 794 Z M19 461 L39 460 C66 460 84 440 84 413 L84 35 C84 26 78 20 69 20 L19 20 L19 0 L234 0 L234 20 L184 20 C175 20 169 26 169 35 L169 360 C199 413 246 448 286 448 C354 448 389 401 389 330 L389 35 C389 26 383 20 374 20 L324 20 L324 0 L539 0 L539 20 L489 20 C480 20 474 26 474 35 L474 330 C474 438 427 510 337 510 C280 510 212 460 169 385 L169 500 L127 500 C95 491 51 482 19 473 L19 461 L19 461 Z " />
<glyph glyph-name="Omacron" unicode="&#x14c;" horiz-adv-x="851" d="M268 895 L568 895 L568 954 L268 954 L268 895 L268 895 Z M159 375 C159 591 261 735 414 735 C578 735 687 591 687 375 C687 159 577 15 413 15 C261 15 159 159 159 375 L159 375 Z M50 375 C50 144 193 -10 408 -10 C641 -10 796 144 796 375 C796 606 645 760 418 760 C197 760 50 606 50 375 L50 375 Z " />
<glyph glyph-name="omacron" unicode="&#x14d;" horiz-adv-x="613" d="M157 645 L457 645 L457 704 L157 704 L157 645 L157 645 Z M139 250 C139 390 206 484 307 484 C408 484 475 390 475 250 C475 110 408 16 307 16 C206 16 139 110 139 250 L139 250 Z M45 250 C45 94 150 -10 307 -10 C464 -10 568 94 568 250 C568 406 464 510 307 510 C150 510 45 406 45 250 L45 250 Z " />
<glyph glyph-name="Obreve" unicode="&#x14e;" horiz-adv-x="851" d="M284 994 C291 920 344 870 418 870 C493 870 547 919 553 992 L535 995 C532 956 485 930 418 930 C351 930 305 957 301 997 L284 994 L284 994 Z M159 375 C159 591 261 735 414 735 C578 735 687 591 687 375 C687 159 577 15 413 15 C261 15 159 159 159 375 L159 375 Z M50 375 C50 144 193 -10 408 -10 C641 -10 796 144 796 375 C796 606 645 760 418 760 C197 760 50 606 50 375 L50 375 Z " />
<glyph glyph-name="obreve" unicode="&#x14f;" horiz-adv-x="613" d="M173 744 C180 670 233 620 307 620 C382 620 436 669 442 742 L424 745 C421 706 374 680 307 680 C240 680 194 707 190 747 L173 744 L173 744 Z M139 250 C139 390 206 484 307 484 C408 484 475 390 475 250 C475 110 408 16 307 16 C206 16 139 110 139 250 L139 250 Z M45 250 C45 94 150 -10 307 -10 C464 -10 568 94 568 250 C568 406 464 510 307 510 C150 510 45 406 45 250 L45 250 Z " />
<glyph glyph-name="Racute" unicode="&#x154;" horiz-adv-x="796" d="M330 812 L472 932 C510 965 536 990 536 996 C536 1019 517 1038 494 1038 C488 1038 464 1011 433 971 L320 823 L330 812 L330 812 Z M60 730 L95 730 C125 730 145 710 145 680 L145 70 C145 40 125 20 95 20 L60 20 L60 0 L330 0 L330 20 L295 20 C265 20 245 40 245 70 L245 355 L346 355 C367 319 437 216 533 81 C588 4 598 1 785 1 L785 21 C696 21 691 23 650 81 C552 219 479 322 448 365 C548 386 610 442 610 539 C610 666 506 751 349 751 L59 751 L60 730 L60 730 Z M244 381 L244 731 L319 731 C427 731 499 662 499 559 C499 436 439 381 349 381 L244 381 L244 381 Z " />
<glyph glyph-name="Rcaron" unicode="&#x158;" horiz-adv-x="796" d="M463 1044 L322 905 L182 1044 L171 1034 L293 845 C299 836 313 815 323 815 C333 815 347 836 353 845 L474 1034 L463 1044 L463 1044 Z M60 730 L95 730 C125 730 145 710 145 680 L145 70 C145 40 125 20 95 20 L60 20 L60 0 L330 0 L330 20 L295 20 C265 20 245 40 245 70 L245 355 L346 355 C367 319 437 216 533 81 C588 4 598 1 785 1 L785 21 C696 21 691 23 650 81 C552 219 479 322 448 365 C548 386 610 442 610 539 C610 666 506 751 349 751 L59 751 L60 730 L60 730 Z M244 381 L244 731 L319 731 C427 731 499 662 499 559 C499 436 439 381 349 381 L244 381 L244 381 Z " />
<glyph glyph-name="rcaron" unicode="&#x159;" horiz-adv-x="420" d="M380 794 L240 655 L100 794 L88 784 L210 595 C216 586 230 565 240 565 C250 565 264 586 270 595 L392 784 L380 794 L380 794 Z M21 461 L41 461 C67 460 85 442 86 416 C86 289 86 109 86 34 C86 25 80 19 71 19 L21 19 L21 -1 L236 -1 L236 19 L186 19 C177 19 171 25 171 34 L171 356 C194 424 235 469 276 469 C297 469 311 455 311 434 C311 404 331 384 361 384 C391 384 411 404 411 434 C411 479 373 509 316 509 C252 509 196 466 172 400 L172 499 L130 499 C98 490 55 481 23 472 L21 461 L21 461 Z " />
<glyph glyph-name="Sacute" unicode="&#x15a;" horiz-adv-x="551" d="M282 812 L424 932 C462 965 488 990 488 996 C488 1019 469 1038 446 1038 C440 1038 417 1011 385 971 L271 823 L282 812 L282 812 Z M68 0 C69 7 71 16 72 23 C78 55 109 60 148 34 L148 34 C191 6 241 -10 292 -10 C423 -10 511 72 511 196 C511 293 447 382 322 427 C204 470 143 536 143 601 C143 681 188 735 256 735 C274 735 292 733 309 729 C364 717 416 657 439 581 C442 572 446 559 449 550 L471 550 L471 754 L454 754 C453 749 450 743 449 738 C443 715 418 711 387 728 L387 728 C349 748 304 760 256 760 C141 760 64 681 64 563 C64 462 131 371 262 323 C374 282 431 224 431 167 C431 80 375 22 292 22 C262 22 232 28 204 39 L204 39 C153 60 104 127 81 207 C78 217 75 229 72 239 L49 239 L49 -1 L68 0 L68 0 Z " />
<glyph glyph-name="Scircumflex" unicode="&#x15c;" horiz-adv-x="551" d="M68 0 C69 7 71 16 72 23 C78 55 109 60 148 34 L148 34 C191 6 241 -10 292 -10 C423 -10 511 72 511 196 C511 293 447 382 322 427 C204 470 143 536 143 601 C143 681 188 735 256 735 C274 735 292 733 309 729 C364 717 416 657 439 581 C442 572 446 559 449 550 L471 550 L471 754 L454 754 C453 749 450 743 449 738 C443 715 418 711 387 728 L387 728 C349 748 304 760 256 760 C141 760 64 681 64 563 C64 462 131 371 262 323 C374 282 431 224 431 167 C431 80 375 22 292 22 C262 22 232 28 204 39 L204 39 C153 60 104 127 81 207 C78 217 75 229 72 239 L49 239 L49 -1 L68 0 L68 0 Z M303 1004 C297 1013 283 1034 273 1034 C263 1034 249 1013 243 1004 L121 815 L133 805 L273 944 L413 805 L425 815 L303 1004 L303 1004 Z " />
<glyph glyph-name="Scaron" unicode="&#x160;" horiz-adv-x="551" d="M414 1044 L274 905 L134 1044 L122 1034 L244 845 C250 836 264 815 274 815 C284 815 298 836 304 845 L426 1034 L414 1044 L414 1044 Z M68 0 C69 7 71 16 72 23 C78 55 109 60 148 34 L148 34 C191 6 241 -10 292 -10 C423 -10 511 72 511 196 C511 293 447 382 322 427 C204 470 143 536 143 601 C143 681 188 735 256 735 C274 735 292 733 309 729 C364 717 416 657 439 581 C442 572 446 559 449 550 L471 550 L471 754 L454 754 C453 749 450 743 449 738 C443 715 418 711 387 728 L387 728 C349 748 304 760 256 760 C141 760 64 681 64 563 C64 462 131 371 262 323 C374 282 431 224 431 167 C431 80 375 22 292 22 C262 22 232 28 204 39 L204 39 C153 60 104 127 81 207 C78 217 75 229 72 239 L49 239 L49 -1 L68 0 L68 0 Z " />
<glyph glyph-name="scaron" unicode="&#x161;" horiz-adv-x="428" d="M358 794 L218 655 L78 794 L66 784 L188 595 C194 586 208 565 218 565 C228 565 242 586 248 595 L370 784 L358 794 L358 794 Z M353 342 L353 510 L340 510 C339 506 337 502 336 498 C333 487 306 488 267 499 C247 506 226 510 204 510 C117 510 59 458 59 380 C59 305 107 243 199 218 C274 198 313 155 313 106 C313 32 247 -9 174 18 C127 35 89 90 78 156 C77 162 75 171 74 177 L60 177 L60 -1 L74 -1 C75 3 76 8 77 12 C81 26 109 23 149 5 L149 5 C171 -5 194 -10 218 -10 C314 -10 378 46 378 130 C378 199 330 257 237 282 C159 303 119 352 119 409 C119 470 172 501 237 486 C285 474 324 425 335 363 C336 357 337 348 338 342 L353 342 L353 342 Z " />
<glyph glyph-name="Tcaron" unicode="&#x164;" horiz-adv-x="775" d="M528 1044 L388 905 L248 1044 L236 1034 L358 845 C364 836 378 815 388 815 C398 815 412 836 418 845 L540 1034 L528 1044 L528 1044 Z M-5 600 L12 600 L38 640 C69 691 125 725 176 725 L338 725 L338 70 C338 40 318 20 288 20 L253 20 L253 0 L523 0 L523 20 L488 20 C458 20 438 40 438 70 L438 725 L599 725 C650 725 706 691 737 640 L763 600 L780 600 C766 633 759 651 720 749 L720 750 L720 750 C714 765 707 782 702 795 L690 795 L686 788 C671 765 628 750 579 750 L196 750 C147 750 104 765 89 788 L85 795 L73 795 C47 732 21 664 -5 601 L-5 600 L-5 600 Z " />
<glyph glyph-name="tcaron" unicode="&#x165;" horiz-adv-x="378" d="M333 500 L180 500 L180 620 L174 620 L30 466 L30 456 L95 456 L95 160 C95 38 150 -10 232 -10 C290 -10 345 32 368 96 L358 100 C343 58 303 30 258 30 C210 30 178 61 178 141 L180 455 L333 455 L333 500 L333 500 Z M425 758 C408 758 398 695 394 650 L384 539 L399 536 L438 641 C453 680 463 722 463 746 C463 755 448 758 425 758 L425 758 Z " />
<glyph glyph-name="Utilde" unicode="&#x168;" horiz-adv-x="760" d="M237 870 C237 906 254 930 279 930 C331 930 400 865 452 865 C501 865 533 913 533 985 L518 985 C518 949 500 925 472 925 C420 925 350 990 298 990 C252 990 222 942 222 870 L237 870 L237 870 Z M730 36 L730 56 L695 46 C665 38 645 53 645 83 L645 750 L460 750 L460 730 L495 730 C525 730 545 710 545 680 L545 190 C507 108 423 54 334 54 C260 54 210 120 210 220 L210 750 L25 750 L25 730 L60 730 C90 730 110 710 110 680 L110 220 C110 82 184 -10 294 -10 C401 -10 502 52 545 145 L545 0 L595 0 C638 11 690 26 730 37 L730 36 L730 36 Z " />
<glyph glyph-name="utilde" unicode="&#x169;" horiz-adv-x="560" d="M135 620 C135 656 151 680 176 680 C228 680 297 615 349 615 C398 615 430 663 430 735 L415 735 C415 699 397 675 369 675 C317 675 248 740 196 740 C150 740 120 692 120 620 L135 620 L135 620 Z M545 51 L520 44 C490 36 470 51 470 81 L470 500 L320 500 L320 480 L370 480 C379 480 385 474 385 465 L385 144 C359 86 309 48 257 48 C202 48 165 92 165 159 L165 499 L15 499 L15 479 L65 479 C74 479 80 473 80 464 L80 159 C80 57 135 -11 217 -11 C286 -11 352 40 385 118 L385 -1 L427 -1 L427 -2 C440 2 455 6 470 10 C496 17 523 24 545 30 L545 51 L545 51 Z " />
<glyph glyph-name="Umacron" unicode="&#x16a;" horiz-adv-x="760" d="M228 895 L528 895 L528 954 L228 954 L228 895 L228 895 Z M730 36 L730 56 L695 46 C665 38 645 53 645 83 L645 750 L460 750 L460 730 L495 730 C525 730 545 710 545 680 L545 190 C507 108 423 54 334 54 C260 54 210 120 210 220 L210 750 L25 750 L25 730 L60 730 C90 730 110 710 110 680 L110 220 C110 82 184 -10 294 -10 C401 -10 502 52 545 145 L545 0 L595 0 C638 11 690 26 730 37 L730 36 L730 36 Z " />
<glyph glyph-name="umacron" unicode="&#x16b;" horiz-adv-x="560" d="M125 645 L425 645 L425 704 L125 704 L125 645 L125 645 Z M545 51 L520 44 C490 36 470 51 470 81 L470 500 L320 500 L320 480 L370 480 C379 480 385 474 385 465 L385 144 C359 86 309 48 257 48 C202 48 165 92 165 159 L165 499 L15 499 L15 479 L65 479 C74 479 80 473 80 464 L80 159 C80 57 135 -11 217 -11 C286 -11 352 40 385 118 L385 -1 L427 -1 L427 -2 C440 2 455 6 470 10 C496 17 523 24 545 30 L545 51 L545 51 Z " />
<glyph glyph-name="Ubreve" unicode="&#x16c;" horiz-adv-x="760" d="M243 994 C250 920 304 870 378 870 C452 870 506 919 512 992 L494 995 C491 956 444 930 378 930 C311 930 265 957 261 997 L243 994 L243 994 Z M730 36 L730 56 L695 46 C665 38 645 53 645 83 L645 750 L460 750 L460 730 L495 730 C525 730 545 710 545 680 L545 190 C507 108 423 54 334 54 C260 54 210 120 210 220 L210 750 L25 750 L25 730 L60 730 C90 730 110 710 110 680 L110 220 C110 82 184 -10 294 -10 C401 -10 502 52 545 145 L545 0 L595 0 C638 11 690 26 730 37 L730 36 L730 36 Z " />
<glyph glyph-name="ubreve" unicode="&#x16d;" horiz-adv-x="560" d="M141 744 C148 670 201 620 275 620 C350 620 404 669 410 742 L392 745 C389 706 342 680 275 680 C208 680 162 707 158 747 L141 744 L141 744 Z M545 51 L520 44 C490 36 470 51 470 81 L470 500 L320 500 L320 480 L370 480 C379 480 385 474 385 465 L385 144 C359 86 309 48 257 48 C202 48 165 92 165 159 L165 499 L15 499 L15 479 L65 479 C74 479 80 473 80 464 L80 159 C80 57 135 -11 217 -11 C286 -11 352 40 385 118 L385 -1 L427 -1 L427 -2 C440 2 455 6 470 10 C496 17 523 24 545 30 L545 51 L545 51 Z " />
<glyph glyph-name="Uring" unicode="&#x16e;" horiz-adv-x="760" d="M305 905 C305 950 334 980 378 980 C421 980 450 950 450 905 C450 865 417 830 378 830 C339 830 305 865 305 905 L305 905 Z M280 905 C280 854 325 810 378 810 C430 810 475 854 475 905 C475 962 436 1000 378 1000 C319 1000 280 962 280 905 L280 905 Z M730 36 L730 56 L695 46 C665 38 645 53 645 83 L645 750 L460 750 L460 730 L495 730 C525 730 545 710 545 680 L545 190 C507 108 423 54 334 54 C260 54 210 120 210 220 L210 750 L25 750 L25 730 L60 730 C90 730 110 710 110 680 L110 220 C110 82 184 -10 294 -10 C401 -10 502 52 545 145 L545 0 L595 0 C638 11 690 26 730 37 L730 36 L730 36 Z " />
<glyph glyph-name="uring" unicode="&#x16f;" horiz-adv-x="560" d="M203 655 C203 700 232 730 275 730 C319 730 348 700 348 655 C348 615 314 580 275 580 C236 580 203 615 203 655 L203 655 Z M178 655 C178 604 223 560 275 560 C328 560 373 604 373 655 C373 712 334 750 275 750 C217 750 178 712 178 655 L178 655 Z M545 51 L520 44 C490 36 470 51 470 81 L470 500 L320 500 L320 480 L370 480 C379 480 385 474 385 465 L385 144 C359 86 309 48 257 48 C202 48 165 92 165 159 L165 499 L15 499 L15 479 L65 479 C74 479 80 473 80 464 L80 159 C80 57 135 -11 217 -11 C286 -11 352 40 385 118 L385 -1 L427 -1 L427 -2 C440 2 455 6 470 10 C496 17 523 24 545 30 L545 51 L545 51 Z " />
<glyph glyph-name="Wcircumflex" unicode="&#x174;" horiz-adv-x="1109" d="M503 645 L503 645 L559 499 L414 120 L222 645 L223 645 C205 693 225 725 273 725 L294 725 L294 750 L9 750 L9 725 L20 725 C58 725 96 693 114 645 L114 645 C198 427 282 209 366 -9 L391 -9 L576 458 C636 302 696 146 756 -9 L781 -9 L975 646 C989 694 1031 726 1079 726 L1094 726 L1094 751 L822 751 L822 726 L880 726 C926 726 949 696 939 651 L797 139 L612 650 C597 696 617 726 664 726 L705 726 L705 751 L395 751 L395 726 L407 726 C447 726 487 694 505 646 L503 645 L503 645 Z M571 1006 C565 1015 551 1036 541 1036 C531 1036 517 1015 511 1006 L389 817 L400 807 L540 946 L681 807 L692 817 L571 1006 L571 1006 Z " />
<glyph glyph-name="Ycircumflex" unicode="&#x176;" horiz-adv-x="764" d="M289 750 L9 750 L9 730 L24 730 C57 730 93 708 114 675 L114 675 L340 322 L340 90 C340 48 312 20 270 20 L235 20 L235 0 L545 0 L545 20 L510 20 C468 20 440 48 440 90 L440 325 C504 442 568 559 633 675 C651 708 685 730 718 730 L758 730 L758 750 L499 750 L499 730 L559 730 C592 730 603 708 587 675 L430 356 C364 462 297 569 231 675 C210 708 218 730 251 730 L289 730 L289 750 L289 750 Z M420 1005 C414 1014 400 1035 390 1035 C380 1035 366 1014 360 1005 L238 816 L250 806 L390 945 L530 806 L542 816 L420 1005 L420 1005 Z " />
<glyph glyph-name="Ydieresis" unicode="&#x178;" horiz-adv-x="764" d="M465 865 C498 865 520 887 520 920 C520 953 498 975 465 975 C432 975 410 953 410 920 C410 887 432 865 465 865 L465 865 Z M315 865 C348 865 370 887 370 920 C370 953 348 975 315 975 C282 975 260 953 260 920 C260 887 282 865 315 865 L315 865 Z M289 750 L9 750 L9 730 L24 730 C57 730 93 708 114 675 L114 675 L340 322 L340 90 C340 48 312 20 270 20 L235 20 L235 0 L545 0 L545 20 L510 20 C468 20 440 48 440 90 L440 325 C504 442 568 559 633 675 C651 708 685 730 718 730 L758 730 L758 750 L499 750 L499 730 L559 730 C592 730 603 708 587 675 L430 356 C364 462 297 569 231 675 C210 708 218 730 251 730 L289 730 L289 750 L289 750 Z " />
<glyph glyph-name="Zacute" unicode="&#x179;" horiz-adv-x="652" d="M348 812 L490 932 C528 965 554 990 554 996 C554 1019 535 1038 512 1038 C506 1038 483 1011 451 971 L337 823 L348 812 L348 812 Z M642 155 L625 155 L616 134 C589 75 534 34 475 28 L143 22 L610 730 L610 750 L70 750 L69 736 C69 736 64 680 57 597 L74 597 L80 618 C99 681 155 723 218 724 L502 728 L25 20 L25 0 L606 0 C606 0 630 104 642 155 L642 155 Z " />
<glyph glyph-name="Zdot" unicode="&#x17b;" horiz-adv-x="652" d="M340 865 C373 865 395 887 395 920 C395 953 373 975 340 975 C307 975 285 953 285 920 C285 887 307 865 340 865 L340 865 Z M642 155 L625 155 L616 134 C589 75 534 34 475 28 L143 22 L610 730 L610 750 L70 750 L69 736 C69 736 64 680 57 597 L74 597 L80 618 C99 681 155 723 218 724 L502 728 L25 20 L25 0 L606 0 C606 0 630 104 642 155 L642 155 Z " />
<glyph glyph-name="zdot" unicode="&#x17c;" horiz-adv-x="475" d="M253 615 C286 615 308 637 308 670 C308 703 286 725 253 725 C220 725 198 703 198 670 C198 637 220 615 253 615 L253 615 Z M301 27 L144 23 L435 480 L435 500 L122 500 C104 500 93 511 94 527 L96 532 L74 532 C55 467 61 487 30 373 L49 373 L58 387 C84 434 131 467 178 473 L332 477 L39 20 L39 0 L429 0 C431 0 438 59 445 128 L426 128 L420 113 C398 63 350 29 299 27 L301 27 L301 27 Z " />
<glyph glyph-name="Zcaron" unicode="&#x17d;" horiz-adv-x="652" d="M480 1044 L340 905 L200 1044 L188 1034 L310 845 C316 836 330 815 340 815 C350 815 364 836 370 845 L492 1034 L480 1044 L480 1044 Z M642 155 L625 155 L616 134 C589 75 534 34 475 28 L143 22 L610 730 L610 750 L70 750 L69 736 C69 736 64 680 57 597 L74 597 L80 618 C99 681 155 723 218 724 L502 728 L25 20 L25 0 L606 0 C606 0 630 104 642 155 L642 155 Z " />
<glyph glyph-name="zcaron" unicode="&#x17e;" horiz-adv-x="475" d="M393 794 L253 655 L113 794 L101 784 L223 595 C229 586 243 565 253 565 C263 565 277 586 283 595 L405 784 L393 794 L393 794 Z M301 27 L144 23 L435 480 L435 500 L122 500 C104 500 93 511 94 527 L96 532 L74 532 C55 467 61 487 30 373 L49 373 L58 387 C84 434 131 467 178 473 L332 477 L39 20 L39 0 L429 0 C431 0 438 59 445 128 L426 128 L420 113 C398 63 350 29 299 27 L301 27 L301 27 Z " />
<glyph glyph-name="oogonek" unicode="&#x1eb;" horiz-adv-x="759" d="M984 -43 L978 -35 C944 -64 835 -83 706 -83 C556 -83 406 -54 314 -7 C330 -9 347 -10 365 -10 C571 -10 708 111 708 292 C708 473 575 593 375 593 C181 593 52 473 52 292 C52 167 112 70 211 22 C373 -86 565 -158 692 -158 C784 -158 901 -112 983 -43 L984 -43 L984 -43 Z M149 292 C149 459 238 571 371 571 C515 571 611 459 611 292 C611 117 504 0 344 0 C227 0 149 117 149 292 L149 292 Z " />
<glyph glyph-name="Adotabove" unicode="&#x226;" horiz-adv-x="796" d="M421 865 C454 865 476 887 476 920 C476 953 454 975 421 975 C388 975 366 953 366 920 C366 887 388 865 421 865 L421 865 Z M305 0 L305 25 L278 25 C222 25 194 60 207 114 L259 279 L510 279 L560 120 C576 63 548 25 490 25 L463 25 L463 0 L790 0 L790 25 L776 25 C728 25 684 63 664 120 C595 337 526 554 457 771 L447 771 C451 748 421 728 373 721 C374 718 375 714 376 711 C312 516 248 321 183 126 C163 66 110 26 50 26 L15 26 L15 1 L305 0 L305 0 Z M268 306 L386 679 L503 306 L268 306 L268 306 Z " />
<glyph glyph-name="G_sc" unicode="&#x262;" horiz-adv-x="732" d="M596 608 C595 602 592 594 591 588 C585 559 556 551 520 567 C483 584 435 593 368 593 C178 593 52 473 52 292 C52 111 179 -10 370 -10 C445 -10 510 2 571 22 L590 27 L590 29 C617 38 643 49 669 61 L662 74 C639 63 615 53 591 44 L591 143 C591 194 623 228 672 228 L686 228 L686 253 L406 253 L406 228 L420 228 C469 228 501 194 501 143 L502 143 C502 127 502 111 502 95 C499 43 454 8 386 8 C246 8 152 122 152 292 C152 459 242 571 378 571 C392 571 462 564 461 560 C511 545 559 489 582 418 C585 409 589 398 592 389 L614 389 L614 608 L596 608 L596 608 Z " />
<glyph glyph-name="I_sc" unicode="&#x26a;" horiz-adv-x="380" d="M320 20 L285 20 C255 20 235 40 235 70 L235 513 C235 543 255 563 285 563 L320 563 L320 583 L60 583 L60 563 L95 563 C125 563 145 543 145 513 L145 70 C145 40 125 20 95 20 L60 20 L60 0 L320 0 L320 20 L320 20 Z " />
<glyph glyph-name="N_sc" unicode="&#x274;" horiz-adv-x="705" d="M2 563 L37 563 C66 563 101 544 125 516 L139 498 L138 70 L138 70 C138 40 118 20 88 20 L53 20 L53 0 L250 0 L250 20 L215 20 C185 20 165 40 165 70 L165 70 L163 468 C288 312 413 156 537 -1 L555 -1 L560 519 C563 545 583 562 611 562 L646 562 L646 582 L449 582 L449 562 L484 562 C514 562 534 542 534 512 L534 512 L536 110 C419 268 301 425 183 582 L2 582 L2 563 L2 563 Z " />
<glyph glyph-name="R_sc" unicode="&#x280;" horiz-adv-x="660" d="M63 563 L98 563 C128 563 148 543 148 513 L148 70 C148 40 128 20 98 20 L63 20 L63 0 L323 0 L323 20 L288 20 C258 20 238 40 238 70 L238 273 L290 273 C308 243 364 164 440 61 C484 1 493 -1 649 -1 L649 17 C581 17 576 19 545 61 C467 165 408 244 382 279 C471 296 526 340 526 417 C526 516 432 582 292 582 L62 582 L63 563 L63 563 Z M237 295 L237 564 L265 564 C362 564 427 512 427 434 C427 338 373 295 292 295 L237 295 L237 295 Z " />
<glyph glyph-name="Y_sc" unicode="&#x28f;" horiz-adv-x="676" d="M280 583 L12 583 L12 563 L27 563 C59 563 95 542 118 510 L300 247 L300 89 C300 47 272 19 230 19 L195 19 L195 -1 L495 -1 L495 19 L460 19 C418 19 390 47 390 89 L390 250 C441 336 491 422 542 507 C561 540 596 562 629 562 L669 562 L669 582 L416 582 L416 562 L476 562 C507 562 518 542 505 512 L381 276 C330 353 277 431 227 507 C205 540 212 562 244 562 L281 562 L280 583 L280 583 Z " />
<glyph glyph-name="B_sc" unicode="&#x299;" horiz-adv-x="587" d="M330 9 L280 9 C255 9 238 42 238 91 L238 299 L325 299 C399 299 448 243 448 158 C448 37 401 9 330 9 L330 9 Z M358 0 C471 0 547 30 547 158 C547 240 497 298 420 312 C483 334 522 382 522 445 C522 528 479 584 298 584 L63 584 L63 559 L98 559 C128 559 148 539 148 509 L148 76 C148 46 128 26 98 26 L63 26 L63 1 L358 0 L358 0 Z M329 316 L238 316 L238 566 L261 566 C400 566 433 514 433 435 C433 364 391 316 329 316 L329 316 Z " />
<glyph glyph-name="H_sc" unicode="&#x29c;" horiz-adv-x="781" d="M721 20 L686 20 C656 20 636 40 636 70 L636 513 C636 543 656 563 686 563 L721 563 L721 583 L461 583 L461 563 L496 563 C526 563 546 543 546 513 L546 321 L274 321 L274 513 C274 543 294 563 324 563 L359 563 L359 583 L99 583 L99 563 L134 563 C164 563 184 543 184 513 L184 70 C184 40 164 20 134 20 L99 20 L99 0 L359 0 L359 20 L324 20 C294 20 274 40 274 70 L274 298 L546 298 L546 70 C546 40 526 20 496 20 L461 20 L461 0 L721 0 L721 20 L721 20 Z " />
<glyph glyph-name="L_sc" unicode="&#x29f;" horiz-adv-x="570" d="M320 583 L60 583 L60 563 L95 563 C125 563 145 543 145 513 L145 70 C145 40 125 20 95 20 L60 20 L60 0 L495 0 L497 7 L497 7 C504 47 513 100 520 140 L503 140 L496 120 C470 57 411 15 348 15 L315 15 C243 15 235 41 235 80 L235 513 C235 543 255 563 285 563 L320 563 L320 583 L320 583 Z " />
<glyph glyph-name="circumflex" unicode="&#x2c6;" horiz-adv-x="340" d="M200 755 C194 764 180 785 170 785 C160 785 146 764 140 755 L18 566 L30 556 L170 695 L310 556 L322 566 L200 755 L200 755 Z " />
<glyph glyph-name="caron" unicode="&#x2c7;" horiz-adv-x="340" d="M310 794 L170 655 L30 794 L18 784 L140 595 C146 586 160 565 170 565 C180 565 194 586 200 595 L322 784 L310 794 L310 794 Z " />
<glyph glyph-name="firsttonechinese" unicode="&#x2c9;" horiz-adv-x="340" d="M20 645 L320 645 L320 704 L20 704 L20 645 L20 645 Z " />
<glyph glyph-name="breve" unicode="&#x2d8;" horiz-adv-x="340" d="M36 744 C43 670 96 620 170 620 C245 620 299 669 305 742 L287 745 C284 706 237 680 170 680 C103 680 57 707 53 747 L36 744 L36 744 Z " />
<glyph glyph-name="dotaccent" unicode="&#x2d9;" horiz-adv-x="340" d="M170 615 C203 615 225 637 225 670 C225 703 203 725 170 725 C137 725 115 703 115 670 C115 637 137 615 170 615 L170 615 Z " />
<glyph glyph-name="ring" unicode="&#x2da;" horiz-adv-x="340" d="M98 655 C98 700 127 730 170 730 C214 730 243 700 243 655 C243 615 209 580 170 580 C131 580 98 615 98 655 L98 655 Z M73 655 C73 604 118 560 170 560 C223 560 268 604 268 655 C268 712 229 750 170 750 C112 750 73 712 73 655 L73 655 Z " />
<glyph glyph-name="A_sc" unicode="&#x1d00;" horiz-adv-x="715" d="M210 125 L210 125 L240 214 L453 214 L487 115 C501 61 475 26 419 26 L392 26 L392 1 L707 1 L707 26 L693 26 C645 26 599 66 578 126 L578 126 C523 285 467 444 412 604 L403 604 C406 586 379 569 336 563 L339 553 L339 553 L184 120 C161 63 109 25 51 25 L16 25 L16 0 L304 0 L304 25 L278 25 C218 25 191 65 212 125 L210 125 L210 125 Z M250 238 L349 526 L447 238 L250 238 L250 238 Z " />
<glyph glyph-name="C_sc" unicode="&#x1d04;" horiz-adv-x="656" d="M520 567 C483 584 435 593 368 593 C178 593 52 473 52 292 C52 111 175 -10 359 -10 C428 -10 480 1 521 20 C557 34 584 24 591 -7 C592 -13 595 -22 596 -28 L613 -28 L613 91 L520 567 L520 567 Z M457 24 C431 16 402 11 369 11 C239 11 152 123 152 292 C152 459 242 571 378 571 C410 571 437 567 461 560 L457 24 L457 24 Z " />
<glyph glyph-name="D_sc" unicode="&#x1d05;" horiz-adv-x="768" d="M267 18 C241 18 238 43 238 80 L238 565 L250 565 C490 565 614 456 614 292 C614 111 475 18 267 18 L267 18 Z M63 563 L98 563 C128 563 148 543 148 513 L148 70 C148 40 128 20 98 20 L63 20 L63 0 L294 0 C545 0 713 99 713 292 C713 467 580 583 322 583 L63 583 L63 563 L63 563 Z " />
<glyph glyph-name="E_sc" unicode="&#x1d07;" horiz-adv-x="585" d="M488 583 L43 583 L43 563 L78 563 C120 563 148 535 148 493 L148 90 C148 48 120 20 78 20 L43 20 L43 0 L513 0 L515 10 L514 10 C521 50 531 103 538 144 L521 144 L514 124 C488 61 429 19 366 19 L318 19 C246 19 238 43 238 80 L238 299 L303 299 C351 299 390 267 400 219 L411 164 L428 164 L428 456 L411 456 L400 401 C390 353 351 321 303 321 L238 321 L238 564 L365 564 C413 564 456 532 472 484 L490 429 L507 429 C501 470 492 522 487 564 L488 564 L488 583 L488 583 Z " />
<glyph glyph-name="J_sc" unicode="&#x1d0a;" horiz-adv-x="380" d="M320 583 L60 583 L60 563 L95 563 C125 563 145 543 145 513 L145 -63 C145 -168 93 -188 56 -188 C12 -188 33 -116 -11 -116 C-36 -116 -52 -132 -52 -156 C-52 -194 -18 -220 34 -220 C118 -220 235 -168 235 107 L235 513 C235 543 255 563 285 563 L320 563 L320 583 L320 583 Z " />
<glyph glyph-name="K_sc" unicode="&#x1d0b;" horiz-adv-x="682" d="M594 583 L63 583 L63 563 L98 563 C128 563 148 543 148 513 L148 70 C148 40 128 20 98 20 L63 20 L63 0 L323 0 L323 20 L288 20 C258 20 238 40 238 70 L238 292 L489 0 L665 0 L665 20 L630 20 C600 20 564 40 539 70 L539 70 L307 349 C350 399 392 449 435 498 C468 537 516 563 555 563 L595 563 L594 583 L594 583 Z M357 563 C413 563 424 528 385 474 L239 292 L239 513 C239 543 259 563 289 563 L357 563 L357 563 Z " />
<glyph glyph-name="M_sc" unicode="&#x1d0d;" horiz-adv-x="816" d="M545 0 L804 0 L804 20 L769 20 C741 20 721 38 718 66 C712 215 706 364 700 513 C699 543 718 563 748 563 L782 563 L782 583 L612 583 L443 122 L241 583 L57 583 L57 563 L92 563 C115 563 137 551 153 532 L135 57 C129 34 109 20 84 20 L49 20 L49 0 L250 0 L250 20 L215 20 C186 20 166 40 167 70 L167 70 L176 488 C250 325 324 162 398 0 L421 0 L615 506 L629 64 C627 37 608 20 580 20 L546 20 L545 0 L545 0 Z " />
<glyph glyph-name="O_sc" unicode="&#x1d0f;" horiz-adv-x="764" d="M150 292 C150 459 239 571 372 571 C516 571 612 459 612 292 C612 125 515 13 370 13 C238 13 150 125 150 292 L150 292 Z M53 292 C53 111 178 -10 366 -10 C572 -10 709 111 709 292 C709 473 576 593 376 593 C182 593 53 473 53 292 L53 292 Z " />
<glyph glyph-name="P_sc" unicode="&#x1d18;" horiz-adv-x="522" d="M345 20 L310 20 C280 20 260 40 260 70 L260 265 L295 265 C419 265 502 313 502 419 C502 517 433 583 330 583 L85 583 L85 563 L120 563 C150 563 170 543 170 513 L170 70 C170 40 150 20 120 20 L85 20 L85 0 L345 0 L345 20 L345 20 Z M260 284 L260 568 L307 568 C373 568 417 514 417 433 C417 330 368 284 295 284 L260 284 L260 284 Z " />
<glyph glyph-name="T_sc" unicode="&#x1d1b;" horiz-adv-x="715" d="M228 0 L488 0 L488 20 L453 20 C423 20 403 40 403 70 L403 561 L538 561 C589 561 645 527 676 476 L702 436 L719 436 C702 477 707 465 665 571 C665 571 663 571 660 571 L660 572 L664 572 C664 573 661 583 660 583 C654 598 647 615 641 629 L629 629 L625 622 C610 599 567 584 518 584 L195 584 C146 584 103 599 88 622 L84 629 L72 629 C66 615 59 599 54 584 L54 584 L54 583 C53 580 52 577 51 574 C51 574 52 574 54 574 L54 573 L50 573 C34 532 12 478 -5 437 L12 437 L38 477 C69 528 125 562 176 562 L312 562 L312 71 C312 41 292 21 262 21 L227 21 L228 0 L228 0 Z " />
<glyph glyph-name="U_sc" unicode="&#x1d1c;" horiz-adv-x="671" d="M641 55 L606 45 C576 37 556 52 556 82 L556 583 L381 583 L381 563 L416 563 C446 563 466 543 466 513 L466 168 C432 96 360 48 285 48 C236 48 203 110 203 202 L203 583 L28 583 L28 563 L63 563 C93 563 113 543 113 513 L113 202 C113 75 167 -10 249 -10 C341 -10 427 45 466 128 L466 0 L511 0 C550 10 602 24 641 35 L641 55 L641 55 Z " />
<glyph glyph-name="V_sc" unicode="&#x1d20;" horiz-adv-x="720" d="M128 463 C199 305 269 147 340 -10 L358 -10 C426 146 493 302 561 458 C587 518 635 558 681 558 L694 558 L694 583 L429 583 L429 558 L469 558 C526 558 551 522 533 467 L399 136 C346 243 292 351 240 458 C210 518 230 558 290 558 L313 558 L313 583 L10 583 L10 558 L21 558 C58 558 101 520 128 463 L128 463 Z " />
<glyph glyph-name="W_sc" unicode="&#x1d21;" horiz-adv-x="977" d="M804 478 L804 478 L694 125 C645 243 595 361 547 478 C527 526 545 558 593 558 L633 558 L633 583 L334 583 L334 558 L346 558 C386 558 426 528 447 483 C460 452 473 421 486 390 L373 109 L218 479 C198 527 216 559 264 559 L284 559 L284 584 L11 584 L11 559 L22 559 C60 559 99 527 119 479 L119 479 C188 316 257 153 326 -10 L349 -10 L501 353 C552 232 603 111 654 -10 L677 -10 L841 486 C859 530 900 559 945 559 L960 559 L960 584 L693 584 L693 559 L750 559 C798 559 820 527 805 479 L804 478 L804 478 Z " />
<glyph glyph-name="Z_sc" unicode="&#x1d22;" horiz-adv-x="592" d="M581 152 L564 152 L555 131 C528 72 473 31 414 25 L134 20 L551 565 L551 583 L71 583 L71 571 C70 571 65 517 58 433 L75 433 L81 454 C100 517 156 559 219 560 L452 563 L26 17 L26 -1 L547 -1 C558 44 563 65 583 150 L581 152 L581 152 Z " />
<glyph glyph-name="Wgrave" unicode="&#x1e80;" horiz-adv-x="1109" d="M503 645 L503 645 L559 499 L414 120 L222 645 L223 645 C205 693 225 725 273 725 L294 725 L294 750 L9 750 L9 725 L20 725 C58 725 96 693 114 645 L114 645 C198 427 282 209 366 -9 L391 -9 L576 458 C636 302 696 146 756 -9 L781 -9 L975 646 C989 694 1031 726 1079 726 L1094 726 L1094 751 L822 751 L822 726 L880 726 C926 726 949 696 939 651 L797 139 L612 650 C597 696 617 726 664 726 L705 726 L705 751 L395 751 L395 726 L407 726 C447 726 487 694 505 646 L503 645 L503 645 Z M337 997 C337 989 363 965 401 933 L543 813 L553 824 L440 972 C410 1012 387 1039 379 1039 C356 1039 337 1020 337 997 L337 997 Z " />
<glyph glyph-name="Wacute" unicode="&#x1e82;" horiz-adv-x="1109" d="M546 812 L688 932 C726 965 752 990 752 996 C752 1019 733 1038 710 1038 C704 1038 680 1011 649 971 L536 823 L546 812 L546 812 Z M503 645 L503 645 L559 499 L414 120 L222 645 L223 645 C205 693 225 725 273 725 L294 725 L294 750 L9 750 L9 725 L20 725 C58 725 96 693 114 645 L114 645 C198 427 282 209 366 -9 L391 -9 L576 458 C636 302 696 146 756 -9 L781 -9 L975 646 C989 694 1031 726 1079 726 L1094 726 L1094 751 L822 751 L822 726 L880 726 C926 726 949 696 939 651 L797 139 L612 650 C597 696 617 726 664 726 L705 726 L705 751 L395 751 L395 726 L407 726 C447 726 487 694 505 646 L503 645 L503 645 Z " />
<glyph glyph-name="Wdieresis" unicode="&#x1e84;" horiz-adv-x="1109" d="M614 865 C647 865 669 887 669 920 C669 953 647 975 614 975 C581 975 559 953 559 920 C559 887 581 865 614 865 L614 865 Z M464 865 C497 865 519 887 519 920 C519 953 497 975 464 975 C431 975 409 953 409 920 C409 887 431 865 464 865 L464 865 Z M503 645 L503 645 L559 499 L414 120 L222 645 L223 645 C205 693 225 725 273 725 L294 725 L294 750 L9 750 L9 725 L20 725 C58 725 96 693 114 645 L114 645 C198 427 282 209 366 -9 L391 -9 L576 458 C636 302 696 146 756 -9 L781 -9 L975 646 C989 694 1031 726 1079 726 L1094 726 L1094 751 L822 751 L822 726 L880 726 C926 726 949 696 939 651 L797 139 L612 650 C597 696 617 726 664 726 L705 726 L705 751 L395 751 L395 726 L407 726 C447 726 487 694 505 646 L503 645 L503 645 Z " />
<glyph glyph-name="Etilde" unicode="&#x1ebc;" horiz-adv-x="652" d="M210 870 C210 906 226 930 251 930 C303 930 372 865 424 865 C473 865 505 913 505 985 L490 985 C490 949 472 925 444 925 C392 925 323 990 271 990 C225 990 195 942 195 870 L210 870 L210 870 Z M555 750 L40 750 L40 730 L75 730 C117 730 145 702 145 660 L145 90 C145 48 117 20 75 20 L40 20 L40 0 L580 0 L582 10 L582 10 C589 51 599 105 606 146 L589 146 L582 126 C556 63 497 21 434 21 L325 21 C253 21 245 45 245 80 L245 385 L370 385 C418 385 457 353 467 305 L478 250 L495 250 L495 544 L478 544 L467 489 C457 441 418 409 370 409 L245 409 L245 729 L433 729 C481 729 524 697 540 649 L558 594 L575 594 C569 635 560 688 555 731 L555 750 L555 750 Z " />
<glyph glyph-name="Ygrave" unicode="&#x1ef2;" horiz-adv-x="764" d="M289 750 L9 750 L9 730 L24 730 C57 730 93 708 114 675 L114 675 L340 322 L340 90 C340 48 312 20 270 20 L235 20 L235 0 L545 0 L545 20 L510 20 C468 20 440 48 440 90 L440 325 C504 442 568 559 633 675 C651 708 685 730 718 730 L758 730 L758 750 L499 750 L499 730 L559 730 C592 730 603 708 587 675 L430 356 C364 462 297 569 231 675 C210 708 218 730 251 730 L289 730 L289 750 L289 750 Z M186 996 C186 988 212 964 250 932 L392 812 L403 823 L289 971 C259 1011 236 1038 228 1038 C205 1038 186 1019 186 996 L186 996 Z " />
<glyph glyph-name="quoteleft" unicode="&#x2018;" horiz-adv-x="578" d="M90 640 C80 640 72 636 66 628 C64 690 92 739 130 749 L120 760 C72 747 40 689 40 614 C40 582 60 560 90 560 C142 560 142 640 90 640 L90 640 Z " />
<glyph glyph-name="quoteright" unicode="&#x2019;" horiz-adv-x="118" d="M102 692 C101 628 77 580 42 570 L53 559 C98 571 128 631 128 710 C128 739 108 759 78 759 C26 759 26 679 78 679 C88 679 96 683 102 691 L102 692 L102 692 Z " />
<glyph glyph-name="quotedblleft" unicode="&#x201c;" horiz-adv-x="578" d="M217 640 C207 640 199 636 193 628 C191 690 219 739 257 749 L247 760 C199 747 167 689 167 614 C167 582 187 560 217 560 C269 560 269 640 217 640 L217 640 Z M78 640 C68 640 60 636 54 628 C52 690 80 739 118 749 L108 760 C60 747 28 689 28 614 C28 582 48 560 78 560 C130 560 130 640 78 640 L78 640 Z " />
<glyph glyph-name="quotedblright" unicode="&#x201d;" horiz-adv-x="578" d="M241 692 C240 628 216 580 181 570 L192 559 C237 571 267 631 267 710 C267 739 247 759 217 759 C165 759 165 679 217 679 C227 679 235 683 241 691 L241 692 L241 692 Z M102 691 C101 627 77 579 42 569 L53 558 C98 570 128 630 128 709 C128 738 108 758 78 758 C26 758 26 678 78 678 C88 678 96 682 102 690 L102 691 L102 691 Z " />
<glyph glyph-name="perthousand" unicode="&#x2030;" horiz-adv-x="1139" d="M908 209 C908 306 930 370 964 370 C1014 370 1047 292 1047 175 C1047 81 1021 18 983 18 C938 18 908 94 908 209 L908 209 Z M824 193 C824 71 885 -10 976 -10 C1067 -10 1127 76 1127 204 C1127 319 1067 395 976 395 C885 395 824 314 824 193 L824 193 Z M114 570 C114 669 136 735 170 735 C220 735 253 655 253 536 C253 444 227 383 189 383 C144 383 114 458 114 570 L114 570 Z M30 553 C30 434 91 355 182 355 C273 355 333 439 333 565 C333 682 273 760 182 760 C91 760 30 677 30 553 L30 553 Z M554 209 C554 306 579 370 616 370 C672 370 709 292 709 175 C709 81 679 18 635 18 C586 18 554 94 554 209 L554 209 Z M470 192 C470 71 533 -10 628 -10 C725 -10 789 76 789 204 C789 319 725 395 628 395 C533 395 470 314 470 192 L470 192 Z M201 -12 L666 738 L628 762 L163 12 L201 -12 L201 -12 Z " />
<glyph glyph-name="fraction" unicode="&#x2044;" horiz-adv-x="488" d="M49 -12 L514 738 L476 762 L11 12 L49 -12 L49 -12 Z " />
<glyph glyph-name="Euro" unicode="&#x20ac;" horiz-adv-x="790" d="M748 0 L748 119 L733 131 L733 131 L748 118 L748 223 L727 223 C724 215 722 204 719 196 C698 132 651 71 601 45 L601 45 C561 24 516 12 463 12 C332 12 239 120 216 288 L512 288 L521 349 L210 349 C209 365 209 382 210 398 L521 398 L529 459 L216 459 C241 626 338 733 474 733 C527 733 569 722 605 703 L605 703 C652 678 698 617 719 551 C722 543 724 532 727 524 L748 524 L748 745 L733 745 C732 739 730 730 729 724 C723 693 697 687 662 709 C615 740 555 758 464 758 C274 758 139 641 107 459 L64 459 L55 398 L101 398 C100 382 100 365 101 349 L55 349 L46 288 L107 288 C138 106 269 -11 453 -11 C543 -11 610 9 663 42 C697 61 723 52 729 20 C730 13 732 5 733 -2 L748 0 L748 0 Z " />
<glyph glyph-name="F_sc" unicode="&#xa730;" horiz-adv-x="560" d="M43 563 L78 563 C120 563 148 535 148 493 L148 90 C148 48 120 20 78 20 L43 20 L43 0 L343 0 L343 20 L308 20 C266 20 238 48 238 90 L238 299 L293 299 C341 299 380 267 390 219 L401 164 L418 164 L418 456 L401 456 L390 401 C380 353 341 321 293 321 L238 321 L238 568 L365 568 C413 568 456 536 472 488 L490 433 L507 433 C501 479 495 538 489 583 L44 583 L43 563 L43 563 Z " />
<glyph glyph-name="S_sc" unicode="&#xa731;" horiz-adv-x="489" d="M68 -33 C69 -26 71 -16 72 -9 C78 23 106 33 143 18 C177 0 217 -10 259 -10 C373 -10 449 55 449 152 C449 226 394 297 286 338 C188 376 137 426 137 471 C137 539 181 576 248 570 C304 562 355 511 378 439 L388 409 L410 409 L410 612 L393 612 C392 607 389 600 388 595 C382 571 356 563 323 576 L323 576 C295 587 263 593 230 593 C132 593 67 530 67 436 C67 360 123 287 233 245 C329 208 378 164 378 126 C378 45 303 5 214 24 C158 36 106 96 83 174 C80 184 77 196 74 206 L51 206 L51 -33 L68 -33 L68 -33 Z M397 495 L397 495 L397 495 L397 495 Z " />
<glyph glyph-name="X_sc" unicode="&#xf078;" horiz-adv-x="704" d="M691 583 L447 583 L447 563 L502 563 C535 563 540 541 515 508 L382 333 L256 514 C238 544 246 563 277 563 L313 563 L313 583 L45 583 L45 563 L60 563 C93 563 130 541 153 508 L153 508 L318 272 C266 206 214 140 162 75 C136 42 97 20 64 20 L24 20 L24 0 L264 0 L264 20 L209 20 C175 20 171 43 195 75 L329 255 L458 69 C476 39 468 20 437 20 L401 20 L401 0 L669 0 L669 20 L654 20 C621 20 584 42 561 75 L561 75 L393 317 L554 512 C581 543 619 563 651 563 L691 563 L691 583 L691 583 Z " />
</font>
</svg>
