<?xml version="1.0" encoding="UTF-8"?>
<svg xmlns="http://www.w3.org/2000/svg" xmlns:xlink="http://www.w3.org/1999/xlink" version="1.2" >
<font id="Aderes Outline">
<font-face  font-family="Aderes" units-per-em="1024" ascent="975" descent="-300" font-style="normal" font-weight="400" font-stretch="normal" cap-height="660" x-height="450" underline-position="-125" underline-thickness="50" />
<missing-glyph  horiz-adv-x="650" d="" />
<glyph glyph-name="NULL" d="" />
<glyph glyph-name="CR" unicode="&#xd;" horiz-adv-x="256" d="" />
<glyph glyph-name="&amp;#x20;" unicode="&#x20;" horiz-adv-x="341.333" d="" />
<glyph glyph-name="&amp;#x9;" unicode="&#x9;" horiz-adv-x="341.333" d="" />
<glyph glyph-name="exclam" unicode="&#x21;" horiz-adv-x="257" d="M131 -18.704 C82.3947 -18.704 55.296 8.39469 55.296 57 C55.296 105.605 82.3947 132.704 131 132.704 C179.605 132.704 206.704 105.605 206.704 57 C206.704 8.39469 179.605 -18.704 131 -18.704 L131 -18.704 Z M131 -1.296 C172.395 -1.296 189.296 15.6053 189.296 57 C189.296 98.3947 172.395 115.296 131 115.296 C89.6053 115.296 72.704 98.3947 72.704 57 C72.704 15.6053 89.6053 -1.296 131 -1.296 L131 -1.296 Z M61.3479 659.051 L60.2894 668.704 L70 668.704 L193 668.704 L202.711 668.704 L201.652 659.051 L151.652 203.051 L150.802 195.296 L143 195.296 L120 195.296 L112.198 195.296 L111.348 203.051 L61.3479 659.051 L61.3479 659.051 Z M79.711 651.296 L127.802 212.704 L135.198 212.704 L183.289 651.296 L79.711 651.296 L79.711 651.296 Z " />
<glyph glyph-name="quotedbl" unicode="&#x22;" horiz-adv-x="470" d="M281.405 738.625 L279.793 748.704 L290 748.704 L391 748.704 L401.167 748.704 L399.6 738.658 L360.6 488.658 L359.451 481.296 L352 481.296 L330 481.296 L322.578 481.296 L321.405 488.625 L281.405 738.625 L281.405 738.625 Z M300.207 731.296 L337.422 498.704 L344.549 498.704 L380.833 731.296 L300.207 731.296 L300.207 731.296 Z M71.4 738.658 L69.8329 748.704 L80 748.704 L180 748.704 L190.167 748.704 L188.6 738.658 L149.6 488.658 L148.451 481.296 L141 481.296 L119 481.296 L111.549 481.296 L110.4 488.658 L71.4 738.658 L71.4 738.658 Z M90.167 731.296 L126.451 498.704 L133.549 498.704 L169.833 731.296 L90.167 731.296 L90.167 731.296 Z " />
<glyph glyph-name="numbersign" unicode="&#x23;" horiz-adv-x="498" d="M141.385 389.296 L58 389.296 L49.296 389.296 L49.296 398 L49.296 450 L49.296 458.704 L58 458.704 L161.465 458.704 L220.641 662.428 L222.465 668.704 L229 668.704 L285 668.704 L296.592 668.704 L293.359 657.572 L235.592 458.704 L337.465 458.704 L396.641 662.428 L398.465 668.704 L405 668.704 L461 668.704 L472.592 668.704 L469.359 657.572 L411.592 458.704 L498 458.704 L506.704 458.704 L506.704 450 L506.704 398 L506.704 389.296 L498 389.296 L391.523 389.296 L353.615 259.704 L440 259.704 L448.704 259.704 L448.704 251 L448.704 199 L448.704 190.296 L440 190.296 L333.529 190.296 L277.356 -2.43551 L275.529 -8.704 L269 -8.704 L213 -8.704 L201.397 -8.704 L204.644 2.43551 L259.397 190.296 L157.529 190.296 L101.356 -2.43551 L99.5293 -8.704 L93 -8.704 L37 -8.704 L25.397 -8.704 L28.6437 2.43551 L83.397 190.296 L0 190.296 L-8.704 190.296 L-8.704 199 L-8.704 251 L-8.704 259.704 L0 259.704 L103.477 259.704 L141.385 389.296 L141.385 389.296 Z M153 406.704 L164.615 406.704 L161.354 395.556 L118.354 248.556 L116.523 242.296 L110 242.296 L8.704 242.296 L8.704 207.704 L95 207.704 L106.603 207.704 L103.356 196.564 L48.603 8.704 L86.471 8.704 L142.644 201.436 L144.471 207.704 L151 207.704 L271 207.704 L282.603 207.704 L279.356 196.564 L224.603 8.704 L262.471 8.704 L318.644 201.436 L320.471 207.704 L327 207.704 L431.296 207.704 L431.296 242.296 L342 242.296 L330.385 242.296 L333.646 253.444 L376.646 400.444 L378.477 406.704 L385 406.704 L489.296 406.704 L489.296 441.296 L400 441.296 L388.408 441.296 L391.641 452.428 L449.408 651.296 L411.535 651.296 L352.359 447.572 L350.535 441.296 L344 441.296 L224 441.296 L212.408 441.296 L215.641 452.428 L273.408 651.296 L235.535 651.296 L176.359 447.572 L174.535 441.296 L168 441.296 L66.704 441.296 L66.704 406.704 L153 406.704 L153 406.704 Z M215.523 389.296 L177.615 259.704 L279.477 259.704 L317.385 389.296 L215.523 389.296 L215.523 389.296 Z M200.646 400.444 L202.477 406.704 L209 406.704 L329 406.704 L340.615 406.704 L337.354 395.556 L294.354 248.556 L292.523 242.296 L286 242.296 L166 242.296 L154.385 242.296 L157.646 253.444 L200.646 400.444 L200.646 400.444 Z " />
<glyph glyph-name="dollar" unicode="&#x24;" horiz-adv-x="502" d="M278.296 740 L278.296 748.521 L286.815 748.702 L333.815 749.702 L342.704 749.891 L342.704 741 L342.704 672.041 C412.07 656.066 448.704 612.011 448.704 544 C448.704 519.714 429.96 505.296 401 505.296 L365 505.296 L361.947 505.296 L359.563 507.203 L354.563 511.203 L351.296 513.817 L351.296 518 L351.296 544 C351.296 558.391 348.494 569.71 342.704 578.782 L342.704 368.313 C430.464 322.457 463.704 262.896 463.704 184 C463.704 85.8831 422.63 21.8167 342.704 -4.401 L342.704 -80 L342.704 -88.704 L334 -88.704 L288 -88.704 L279.296 -88.704 L279.296 -80 L279.296 -16.768 C269.036 -17.7891 257.98 -18.4087 247.021 -18.621 L245.702 -80.1865 L245.519 -88.704 L237 -88.704 L191 -88.704 L182.296 -88.704 L182.296 -80 L182.296 -14.667 C88.2621 -1.49689 39.296 50.8545 39.296 140 C39.296 165.286 58.0396 179.704 87 179.704 L123 179.704 L126.053 179.704 L128.437 177.797 L133.437 173.797 L136.704 171.183 L136.704 167 L136.704 140 C136.704 97.4799 150.998 72.7979 182.296 60.154 L182.296 303.196 C82.5036 345.235 43.296 389.331 43.296 487 C43.296 587.455 89.7702 649.819 182.296 670.099 L182.296 739 L182.296 747.704 L191 747.704 L237 747.704 L245.704 747.704 L245.704 739 L245.704 677.4 C252.009 677.704 258.391 677.704 265 677.704 L278.296 677.704 L278.296 740 L278.296 740 Z M295.704 731.479 L295.704 669 L295.704 660.296 L287 660.296 L265 660.296 C255 660.296 246.482 660.296 237.961 659.349 L228.296 658.275 L228.296 668 L228.296 730.296 L199.704 730.296 L199.704 663 L199.704 655.805 L192.637 654.451 C101.863 637.069 60.704 584.019 60.704 487 C60.704 394.408 94.0874 358.318 194.314 317.048 L199.704 314.829 L199.704 309 L199.704 48 L199.704 36.4608 L188.609 39.6309 C143.64 52.4791 119.296 87.2563 119.296 140 L119.296 162.296 L87 162.296 C63.9604 162.296 56.704 156.714 56.704 140 C56.704 55.5518 99.0587 12.2959 191.991 1.64742 L199.704 0.763619 L199.704 -7 L199.704 -71.296 L228.481 -71.296 L229.798 -9.81353 L229.981 -1.296 L238.5 -1.296 C255.252 -1.296 272.175 -0.328923 286.85 1.62765 L296.704 2.94156 L296.704 -7 L296.704 -71.296 L325.296 -71.296 L325.296 2 L325.296 8.49907 L331.527 10.3454 C409.506 33.4501 446.296 88.6354 446.296 184 C446.296 259.689 416.74 311.412 330.073 355.232 L325.296 357.648 L325.296 363 L325.296 600 L325.296 616.798 L339.019 607.111 C357.887 593.792 368.704 570.957 368.704 544 L368.704 522.704 L401 522.704 C424.04 522.704 431.296 528.286 431.296 544 C431.296 607.73 400.404 643.035 332.316 656.46 L325.296 657.845 L325.296 665 L325.296 732.109 L295.704 731.479 L295.704 731.479 Z M279.473 395.889 L282.194 608.096 C274.651 608.765 266.722 609.286 258.239 609.296 L248.704 608.766 L248.704 409.576 C257.904 405.355 268.442 400.602 279.473 395.889 L279.473 395.889 Z M281.573 376.118 C264.998 382.985 248.967 390.275 236.353 396.097 L231.296 398.431 L231.296 404 L231.296 617 L231.296 625.234 L239.517 625.691 L257.517 626.691 L257.758 626.704 L258 626.704 C270.395 626.704 281.827 625.665 291.866 624.661 L299.806 623.867 L299.703 615.888 L296.703 381.888 L296.439 361.252 L281.845 375.845 L281.573 376.118 L281.573 376.118 Z M186.296 453.603 L186.296 587.421 C171.585 574.219 164.704 554.628 164.704 526 C164.704 494.007 170.72 472.067 186.296 453.603 L186.296 453.603 Z M203.704 433 L203.704 414.586 L189.475 426.274 C159.726 450.711 147.296 482.352 147.296 526 C147.296 566.055 162.447 596.357 190.873 611.664 L203.704 618.572 L203.704 604 L203.704 433 L203.704 433 Z M249.731 278.756 L250.186 52.859 C261.666 53.2668 272.578 54.4588 282.296 56.171 L282.296 262.895 C272.651 268.175 261.744 273.441 249.731 278.756 L249.731 278.756 Z M232.296 291.982 L232.27 305.12 L244.378 300.022 C263.543 291.952 281.019 283.729 295.318 275.557 L299.704 273.051 L299.704 268 L299.704 49 L299.704 41.9635 L292.824 40.4892 C278.409 37.4004 259.996 35.296 241.5 35.296 L232.814 35.296 L232.796 43.9825 L232.296 291.982 L232.296 291.982 Z M344.704 208.276 L344.704 91.131 C355.241 106.491 360.296 126.574 360.296 153 C360.296 173.658 355.639 191.389 344.704 208.276 L344.704 208.276 Z M327.296 233 L327.296 254.662 L342.284 239.022 C366.495 213.758 377.704 184.616 377.704 153 C377.704 113.352 365.27 81.7024 341.512 62.2635 L327.296 50.6324 L327.296 69 L327.296 233 L327.296 233 Z " />
<glyph glyph-name="ampersand" unicode="&#x26;" horiz-adv-x="692" d="M541.496 136.125 L542.984 137.117 L548.025 132.282 C596.09 86.1787 636.831 62.4227 674.317 54.616 L683.866 53.6608 L691.704 52.877 L691.704 45 L691.704 22 L691.704 2 L691.704 -6.704 L683 -6.704 L672 -6.704 L602 -6.704 L531 -6.704 L527.546 -6.704 L525.032 -4.33609 L445.47 70.601 C390.881 12.5423 318.723 -16.704 210 -16.704 C79.5663 -16.704 13.296 45.2207 13.296 166 C13.296 245.297 21.6887 295.936 143.766 353.566 C86.5484 409.059 69.296 437.015 69.296 510 C69.296 623.018 135.794 679.704 264 679.704 C375.974 679.704 434.704 634.271 434.704 544 C434.704 482.914 386.078 428.082 291.832 378.807 L459.529 217.457 C478.618 256.085 497.834 302.237 518.834 357.016 C533.454 398.206 523.573 415.821 482.11 420.341 L451.162 423.336 L443.296 424.098 L443.296 432 L443.296 456 L443.296 471 L443.296 479.704 L452 479.704 L572 479.704 L600 479.704 L628 479.704 L688 479.704 L696.704 479.704 L696.704 471 L696.704 455 L696.704 432 L696.704 423.991 L688.723 423.326 L677.051 422.353 C635.534 415.658 608.212 393.561 591.1 350.813 C563.142 278.509 537.805 216.95 510.774 165.709 L541.496 136.125 L541.496 136.125 Z M560.808 462.296 L460.704 462.296 L460.704 456 L460.704 439.902 L483.838 437.664 L483.89 437.659 L483.941 437.653 C512.745 434.522 531.012 422.634 538.164 403.944 L549.886 434.149 L560.808 462.296 L560.808 462.296 Z M548.091 381.407 L540.134 360.901 L540.114 360.851 L524.37 320.279 L523.37 320.664 C504.78 273.649 487.253 233.21 469.747 199.032 L464.407 188.606 L455.965 196.728 L270.965 374.728 L262.084 383.273 L273.107 388.785 C371.687 438.075 417.296 487.407 417.296 544 C417.296 625.729 370.026 662.296 264 662.296 C142.206 662.296 86.704 614.982 86.704 510 C86.704 438.77 101.615 417.719 165.005 357.301 L174.375 348.37 L162.569 343.061 C37.7836 286.956 30.704 246.249 30.704 166 C30.704 52.7793 86.4337 0.704 210 0.704 C319.213 0.704 385.777 29.2312 438.483 88.7693 L444.433 95.4909 L450.968 89.3361 L534.454 10.704 L602 10.704 L672 10.704 L674.296 10.704 L674.296 22 L674.296 37.123 L672.134 37.3392 L671.689 37.3837 L671.251 37.4735 C632.235 45.4769 588.801 70.2277 541.053 114.907 L539.504 113.875 L534.463 118.73 L493.963 157.73 L489.205 162.311 L492.336 168.127 C520.125 219.733 545.917 282.23 574.882 357.139 L574.9 357.186 L574.919 357.233 C593.764 404.346 628.342 432.231 674.632 439.596 L674.953 439.647 L675.277 439.674 L679.296 440.009 L679.296 455 L679.296 462.296 L628 462.296 L600 462.296 L579.032 462.296 L566.15 427.944 C560.008 411.566 553.883 396.156 548.091 381.407 L548.091 381.407 Z M185.781 314.037 C135.377 284.023 131.704 251.579 131.704 192 C131.704 104.722 171.49 66.704 261 66.704 C318.783 66.704 359.175 83.2413 393.639 117.699 L204.026 296.67 L203.934 296.757 L203.845 296.845 C197.791 302.899 191.614 308.474 185.781 314.037 L185.781 314.037 Z M181.19 331.499 L187 337.309 L193.155 331.155 C199.925 324.384 207.891 317.41 216.065 309.244 L411.974 124.33 L418.241 118.415 L412.39 112.09 C374.173 70.774 325.847 49.296 261 49.296 C164.51 49.296 114.296 97.2783 114.296 192 C114.296 254.167 119.329 296.454 181.19 331.499 L181.19 331.499 Z M249.776 418.267 C299.906 452.205 322.296 490.323 322.296 538 C322.296 593.78 302.997 616.296 257 616.296 C206.06 616.296 184.704 590.833 184.704 528 C184.704 482.039 195.397 469.955 249.776 418.267 L249.776 418.267 Z M262.667 406.028 L270.814 398.296 L249 398.296 L248.5 398.296 L218.865 398.296 L234.768 408.52 C182.363 458.454 167.296 476.023 167.296 528 C167.296 597.167 197.94 633.704 257 633.704 C311.003 633.704 339.704 600.22 339.704 538 C339.704 486.598 314.025 442.038 262.667 406.028 L262.667 406.028 Z " />
<glyph glyph-name="quotesingle" unicode="&#x27;" horiz-adv-x="260" d="M71.4 738.658 L69.8329 748.704 L80 748.704 L180 748.704 L190.167 748.704 L188.6 738.658 L149.6 488.658 L148.451 481.296 L141 481.296 L119 481.296 L111.549 481.296 L110.4 488.658 L71.4 738.658 L71.4 738.658 Z M90.167 731.296 L126.451 498.704 L133.549 498.704 L169.833 731.296 L90.167 731.296 L90.167 731.296 Z " />
<glyph glyph-name="parenleft" unicode="&#x28;" horiz-adv-x="264" d="M224.333 745.595 L226.941 748.704 L231 748.704 L259 748.704 L277.539 748.704 L265.697 734.44 C178.337 629.211 136.704 545.945 136.704 295 C136.704 44.0547 178.337 -39.2112 265.697 -144.44 L277.539 -158.704 L259 -158.704 L231 -158.704 L226.941 -158.704 L224.333 -155.595 C103.873 -12.0479 44.296 88.6173 44.296 295 C44.296 501.383 103.873 602.048 224.333 745.595 L224.333 745.595 Z M235.062 731.296 C117.306 590.556 61.704 495.147 61.704 295 C61.704 94.8529 117.306 -0.556074 235.062 -141.296 L240.652 -141.296 C159.775 -40.5009 119.296 51.3763 119.296 295 C119.296 538.624 159.775 630.501 240.652 731.296 L235.062 731.296 L235.062 731.296 Z " />
<glyph glyph-name="parenright" unicode="&#x29;" horiz-adv-x="264" d="M61.6674 -155.595 L59.0586 -158.704 L55 -158.704 L27 -158.704 L8.32673 -158.704 L20.3341 -144.403 C108.647 -39.2209 149.296 44.0118 149.296 295 C149.296 545.988 108.647 629.221 20.3341 734.403 L8.32673 748.704 L27 748.704 L55 748.704 L59.0586 748.704 L61.6674 745.595 C182.127 602.048 241.704 501.383 241.704 295 C241.704 88.6173 182.127 -12.0479 61.6674 -155.595 L61.6674 -155.595 Z M50.938 -141.296 C168.694 -0.556074 224.296 94.8529 224.296 295 C224.296 495.147 168.694 590.556 50.938 731.296 L45.471 731.296 C127.16 630.47 166.704 538.558 166.704 295 C166.704 51.4422 127.16 -40.4696 45.471 -141.296 L50.938 -141.296 L50.938 -141.296 Z " />
<glyph glyph-name="plus" unicode="&#x2b;" horiz-adv-x="510" d="M217.296 482 L217.296 490.704 L226 490.704 L284 490.704 L292.704 490.704 L292.704 482 L292.704 308.704 L470 308.704 L478.704 308.704 L478.704 300 L478.704 244 L478.704 235.296 L470 235.296 L292.704 235.296 L292.704 52 L292.704 43.296 L284 43.296 L226 43.296 L217.296 43.296 L217.296 52 L217.296 235.296 L40 235.296 L31.296 235.296 L31.296 244 L31.296 300 L31.296 308.704 L40 308.704 L217.296 308.704 L217.296 482 L217.296 482 Z M234.704 473.296 L234.704 300 L234.704 291.296 L226 291.296 L48.704 291.296 L48.704 252.704 L226 252.704 L234.704 252.704 L234.704 244 L234.704 60.704 L275.296 60.704 L275.296 244 L275.296 252.704 L284 252.704 L461.296 252.704 L461.296 291.296 L284 291.296 L275.296 291.296 L275.296 300 L275.296 473.296 L234.704 473.296 L234.704 473.296 Z " />
<glyph glyph-name="comma" unicode="&#x2c;" horiz-adv-x="257" d="M140.793 108.835 C190.387 85.5701 215.704 37.0878 215.704 -35 C215.704 -109.177 164.44 -170.052 63.7329 -217.863 L51.296 -223.767 L51.296 -210 L51.296 -188 L51.296 -182.445 L56.3346 -180.105 C110.526 -154.945 134.296 -125.893 134.296 -88 C134.296 -48.3631 119.851 -23.7221 86.2833 -7.87058 L86.1129 -7.7901 L85.9461 -7.70233 L47.9461 12.2977 L44.5982 14.0598 L43.6027 17.7098 L40.6027 28.7098 L39.6541 32.1881 L41.4428 35.3184 L73.4428 91.3184 L73.528 91.4675 L73.619 91.6131 C84.2822 108.674 96.6907 119.704 109 119.704 C116.561 119.704 126.438 116.007 140.793 108.835 L140.793 108.835 Z M133.31 93.1169 L133.208 93.1646 L133.107 93.2149 C119.516 100.011 113.422 102.296 109 102.296 C103.328 102.296 97.7537 97.3578 88.471 82.531 L58.346 29.812 L59.402 25.94 L93.89 7.789 C132.207 -10.3779 151.704 -43.7037 151.704 -88 C151.704 -130.807 123.229 -166.872 68.704 -193.496 L68.704 -196.05 C157.379 -151.283 198.296 -99.8638 198.296 -35 C198.296 32.8623 177.648 72.363 133.31 93.1169 L133.31 93.1169 Z " />
<glyph glyph-name="hyphen" unicode="&#x2d;" horiz-adv-x="375" d="M50 204.296 L41.296 204.296 L41.296 213 L41.296 291 L41.296 299.704 L50 299.704 L325 299.704 L333.704 299.704 L333.704 291 L333.704 213 L333.704 204.296 L325 204.296 L50 204.296 L50 204.296 Z M58.704 221.704 L316.296 221.704 L316.296 282.296 L58.704 282.296 L58.704 221.704 L58.704 221.704 Z " />
<glyph glyph-name="period" unicode="&#x2e;" horiz-adv-x="263" d="M132 -18.704 C83.3947 -18.704 56.296 8.39469 56.296 57 C56.296 105.605 83.3947 132.704 132 132.704 C180.605 132.704 207.704 105.605 207.704 57 C207.704 8.39469 180.605 -18.704 132 -18.704 L132 -18.704 Z M132 -1.296 C173.395 -1.296 190.296 15.6053 190.296 57 C190.296 98.3947 173.395 115.296 132 115.296 C90.6053 115.296 73.704 98.3947 73.704 57 C73.704 15.6053 90.6053 -1.296 132 -1.296 L132 -1.296 Z " />
<glyph glyph-name="slash" unicode="&#x2f;" horiz-adv-x="255" d="M0 -128.704 L-10.9319 -128.704 L-8.48274 -118.05 L191.517 751.95 L193.07 758.704 L200 758.704 L256 758.704 L266.932 758.704 L264.483 748.05 L64.4827 -121.95 L62.9301 -128.704 L56 -128.704 L0 -128.704 L0 -128.704 Z M10.932 -111.296 L49.07 -111.296 L245.068 741.296 L206.93 741.296 L10.932 -111.296 L10.932 -111.296 Z " />
<glyph glyph-name="zero" unicode="0" horiz-adv-x="529" d="M24.296 329 C24.296 561.665 103.376 678.704 265 678.704 C425.552 678.704 504.704 564.726 504.704 338 C504.704 100.374 425.67 -18.704 265 -18.704 C103.4 -18.704 24.296 97.3151 24.296 329 L24.296 329 Z M41.704 329 C41.704 102.685 112.6 -1.296 265 -1.296 C416.33 -1.296 487.296 105.626 487.296 338 C487.296 559.274 416.448 661.296 265 661.296 C112.624 661.296 41.704 556.335 41.704 329 L41.704 329 Z M282 52.704 C354.323 52.704 388.296 129.832 388.296 302 C388.296 513.035 342.502 609.296 246 609.296 C179.776 609.296 147.704 533.24 147.704 364 C147.704 149.875 191.618 52.704 282 52.704 L282 52.704 Z M282 35.296 C180.382 35.296 130.296 146.125 130.296 364 C130.296 536.76 168.224 626.704 246 626.704 C353.498 626.704 405.704 516.965 405.704 302 C405.704 126.168 365.677 35.296 282 35.296 L282 35.296 Z " />
<glyph glyph-name="one" unicode="1" horiz-adv-x="509" d="M292 -8.704 L244 -8.704 L154 -8.704 L145.296 -8.704 L145.296 0 L145.296 15 L145.296 39 L145.296 46.9144 L153.175 47.6648 L174.034 49.651 C217.578 55.2488 235.296 76.234 235.296 120 L235.296 539.418 L73.6359 465.092 L61.296 459.418 L61.296 473 L61.296 513 L61.296 517.949 L65.5486 520.48 L312.549 667.48 L314.606 668.704 L317 668.704 L339 668.704 L347.704 668.704 L347.704 660 L347.704 554 L347.704 120.094 C348.659 76.3448 366.489 55.1992 408.036 48.648 L419.637 47.681 L419.723 47.6739 C425.487 47.1562 427.957 40.5174 428.199 38.5796 C428.369 37.2222 428.454 35.1813 428.454 33 C428.454 28.8657 428.199 22.6879 427.704 14.729 L427.704 0 L427.704 -8.704 L419 -8.704 L339 -8.704 L292 -8.704 L292 -8.704 Z M292 8.704 L339 8.704 L410.296 8.704 L410.296 15 L410.296 15.2717 L410.313 15.5429 C410.725 22.1345 410.959 27.2109 411.026 30.93 L406.277 31.3261 L405.968 31.3518 L405.662 31.3994 C357.453 38.8986 331.364 69.7318 330.298 119.815 L330.296 119.907 L330.296 120 L330.296 554 L330.296 651.296 L319.394 651.296 L78.704 508.051 L78.704 486.582 L240.364 560.908 L252.704 566.582 L252.704 553 L252.704 120 C252.704 69.8117 226.459 38.7946 176.102 32.3661 L175.964 32.3484 L175.825 32.3352 L162.704 31.086 L162.704 15 L162.704 8.704 L244 8.704 L292 8.704 L292 8.704 Z " />
<glyph glyph-name="two" unicode="2" horiz-adv-x="480" d="M463.675 45.2918 L462.145 26.5458 L461.286 27.404 C460.096 18.3485 458.767 9.73685 458.187 0.457059 L457.677 -7.704 L449.5 -7.704 L431 -7.704 L411 -7.704 L400 -7.704 L330 -7.704 L176 -7.704 L97 -7.704 L49 -7.704 L40.296 -7.704 L40.296 1 L40.296 29 L40.296 32.2421 L42.4169 34.6941 C280.85 310.35 332.296 329.994 332.296 491 C332.296 573.919 302.848 610.296 238 610.296 C175.766 610.296 149.704 582.553 149.704 517 L149.704 458 L149.704 454.395 L147.155 451.845 L142.155 446.845 L139.605 444.296 L136 444.296 L84 444.296 C50.3947 444.296 30.296 464.395 30.296 500 C30.296 619.398 112.14 679.704 272 679.704 C394.605 679.704 457.704 616.605 457.704 493 C457.704 389.277 403.446 336.999 196.2 100.704 L328 100.704 L333.9 100.704 C374.653 101.66 396.124 120.68 405.503 162.888 L405.506 162.903 L405.51 162.917 L412.51 193.917 L421 192 L429.704 192 C429.704 196.407 425.006 199.695 423.982 200.004 C423.764 200.07 423.403 200.131 423.736 200.097 C424.68 200.002 426.085 199.954 428.375 199.954 C433.1 199.954 440.121 200.196 449.543 200.692 L449.771 200.704 L450 200.704 L468 200.704 L477.637 200.704 L476.659 191.116 C471.667 142.197 467.675 94.2845 463.675 45.2918 L463.675 45.2918 Z M447.86 65.449 C451.103 104.836 454.434 143.783 458.374 183.296 L450.228 183.296 C440.759 182.8 433.36 182.546 428.375 182.546 L427.789 182.547 L422.497 159.112 L422.49 159.083 C411.871 111.343 381.372 84.3704 334.198 83.2982 L334.099 83.296 L334 83.296 L328 83.296 L177 83.296 L157.811 83.296 L170.451 97.7335 C388.752 347.077 440.296 394.803 440.296 493 C440.296 609.395 387.395 662.296 272 662.296 C117.86 662.296 47.704 610.602 47.704 500 C47.704 471.605 57.6053 461.704 84 461.704 L132.296 461.704 L132.296 517 C132.296 589.447 168.234 627.704 238 627.704 C311.152 627.704 349.704 580.081 349.704 491 C349.704 318.527 291.502 295.786 57.704 25.757 L57.704 9.704 L97 9.704 L176 9.704 L330 9.704 L400 9.704 L411 9.704 L431 9.704 L441.485 9.704 C442.806 22.8103 445.016 34.2967 445.813 47.0429 L447.016 66.2932 L447.86 65.449 L447.86 65.449 Z " />
<glyph glyph-name="three" unicode="3" horiz-adv-x="500" d="M202.517 376.691 L209.88 377.1 C300.116 389.055 330.296 430.212 330.296 509 C330.296 579.621 303.164 609.296 242 609.296 C185.425 609.296 161.704 587.211 161.704 535 L161.704 493 L161.704 489.395 L159.155 486.845 L150.155 477.845 L147.605 475.296 L144 475.296 L98 475.296 C63.582 475.296 44.296 493.204 44.296 523 C44.296 626.603 119.317 677.704 265 677.704 C391.143 677.704 455.704 624.086 455.704 518 C455.704 445.809 426.607 392.989 356.827 363.139 C448.162 338.79 485.704 278.086 485.704 175 C485.704 45.782 404.022 -18.704 242 -18.704 C97.5287 -18.704 23.296 27.1456 23.296 120 C23.296 149.605 41.3947 167.704 72 167.704 L124 167.704 L127.605 167.704 L130.155 165.155 L139.155 156.155 L141.704 153.605 L141.704 150 L141.704 120 C141.704 70.4505 171.814 48.704 242 48.704 C325.213 48.704 361.296 87.4267 361.296 175 C361.296 286.203 310.751 318.126 149.582 307.316 L140.296 306.693 L140.296 316 L140.296 342 L140.296 365 L140.296 373.234 L148.517 373.691 L202.517 376.691 L202.517 376.691 Z M194.296 358.799 L157.704 356.766 L157.704 342 L157.704 325.26 C317.609 334.341 378.704 293.53 378.704 175 C378.704 80.5733 332.787 31.296 242 31.296 C166.186 31.296 124.296 61.5495 124.296 120 L124.296 146.395 L120.395 150.296 L72 150.296 C48.6053 150.296 40.704 142.395 40.704 120 C40.704 36.8544 102.471 -1.296 242 -1.296 C397.978 -1.296 468.296 54.218 468.296 175 C468.296 283.14 430.096 334.983 323.594 352.41 L286.019 358.559 L322.534 369.347 C407.466 394.441 438.296 441.593 438.296 518 C438.296 615.914 384.857 660.296 265 660.296 C124.683 660.296 61.704 617.397 61.704 523 C61.704 500.796 70.418 492.704 98 492.704 L140.395 492.704 L144.296 496.605 L144.296 535 C144.296 594.789 178.575 626.704 242 626.704 C310.836 626.704 347.704 586.379 347.704 509 C347.704 422.024 307.622 370.252 203.952 358.848 L194.296 357.786 L194.296 358.799 L194.296 358.799 Z " />
<glyph glyph-name="four" unicode="4" horiz-adv-x="501" d="M342.063 665.257 L344.675 668.704 L349 668.704 L372 668.704 L380.704 668.704 L380.704 660 L380.704 565 L380.704 274.704 L488 274.704 L496.704 274.704 L496.704 266 L496.704 191 L496.704 182.296 L488 182.296 L380.704 182.296 L380.704 120 C380.704 76.2868 398.456 55.2087 441.021 48.649 L452.723 47.6739 L460.704 47.0088 L460.704 39 L460.704 15 L460.704 0 L460.704 -8.704 L452 -8.704 L372 -8.704 L324 -8.704 L277 -8.704 L187 -8.704 L178.296 -8.704 L178.296 0 L178.296 15 L178.296 39 L178.296 46.877 L186.134 47.6608 L206.014 49.649 C249.683 55.2569 268.296 76.3361 268.296 120 L268.296 182.296 L46 182.296 L8 182.296 L-0.704 182.296 L-0.704 191 L-0.704 214 L-0.704 216.841 L0.972468 219.136 L38.9725 271.136 L39.0411 271.229 L39.1121 271.321 L270.063 570.257 L270.112 570.321 L342.063 665.257 L342.063 665.257 Z M353.325 651.296 L283.937 559.743 L283.912 559.711 L283.888 559.679 L52.959 260.771 L16.704 211.159 L16.704 199.704 L46 199.704 L277 199.704 L285.704 199.704 L285.704 191 L285.704 120 C285.704 69.7027 258.35 38.7807 208.102 32.3661 L207.984 32.351 L207.866 32.3392 L195.704 31.123 L195.704 15 L195.704 8.704 L277 8.704 L324 8.704 L372 8.704 L443.296 8.704 L443.296 15 L443.296 30.991 L439.277 31.3261 L438.983 31.3506 L438.691 31.3951 C389.464 38.8861 363.296 69.8117 363.296 120 L363.296 191 L363.296 199.704 L372 199.704 L479.296 199.704 L479.296 257.296 L372 257.296 L363.296 257.296 L363.296 266 L363.296 565 L363.296 651.296 L353.325 651.296 L353.325 651.296 Z M268.296 463.112 L132.037 274.704 L268.296 274.704 L268.296 463.112 L268.296 463.112 Z M269.947 495.101 L285.704 516.888 L285.704 490 L285.704 266 L285.704 257.296 L277 257.296 L115 257.296 L97.9634 257.296 L107.947 271.101 L269.947 495.101 L269.947 495.101 Z " />
<glyph glyph-name="five" unicode="5" horiz-adv-x="500" d="M406 668.704 L414.806 668.704 L414.703 659.899 L413.703 573.899 L413.603 565.296 L405 565.296 L147.704 565.296 L147.704 444.965 C159.059 446.126 174.462 446.704 194 446.704 C373.982 446.704 464.704 376.261 464.704 236 C464.704 66.2392 374.452 -18.704 193 -18.704 C124.768 -18.704 77.8145 -2.40893 55.111 29.666 C48.4098 37.6172 44.296 47.3338 44.296 56 C44.296 68.7437 53.635 82.0851 67.6931 92.899 L67.791 92.9743 L67.891 93.0468 L107.891 122.047 L110.177 123.704 L113 123.704 L124 123.704 L128.797 123.704 L131.359 119.648 L143.238 100.84 C165.962 68.7509 196.135 53.704 239 53.704 C328.283 53.704 368.296 95.495 368.296 191 C368.296 293.857 309.91 341.296 179 341.296 C140.434 341.296 111.666 338.419 88.4371 331.644 L77.296 328.395 L77.296 340 L77.296 660 L77.296 668.704 L86 668.704 L113 668.704 L140 668.704 L406 668.704 L406 668.704 Z M397.194 651.296 L140 651.296 L113 651.296 L94.704 651.296 L94.704 351.232 C117.526 356.417 145.261 358.704 179 358.704 C316.09 358.704 385.704 302.143 385.704 191 C385.704 88.505 335.717 36.296 239 36.296 C191.945 36.296 154.151 55.1933 128.889 90.9805 L128.76 91.1631 L128.641 91.3521 L119.203 106.296 L115.823 106.296 L78.211 79.027 C66.3404 69.8793 61.704 63.2367 61.704 56 C61.704 50.7866 63.4755 46.6531 68.6086 40.6645 L68.8861 40.3407 L69.1306 39.9914 C88.5195 12.293 127.475 -1.296 193 -1.296 C367.548 -1.296 447.296 73.7608 447.296 236 C447.296 367.739 368.018 429.296 194 429.296 C168.242 429.296 151.024 428.339 140.557 426.436 L130.296 424.571 L130.296 435 L130.296 574 L130.296 582.704 L139 582.704 L396.397 582.704 L397.194 651.296 L397.194 651.296 Z " />
<glyph glyph-name="six" unicode="6" horiz-adv-x="504" d="M421.737 678.405 L432.704 681.357 L432.704 670 L432.704 636 L432.704 629.323 L426.255 627.593 C273.926 586.725 188.326 498.04 160.938 351.845 C195.757 381.924 243.684 396.704 304 396.704 C422.829 396.704 482.704 331.386 482.704 202 C482.704 55.3579 407.569 -18.704 258 -18.704 C106.156 -18.704 29.296 65.6287 29.296 232 C29.296 461.305 159.22 607.727 421.737 678.405 L421.737 678.405 Z M415.296 658.578 C165.313 588.319 46.704 451.509 46.704 232 C46.704 72.3713 113.844 -1.296 258 -1.296 C400.431 -1.296 465.296 62.6421 465.296 202 C465.296 324.614 415.171 379.296 304 379.296 C234.646 379.296 187.318 360.736 154.765 320.523 L135.279 296.453 L139.372 327.15 C161.435 492.621 252.816 596.997 415.296 642.636 L415.296 658.578 L415.296 658.578 Z M151.712 233.047 C152.867 105.152 187.103 48.704 258 48.704 C330.888 48.704 363.296 88.1189 363.296 177 C363.296 264.893 331.875 303.296 261 303.296 C196.034 303.296 163.146 281.938 151.712 233.047 L151.712 233.047 Z M134.296 233.934 L134.289 234.94 L134.511 235.922 C147.286 292.343 190.394 320.704 261 320.704 C340.125 320.704 380.704 271.107 380.704 177 C380.704 81.8811 339.112 31.296 258 31.296 C177.085 31.296 135.314 100.548 134.296 233.934 L134.296 233.934 Z " />
<glyph glyph-name="seven" unicode="7" horiz-adv-x="500" d="M41.296 660 L41.296 668.704 L50 668.704 L415 668.704 L460 668.704 L468.704 668.704 L468.704 660 L468.704 638 L468.704 635.725 L467.591 633.741 C297.877 331.251 216.704 126.339 216.704 0 L216.704 -8.704 L208 -8.704 L83 -8.704 L74.296 -8.704 L74.296 0 C74.296 34.654 167.978 219.485 361.163 565.296 L50 565.296 L41.296 565.296 L41.296 574 L41.296 660 L41.296 660 Z M58.704 651.296 L58.704 582.704 L376 582.704 L390.841 582.704 L383.596 569.751 C199.462 240.541 105.295 57.4959 93.074 8.704 L199.417 8.704 C202.988 138.649 285.513 344.529 451.296 640.274 L451.296 651.296 L415 651.296 L58.704 651.296 L58.704 651.296 Z " />
<glyph glyph-name="eight" unicode="8" horiz-adv-x="495" d="M290.964 384.249 C323.918 404.3 339.296 439.938 339.296 496 C339.296 576.73 309.05 611.296 239 611.296 C182.516 611.296 158.704 588.305 158.704 535 C158.704 474.36 180.167 437.695 277.766 390.847 L277.83 390.816 L277.893 390.785 L290.964 384.249 L290.964 384.249 Z M357.493 349.122 C434.111 298.774 463.704 243.557 463.704 174 C463.704 48.067 391.286 -15.704 248 -15.704 C105.144 -15.704 31.296 38.5963 31.296 147 C31.296 242.032 66.6183 304.748 137.212 332.457 C63.2839 382.737 42.296 434.521 42.296 501 C42.296 621.037 112.812 680.704 250 680.704 C385.265 680.704 453.704 620.956 453.704 504 C453.704 426.615 420.898 374.278 357.493 349.122 L357.493 349.122 Z M336.213 342.004 L319.344 337.152 L324.722 347.907 L288.107 366.215 L270.17 375.184 C167.822 424.324 141.296 469.653 141.296 535 C141.296 595.695 175.484 628.704 239 628.704 C316.95 628.704 356.704 583.27 356.704 496 C356.704 439.246 339.484 396.835 305.388 372.921 L326.615 351.694 L328.215 354.893 L328.715 355.893 L332.911 364.285 L338.619 360.874 C405.256 381.744 436.296 426.725 436.296 504 C436.296 613.044 378.735 663.296 250 663.296 C119.188 663.296 59.704 612.963 59.704 501 C59.704 433.83 79.8787 387.979 161.581 337.401 L178.207 327.109 L159.433 321.643 C83.5926 299.563 48.704 244.476 48.704 147 C48.704 47.4037 110.856 1.704 248 1.704 C384.714 1.704 446.296 55.933 446.296 174 C446.296 242.494 418.069 292.017 336.213 342.004 L336.213 342.004 Z M200.125 297.329 C166.504 275.254 150.704 236.614 150.704 175 C150.704 88.2293 182.993 50.704 255 50.704 C324.621 50.704 354.296 77.8356 354.296 142 C354.296 199.082 323.366 240.019 228.337 284.104 L228.321 284.112 L228.306 284.119 L200.125 297.329 L200.125 297.329 Z M208.704 312.533 L235.663 299.896 L235.694 299.881 C334.642 253.971 371.704 204.912 371.704 142 C371.704 70.1644 331.379 33.296 255 33.296 C175.007 33.296 133.296 81.7707 133.296 175 C133.296 242.818 154.151 290.566 195.578 314.997 L208.704 322.738 L208.704 312.533 L208.704 312.533 Z " />
<glyph glyph-name="nine" unicode="9" horiz-adv-x="501" d="M82.2547 -18.4069 L70.9453 -21.4401 L71.3 -9.73636 L72.3 23.2636 L72.4954 29.7127 L78.7227 31.4008 C232.471 73.0795 318.145 164.021 344.15 313.142 C309.987 280.242 264.034 263.296 207 263.296 C84.1823 263.296 21.296 331.603 21.296 465 C21.296 621.327 97.0766 678.704 246 678.704 C398.844 678.704 475.704 594.371 475.704 428 C475.704 198.695 345.777 52.2696 82.2547 -18.4069 L82.2547 -18.4069 Z M89.057 1.509 C339.786 71.7942 458.296 208.579 458.296 428 C458.296 587.629 391.156 661.296 246 661.296 C102.923 661.296 38.704 612.673 38.704 465 C38.704 338.397 91.8177 280.704 207 280.704 C272.059 280.704 317.309 301.944 350 346.174 L369.499 372.554 L365.644 339.977 C345.581 170.45 254.147 62.9805 89.506 16.326 L89.057 1.509 L89.057 1.509 Z M352.798 424.721 L352.796 424.934 C351.814 553.575 318.052 610.296 247 610.296 C176.876 610.296 145.704 575.66 145.704 465 C145.704 388.472 177.74 354.704 251 354.704 C306.132 354.704 337.334 376.492 352.798 424.721 L352.798 424.721 Z M370.08 433.704 L373.72 433.704 L370.333 422.485 C353.482 366.667 312.814 337.296 251 337.296 C170.26 337.296 128.296 381.528 128.296 465 C128.296 582.34 169.124 627.704 247 627.704 C326.182 627.704 367.368 561.415 370.08 433.704 L370.08 433.704 Z " />
<glyph glyph-name="colon" unicode="&#x3a;" horiz-adv-x="263" d="M132 307.296 C83.3947 307.296 56.296 334.395 56.296 383 C56.296 431.605 83.3947 458.704 132 458.704 C180.605 458.704 207.704 431.605 207.704 383 C207.704 334.395 180.605 307.296 132 307.296 L132 307.296 Z M132 324.704 C173.395 324.704 190.296 341.605 190.296 383 C190.296 424.395 173.395 441.296 132 441.296 C90.6053 441.296 73.704 424.395 73.704 383 C73.704 341.605 90.6053 324.704 132 324.704 L132 324.704 Z M132 -18.704 C83.3947 -18.704 56.296 8.39469 56.296 57 C56.296 105.605 83.3947 132.704 132 132.704 C180.605 132.704 207.704 105.605 207.704 57 C207.704 8.39469 180.605 -18.704 132 -18.704 L132 -18.704 Z M132 -1.296 C173.395 -1.296 190.296 15.6053 190.296 57 C190.296 98.3947 173.395 115.296 132 115.296 C90.6053 115.296 73.704 98.3947 73.704 57 C73.704 15.6053 90.6053 -1.296 132 -1.296 L132 -1.296 Z " />
<glyph glyph-name="semicolon" unicode="&#x3b;" horiz-adv-x="257" d="M127 307.296 C78.3947 307.296 51.296 334.395 51.296 383 C51.296 431.605 78.3947 458.704 127 458.704 C175.605 458.704 202.704 431.605 202.704 383 C202.704 334.395 175.605 307.296 127 307.296 L127 307.296 Z M127 324.704 C168.395 324.704 185.296 341.605 185.296 383 C185.296 424.395 168.395 441.296 127 441.296 C85.6053 441.296 68.704 424.395 68.704 383 C68.704 341.605 85.6053 324.704 127 324.704 L127 324.704 Z M140.793 108.835 C190.387 85.5701 215.704 37.0878 215.704 -35 C215.704 -109.177 164.44 -170.052 63.7329 -217.863 L51.296 -223.767 L51.296 -210 L51.296 -188 L51.296 -182.445 L56.3346 -180.105 C110.526 -154.945 134.296 -125.893 134.296 -88 C134.296 -48.3631 119.851 -23.7221 86.2833 -7.87058 L86.1129 -7.7901 L85.9461 -7.70233 L47.9461 12.2977 L44.5982 14.0598 L43.6027 17.7098 L40.6027 28.7098 L39.6541 32.1881 L41.4428 35.3184 L73.4428 91.3184 L73.528 91.4675 L73.619 91.6131 C84.2822 108.674 96.6907 119.704 109 119.704 C116.561 119.704 126.438 116.007 140.793 108.835 L140.793 108.835 Z M133.31 93.1169 L133.208 93.1646 L133.107 93.2149 C119.516 100.011 113.422 102.296 109 102.296 C103.328 102.296 97.7537 97.3578 88.471 82.531 L58.346 29.812 L59.402 25.94 L93.89 7.789 C132.207 -10.3779 151.704 -43.7037 151.704 -88 C151.704 -130.807 123.229 -166.872 68.704 -193.496 L68.704 -196.05 C157.379 -151.283 198.296 -99.8638 198.296 -35 C198.296 32.8623 177.648 72.363 133.31 93.1169 L133.31 93.1169 Z " />
<glyph glyph-name="equal" unicode="&#x3d;" horiz-adv-x="500" d="M31.296 195 L31.296 203.704 L40 203.704 L460 203.704 L468.704 203.704 L468.704 195 L468.704 139 L468.704 130.296 L460 130.296 L40 130.296 L31.296 130.296 L31.296 139 L31.296 195 L31.296 195 Z M48.704 186.296 L48.704 147.704 L451.296 147.704 L451.296 186.296 L48.704 186.296 L48.704 186.296 Z M31.296 405 L31.296 413.704 L40 413.704 L460 413.704 L468.704 413.704 L468.704 405 L468.704 349 L468.704 340.296 L460 340.296 L40 340.296 L31.296 340.296 L31.296 349 L31.296 405 L31.296 405 Z M48.704 396.296 L48.704 357.704 L451.296 357.704 L451.296 396.296 L48.704 396.296 L48.704 396.296 Z " />
<glyph glyph-name="question" unicode="&#x3f;" horiz-adv-x="480" d="M217 -13.704 C168.395 -13.704 141.296 13.3947 141.296 62 C141.296 110.605 168.395 137.704 217 137.704 C265.605 137.704 292.704 110.605 292.704 62 C292.704 13.3947 265.605 -13.704 217 -13.704 L217 -13.704 Z M217 3.704 C258.395 3.704 275.296 20.6053 275.296 62 C275.296 103.395 258.395 120.296 217 120.296 C175.605 120.296 158.704 103.395 158.704 62 C158.704 20.6053 175.605 3.704 217 3.704 L217 3.704 Z M168.474 343.247 L166.96 350.611 L174.025 353.18 C271.304 388.554 314.296 429.717 314.296 485 C314.296 573.893 282.875 612.296 214 612.296 C167.404 612.296 146.704 584.144 146.704 518 L146.704 474 L146.704 470.893 L144.737 468.488 L135.737 457.488 L133.125 454.296 L129 454.296 L83 454.296 C50.3947 454.296 31.296 473.395 31.296 507 C31.296 621.252 105.009 678.704 248 678.704 C371.692 678.704 434.704 613.519 434.704 485 C434.704 387.963 370.805 312.579 243.985 259.871 L236.632 202.886 L235.653 195.296 L228 195.296 L206 195.296 L198.904 195.296 L197.474 202.247 L168.474 343.247 L168.474 343.247 Z M187.03 339.437 L213.096 212.704 L220.347 212.704 L227.368 267.114 L228.018 272.152 L232.724 274.064 C358.776 325.273 417.296 393.231 417.296 485 C417.296 606.481 364.308 661.296 248 661.296 C110.991 661.296 48.704 612.748 48.704 507 C48.704 480.605 57.6053 471.704 83 471.704 L124.875 471.704 L129.296 477.107 L129.296 518 C129.296 589.856 158.596 629.704 214 629.704 C291.125 629.704 331.704 580.107 331.704 485 C331.704 423.765 283.078 375.762 187.03 339.437 L187.03 339.437 Z " />
<glyph glyph-name="A" unicode="A" horiz-adv-x="750" d="M628.822 123.704 L629.255 123.704 L631.509 118.408 C650.832 72.9997 672.238 50.1946 701.294 44.614 L709.961 43.6508 L717.704 42.7905 L717.704 35 L717.704 15 L717.704 0 L717.704 -8.704 L709 -8.704 L671 -8.704 L619 -8.704 L566 -8.704 L458 -8.704 L449.296 -8.704 L449.296 0 L449.296 15 L449.296 39 L449.296 46.7905 L457.039 47.6508 L474.916 49.637 C513.895 55.1039 524.334 70.3264 512.817 106.018 L474.135 201.308 L239.9 201.784 L204.136 111.904 C189.599 71.8365 199.516 54.0313 240.036 47.648 L251.723 46.6739 L259.704 46.0088 L259.704 38 L259.704 14 L259.704 -1 L259.704 -9.704 L251 -9.704 L151 -9.704 L113 -9.704 L75 -9.704 L38 -9.704 L29.296 -9.704 L29.296 -1 L29.296 10 L29.296 26 L29.296 33.6837 L36.9204 34.6368 L44.687 35.608 C69.7593 40.1793 88.6725 59.9955 106.987 101.401 L312.938 607.282 L312.942 607.291 L312.946 607.301 L337.946 668.301 L340.161 673.704 L346 673.704 L396 673.704 L401.853 673.704 L404.061 668.284 L415.045 641.323 L415.061 641.284 L628.822 123.704 L628.822 123.704 Z M617.807 106.296 L617.178 106.296 L614.955 111.677 L398.955 634.677 L398.947 634.697 L398.939 634.716 L390.147 656.296 L351.839 656.296 L329.062 600.718 L329.054 600.699 L123.062 94.718 L123.013 94.5994 L122.961 94.4822 C103.345 50.0863 78.3264 23.9309 47.5301 18.4315 L47.3057 18.3915 L47.0796 18.3632 L46.704 18.316 L46.704 10 L46.704 7.704 L75 7.704 L113 7.704 L151 7.704 L242.296 7.704 L242.296 14 L242.296 29.991 L238.277 30.3261 L237.968 30.3518 L237.662 30.3994 C188.476 38.0506 170.457 70.2267 187.82 117.975 L187.865 118.097 L187.913 118.218 L225.913 213.718 L228.1 219.216 L234.018 219.204 L480.018 218.704 L485.865 218.692 L488.065 213.274 L529.065 112.274 L529.182 111.986 L529.278 111.69 C543.598 67.6269 524.02 38.9122 477.203 32.3795 L477.082 32.3627 L476.961 32.3492 L466.704 31.21 L466.704 15 L466.704 8.704 L566 8.704 L619 8.704 L671 8.704 L700.296 8.704 L700.296 15 L700.296 27.21 L699.039 27.3492 L698.716 27.3851 L698.396 27.4451 C664.896 33.7262 638.145 61.0328 617.807 106.296 L617.807 106.296 Z M443.105 280.704 L356.123 496.42 L271.75 280.704 L443.105 280.704 L443.105 280.704 Z M464.072 275.255 L468.895 263.296 L456 263.296 L259 263.296 L246.25 263.296 L250.894 275.17 L347.894 523.17 L355.877 543.58 L364.072 523.255 L464.072 275.255 L464.072 275.255 Z " />
<glyph glyph-name="B" unicode="B" horiz-adv-x="631" d="M471.968 359.542 C556.039 332.881 590.704 278.939 590.704 201 C590.704 61.7296 500.974 -7.704 323 -7.704 L245 -7.704 L195 -7.704 L144 -7.704 L64 -7.704 L55.296 -7.704 L55.296 1 L55.296 18 L55.296 44 L55.296 52.0088 L63.2772 52.6739 L74.886 53.641 C117.501 61.158 135.296 82.3169 135.296 126 L135.296 536 C135.296 579.683 117.501 600.842 74.886 608.359 L63.2772 609.326 L55.296 609.991 L55.296 618 L55.296 644 L55.296 661 L55.296 669.704 L64 669.704 L144 669.704 L195 669.704 L245 669.704 L336 669.704 C499.369 669.704 560.704 613.846 560.704 505 C560.704 440.129 530.456 390.725 471.968 359.542 L471.968 359.542 Z M447.655 348.274 L409.297 332.607 L439.845 363.155 L440.345 363.655 L443.772 367.081 L446.199 366.511 C512.462 394.641 543.296 438.939 543.296 505 C543.296 606.154 492.631 652.296 336 652.296 L245 652.296 L195 652.296 L144 652.296 L72.704 652.296 L72.704 644 L72.704 626.009 L76.7228 625.674 L77.1093 625.642 L77.4914 625.575 C126.604 617.034 152.704 586.188 152.704 536 L152.704 126 C152.704 75.8117 126.604 44.966 77.4914 36.4247 L77.1093 36.3583 L76.7228 36.3261 L72.704 35.991 L72.704 18 L72.704 9.704 L144 9.704 L195 9.704 L245 9.704 L323 9.704 C495.026 9.704 573.296 70.2704 573.296 201 C573.296 279.286 540.116 325.723 447.655 348.274 L447.655 348.274 Z M258 379.704 C383.738 379.704 438.296 410.113 438.296 476 C438.296 554.73 408.05 589.296 311 589.296 L310.934 589.296 L310.868 589.297 L253.704 590.163 L253.704 379.704 L258 379.704 L258 379.704 Z M258 362.296 L245 362.296 L236.296 362.296 L236.296 371 L236.296 599 L236.296 607.837 L245.132 607.703 L311.066 606.704 C415.966 606.685 455.704 561.252 455.704 476 C455.704 399.887 388.262 362.296 258 362.296 L258 362.296 Z M254.704 70.704 L324 70.704 C424.829 70.704 469.296 108.056 469.296 192 C469.296 268.395 436.395 301.296 331 301.296 L254.704 301.296 L254.704 70.704 L254.704 70.704 Z M246 53.296 L237.296 53.296 L237.296 62 L237.296 310 L237.296 318.704 L246 318.704 L331 318.704 C443.605 318.704 486.704 275.605 486.704 192 C486.704 99.9441 431.171 53.296 324 53.296 L246 53.296 L246 53.296 Z " />
<glyph glyph-name="C" unicode="C" horiz-adv-x="718" d="M636.687 53.4537 L633.955 10.0195 L619.296 10.48 L619.296 36.774 C567.51 0.0552486 495.253 -17.704 402 -17.704 C174.491 -17.704 61.296 91.2981 61.296 311 C61.296 557.495 178.283 679.704 414 679.704 C513.087 679.704 583.281 661.894 623.904 624.396 L626.554 621.95 L626.697 618.346 L633.697 442.346 L634.015 434.355 L626.08 433.363 C617.711 432.317 609.338 432.296 601.475 432.296 C592.192 431.296 583.863 431.296 576 431.296 L569.125 431.296 L567.533 437.984 C562.548 458.92 557.541 478.948 552.524 501.019 C540.943 549.236 521.309 576.969 489.525 592.015 C465.377 601.641 441.08 606.296 414 606.296 C255.916 606.296 182.704 523.698 182.704 344 C182.704 146.941 252.308 55.704 402 55.704 C437.07 55.704 469.318 62.3338 501.482 75.962 C536.385 92.0403 557.993 120.865 570.551 169.093 C574.557 186.116 578.627 202.387 583.692 218.596 L585.901 225.664 L593.231 224.617 C599.619 223.704 607 223.704 615 223.704 L615.619 223.704 L616.231 223.617 C622.619 222.704 630.542 222.704 639.08 221.637 L647.201 220.622 L646.687 212.454 L636.687 53.4537 L636.687 53.4537 Z M619.583 58.83 L628.782 205.095 C623.991 205.419 619.112 205.661 614.399 206.296 C609.113 206.296 603.576 206.309 598.253 206.643 C594.259 193.13 590.889 179.525 587.473 165.006 L587.449 164.908 L587.424 164.81 C573.992 113.15 547.639 78.0122 508.634 60.0909 L508.517 60.0373 L508.399 59.9873 C474.603 45.6493 438.887 38.296 402 38.296 C243.692 38.296 165.296 141.059 165.296 344 C165.296 530.302 248.084 623.704 414 623.704 C442.829 623.704 470.46 618.39 496.233 608.081 L496.472 607.986 L496.706 607.876 C532.775 590.902 557.071 556.666 569.464 505.031 L569.476 504.98 L569.488 504.929 C573.935 485.36 578.39 467.349 582.862 448.727 C588.436 448.783 593.984 448.978 600.039 449.651 L600.518 449.704 L601 449.704 C606.168 449.704 611.11 449.704 615.973 449.955 L609.449 613.979 C571.737 646.85 508.662 662.296 414 662.296 C185.717 662.296 78.704 550.505 78.704 311 C78.704 98.7019 181.509 -0.296 402 -0.296 C499.947 -0.296 570.173 18.6499 619.583 58.83 L619.583 58.83 Z " />
<glyph glyph-name="D" unicode="D" horiz-adv-x="777" d="M217 -8.704 L195 -8.704 L144 -8.704 L64 -8.704 L55.296 -8.704 L55.296 0 L55.296 17 L55.296 43 L55.296 51.0088 L63.2772 51.6739 L74.886 52.641 C117.501 60.158 135.296 81.3169 135.296 125 L135.296 535 C135.296 578.683 117.501 599.842 74.886 607.359 L63.2772 608.326 L55.296 608.991 L55.296 617 L55.296 643 L55.296 660 L55.296 668.704 L64 668.704 L144 668.704 L195 668.704 L245 668.704 L344 668.704 C592.589 668.704 716.704 587.713 716.704 361 C716.704 97.9418 599.297 -0.596375 362.297 -8.69892 L362.149 -8.704 L362 -8.704 L245 -8.704 L217 -8.704 L217 -8.704 Z M217 8.704 L245 8.704 L361.851 8.704 C592.749 16.6347 699.296 106.113 699.296 361 C699.296 578.287 587.411 651.296 344 651.296 L245 651.296 L195 651.296 L144 651.296 L72.704 651.296 L72.704 643 L72.704 625.009 L76.7228 624.674 L77.1093 624.642 L77.4914 624.575 C126.604 616.034 152.704 585.188 152.704 535 L152.704 125 C152.704 74.8117 126.604 43.966 77.4914 35.4247 L77.1093 35.3583 L76.7228 35.3261 L72.704 34.991 L72.704 17 L72.704 8.704 L144 8.704 L195 8.704 L217 8.704 L217 8.704 Z M253.704 69.704 L359.84 69.704 C520.682 75.6283 594.296 139.052 594.296 322 C594.296 523.694 507.057 590.296 316 590.296 L253.704 590.296 L253.704 69.704 L253.704 69.704 Z M245 52.296 L236.296 52.296 L236.296 61 L236.296 599 L236.296 607.704 L245 607.704 L316 607.704 C512.943 607.704 611.704 532.306 611.704 322 C611.704 131.008 527.366 58.4133 360.318 52.3018 L360.159 52.296 L360 52.296 L245 52.296 L245 52.296 Z " />
<glyph glyph-name="E" unicode="E" horiz-adv-x="651" d="M590.704 31 L590.704 0 L590.704 -8.704 L582 -8.704 L562 -8.704 L543 -8.704 L532 -8.704 L462 -8.704 L245 -8.704 L195 -8.704 L170 -8.704 L144 -8.704 L64 -8.704 L55.296 -8.704 L55.296 0 L55.296 17 L55.296 43 L55.296 51.0088 L63.2772 51.6739 L74.886 52.641 C117.501 60.158 135.296 81.3169 135.296 125 L135.296 535 C135.296 578.683 117.501 599.842 74.886 607.359 L63.2772 608.326 L55.296 608.991 L55.296 617 L55.296 643 L55.296 660 L55.296 668.704 L64 668.704 L144 668.704 L170 668.704 L195 668.704 L245 668.704 L437 668.704 L507 668.704 L518 668.704 L537 668.704 L557 668.704 L565.704 668.704 L565.704 660 L565.704 629 L565.704 599 L565.704 484 L565.704 475.296 L557 475.296 L541 475.296 L508 475.296 L501.167 475.296 L499.545 481.933 L488.545 526.933 L488.514 527.06 L488.487 527.189 C479.121 571.208 455.883 590.296 412 590.296 L253.704 590.296 L253.704 379.704 L337 379.704 L342.897 379.704 C382.534 380.656 402.944 399.445 410.425 440.495 L412.414 452.431 L421 451 L429.704 451 C429.704 455.407 424.993 458.704 423.958 459.013 C423.746 459.076 423.396 459.134 423.746 459.099 C424.727 459.002 426.205 458.954 428.625 458.954 C433.61 458.954 441.153 459.197 451.586 459.694 L451.793 459.704 L452 459.704 L472 459.704 L480.704 459.704 L480.704 451 L480.704 371 L480.704 340 L480.704 309 L480.704 229 L480.704 220.296 L472 220.296 L452 220.296 L421 220.296 L413.627 220.296 L412.414 227.569 L410.425 239.509 L410.414 239.569 C402.961 282.323 380.882 300.296 337 300.296 L253.704 300.296 L253.704 69.704 L436.906 69.704 C480.94 70.6653 504.069 88.8637 512.451 132.637 L512.472 132.746 L512.496 132.855 L524.496 187.855 L524.549 187.844 C525.624 191.738 529.822 194.343 531.225 194.725 C532.056 194.952 533.328 195.145 534.274 195.231 C535.911 195.38 538.368 195.454 541.25 195.454 C546.848 195.454 555.228 195.201 566.197 194.704 L582 194.704 L590.704 194.704 L590.704 186 L590.704 61 L590.704 31 L590.704 31 Z M573.296 31 L573.296 61 L573.296 177.296 L566 177.296 L565.802 177.296 L565.605 177.305 C554.671 177.802 546.618 178.046 541.25 178.046 C540.871 178.046 540.513 178.045 540.173 178.043 L529.527 129.252 C519.888 79.1287 487.055 53.359 437.185 52.298 L437.093 52.296 L437 52.296 L245 52.296 L236.296 52.296 L236.296 61 L236.296 309 L236.296 317.704 L245 317.704 L337 317.704 C387.097 317.704 419.018 291.694 427.575 242.491 L427.581 242.461 L427.586 242.431 L428.373 237.704 L452 237.704 L463.296 237.704 L463.296 309 L463.296 340 L463.296 371 L463.296 442.296 L452.207 442.296 C441.743 441.799 433.856 441.546 428.625 441.546 L428.248 441.547 L427.586 437.569 L427.575 437.506 L427.564 437.443 C419.041 390.571 389.48 363.375 343.202 362.298 L343.101 362.296 L343 362.296 L337 362.296 L245 362.296 L236.296 362.296 L236.296 371 L236.296 599 L236.296 607.704 L245 607.704 L412 607.704 C462.073 607.704 494.823 580.838 505.486 530.941 L514.833 492.704 L541 492.704 L548.296 492.704 L548.296 599 L548.296 629 L548.296 651.296 L537 651.296 L518 651.296 L507 651.296 L437 651.296 L245 651.296 L195 651.296 L170 651.296 L144 651.296 L72.704 651.296 L72.704 643 L72.704 625.009 L76.7228 624.674 L77.1093 624.642 L77.4914 624.575 C126.604 616.034 152.704 585.188 152.704 535 L152.704 125 C152.704 74.8117 126.604 43.966 77.4914 35.4247 L77.1093 35.3583 L76.7228 35.3261 L72.704 34.991 L72.704 17 L72.704 8.704 L144 8.704 L170 8.704 L195 8.704 L245 8.704 L462 8.704 L532 8.704 L543 8.704 L562 8.704 L573.296 8.704 L573.296 31 L573.296 31 Z " />
<glyph glyph-name="F" unicode="F" horiz-adv-x="616" d="M337 300.296 L253.704 300.296 L253.704 125 C253.704 81.2022 271.439 60.2286 316.037 54.642 L316.08 54.6368 L341.037 51.642 L348.704 50.722 L348.704 43 L348.704 17 L348.704 0 L348.704 -8.704 L340 -8.704 L245 -8.704 L195 -8.704 L144 -8.704 L64 -8.704 L55.296 -8.704 L55.296 0 L55.296 17 L55.296 43 L55.296 51.0088 L63.2772 51.6739 L74.886 52.641 C117.501 60.158 135.296 81.3169 135.296 125 L135.296 535 C135.296 578.683 117.501 599.842 74.886 607.359 L63.2772 608.326 L55.296 608.991 L55.296 617 L55.296 643 L55.296 660 L55.296 668.704 L64 668.704 L144 668.704 L170 668.704 L195 668.704 L245 668.704 L427 668.704 L497 668.704 L508 668.704 L527 668.704 L547 668.704 L555.704 668.704 L555.704 660 L555.704 629 L555.704 599 L555.704 484 L555.704 475.296 L547 475.296 L531 475.296 L498 475.296 L491.167 475.296 L489.545 481.933 L478.545 526.933 L478.514 527.06 L478.487 527.189 C469.121 571.208 445.883 590.296 402 590.296 L253.704 590.296 L253.704 379.704 L337 379.704 L342.897 379.704 C382.534 380.656 402.944 399.445 410.425 440.495 L412.414 452.431 L421 451 L429.704 451 C429.704 455.407 424.993 458.704 423.958 459.013 C423.746 459.076 423.396 459.134 423.746 459.099 C424.727 459.002 426.205 458.954 428.625 458.954 C433.61 458.954 441.153 459.197 451.586 459.694 L451.793 459.704 L452 459.704 L472 459.704 L480.704 459.704 L480.704 451 L480.704 371 L480.704 340 L480.704 309 L480.704 229 L480.704 220.296 L472 220.296 L452 220.296 L421 220.296 L413.627 220.296 L412.414 227.569 L410.425 239.509 L410.414 239.569 C402.961 282.323 380.882 300.296 337 300.296 L337 300.296 Z M337 317.704 C387.097 317.704 419.018 291.694 427.575 242.491 L427.581 242.461 L427.586 242.431 L428.373 237.704 L452 237.704 L463.296 237.704 L463.296 309 L463.296 340 L463.296 371 L463.296 442.296 L452.207 442.296 C441.743 441.799 433.856 441.546 428.625 441.546 L428.248 441.547 L427.586 437.569 L427.575 437.506 L427.564 437.443 C419.041 390.571 389.48 363.375 343.202 362.298 L343.101 362.296 L343 362.296 L337 362.296 L245 362.296 L236.296 362.296 L236.296 371 L236.296 599 L236.296 607.704 L245 607.704 L402 607.704 C452.073 607.704 484.823 580.838 495.486 530.941 L504.833 492.704 L531 492.704 L538.296 492.704 L538.296 599 L538.296 629 L538.296 651.296 L527 651.296 L508 651.296 L497 651.296 L427 651.296 L245 651.296 L195 651.296 L170 651.296 L144 651.296 L72.704 651.296 L72.704 643 L72.704 625.009 L76.7228 624.674 L77.1093 624.642 L77.4914 624.575 C126.604 616.034 152.704 585.188 152.704 535 L152.704 125 C152.704 74.8117 126.604 43.966 77.4914 35.4247 L77.1093 35.3583 L76.7228 35.3261 L72.704 34.991 L72.704 17 L72.704 8.704 L144 8.704 L195 8.704 L245 8.704 L331.296 8.704 L331.296 17 L331.296 35.278 L313.963 37.358 L313.942 37.3606 L313.92 37.3632 C262.55 43.7846 236.296 74.8117 236.296 125 L236.296 309 L236.296 317.704 L245 317.704 L337 317.704 L337 317.704 Z " />
<glyph glyph-name="G" unicode="G" horiz-adv-x="775" d="M663.704 165 L663.704 88 L663.704 85.2515 L662.126 83.0014 C613.615 13.8479 527.638 -19.704 403 -19.704 C174.491 -19.704 61.296 89.2981 61.296 309 C61.296 555.561 181.351 677.704 424 677.704 C530.042 677.704 603.246 659.926 643.904 622.396 L646.554 619.95 L646.697 616.346 L653.697 440.346 L654.015 432.355 L646.08 431.363 C637.711 430.317 629.338 430.296 621.475 430.296 C612.192 429.296 603.863 429.296 596 429.296 L589.125 429.296 L587.533 435.984 C582.551 456.907 577.547 476.924 572.533 498.979 C559.939 549.292 539.432 577.814 505.875 590.876 L505.845 590.888 C480.631 600.581 454.217 605.296 424 605.296 C258.818 605.296 182.704 522.604 182.704 343 C182.704 152.349 261.867 64.704 433 64.704 C484.21 64.704 521.269 69.0996 546.296 78.527 L546.296 165 C546.296 208.681 527.6 229.837 483.783 236.381 L468.85 238.372 L461.296 239.38 L461.296 247 L461.296 273 L461.296 290 L461.296 298.704 L470 298.704 L555 298.704 L605 298.704 L655 298.704 L730 298.704 L738.704 298.704 L738.704 290 L738.704 273 L738.704 247 L738.704 239.051 L730.788 238.332 L720.199 237.369 C680.64 229.891 663.704 208.779 663.704 165 L663.704 165 Z M646.296 165 C646.296 215.076 671.248 245.969 717.408 254.557 L717.807 254.631 L718.212 254.668 L721.296 254.949 L721.296 273 L721.296 281.296 L655 281.296 L605 281.296 L555 281.296 L478.704 281.296 L478.704 273 L478.704 254.62 L486.15 253.628 L486.216 253.619 L486.282 253.609 C536.418 246.142 563.704 215.297 563.704 165 L563.704 84.617 L600.968 92.0699 L602.818 86.6776 L563.893 67.2149 C536.629 53.5832 492.619 47.296 433 47.296 C254.133 47.296 165.296 145.651 165.296 343 C165.296 529.396 251.182 622.704 424 622.704 C455.771 622.704 485.349 617.422 512.125 607.124 L512.14 607.118 L512.155 607.112 C550.561 592.176 576.04 556.727 589.444 503.111 L589.467 503.02 L589.488 502.929 C593.935 483.36 598.39 465.349 602.862 446.727 C608.436 446.783 613.984 446.978 620.039 447.651 L620.518 447.704 L621 447.704 C626.168 447.704 631.11 447.704 635.973 447.955 L629.449 611.974 C591.634 644.818 525.546 660.296 424 660.296 C188.649 660.296 78.704 548.439 78.704 309 C78.704 96.7019 181.509 -2.296 403 -2.296 C522.97 -2.296 600.589 27.4571 646.296 90.78 L646.296 165 L646.296 165 Z " />
<glyph glyph-name="H" unicode="H" horiz-adv-x="812" d="M617 -8.704 L567 -8.704 L487 -8.704 L478.296 -8.704 L478.296 0 L478.296 17 L478.296 43 L478.296 51.0088 L486.277 51.6739 L497.886 52.641 C540.501 60.158 558.296 81.3169 558.296 125 L558.296 300.296 L253.704 300.296 L253.704 125 C253.704 81.3169 271.499 60.158 314.114 52.641 L325.723 51.6739 L333.704 51.0088 L333.704 43 L333.704 17 L333.704 0 L333.704 -8.704 L325 -8.704 L245 -8.704 L195 -8.704 L144 -8.704 L64 -8.704 L55.296 -8.704 L55.296 0 L55.296 17 L55.296 43 L55.296 51.0088 L63.2772 51.6739 L74.886 52.641 C117.501 60.158 135.296 81.3169 135.296 125 L135.296 535 C135.296 578.683 117.501 599.842 74.886 607.359 L63.2772 608.326 L55.296 608.991 L55.296 617 L55.296 643 L55.296 660 L55.296 668.704 L64 668.704 L144 668.704 L195 668.704 L245 668.704 L325 668.704 L333.704 668.704 L333.704 660 L333.704 643 L333.704 617 L333.704 608.991 L325.723 608.326 L314.114 607.359 C271.499 599.842 253.704 578.683 253.704 535 L253.704 379.704 L558.296 379.704 L558.296 535 C558.296 578.683 540.501 599.842 497.886 607.359 L486.277 608.326 L478.296 608.991 L478.296 617 L478.296 643 L478.296 660 L478.296 668.704 L487 668.704 L567 668.704 L617 668.704 L668 668.704 L748 668.704 L756.704 668.704 L756.704 660 L756.704 643 L756.704 642.744 L756.689 642.489 C756.27 635.367 756.034 629.798 755.971 625.704 L791.52 625.704 L792.092 611.94 L748.723 608.326 L737.131 607.36 C695.35 599.831 677.652 580.437 676.704 540.897 L676.704 535 L676.704 125 L676.704 119.103 C677.652 79.5627 695.35 60.1688 737.131 52.64 L748.723 51.6739 L748 43 L748 34.296 C752.132 34.296 755.546 38.6851 755.923 39.8103 C756.023 40.1057 756.114 40.5942 756.087 40.3536 C755.998 39.5665 755.954 38.3983 755.954 36.375 C755.954 32.1673 756.194 25.9229 756.689 17.5111 L756.704 17.2558 L756.704 17 L756.704 0 L756.704 -8.704 L748 -8.704 L668 -8.704 L617 -8.704 L617 -8.704 Z M617 8.704 L668 8.704 L739.296 8.704 L739.296 16.745 C738.847 24.4177 738.596 30.6118 738.553 35.053 L735.277 35.3261 L734.874 35.3596 L734.477 35.4304 C686.575 43.9462 660.374 72.5288 659.298 118.798 L659.296 118.899 L659.296 119 L659.296 125 L659.296 535 L659.296 541 L659.296 541.101 L659.298 541.202 C660.374 587.471 686.575 616.054 734.477 624.57 L734.874 624.64 L735.277 624.674 L738.553 624.947 C738.596 629.388 738.847 635.582 739.296 643.255 L739.296 651.296 L668 651.296 L617 651.296 L567 651.296 L495.704 651.296 L495.704 643 L495.704 625.009 L499.723 624.674 L500.109 624.642 L500.491 624.575 C549.604 616.034 575.704 585.188 575.704 535 L575.704 371 L575.704 362.296 L567 362.296 L245 362.296 L236.296 362.296 L236.296 371 L236.296 535 C236.296 585.188 262.396 616.034 311.509 624.575 L311.891 624.642 L312.277 624.674 L316.296 625.009 L316.296 643 L316.296 651.296 L245 651.296 L195 651.296 L144 651.296 L72.704 651.296 L72.704 643 L72.704 625.009 L76.7228 624.674 L77.1093 624.642 L77.4914 624.575 C126.604 616.034 152.704 585.188 152.704 535 L152.704 125 C152.704 74.8117 126.604 43.966 77.4914 35.4247 L77.1093 35.3583 L76.7228 35.3261 L72.704 34.991 L72.704 17 L72.704 8.704 L144 8.704 L195 8.704 L245 8.704 L316.296 8.704 L316.296 17 L316.296 34.991 L312.277 35.3261 L311.891 35.3583 L311.509 35.4247 C262.396 43.966 236.296 74.8117 236.296 125 L236.296 309 L236.296 317.704 L245 317.704 L567 317.704 L575.704 317.704 L575.704 309 L575.704 125 C575.704 74.8117 549.604 43.966 500.491 35.4247 L500.109 35.3583 L499.723 35.3261 L495.704 34.991 L495.704 17 L495.704 8.704 L567 8.704 L617 8.704 L617 8.704 Z " />
<glyph glyph-name="I" unicode="I" horiz-adv-x="400" d="M200 -8.704 L150 -8.704 L70 -8.704 L61.296 -8.704 L61.296 0 L61.296 17 L61.296 43 L61.296 51.0088 L69.2772 51.6739 L80.886 52.641 C123.501 60.158 141.296 81.3169 141.296 125 L141.296 535 C141.296 578.683 123.501 599.842 80.886 607.359 L69.2772 608.326 L61.296 608.991 L61.296 617 L61.296 643 L61.296 660 L61.296 668.704 L70 668.704 L150 668.704 L200 668.704 L250 668.704 L330 668.704 L338.704 668.704 L338.704 660 L338.704 643.255 C339.199 634.788 339.454 628.122 339.454 623.625 C339.454 621.273 339.373 619.129 339.212 617.697 C339.114 616.829 338.866 615.504 338.58 614.65 C338.046 613.06 334.776 608.805 330.722 608.338 L330.723 608.326 L319.131 607.36 C277.532 599.852 259.658 578.624 258.704 534.906 L258.704 125.094 C259.658 81.3761 277.532 60.1478 319.131 52.64 L330.723 51.6739 L330.722 51.662 C334.776 51.1949 338.046 46.9403 338.58 45.3498 C338.866 44.4959 339.114 43.1714 339.212 42.3027 C339.373 40.871 339.454 38.7267 339.454 36.375 C339.454 31.8779 339.199 25.2116 338.704 16.745 L338.704 0 L338.704 -8.704 L330 -8.704 L250 -8.704 L200 -8.704 L200 -8.704 Z M329.278 625.66 L330 617 L330 625.704 C329.757 625.704 329.516 625.689 329.278 625.66 L329.278 625.66 Z M200 8.704 L250 8.704 L321.296 8.704 L321.296 17 L321.296 17.2558 L321.311 17.5111 C321.752 25.0078 321.99 30.7827 322.037 34.929 L317.277 35.3261 L316.874 35.3596 L316.477 35.4304 C268.384 43.9801 242.364 74.7318 241.298 124.815 L241.296 124.907 L241.296 125 L241.296 535 L241.296 535.093 L241.298 535.185 C242.364 585.268 268.384 616.02 316.477 624.57 L316.874 624.64 L317.277 624.674 L322.037 625.071 C321.99 629.217 321.752 634.992 321.311 642.489 L321.296 642.744 L321.296 643 L321.296 651.296 L250 651.296 L200 651.296 L150 651.296 L78.704 651.296 L78.704 643 L78.704 625.009 L82.7228 624.674 L83.1093 624.642 L83.4914 624.575 C132.604 616.034 158.704 585.188 158.704 535 L158.704 125 C158.704 74.8117 132.604 43.966 83.4914 35.4247 L83.1093 35.3583 L82.7228 35.3261 L78.704 34.991 L78.704 17 L78.704 8.704 L150 8.704 L200 8.704 L200 8.704 Z " />
<glyph glyph-name="J" unicode="J" horiz-adv-x="400" d="M141.296 535 C141.296 578.683 123.501 599.842 80.886 607.359 L69.2772 608.326 L61.296 608.991 L61.296 617 L61.296 643 L61.296 660 L61.296 668.704 L70 668.704 L150 668.704 L200 668.704 L250 668.704 L330 668.704 L338.704 668.704 L338.704 660 L338.704 643.255 C339.199 634.788 339.454 628.122 339.454 623.625 C339.454 621.273 339.373 619.129 339.212 617.697 C339.114 616.829 338.866 615.504 338.58 614.65 C338.046 613.06 334.776 608.805 330.722 608.338 L330.723 608.326 L319.131 607.36 C277.532 599.852 259.658 578.624 258.704 534.906 L258.704 240 C258.704 -40.9996 190.452 -181.704 50 -181.704 C22.0987 -181.704 4.296 -168.352 4.296 -145 C4.296 -142.224 5.33002 -125.938 7.23712 -110.554 C8.1915 -102.855 9.42721 -94.9403 10.877 -89.0578 C12.409 -82.842 16.5236 -73.296 24 -73.296 L30 -73.296 L31.1512 -73.296 L32.2628 -73.5953 C57.8513 -80.4845 74.7204 -83.296 88 -83.296 C124.293 -83.296 141.296 -44.1897 141.296 50 L141.296 535 L141.296 535 Z M329.278 625.66 L330 617 L330 625.704 C329.757 625.704 329.516 625.689 329.278 625.66 L329.278 625.66 Z M158.704 535 L158.704 50 C158.704 -47.8103 135.707 -100.704 88 -100.704 C73.4875 -100.704 54.6874 -97.6053 28.851 -90.704 L28.249 -90.704 C28.2589 -91.1542 28.0971 -91.9338 27.7792 -93.2235 C26.5103 -98.3722 25.4335 -105.27 24.5129 -112.696 C22.67 -127.562 21.704 -142.776 21.704 -145 C21.704 -159.648 27.9013 -164.296 50 -164.296 C179.548 -164.296 241.296 -37.0004 241.296 240 L241.296 535 L241.296 535.093 L241.298 535.185 C242.364 585.268 268.384 616.02 316.477 624.57 L316.874 624.64 L317.277 624.674 L322.037 625.071 C321.99 629.217 321.752 634.992 321.311 642.489 L321.296 642.744 L321.296 643 L321.296 651.296 L250 651.296 L200 651.296 L150 651.296 L78.704 651.296 L78.704 643 L78.704 625.009 L82.7228 624.674 L83.1093 624.642 L83.4914 624.575 C132.604 616.034 158.704 585.188 158.704 535 L158.704 535 Z " />
<glyph glyph-name="K" unicode="K" horiz-adv-x="751" d="M587.296 101.296 L586.796 101.296 L584.228 103.965 L341.728 355.965 L335.691 362.239 L341.967 368.274 L537.41 556.219 L537.467 556.274 C586.024 603.81 625.565 630.165 655.176 636.511 L655.546 636.59 L655.92 636.637 L656.296 636.684 L656.296 645 L656.296 651.296 L603 651.296 L550 651.296 L438.704 651.296 L438.704 645 L438.704 644.728 L438.687 644.457 C438.271 637.795 438.036 632.68 437.972 628.95 L440.866 628.661 L441.133 628.634 L441.399 628.591 C491.976 620.357 490.572 583.392 443.337 534.033 L443.287 533.981 L314.347 397.044 L314.337 397.033 L258.89 337.951 L289.396 304.904 L562.811 8.704 L628 8.704 L696 8.704 L697.296 8.704 L697.296 15 L697.296 23.464 L697.176 23.4892 C667.975 29.7466 631.683 55.3927 587.296 101.296 L587.296 101.296 Z M196 -8.704 L146 -8.704 L66 -8.704 L57.296 -8.704 L57.296 0 L57.296 17 L57.296 43 L57.296 51.0088 L65.2772 51.6739 L76.886 52.641 C119.501 60.158 137.296 81.3169 137.296 125 L137.296 535 C137.296 578.683 119.501 599.842 76.886 607.359 L65.2772 608.326 L57.296 608.991 L57.296 617 L57.296 643 L57.296 660 L57.296 668.704 L66 668.704 L146 668.704 L196 668.704 L246 668.704 L326 668.704 L334.704 668.704 L334.704 660 L334.704 643 L334.704 617 L334.704 608.991 L326.723 608.326 L315.114 607.359 C272.499 599.842 254.704 578.683 254.704 535 L254.704 358.928 L301.653 408.956 L301.658 408.962 L301.663 408.967 L430.663 545.967 L430.688 545.993 L430.713 546.019 C473.328 590.528 474.004 605.574 438.854 611.368 C438.216 611.433 436.122 611.643 429.261 612.329 L429.134 612.342 C423.472 612.956 421.041 619.499 420.801 621.42 C420.631 622.778 420.546 624.819 420.546 627 C420.546 631.134 420.801 637.312 421.296 645.271 L421.296 660 L421.296 668.704 L430 668.704 L550 668.704 L603 668.704 L657 668.704 L665 668.704 L673.704 668.704 L673.704 660 L673.704 645 L673.704 629 L673.704 621.316 L666.08 620.363 L658.465 619.411 C632.126 613.622 596.792 590 549.59 543.781 L549.561 543.753 L549.533 543.726 L360.309 361.761 L594.204 118.704 L594.717 118.704 L597.287 116.019 C641.562 69.7768 674.351 46.3033 700.538 40.573 L707.231 39.6165 L714.704 38.5489 L714.704 31 L714.704 15 L714.704 0 L714.704 -8.704 L706 -8.704 L696 -8.704 L628 -8.704 L559 -8.704 L555.189 -8.704 L552.604 -5.90375 L276.604 293.096 L254.704 316.822 L254.704 125 C254.704 81.3169 272.499 60.158 315.114 52.641 L326.723 51.6739 L334.704 51.0088 L334.704 43 L334.704 17 L334.704 0 L334.704 -8.704 L326 -8.704 L246 -8.704 L196 -8.704 L196 -8.704 Z M196 8.704 L246 8.704 L317.296 8.704 L317.296 17 L317.296 34.991 L313.277 35.3261 L312.891 35.3583 L312.509 35.4247 C263.396 43.966 237.296 74.8117 237.296 125 L237.296 335.68 L235.109 338.049 L237.296 340.379 L237.296 535 C237.296 585.188 263.396 616.034 312.509 624.575 L312.891 624.642 L313.277 624.674 L317.296 625.009 L317.296 643 L317.296 651.296 L246 651.296 L196 651.296 L146 651.296 L74.704 651.296 L74.704 643 L74.704 625.009 L78.7228 624.674 L79.1093 624.642 L79.4914 624.575 C128.604 616.034 154.704 585.188 154.704 535 L154.704 125 C154.704 74.8117 128.604 43.966 79.4914 35.4247 L79.1093 35.3583 L78.7228 35.3261 L74.704 34.991 L74.704 17 L74.704 8.704 L146 8.704 L196 8.704 L196 8.704 Z " />
<glyph glyph-name="L" unicode="L" horiz-adv-x="632" d="M571.704 31 L571.704 0 L571.704 -8.704 L563 -8.704 L544 -8.704 L524 -8.704 L513 -8.704 L443 -8.704 L245 -8.704 L195 -8.704 L170 -8.704 L144 -8.704 L64 -8.704 L55.296 -8.704 L55.296 0 L55.296 17 L55.296 43 L55.296 51.0088 L63.2772 51.6739 L74.886 52.641 C117.501 60.158 135.296 81.3169 135.296 125 L135.296 535 C135.296 578.683 117.501 599.842 74.886 607.359 L63.2772 608.326 L55.296 608.991 L55.296 617 L55.296 643 L55.296 660 L55.296 668.704 L64 668.704 L144 668.704 L195 668.704 L245 668.704 L330 668.704 L338.704 668.704 L338.704 660 L338.704 643 L338.704 617 L338.704 609.38 L331.15 608.372 L316.204 606.379 C271.503 599.846 253.704 578.795 253.704 535 L253.704 69.704 L412.906 69.704 C456.848 70.6633 478.968 88.7089 486.417 132.446 L486.419 132.461 L502.417 227.446 L502.45 227.44 C503.335 231.558 507.786 234.336 509.253 234.732 C510.086 234.956 511.362 235.147 512.323 235.232 C513.986 235.38 516.497 235.454 519.5 235.454 C525.345 235.454 534.216 235.201 546.181 234.704 L563 234.704 L571.704 234.704 L571.704 226 L571.704 61 L571.704 31 L571.704 31 Z M554.296 31 L554.296 61 L554.296 217.296 L546 217.296 L545.819 217.296 L545.638 217.304 C533.695 217.801 525.126 218.046 519.5 218.046 C519.146 218.046 518.809 218.045 518.487 218.043 L503.583 129.554 L503.582 129.547 L503.581 129.539 C495.032 79.3171 463.178 53.3616 413.185 52.298 L413.093 52.296 L413 52.296 L245 52.296 L236.296 52.296 L236.296 61 L236.296 535 C236.296 585.188 262.484 616.137 313.744 623.613 L313.797 623.621 L313.85 623.628 L321.296 624.62 L321.296 643 L321.296 651.296 L245 651.296 L195 651.296 L144 651.296 L72.704 651.296 L72.704 643 L72.704 625.009 L76.7228 624.674 L77.1093 624.642 L77.4914 624.575 C126.604 616.034 152.704 585.188 152.704 535 L152.704 125 C152.704 74.8117 126.604 43.966 77.4914 35.4247 L77.1093 35.3583 L76.7228 35.3261 L72.704 34.991 L72.704 17 L72.704 8.704 L144 8.704 L170 8.704 L195 8.704 L245 8.704 L443 8.704 L513 8.704 L524 8.704 L544 8.704 L554.296 8.704 L554.296 31 L554.296 31 Z " />
<glyph glyph-name="M" unicode="M" horiz-adv-x="965" d="M147.3 535.27 L147.302 535.32 L147.304 535.37 C149.157 578.926 131.522 599.817 86.889 606.366 L69.0388 608.349 L69.041 608.37 C65.0975 608.971 61.9437 613.091 61.4203 614.65 C61.1337 615.504 60.8861 616.829 60.7882 617.697 C60.6269 619.129 60.546 621.273 60.546 623.625 C60.546 628.122 60.8007 634.788 61.296 643.255 L61.296 660 L61.296 668.704 L70 668.704 L160 668.704 L190 668.704 L221 668.704 L266 668.704 L271.722 668.704 L273.991 663.451 L493.893 154.203 L707.976 663.374 L710.218 668.704 L716 668.704 L763 668.704 L811 668.704 L899 668.704 L907.704 668.704 L907.704 660 L907.704 643 L907.704 617 L907.704 609.26 L900.017 608.356 L883.125 606.368 C844.146 600.774 826.58 584.128 823.717 549.808 L839.689 117.577 C843.456 78.6556 859.538 60.1177 894.23 53.624 L903.866 52.6608 L911.704 51.877 L911.704 44 L911.704 18 L911.704 1 L911.704 -7.704 L903 -7.704 L835 -7.704 L787 -7.704 L740 -7.704 L660 -7.704 L651.296 -7.704 L651.296 1 L651.296 18 L651.296 44 L651.296 52.0088 L659.277 52.6739 L670.851 53.638 C711.373 61.1247 728.158 82.0589 726.304 125.63 L726.303 125.649 L726.302 125.667 L712.778 479.099 L503.999 -7.43237 L501.736 -12.704 L496 -12.704 L445 -12.704 L439.269 -12.704 L437.004 -7.43959 L224.898 485.615 L217.702 125.826 L217.702 125.82 L217.702 125.815 C216.772 82.1249 234.512 61.1421 278.231 54.6165 L278.282 54.609 L292.231 52.6165 L299.704 51.5489 L299.704 44 L299.704 18 L299.704 1 L299.704 -7.704 L291 -7.704 L206 -7.704 L172 -7.704 L139 -7.704 L60 -7.704 L51.296 -7.704 L51.296 1 L51.296 18 L51.296 44 L51.296 52.0088 L59.2772 52.6739 L70.949 53.647 C111.837 60.2326 130.556 78.953 134.309 116.563 L147.3 535.27 L147.3 535.27 Z M164.698 534.681 L151.7 115.73 L151.691 115.442 L151.663 115.155 C147.36 71.0507 120.157 43.8479 73.3675 36.4041 L73.0466 36.353 L72.7228 36.3261 L68.704 35.991 L68.704 18 L68.704 9.704 L139 9.704 L172 9.704 L206 9.704 L282.296 9.704 L282.296 18 L282.296 36.451 L275.769 37.3835 L275.743 37.3871 L275.718 37.391 C225.478 44.8736 199.232 75.8874 200.298 126.174 L200.298 126.185 L208.298 526.174 L209.102 566.385 L224.996 529.44 L450.731 4.704 L490.264 4.704 L712.001 521.432 L727.222 556.901 L728.698 518.333 L743.696 126.37 L743.698 126.333 C745.823 76.0721 720.727 45.0128 673.557 36.4364 L673.143 36.361 L672.723 36.3261 L668.704 35.991 L668.704 18 L668.704 9.704 L740 9.704 L787 9.704 L835 9.704 L894.296 9.704 L894.296 18 L894.296 36.123 L892.134 36.3392 L891.776 36.3749 L891.423 36.44 C850.429 43.9915 826.6 71.3954 822.335 116.175 L822.311 116.426 L822.302 116.679 L806.302 549.679 L806.283 550.182 L806.323 550.685 C809.585 592 836.008 617.222 880.769 623.617 L880.876 623.632 L880.983 623.644 L890.296 624.74 L890.296 643 L890.296 651.296 L811 651.296 L763 651.296 L721.782 651.296 L502.024 128.626 L494.107 109.797 L486.009 128.549 L260.278 651.296 L221 651.296 L190 651.296 L160 651.296 L78.704 651.296 L78.704 643 L78.704 642.744 L78.689 642.489 C78.2409 634.872 78.0012 629.033 77.96 624.873 L88.9612 623.651 L89.1089 623.634 L89.256 623.613 C140.483 616.142 166.806 585.068 164.7 534.73 L164.698 534.681 L164.698 534.681 Z " />
<glyph glyph-name="N" unicode="N" horiz-adv-x="806" d="M675.704 535 L675.704 106 L675.704 -5 L675.704 -13.704 L667 -13.704 L628 -13.704 L623.9 -13.704 L621.29 -10.5434 L583.29 35.4566 L583.265 35.4861 L583.241 35.5158 L228.704 472.459 L228.704 125 C228.704 81.3361 247.317 60.2569 290.986 54.649 L320.866 51.6608 L328.704 50.877 L328.704 43 L328.704 17 L328.704 0 L328.704 -8.704 L320 -8.704 L220 -8.704 L181 -8.704 L142 -8.704 L62 -8.704 L53.296 -8.704 L53.296 0 L53.296 17 L53.296 43 L53.296 51.0088 L61.2772 51.6739 L72.886 52.641 C115.501 60.158 133.296 81.3169 133.296 125 L133.296 535 C133.296 578.904 117.244 599.906 76.819 607.367 L66.212 608.332 L58.296 609.051 L58.296 617 L58.296 643 L58.296 660 L58.296 668.704 L67 668.704 L142 668.704 L181 668.704 L220 668.704 L224.159 668.704 L226.772 665.468 L580.296 227.635 L580.296 535 C580.296 578.664 561.683 599.743 518.014 605.351 L488.134 608.339 L480.296 609.123 L480.296 617 L480.296 643 L480.296 660 L480.296 668.704 L489 668.704 L589 668.704 L628 668.704 L667 668.704 L742 668.704 L750.704 668.704 L750.704 660 L750.704 643 L750.704 617 L750.704 608.991 L742.723 608.326 L731.167 607.363 C691.752 599.902 675.704 578.882 675.704 535 L675.704 535 Z M658.296 535 C658.296 584.96 682.132 615.948 728.408 624.557 L728.84 624.637 L729.277 624.674 L733.296 625.009 L733.296 643 L733.296 651.296 L667 651.296 L628 651.296 L589 651.296 L497.704 651.296 L497.704 643 L497.704 624.877 L519.866 622.661 L519.984 622.649 L520.102 622.634 C570.35 616.219 597.704 585.297 597.704 535 L597.704 203 L597.704 178.365 L582.228 197.532 L215.841 651.296 L181 651.296 L142 651.296 L75.704 651.296 L75.704 643 L75.704 624.949 L78.788 624.668 L79.1749 624.633 L79.557 624.564 C126.855 615.964 150.704 584.96 150.704 535 L150.704 125 C150.704 74.8117 124.604 43.966 75.4914 35.4247 L75.1093 35.3583 L74.7228 35.3261 L70.704 34.991 L70.704 17 L70.704 8.704 L142 8.704 L181 8.704 L220 8.704 L311.296 8.704 L311.296 17 L311.296 35.123 L289.134 37.3392 L289.016 37.351 L288.898 37.3661 C238.65 43.7807 211.296 74.7027 211.296 125 L211.296 497 L211.296 521.541 L226.759 502.484 L596.71 46.5434 L596.759 46.4842 L632.1 3.704 L658.296 3.704 L658.296 106 L658.296 535 L658.296 535 Z " />
<glyph glyph-name="O" unicode="O" horiz-adv-x="809" d="M61.296 327 C61.296 562.559 175.348 678.704 405 678.704 C634.652 678.704 748.704 562.559 748.704 328 C748.704 96.4179 634.629 -18.704 405 -18.704 C175.371 -18.704 61.296 96.4179 61.296 327 L61.296 327 Z M78.704 327 C78.704 103.582 182.629 -1.296 405 -1.296 C627.371 -1.296 731.296 103.582 731.296 328 C731.296 555.441 627.348 661.296 405 661.296 C182.652 661.296 78.704 555.441 78.704 327 L78.704 327 Z M427 54.704 C561.969 54.704 624.296 128.194 624.296 289 C624.296 506.055 547.697 606.296 385 606.296 C249.057 606.296 185.704 530.831 185.704 366 C185.704 152.99 262.253 54.704 427 54.704 L427 54.704 Z M427 37.296 C253.747 37.296 168.296 147.01 168.296 366 C168.296 537.169 240.943 623.704 385 623.704 C556.303 623.704 641.704 511.945 641.704 289 C641.704 121.806 570.031 37.296 427 37.296 L427 37.296 Z " />
<glyph glyph-name="P" unicode="P" horiz-adv-x="658" d="M195 -8.704 L144 -8.704 L64 -8.704 L55.296 -8.704 L55.296 0 L55.296 17 L55.296 43 L55.296 51.0088 L63.2772 51.6739 L74.886 52.641 C117.501 60.158 135.296 81.3169 135.296 125 L135.296 535 C135.296 578.683 117.501 599.842 74.886 607.359 L63.2772 608.326 L55.296 608.991 L55.296 617 L55.296 643 L55.296 660 L55.296 668.704 L64 668.704 L144 668.704 L195 668.704 L245 668.704 L350 668.704 C513.991 668.704 596.704 604.252 596.704 476 C596.704 343.575 505.837 277.296 325 277.296 L253.704 277.296 L253.704 125 C253.704 81.2022 271.439 60.2286 316.037 54.642 L316.08 54.6368 L341.037 51.642 L348.704 50.722 L348.704 43 L348.704 17 L348.704 0 L348.704 -8.704 L340 -8.704 L245 -8.704 L195 -8.704 L195 -8.704 Z M195 8.704 L245 8.704 L331.296 8.704 L331.296 17 L331.296 35.278 L313.963 37.358 L313.942 37.3606 L313.92 37.3632 C262.55 43.7846 236.296 74.8117 236.296 125 L236.296 286 L236.296 294.704 L245 294.704 L325 294.704 C500.163 294.704 579.296 352.425 579.296 476 C579.296 595.748 508.009 651.296 350 651.296 L245 651.296 L195 651.296 L144 651.296 L72.704 651.296 L72.704 643 L72.704 625.009 L76.7228 624.674 L77.1093 624.642 L77.4914 624.575 C126.604 616.034 152.704 585.188 152.704 535 L152.704 125 C152.704 74.8117 126.604 43.966 77.4914 35.4247 L77.1093 35.3583 L76.7228 35.3261 L72.704 34.991 L72.704 17 L72.704 8.704 L144 8.704 L195 8.704 L195 8.704 Z M253.704 356.619 L347.042 355.704 C434.653 355.715 472.296 389.869 472.296 466 C472.296 550.954 426.82 589.296 325 589.296 L324.946 589.296 L324.891 589.297 L253.704 590.187 L253.704 356.619 L253.704 356.619 Z M244.915 339.296 L236.296 339.381 L236.296 348 L236.296 599 L236.296 607.813 L245.109 607.703 L325.055 606.704 C433.199 606.688 489.704 559.031 489.704 466 C489.704 382.144 441.359 338.296 347 338.296 L346.957 338.296 L346.915 338.296 L244.915 339.296 L244.915 339.296 Z " />
<glyph glyph-name="Q" unicode="Q" horiz-adv-x="809" d="M802.14 -118.492 C788.566 -121.412 770.549 -122.704 749 -122.704 C669.04 -122.704 588.061 -84.2908 504.08 -6.38097 L491.601 5.19651 L508.293 8.53497 C659.852 38.8468 731.296 141.726 731.296 328 C731.296 555.441 627.348 661.296 405 661.296 C182.652 661.296 78.704 555.441 78.704 327 C78.704 113.34 173.027 8.53635 375.38 -0.304295 L378.537 -0.442229 L380.87 -2.57356 C483.882 -96.6706 579.923 -141.296 680 -141.296 C730.417 -141.296 770.076 -134 802.14 -118.492 L802.14 -118.492 Z M825.704 -121 L825.704 -164.52 L808.296 -164.52 L808.296 -134.815 C774.046 -150.911 731.199 -158.704 680 -158.704 C576.846 -158.704 475.629 -112.028 371.462 -17.549 C163.932 -7.37353 61.296 107.769 61.296 327 C61.296 562.559 175.348 678.704 405 678.704 C634.652 678.704 748.704 562.559 748.704 328 C748.704 143.091 675.634 31.2966 528.303 -4.846 C605.525 -73.2151 676.803 -105.296 749 -105.296 C782.435 -105.296 802.958 -102.619 812.327 -96.6568 L825.704 -88.1442 L825.704 -104 L825.704 -105.501 L825.704 -120.5 L825.704 -121 L825.704 -121 Z M427 55.704 C561.969 55.704 624.296 129.194 624.296 290 C624.296 507.055 547.697 607.296 385 607.296 C249.057 607.296 185.704 531.831 185.704 367 C185.704 153.99 262.253 55.704 427 55.704 L427 55.704 Z M427 38.296 C253.747 38.296 168.296 148.01 168.296 367 C168.296 538.169 240.943 624.704 385 624.704 C556.303 624.704 641.704 512.945 641.704 290 C641.704 122.806 570.031 38.296 427 38.296 L427 38.296 Z " />
<glyph glyph-name="R" unicode="R" horiz-adv-x="691" d="M554.325 128.704 L554.797 128.704 L557.41 125.293 C592.584 79.3709 623.489 55.3101 655.37 48.605 L663.961 47.6508 L671.704 46.7905 L671.704 39 L671.704 18 L671.704 0 L671.704 -8.704 L663 -8.704 L642 -8.704 L579 -8.704 L516 -8.704 L511.691 -8.704 L509.079 -5.27779 L283.691 290.296 L254.704 290.296 L254.704 125 C254.704 81.2209 271.64 60.1088 311.199 52.631 L321.788 51.6683 L329.704 50.9486 L329.704 43 L329.704 17 L329.704 0 L329.704 -8.704 L321 -8.704 L246 -8.704 L196 -8.704 L145 -8.704 L65 -8.704 L56.296 -8.704 L56.296 0 L56.296 17 L56.296 43 L56.296 51.0088 L64.2772 51.6739 L75.886 52.641 C118.501 60.158 136.296 81.3169 136.296 125 L136.296 535 C136.296 578.683 118.501 599.842 75.886 607.359 L64.2772 608.326 L56.296 608.991 L56.296 617 L56.296 643 L56.296 660 L56.296 668.704 L65 668.704 L145 668.704 L196 668.704 L246 668.704 L340 668.704 C491.028 668.704 568.704 607.211 568.704 484 C568.704 389.674 500.232 330.092 420.592 305.157 L554.325 128.704 L554.325 128.704 Z M546.228 111.296 L545.675 111.296 L543.063 114.743 L399.063 304.743 L391.223 315.088 L403.77 318.413 C484.988 339.941 551.296 393.174 551.296 484 C551.296 598.789 484.972 651.296 340 651.296 L246 651.296 L196 651.296 L145 651.296 L73.704 651.296 L73.704 643 L73.704 625.009 L77.7228 624.674 L78.1093 624.642 L78.4914 624.575 C127.604 616.034 153.704 585.188 153.704 535 L153.704 125 C153.704 74.8117 127.604 43.966 78.4914 35.4247 L78.1093 35.3583 L77.7228 35.3261 L73.704 34.991 L73.704 17 L73.704 8.704 L145 8.704 L196 8.704 L246 8.704 L312.296 8.704 L312.296 17 L312.296 35.051 L309.212 35.3317 L308.807 35.3685 L308.408 35.4428 C262.248 44.0307 237.296 74.9239 237.296 125 L237.296 299 L237.296 307.704 L246 307.704 L288 307.704 L292.309 307.704 L294.921 304.278 L520.309 8.704 L579 8.704 L642 8.704 L654.296 8.704 L654.296 18 L654.296 31.21 L653.039 31.3492 L652.639 31.3937 L652.245 31.4748 C617.125 38.7053 582 65.486 546.228 111.296 L546.228 111.296 Z M254.704 369.704 L288 369.704 C363.207 369.704 442.296 403.731 442.296 475 C442.296 554.15 403.635 589.296 314 589.296 L313.936 589.296 L313.872 589.297 L254.704 590.167 L254.704 369.704 L254.704 369.704 Z M246 352.296 L237.296 352.296 L237.296 361 L237.296 599 L237.296 607.833 L246.128 607.703 L314.064 606.704 C410.387 606.684 459.704 561.831 459.704 475 C459.704 392.269 366.793 352.296 288 352.296 L246 352.296 L246 352.296 Z " />
<glyph glyph-name="S" unicode="S" horiz-adv-x="532" d="M320.875 597.876 L320.78 597.913 L320.686 597.952 C304.558 604.592 289.238 607.296 272 607.296 C215.782 607.296 192.704 582.569 192.704 524 C192.704 461.766 221.861 434.376 314.48 393.978 L314.531 393.956 L314.582 393.933 C439.983 337.3 486.704 291.665 486.704 188 C486.704 50.316 415.527 -18.704 276 -18.704 C188.723 -18.704 121.04 0.359578 70.407 37.929 L61.4144 26.861 L60.498 45.655 L56.7143 48.682 L60.144 52.903 L52.3063 213.576 L51.88 222.316 L60.6219 222.696 L83.6219 223.696 L106.622 224.696 L113.721 225.004 L115.444 218.111 C118.526 205.783 120.583 193.449 122.581 181.457 L122.586 181.431 C131.26 130.384 154.935 96.699 198.096 73.68 C227.318 58.0949 252.262 50.704 276 50.704 C342.041 50.704 371.296 84.2614 371.296 162 C371.296 221.919 338.344 249.547 233.504 297.029 L233.41 297.071 C117.929 347.734 75.296 391.485 75.296 487 C75.296 614.814 144.6 678.704 281 678.704 C352.235 678.704 405.177 663.872 440.805 632.997 L449.22 644.339 L450.485 623.825 L453.465 620.845 L450.883 617.365 L459.688 474.536 L460.19 466.377 L452.08 465.363 C443.542 464.296 435.619 464.296 429.231 463.383 L429.155 463.373 L429.08 463.363 C420.542 462.296 412 462.296 404 462.296 L396.713 462.296 L395.432 469.47 L390.455 497.337 C378.806 552.558 357.322 583.858 320.875 597.876 L320.875 597.876 Z M387.711 558.024 C396.316 541.832 402.903 522.71 407.517 500.793 L407.545 500.662 L407.568 500.53 L411.282 479.732 C416.588 479.793 421.718 479.991 426.849 480.628 C431.736 481.321 436.811 481.569 441.792 481.906 L434.78 595.661 L425.99 583.814 L400.059 548.863 L387.711 558.024 L387.711 558.024 Z M327.22 614.087 C352.56 604.314 372.302 586.083 386.644 559.998 L412.01 594.186 L430.408 618.983 C398.01 647.9 350.687 661.296 281 661.296 C151.4 661.296 92.704 607.186 92.704 487 C92.704 398.541 128.049 362.29 240.496 312.971 L240.543 312.95 L240.59 312.929 C347.676 264.437 388.704 230.063 388.704 162 C388.704 77.7386 349.959 33.296 276 33.296 C249.738 33.296 220.682 41.9051 189.904 58.32 C143.072 83.297 114.748 123.604 105.419 178.543 L105.417 178.556 L105.414 178.569 C103.809 188.204 102.239 197.618 100.174 206.991 L84.3781 206.304 L70.12 205.684 L76.585 73.139 L88.2447 87.4887 L115.688 121.265 L129.199 110.288 L101.755 76.5113 L81.391 51.447 C129.187 16.1008 191.434 -1.296 276 -1.296 C408.473 -1.296 469.296 57.684 469.296 188 C469.296 284.308 430.039 322.679 307.52 378.022 L307.468 378.045 L307.418 378.067 C212.113 419.65 175.296 454.259 175.296 524 C175.296 589.431 208.218 624.704 272 624.704 C290.729 624.704 309.376 621.419 327.22 614.087 L327.22 614.087 Z " />
<glyph glyph-name="T" unicode="T" horiz-adv-x="677" d="M339 -8.704 L288 -8.704 L188 -8.704 L179.296 -8.704 L179.296 0 L179.296 17 L179.296 43 L179.296 50.9023 L187.162 51.6635 L218.028 54.651 C261.577 60.2475 279.296 81.2318 279.296 125 L279.296 590.296 L195 590.296 C151.205 590.296 128.973 571.358 120.549 527.363 L120.542 527.328 L120.535 527.293 L105.535 452.293 L104.136 445.296 L97 445.296 L62 445.296 L45 445.296 L36.296 445.296 L36.296 454 L36.296 599 L36.296 629 L36.296 660 L36.296 668.704 L45 668.704 L64 668.704 L84 668.704 L95 668.704 L165 668.704 L288 668.704 L389 668.704 L513 668.704 L582 668.704 L594 668.704 L613 668.704 L632 668.704 L640.704 668.704 L640.704 660 L640.704 629 L640.704 599 L640.704 454 L640.704 445.296 L632 445.296 L615 445.296 L580 445.296 L572.77 445.296 L571.444 452.403 L557.464 527.294 C548.067 571.324 525.761 590.296 483 590.296 L397.704 590.296 L397.704 125 C397.704 81.2228 415.422 60.2485 459.974 54.65 L489.866 51.6608 L497.704 50.877 L497.704 43 L497.704 17 L497.704 0 L497.704 -8.704 L489 -8.704 L389 -8.704 L339 -8.704 L339 -8.704 Z M339 8.704 L389 8.704 L480.296 8.704 L480.296 17 L480.296 35.123 L458.134 37.3392 L458.027 37.3499 L457.92 37.3632 C406.55 43.7846 380.296 74.8117 380.296 125 L380.296 599 L380.296 607.704 L389 607.704 L483 607.704 C532.205 607.704 563.897 580.706 574.513 530.811 L574.536 530.705 L574.556 530.597 L587.23 462.704 L615 462.704 L623.296 462.704 L623.296 599 L623.296 629 L623.296 651.296 L613 651.296 L594 651.296 L582 651.296 L513 651.296 L389 651.296 L288 651.296 L165 651.296 L95 651.296 L84 651.296 L64 651.296 L53.704 651.296 L53.704 629 L53.704 599 L53.704 462.704 L62 462.704 L89.864 462.704 L103.451 530.637 L103.465 530.707 C113.057 580.667 144.819 607.704 195 607.704 L288 607.704 L296.704 607.704 L296.704 599 L296.704 125 C296.704 74.8117 270.459 43.7946 220.102 37.3661 L219.971 37.3493 L219.838 37.3365 L196.704 35.098 L196.704 17 L196.704 8.704 L288 8.704 L339 8.704 L339 8.704 Z " />
<glyph glyph-name="U" unicode="U" horiz-adv-x="809" d="M577.296 534.973 L577.296 534.987 L577.296 535 C577.296 578.654 558.683 599.745 516.016 605.351 L485.162 608.336 L477.296 609.098 L477.296 617 L477.296 643 L477.296 660 L477.296 668.704 L486 668.704 L586 668.704 L625 668.704 L664 668.704 L744 668.704 L752.704 668.704 L752.704 660 L752.704 643.255 C753.199 634.788 753.454 628.122 753.454 623.625 C753.454 621.273 753.373 619.129 753.212 617.697 C753.114 616.829 752.866 615.504 752.58 614.65 C752.046 613.06 748.776 608.805 744.722 608.338 L744.723 608.326 L733.131 607.36 C691.532 599.852 673.658 578.624 672.704 534.906 L672.704 234 C672.704 65.2068 582.42 -18.704 403 -18.704 C223.58 -18.704 133.296 65.2068 133.296 234 L133.296 535 C133.296 578.683 115.501 599.842 72.886 607.359 L61.2772 608.326 L53.296 608.991 L53.296 617 L53.296 643 L53.296 660 L53.296 668.704 L62 668.704 L142 668.704 L192 668.704 L242 668.704 L322 668.704 L330.704 668.704 L330.704 660 L330.704 643.255 C331.199 634.788 331.454 628.122 331.454 623.625 C331.454 621.273 331.373 619.129 331.212 617.697 C331.114 616.829 330.866 615.504 330.58 614.65 C330.046 613.06 326.776 608.805 322.722 608.338 L322.723 608.326 L311.131 607.36 C269.532 599.852 251.658 578.624 250.704 534.906 L250.704 252 C250.704 122.525 307.687 63.704 433 63.704 C533.386 63.704 578.288 108.597 578.296 209.973 L578.296 210 L577.296 534.973 L577.296 534.973 Z M321.278 625.66 L322 617 L322 625.704 C321.757 625.704 321.516 625.689 321.278 625.66 L321.278 625.66 Z M743.278 625.66 L744 617 L744 625.704 C743.757 625.704 743.516 625.689 743.278 625.66 L743.278 625.66 Z M594.704 535 L595.704 210.027 L595.704 210.013 L595.704 210 C595.704 101.395 540.605 46.296 433 46.296 C300.313 46.296 233.296 115.475 233.296 252 L233.296 535 L233.296 535.093 L233.298 535.185 C234.364 585.268 260.384 616.02 308.477 624.57 L308.874 624.64 L309.277 624.674 L314.037 625.071 C313.99 629.217 313.752 634.992 313.311 642.489 L313.296 642.744 L313.296 643 L313.296 651.296 L242 651.296 L192 651.296 L142 651.296 L70.704 651.296 L70.704 643 L70.704 625.009 L74.7228 624.674 L75.1093 624.642 L75.4914 624.575 C124.604 616.034 150.704 585.188 150.704 535 L150.704 234 C150.704 72.7932 230.42 -1.296 403 -1.296 C575.58 -1.296 655.296 72.7932 655.296 234 L655.296 535 L655.296 535.093 L655.298 535.185 C656.364 585.268 682.384 616.02 730.477 624.57 L730.874 624.64 L731.277 624.674 L736.037 625.071 C735.99 629.217 735.752 634.992 735.311 642.489 L735.296 642.744 L735.296 643 L735.296 651.296 L664 651.296 L625 651.296 L586 651.296 L494.704 651.296 L494.704 643 L494.704 624.902 L517.838 622.664 L517.982 622.65 L518.126 622.631 C567.35 616.21 594.694 585.309 594.704 535.027 L594.704 535 L594.704 535 Z " />
<glyph glyph-name="V" unicode="V" horiz-adv-x="736" d="M527.168 526.296 L526.593 526.296 L531.43 538.262 C548.868 581.398 539.308 600.072 499.851 607.362 L488.277 608.326 L480.296 608.991 L480.296 617 L480.296 643 L480.296 660 L480.296 668.704 L489 668.704 L589 668.704 L626 668.704 L664 668.704 L696 668.704 L704.704 668.704 L704.704 660 L704.704 647 L704.704 629 L704.704 621.451 L697.231 620.383 L690.54 619.428 C665.381 613.906 645.408 592.1 627.07 546.738 L627.06 546.715 L627.051 546.693 L399.051 -8.30748 L396.834 -13.704 L391 -13.704 L342 -13.704 L335.903 -13.704 L333.82 -7.97453 L325.862 13.911 L118.93 536.738 L118.907 536.797 C100.617 582.013 78.7644 604.835 47.629 611.395 L39.0388 612.349 L31.296 613.21 L31.296 621 L31.296 644 L31.296 660 L31.296 668.704 L40 668.704 L80 668.704 L132 668.704 L183 668.704 L293 668.704 L301.704 668.704 L301.704 660 L301.704 643.255 C302.199 634.788 302.454 628.122 302.454 623.625 C302.454 621.273 302.373 619.129 302.212 617.697 C302.114 616.829 301.866 615.504 301.58 614.65 C301.054 613.084 297.876 608.936 293.909 608.362 L293.911 608.344 L275.1 606.364 C232.568 599.981 222.627 581.411 240.07 538.262 L240.093 538.205 L240.115 538.147 L384.105 166.804 L527.168 526.296 L527.168 526.296 Z M292.091 625.634 L293 617 L293 625.704 C292.693 625.704 292.389 625.679 292.091 625.634 L292.091 625.634 Z M551.807 543.704 L552.832 543.704 L548.087 531.782 L392.087 139.782 L383.895 119.196 L375.885 139.853 L223.907 531.796 C203.412 582.553 221.424 615.97 272.718 623.609 L272.903 623.637 L273.089 623.656 L285.039 624.914 C284.997 629.071 284.758 634.897 284.311 642.489 L284.296 642.744 L284.296 643 L284.296 651.296 L183 651.296 L132 651.296 L80 651.296 L48.704 651.296 L48.704 644 L48.704 628.79 L49.9612 628.651 L50.3611 628.606 L50.7552 628.525 C87.4015 620.98 115.439 591.821 135.07 543.262 L135.081 543.233 L135.093 543.203 L342.093 20.2032 L342.138 20.0895 L342.18 19.9745 L348.097 3.704 L385.166 3.704 L610.93 553.262 L610.949 553.307 C630.54 601.746 656.479 629.933 687.176 636.511 L687.296 636.536 L687.296 647 L687.296 651.296 L664 651.296 L626 651.296 L589 651.296 L497.704 651.296 L497.704 643 L497.704 625.009 L501.723 624.674 L502.143 624.639 L502.557 624.564 C546.857 616.509 565.067 587.689 551.807 543.704 L551.807 543.704 Z " />
<glyph glyph-name="W" unicode="W" horiz-adv-x="980" d="M96.964 531.296 L96.3767 531.296 L94.611 537.68 C82.2037 582.537 62.5622 604.88 32.602 611.398 L24.0388 612.349 L16.296 613.21 L16.296 621 L16.296 644 L16.296 660 L16.296 668.704 L25 668.704 L69 668.704 L121 668.704 L172 668.704 L282 668.704 L290.704 668.704 L290.704 660 L290.704 643.255 C291.199 634.788 291.454 628.122 291.454 623.625 C291.454 621.273 291.373 619.129 291.212 617.697 C291.114 616.829 290.866 615.504 290.58 614.65 C290.06 613.101 286.942 609.022 283.034 608.381 L283.037 608.358 L258.102 605.366 L258.037 605.358 C215.074 599.855 202.444 580.507 214.389 537.32 L214.393 537.306 L214.397 537.292 L305.189 204.697 L464.811 642.948 L464.822 642.979 L473.811 667.948 L475.883 673.704 L482 673.704 L524 673.704 L530.234 673.704 L532.241 667.802 L549.235 617.82 L549.241 617.802 L690.433 205.52 L791.589 544.252 C800.564 582.236 787.946 599.973 747.7 606.393 L733.769 608.383 L726.296 609.451 L726.296 617 L726.296 643 L726.296 660 L726.296 668.704 L735 668.704 L835 668.704 L873 668.704 L911 668.704 L956 668.704 L964.704 668.704 L964.704 660 L964.704 647 L964.704 629 L964.704 621.316 L957.08 620.363 L949.349 619.397 C920.187 613.841 901.53 595.149 887.24 556.19 L715.318 12.437 L709.337 -7.50108 L707.476 -13.704 L701 -13.704 L661 -13.704 L654.833 -13.704 L652.788 -7.88525 L639.788 29.1147 L639.783 29.1294 L639.778 29.1441 L490.57 458.711 L318.12 11.8662 L318.101 11.8167 L318.081 11.7674 L310.081 -8.23258 L307.893 -13.704 L302 -13.704 L262 -13.704 L255.507 -13.704 L253.657 -7.48038 L242.657 29.5196 L242.649 29.5463 L242.641 29.573 L96.964 531.296 L96.964 531.296 Z M280.966 625.614 L282 617 L282 625.704 C281.65 625.704 281.304 625.672 280.966 625.614 L280.966 625.614 Z M109.518 548.704 L110.036 548.704 L111.859 542.427 L259.343 34.4804 L259.359 34.427 L268.493 3.704 L296.107 3.704 L301.88 18.1338 L301.899 18.183 L301.919 18.2326 L482.88 487.134 L491.43 509.289 L499.222 486.856 L656.212 34.8853 L656.222 34.8559 L667.167 3.704 L694.524 3.704 L698.663 17.5011 L698.682 17.5627 L698.701 17.624 L870.701 561.624 L870.759 561.809 L870.826 561.991 C886.486 604.796 911.749 630.059 946.396 636.555 L946.657 636.604 L946.92 636.637 L947.296 636.684 L947.296 647 L947.296 651.296 L911 651.296 L873 651.296 L835 651.296 L743.704 651.296 L743.704 643 L743.704 624.549 L750.231 623.617 L750.299 623.607 L750.368 623.596 C797.985 616.02 819.38 585.816 808.467 539.984 L808.41 539.745 L808.34 539.509 L699.34 174.509 L691.567 148.48 L682.765 174.18 L532.765 612.18 L532.762 612.189 L532.759 612.198 L517.766 656.296 L488.117 656.296 L481.189 637.052 L481.184 637.036 L481.178 637.021 L312.178 173.021 L302.811 147.303 L295.603 173.708 L197.611 532.68 L197.603 532.708 C183.57 583.483 204.923 616.126 255.898 622.634 L255.93 622.638 L255.963 622.642 L274.04 624.811 C274.001 628.975 273.761 634.835 273.311 642.489 L273.296 642.744 L273.296 643 L273.296 651.296 L172 651.296 L121 651.296 L69 651.296 L33.704 651.296 L33.704 644 L33.704 628.79 L34.9612 628.651 L35.387 628.603 L35.8061 628.515 C70.0314 621.255 95.5121 593.842 109.518 548.704 L109.518 548.704 Z " />
<glyph glyph-name="X" unicode="X" horiz-adv-x="743" d="M600.981 120.198 L604.646 115.277 L603.611 113.726 C635.353 70.648 660.931 46.9839 685.54 41.572 L692.231 40.6165 L699.704 39.5489 L699.704 32 L699.704 13 L699.704 -3 L699.704 -11.704 L691 -11.704 L677 -11.704 L613 -11.704 L549 -11.704 L439 -11.704 L430.296 -11.704 L430.296 -3 L430.296 14 L430.296 40 L430.296 47.877 L438.134 48.6608 L447.724 49.62 C481.839 56.3974 482.956 72.6517 450.949 116.897 L347.853 259.357 L235.059 109.904 C208.695 71.6651 213.617 56.8153 252.143 50.632 L270.911 48.6562 L278.704 47.8359 L278.704 40 L278.704 14 L278.704 -3 L278.704 -11.704 L270 -11.704 L140 -11.704 L101 -11.704 L62 -11.704 L47 -11.704 L38.296 -11.704 L38.296 -3 L38.296 15 L38.296 36 L38.296 43.6837 L45.9204 44.6368 L53.421 45.574 C80.3625 52.2611 108.986 75.4156 144.172 118.4 L302.149 325.135 L151.454 532.889 L151.415 532.944 L151.377 532.998 C119.187 578.844 91.2116 602.792 65.311 609.449 L58.7691 610.383 L51.296 611.451 L51.296 619 L51.296 640 L51.296 658 L51.296 666.704 L60 666.704 L72 666.704 L130 666.704 L189 666.704 L309 666.704 L317.704 666.704 L317.704 658 L317.704 641 L317.704 615 L317.704 606.991 L309.723 606.326 L298.101 605.358 C262.503 599.197 257.75 586.015 280.169 550.945 L385.161 409.393 L492.976 548.146 C519.451 586.555 515.927 600.406 480.763 607.373 L470.212 608.332 L462.296 609.051 L462.296 617 L462.296 643 L462.296 660 L462.296 668.704 L471 668.704 L591 668.704 L627 668.704 L663 668.704 L676 668.704 L684.704 668.704 L684.704 660 L684.704 644 L684.704 625 L684.704 617.451 L677.231 616.383 L670.574 615.432 C645.723 609.762 617.178 585.752 581.91 539.707 L581.905 539.701 L581.9 539.695 L432.914 345.916 L600.981 120.198 L600.981 120.198 Z M583.354 114.723 L415.019 340.802 L411.086 346.084 L415.1 351.305 L568.09 550.293 L568.1 550.305 C604.678 598.058 638.039 626.036 667.112 632.497 L667.296 632.538 L667.296 644 L667.296 651.296 L663 651.296 L627 651.296 L591 651.296 L479.704 651.296 L479.704 643 L479.704 624.949 L482.788 624.668 L483.231 624.628 L483.667 624.543 C530.04 615.494 538.429 583.337 507.162 538.054 L507.023 537.853 L506.873 537.659 L391.873 389.659 L384.839 380.607 L378.009 389.815 L266.009 540.815 L265.832 541.053 L265.672 541.303 C238.349 583.928 249.549 614.729 295.535 622.58 L295.904 622.643 L296.277 622.674 L300.296 623.009 L300.296 641 L300.296 649.296 L189 649.296 L130 649.296 L72 649.296 L68.704 649.296 L68.704 640 L68.704 626.546 L69.111 626.444 C99.0809 618.952 131.963 590.928 165.585 543.057 L320.046 330.111 L323.851 324.865 L319.916 319.715 L157.916 107.715 L157.828 107.6 L157.737 107.488 C121.166 62.7906 87.9424 35.9976 57.0423 28.539 L56.5659 28.424 L56.0796 28.3632 L55.704 28.316 L55.704 15 L55.704 5.704 L62 5.704 L101 5.704 L140 5.704 L261.296 5.704 L261.296 14 L261.296 32.164 L250.089 33.3438 L249.86 33.3679 L249.632 33.4041 C200.414 41.2344 189.369 74.3698 220.838 119.946 L220.942 120.097 L221.053 120.243 L341.053 279.243 L348.147 288.643 L355.051 279.103 L465.052 127.102 C500.923 77.5152 498.17 41.726 450.667 32.4571 L450.269 32.3795 L449.866 32.3392 L447.704 32.123 L447.704 14 L447.704 5.704 L549 5.704 L613 5.704 L677 5.704 L682.296 5.704 L682.296 13 L682.296 24.464 L682.176 24.4892 C651.785 31.0016 620.423 60.7418 585.948 108.398 L582.404 113.297 L583.354 114.723 L583.354 114.723 Z " />
<glyph glyph-name="Y" unicode="Y" horiz-adv-x="719" d="M486.812 539.909 L498.167 556.536 C514.913 586.648 507.896 598.448 475.852 604.362 L464.277 605.326 L456.296 605.991 L456.296 614 L456.296 640 L456.296 657 L456.296 665.704 L465 665.704 L580 665.704 L617 665.704 L655 665.704 L673 665.704 L681.704 665.704 L681.704 657 L681.704 643 L681.704 626 L681.704 618.451 L674.231 617.383 L667.515 616.424 C645.766 611.78 623.315 592.881 595.08 554.935 L422.704 304.296 L422.704 123 C422.704 79.3654 441.36 58.2082 485.077 51.64 L504.866 49.6608 L512.704 48.877 L512.704 41 L512.704 15 L512.704 -2 L512.704 -10.704 L504 -10.704 L414 -10.704 L364 -10.704 L314 -10.704 L224 -10.704 L215.296 -10.704 L215.296 -2 L215.296 15 L215.296 41 L215.296 48.877 L223.134 49.6608 L242.923 51.64 C286.64 58.2082 305.296 79.3654 305.296 123 L305.296 302.188 L135.998 536.829 C102.811 580.738 76.1712 603.8 52.229 610.461 L45.7691 611.383 L38.296 612.451 L38.296 620 L38.296 641 L38.296 659 L38.296 667.704 L47 667.704 L59 667.704 L112 667.704 L166 667.704 L276 667.704 L284.704 667.704 L284.704 659 L284.704 642 L284.704 616 L284.704 608.051 L276.788 607.332 L266.259 606.375 C236.973 600.403 233.557 588.229 254.187 554.925 L381.649 385.92 L486.812 539.909 L486.812 539.909 Z M485.296 506.821 L389.188 366.091 L382.351 356.08 L375.051 365.759 L240.051 544.759 L239.815 545.072 L239.608 545.405 C214.571 585.682 223.089 615.494 263.293 623.535 L263.749 623.626 L264.212 623.668 L267.296 623.949 L267.296 642 L267.296 650.296 L166 650.296 L112 650.296 L59 650.296 L55.704 650.296 L55.704 641 L55.704 627.549 L55.7533 627.542 L56.2628 627.405 C84.1797 619.889 115.386 592.987 149.945 547.247 L150.002 547.171 L150.059 547.093 L321.059 310.093 L322.704 307.812 L322.704 305 L322.704 123 C322.704 72.7027 295.418 41.8581 245.282 34.391 L245.075 34.3601 L244.866 34.3392 L232.704 33.123 L232.704 15 L232.704 6.704 L314 6.704 L364 6.704 L414 6.704 L495.296 6.704 L495.296 15 L495.296 33.123 L483.134 34.3392 L482.925 34.3601 L482.718 34.391 C432.582 41.8581 405.296 72.7027 405.296 123 L405.296 307 L405.296 309.704 L406.828 311.932 L580.828 564.932 L580.919 565.065 L581.015 565.194 C610.623 605.01 638.08 628.074 664.225 633.521 L664.296 633.536 L664.296 643 L664.296 648.296 L655 648.296 L617 648.296 L580 648.296 L473.704 648.296 L473.704 640 L473.704 622.009 L477.723 621.674 L478.143 621.639 L478.557 621.564 C528.351 612.51 535.263 578.639 501.195 528.601 L485.296 505.25 L485.296 506.821 L485.296 506.821 Z " />
<glyph glyph-name="Z" unicode="Z" horiz-adv-x="646" d="M91.296 629 L91.296 660 L91.296 668.704 L100 668.704 L120 668.704 L139 668.704 L150 668.704 L220 668.704 L526 668.704 L541 668.704 L549.704 668.704 L549.704 660 L549.704 624 L549.704 621.589 L548.464 619.522 L533.505 594.592 L533.464 594.522 L225.207 69.704 L405.906 69.704 C449.94 70.6653 473.069 88.8637 481.451 132.637 L481.47 132.735 L481.491 132.833 L495.491 197.833 L495.543 197.821 C496.61 201.729 500.832 204.349 502.253 204.732 C503.086 204.956 504.362 205.147 505.323 205.232 C506.986 205.38 509.497 205.454 512.5 205.454 C518.345 205.454 527.216 205.201 539.181 204.704 L556 204.704 L564.704 204.704 L564.704 196 L564.704 61 L564.704 31 L564.704 0 L564.704 -8.704 L556 -8.704 L537 -8.704 L517 -8.704 L506 -8.704 L436 -8.704 L108 -8.704 L88 -8.704 L79.296 -8.704 L79.296 0 L79.296 28 L79.296 30.4317 L80.5564 32.5113 L100.525 65.46 L408.793 590.296 L250 590.296 C206.226 590.296 183.844 571.248 173.49 527.08 L161.504 472.145 L160.01 465.296 L153 465.296 L118 465.296 L100 465.296 L91.0863 465.296 L91.2985 474.207 C92.296 516.104 92.296 556.896 91.2985 598.793 L91.296 598.896 L91.296 599 L91.296 629 L91.296 629 Z M108.704 629 L108.704 599.104 C109.633 560.011 109.698 521.689 108.899 482.704 L118 482.704 L145.99 482.704 L156.496 530.855 L156.51 530.92 L156.525 530.984 C168.177 580.77 199.795 607.704 250 607.704 L424 607.704 L439.207 607.704 L431.505 594.592 L115.505 56.5918 L115.475 56.54 L115.444 56.4887 L96.704 25.568 L96.704 8.704 L108 8.704 L436 8.704 L506 8.704 L517 8.704 L537 8.704 L547.296 8.704 L547.296 31 L547.296 61 L547.296 187.296 L539 187.296 L538.819 187.296 L538.638 187.304 C526.695 187.801 518.126 188.046 512.5 188.046 C512.035 188.046 511.599 188.045 511.19 188.042 L498.53 129.263 C488.894 79.132 456.059 53.3591 406.185 52.298 L406.093 52.296 L406 52.296 L210 52.296 L194.793 52.296 L202.495 65.4082 L518.495 603.408 L518.515 603.443 L518.536 603.478 L532.296 626.411 L532.296 651.296 L526 651.296 L220 651.296 L150 651.296 L139 651.296 L120 651.296 L108.704 651.296 L108.704 629 L108.704 629 Z " />
<glyph glyph-name="bracketleft" unicode="&#x5b;" horiz-adv-x="256" d="M144.704 705.296 L144.704 -115.296 L252 -115.296 L260.704 -115.296 L260.704 -124 L260.704 -150 L260.704 -158.704 L252 -158.704 L136 -158.704 L67 -158.704 L58.296 -158.704 L58.296 -150 L58.296 740 L58.296 748.704 L67 748.704 L136 748.704 L252 748.704 L260.704 748.704 L260.704 740 L260.704 714 L260.704 705.296 L252 705.296 L144.704 705.296 L144.704 705.296 Z M127.296 714 L127.296 722.704 L136 722.704 L243.296 722.704 L243.296 731.296 L136 731.296 L75.704 731.296 L75.704 -141.296 L136 -141.296 L243.296 -141.296 L243.296 -132.704 L136 -132.704 L127.296 -132.704 L127.296 -124 L127.296 714 L127.296 714 Z " />
<glyph glyph-name="backslash" unicode="&#x5c;" horiz-adv-x="261" d="M206 -128.704 L199.116 -128.704 L197.53 -122.005 L-8.46981 747.995 L-11.0056 758.704 L0 758.704 L56 758.704 L62.8837 758.704 L64.4698 752.005 L270.47 -117.995 L273.006 -128.704 L262 -128.704 L206 -128.704 L206 -128.704 Z M212.884 -111.296 L250.994 -111.296 L49.116 741.296 L11.006 741.296 L212.884 -111.296 L212.884 -111.296 Z " />
<glyph glyph-name="bracketright" unicode="&#x5d;" horiz-adv-x="251" d="M109.296 705.296 L5 705.296 L-3.704 705.296 L-3.704 714 L-3.704 740 L-3.704 748.704 L5 748.704 L118 748.704 L187 748.704 L195.704 748.704 L195.704 740 L195.704 -150 L195.704 -158.704 L187 -158.704 L118 -158.704 L5 -158.704 L-3.704 -158.704 L-3.704 -150 L-3.704 -124 L-3.704 -115.296 L5 -115.296 L109.296 -115.296 L109.296 705.296 L109.296 705.296 Z M118 722.704 L126.704 722.704 L126.704 714 L126.704 -124 L126.704 -132.704 L118 -132.704 L13.704 -132.704 L13.704 -141.296 L118 -141.296 L178.296 -141.296 L178.296 731.296 L118 731.296 L13.704 731.296 L13.704 722.704 L118 722.704 L118 722.704 Z " />
<glyph glyph-name="underscore" unicode="&#x5f;" horiz-adv-x="500" d="M16.296 -89 L16.296 -80.296 L25 -80.296 L475 -80.296 L483.704 -80.296 L483.704 -89 L483.704 -145 L483.704 -153.704 L475 -153.704 L25 -153.704 L16.296 -153.704 L16.296 -145 L16.296 -89 L16.296 -89 Z M33.704 -97.704 L33.704 -136.296 L466.296 -136.296 L466.296 -97.704 L33.704 -97.704 L33.704 -97.704 Z " />
<glyph glyph-name="a" unicode="a" horiz-adv-x="491" d="M286.296 264.96 L286.296 327 C286.296 378.812 268.963 399.296 209 399.296 C173.135 399.296 155.837 378.066 157.696 334.37 L157.704 334.185 L157.704 334 L157.704 297 L157.704 293.395 L155.155 290.845 L150.155 285.845 L147.605 283.296 L144 283.296 L80.269 283.296 C60.5659 282.157 49.4087 298.22 48.3042 323.622 L48.3025 323.661 L48.3012 323.7 C45.1451 415.225 116.087 468.704 238 468.704 C350.398 468.704 393.704 428.817 393.704 351 L393.704 350.984 L393.704 350.969 L392.704 73 L392.704 72.9687 C392.748 66.5532 406.288 62.704 448 62.704 C458.868 62.704 466.732 62.9423 472.104 63.4198 C474.35 63.6195 475.257 63.6492 475.458 63.38 L482 76.4627 L489.785 60.8925 L492.785 54.8925 L494.66 51.1434 L492.897 47.3403 C472.837 4.05284 437.564 -18.704 388 -18.704 C340.86 -18.704 308.884 -1.4744 294.489 31.435 C258.46 -4.31999 212.849 -18.704 154 -18.704 C76.5437 -18.704 36.296 19.2438 36.296 90 C36.296 168.249 105.438 223.687 286.296 264.96 L286.296 264.96 Z M303.704 258 L303.704 251.022 L296.893 249.504 C114.829 208.936 53.704 160.777 53.704 90 C53.704 26.7562 83.4563 -1.296 154 -1.296 C215.499 -1.296 256.9 13.4245 291.391 53.6645 L302.277 66.3641 L306.431 50.1619 C315.593 14.431 339.597 -1.296 388 -1.296 C428.975 -1.296 454.892 13.366 472.747 46.004 C466.901 45.5322 458.578 45.296 448 45.296 C403.781 45.296 375.296 53.4346 375.296 73 L375.296 73.0157 L375.296 73.0313 L376.296 351 L376.296 351.031 C376.286 421.192 343.587 451.296 238 451.296 C121.95 451.296 62.8916 406.803 65.6958 324.378 L65.697 324.339 L65.6988 324.3 C66.5922 303.904 69.3298 300.012 79.421 300.685 L79.7102 300.704 L80 300.704 L140.296 300.704 L140.296 333.818 C138.23 384.016 164.92 416.704 209 416.704 C277.037 416.704 303.704 385.188 303.704 327 L303.704 258 L303.704 258 Z M286.296 206.976 C176.439 180.182 140.704 152.348 140.704 112 C140.704 79.2408 158.001 65.704 204 65.704 C241.481 65.704 267.019 71.7227 286.296 84.112 L286.296 206.976 L286.296 206.976 Z M293.022 226.476 L303.704 228.969 L303.704 218 L303.704 79.5 L303.704 75.0208 L300.059 72.4173 C277.744 56.4779 246.107 48.296 204 48.296 C151.999 48.296 123.296 70.7592 123.296 112 C123.296 162.372 171.257 198.065 293.022 226.476 L293.022 226.476 Z " />
<glyph glyph-name="b" unicode="b" horiz-adv-x="563" d="M100 -18.704 L91.4002 -18.704 L91.2966 -10.1049 L90.2966 72.8951 L90.296 72.9476 L90.296 73 L90.296 564 C90.296 608.891 74.1639 641.21 38.875 667.963 L29.0086 674.869 L25.296 677.468 L25.296 682 L25.296 694.5 L25.296 700.349 L30.7113 702.559 L166.711 758.059 L168.292 758.704 L170 758.704 L188 758.704 L196.704 758.704 L196.704 750 L196.704 720 L196.704 595 L196.704 425.178 C233.289 453.958 280.393 468.704 337 468.704 C459.023 468.704 520.704 396.202 520.704 253 C520.704 71.742 441.963 -18.704 284 -18.704 C214.536 -18.704 164.96 -10.5069 136.132 6.823 L113.155 -16.1547 L110.605 -18.704 L107 -18.704 L100 -18.704 L100 -18.704 Z M108.538 3.847 L128.845 24.1547 L134.117 29.4259 L140.136 25.0275 C164.529 7.20138 210.793 -1.296 284 -1.296 C434.037 -1.296 503.296 78.258 503.296 253 C503.296 389.798 450.977 451.296 337 451.296 C275.548 451.296 229.741 434.469 194.07 399.762 L179.296 385.387 L179.296 406 L179.296 595 L179.296 720 L179.296 741.296 L171.708 741.296 L42.704 688.652 L42.704 686.532 L48.9914 682.131 L49.1237 682.038 L49.2524 681.941 C87.875 652.713 107.704 613.055 107.704 564 L107.704 73.052 L108.538 3.847 L108.538 3.847 Z M196.704 92.584 C224.084 65.6937 261.133 52.704 314 52.704 C383.001 52.704 414.296 106.353 414.296 229 C414.296 330.548 371.239 376.296 274 376.296 C235.062 376.296 211.341 367.513 196.704 348.178 L196.704 92.584 L196.704 92.584 Z M181.742 82.9505 L179.296 85.4808 L179.296 89 L179.296 351 L179.296 353.73 L180.855 355.971 C198.362 381.136 230.352 393.704 274 393.704 C378.761 393.704 431.704 337.452 431.704 229 C431.704 101.647 392.999 35.296 314 35.296 C256.458 35.296 212.132 51.5129 181.742 82.9505 L181.742 82.9505 Z " />
<glyph glyph-name="c" unicode="c" horiz-adv-x="477" d="M366 310.296 L361.427 310.296 L358.832 314.062 L327.832 359.062 L327.83 359.066 L327.828 359.069 C307.026 389.326 282.815 402.296 247 402.296 C177.583 402.296 146.704 357.301 146.704 254 C146.704 135.473 197.739 81.704 309 81.704 C343.384 81.704 379.851 95.7297 423.956 127.093 L426.221 128.704 L429 128.704 L434 128.704 L442.704 128.704 L442.704 120 L442.704 110 L442.704 108.014 L441.842 106.224 C401.85 23.1641 341.732 -18.704 261 -18.704 C115.395 -18.704 41.296 55.3947 41.296 203 C41.296 380.35 121.134 468.704 282 468.704 C352.457 468.704 401.512 451.278 425.128 416.996 C435.707 402.17 440.704 389.664 440.704 381 C440.704 367.324 435.329 353.886 423.823 343.53 L423.403 343.153 L422.938 342.832 L377.938 311.832 L375.708 310.296 L373 310.296 L366 310.296 L366 310.296 Z M370.483 327.835 L412.582 356.837 C420.755 364.326 423.296 370.842 423.296 381 C423.296 386.324 420.308 393.794 410.917 406.941 L410.872 407.005 L410.828 407.069 C390.426 436.744 349.499 451.296 282 451.296 C128.866 451.296 58.704 373.65 58.704 203 C58.704 62.6053 122.605 -1.296 261 -1.296 C333.177 -1.296 383.85 31.9298 421.405 104.268 C380.49 77.4489 343.133 64.296 309 64.296 C190.261 64.296 129.296 128.527 129.296 254 C129.296 362.699 168.417 419.704 247 419.704 C287.182 419.704 318.97 402.676 342.168 368.938 L342.172 368.931 L370.483 327.835 L370.483 327.835 Z " />
<glyph glyph-name="d" unicode="d" horiz-adv-x="576" d="M420 -8.704 L419.888 -8.704 L419.777 -8.70114 L380.777 -7.70114 L373.775 -7.52161 L372.453 -0.643728 L365.708 34.427 C330.084 -0.502982 281.401 -17.704 219 -17.704 C99.9703 -17.704 39.296 53.805 39.296 194 C39.296 377.331 122.114 469.704 287 469.704 C314.752 469.704 339.131 468.189 360.296 465.182 L360.296 585 C360.296 629.814 344.425 659.816 309.462 681.572 L299.522 687.536 L295.296 690.072 L295.296 695 L295.296 705.5 L295.296 711.365 L300.732 713.567 L437.732 769.067 L439.304 769.704 L441 769.704 L459 769.704 L467.704 769.704 L467.704 761 L467.704 731 L467.704 616 L467.704 121 L467.704 114.103 C468.654 74.3542 484.583 55.1269 519.192 48.632 L529.788 47.6683 L529 39 L529 30.296 C534.782 30.296 537.072 36.4034 537.074 36.4204 C536.994 35.7778 536.954 34.8187 536.954 33 C536.954 29.1813 537.193 23.4527 537.687 15.5429 L537.704 15.2717 L537.704 15 L537.704 0 L537.704 -8.704 L529 -8.704 L459 -8.704 L420 -8.704 L420 -8.704 Z M420.112 8.704 L459 8.704 L520.296 8.704 L520.296 14.729 C519.872 21.559 519.623 27.0772 519.561 31.118 L517.212 31.3317 L516.815 31.3678 L516.423 31.44 C475.328 39.0102 451.369 67.7612 450.298 113.798 L450.296 113.899 L450.296 114 L450.296 121 L450.296 616 L450.296 731 L450.296 752.296 L442.696 752.296 L312.996 699.753 L318.478 696.464 L318.537 696.428 L318.595 696.392 C357.592 672.151 377.704 634.162 377.704 585 L377.704 455 L377.704 444.652 L367.509 446.425 C344.93 450.351 318.678 452.296 287 452.296 C129.886 452.296 56.704 370.669 56.704 194 C56.704 60.195 108.03 -0.296 219 -0.296 C285.292 -0.296 330.702 18.2388 364.313 58.5722 L376.077 72.6887 L379.547 54.6437 L388.225 9.522 L420.112 8.704 L420.112 8.704 Z M361.296 357.444 C320.906 385.271 293.414 398.296 274 398.296 C185.411 398.296 145.704 344.151 145.704 222 C145.704 120.452 188.761 74.704 283 74.704 C318.779 74.704 343.85 81.9244 361.296 96.87 L361.296 357.444 L361.296 357.444 Z M374.98 369.138 L378.704 366.54 L378.704 362 L378.704 93 L378.704 89.2561 L375.986 86.6813 C355.515 67.2877 323.32 57.296 283 57.296 C181.239 57.296 128.296 113.548 128.296 222 C128.296 349.849 176.589 415.704 274 415.704 C297.995 415.704 331.413 399.534 374.98 369.138 L374.98 369.138 Z " />
<glyph glyph-name="e" unicode="e" horiz-adv-x="483" d="M261 233.296 L147.127 233.296 C153.432 129.052 204.523 81.704 309 81.704 C343.384 81.704 379.851 95.7297 423.956 127.093 L426.221 128.704 L429 128.704 L434 128.704 L442.704 128.704 L442.704 120 L442.704 110 L442.704 108.014 L441.842 106.224 C401.85 23.1641 341.732 -18.704 261 -18.704 C115.395 -18.704 41.296 55.3947 41.296 203 C41.296 380.145 114.917 468.704 261 468.704 C382.146 468.704 442.704 394.088 442.704 247 L442.704 239.316 L435.08 238.363 L395.08 233.363 L394.542 233.296 L394 233.296 L261 233.296 L261 233.296 Z M261 250.704 L393.458 250.704 L425.244 254.677 C423.388 390.216 371.784 451.296 261 451.296 C123.083 451.296 58.704 373.855 58.704 203 C58.704 62.6053 122.605 -1.296 261 -1.296 C333.177 -1.296 383.85 31.9298 421.405 104.268 C380.49 77.4489 343.133 64.296 309 64.296 C194.441 64.296 133.423 124.224 129.301 241.695 L128.985 250.704 L138 250.704 L261 250.704 L261 250.704 Z M261 301.704 L341.096 301.704 C330.969 371.008 300.611 401.296 244 401.296 C188.388 401.296 158.963 371.08 149.775 301.704 L261 301.704 L261 301.704 Z M261 284.296 L140 284.296 L130.37 284.296 L131.34 293.877 C139.626 375.694 178.108 418.704 244 418.704 C310.817 418.704 350.327 375.807 359.648 293.985 L360.752 284.296 L351 284.296 L261 284.296 L261 284.296 Z " />
<glyph glyph-name="f" unicode="f" horiz-adv-x="373" d="M162 -8.704 L117 -8.704 L52 -8.704 L43.296 -8.704 L43.296 0 L43.296 15 L43.296 39 L43.296 46.7905 L51.0388 47.6508 L59.723 48.616 C93.9726 55.0304 108.296 75.8476 108.296 120 L108.296 389.296 L39 389.296 L30.296 389.296 L30.296 398 L30.296 450 L30.296 458.704 L39 458.704 L108.296 458.704 L108.296 490 C108.296 633.294 219.075 758.704 347 758.704 C357.166 758.704 370.007 755.202 385.681 747.887 L385.703 747.877 L385.726 747.866 C406.089 738.221 418.704 725.605 418.704 712 C418.704 706.292 417.419 698.568 414.022 690.622 L414 690.571 L390.022 633.622 L387.779 628.296 L382 628.296 L375 628.296 L373.295 628.296 L371.716 628.939 L344.716 639.939 L344.406 640.065 L344.107 640.215 C331.278 646.63 315.28 649.296 292 649.296 C238.605 649.296 215.704 626.395 215.704 598 L215.704 458.704 L338 458.704 L346.704 458.704 L346.704 450 L346.704 398 L346.704 389.296 L338 389.296 L215.704 389.296 L215.704 112.21 C217.602 73.3893 232.642 55.1105 267.192 48.632 L277.788 47.6683 L285.704 46.9486 L285.704 39 L285.704 15 L285.704 0 L285.704 -8.704 L277 -8.704 L207 -8.704 L162 -8.704 L162 -8.704 Z M162 8.704 L207 8.704 L268.296 8.704 L268.296 15 L268.296 31.051 L265.212 31.3317 L264.815 31.3678 L264.423 31.44 C223.307 39.014 200.444 66.691 198.306 111.586 L198.296 111.793 L198.296 112 L198.296 398 L198.296 406.704 L207 406.704 L329.296 406.704 L329.296 441.296 L207 441.296 L198.296 441.296 L198.296 450 L198.296 598 C198.296 633.605 231.395 666.704 292 666.704 C316.553 666.704 336.451 663.416 351.584 655.939 L376.292 645.872 L397.978 697.378 L397.989 697.403 L398 697.429 C400.587 703.465 401.296 707.72 401.296 712 C401.296 718.389 395.921 723.77 378.319 732.113 L378.274 732.134 C363.974 738.804 354.826 741.296 347 741.296 C226.925 741.296 125.704 626.706 125.704 490 L125.704 450 L125.704 441.296 L117 441.296 L47.704 441.296 L47.704 406.704 L117 406.704 L125.704 406.704 L125.704 398 L125.704 120 C125.704 70.2811 104.111 39.091 62.5768 31.44 L62.2706 31.3836 L61.9612 31.3492 L60.704 31.21 L60.704 15 L60.704 8.704 L117 8.704 L162 8.704 L162 8.704 Z " />
<glyph glyph-name="g" unicode="g" horiz-adv-x="548" d="M179.347 138.492 C161.533 134.203 154.704 125.042 154.704 107 C154.704 81.4792 169.789 70.704 212 70.704 L335 70.704 C451.787 70.704 481.704 23.5272 481.704 -64 C481.704 -188.341 398.911 -250.704 237 -250.704 C113.403 -250.704 49.296 -208.703 49.296 -126 C49.296 -82.1323 75.5289 -46.1102 127.339 -17.843 C82.4472 -5.69901 58.296 24.7836 58.296 71 C58.296 109.998 82.3067 140.678 127.196 161.551 C88.377 189.575 68.296 236.393 68.296 299 C68.296 410.297 119.079 467.704 257 467.704 C298.682 467.704 334.841 461.683 362.671 448.835 L495.421 457.685 L504.704 458.304 L504.704 449 L504.704 389 L504.704 379.531 L495.269 380.327 L428.76 385.936 C439.971 362.939 445.704 334.661 445.704 302 C445.704 187.75 394.971 129.296 256 129.296 C227.257 129.296 201.325 132.097 179.347 138.492 L179.347 138.492 Z M184.6 -24.704 C158.862 -34.8849 146.704 -60.9281 146.704 -113 C146.704 -175.091 177.309 -202.296 249 -202.296 C341.745 -202.296 382.296 -167.034 382.296 -87 C382.296 -42.1302 367.9 -24.704 290 -24.704 L184.6 -24.704 L184.6 -24.704 Z M156.572 -22.823 C93.7547 -50.8225 66.704 -82.6722 66.704 -126 C66.704 -199.297 118.597 -233.296 237 -233.296 C393.089 -233.296 464.296 -179.659 464.296 -64 C464.296 18.4728 442.213 53.296 335 53.296 L212 53.296 C164.211 53.296 137.296 72.5208 137.296 107 C137.296 129.532 149.851 147.563 171.446 154.355 L173.544 158.552 L180.639 156.294 C201.835 149.55 226.5 146.704 256 146.704 C387.029 146.704 428.296 194.25 428.296 302 C428.296 339.895 420.94 368.398 405.758 391.172 L395.746 406.19 L413.731 404.673 L487.296 398.469 L487.296 439.696 L361.579 431.315 L359.291 431.163 L357.224 432.158 C331.325 444.628 298.259 450.296 257 450.296 C126.921 450.296 85.704 403.703 85.704 299 C85.704 233.055 106.561 191.341 150.156 167.648 L166.861 158.569 L149.073 151.857 C98.0618 132.607 75.704 107.669 75.704 71 C75.704 23.6951 99.8782 0.354501 155.881 -5.34066 L180.077 -7.801 L181.455 -7.296 L183 -7.296 L290 -7.296 C376.1 -7.296 399.704 -35.8698 399.704 -87 C399.704 -174.966 348.255 -219.704 249 -219.704 C170.691 -219.704 129.296 -182.909 129.296 -113 C129.296 -71.3643 138.583 -40.9517 156.572 -22.823 L156.572 -22.823 Z M271 188.704 C321.621 188.704 337.296 220.055 337.296 297 C337.296 372.9 310.868 405.296 250 405.296 C196.068 405.296 178.704 374.702 178.704 301 C178.704 222.188 207.037 188.704 271 188.704 L271 188.704 Z M271 171.296 C198.963 171.296 161.296 215.812 161.296 301 C161.296 379.298 185.932 422.704 250 422.704 C319.132 422.704 354.704 379.1 354.704 297 C354.704 215.945 332.379 171.296 271 171.296 L271 171.296 Z " />
<glyph glyph-name="h" unicode="h" horiz-adv-x="592" d="M443 -8.704 L399 -8.704 L329 -8.704 L320.296 -8.704 L320.296 0 L320.296 15 L320.296 39 L320.296 46.9486 L328.212 47.6683 L338.847 48.635 C375.139 55.1016 390.296 75.9817 390.296 120 L390.296 292 C390.296 348.224 364.563 372.296 305 372.296 C256.744 372.296 234.644 364.25 213.704 345.218 L213.704 120 C213.704 76.0846 229.744 55.1083 266.191 48.628 L275.866 47.6608 L283.704 46.877 L283.704 39 L283.704 15 L283.704 0 L283.704 -8.704 L275 -8.704 L205 -8.704 L161 -8.704 L116 -8.704 L51 -8.704 L42.296 -8.704 L42.296 0 L42.296 15 L42.296 39 L42.296 46.877 L50.1339 47.6608 L59.747 48.622 C92.9796 55.0408 107.296 75.8803 107.296 120 L107.296 564 C107.296 608.891 91.1639 641.21 55.875 667.963 L46.0086 674.869 L42.296 677.468 L42.296 682 L42.296 694.5 L42.296 700.349 L47.7113 702.559 L183.711 758.059 L185.292 758.704 L187 758.704 L205 758.704 L213.704 758.704 L213.704 750 L213.704 720 L213.704 595 L213.704 404.131 C257.637 446.852 295.733 468.704 353 468.704 C446.238 468.704 495.704 425.984 495.704 343 L495.704 120.093 C496.665 75.7778 510.189 55.0018 544.277 48.616 L552.961 47.6508 L552.961 47.647 C558.556 46.971 560.96 40.4905 561.199 38.5796 C561.369 37.2222 561.454 35.1813 561.454 33 C561.454 28.8657 561.199 22.6879 560.704 14.729 L560.704 0 L560.704 -8.704 L552 -8.704 L487 -8.704 L443 -8.704 L443 -8.704 Z M443 8.704 L487 8.704 L543.296 8.704 L543.296 15 L543.296 15.2717 L543.313 15.5429 C543.732 22.252 543.967 27.3918 544.029 31.128 L542.039 31.3492 L541.729 31.3836 L541.423 31.44 C499.756 39.1156 479.351 70.3229 478.298 119.815 L478.296 119.907 L478.296 120 L478.296 343 C478.296 418.016 439.762 451.296 353 451.296 C294.665 451.296 260.636 428.303 211.274 376.967 L196.296 361.39 L196.296 383 L196.296 595 L196.296 720 L196.296 741.296 L188.708 741.296 L59.704 688.652 L59.704 686.532 L65.9914 682.131 L66.1237 682.038 L66.2524 681.941 C104.875 652.713 124.704 613.055 124.704 564 L124.704 120 C124.704 70.2811 103.125 39.1112 62.618 31.4477 L62.2444 31.377 L61.8661 31.3392 L59.704 31.123 L59.704 15 L59.704 8.704 L116 8.704 L161 8.704 L205 8.704 L266.296 8.704 L266.296 15 L266.296 31.123 L264.134 31.3392 L263.815 31.3711 L263.5 31.4263 C220.165 39.0098 196.296 70.0396 196.296 120 L196.296 349 L196.296 352.719 L198.984 355.29 C223.202 378.455 251.324 389.704 305 389.704 C371.437 389.704 407.704 355.776 407.704 292 L407.704 120 C407.704 70.1586 384.957 39.0312 341.5 31.4263 L341.146 31.3643 L340.788 31.3317 L337.704 31.051 L337.704 15 L337.704 8.704 L399 8.704 L443 8.704 L443 8.704 Z " />
<glyph glyph-name="i" unicode="i" horiz-adv-x="326" d="M159 601.296 C110.395 601.296 83.296 628.395 83.296 677 C83.296 725.605 110.395 752.704 159 752.704 C207.605 752.704 234.704 725.605 234.704 677 C234.704 628.395 207.605 601.296 159 601.296 L159 601.296 Z M159 618.704 C200.395 618.704 217.296 635.605 217.296 677 C217.296 718.395 200.395 735.296 159 735.296 C117.605 735.296 100.704 718.395 100.704 677 C100.704 635.605 117.605 618.704 159 618.704 L159 618.704 Z M164 -8.704 L119 -8.704 L54 -8.704 L45.296 -8.704 L45.296 0 L45.296 15 L45.296 39 L45.296 46.877 L53.1339 47.6608 L62.747 48.622 C95.9796 55.0408 110.296 75.8803 110.296 120 L110.296 274 C110.296 318.891 94.1639 351.21 58.875 377.963 L49.0086 384.869 L45.296 387.468 L45.296 392 L45.296 404.5 L45.296 410.349 L50.7113 412.559 L186.711 468.059 L188.292 468.704 L190 468.704 L208 468.704 L216.704 468.704 L216.704 460 L216.704 430 L216.704 305 L216.704 120 C216.704 76.0846 232.744 55.1083 269.191 48.628 L278.866 47.6608 L286.704 46.877 L286.704 39 L286.704 15 L286.704 0 L286.704 -8.704 L278 -8.704 L208 -8.704 L164 -8.704 L164 -8.704 Z M164 8.704 L208 8.704 L269.296 8.704 L269.296 15 L269.296 31.123 L267.134 31.3392 L266.815 31.3711 L266.5 31.4263 C223.165 39.0098 199.296 70.0396 199.296 120 L199.296 305 L199.296 430 L199.296 451.296 L191.708 451.296 L62.704 398.652 L62.704 396.532 L68.9914 392.131 L69.1237 392.038 L69.2524 391.941 C107.875 362.713 127.704 323.055 127.704 274 L127.704 120 C127.704 70.2811 106.125 39.1112 65.618 31.4477 L65.2444 31.377 L64.8661 31.3392 L62.704 31.123 L62.704 15 L62.704 8.704 L119 8.704 L164 8.704 L164 8.704 Z " />
<glyph glyph-name="j" unicode="j" horiz-adv-x="326" d="M164 601.296 C115.395 601.296 88.296 628.395 88.296 677 C88.296 725.605 115.395 752.704 164 752.704 C212.605 752.704 239.704 725.605 239.704 677 C239.704 628.395 212.605 601.296 164 601.296 L164 601.296 Z M164 618.704 C205.395 618.704 222.296 635.605 222.296 677 C222.296 718.395 205.395 735.296 164 735.296 C122.605 735.296 105.704 718.395 105.704 677 C105.704 635.605 122.605 618.704 164 618.704 L164 618.704 Z M47.296 -215 L47.296 -210.142 L51.4314 -207.591 C107.557 -172.981 110.296 -122.763 110.296 -12 L110.296 274 C110.296 318.891 94.1639 351.21 58.875 377.963 L49.0086 384.869 L45.296 387.468 L45.296 392 L45.296 404.5 L45.296 410.349 L50.7113 412.559 L186.711 468.059 L188.292 468.704 L190 468.704 L208 468.704 L216.704 468.704 L216.704 460 L216.704 430 L216.704 305 L216.704 0 C216.704 -94.6785 207.983 -150.275 60.6131 -242.381 L47.296 -250.704 L47.296 -235 L47.296 -215 L47.296 -215 Z M74.536 -212.727 C192.837 -134.185 199.296 -87.9087 199.296 0 L199.296 305 L199.296 430 L199.296 451.296 L191.708 451.296 L62.704 398.652 L62.704 396.532 L68.9914 392.131 L69.1237 392.038 L69.2524 391.941 C107.875 362.713 127.704 323.055 127.704 274 L127.704 -12 C127.704 -114.493 124.936 -173.303 74.536 -212.727 L74.536 -212.727 Z " />
<glyph glyph-name="k" unicode="k" horiz-adv-x="553" d="M194.296 262.854 L194.296 605 L194.296 730 L194.296 751.296 L186.708 751.296 L57.704 698.652 L57.704 696.532 L63.9914 692.131 L64.1237 692.038 L64.2524 691.941 C102.875 662.713 122.704 623.055 122.704 574 L122.704 120 C122.704 70.2811 101.125 39.1112 60.618 31.4477 L60.2444 31.377 L59.8661 31.3392 L57.704 31.123 L57.704 15 L57.704 8.704 L114 8.704 L159 8.704 L203 8.704 L264.296 8.704 L264.296 15 L264.296 31.123 L262.134 31.3392 L261.815 31.3711 L261.5 31.4263 C218.165 39.0098 194.296 70.0396 194.296 120 L194.296 236.514 L194.296 238 L194.296 255 L194.296 262.854 L194.296 262.854 Z M320.995 410.298 L323.519 409.351 C339.88 405.439 349.034 392.355 344.438 377.545 C340.578 365.107 327.396 348.559 306.91 329.61 L306.732 329.446 L306.545 329.291 L208.545 248.291 L206.965 246.985 L209.802 243.43 L397.189 8.704 L449 8.704 L498.164 8.704 L499.296 19.457 L499.296 31.451 L499.203 31.4643 L498.653 31.6184 C471.774 39.1445 439.759 66.8912 400.302 114.442 L400.267 114.484 L400.233 114.526 L273.233 271.526 L267.58 278.514 L274.746 283.939 L344.742 336.936 L344.746 336.939 C407.033 384.157 449.337 410.983 473.466 418.327 L474.009 418.492 L474.569 418.586 L476.472 418.903 C478.309 421.984 481.345 426.763 485.856 432.975 C487.942 436.103 489.803 438.873 491.432 441.296 L472 441.296 L436 441.296 L319.704 441.296 L319.704 432.229 C320.196 422.925 320.689 416.007 320.941 411.345 L320.995 410.298 L320.995 410.298 Z M303.427 412.704 C303.158 417.194 302.734 423.45 302.308 431.543 L302.296 431.771 L302.296 432 L302.296 450 L302.296 458.704 L311 458.704 L436 458.704 L472 458.704 L507 458.704 C509.139 458.704 511.011 457.874 512.649 456.497 C515.318 454.253 516.412 450.73 515.49 447.367 C515.242 446.463 514.67 445.219 514.287 444.513 C513.672 443.383 512.639 441.738 511.406 439.855 C508.987 436.163 505.217 430.634 500.242 423.172 L500.144 423.024 L500.039 422.881 C492.463 412.463 489.785 407.107 489.785 407.107 L487.803 403.143 L483.431 402.414 L478.009 401.511 C456.031 394.615 416.478 369.472 355.258 323.064 L355.254 323.061 L292.42 275.486 L413.733 125.516 C451.965 79.4477 479.805 55.2247 502.817 48.533 L509.231 47.6165 L516.704 46.5489 L516.704 39 L516.704 19 L516.704 18.5432 L516.656 18.0888 L514.656 -0.911176 L513.836 -8.704 L506 -8.704 L449 -8.704 L393 -8.704 L388.811 -8.704 L386.198 -5.43037 L211.704 213.146 L211.704 120 C211.704 76.0846 227.744 55.1083 264.191 48.628 L273.866 47.6608 L281.704 46.877 L281.704 39 L281.704 15 L281.704 0 L281.704 -8.704 L273 -8.704 L203 -8.704 L159 -8.704 L114 -8.704 L49 -8.704 L40.296 -8.704 L40.296 0 L40.296 15 L40.296 39 L40.296 46.877 L48.1339 47.6608 L57.747 48.622 C90.9796 55.0408 105.296 75.8803 105.296 120 L105.296 574 C105.296 618.891 89.1639 651.21 53.875 677.963 L44.0086 684.869 L40.296 687.468 L40.296 692 L40.296 704.5 L40.296 710.349 L45.7113 712.559 L181.711 768.059 L183.292 768.704 L185 768.704 L203 768.704 L211.704 768.704 L211.704 760 L211.704 730 L211.704 605 L211.704 273.486 L295.267 342.554 C314.667 360.519 324.931 373.421 327.812 382.705 C329.907 389.455 329.356 390.227 319.112 392.503 L318.516 392.636 L317.944 392.85 L311.422 395.296 L268.48 395.296 L268.48 412.704 L303.427 412.704 L303.427 412.704 Z " />
<glyph glyph-name="l" unicode="l" horiz-adv-x="307" d="M154 -8.704 L109 -8.704 L44 -8.704 L35.296 -8.704 L35.296 0 L35.296 15 L35.296 39 L35.296 46.877 L43.1339 47.6608 L52.747 48.622 C85.9796 55.0408 100.296 75.8803 100.296 120 L100.296 574 C100.296 618.891 84.1639 651.21 48.875 677.963 L39.0086 684.869 L35.296 687.468 L35.296 692 L35.296 704.5 L35.296 710.349 L40.7113 712.559 L176.711 768.059 L178.292 768.704 L180 768.704 L198 768.704 L206.704 768.704 L206.704 760 L206.704 730 L206.704 605 L206.704 120 C206.704 76.0846 222.744 55.1083 259.191 48.628 L268.866 47.6608 L276.704 46.877 L276.704 39 L276.704 15 L276.704 0 L276.704 -8.704 L268 -8.704 L198 -8.704 L154 -8.704 L154 -8.704 Z M154 8.704 L198 8.704 L259.296 8.704 L259.296 15 L259.296 31.123 L257.134 31.3392 L256.815 31.3711 L256.5 31.4263 C213.165 39.0098 189.296 70.0396 189.296 120 L189.296 605 L189.296 730 L189.296 751.296 L181.708 751.296 L52.704 698.652 L52.704 696.532 L58.9914 692.131 L59.1237 692.038 L59.2524 691.941 C97.875 662.713 117.704 623.055 117.704 574 L117.704 120 C117.704 70.2811 96.1248 39.1112 55.618 31.4477 L55.2444 31.377 L54.8661 31.3392 L52.704 31.123 L52.704 15 L52.704 8.704 L109 8.704 L154 8.704 L154 8.704 Z " />
<glyph glyph-name="m" unicode="m" horiz-adv-x="858" d="M709.099 -8.704 L665.198 -9.70175 L665.099 -9.704 L665 -9.704 L595 -9.704 L586.296 -9.704 L586.296 -1 L586.296 14 L586.296 38 L586.296 45.9486 L594.212 46.6683 L604.847 47.635 C641.139 54.1016 656.296 74.9817 656.296 119 L656.296 291 C656.296 347.395 632.395 371.296 575 371.296 C528.698 371.296 506.63 361.498 482.704 339.253 L482.704 120.094 C483.662 76.0173 498.898 55.0801 535.199 48.627 C535.896 48.5566 538.054 48.3395 544.739 47.671 L544.866 47.658 C550.528 47.0444 552.959 40.5013 553.199 38.5796 C553.369 37.2222 553.454 35.1813 553.454 33 C553.454 28.8657 553.199 22.6879 552.704 14.729 L552.704 0 L552.704 -8.704 L544 -8.704 L474 -8.704 L430 -8.704 L385 -8.704 L315 -8.704 L306.296 -8.704 L306.296 0 L306.296 15 L306.296 39 L306.296 46.9486 L314.212 47.6683 L324.847 48.635 C361.139 55.1016 376.296 75.9817 376.296 120 L376.296 292 C376.296 348.395 352.395 372.296 296 372.296 C250.682 372.296 229.606 364.29 208.704 345.222 L208.704 305 L208.704 120 C208.704 75.8476 223.027 55.0304 257.277 48.616 L265.961 47.6508 L273.704 46.7905 L273.704 39 L273.704 15 L273.704 0 L273.704 -8.704 L265 -8.704 L200 -8.704 L156 -8.704 L111 -8.704 L46 -8.704 L37.296 -8.704 L37.296 0 L37.296 15 L37.296 39 L37.296 46.877 L45.1339 47.6608 L54.747 48.622 C87.9796 55.0408 102.296 75.8803 102.296 120 L102.296 274 C102.296 318.891 86.1639 351.21 50.875 377.963 L41.0086 384.869 L37.296 387.468 L37.296 392 L37.296 404.5 L37.296 410.265 L42.6046 412.514 L173.605 468.014 L175.232 468.704 L177 468.704 L195 468.704 L203.317 468.704 L203.695 460.395 L206.293 403.233 C250.687 446.56 289.075 468.704 344 468.704 C413.718 468.704 458.28 442.599 473.795 392.31 C524.03 442.531 564.433 468.704 623 468.704 C714.353 468.704 761.704 425.863 761.704 343 L761.704 120.094 C762.663 75.9151 777.056 55.0176 810.299 48.613 L818.961 47.6508 L818.961 47.647 C824.556 46.971 826.96 40.4905 827.199 38.5796 C827.369 37.2222 827.454 35.1813 827.454 33 C827.454 28.8657 827.199 22.6879 826.704 14.729 L826.704 0 L826.704 -8.704 L818 -8.704 L753 -8.704 L709.099 -8.704 L709.099 -8.704 Z M708.802 8.70175 L708.901 8.704 L709 8.704 L753 8.704 L809.296 8.704 L809.296 15 L809.296 15.2717 L809.313 15.5429 C809.732 22.252 809.967 27.3918 810.029 31.128 L808.039 31.3492 L807.709 31.3859 L807.382 31.4477 C766.875 39.1112 745.354 70.1978 744.298 119.815 L744.296 119.907 L744.296 120 L744.296 343 C744.296 418.137 707.647 451.296 623 451.296 C565.801 451.296 529.716 425.389 475.264 368.956 L463.383 356.644 L460.427 373.496 C451.061 426.882 415.311 451.296 344 451.296 C288.635 451.296 254.117 428.284 204.774 376.967 L190.725 362.356 L189.805 382.605 L186.683 451.296 L178.768 451.296 L54.704 398.734 L54.704 396.532 L60.9914 392.131 L61.1237 392.038 L61.2524 391.941 C99.875 362.713 119.704 323.055 119.704 274 L119.704 120 C119.704 70.2811 98.1248 39.1112 57.618 31.4477 L57.2444 31.377 L56.8661 31.3392 L54.704 31.123 L54.704 15 L54.704 8.704 L111 8.704 L156 8.704 L200 8.704 L256.296 8.704 L256.296 15 L256.296 31.21 L255.039 31.3492 L254.729 31.3836 L254.423 31.44 C212.889 39.091 191.296 70.2811 191.296 120 L191.296 305 L191.296 349 L191.296 352.719 L193.984 355.29 C218.155 378.411 245.259 389.704 296 389.704 C359.605 389.704 393.704 355.605 393.704 292 L393.704 120 C393.704 70.1586 370.957 39.0312 327.5 31.4263 L327.146 31.3643 L326.788 31.3317 L323.704 31.051 L323.704 15 L323.704 8.704 L385 8.704 L430 8.704 L474 8.704 L535.296 8.704 L535.296 15 L535.296 15.2717 L535.313 15.5429 C535.729 22.2053 535.964 27.3204 536.028 31.05 L533.134 31.3392 L532.815 31.3711 L532.5 31.4263 C489.043 39.0312 466.356 70.0762 465.298 119.815 L465.296 119.907 L465.296 120 L465.296 343 L465.296 346.706 L467.967 349.274 C494.974 375.242 523.019 388.704 575 388.704 C639.605 388.704 673.704 354.605 673.704 291 L673.704 119 C673.704 69.1586 650.957 38.0312 607.5 30.4263 L607.146 30.3643 L606.788 30.3317 L603.704 30.051 L603.704 14 L603.704 7.704 L664.901 7.704 L708.802 8.70175 L708.802 8.70175 Z " />
<glyph glyph-name="n" unicode="n" horiz-adv-x="592" d="M443 -8.704 L399 -8.704 L329 -8.704 L320.296 -8.704 L320.296 0 L320.296 15 L320.296 39 L320.296 46.9486 L328.212 47.6683 L338.847 48.635 C375.139 55.1016 390.296 75.9817 390.296 120 L390.296 292 C390.296 348.224 364.563 372.296 305 372.296 C256.744 372.296 234.644 364.25 213.704 345.218 L213.704 305 L213.704 120 C213.704 76.0846 229.744 55.1083 266.191 48.628 L275.866 47.6608 L283.704 46.877 L283.704 39 L283.704 15 L283.704 0 L283.704 -8.704 L275 -8.704 L205 -8.704 L161 -8.704 L116 -8.704 L51 -8.704 L42.296 -8.704 L42.296 0 L42.296 15 L42.296 39 L42.296 46.877 L50.1339 47.6608 L59.747 48.622 C92.9796 55.0408 107.296 75.8803 107.296 120 L107.296 274 C107.296 318.891 91.1639 351.21 55.875 377.963 L46.0086 384.869 L42.296 387.468 L42.296 392 L42.296 404.5 L42.296 410.265 L47.6046 412.514 L178.605 468.014 L180.232 468.704 L182 468.704 L200 468.704 L208.317 468.704 L208.695 460.395 L211.294 403.207 C255.911 446.58 295.394 468.704 353 468.704 C446.238 468.704 495.704 425.984 495.704 343 L495.704 120.093 C496.665 75.7778 510.189 55.0018 544.277 48.616 L552.961 47.6508 L552.961 47.647 C558.556 46.971 560.96 40.4905 561.199 38.5796 C561.369 37.2222 561.454 35.1813 561.454 33 C561.454 28.8657 561.199 22.6879 560.704 14.729 L560.704 0 L560.704 -8.704 L552 -8.704 L487 -8.704 L443 -8.704 L443 -8.704 Z M443 8.704 L487 8.704 L543.296 8.704 L543.296 15 L543.296 15.2717 L543.313 15.5429 C543.732 22.252 543.967 27.3918 544.029 31.128 L542.039 31.3492 L541.729 31.3836 L541.423 31.44 C499.756 39.1156 479.351 70.3229 478.298 119.815 L478.296 119.907 L478.296 120 L478.296 343 C478.296 418.016 439.762 451.296 353 451.296 C294.578 451.296 259.08 428.245 209.774 376.967 L195.725 362.356 L194.805 382.605 L191.683 451.296 L183.768 451.296 L59.704 398.734 L59.704 396.532 L65.9914 392.131 L66.1237 392.038 L66.2524 391.941 C104.875 362.713 124.704 323.055 124.704 274 L124.704 120 C124.704 70.2811 103.125 39.1112 62.618 31.4477 L62.2444 31.377 L61.8661 31.3392 L59.704 31.123 L59.704 15 L59.704 8.704 L116 8.704 L161 8.704 L205 8.704 L266.296 8.704 L266.296 15 L266.296 31.123 L264.134 31.3392 L263.815 31.3711 L263.5 31.4263 C220.165 39.0098 196.296 70.0396 196.296 120 L196.296 305 L196.296 349 L196.296 352.719 L198.984 355.29 C223.202 378.455 251.324 389.704 305 389.704 C371.437 389.704 407.704 355.776 407.704 292 L407.704 120 C407.704 70.1586 384.957 39.0312 341.5 31.4263 L341.146 31.3643 L340.788 31.3317 L337.704 31.051 L337.704 15 L337.704 8.704 L399 8.704 L443 8.704 L443 8.704 Z " />
<glyph glyph-name="o" unicode="o" horiz-adv-x="540" d="M41.296 225 C41.296 386.901 102.648 468.704 270 468.704 C422.744 468.704 499.704 387.468 499.704 225 C499.704 63.0987 438.352 -18.704 270 -18.704 C118.256 -18.704 41.296 62.5317 41.296 225 L41.296 225 Z M58.704 225 C58.704 69.4683 125.744 -1.296 270 -1.296 C429.648 -1.296 482.296 68.9013 482.296 225 C482.296 380.532 415.256 451.296 270 451.296 C111.352 451.296 58.704 381.099 58.704 225 L58.704 225 Z M286 45.704 C356.248 45.704 379.296 99.7776 379.296 225 C379.296 349.241 340.486 404.296 255 404.296 C184.752 404.296 161.704 350.222 161.704 225 C161.704 100.759 200.514 45.704 286 45.704 L286 45.704 Z M286 28.296 C191.486 28.296 144.296 95.2405 144.296 225 C144.296 353.778 173.248 421.704 255 421.704 C349.514 421.704 396.704 354.759 396.704 225 C396.704 96.2224 367.752 28.296 286 28.296 L286 28.296 Z " />
<glyph glyph-name="p" unicode="p" horiz-adv-x="574" d="M209.169 411.781 C256.306 449.331 306.253 468.704 359 468.704 C475.203 468.704 533.704 395.036 533.704 251 C533.704 71.6762 452.893 -18.704 290 -18.704 C259.137 -18.704 233.035 -17.9598 212.704 -15.834 L212.704 -110 C212.704 -153.915 228.744 -174.892 265.191 -181.372 L274.866 -182.339 L282.704 -183.123 L282.704 -191 L282.704 -215 L282.704 -230 L282.704 -238.704 L274 -238.704 L204 -238.704 L160 -238.704 L115 -238.704 L50 -238.704 L41.296 -238.704 L41.296 -230 L41.296 -215 L41.296 -191 L41.296 -183.123 L49.1339 -182.339 L58.747 -181.378 C91.9796 -174.959 106.296 -154.12 106.296 -110 L106.296 274 C106.296 317.942 90.1243 351.237 54.875 377.963 L45.0086 384.869 L41.296 387.468 L41.296 392 L41.296 404.5 L41.296 410.265 L46.6046 412.514 L177.605 468.014 L179.232 468.704 L181 468.704 L199 468.704 L207.444 468.704 L207.7 460.264 L209.169 411.781 L209.169 411.781 Z M201 385.296 L192.556 385.296 L192.3 393.736 L190.556 451.296 L182.768 451.296 L58.704 398.734 L58.704 396.532 L64.9914 392.131 L65.1237 392.038 L65.2524 391.941 C103.915 362.683 123.704 322.005 123.704 274 L123.704 -110 C123.704 -159.719 102.125 -190.889 61.618 -198.552 L61.2444 -198.623 L60.8661 -198.661 L58.704 -198.877 L58.704 -215 L58.704 -221.296 L115 -221.296 L160 -221.296 L204 -221.296 L265.296 -221.296 L265.296 -215 L265.296 -198.877 L263.134 -198.661 L262.815 -198.629 L262.5 -198.574 C219.165 -190.99 195.296 -159.96 195.296 -110 L195.296 -6 L195.296 4.0358 L205.231 2.61652 C225.768 -0.317298 254.15 -1.296 290 -1.296 C445.107 -1.296 516.296 78.3238 516.296 251 C516.296 388.964 466.797 451.296 359 451.296 C304.781 451.296 256.203 430.544 207.25 387.466 L204.784 385.296 L201.5 385.296 L201 385.296 L201 385.296 Z M213.704 90.155 C245.627 64.816 278.985 52.704 321 52.704 C396.482 52.704 430.296 100.756 430.296 211 C430.296 324.926 388.839 376.296 297 376.296 C261.168 376.296 234.796 369.776 213.704 355.499 L213.704 305 L213.704 90.155 L213.704 90.155 Z M199.467 79.2811 L196.296 81.8924 L196.296 86 L196.296 305 L196.296 360 L196.296 364.39 L199.826 367 C224.158 384.984 256.859 393.704 297 393.704 C397.161 393.704 447.704 331.074 447.704 211 C447.704 95.2444 405.518 35.296 321 35.296 C274.408 35.296 234.576 50.3677 199.467 79.2811 L199.467 79.2811 Z " />
<glyph glyph-name="q" unicode="q" horiz-adv-x="570" d="M421 -238.704 L376 -238.704 L306 -238.704 L297.296 -238.704 L297.296 -230 L297.296 -215 L297.296 -191 L297.296 -183.123 L305.134 -182.339 L314.828 -181.37 C352.135 -174.906 367.296 -154.044 367.296 -110 L367.296 38.261 C315.732 -0.0905125 267.689 -18.704 223 -18.704 C100.97 -18.704 40.296 52.805 40.296 193 C40.296 376.362 124.147 468.704 291 468.704 C349.068 468.704 392.584 462.971 421.697 451.532 L455.192 467.827 L456.995 468.704 L459 468.704 L465 468.704 L473.704 468.704 L473.704 460 L473.704 421 L473.704 -110 C473.704 -154.152 488.027 -174.97 522.277 -181.384 L530.961 -182.349 L538.704 -183.21 L538.704 -191 L538.704 -215 L538.704 -230 L538.704 -238.704 L530 -238.704 L465 -238.704 L421 -238.704 L421 -238.704 Z M421 -221.296 L465 -221.296 L521.296 -221.296 L521.296 -215 L521.296 -198.79 L520.039 -198.651 L519.729 -198.616 L519.423 -198.56 C477.889 -190.909 456.296 -159.719 456.296 -110 L456.296 421 L456.296 449.005 L425.808 434.173 L422.229 432.432 L418.571 434 C391.643 445.541 350.396 451.296 291 451.296 C131.853 451.296 57.704 369.638 57.704 193 C57.704 59.195 109.03 -1.296 223 -1.296 C268.246 -1.296 315.502 18.5512 370.548 62.7848 L384.704 74.1603 L384.704 56 L384.704 -110 C384.704 -159.841 361.945 -190.986 317.465 -198.58 L317.167 -198.631 L316.866 -198.661 L314.704 -198.877 L314.704 -215 L314.704 -221.296 L376 -221.296 L421 -221.296 L421 -221.296 Z M367.296 358.125 C329.79 385.748 301.371 398.296 277 398.296 C187.352 398.296 146.704 344.099 146.704 222 C146.704 120.452 189.761 74.704 287 74.704 C316.165 74.704 341.578 83.0137 367.296 100.539 L367.296 358.125 L367.296 358.125 Z M384.704 362 L384.704 96 L384.704 91.5208 L381.059 88.9173 C352.031 68.1832 320.459 57.296 287 57.296 C182.239 57.296 129.296 113.548 129.296 222 C129.296 349.901 178.648 415.704 277 415.704 C305.88 415.704 340.46 400.035 381.222 369.463 L384.704 366.852 L384.704 362.5 L384.704 362 L384.704 362 Z " />
<glyph glyph-name="r" unicode="r" horiz-adv-x="388" d="M160.097 -8.704 L115.193 -9.70185 L115.097 -9.704 L115 -9.704 L50 -9.704 L41.296 -9.704 L41.296 -1 L41.296 14 L41.296 38 L41.296 45.877 L49.1339 46.6608 L58.747 47.622 C91.9796 54.0408 106.296 74.8803 106.296 119 L106.296 273 C106.296 317.891 90.1639 350.21 54.875 376.963 L45.0086 383.869 L41.296 386.468 L41.296 391 L41.296 403.5 L41.296 409.265 L46.6046 411.514 L177.605 467.014 L179.232 467.704 L181 467.704 L199 467.704 L207.295 467.704 L207.694 459.419 L210.89 393.1 C247.763 442.304 274.805 468.704 305 468.704 C325.72 468.704 345.498 465.408 362.489 457.974 L362.512 457.964 L362.535 457.954 C372.341 453.596 380.645 447.664 386.155 442.155 C393.153 435.156 397.704 426.055 397.704 418 C397.704 406.259 386.953 380.457 367.862 340.265 L365.502 335.296 L360 335.296 L354.655 335.296 C354.091 335.074 353.563 334.937 353.105 334.902 C351.767 334.799 349.784 335.084 348.567 335.394 C346.614 335.893 343.696 336.957 340.38 338.35 C334.004 341.028 324.354 345.596 311.436 352.051 C292.324 359.649 273.045 363.296 250 363.296 C240.882 363.296 231.199 353.882 212.704 329.118 L212.704 305 L212.704 120 C212.704 76.0846 228.744 55.1083 265.191 48.628 L274.866 47.6608 L282.704 46.877 L282.704 39 L282.704 15 L282.704 0 L282.704 -8.704 L274 -8.704 L204 -8.704 L160.097 -8.704 L160.097 -8.704 Z M159.807 8.70185 L159.903 8.704 L160 8.704 L204 8.704 L265.296 8.704 L265.296 15 L265.296 31.123 L263.134 31.3392 L262.815 31.3711 L262.5 31.4263 C219.165 39.0098 195.296 70.0396 195.296 120 L195.296 305 L195.296 332 L195.296 334.873 L197.006 337.181 C217.39 364.699 233.395 380.704 250 380.704 C274.822 380.704 297.453 376.393 318.233 368.081 L318.569 367.947 L318.893 367.785 C331.81 361.326 341.05 356.95 347.12 354.4 C349.012 353.605 350.395 353.064 351.435 352.704 L353 352.704 L354.491 352.704 C371.814 389.401 380.296 410.091 380.296 418 C380.296 421.945 378.847 424.844 373.845 429.845 C369.363 434.328 363.681 438.389 355.511 442.026 L355.465 442.046 C340.469 448.598 324.26 451.296 305 451.296 C278.876 451.296 254.784 424.527 211.059 363.908 L198.435 346.407 L195.383 367.769 L194.383 374.769 L194.326 375.173 L194.306 375.581 L190.705 450.296 L182.768 450.296 L58.704 397.734 L58.704 395.532 L64.9914 391.131 L65.1237 391.038 L65.2524 390.941 C103.875 361.713 123.704 322.055 123.704 273 L123.704 119 C123.704 69.2811 102.125 38.1112 61.618 30.4477 L61.2444 30.377 L60.8661 30.3392 L58.704 30.123 L58.704 14 L58.704 7.704 L114.903 7.704 L159.807 8.70185 L159.807 8.70185 Z " />
<glyph glyph-name="s" unicode="s" horiz-adv-x="431" d="M51.296 46.953 L50.2965 138.905 L50.2009 147.704 L59 147.704 L79 147.704 L100 147.704 L107.015 147.704 L108.505 140.849 L113.481 117.963 C125.865 67.5818 149.846 43.4916 192.479 38.704 L204 38.704 C253.829 38.704 273.296 55.0559 273.296 95 C273.296 144.963 251.712 163.226 177.379 186.7 L177.374 186.702 C96.2678 212.368 65.296 244.487 65.296 331 C65.296 421.724 114.513 468.704 209 468.704 C261.072 468.704 307.287 457.15 348.339 433.546 L352.704 431.036 L352.704 426 L352.704 398 L352.704 315 L352.704 306.296 L344 306.296 L325 306.296 L306 306.296 L298.504 306.296 L297.392 313.709 L294.392 333.709 L294.384 333.763 L294.377 333.816 C287.776 381.907 266.083 404.065 224.371 407.818 L215.761 408.296 C177.14 408.245 162.704 395.909 162.704 364 C162.704 315.088 182.271 298.771 248.635 277.296 L248.679 277.281 C335.739 249.619 369.704 214.507 369.704 124 C369.704 29.058 315.278 -18.704 211 -18.704 C150.121 -18.704 99.3025 -8.33289 56.4125 11.0697 L51.296 13.3843 L51.296 19 L51.296 46.953 L51.296 46.953 Z M68.7035 47.0946 L68.704 47.0473 L68.704 47 L68.704 24.676 C108.609 7.55557 154.317 -1.296 211 -1.296 C308.722 -1.296 352.296 36.942 352.296 124 C352.296 207.478 326.272 234.369 243.365 260.704 L243.343 260.711 L243.321 260.719 C173.72 283.236 145.296 306.923 145.296 364 C145.296 404.025 170.801 425.704 216 425.704 L216.242 425.704 L216.483 425.691 L225.483 425.191 L225.627 425.183 L225.771 425.17 C273.95 420.887 304.211 390.059 311.616 336.238 L313.496 323.704 L325 323.704 L335.296 323.704 L335.296 398 L335.296 420.908 C297.588 441.614 257.068 451.296 209 451.296 C121.487 451.296 82.704 414.276 82.704 331 C82.704 251.515 105.731 227.633 182.621 203.3 L182.626 203.298 C260.289 178.773 290.704 153.036 290.704 95 C290.704 46.9441 260.171 21.296 204 21.296 L192 21.296 L191.528 21.296 L191.059 21.347 C142.013 26.6782 110.126 58.5648 96.5466 113.927 L96.5191 114.038 L96.4947 114.151 L92.985 130.296 L79 130.296 L67.799 130.296 L68.7035 47.0946 L68.7035 47.0946 Z " />
<glyph glyph-name="t" unicode="t" horiz-adv-x="364" d="M343.18 63.9745 L344.459 60.4561 L342.785 57.1075 C317.636 6.8084 274.375 -18.704 214 -18.704 C134.535 -18.704 92.296 21.2523 92.296 98 L92.296 389.296 L18 389.296 L9.296 389.296 L9.296 398 L9.296 404 L9.296 409.127 L13.7808 411.613 L95.113 456.689 L176.985 568.153 L179.594 571.704 L184 571.704 L190 571.704 L198.704 571.704 L198.704 563 L198.704 458.704 L322 458.704 L330.704 458.704 L330.704 450 L330.704 398 L330.704 389.296 L322 389.296 L198.735 389.296 L199.704 117.031 L199.704 117.015 L199.704 117 C199.704 87.501 217.77 74.704 265 74.704 C286.364 74.704 301.965 75.1915 312.578 76.1674 C322.743 77.1021 323.981 77.4252 323.215 75.8925 L332.265 93.9919 L339.18 74.9745 L343.18 63.9745 L343.18 63.9745 Z M324.908 60.441 C321.615 59.7031 317.965 59.1813 314.172 58.8326 C303.035 57.8085 286.636 57.296 265 57.296 C212.244 57.296 182.312 78.4874 182.296 116.969 L182.296 117 L181.296 397.969 L181.265 406.704 L190 406.704 L313.296 406.704 L313.296 441.296 L190 441.296 L181.296 441.296 L181.296 450 L181.296 544.616 L108.015 444.847 L106.887 443.311 L105.219 442.387 L40.835 406.704 L101 406.704 L109.704 406.704 L109.704 398 L109.704 98 C109.704 28.7477 141.465 -1.296 214 -1.296 C267.785 -1.296 302.043 17.8591 324.908 60.441 L324.908 60.441 Z " />
<glyph glyph-name="u" unicode="u" horiz-adv-x="554" d="M365.296 330 C365.296 374.018 350.139 394.898 313.847 401.365 L303.212 402.332 L295.296 403.051 L295.296 411 L295.296 435 L295.296 450 L295.296 458.704 L304 458.704 L374 458.704 L419 458.704 L463 458.704 L471.704 458.704 L471.704 450 L471.704 120.094 C472.662 76.0173 487.898 55.0801 524.199 48.627 C524.896 48.5566 527.054 48.3395 533.739 47.671 L533.866 47.658 C539.528 47.0444 541.959 40.5013 542.199 38.5796 C542.369 37.2222 542.454 35.1813 542.454 33 C542.454 28.8657 542.199 22.6879 541.704 14.729 L541.704 0 L541.704 -8.704 L533 -8.704 L463 -8.704 L419 -8.704 L374 -8.704 L365.296 -8.704 L365.296 0 L365.296 45.265 C312.794 -0.790303 268.567 -18.704 222 -18.704 C130.705 -18.704 82.296 24.0762 82.296 107 L82.296 330 C82.296 374.12 67.9796 394.959 34.747 401.378 L25.1339 402.339 L17.296 403.123 L17.296 411 L17.296 435 L17.296 450 L17.296 458.704 L26 458.704 L91 458.704 L136 458.704 L180 458.704 L188.704 458.704 L188.704 450 L188.704 160 C188.704 103.692 213.519 79.704 273 79.704 C314.106 79.704 341.536 86.3403 365.296 105.123 L365.296 330 L365.296 330 Z M382.704 330 L382.704 101 L382.704 96.9631 L379.622 94.3555 C352.103 71.0696 318.105 62.296 273 62.296 C206.481 62.296 171.296 96.308 171.296 160 L171.296 441.296 L136 441.296 L91 441.296 L34.704 441.296 L34.704 435 L34.704 418.877 L36.8661 418.661 L37.2444 418.623 L37.618 418.552 C78.1248 410.889 99.704 379.719 99.704 330 L99.704 107 C99.704 31.9238 137.295 -1.296 222 -1.296 C269.153 -1.296 311.097 17.3459 368.011 71.3158 L382.704 85.249 L382.704 65 L382.704 8.704 L419 8.704 L463 8.704 L524.296 8.704 L524.296 15 L524.296 15.2717 L524.313 15.5429 C524.729 22.2053 524.964 27.3204 525.028 31.05 L522.134 31.3392 L521.815 31.3711 L521.5 31.4263 C478.043 39.0312 455.356 70.0762 454.298 119.815 L454.296 119.907 L454.296 120 L454.296 441.296 L419 441.296 L374 441.296 L312.704 441.296 L312.704 435 L312.704 418.949 L315.788 418.668 L316.146 418.636 L316.5 418.574 C359.957 410.969 382.704 379.841 382.704 330 L382.704 330 Z " />
<glyph glyph-name="v" unicode="v" horiz-adv-x="552" d="M366.794 331.896 L366.633 332.058 L368.185 337.074 C380.028 375.334 370.563 391.99 332.916 398.356 L321.277 399.326 L313.296 399.991 L313.296 408 L313.296 434 L313.296 451 L313.296 459.704 L322 459.704 L422 459.704 L450 459.704 L478 459.704 L519 459.704 L527.704 459.704 L527.704 451 L527.704 433 L527.704 408 L527.704 400.123 L519.866 399.339 L510.367 398.389 C475.906 390.778 450.62 367.592 430.453 322.464 L430.447 322.449 L285.953 -2.53616 L283.656 -7.704 L278 -7.704 L255 -7.704 L249.621 -7.704 L247.215 -2.89255 L241.215 9.10745 L241.157 9.22377 L241.102 9.34177 L90.192 335.148 C69.066 375.407 46.1079 395.791 16.575 402.401 L8.0388 403.349 L0.296 404.21 L0.296 412 L0.296 435 L0.296 451 L0.296 459.704 L9 459.704 L46 459.704 L95 459.704 L144 459.704 L254 459.704 L262.704 459.704 L262.704 451 L262.704 436.271 C263.199 428.312 263.454 422.134 263.454 418 C263.454 415.819 263.369 413.778 263.199 412.42 C262.961 410.516 260.571 404.072 255.016 403.36 L255.017 403.356 L238.102 401.366 L238.017 401.356 C195.872 395.953 187.612 377.997 207.883 334.689 L294.355 149.914 L366.794 331.896 L366.794 331.896 Z M252.984 420.639 L254 412 L254 420.704 C253.648 420.704 253.31 420.681 252.984 420.639 L252.984 420.639 Z M386.28 337.03 L387.206 336.104 L385.087 330.781 L303.087 124.781 L295.645 106.086 L287.117 124.311 L192.117 327.31 C168.402 377.974 184.117 412.024 235.898 418.634 L235.94 418.639 L235.983 418.644 L246.03 419.826 C245.969 423.566 245.734 428.721 245.313 435.457 L245.296 435.728 L245.296 436 L245.296 442.296 L144 442.296 L95 442.296 L46 442.296 L17.704 442.296 L17.704 435 L17.704 419.79 L18.9612 419.651 L19.4145 419.6 L19.86 419.503 C54.0715 412.019 82.9669 386.458 105.71 343.039 L105.809 342.851 L105.898 342.658 L256.843 16.776 L260.379 9.704 L272.344 9.704 L414.547 329.536 L414.55 329.543 L414.553 329.551 C436.293 378.207 467.867 407.012 507.161 415.507 L507.643 415.612 L508.134 415.661 L510.296 415.877 L510.296 433 L510.296 442.296 L478 442.296 L450 442.296 L422 442.296 L330.704 442.296 L330.704 434 L330.704 416.009 L334.723 415.674 L335.079 415.644 L335.431 415.586 C379.755 408.198 397.578 379.809 386.28 337.03 L386.28 337.03 Z " />
<glyph glyph-name="w" unicode="w" horiz-adv-x="814" d="M118.053 332.744 L232.18 13.9745 L232.195 13.9339 L234.097 8.704 L249.438 8.704 L439.429 419.045 L429.38 441.296 L419.273 441.296 L417.257 435.248 L417.139 434.891 L416.99 434.546 L282.99 124.546 L274.139 104.07 L266.783 125.13 L193.783 334.13 L193.722 334.304 L193.668 334.481 C179.488 381.385 199.984 412.167 248.955 417.641 L264.296 419.642 L264.296 436 L264.296 442.296 L163 442.296 L115 442.296 L68 442.296 L35.704 442.296 L35.704 435 L35.704 419.79 L36.9612 419.651 L37.4145 419.6 L37.86 419.503 C72.4478 411.937 98.9899 384.265 116.619 338.637 L118.661 333.352 L118.053 332.744 L118.053 332.744 Z M544.697 11.358 L545.803 8.704 L558.305 8.704 L702.025 337.486 L702.115 337.692 L702.215 337.893 C724.007 381.477 754.076 407.092 791.293 414.535 L791.71 414.618 L792.134 414.661 L794.296 414.877 L794.296 432 L794.296 441.296 L762 441.296 L734 441.296 L706 441.296 L614.704 441.296 L614.704 433 L614.704 415.009 L618.723 414.674 L619.096 414.643 L619.465 414.58 C664.373 406.913 682.451 377.213 669.337 333.499 L669.238 333.168 L669.112 332.845 L591.267 132.672 L591.443 132.288 L590.119 128.862 L544.697 11.358 L544.697 11.358 Z M400.355 293.223 L262.898 -3.65704 L260.562 -8.704 L255 -8.704 L228 -8.704 L221.903 -8.704 L219.82 -2.97453 L215.82 8.02547 L215.813 8.04578 L215.805 8.06612 L99.8054 332.066 L97.9471 337.256 L98.292 337.601 C82.3547 376.303 62.5195 396.13 34.574 402.401 L26.0388 403.349 L18.296 404.21 L18.296 412 L18.296 435 L18.296 451 L18.296 459.704 L27 459.704 L68 459.704 L115 459.704 L163 459.704 L273 459.704 L281.704 459.704 L281.704 451 L281.704 436 L281.704 412 L281.704 404.358 L274.126 403.369 L251.126 400.369 L251.044 400.358 L250.961 400.349 C210.053 395.804 198.554 378.639 210.279 339.693 L275.861 151.93 L400.861 441.109 L404.743 452.752 L406.727 458.704 L413 458.704 L435 458.704 L440.62 458.704 L442.933 453.582 L449.324 439.429 L449.997 440.898 L457.913 423.627 L581.162 154.718 L652.761 338.828 C663.454 374.766 653.581 391 616.899 397.358 L605.277 398.326 L597.296 398.991 L597.296 407 L597.296 433 L597.296 450 L597.296 458.704 L606 458.704 L706 458.704 L734 458.704 L762 458.704 L803 458.704 L811.704 458.704 L811.704 450 L811.704 432 L811.704 407 L811.704 399.123 L803.866 398.339 L794.298 397.382 C761.778 390.749 737.988 370.421 717.885 330.306 L571.975 -3.48622 L569.695 -8.704 L564 -8.704 L540 -8.704 L536.942 -8.704 L536.609 -9.56439 L536.222 -8.704 L534.197 -8.704 L531.966 -3.34769 L526.966 8.65231 L525.617 11.8879 L526.238 13.483 L400.355 293.223 L400.355 293.223 Z M450.003 399.102 L410.559 312.969 L535.087 36.239 L572.372 132.115 L450.003 399.102 L450.003 399.102 Z " />
<glyph glyph-name="x" unicode="x" horiz-adv-x="514" d="M396.425 128.704 L397.446 128.704 L400.052 125.102 C433.237 79.2282 459.01 55.1563 479.073 48.479 L484.431 47.5856 L491.704 46.3734 L491.704 39 L491.704 19 L491.704 18.7711 L491.692 18.5425 L490.692 -0.457472 L490.258 -8.704 L482 -8.704 L429 -8.704 L377 -8.704 L282 -8.704 L273.296 -8.704 L273.296 0 L273.296 15 L273.296 39 L273.296 46.7905 L281.039 47.6508 L289.681 48.611 C314.178 53.4636 315.847 66.1952 293.74 102.189 L239.302 178.578 L189.488 102.546 C170.598 67.3252 175.5 53.8579 208.079 48.642 L218.788 47.6683 L226.704 46.9486 L226.704 39 L226.704 15 L226.704 0 L226.704 -8.704 L218 -8.704 L113 -8.704 L85 -8.704 L57 -8.704 L50 -8.704 L41.296 -8.704 L41.296 0 L41.296 18 L41.296 39 L41.296 46.3734 L48.5691 47.5856 L54.088 48.505 C76.9469 55.1155 102.657 79.0837 135.94 125.091 L135.944 125.096 L135.948 125.102 L207.267 223.998 L134.442 324.906 L134.409 324.952 L134.377 324.998 C102.228 370.785 76.9638 394.836 57.863 401.532 L52.5691 402.414 L45.296 403.627 L45.296 411 L45.296 431 L45.296 431.229 L45.308 431.457 L46.308 450.457 L46.7421 458.704 L55 458.704 L104 458.704 L153 458.704 L263 458.704 L271.704 458.704 L271.704 450 L271.704 435 L271.704 411 L271.704 403.051 L263.788 402.332 L253.061 401.357 C220.018 396.204 216.467 382.473 240.172 345.937 L275.882 296.94 L311.775 347.857 C334.714 383.69 332.484 396.479 307.681 401.389 L299.039 402.349 L291.296 403.21 L291.296 411 L291.296 435 L291.296 450 L291.296 458.704 L300 458.704 L395 458.704 L423 458.704 L453 458.704 L460.836 458.704 L461.656 450.911 L463.656 431.911 L463.704 431.457 L463.704 431 L463.704 411 L463.704 403.627 L456.431 402.414 L450.911 401.495 C427.886 394.844 400.075 370.661 362.823 324.595 L362.768 324.528 L305.932 252.782 L396.425 128.704 L396.425 128.704 Z M388.573 111.296 L387.575 111.296 L384.968 114.871 L287.968 247.871 L284.068 253.218 L288.177 258.405 L349.177 335.405 L349.204 335.439 L349.232 335.472 C387.546 382.862 419.49 410.61 446.296 418.281 L446.296 430.543 L445.164 441.296 L423 441.296 L395 441.296 L308.704 441.296 L308.704 435 L308.704 418.79 L309.961 418.651 L310.31 418.612 L310.654 418.545 C347.499 411.414 353.176 380.187 326.328 338.303 L326.224 338.142 L326.114 337.985 L283.114 276.985 L276.118 267.06 L268.966 276.873 L225.966 335.873 L225.829 336.061 L225.702 336.256 C197.608 379.479 206.022 411.733 250.676 418.603 L250.943 418.644 L251.212 418.668 L254.296 418.949 L254.296 435 L254.296 441.296 L153 441.296 L104 441.296 L63.258 441.296 L62.704 430.771 L62.704 418.273 L62.7524 418.257 C85.5726 410.651 115.099 382.739 148.591 335.048 L225.058 229.094 L228.733 224.002 L225.06 218.909 L150.06 114.909 L150.056 114.904 L150.052 114.898 C115.702 67.4145 85.6431 39.4335 58.704 31.719 L58.704 18 L58.704 8.704 L85 8.704 L113 8.704 L209.296 8.704 L209.296 15 L209.296 31.051 L206.212 31.3317 L205.926 31.3577 L205.643 31.4025 C162.574 38.2028 151.487 68.6917 174.336 111.127 L174.514 111.457 L174.719 111.77 L231.719 198.77 L238.698 209.422 L246.088 199.051 L308.088 112.051 L308.259 111.812 L308.413 111.562 C334.045 69.9096 329.781 38.6405 292.654 31.4546 L292.31 31.388 L291.961 31.3492 L290.704 31.21 L290.704 15 L290.704 8.704 L377 8.704 L429 8.704 L473.742 8.704 L474.296 19.229 L474.296 31.726 C451.058 39.1524 421.944 65.8397 388.573 111.296 L388.573 111.296 Z " />
<glyph glyph-name="y" unicode="y" horiz-adv-x="491" d="M69.0949 326.357 C47.871 371.68 23.9614 394.797 -7.371 401.395 L-15.9612 402.349 L-23.704 403.21 L-23.704 411 L-23.704 434 L-23.704 450 L-23.704 458.704 L-15 458.704 L22 458.704 L71 458.704 L120 458.704 L230 458.704 L238.704 458.704 L238.704 450 L238.704 435 L238.704 411 L238.704 403.26 L231.017 402.356 L214.085 400.364 C173.612 394.951 164.63 378.467 180.005 339.426 L269.441 145.953 L348.82 339.993 C360.358 375.748 350.686 390.998 314.881 397.359 L303.277 398.326 L304 407 L304 415.704 C299.868 415.704 296.454 411.315 296.077 410.19 C295.977 409.894 295.886 409.406 295.913 409.646 C296.002 410.434 296.046 411.602 296.046 413.625 C296.046 417.833 295.806 424.077 295.311 432.489 L295.296 432.744 L295.296 433 L295.296 450 L295.296 458.704 L304 458.704 L404 458.704 L428 458.704 L452 458.704 L495 458.704 L503.704 458.704 L503.704 450 L503.704 432 L503.704 407 L503.704 399.123 L495.866 398.339 L486.367 397.389 C452.05 389.807 428.243 366.769 409.029 321.638 L243.08 -81.237 C191.489 -213.735 158.761 -248.704 82 -248.704 C47.7802 -248.704 35.296 -238.003 35.296 -207 L35.296 -151 L35.296 -147.395 L37.8453 -144.845 L41.8453 -140.845 L44.3947 -138.296 L48 -138.296 L98 -138.296 C145.691 -138.296 159.639 -125.897 185.879 -57.8677 L185.921 -57.7594 L185.966 -57.6523 L214.497 10.824 L69.1169 326.31 L69.0949 326.357 L69.0949 326.357 Z M84.8831 333.69 L84.8942 333.666 L84.9051 333.643 L231.905 14.6428 L233.503 11.1759 L232.034 7.65231 L202.079 -64.241 C174.339 -136.122 152.282 -155.704 98 -155.704 L52.704 -155.704 L52.704 -207 C52.704 -229.997 54.2198 -231.296 82 -231.296 C151.224 -231.296 176.498 -204.279 226.889 -74.8423 L226.92 -74.7633 L226.952 -74.6849 L392.952 328.315 L392.971 328.362 L392.991 328.408 C413.685 377.04 443.744 405.985 483.161 414.507 L483.643 414.612 L484.134 414.661 L486.296 414.877 L486.296 432 L486.296 441.296 L452 441.296 L428 441.296 L404 441.296 L312.704 441.296 L312.704 433.255 C313.153 425.582 313.404 419.388 313.447 414.947 L316.723 414.674 L317.114 414.641 L317.5 414.574 C361.282 406.912 379.546 378.212 365.278 334.31 L365.178 334.003 L365.056 333.704 L279.419 124.369 L279.527 124.134 L278 120.571 L275 113.571 L257.857 73.5701 L242.466 80.0158 L258.944 120.296 L260.437 123.944 L164.099 332.348 L163.996 332.571 L163.906 332.8 C145.413 379.576 162.457 411.042 211.85 417.628 L211.916 417.637 L211.983 417.644 L221.296 418.74 L221.296 435 L221.296 441.296 L120 441.296 L71 441.296 L22 441.296 L-6.296 441.296 L-6.296 434 L-6.296 418.79 L-5.0388 418.651 L-4.63891 418.606 L-4.24481 418.525 C32.2227 411.017 62.1993 382.151 84.8831 333.69 L84.8831 333.69 Z " />
<glyph glyph-name="z" unicode="z" horiz-adv-x="458" d="M46.3171 425.606 L46.3362 425.879 L46.3724 426.15 L48.322 440.774 L48.805 451.395 L48.807 451.439 L48.8094 451.483 L49.3094 460.483 L49.7661 468.704 L58 468.704 L68 468.704 L68.0946 468.704 L68.1892 468.702 L91.1892 468.202 L93.3077 468.156 L95.1679 467.141 C104.718 461.932 130.542 458.704 177 458.704 L283 458.704 L357 458.704 L375 458.704 L383.704 458.704 L383.704 450 L383.704 433 L383.704 430.781 L382.641 428.832 L364.641 395.832 L364.636 395.823 L364.631 395.814 L179.702 58.704 L264 58.704 C306.703 58.704 327.702 77.2806 332.345 120.921 L332.348 120.955 L332.352 120.988 L336.352 155.988 L337.234 163.704 L345 163.704 L368 163.704 L383 163.704 L391.704 163.704 L391.704 155 L391.704 50 L391.704 25 L391.704 0 L391.704 -8.704 L383 -8.704 L138 -8.704 L64 -8.704 L47 -8.704 L38.296 -8.704 L38.296 0 L38.296 20 L38.296 22.2947 L39.4273 24.2912 L56.398 54.239 L56.4273 54.2912 L241.298 391.296 L173 391.296 C129.239 391.296 106.932 372.324 97.535 328.293 L97.524 328.24 L97.5134 328.189 L91.535 298.293 L90.1356 291.296 L83 291.296 L59 291.296 L44 291.296 L34.4277 291.296 L35.3352 300.825 C39.3372 342.846 43.3262 382.736 46.3171 425.606 L46.3171 425.606 Z M63.664 424.121 C60.8858 384.367 57.2576 347.173 53.575 308.704 L59 308.704 L75.864 308.704 L80.465 331.707 L80.4755 331.759 L80.4866 331.811 C91.1025 381.706 122.795 408.704 173 408.704 L256 408.704 L270.702 408.704 L263.631 395.814 L71.6312 45.8138 L71.6023 45.7611 L71.5727 45.7088 L55.704 17.705 L55.704 8.704 L64 8.704 L138 8.704 L374.296 8.704 L374.296 25 L374.296 50 L374.296 146.296 L368 146.296 L352.766 146.296 L349.655 119.079 L349.648 119.012 C344.27 68.6952 313.275 41.296 264 41.296 L165 41.296 L150.298 41.296 L157.369 54.1862 L349.359 404.168 L349.369 404.186 L366.296 435.219 L366.296 441.296 L357 441.296 L283 441.296 L177 441.296 C131.891 441.296 102.416 444.692 88.883 450.84 L67.905 451.296 L66.234 451.296 L66.193 450.561 L65.695 439.605 L65.6778 439.226 L65.6276 438.85 L63.664 424.121 L63.664 424.121 Z " />
<glyph glyph-name="bar" unicode="&#x7c;" horiz-adv-x="227" d="M72 -268.704 L63.296 -268.704 L63.296 -260 L63.296 760 L63.296 768.704 L72 768.704 L128 768.704 L136.704 768.704 L136.704 760 L136.704 -260 L136.704 -268.704 L128 -268.704 L72 -268.704 L72 -268.704 Z M80.704 -251.296 L119.296 -251.296 L119.296 751.296 L80.704 751.296 L80.704 -251.296 L80.704 -251.296 Z " />
<glyph glyph-name="exclamdown" unicode="&#xa1;" horiz-adv-x="257" d="M131 468.704 C179.605 468.704 206.704 441.605 206.704 393 C206.704 344.395 179.605 317.296 131 317.296 C82.3947 317.296 55.296 344.395 55.296 393 C55.296 441.605 82.3947 468.704 131 468.704 L131 468.704 Z M131 451.296 C89.6053 451.296 72.704 434.395 72.704 393 C72.704 351.605 89.6053 334.704 131 334.704 C172.395 334.704 189.296 351.605 189.296 393 C189.296 434.395 172.395 451.296 131 451.296 L131 451.296 Z M70 -218.704 L60.2894 -218.704 L61.3479 -209.051 L111.348 246.949 L112.198 254.704 L120 254.704 L143 254.704 L150.802 254.704 L151.652 246.949 L201.652 -209.051 L202.711 -218.704 L193 -218.704 L70 -218.704 L70 -218.704 Z M79.711 -201.296 L183.289 -201.296 L135.198 237.296 L127.802 237.296 L79.711 -201.296 L79.711 -201.296 Z " />
<glyph glyph-name="guillemotleft" unicode="&#xab;" horiz-adv-x="431" d="M393.232 431.518 L395.702 433.704 L399 433.704 L411 433.704 L425.988 433.704 L418.56 420.686 L320.014 247.988 L418.57 74.2955 L425.946 61.296 L411 61.296 L399 61.296 L395.688 61.296 L393.213 63.4981 L193.213 241.498 L185.887 248.018 L193.232 254.518 L393.232 431.518 L393.232 431.518 Z M389.599 405.057 L212.113 247.982 L389.668 89.957 L302.43 243.705 L299.986 248.012 L302.44 252.314 L389.599 405.057 L389.599 405.057 Z M208.232 431.518 L210.702 433.704 L214 433.704 L227 433.704 L241.988 433.704 L234.56 420.686 L136.014 247.988 L234.57 74.2955 L241.946 61.296 L227 61.296 L214 61.296 L210.688 61.296 L208.213 63.4981 L8.21334 241.498 L0.887275 248.018 L8.23155 254.518 L208.232 431.518 L208.232 431.518 Z M206.619 406.845 L27.113 247.982 L206.689 88.159 L118.43 243.705 L115.986 248.012 L118.44 252.314 L206.619 406.845 L206.619 406.845 Z " />
<glyph glyph-name="periodcentered" unicode="&#xb7;" horiz-adv-x="263" d="M132 201.296 C83.3947 201.296 56.296 228.395 56.296 277 C56.296 325.605 83.3947 352.704 132 352.704 C180.605 352.704 207.704 325.605 207.704 277 C207.704 228.395 180.605 201.296 132 201.296 L132 201.296 Z M132 218.704 C173.395 218.704 190.296 235.605 190.296 277 C190.296 318.395 173.395 335.296 132 335.296 C90.6053 335.296 73.704 318.395 73.704 277 C73.704 235.605 90.6053 218.704 132 218.704 L132 218.704 Z " />
<glyph glyph-name="guillemotright" unicode="&#xbb;" horiz-adv-x="435" d="M195.44 420.686 L188.012 433.704 L203 433.704 L215 433.704 L218.286 433.704 L220.752 431.532 L421.752 254.532 L429.149 248.018 L421.771 241.484 L220.771 63.4838 L218.3 61.296 L215 61.296 L203 61.296 L188.054 61.296 L195.43 74.2955 L293.986 247.988 L195.44 420.686 L195.44 420.686 Z M224.324 405.191 L311.56 252.314 L314.014 248.012 L311.57 243.705 L224.255 89.822 L402.851 247.982 L224.324 405.191 L224.324 405.191 Z M12.4402 420.686 L5.01195 433.704 L20 433.704 L32 433.704 L35.2861 433.704 L37.7523 431.532 L238.752 254.532 L246.149 248.018 L238.771 241.484 L37.7705 63.4838 L35.3 61.296 L32 61.296 L20 61.296 L5.05365 61.296 L12.4298 74.2955 L110.986 247.988 L12.4402 420.686 L12.4402 420.686 Z M41.324 405.191 L128.56 252.314 L131.014 248.012 L128.57 243.705 L41.255 89.822 L219.851 247.982 L41.324 405.191 L41.324 405.191 Z " />
<glyph glyph-name="questiondown" unicode="&#xbf;" horiz-adv-x="480" d="M263 463.704 C312.54 463.704 339.713 436.597 338.706 388 C339.712 339.403 312.54 312.296 263 312.296 C214.276 312.296 188.296 339.513 188.296 388 C188.296 436.487 214.276 463.704 263 463.704 L263 463.704 Z M263 446.296 C221.724 446.296 205.704 429.513 205.704 388 C205.704 346.487 221.724 329.704 263 329.704 C305.395 329.704 322.216 346.525 321.298 387.807 L321.294 388 L321.298 388.193 C322.216 429.475 305.395 446.296 263 446.296 L263 446.296 Z M312.526 106.753 L314.04 99.3894 L306.975 96.82 C209.696 61.4461 166.704 20.2834 166.704 -35 C166.704 -123.96 197.198 -162.296 267 -162.296 C313.596 -162.296 334.296 -134.144 334.296 -68 L334.296 -24 L334.296 -20.893 L336.263 -18.4883 L345.263 -7.4883 L347.875 -4.296 L352 -4.296 L398 -4.296 C430.605 -4.296 449.704 -23.3947 449.704 -57 C449.704 -171.252 375.991 -228.704 233 -228.704 C109.308 -228.704 46.296 -163.519 46.296 -35 C46.296 61.9982 109.186 137.407 236.015 190.129 L243.368 247.114 L244.347 254.704 L252 254.704 L275 254.704 L282.096 254.704 L283.526 247.753 L312.526 106.753 L312.526 106.753 Z M293.97 110.563 L267.904 237.296 L259.653 237.296 L252.632 182.886 L251.982 177.848 L247.276 175.936 C121.258 124.741 63.704 56.8086 63.704 -35 C63.704 -156.481 116.692 -211.296 233 -211.296 C370.009 -211.296 432.296 -162.748 432.296 -57 C432.296 -30.6053 423.395 -21.704 398 -21.704 L356.125 -21.704 L351.704 -27.107 L351.704 -68 C351.704 -139.856 322.404 -179.704 267 -179.704 C188.802 -179.704 149.296 -130.04 149.296 -35 C149.296 26.2349 197.922 74.238 293.97 110.563 L293.97 110.563 Z " />
<glyph glyph-name="Agrave" unicode="&#xc0;" horiz-adv-x="750" d="M380.636 709.178 L387.684 696.296 L373 696.296 L360 696.296 L357.105 696.296 L354.786 698.03 L223.832 795.996 C200.148 813.241 188.296 836.964 188.296 864 L188.296 872.704 L197 872.704 L286 872.704 L291.159 872.704 L293.636 868.178 L380.636 709.178 L380.636 709.178 Z M355.142 719.504 L280.841 855.296 L206.134 855.296 C208.049 836.81 216.499 822.854 234.119 810.039 L234.167 810.005 L234.214 809.97 L355.142 719.504 L355.142 719.504 Z M630.382 119.927 L630.848 119.461 L631.509 117.908 C650.848 72.4607 672.283 49.1896 701.294 43.614 L709.961 42.6508 L717.704 41.7905 L717.704 34 L717.704 14 L717.704 -1 L717.704 -9.704 L709 -9.704 L671 -9.704 L619 -9.704 L566 -9.704 L458 -9.704 L449.296 -9.704 L449.296 -1 L449.296 14 L449.296 38 L449.296 45.7905 L457.039 46.6508 L474.916 48.637 C513.889 54.1031 524.33 69.3223 512.821 105.003 L483.154 177.318 L230.869 178.274 L204.13 111.888 C189.602 71.8324 199.522 54.0304 240.036 47.648 L251.723 46.6739 L259.704 46.0088 L259.704 38 L259.704 14 L259.704 -1 L259.704 -9.704 L251 -9.704 L151 -9.704 L113 -9.704 L75 -9.704 L38 -9.704 L29.296 -9.704 L29.296 -1 L29.296 10 L29.296 26 L29.296 33.6837 L36.9204 34.6368 L44.687 35.608 C69.7593 40.1793 88.6725 59.9955 106.987 101.401 L312.938 607.282 L312.942 607.291 L312.946 607.301 L337.946 668.301 L340.161 673.704 L346 673.704 L396 673.704 L401.853 673.704 L404.061 668.284 L415.045 641.323 L415.061 641.284 L630.382 119.927 L630.382 119.927 Z M616.161 109.53 L615.618 110.073 L614.955 111.677 L398.955 634.677 L398.947 634.697 L398.939 634.716 L390.147 656.296 L351.839 656.296 L329.062 600.718 L329.054 600.699 L123.062 94.718 L123.013 94.5994 L122.961 94.4822 C103.345 50.0863 78.3264 23.9309 47.5301 18.4315 L47.3057 18.3915 L47.0796 18.3632 L46.704 18.316 L46.704 10 L46.704 7.704 L75 7.704 L113 7.704 L151 7.704 L242.296 7.704 L242.296 14 L242.296 29.991 L238.277 30.3261 L237.968 30.3518 L237.662 30.3994 C188.476 38.0506 170.457 70.2267 187.82 117.975 L187.871 118.114 L187.926 118.252 L216.926 190.252 L219.131 195.726 L225.033 195.704 L489.033 194.704 L494.846 194.682 L497.053 189.304 L529.053 111.304 L529.177 111.001 L529.278 110.69 C543.598 66.6269 524.02 37.9122 477.203 31.3795 L477.082 31.3627 L476.961 31.3492 L466.704 30.21 L466.704 14 L466.704 7.704 L566 7.704 L619 7.704 L671 7.704 L700.296 7.704 L700.296 14 L700.296 26.21 L699.039 26.3492 L698.716 26.3851 L698.396 26.4451 C663.941 32.9054 636.678 62.0616 616.161 109.53 L616.161 109.53 Z M452.073 256.704 L355.15 495.488 L261.751 256.704 L452.073 256.704 L452.073 256.704 Z M473.065 251.274 L477.927 239.296 L465 239.296 L249 239.296 L236.249 239.296 L240.894 251.171 L346.894 522.171 L354.85 542.512 L363.065 522.274 L473.065 251.274 L473.065 251.274 Z " />
<glyph glyph-name="Aacute" unicode="&#xc1;" horiz-adv-x="750" d="M366 696.296 L351.316 696.296 L358.364 709.178 L445.364 868.178 L447.841 872.704 L453 872.704 L543 872.704 L551.704 872.704 L551.704 864 C551.704 836.964 539.852 813.241 516.168 795.996 L385.214 698.03 L382.895 696.296 L380 696.296 L366 696.296 L366 696.296 Z M383.165 718.238 L505.786 809.97 L505.833 810.005 L505.881 810.039 C523.501 822.854 531.951 836.81 533.866 855.296 L458.159 855.296 L383.165 718.238 L383.165 718.238 Z M630.382 119.927 L630.848 119.461 L631.509 117.908 C650.848 72.4607 672.283 49.1896 701.294 43.614 L709.961 42.6508 L717.704 41.7905 L717.704 34 L717.704 14 L717.704 -1 L717.704 -9.704 L709 -9.704 L671 -9.704 L619 -9.704 L566 -9.704 L458 -9.704 L449.296 -9.704 L449.296 -1 L449.296 14 L449.296 38 L449.296 45.7905 L457.039 46.6508 L474.916 48.637 C513.889 54.1031 524.33 69.3223 512.821 105.003 L483.154 177.318 L230.869 178.274 L204.13 111.888 C189.602 71.8324 199.522 54.0304 240.036 47.648 L251.723 46.6739 L259.704 46.0088 L259.704 38 L259.704 14 L259.704 -1 L259.704 -9.704 L251 -9.704 L151 -9.704 L113 -9.704 L75 -9.704 L38 -9.704 L29.296 -9.704 L29.296 -1 L29.296 10 L29.296 26 L29.296 33.6837 L36.9204 34.6368 L44.687 35.608 C69.7593 40.1793 88.6725 59.9955 106.987 101.401 L312.938 607.282 L312.942 607.291 L312.946 607.301 L337.946 668.301 L340.161 673.704 L346 673.704 L396 673.704 L401.853 673.704 L404.061 668.284 L415.045 641.323 L415.061 641.284 L630.382 119.927 L630.382 119.927 Z M616.161 109.53 L615.618 110.073 L614.955 111.677 L398.955 634.677 L398.947 634.697 L398.939 634.716 L390.147 656.296 L351.839 656.296 L329.062 600.718 L329.054 600.699 L123.062 94.718 L123.013 94.5994 L122.961 94.4822 C103.345 50.0863 78.3264 23.9309 47.5301 18.4315 L47.3057 18.3915 L47.0796 18.3632 L46.704 18.316 L46.704 10 L46.704 7.704 L75 7.704 L113 7.704 L151 7.704 L242.296 7.704 L242.296 14 L242.296 29.991 L238.277 30.3261 L237.968 30.3518 L237.662 30.3994 C188.476 38.0506 170.457 70.2267 187.82 117.975 L187.871 118.114 L187.926 118.252 L216.926 190.252 L219.131 195.726 L225.033 195.704 L489.033 194.704 L494.846 194.682 L497.053 189.304 L529.053 111.304 L529.177 111.001 L529.278 110.69 C543.598 66.6269 524.02 37.9122 477.203 31.3795 L477.082 31.3627 L476.961 31.3492 L466.704 30.21 L466.704 14 L466.704 7.704 L566 7.704 L619 7.704 L671 7.704 L700.296 7.704 L700.296 14 L700.296 26.21 L699.039 26.3492 L698.716 26.3851 L698.396 26.4451 C663.941 32.9054 636.678 62.0616 616.161 109.53 L616.161 109.53 Z M452.073 256.704 L355.15 495.488 L261.751 256.704 L452.073 256.704 L452.073 256.704 Z M473.065 251.274 L477.927 239.296 L465 239.296 L249 239.296 L236.249 239.296 L240.894 251.171 L346.894 522.171 L354.85 542.512 L363.065 522.274 L473.065 251.274 L473.065 251.274 Z " />
<glyph glyph-name="Acircumflex" unicode="&#xc2;" horiz-adv-x="750" d="M528.6 710.675 L540.964 696.296 L522 696.296 L509 696.296 L506.63 696.296 L504.587 697.498 L373.05 774.873 L244.486 697.541 L242.416 696.296 L240 696.296 L226 696.296 L207.401 696.296 L219.317 710.576 L350.317 867.576 L352.927 870.704 L357 870.704 L387 870.704 L390.995 870.704 L393.6 867.675 L528.6 710.675 L528.6 710.675 Z M494.506 723.624 L383.005 853.296 L361.073 853.296 L251.666 722.175 L368.514 792.459 L372.95 795.127 L377.413 792.502 L494.506 723.624 L494.506 723.624 Z M630.382 119.927 L630.848 119.461 L631.509 117.908 C650.848 72.4607 672.283 49.1896 701.294 43.614 L709.961 42.6508 L717.704 41.7905 L717.704 34 L717.704 14 L717.704 -1 L717.704 -9.704 L709 -9.704 L671 -9.704 L619 -9.704 L566 -9.704 L458 -9.704 L449.296 -9.704 L449.296 -1 L449.296 14 L449.296 38 L449.296 45.7905 L457.039 46.6508 L474.916 48.637 C513.889 54.1031 524.33 69.3223 512.821 105.003 L483.154 177.318 L230.869 178.274 L204.13 111.888 C189.602 71.8324 199.522 54.0304 240.036 47.648 L251.723 46.6739 L259.704 46.0088 L259.704 38 L259.704 14 L259.704 -1 L259.704 -9.704 L251 -9.704 L151 -9.704 L113 -9.704 L75 -9.704 L38 -9.704 L29.296 -9.704 L29.296 -1 L29.296 10 L29.296 26 L29.296 33.6837 L36.9204 34.6368 L44.687 35.608 C69.7593 40.1793 88.6725 59.9955 106.987 101.401 L312.938 607.282 L312.942 607.291 L312.946 607.301 L337.946 668.301 L340.161 673.704 L346 673.704 L396 673.704 L401.853 673.704 L404.061 668.284 L415.045 641.323 L415.061 641.284 L630.382 119.927 L630.382 119.927 Z M616.161 109.53 L615.618 110.073 L614.955 111.677 L398.955 634.677 L398.947 634.697 L398.939 634.716 L390.147 656.296 L351.839 656.296 L329.062 600.718 L329.054 600.699 L123.062 94.718 L123.013 94.5994 L122.961 94.4822 C103.345 50.0863 78.3264 23.9309 47.5301 18.4315 L47.3057 18.3915 L47.0796 18.3632 L46.704 18.316 L46.704 10 L46.704 7.704 L75 7.704 L113 7.704 L151 7.704 L242.296 7.704 L242.296 14 L242.296 29.991 L238.277 30.3261 L237.968 30.3518 L237.662 30.3994 C188.476 38.0506 170.457 70.2267 187.82 117.975 L187.871 118.114 L187.926 118.252 L216.926 190.252 L219.131 195.726 L225.033 195.704 L489.033 194.704 L494.846 194.682 L497.053 189.304 L529.053 111.304 L529.177 111.001 L529.278 110.69 C543.598 66.6269 524.02 37.9122 477.203 31.3795 L477.082 31.3627 L476.961 31.3492 L466.704 30.21 L466.704 14 L466.704 7.704 L566 7.704 L619 7.704 L671 7.704 L700.296 7.704 L700.296 14 L700.296 26.21 L699.039 26.3492 L698.716 26.3851 L698.396 26.4451 C663.941 32.9054 636.678 62.0616 616.161 109.53 L616.161 109.53 Z M452.073 256.704 L355.15 495.488 L261.751 256.704 L452.073 256.704 L452.073 256.704 Z M473.065 251.274 L477.927 239.296 L465 239.296 L249 239.296 L236.249 239.296 L240.894 251.171 L346.894 522.171 L354.85 542.512 L363.065 522.274 L473.065 251.274 L473.065 251.274 Z " />
<glyph glyph-name="Atilde" unicode="&#xc3;" horiz-adv-x="750" d="M247.235 724.183 L245.222 718.296 L239 718.296 L224 718.296 L211.573 718.296 L215.82 729.975 C243.768 806.831 257.673 849.704 320 849.704 C382.637 849.704 408.637 791.704 460 791.704 C487.931 791.704 492.833 805.009 506.833 843.009 L508.931 848.704 L515 848.704 L529 848.704 L541.372 848.704 L537.192 837.059 C509.238 759.186 495.327 716.296 434 716.296 C371.404 716.296 345.404 773.296 293 773.296 C264.158 773.296 260.222 762.143 247.235 724.183 L247.235 724.183 Z M251.033 774.171 C259.84 784.863 272.19 790.704 293 790.704 C356.596 790.704 382.596 733.704 434 733.704 C470.26 733.704 485.107 750.969 501.917 792.078 C492.833 780.728 480.45 774.296 460 774.296 C397.363 774.296 371.363 832.296 320 832.296 C282.952 832.296 267.92 814.98 251.033 774.171 L251.033 774.171 Z M630.382 119.927 L630.848 119.461 L631.509 117.908 C650.848 72.4607 672.283 49.1896 701.294 43.614 L709.961 42.6508 L717.704 41.7905 L717.704 34 L717.704 14 L717.704 -1 L717.704 -9.704 L709 -9.704 L671 -9.704 L619 -9.704 L566 -9.704 L458 -9.704 L449.296 -9.704 L449.296 -1 L449.296 14 L449.296 38 L449.296 45.7905 L457.039 46.6508 L474.916 48.637 C513.889 54.1031 524.33 69.3223 512.821 105.003 L483.154 177.318 L230.869 178.274 L204.13 111.888 C189.602 71.8324 199.522 54.0304 240.036 47.648 L251.723 46.6739 L259.704 46.0088 L259.704 38 L259.704 14 L259.704 -1 L259.704 -9.704 L251 -9.704 L151 -9.704 L113 -9.704 L75 -9.704 L38 -9.704 L29.296 -9.704 L29.296 -1 L29.296 10 L29.296 26 L29.296 33.6837 L36.9204 34.6368 L44.687 35.608 C69.7593 40.1793 88.6725 59.9955 106.987 101.401 L312.938 607.282 L312.942 607.291 L312.946 607.301 L337.946 668.301 L340.161 673.704 L346 673.704 L396 673.704 L401.853 673.704 L404.061 668.284 L415.045 641.323 L415.061 641.284 L630.382 119.927 L630.382 119.927 Z M616.161 109.53 L615.618 110.073 L614.955 111.677 L398.955 634.677 L398.947 634.697 L398.939 634.716 L390.147 656.296 L351.839 656.296 L329.062 600.718 L329.054 600.699 L123.062 94.718 L123.013 94.5994 L122.961 94.4822 C103.345 50.0863 78.3264 23.9309 47.5301 18.4315 L47.3057 18.3915 L47.0796 18.3632 L46.704 18.316 L46.704 10 L46.704 7.704 L75 7.704 L113 7.704 L151 7.704 L242.296 7.704 L242.296 14 L242.296 29.991 L238.277 30.3261 L237.968 30.3518 L237.662 30.3994 C188.476 38.0506 170.457 70.2267 187.82 117.975 L187.871 118.114 L187.926 118.252 L216.926 190.252 L219.131 195.726 L225.033 195.704 L489.033 194.704 L494.846 194.682 L497.053 189.304 L529.053 111.304 L529.177 111.001 L529.278 110.69 C543.598 66.6269 524.02 37.9122 477.203 31.3795 L477.082 31.3627 L476.961 31.3492 L466.704 30.21 L466.704 14 L466.704 7.704 L566 7.704 L619 7.704 L671 7.704 L700.296 7.704 L700.296 14 L700.296 26.21 L699.039 26.3492 L698.716 26.3851 L698.396 26.4451 C663.941 32.9054 636.678 62.0616 616.161 109.53 L616.161 109.53 Z M452.073 256.704 L355.15 495.488 L261.751 256.704 L452.073 256.704 L452.073 256.704 Z M473.065 251.274 L477.927 239.296 L465 239.296 L249 239.296 L236.249 239.296 L240.894 251.171 L346.894 522.171 L354.85 542.512 L363.065 522.274 L473.065 251.274 L473.065 251.274 Z " />
<glyph glyph-name="Adieresis" unicode="&#xc4;" horiz-adv-x="750" d="M466 726.296 C425.395 726.296 402.296 749.395 402.296 791 C402.296 832.605 425.395 855.704 466 855.704 C507.605 855.704 530.704 832.605 530.704 791 C530.704 749.395 507.605 726.296 466 726.296 L466 726.296 Z M466 743.704 C500.395 743.704 513.296 756.605 513.296 791 C513.296 825.395 500.395 838.296 466 838.296 C432.605 838.296 419.704 825.395 419.704 791 C419.704 756.605 432.605 743.704 466 743.704 L466 743.704 Z M277 726.296 C235.395 726.296 212.296 749.395 212.296 791 C212.296 832.605 235.395 855.704 277 855.704 C318.605 855.704 341.704 832.605 341.704 791 C341.704 749.395 318.605 726.296 277 726.296 L277 726.296 Z M277 743.704 C311.395 743.704 324.296 756.605 324.296 791 C324.296 825.395 311.395 838.296 277 838.296 C242.605 838.296 229.704 825.395 229.704 791 C229.704 756.605 242.605 743.704 277 743.704 L277 743.704 Z M630.382 119.927 L630.848 119.461 L631.509 117.908 C650.848 72.4607 672.283 49.1896 701.294 43.614 L709.961 42.6508 L717.704 41.7905 L717.704 34 L717.704 14 L717.704 -1 L717.704 -9.704 L709 -9.704 L671 -9.704 L619 -9.704 L566 -9.704 L458 -9.704 L449.296 -9.704 L449.296 -1 L449.296 14 L449.296 38 L449.296 45.7905 L457.039 46.6508 L474.916 48.637 C513.889 54.1031 524.33 69.3223 512.821 105.003 L483.154 177.318 L230.869 178.274 L204.13 111.888 C189.602 71.8324 199.522 54.0304 240.036 47.648 L251.723 46.6739 L259.704 46.0088 L259.704 38 L259.704 14 L259.704 -1 L259.704 -9.704 L251 -9.704 L151 -9.704 L113 -9.704 L75 -9.704 L38 -9.704 L29.296 -9.704 L29.296 -1 L29.296 10 L29.296 26 L29.296 33.6837 L36.9204 34.6368 L44.687 35.608 C69.7593 40.1793 88.6725 59.9955 106.987 101.401 L312.938 607.282 L312.942 607.291 L312.946 607.301 L337.946 668.301 L340.161 673.704 L346 673.704 L396 673.704 L401.853 673.704 L404.061 668.284 L415.045 641.323 L415.061 641.284 L630.382 119.927 L630.382 119.927 Z M616.161 109.53 L615.618 110.073 L614.955 111.677 L398.955 634.677 L398.947 634.697 L398.939 634.716 L390.147 656.296 L351.839 656.296 L329.062 600.718 L329.054 600.699 L123.062 94.718 L123.013 94.5994 L122.961 94.4822 C103.345 50.0863 78.3264 23.9309 47.5301 18.4315 L47.3057 18.3915 L47.0796 18.3632 L46.704 18.316 L46.704 10 L46.704 7.704 L75 7.704 L113 7.704 L151 7.704 L242.296 7.704 L242.296 14 L242.296 29.991 L238.277 30.3261 L237.968 30.3518 L237.662 30.3994 C188.476 38.0506 170.457 70.2267 187.82 117.975 L187.871 118.114 L187.926 118.252 L216.926 190.252 L219.131 195.726 L225.033 195.704 L489.033 194.704 L494.846 194.682 L497.053 189.304 L529.053 111.304 L529.177 111.001 L529.278 110.69 C543.598 66.6269 524.02 37.9122 477.203 31.3795 L477.082 31.3627 L476.961 31.3492 L466.704 30.21 L466.704 14 L466.704 7.704 L566 7.704 L619 7.704 L671 7.704 L700.296 7.704 L700.296 14 L700.296 26.21 L699.039 26.3492 L698.716 26.3851 L698.396 26.4451 C663.941 32.9054 636.678 62.0616 616.161 109.53 L616.161 109.53 Z M452.073 256.704 L355.15 495.488 L261.751 256.704 L452.073 256.704 L452.073 256.704 Z M473.065 251.274 L477.927 239.296 L465 239.296 L249 239.296 L236.249 239.296 L240.894 251.171 L346.894 522.171 L354.85 542.512 L363.065 522.274 L473.065 251.274 L473.065 251.274 Z " />
<glyph glyph-name="Aring" unicode="&#xc5;" horiz-adv-x="750" d="M276.296 795 C276.296 855.698 309.487 887.704 372 887.704 C434.513 887.704 467.704 855.698 467.704 797 C467.704 740.395 428.605 701.296 372 701.296 C315.471 701.296 276.296 739.318 276.296 795 L276.296 795 Z M293.704 795 C293.704 746.682 322.529 718.704 372 718.704 C421.395 718.704 450.296 747.605 450.296 797 C450.296 848.302 427.487 870.296 372 870.296 C316.513 870.296 293.704 848.302 293.704 795 L293.704 795 Z M376 744.704 C387.854 744.704 395.296 758.236 395.296 788 C395.296 828.858 387.733 843.296 369 843.296 C354.824 843.296 348.704 833.504 348.704 803 C348.704 764.194 359.199 744.704 376 744.704 L376 744.704 Z M376 727.296 C348.801 727.296 331.296 759.806 331.296 803 C331.296 838.496 345.176 860.704 369 860.704 C398.267 860.704 412.704 833.142 412.704 788 C412.704 753.764 398.146 727.296 376 727.296 L376 727.296 Z M630.382 119.927 L630.848 119.461 L631.509 117.908 C650.848 72.4607 672.283 49.1896 701.294 43.614 L709.961 42.6508 L717.704 41.7905 L717.704 34 L717.704 14 L717.704 -1 L717.704 -9.704 L709 -9.704 L671 -9.704 L619 -9.704 L566 -9.704 L458 -9.704 L449.296 -9.704 L449.296 -1 L449.296 14 L449.296 38 L449.296 45.7905 L457.039 46.6508 L474.916 48.637 C513.889 54.1031 524.33 69.3223 512.821 105.003 L483.154 177.318 L230.869 178.274 L204.13 111.888 C189.602 71.8324 199.522 54.0304 240.036 47.648 L251.723 46.6739 L259.704 46.0088 L259.704 38 L259.704 14 L259.704 -1 L259.704 -9.704 L251 -9.704 L151 -9.704 L113 -9.704 L75 -9.704 L38 -9.704 L29.296 -9.704 L29.296 -1 L29.296 10 L29.296 26 L29.296 33.6837 L36.9204 34.6368 L44.687 35.608 C69.7593 40.1793 88.6725 59.9955 106.987 101.401 L312.938 607.282 L312.942 607.291 L312.946 607.301 L337.946 668.301 L340.161 673.704 L346 673.704 L396 673.704 L401.853 673.704 L404.061 668.284 L415.045 641.323 L415.061 641.284 L630.382 119.927 L630.382 119.927 Z M616.161 109.53 L615.618 110.073 L614.955 111.677 L398.955 634.677 L398.947 634.697 L398.939 634.716 L390.147 656.296 L351.839 656.296 L329.062 600.718 L329.054 600.699 L123.062 94.718 L123.013 94.5994 L122.961 94.4822 C103.345 50.0863 78.3264 23.9309 47.5301 18.4315 L47.3057 18.3915 L47.0796 18.3632 L46.704 18.316 L46.704 10 L46.704 7.704 L75 7.704 L113 7.704 L151 7.704 L242.296 7.704 L242.296 14 L242.296 29.991 L238.277 30.3261 L237.968 30.3518 L237.662 30.3994 C188.476 38.0506 170.457 70.2267 187.82 117.975 L187.871 118.114 L187.926 118.252 L216.926 190.252 L219.131 195.726 L225.033 195.704 L489.033 194.704 L494.846 194.682 L497.053 189.304 L529.053 111.304 L529.177 111.001 L529.278 110.69 C543.598 66.6269 524.02 37.9122 477.203 31.3795 L477.082 31.3627 L476.961 31.3492 L466.704 30.21 L466.704 14 L466.704 7.704 L566 7.704 L619 7.704 L671 7.704 L700.296 7.704 L700.296 14 L700.296 26.21 L699.039 26.3492 L698.716 26.3851 L698.396 26.4451 C663.941 32.9054 636.678 62.0616 616.161 109.53 L616.161 109.53 Z M452.073 256.704 L355.15 495.488 L261.751 256.704 L452.073 256.704 L452.073 256.704 Z M473.065 251.274 L477.927 239.296 L465 239.296 L249 239.296 L236.249 239.296 L240.894 251.171 L346.894 522.171 L354.85 542.512 L363.065 522.274 L473.065 251.274 L473.065 251.274 Z " />
<glyph glyph-name="Ccedilla" unicode="&#xc7;" horiz-adv-x="718" d="M411.635 -68.394 C466.699 -83.9585 495.704 -114.192 495.704 -159 C495.704 -216.886 461.331 -247.704 398 -247.704 C365.153 -247.704 335.152 -234.37 308.096 -209.396 L305.296 -206.811 L305.296 -203 L305.296 -191 L305.296 -169.987 L320.155 -184.845 C330.378 -195.069 348.977 -199.296 382 -199.296 C404.849 -199.296 411.296 -193.923 411.296 -177 C411.296 -164.735 399.804 -157.3 364.607 -151.592 L363.407 -151.397 L362.306 -150.881 L330.306 -135.881 L322.467 -132.207 L326.099 -124.348 L375.564 -17.324 C164.932 -9.15258 60.296 99.7858 60.296 311 C60.296 557.495 177.283 679.704 413 679.704 C512.087 679.704 582.281 661.894 622.904 624.396 L625.554 621.95 L625.697 618.346 L632.697 442.346 L633.015 434.355 L625.08 433.363 C616.711 432.317 608.338 432.296 600.475 432.296 C591.192 431.296 582.863 431.296 575 431.296 L568.125 431.296 L566.533 437.984 C561.548 458.92 556.541 478.948 551.524 501.019 C539.943 549.236 520.309 576.969 488.525 592.015 C464.377 601.641 440.08 606.296 413 606.296 C254.916 606.296 181.704 523.698 181.704 344 C181.704 146.941 251.308 55.704 401 55.704 C436.07 55.704 468.318 62.3338 500.482 75.962 C535.385 92.0403 556.993 120.865 569.551 169.093 C573.557 186.116 577.627 202.387 582.692 218.596 L584.901 225.664 L592.231 224.617 C598.619 223.704 606 223.704 614 223.704 L614.619 223.704 L615.231 223.617 C621.619 222.704 629.542 222.704 638.08 221.637 L646.201 220.622 L645.687 212.454 L635.687 53.4537 L635.454 49.7566 L632.629 47.361 C586.267 8.0541 520.283 -13.7526 434.696 -18.428 L411.635 -68.394 L411.635 -68.394 Z M404.253 -84.389 L399.314 -95.0904 L391.215 -78.8925 L390.715 -77.8925 L382.424 -61.3112 L394.438 -64.114 L421.097 -6.35252 L423.314 -1.54821 L428.6 -1.30519 C512.642 2.5588 574.075 21.9203 618.549 58.289 L627.782 205.095 C622.991 205.419 618.112 205.661 613.399 206.296 C608.113 206.296 602.576 206.309 597.253 206.643 C593.259 193.13 589.889 179.525 586.473 165.006 L586.449 164.908 L586.424 164.81 C572.992 113.15 546.639 78.0122 507.634 60.0909 L507.517 60.0373 L507.399 59.9873 C473.603 45.6493 437.887 38.296 401 38.296 C242.692 38.296 164.296 141.059 164.296 344 C164.296 530.302 247.084 623.704 413 623.704 C441.829 623.704 469.46 618.39 495.233 608.081 L495.472 607.986 L495.706 607.876 C531.775 590.902 556.071 556.666 568.464 505.031 L568.476 504.98 L568.488 504.929 C572.935 485.36 577.39 467.349 581.862 448.727 C587.436 448.783 592.984 448.978 599.039 449.651 L599.518 449.704 L600 449.704 C605.168 449.704 610.11 449.704 614.973 449.955 L608.449 613.979 C570.737 646.85 507.662 662.296 413 662.296 C184.717 662.296 77.704 550.505 77.704 311 C77.704 102.605 176.672 3.6375 389.161 -0.297492 L402.497 -0.544447 L396.901 -12.6517 L345.533 -123.793 L368.605 -134.608 C406.664 -141.006 428.704 -155.492 428.704 -177 C428.704 -202.077 411.151 -216.704 382 -216.704 C366.164 -216.704 352.29 -215.521 340.57 -212.947 C358.556 -224.726 376.932 -230.296 398 -230.296 C454.669 -230.296 478.296 -209.114 478.296 -159 C478.296 -120.591 456.384 -98.0694 404.253 -84.389 L404.253 -84.389 Z " />
<glyph glyph-name="Egrave" unicode="&#xc8;" horiz-adv-x="651" d="M349.636 709.178 L356.684 696.296 L342 696.296 L329 696.296 L326.105 696.296 L323.786 698.03 L192.832 795.996 C169.148 813.241 157.296 836.964 157.296 864 L157.296 872.704 L166 872.704 L255 872.704 L260.159 872.704 L262.636 868.178 L349.636 709.178 L349.636 709.178 Z M324.142 719.504 L249.841 855.296 L175.134 855.296 C177.049 836.81 185.499 822.854 203.119 810.039 L203.167 810.005 L203.214 809.97 L324.142 719.504 L324.142 719.504 Z M590.704 31 L590.704 0 L590.704 -8.704 L582 -8.704 L562 -8.704 L543 -8.704 L532 -8.704 L462 -8.704 L245 -8.704 L195 -8.704 L170 -8.704 L144 -8.704 L64 -8.704 L55.296 -8.704 L55.296 0 L55.296 17 L55.296 43 L55.296 51.0088 L63.2772 51.6739 L74.886 52.641 C117.501 60.158 135.296 81.3169 135.296 125 L135.296 535 C135.296 578.683 117.501 599.842 74.886 607.359 L63.2772 608.326 L55.296 608.991 L55.296 617 L55.296 643 L55.296 660 L55.296 668.704 L64 668.704 L144 668.704 L170 668.704 L195 668.704 L245 668.704 L437 668.704 L507 668.704 L518 668.704 L537 668.704 L557 668.704 L565.704 668.704 L565.704 660 L565.704 629 L565.704 599 L565.704 484 L565.704 475.296 L557 475.296 L541 475.296 L508 475.296 L501.167 475.296 L499.545 481.933 L488.545 526.933 L488.514 527.06 L488.487 527.189 C479.121 571.208 455.883 590.296 412 590.296 L253.704 590.296 L253.704 379.704 L337 379.704 L342.897 379.704 C382.534 380.656 402.944 399.445 410.425 440.495 L412.414 452.431 L421 451 L429.704 451 C429.704 455.407 424.993 458.704 423.958 459.013 C423.746 459.076 423.396 459.134 423.746 459.099 C424.727 459.002 426.205 458.954 428.625 458.954 C433.61 458.954 441.153 459.197 451.586 459.694 L451.793 459.704 L452 459.704 L472 459.704 L480.704 459.704 L480.704 451 L480.704 371 L480.704 340 L480.704 309 L480.704 229 L480.704 220.296 L472 220.296 L452 220.296 L421 220.296 L413.627 220.296 L412.414 227.569 L410.425 239.509 L410.414 239.569 C402.961 282.323 380.882 300.296 337 300.296 L253.704 300.296 L253.704 69.704 L436.906 69.704 C480.94 70.6653 504.069 88.8637 512.451 132.637 L512.472 132.746 L512.496 132.855 L524.496 187.855 L524.549 187.844 C525.624 191.738 529.822 194.343 531.225 194.725 C532.056 194.952 533.328 195.145 534.274 195.231 C535.911 195.38 538.368 195.454 541.25 195.454 C546.848 195.454 555.228 195.201 566.197 194.704 L582 194.704 L590.704 194.704 L590.704 186 L590.704 61 L590.704 31 L590.704 31 Z M573.296 31 L573.296 61 L573.296 177.296 L566 177.296 L565.802 177.296 L565.605 177.305 C554.671 177.802 546.618 178.046 541.25 178.046 C540.871 178.046 540.513 178.045 540.173 178.043 L529.527 129.252 C519.888 79.1287 487.055 53.359 437.185 52.298 L437.093 52.296 L437 52.296 L245 52.296 L236.296 52.296 L236.296 61 L236.296 309 L236.296 317.704 L245 317.704 L337 317.704 C387.097 317.704 419.018 291.694 427.575 242.491 L427.581 242.461 L427.586 242.431 L428.373 237.704 L452 237.704 L463.296 237.704 L463.296 309 L463.296 340 L463.296 371 L463.296 442.296 L452.207 442.296 C441.743 441.799 433.856 441.546 428.625 441.546 L428.248 441.547 L427.586 437.569 L427.575 437.506 L427.564 437.443 C419.041 390.571 389.48 363.375 343.202 362.298 L343.101 362.296 L343 362.296 L337 362.296 L245 362.296 L236.296 362.296 L236.296 371 L236.296 599 L236.296 607.704 L245 607.704 L412 607.704 C462.073 607.704 494.823 580.838 505.486 530.941 L514.833 492.704 L541 492.704 L548.296 492.704 L548.296 599 L548.296 629 L548.296 651.296 L537 651.296 L518 651.296 L507 651.296 L437 651.296 L245 651.296 L195 651.296 L170 651.296 L144 651.296 L72.704 651.296 L72.704 643 L72.704 625.009 L76.7228 624.674 L77.1093 624.642 L77.4914 624.575 C126.604 616.034 152.704 585.188 152.704 535 L152.704 125 C152.704 74.8117 126.604 43.966 77.4914 35.4247 L77.1093 35.3583 L76.7228 35.3261 L72.704 34.991 L72.704 17 L72.704 8.704 L144 8.704 L170 8.704 L195 8.704 L245 8.704 L462 8.704 L532 8.704 L543 8.704 L562 8.704 L573.296 8.704 L573.296 31 L573.296 31 Z " />
<glyph glyph-name="Eacute" unicode="&#xc9;" horiz-adv-x="651" d="M335 696.296 L320.316 696.296 L327.364 709.178 L414.364 868.178 L416.841 872.704 L422 872.704 L512 872.704 L520.704 872.704 L520.704 864 C520.704 836.764 507.739 813.192 485.275 796.077 L485.245 796.053 L485.214 796.03 L354.214 698.03 L351.895 696.296 L349 696.296 L335 696.296 L335 696.296 Z M352.165 718.238 L474.725 809.923 L474.786 809.97 C491.701 822.874 500.727 836.943 502.819 855.296 L427.159 855.296 L352.165 718.238 L352.165 718.238 Z M590.704 31 L590.704 0 L590.704 -8.704 L582 -8.704 L562 -8.704 L543 -8.704 L532 -8.704 L462 -8.704 L245 -8.704 L195 -8.704 L170 -8.704 L144 -8.704 L64 -8.704 L55.296 -8.704 L55.296 0 L55.296 17 L55.296 43 L55.296 51.0088 L63.2772 51.6739 L74.886 52.641 C117.501 60.158 135.296 81.3169 135.296 125 L135.296 535 C135.296 578.683 117.501 599.842 74.886 607.359 L63.2772 608.326 L55.296 608.991 L55.296 617 L55.296 643 L55.296 660 L55.296 668.704 L64 668.704 L144 668.704 L170 668.704 L195 668.704 L245 668.704 L437 668.704 L507 668.704 L518 668.704 L537 668.704 L557 668.704 L565.704 668.704 L565.704 660 L565.704 629 L565.704 599 L565.704 484 L565.704 475.296 L557 475.296 L541 475.296 L508 475.296 L501.167 475.296 L499.545 481.933 L488.545 526.933 L488.514 527.06 L488.487 527.189 C479.121 571.208 455.883 590.296 412 590.296 L253.704 590.296 L253.704 379.704 L337 379.704 L342.897 379.704 C382.534 380.656 402.944 399.445 410.425 440.495 L412.414 452.431 L421 451 L429.704 451 C429.704 455.407 424.993 458.704 423.958 459.013 C423.746 459.076 423.396 459.134 423.746 459.099 C424.727 459.002 426.205 458.954 428.625 458.954 C433.61 458.954 441.153 459.197 451.586 459.694 L451.793 459.704 L452 459.704 L472 459.704 L480.704 459.704 L480.704 451 L480.704 371 L480.704 340 L480.704 309 L480.704 229 L480.704 220.296 L472 220.296 L452 220.296 L421 220.296 L413.627 220.296 L412.414 227.569 L410.425 239.509 L410.414 239.569 C402.961 282.323 380.882 300.296 337 300.296 L253.704 300.296 L253.704 69.704 L436.906 69.704 C480.94 70.6653 504.069 88.8637 512.451 132.637 L512.472 132.746 L512.496 132.855 L524.496 187.855 L524.549 187.844 C525.624 191.738 529.822 194.343 531.225 194.725 C532.056 194.952 533.328 195.145 534.274 195.231 C535.911 195.38 538.368 195.454 541.25 195.454 C546.848 195.454 555.228 195.201 566.197 194.704 L582 194.704 L590.704 194.704 L590.704 186 L590.704 61 L590.704 31 L590.704 31 Z M573.296 31 L573.296 61 L573.296 177.296 L566 177.296 L565.802 177.296 L565.605 177.305 C554.671 177.802 546.618 178.046 541.25 178.046 C540.871 178.046 540.513 178.045 540.173 178.043 L529.527 129.252 C519.888 79.1287 487.055 53.359 437.185 52.298 L437.093 52.296 L437 52.296 L245 52.296 L236.296 52.296 L236.296 61 L236.296 309 L236.296 317.704 L245 317.704 L337 317.704 C387.097 317.704 419.018 291.694 427.575 242.491 L427.581 242.461 L427.586 242.431 L428.373 237.704 L452 237.704 L463.296 237.704 L463.296 309 L463.296 340 L463.296 371 L463.296 442.296 L452.207 442.296 C441.743 441.799 433.856 441.546 428.625 441.546 L428.248 441.547 L427.586 437.569 L427.575 437.506 L427.564 437.443 C419.041 390.571 389.48 363.375 343.202 362.298 L343.101 362.296 L343 362.296 L337 362.296 L245 362.296 L236.296 362.296 L236.296 371 L236.296 599 L236.296 607.704 L245 607.704 L412 607.704 C462.073 607.704 494.823 580.838 505.486 530.941 L514.833 492.704 L541 492.704 L548.296 492.704 L548.296 599 L548.296 629 L548.296 651.296 L537 651.296 L518 651.296 L507 651.296 L437 651.296 L245 651.296 L195 651.296 L170 651.296 L144 651.296 L72.704 651.296 L72.704 643 L72.704 625.009 L76.7228 624.674 L77.1093 624.642 L77.4914 624.575 C126.604 616.034 152.704 585.188 152.704 535 L152.704 125 C152.704 74.8117 126.604 43.966 77.4914 35.4247 L77.1093 35.3583 L76.7228 35.3261 L72.704 34.991 L72.704 17 L72.704 8.704 L144 8.704 L170 8.704 L195 8.704 L245 8.704 L462 8.704 L532 8.704 L543 8.704 L562 8.704 L573.296 8.704 L573.296 31 L573.296 31 Z " />
<glyph glyph-name="Ecircumflex" unicode="&#xca;" horiz-adv-x="651" d="M492.6 710.675 L504.964 696.296 L486 696.296 L473 696.296 L470.63 696.296 L468.587 697.498 L337.033 774.882 L207.462 697.527 L205.401 696.296 L203 696.296 L190 696.296 L171.401 696.296 L183.317 710.576 L314.317 867.576 L316.927 870.704 L321 870.704 L351 870.704 L354.995 870.704 L357.6 867.675 L492.6 710.675 L492.6 710.675 Z M458.506 723.624 L347.005 853.296 L325.073 853.296 L216.539 723.22 L332.538 792.473 L336.967 795.118 L341.413 792.502 L458.506 723.624 L458.506 723.624 Z M590.704 31 L590.704 0 L590.704 -8.704 L582 -8.704 L562 -8.704 L543 -8.704 L532 -8.704 L462 -8.704 L245 -8.704 L195 -8.704 L170 -8.704 L144 -8.704 L64 -8.704 L55.296 -8.704 L55.296 0 L55.296 17 L55.296 43 L55.296 51.0088 L63.2772 51.6739 L74.886 52.641 C117.501 60.158 135.296 81.3169 135.296 125 L135.296 535 C135.296 578.683 117.501 599.842 74.886 607.359 L63.2772 608.326 L55.296 608.991 L55.296 617 L55.296 643 L55.296 660 L55.296 668.704 L64 668.704 L144 668.704 L170 668.704 L195 668.704 L245 668.704 L437 668.704 L507 668.704 L518 668.704 L537 668.704 L557 668.704 L565.704 668.704 L565.704 660 L565.704 629 L565.704 599 L565.704 484 L565.704 475.296 L557 475.296 L541 475.296 L508 475.296 L501.167 475.296 L499.545 481.933 L488.545 526.933 L488.514 527.06 L488.487 527.189 C479.121 571.208 455.883 590.296 412 590.296 L253.704 590.296 L253.704 379.704 L337 379.704 L342.897 379.704 C382.534 380.656 402.944 399.445 410.425 440.495 L412.414 452.431 L421 451 L429.704 451 C429.704 455.407 424.993 458.704 423.958 459.013 C423.746 459.076 423.396 459.134 423.746 459.099 C424.727 459.002 426.205 458.954 428.625 458.954 C433.61 458.954 441.153 459.197 451.586 459.694 L451.793 459.704 L452 459.704 L472 459.704 L480.704 459.704 L480.704 451 L480.704 371 L480.704 340 L480.704 309 L480.704 229 L480.704 220.296 L472 220.296 L452 220.296 L421 220.296 L413.627 220.296 L412.414 227.569 L410.425 239.509 L410.414 239.569 C402.961 282.323 380.882 300.296 337 300.296 L253.704 300.296 L253.704 69.704 L436.906 69.704 C480.94 70.6653 504.069 88.8637 512.451 132.637 L512.472 132.746 L512.496 132.855 L524.496 187.855 L524.549 187.844 C525.624 191.738 529.822 194.343 531.225 194.725 C532.056 194.952 533.328 195.145 534.274 195.231 C535.911 195.38 538.368 195.454 541.25 195.454 C546.848 195.454 555.228 195.201 566.197 194.704 L582 194.704 L590.704 194.704 L590.704 186 L590.704 61 L590.704 31 L590.704 31 Z M573.296 31 L573.296 61 L573.296 177.296 L566 177.296 L565.802 177.296 L565.605 177.305 C554.671 177.802 546.618 178.046 541.25 178.046 C540.871 178.046 540.513 178.045 540.173 178.043 L529.527 129.252 C519.888 79.1287 487.055 53.359 437.185 52.298 L437.093 52.296 L437 52.296 L245 52.296 L236.296 52.296 L236.296 61 L236.296 309 L236.296 317.704 L245 317.704 L337 317.704 C387.097 317.704 419.018 291.694 427.575 242.491 L427.581 242.461 L427.586 242.431 L428.373 237.704 L452 237.704 L463.296 237.704 L463.296 309 L463.296 340 L463.296 371 L463.296 442.296 L452.207 442.296 C441.743 441.799 433.856 441.546 428.625 441.546 L428.248 441.547 L427.586 437.569 L427.575 437.506 L427.564 437.443 C419.041 390.571 389.48 363.375 343.202 362.298 L343.101 362.296 L343 362.296 L337 362.296 L245 362.296 L236.296 362.296 L236.296 371 L236.296 599 L236.296 607.704 L245 607.704 L412 607.704 C462.073 607.704 494.823 580.838 505.486 530.941 L514.833 492.704 L541 492.704 L548.296 492.704 L548.296 599 L548.296 629 L548.296 651.296 L537 651.296 L518 651.296 L507 651.296 L437 651.296 L245 651.296 L195 651.296 L170 651.296 L144 651.296 L72.704 651.296 L72.704 643 L72.704 625.009 L76.7228 624.674 L77.1093 624.642 L77.4914 624.575 C126.604 616.034 152.704 585.188 152.704 535 L152.704 125 C152.704 74.8117 126.604 43.966 77.4914 35.4247 L77.1093 35.3583 L76.7228 35.3261 L72.704 34.991 L72.704 17 L72.704 8.704 L144 8.704 L170 8.704 L195 8.704 L245 8.704 L462 8.704 L532 8.704 L543 8.704 L562 8.704 L573.296 8.704 L573.296 31 L573.296 31 Z " />
<glyph glyph-name="Edieresis" unicode="&#xcb;" horiz-adv-x="651" d="M430 726.296 C388.395 726.296 365.296 749.395 365.296 791 C365.296 832.605 388.395 855.704 430 855.704 C471.605 855.704 494.704 832.605 494.704 791 C494.704 749.395 471.605 726.296 430 726.296 L430 726.296 Z M430 743.704 C464.395 743.704 477.296 756.605 477.296 791 C477.296 825.395 464.395 838.296 430 838.296 C395.605 838.296 382.704 825.395 382.704 791 C382.704 756.605 395.605 743.704 430 743.704 L430 743.704 Z M241 726.296 C199.395 726.296 176.296 749.395 176.296 791 C176.296 832.605 199.395 855.704 241 855.704 C282.605 855.704 305.704 832.605 305.704 791 C305.704 749.395 282.605 726.296 241 726.296 L241 726.296 Z M241 743.704 C275.395 743.704 288.296 756.605 288.296 791 C288.296 825.395 275.395 838.296 241 838.296 C206.605 838.296 193.704 825.395 193.704 791 C193.704 756.605 206.605 743.704 241 743.704 L241 743.704 Z M590.704 31 L590.704 0 L590.704 -8.704 L582 -8.704 L562 -8.704 L543 -8.704 L532 -8.704 L462 -8.704 L245 -8.704 L195 -8.704 L170 -8.704 L144 -8.704 L64 -8.704 L55.296 -8.704 L55.296 0 L55.296 17 L55.296 43 L55.296 51.0088 L63.2772 51.6739 L74.886 52.641 C117.501 60.158 135.296 81.3169 135.296 125 L135.296 535 C135.296 578.683 117.501 599.842 74.886 607.359 L63.2772 608.326 L55.296 608.991 L55.296 617 L55.296 643 L55.296 660 L55.296 668.704 L64 668.704 L144 668.704 L170 668.704 L195 668.704 L245 668.704 L437 668.704 L507 668.704 L518 668.704 L537 668.704 L557 668.704 L565.704 668.704 L565.704 660 L565.704 629 L565.704 599 L565.704 484 L565.704 475.296 L557 475.296 L541 475.296 L508 475.296 L501.167 475.296 L499.545 481.933 L488.545 526.933 L488.514 527.06 L488.487 527.189 C479.121 571.208 455.883 590.296 412 590.296 L253.704 590.296 L253.704 379.704 L337 379.704 L342.897 379.704 C382.534 380.656 402.944 399.445 410.425 440.495 L412.414 452.431 L421 451 L429.704 451 C429.704 455.407 424.993 458.704 423.958 459.013 C423.746 459.076 423.396 459.134 423.746 459.099 C424.727 459.002 426.205 458.954 428.625 458.954 C433.61 458.954 441.153 459.197 451.586 459.694 L451.793 459.704 L452 459.704 L472 459.704 L480.704 459.704 L480.704 451 L480.704 371 L480.704 340 L480.704 309 L480.704 229 L480.704 220.296 L472 220.296 L452 220.296 L421 220.296 L413.627 220.296 L412.414 227.569 L410.425 239.509 L410.414 239.569 C402.961 282.323 380.882 300.296 337 300.296 L253.704 300.296 L253.704 69.704 L436.906 69.704 C480.94 70.6653 504.069 88.8637 512.451 132.637 L512.472 132.746 L512.496 132.855 L524.496 187.855 L524.549 187.844 C525.624 191.738 529.822 194.343 531.225 194.725 C532.056 194.952 533.328 195.145 534.274 195.231 C535.911 195.38 538.368 195.454 541.25 195.454 C546.848 195.454 555.228 195.201 566.197 194.704 L582 194.704 L590.704 194.704 L590.704 186 L590.704 61 L590.704 31 L590.704 31 Z M573.296 31 L573.296 61 L573.296 177.296 L566 177.296 L565.802 177.296 L565.605 177.305 C554.671 177.802 546.618 178.046 541.25 178.046 C540.871 178.046 540.513 178.045 540.173 178.043 L529.527 129.252 C519.888 79.1287 487.055 53.359 437.185 52.298 L437.093 52.296 L437 52.296 L245 52.296 L236.296 52.296 L236.296 61 L236.296 309 L236.296 317.704 L245 317.704 L337 317.704 C387.097 317.704 419.018 291.694 427.575 242.491 L427.581 242.461 L427.586 242.431 L428.373 237.704 L452 237.704 L463.296 237.704 L463.296 309 L463.296 340 L463.296 371 L463.296 442.296 L452.207 442.296 C441.743 441.799 433.856 441.546 428.625 441.546 L428.248 441.547 L427.586 437.569 L427.575 437.506 L427.564 437.443 C419.041 390.571 389.48 363.375 343.202 362.298 L343.101 362.296 L343 362.296 L337 362.296 L245 362.296 L236.296 362.296 L236.296 371 L236.296 599 L236.296 607.704 L245 607.704 L412 607.704 C462.073 607.704 494.823 580.838 505.486 530.941 L514.833 492.704 L541 492.704 L548.296 492.704 L548.296 599 L548.296 629 L548.296 651.296 L537 651.296 L518 651.296 L507 651.296 L437 651.296 L245 651.296 L195 651.296 L170 651.296 L144 651.296 L72.704 651.296 L72.704 643 L72.704 625.009 L76.7228 624.674 L77.1093 624.642 L77.4914 624.575 C126.604 616.034 152.704 585.188 152.704 535 L152.704 125 C152.704 74.8117 126.604 43.966 77.4914 35.4247 L77.1093 35.3583 L76.7228 35.3261 L72.704 34.991 L72.704 17 L72.704 8.704 L144 8.704 L170 8.704 L195 8.704 L245 8.704 L462 8.704 L532 8.704 L543 8.704 L562 8.704 L573.296 8.704 L573.296 31 L573.296 31 Z " />
</font>
</svg>
