<?xml version="1.0" encoding="UTF-8"?>
<svg xmlns="http://www.w3.org/2000/svg" xmlns:xlink="http://www.w3.org/1999/xlink" version="1.2" >
<font id="Aderes Regular">
<font-face  font-family="Aderes" units-per-em="1024" ascent="975" descent="-300" font-style="normal" font-weight="400" font-stretch="normal" cap-height="660" x-height="450" underline-position="-125" underline-thickness="50" />
<missing-glyph  horiz-adv-x="650" d="" />
<glyph glyph-name="NULL" d="" />
<glyph glyph-name="CR" unicode="&#xd;" horiz-adv-x="256" d="" />
<glyph glyph-name="&amp;#x20;" unicode="&#x20;" horiz-adv-x="341.333" d="" />
<glyph glyph-name="&amp;#x9;" unicode="&#x9;" horiz-adv-x="341.333" d="" />
<glyph glyph-name="exclam" unicode="&#x21;" horiz-adv-x="257" d="M131 -10 C176 -10 198 12 198 57 C198 102 176 124 131 124 C86 124 64 102 64 57 C64 12 86 -10 131 -10 L131 -10 Z M70 660 L120 204 L143 204 L193 660 L70 660 L70 660 Z " />
<glyph glyph-name="quotedbl" unicode="&#x22;" horiz-adv-x="470" d="M290 740 L330 490 L352 490 L391 740 L290 740 L290 740 Z M80 740 L119 490 L141 490 L180 740 L80 740 L80 740 Z " />
<glyph glyph-name="numbersign" unicode="&#x23;" horiz-adv-x="498" d="M153 398 L110 251 L0 251 L0 199 L95 199 L37 0 L93 0 L151 199 L271 199 L213 0 L269 0 L327 199 L440 199 L440 251 L342 251 L385 398 L498 398 L498 450 L400 450 L461 660 L405 660 L344 450 L224 450 L285 660 L229 660 L168 450 L58 450 L58 398 L153 398 L153 398 Z M209 398 L329 398 L286 251 L166 251 L209 398 L209 398 Z " />
<glyph glyph-name="dollar" unicode="&#x24;" horiz-adv-x="502" d="M287 740 L287 669 C280 669 273 669 265 669 C255 669 246 669 237 668 L237 739 L191 739 L191 663 C97 645 52 587 52 487 C52 391 89 351 191 309 L191 48 C149 60 128 90 128 140 L128 167 L123 171 L87 171 C61 171 48 161 48 140 C48 52 95 4 191 -7 L191 -80 L237 -80 L237 -10 C238 -10 239 -10 240 -10 C257 -10 273 -9 288 -7 L288 -80 L334 -80 L334 2 C415 26 455 86 455 184 C455 262 423 318 334 363 L334 600 C351 588 360 569 360 544 L360 518 L365 514 L401 514 C427 514 440 524 440 544 C440 611 405 651 334 665 L334 741 L287 740 L287 740 Z M288 382 C287 383 286 384 285 385 C268 392 253 398 240 404 L240 617 C246 618 252 618 258 618 C270 618 281 617 291 616 L288 382 L288 382 Z M195 433 C167 456 156 484 156 526 C156 564 169 590 195 604 L195 433 L195 433 Z M241 292 C260 284 277 276 291 268 L291 49 C277 46 261 44 243 44 C242 44 241 44 240 44 L241 292 L241 292 Z M336 233 C359 209 369 183 369 153 C369 115 358 87 336 69 L336 233 L336 233 Z " />
<glyph glyph-name="ampersand" unicode="&#x26;" horiz-adv-x="692" d="M541 125 L540 125 L500 164 C528 216 554 279 583 354 C601 399 632 424 676 431 L688 432 L688 455 L688 471 L628 471 L600 471 L572 471 L452 471 L452 456 L452 432 L483 429 C529 424 543 399 527 354 C504 294 483 244 462 203 L277 381 C377 431 426 484 426 544 C426 630 373 671 264 671 C139 671 78 619 78 510 C78 436 95 412 159 351 C30 293 22 247 22 166 C22 49 83 -8 210 -8 C321 -8 391 22 445 83 L531 2 L602 2 L672 2 L683 2 L683 22 L683 45 L673 46 C634 54 592 80 543 127 L541 125 L541 125 Z M532 364 L558 431 C549 407 540 385 532 364 L532 364 Z M187 325 C194 318 202 311 210 303 L406 118 C369 78 324 58 261 58 C168 58 123 101 123 192 C123 254 127 291 186 324 L187 325 L187 325 Z M249 407 C190 463 176 477 176 528 C176 594 202 625 257 625 C307 625 331 597 331 538 C331 486 304 443 248 407 L249 407 L249 407 Z " />
<glyph glyph-name="quotesingle" unicode="&#x27;" horiz-adv-x="260" d="M80 740 L119 490 L141 490 L180 740 L80 740 L80 740 Z " />
<glyph glyph-name="parenleft" unicode="&#x28;" horiz-adv-x="264" d="M231 740 C111 597 53 499 53 295 C53 91 111 -7 231 -150 L259 -150 C171 -44 128 42 128 295 C128 548 171 634 259 740 L231 740 L231 740 Z " />
<glyph glyph-name="parenright" unicode="&#x29;" horiz-adv-x="264" d="M55 -150 C175 -7 233 91 233 295 C233 499 175 597 55 740 L27 740 C116 634 158 548 158 295 C158 42 116 -44 27 -150 L55 -150 L55 -150 Z " />
<glyph glyph-name="plus" unicode="&#x2b;" horiz-adv-x="510" d="M226 482 L226 300 L40 300 L40 244 L226 244 L226 52 L284 52 L284 244 L470 244 L470 300 L284 300 L284 482 L226 482 L226 482 Z " />
<glyph glyph-name="comma" unicode="&#x2c;" horiz-adv-x="257" d="M137 101 C123 108 115 111 109 111 C100 111 91 103 81 87 L49 31 L52 20 L90 0 C126 -17 143 -46 143 -88 C143 -129 116 -162 60 -188 L60 -210 C159 -163 207 -106 207 -35 C207 35 184 79 137 101 L137 101 Z " />
<glyph glyph-name="hyphen" unicode="&#x2d;" horiz-adv-x="375" d="M50 213 L325 213 L325 291 L50 291 L50 213 L50 213 Z " />
<glyph glyph-name="period" unicode="&#x2e;" horiz-adv-x="263" d="M132 -10 C177 -10 199 12 199 57 C199 102 177 124 132 124 C87 124 65 102 65 57 C65 12 87 -10 132 -10 L132 -10 Z " />
<glyph glyph-name="slash" unicode="&#x2f;" horiz-adv-x="255" d="M0 -120 L56 -120 L256 750 L200 750 L0 -120 L0 -120 Z " />
<glyph glyph-name="zero" unicode="0" horiz-adv-x="529" d="M282 44 C186 44 139 148 139 364 C139 535 174 618 246 618 C348 618 397 515 397 302 C397 128 360 44 282 44 L282 44 Z M33 329 C33 100 108 -10 265 -10 C421 -10 496 103 496 338 C496 562 421 670 265 670 C108 670 33 559 33 329 L33 329 Z " />
<glyph glyph-name="one" unicode="1" horiz-adv-x="509" d="M292 0 L339 0 L419 0 C420 0 420 5 419 15 C420 31 420 39 419 39 L407 40 C362 47 340 73 339 120 L339 554 L339 660 L317 660 L70 513 L70 473 L244 553 L244 120 C244 73 222 47 175 41 L154 39 L154 15 L154 0 L244 0 L292 0 L292 0 Z " />
<glyph glyph-name="two" unicode="2" horiz-adv-x="480" d="M455 46 C459 95 463 143 468 192 C468 191 462 191 450 192 C431 191 421 191 421 192 L414 161 C404 116 378 93 334 92 L328 92 L177 92 C395 341 449 391 449 493 C449 613 391 671 272 671 C115 671 39 615 39 500 C39 468 54 453 84 453 L136 453 L141 458 L141 517 C141 586 172 619 238 619 C307 619 341 577 341 491 C341 324 286 303 49 29 L49 1 L97 1 L176 1 L330 1 L400 1 L411 1 L431 1 L449 1 L450 1 C451 17 453 31 454 47 L455 46 L455 46 Z M467 193 L467 193 L467 193 L467 193 Z " />
<glyph glyph-name="three" unicode="3" horiz-adv-x="500" d="M203 368 C186 367 168 366 149 365 L149 342 L149 316 C313 327 370 291 370 175 C370 84 329 40 242 40 C169 40 133 66 133 120 L133 150 L124 159 L72 159 C45 159 32 146 32 120 C32 32 100 -10 242 -10 C401 -10 477 50 477 175 C477 286 435 343 325 361 C413 387 447 439 447 518 C447 620 388 669 265 669 C122 669 53 622 53 523 C53 497 67 484 98 484 L144 484 L153 493 L153 535 C153 591 182 618 242 618 C307 618 339 583 339 509 C339 425 303 378 203 367 L203 368 L203 368 Z " />
<glyph glyph-name="four" unicode="4" horiz-adv-x="501" d="M349 660 L277 565 L46 266 L8 214 L8 191 L46 191 L277 191 L277 120 C277 73 254 47 207 41 L187 39 L187 15 L187 0 L277 0 L324 0 L372 0 L452 0 L452 15 L452 39 L440 40 C394 47 372 73 372 120 L372 191 L488 191 L488 266 L372 266 L372 565 L372 660 L349 660 L349 660 Z M277 490 L277 266 L115 266 L277 490 L277 490 Z " />
<glyph glyph-name="five" unicode="5" horiz-adv-x="500" d="M406 660 L140 660 L113 660 L86 660 L86 340 C110 347 140 350 179 350 C313 350 377 298 377 191 C377 92 332 45 239 45 C194 45 160 62 136 96 L124 115 L113 115 L73 86 C60 76 53 66 53 56 C53 49 56 42 62 35 C83 5 126 -10 193 -10 C371 -10 456 70 456 236 C456 372 371 438 194 438 C168 438 150 437 139 435 L139 574 L405 574 L406 660 L406 660 Z " />
<glyph glyph-name="six" unicode="6" horiz-adv-x="504" d="M424 670 C164 600 38 458 38 232 C38 69 110 -10 258 -10 C404 -10 474 59 474 202 C474 328 419 388 304 388 C233 388 182 368 148 326 C170 491 260 592 424 636 L424 670 L424 670 Z M143 234 C155 287 193 312 261 312 C336 312 372 268 372 177 C372 85 335 40 258 40 C182 40 144 103 143 234 L143 234 Z " />
<glyph glyph-name="seven" unicode="7" horiz-adv-x="500" d="M50 660 L50 574 L376 574 C178 220 83 33 83 0 L208 0 C208 128 290 335 460 638 L460 660 L415 660 L50 660 L50 660 Z " />
<glyph glyph-name="eight" unicode="8" horiz-adv-x="495" d="M292 374 C286 377 280 380 274 383 C174 431 150 472 150 535 C150 592 179 620 239 620 C313 620 348 580 348 496 C348 436 329 396 291 375 L292 374 L292 374 Z M336 351 C409 372 445 422 445 504 C445 617 382 672 250 672 C116 672 51 617 51 501 C51 432 73 382 157 330 C78 307 40 247 40 147 C40 43 108 -7 248 -7 C388 -7 455 52 455 174 C455 246 424 301 337 353 L336 351 L336 351 Z M200 307 C210 302 221 297 232 292 C329 247 363 202 363 142 C363 74 328 42 255 42 C179 42 142 85 142 175 C142 241 161 285 200 308 L200 307 L200 307 Z " />
<glyph glyph-name="nine" unicode="9" horiz-adv-x="501" d="M80 -10 C341 60 467 202 467 428 C467 591 395 670 246 670 C100 670 30 617 30 465 C30 335 88 272 207 272 C274 272 323 295 357 341 C337 172 247 68 81 23 L80 -10 L80 -10 Z M362 425 C346 372 310 346 251 346 C174 346 137 385 137 465 C137 579 173 619 247 619 C323 619 360 556 361 425 L362 425 L362 425 Z " />
<glyph glyph-name="colon" unicode="&#x3a;" horiz-adv-x="263" d="M132 316 C177 316 199 338 199 383 C199 428 177 450 132 450 C87 450 65 428 65 383 C65 338 87 316 132 316 L132 316 Z M132 -10 C177 -10 199 12 199 57 C199 102 177 124 132 124 C87 124 65 102 65 57 C65 12 87 -10 132 -10 L132 -10 Z " />
<glyph glyph-name="semicolon" unicode="&#x3b;" horiz-adv-x="257" d="M127 316 C172 316 194 338 194 383 C194 428 172 450 127 450 C82 450 60 428 60 383 C60 338 82 316 127 316 L127 316 Z M137 101 C123 108 115 111 109 111 C100 111 91 103 81 87 L49 31 L52 20 L90 0 C126 -17 143 -46 143 -88 C143 -129 116 -162 60 -188 L60 -210 C159 -163 207 -106 207 -35 C207 35 184 79 137 101 L137 101 Z " />
<glyph glyph-name="equal" unicode="&#x3d;" horiz-adv-x="500" d="M40 195 L40 139 L460 139 L460 195 L40 195 L40 195 Z M40 405 L40 349 L460 349 L460 405 L40 405 L40 405 Z " />
<glyph glyph-name="question" unicode="&#x3f;" horiz-adv-x="480" d="M217 -5 C262 -5 284 17 284 62 C284 107 262 129 217 129 C172 129 150 107 150 62 C150 17 172 -5 217 -5 L217 -5 Z M177 345 L206 204 L228 204 L236 266 C364 318 426 390 426 485 C426 610 368 670 248 670 C108 670 40 617 40 507 C40 477 54 463 83 463 L129 463 L138 474 L138 518 C138 587 163 621 214 621 C287 621 323 577 323 485 C323 426 276 381 177 345 L177 345 Z " />
<glyph glyph-name="A" unicode="A" horiz-adv-x="750" d="M623 115 L623 115 L407 638 L396 665 L346 665 L321 604 L321 604 L115 98 C96 55 74 32 46 27 L38 26 L38 10 L38 -1 L75 -1 L113 -1 L151 -1 L251 -1 L251 14 L251 38 L239 39 C194 46 180 71 196 115 L234 211 L234 210 L480 210 L480 210 L521 109 C534 69 519 47 476 41 L458 39 L458 15 L458 0 L566 0 L619 0 L671 0 L709 0 L709 15 L709 35 L700 36 C668 42 644 68 624 115 L623 115 L623 115 Z M456 272 L259 272 L356 520 L456 272 L456 272 Z " />
<glyph glyph-name="B" unicode="B" horiz-adv-x="631" d="M258 371 L245 371 L245 599 L311 598 C412 598 447 558 447 476 C447 405 386 371 258 371 L258 371 Z M446 357 C517 386 552 435 552 505 C552 610 496 661 336 661 L245 661 L195 661 L144 661 L64 661 L64 644 L64 618 L76 617 C122 609 144 583 144 536 L144 126 C144 79 122 53 76 45 L64 44 L64 18 L64 1 L144 1 L195 1 L245 1 L323 1 C498 1 582 66 582 201 C582 283 545 335 447 358 L446 357 L446 357 Z M246 62 L246 310 L331 310 C440 310 478 272 478 192 C478 104 428 62 324 62 L246 62 L246 62 Z " />
<glyph glyph-name="C" unicode="C" horiz-adv-x="718" d="M628 54 L638 213 C630 214 622 214 615 215 C607 215 599 215 592 216 C587 200 583 184 579 167 C566 117 542 85 505 68 C472 54 438 47 402 47 C248 47 174 144 174 344 C174 527 252 615 414 615 C442 615 468 610 493 600 C527 584 549 553 561 503 C566 481 571 461 576 440 C584 440 592 440 601 441 C609 441 617 441 625 442 L618 618 C579 654 512 671 414 671 C182 671 70 554 70 311 C70 95 178 -9 402 -9 C503 -9 577 12 628 55 L628 54 L628 54 Z " />
<glyph glyph-name="D" unicode="D" horiz-adv-x="777" d="M217 0 L245 0 L362 0 C596 8 708 102 708 361 C708 583 590 660 344 660 L245 660 L195 660 L144 660 L64 660 L64 643 L64 617 L76 616 C122 608 144 582 144 535 L144 125 C144 78 122 52 76 44 L64 43 L64 17 L64 0 L144 0 L195 0 L217 0 L217 0 Z M245 61 L245 599 L316 599 C510 599 603 528 603 322 C603 135 524 67 360 61 L245 61 L245 61 Z " />
<glyph glyph-name="E" unicode="E" horiz-adv-x="651" d="M582 31 L582 61 L582 186 C582 187 577 187 566 186 C544 187 533 187 533 186 L521 131 C512 84 484 62 437 61 L245 61 L245 309 L337 309 C384 309 411 287 419 241 L421 229 L452 229 L472 229 L472 309 L472 340 L472 371 L472 451 C472 450 466 450 452 451 C431 450 421 450 421 451 L419 439 C411 395 386 372 343 371 L337 371 L245 371 L245 599 L412 599 C459 599 487 576 497 529 L508 484 L541 484 L557 484 L557 599 L557 629 L557 660 L537 660 L518 660 L507 660 L437 660 L245 660 L195 660 L170 660 L144 660 L64 660 L64 643 L64 617 L76 616 C122 608 144 582 144 535 L144 125 C144 78 122 52 76 44 L64 43 L64 17 L64 0 L144 0 L170 0 L195 0 L245 0 L462 0 L532 0 L543 0 L562 0 L582 0 L582 31 L582 31 Z " />
<glyph glyph-name="F" unicode="F" horiz-adv-x="616" d="M337 309 C384 309 411 287 419 241 L421 229 L452 229 L472 229 L472 309 L472 340 L472 371 L472 451 C472 450 466 450 452 451 C431 450 421 450 421 451 L419 439 C411 395 386 372 343 371 L337 371 L245 371 L245 599 L402 599 C449 599 477 576 487 529 L498 484 L531 484 L547 484 L547 599 L547 629 L547 660 L527 660 L508 660 L497 660 L427 660 L245 660 L195 660 L170 660 L144 660 L64 660 L64 643 L64 617 L76 616 C122 608 144 582 144 535 L144 125 C144 78 122 52 76 44 L64 43 L64 17 L64 0 L144 0 L195 0 L245 0 L340 0 L340 17 L340 43 L315 46 C267 52 245 78 245 125 L245 309 L337 309 L337 309 Z " />
<glyph glyph-name="G" unicode="G" horiz-adv-x="775" d="M655 165 C655 212 676 238 719 246 L730 247 L730 273 L730 290 L655 290 L605 290 L555 290 L470 290 L470 273 L470 247 L485 245 C532 238 555 212 555 165 L555 74 L560 75 C534 62 492 56 433 56 C258 56 174 149 174 343 C174 526 255 614 424 614 C455 614 483 609 509 599 C545 585 568 553 581 501 C586 479 591 459 596 438 C604 438 612 438 621 439 C629 439 637 439 645 440 L638 616 C599 652 529 669 424 669 C185 669 70 552 70 309 C70 93 178 -11 403 -11 C526 -11 608 21 655 88 L655 165 L655 165 Z " />
<glyph glyph-name="H" unicode="H" horiz-adv-x="812" d="M617 0 L668 0 L748 0 C747 0 747 5 748 17 C747 34 747 43 748 43 L736 44 C691 52 669 76 668 119 L668 125 L668 535 L668 541 C669 584 691 608 736 616 L748 617 C747 617 747 626 748 643 C747 655 747 660 748 660 L668 660 L617 660 L567 660 L487 660 L487 643 L487 617 L499 616 C545 608 567 582 567 535 L567 371 L245 371 L245 535 C245 582 267 608 313 616 L325 617 L325 643 L325 660 L245 660 L195 660 L144 660 L64 660 L64 643 L64 617 L76 616 C122 608 144 582 144 535 L144 125 C144 78 122 52 76 44 L64 43 L64 17 L64 0 L144 0 L195 0 L245 0 L325 0 L325 17 L325 43 L313 44 C267 52 245 78 245 125 L245 309 L567 309 L567 125 C567 78 545 52 499 44 L487 43 L487 17 L487 0 L567 0 L617 0 L617 0 Z " />
<glyph glyph-name="I" unicode="I" horiz-adv-x="400" d="M200 0 L250 0 L330 0 C331 0 331 5 330 17 C331 34 331 43 330 43 L318 44 C273 52 251 78 250 125 L250 535 C251 582 273 608 318 616 L330 617 C331 617 331 626 330 643 C331 655 331 660 330 660 L250 660 L200 660 L150 660 L70 660 L70 643 L70 617 L82 616 C128 608 150 582 150 535 L150 125 C150 78 128 52 82 44 L70 43 L70 17 L70 0 L150 0 L200 0 L200 0 Z " />
<glyph glyph-name="J" unicode="J" horiz-adv-x="400" d="M150 535 L150 50 C150 -46 130 -92 88 -92 C74 -92 56 -89 30 -82 L24 -82 C17 -82 13 -140 13 -145 C13 -164 25 -173 50 -173 C185 -173 250 -39 250 240 L250 535 C251 582 273 608 318 616 L330 617 C331 617 331 626 330 643 C331 655 331 660 330 660 L250 660 L200 660 L150 660 L70 660 L70 643 L70 617 L82 616 C128 608 150 582 150 535 L150 535 Z " />
<glyph glyph-name="K" unicode="K" horiz-adv-x="751" d="M591 110 L590 110 L348 362 L543 550 L544 550 C592 597 629 622 657 628 L665 629 L665 645 L665 660 L657 660 L603 660 L550 660 L430 660 C429 660 429 655 430 645 C429 629 429 621 430 621 L440 620 C483 613 482 587 437 540 L437 540 L308 403 L308 403 L247 338 L283 299 L559 0 L628 0 L696 0 L706 0 L706 15 L706 31 L699 32 C671 38 636 63 591 110 L591 110 Z M196 0 L246 0 L326 0 L326 17 L326 43 L314 44 C268 52 246 78 246 125 L246 535 C246 582 268 608 314 616 L326 617 L326 643 L326 660 L246 660 L196 660 L146 660 L66 660 L66 643 L66 617 L78 616 C124 608 146 582 146 535 L146 125 C146 78 124 52 78 44 L66 43 L66 17 L66 0 L146 0 L196 0 L196 0 Z " />
<glyph glyph-name="L" unicode="L" horiz-adv-x="632" d="M563 31 L563 61 L563 226 C563 227 557 227 546 226 C522 227 511 227 511 226 L495 131 C487 84 460 62 413 61 L245 61 L245 535 C245 582 267 608 315 615 L330 617 L330 643 L330 660 L245 660 L195 660 L144 660 L64 660 L64 643 L64 617 L76 616 C122 608 144 582 144 535 L144 125 C144 78 122 52 76 44 L64 43 L64 17 L64 0 L144 0 L170 0 L195 0 L245 0 L443 0 L513 0 L524 0 L544 0 L563 0 L563 31 L563 31 Z " />
<glyph glyph-name="M" unicode="M" horiz-adv-x="965" d="M156 535 L156 535 L143 116 C139 75 116 52 72 45 L60 44 L60 18 L60 1 L139 1 L172 1 L206 1 L291 1 L291 18 L291 44 L277 46 C230 53 208 79 209 126 L209 126 L217 526 L445 -4 L496 -4 L720 518 L735 126 L735 126 C737 79 716 53 672 45 L660 44 L660 18 L660 1 L740 1 L787 1 L835 1 L903 1 L903 18 L903 44 L893 45 C855 52 835 75 831 117 L815 550 C818 588 840 609 882 615 L899 617 L899 643 L899 660 L811 660 L763 660 L716 660 L494 132 L266 660 L221 660 L190 660 L160 660 L70 660 C69 660 69 655 70 643 C69 626 69 617 70 617 L88 615 C136 608 158 582 156 535 L156 535 Z " />
<glyph glyph-name="N" unicode="N" horiz-adv-x="806" d="M667 535 C667 582 687 608 730 616 L742 617 L742 643 L742 660 L667 660 L628 660 L589 660 L489 660 L489 643 L489 617 L519 614 C566 608 589 582 589 535 L589 203 L220 660 L181 660 L142 660 L67 660 L67 643 L67 617 L78 616 C122 608 142 582 142 535 L142 125 C142 78 120 52 74 44 L62 43 L62 17 L62 0 L142 0 L181 0 L220 0 L320 0 L320 17 L320 43 L290 46 C243 52 220 78 220 125 L220 497 L590 41 L628 -5 L667 -5 L667 106 L667 535 L667 535 Z " />
<glyph glyph-name="O" unicode="O" horiz-adv-x="809" d="M427 46 C258 46 177 150 177 366 C177 534 245 615 385 615 C552 615 633 509 633 289 C633 125 566 46 427 46 L427 46 Z M70 327 C70 100 179 -10 405 -10 C631 -10 740 100 740 328 C740 559 631 670 405 670 C179 670 70 559 70 327 L70 327 Z " />
<glyph glyph-name="P" unicode="P" horiz-adv-x="658" d="M195 0 L245 0 L340 0 L340 17 L340 43 L315 46 C267 52 245 78 245 125 L245 286 L325 286 C503 286 588 348 588 476 C588 600 511 660 350 660 L245 660 L195 660 L144 660 L64 660 L64 643 L64 617 L76 616 C122 608 144 582 144 535 L144 125 C144 78 122 52 76 44 L64 43 L64 17 L64 0 L144 0 L195 0 L195 0 Z M245 348 L245 599 L325 598 C430 598 481 555 481 466 C481 386 438 347 347 347 L245 348 L245 348 Z " />
<glyph glyph-name="Q" unicode="Q" horiz-adv-x="809" d="M817 -121 L817 -104 C806 -111 783 -114 749 -114 C671 -114 593 -77 510 0 C665 31 740 139 740 328 C740 559 631 670 405 670 C179 670 70 559 70 327 C70 110 169 0 375 -9 C479 -104 578 -150 680 -150 C737 -150 782 -140 817 -120 L817 -121 L817 -121 Z M427 47 C258 47 177 151 177 367 C177 535 245 616 385 616 C552 616 633 510 633 290 C633 126 566 47 427 47 L427 47 Z " />
<glyph glyph-name="R" unicode="R" horiz-adv-x="691" d="M550 120 L550 120 L406 310 C489 332 560 389 560 484 C560 603 488 660 340 660 L246 660 L196 660 L145 660 L65 660 L65 643 L65 617 L77 616 C123 608 145 582 145 535 L145 125 C145 78 123 52 77 44 L65 43 L65 17 L65 0 L145 0 L196 0 L246 0 L321 0 L321 17 L321 43 L310 44 C267 52 246 78 246 125 L246 299 L288 299 L516 0 L579 0 L642 0 L663 0 L663 18 L663 39 L654 40 C620 47 587 73 551 120 L550 120 L550 120 Z M246 361 L246 599 L314 598 C407 598 451 558 451 475 C451 398 365 361 288 361 L246 361 L246 361 Z " />
<glyph glyph-name="S" unicode="S" horiz-adv-x="532" d="M324 606 L324 606 C363 591 387 556 399 499 C401 490 403 480 404 471 C412 471 420 471 428 472 C435 473 443 473 451 474 L442 620 L419 589 L419 589 L442 620 C408 654 356 670 281 670 C148 670 84 611 84 487 C84 395 123 355 237 305 C343 257 380 226 380 162 C380 81 346 42 276 42 C251 42 224 50 194 66 L194 66 C149 90 123 127 114 180 C112 192 110 204 107 216 C100 216 92 216 84 215 C77 215 69 215 61 214 L69 50 L95 82 L95 82 L69 50 C119 10 186 -10 276 -10 C412 -10 478 54 478 188 C478 288 435 330 311 386 C217 427 184 458 184 524 C184 586 212 616 272 616 C290 616 307 613 324 606 L324 606 Z " />
<glyph glyph-name="T" unicode="T" horiz-adv-x="677" d="M339 0 L389 0 L489 0 L489 17 L489 43 L459 46 C411 52 389 78 389 125 L389 599 L483 599 C529 599 556 576 566 529 L580 454 L615 454 L632 454 L632 599 L632 629 L632 660 L613 660 L594 660 L582 660 L513 660 L389 660 L288 660 L165 660 L95 660 L84 660 L64 660 L45 660 L45 629 L45 599 L45 454 L62 454 L97 454 L112 529 C121 576 148 599 195 599 L288 599 L288 125 C288 78 266 52 219 46 L188 43 L188 17 L188 0 L288 0 L339 0 L339 0 Z " />
<glyph glyph-name="U" unicode="U" horiz-adv-x="809" d="M586 535 L586 535 L587 210 C587 105 537 55 433 55 C304 55 242 119 242 252 L242 535 C243 582 265 608 310 616 L322 617 C323 617 323 626 322 643 C323 655 323 660 322 660 L242 660 L192 660 L142 660 L62 660 L62 643 L62 617 L74 616 C120 608 142 582 142 535 L142 234 C142 69 227 -10 403 -10 C579 -10 664 69 664 234 L664 535 C665 582 687 608 732 616 L744 617 C745 617 745 626 744 643 C745 655 745 660 744 660 L664 660 L625 660 L586 660 L486 660 L486 643 L486 617 L517 614 C563 608 586 582 586 535 L586 535 Z " />
<glyph glyph-name="V" unicode="V" horiz-adv-x="736" d="M540 535 L540 535 L384 143 L232 535 L232 535 C213 582 227 608 274 615 L293 617 C294 617 294 626 293 643 C294 655 294 660 293 660 L183 660 L132 660 L80 660 L40 660 L40 644 L40 621 L49 620 C83 613 108 587 127 540 L127 540 L334 17 L342 -5 L391 -5 L619 550 L619 550 C638 597 661 622 689 628 L696 629 L696 647 L696 660 L664 660 L626 660 L589 660 L489 660 L489 643 L489 617 L501 616 C545 608 558 582 539 535 L540 535 L540 535 Z " />
<glyph glyph-name="W" unicode="W" horiz-adv-x="980" d="M103 540 L104 540 L251 32 L262 -5 L302 -5 L310 15 L491 484 L648 32 L661 -5 L701 -5 L707 15 L879 559 C894 600 916 622 948 628 L956 629 L956 647 L956 660 L911 660 L873 660 L835 660 L735 660 L735 643 L735 617 L749 615 C793 608 810 584 800 542 L691 177 L541 615 L524 665 L482 665 L473 640 L304 176 L206 535 L206 535 C193 582 210 608 257 614 L282 617 C283 617 283 626 282 643 C283 655 283 660 282 660 L172 660 L121 660 L69 660 L25 660 L25 644 L25 621 L34 620 C67 613 90 587 103 540 L103 540 Z " />
<glyph glyph-name="X" unicode="X" horiz-adv-x="743" d="M594 115 L594 115 L422 346 L575 545 L575 545 C611 592 642 618 669 624 L676 625 C677 625 677 631 676 644 C677 655 677 660 676 660 L663 660 L627 660 L591 660 L471 660 L471 643 L471 617 L482 616 C523 608 529 585 500 543 L385 395 L273 546 C248 585 256 607 297 614 L309 615 L309 641 L309 658 L189 658 L130 658 L72 658 L60 658 L60 640 L60 619 L67 618 C95 611 125 585 158 538 L159 538 L313 325 L151 113 C115 69 84 44 55 37 L47 36 L47 15 L47 -3 L62 -3 L101 -3 L140 -3 L270 -3 L270 14 L270 40 L251 42 C207 49 199 73 228 115 L348 274 L458 122 L458 122 C492 75 490 49 449 41 L439 40 L439 14 L439 -3 L549 -3 L613 -3 L677 -3 L691 -3 L691 13 L691 32 L684 33 C656 39 626 65 592 112 L594 115 L594 115 Z " />
<glyph glyph-name="Y" unicode="Y" horiz-adv-x="719" d="M494 535 L494 535 L382 371 L247 550 C224 587 230 608 265 615 L276 616 L276 642 L276 659 L166 659 L112 659 L59 659 L47 659 L47 641 L47 620 L54 619 C80 612 109 587 143 542 L314 305 L314 123 C314 76 291 50 244 43 L224 41 L224 15 L224 -2 L314 -2 L364 -2 L414 -2 L504 -2 L504 15 L504 41 L484 43 C437 50 414 76 414 123 L414 307 L588 560 C617 599 642 620 666 625 L673 626 L673 643 L673 657 L655 657 L617 657 L580 657 L465 657 L465 640 L465 614 L477 613 C521 605 526 579 494 532 L494 535 L494 535 Z " />
<glyph glyph-name="Z" unicode="Z" horiz-adv-x="646" d="M100 629 L100 599 L100 599 C101 557 101 516 100 474 L118 474 L153 474 L165 529 C176 576 203 599 250 599 L424 599 L108 61 L88 28 L88 0 L108 0 L436 0 L506 0 L517 0 L537 0 L556 0 L556 31 L556 61 L556 196 C556 197 550 197 539 196 C515 197 504 197 504 196 L490 131 C481 84 453 62 406 61 L210 61 L526 599 L541 624 L541 660 L526 660 L220 660 L150 660 L139 660 L120 660 L100 660 L100 629 L100 629 Z " />
<glyph glyph-name="bracketleft" unicode="&#x5b;" horiz-adv-x="256" d="M136 714 L252 714 L252 740 L136 740 L67 740 L67 -150 L136 -150 L252 -150 L252 -124 L136 -124 L136 714 L136 714 Z " />
<glyph glyph-name="backslash" unicode="&#x5c;" horiz-adv-x="261" d="M206 -120 L262 -120 L56 750 L0 750 L206 -120 L206 -120 Z " />
<glyph glyph-name="bracketright" unicode="&#x5d;" horiz-adv-x="251" d="M118 714 L118 -124 L5 -124 L5 -150 L118 -150 L187 -150 L187 740 L118 740 L5 740 L5 714 L118 714 L118 714 Z " />
<glyph glyph-name="underscore" unicode="&#x5f;" horiz-adv-x="500" d="M25 -89 L25 -145 L475 -145 L475 -89 L25 -89 L25 -89 Z " />
<glyph glyph-name="a" unicode="a" horiz-adv-x="491" d="M295 258 C111 217 45 165 45 90 C45 23 80 -10 154 -10 C217 -10 262 6 298 48 C308 9 337 -10 388 -10 C435 -10 466 10 485 51 L482 57 C481 55 470 54 448 54 C405 54 384 60 384 73 L385 351 C385 425 347 460 238 460 C119 460 54 411 57 324 C58 301 65 291 80 292 L144 292 L149 297 L149 334 C147 381 169 408 209 408 C273 408 295 382 295 327 L295 258 L295 258 Z M295 218 L295 81 C295 80 295 79 295 78 C274 63 245 57 204 57 C155 57 132 75 132 112 C132 158 175 190 295 218 L295 218 Z " />
<glyph glyph-name="b" unicode="b" horiz-adv-x="563" d="M100 -10 L107 -10 L135 18 C161 -1 210 -10 284 -10 C438 -10 512 75 512 253 C512 393 455 460 337 460 C274 460 225 442 188 406 L188 595 L188 720 L188 750 L170 750 L34 695 L34 694 L34 682 L44 675 C81 647 99 611 99 564 L99 73 L100 -10 L100 -10 Z M188 89 L188 351 C204 374 232 385 274 385 C375 385 423 334 423 229 C423 104 388 44 314 44 C258 44 217 59 188 89 L188 89 Z " />
<glyph glyph-name="c" unicode="c" horiz-adv-x="477" d="M366 319 L373 319 L418 350 C428 359 432 369 432 381 C432 388 428 398 418 412 C396 444 351 460 282 460 C125 460 50 377 50 203 C50 59 119 -10 261 -10 C339 -10 395 29 434 110 L434 120 L429 120 C384 88 345 73 309 73 C194 73 138 132 138 254 C138 360 173 411 247 411 C285 411 313 396 335 364 L366 319 L366 319 Z " />
<glyph glyph-name="d" unicode="d" horiz-adv-x="576" d="M420 0 L459 0 L529 0 C528 0 528 5 529 15 C528 31 528 39 529 39 L518 40 C480 47 460 71 459 114 L459 121 L459 616 L459 731 L459 761 L441 761 L304 706 L304 705 L304 695 L314 689 C351 666 369 632 369 585 L369 455 C346 459 319 461 287 461 C126 461 48 374 48 194 C48 57 104 -9 219 -9 C287 -9 336 11 371 53 L381 1 L420 0 L420 0 Z M370 362 L370 93 C351 75 322 66 283 66 C185 66 137 117 137 222 C137 347 181 407 274 407 C296 407 327 392 370 362 L370 362 Z " />
<glyph glyph-name="e" unicode="e" horiz-adv-x="483" d="M261 293 L140 293 C148 372 182 410 244 410 C307 410 342 372 351 293 L261 293 L261 293 Z M261 242 L394 242 L434 247 C434 391 378 460 261 460 C119 460 50 377 50 203 C50 59 119 -10 261 -10 C339 -10 395 29 434 110 L434 120 L429 120 C384 88 345 73 309 73 C198 73 142 128 138 242 L261 242 L261 242 Z " />
<glyph glyph-name="f" unicode="f" horiz-adv-x="373" d="M162 0 L207 0 L277 0 L277 15 L277 39 L266 40 C228 47 209 70 207 112 L207 398 L338 398 L338 450 L207 450 L207 598 C207 630 235 658 292 658 C316 658 334 655 348 648 L375 637 L382 637 L406 694 C409 701 410 707 410 712 C410 722 401 731 382 740 C367 747 356 750 347 750 C223 750 117 630 117 490 L117 450 L39 450 L39 398 L117 398 L117 120 C117 73 99 47 61 40 L52 39 L52 15 L52 0 L117 0 L162 0 L162 0 Z " />
<glyph glyph-name="g" unicode="g" horiz-adv-x="548" d="M178 148 L178 148 C200 141 226 138 256 138 C391 138 437 191 437 302 C437 341 429 372 413 396 L496 389 L496 449 L361 440 C334 453 299 459 257 459 C123 459 77 407 77 299 C77 231 100 185 146 160 C93 140 67 111 67 71 C67 20 96 -8 155 -14 C89 -43 58 -79 58 -126 C58 -204 116 -242 237 -242 C396 -242 473 -184 473 -64 C473 21 447 62 335 62 L212 62 C167 62 146 77 146 107 C146 128 156 141 177 146 L178 148 L178 148 Z M271 180 C203 180 170 219 170 301 C170 377 191 414 250 414 C315 414 346 376 346 297 C346 218 327 180 271 180 L271 180 Z M183 -16 L290 -16 C372 -16 391 -39 391 -87 C391 -171 345 -211 249 -211 C174 -211 138 -179 138 -113 C138 -58 153 -27 183 -16 L183 -16 Z " />
<glyph glyph-name="h" unicode="h" horiz-adv-x="592" d="M443 0 L487 0 L552 0 C553 0 553 5 552 15 C553 31 553 39 552 39 L543 40 C505 47 488 73 487 120 L487 343 C487 422 443 460 353 460 C292 460 255 435 205 383 L205 595 L205 720 L205 750 L187 750 L51 695 L51 694 L51 682 L61 675 C98 647 116 611 116 564 L116 120 C116 73 98 47 61 40 L51 39 L51 15 L51 0 L116 0 L161 0 L205 0 L275 0 L275 15 L275 39 L265 40 C225 47 205 73 205 120 L205 349 C228 371 253 381 305 381 C368 381 399 352 399 292 L399 120 C399 73 380 47 340 40 L329 39 L329 15 L329 0 L399 0 L443 0 L443 0 Z " />
<glyph glyph-name="i" unicode="i" horiz-adv-x="326" d="M159 610 C204 610 226 632 226 677 C226 722 204 744 159 744 C114 744 92 722 92 677 C92 632 114 610 159 610 L159 610 Z M164 0 L208 0 L278 0 L278 15 L278 39 L268 40 C228 47 208 73 208 120 L208 305 L208 430 L208 460 L190 460 L54 405 L54 404 L54 392 L64 385 C101 357 119 321 119 274 L119 120 C119 73 101 47 64 40 L54 39 L54 15 L54 0 L119 0 L164 0 L164 0 Z " />
<glyph glyph-name="j" unicode="j" horiz-adv-x="326" d="M164 610 C209 610 231 632 231 677 C231 722 209 744 164 744 C119 744 97 722 97 677 C97 632 119 610 164 610 L164 610 Z M56 -215 L56 -235 C200 -145 208 -94 208 0 L208 305 L208 430 L208 460 L190 460 L54 405 L54 404 L54 392 L64 385 C101 357 119 321 119 274 L119 -12 C119 -123 116 -178 56 -215 L56 -215 Z " />
<glyph glyph-name="k" unicode="k" horiz-adv-x="553" d="M313 404 L321 401 C348 395 341 373 301 336 L203 255 L203 605 L203 730 L203 760 L185 760 L49 705 L49 704 L49 692 L59 685 C96 657 114 621 114 574 L114 120 C114 73 96 47 59 40 L49 39 L49 15 L49 0 L114 0 L159 0 L203 0 L273 0 L273 15 L273 39 L263 40 C223 47 203 73 203 120 L203 238 L393 0 L449 0 L504 0 L508 0 L508 19 L508 39 L501 40 C476 47 446 73 407 120 L280 277 L350 330 L350 330 C412 377 453 403 476 410 L482 411 C482 411 485 417 493 428 C503 443 508 450 507 450 L472 450 L436 450 L311 450 C312 450 312 444 311 432 C312 413 312 404 311 404 L313 404 L313 404 Z M311 404 L311 404 L311 404 Z " />
<glyph glyph-name="l" unicode="l" horiz-adv-x="307" d="M154 0 L198 0 L268 0 L268 15 L268 39 L258 40 C218 47 198 73 198 120 L198 605 L198 730 L198 760 L180 760 L44 705 L44 704 L44 692 L54 685 C91 657 109 621 109 574 L109 120 C109 73 91 47 54 40 L44 39 L44 15 L44 0 L109 0 L154 0 L154 0 Z " />
<glyph glyph-name="m" unicode="m" horiz-adv-x="858" d="M709 0 L753 0 L818 0 C819 0 819 5 818 15 C819 31 819 39 818 39 L809 40 C772 47 754 73 753 120 L753 343 C753 422 711 460 623 460 C563 460 524 432 469 375 C459 432 418 460 344 460 C286 460 250 435 200 383 L200 383 L197 383 L195 460 L177 460 L46 405 L46 404 L46 392 L56 385 C93 357 111 321 111 274 L111 120 C111 73 93 47 56 40 L46 39 L46 15 L46 0 L111 0 L156 0 L200 0 L265 0 L265 15 L265 39 L256 40 C218 47 200 73 200 120 L200 305 L200 349 C223 371 247 381 296 381 C356 381 385 352 385 292 L385 120 C385 73 366 47 326 40 L315 39 L315 15 L315 0 L385 0 L430 0 L474 0 L544 0 C545 0 545 5 544 15 C545 31 545 39 544 39 L534 40 C494 47 475 73 474 120 L474 343 L474 343 C500 368 525 380 575 380 C636 380 665 351 665 291 L665 119 C665 72 646 46 606 39 L595 38 L595 14 L595 -1 L665 -1 L709 0 L709 0 Z " />
<glyph glyph-name="n" unicode="n" horiz-adv-x="592" d="M443 0 L487 0 L552 0 C553 0 553 5 552 15 C553 31 553 39 552 39 L543 40 C505 47 488 73 487 120 L487 343 C487 422 443 460 353 460 C292 460 255 435 205 383 L205 383 L202 383 L200 460 L182 460 L51 405 L51 404 L51 392 L61 385 C98 357 116 321 116 274 L116 120 C116 73 98 47 61 40 L51 39 L51 15 L51 0 L116 0 L161 0 L205 0 L275 0 L275 15 L275 39 L265 40 C225 47 205 73 205 120 L205 305 L205 349 C228 371 253 381 305 381 C368 381 399 352 399 292 L399 120 C399 73 380 47 340 40 L329 39 L329 15 L329 0 L399 0 L443 0 L443 0 Z " />
<glyph glyph-name="o" unicode="o" horiz-adv-x="540" d="M286 37 C196 37 153 98 153 225 C153 352 179 413 255 413 C345 413 388 352 388 225 C388 98 362 37 286 37 L286 37 Z M50 225 C50 66 122 -10 270 -10 C434 -10 491 66 491 225 C491 384 419 460 270 460 C107 460 50 384 50 225 L50 225 Z " />
<glyph glyph-name="p" unicode="p" horiz-adv-x="574" d="M201 394 L199 460 L181 460 L50 405 L50 404 L50 392 L60 385 C97 357 115 320 115 274 L115 -110 C115 -157 97 -183 60 -190 L50 -191 L50 -215 L50 -230 L115 -230 L160 -230 L204 -230 L274 -230 L274 -215 L274 -191 L264 -190 C224 -183 204 -157 204 -110 L204 -6 C225 -9 254 -10 290 -10 C449 -10 525 75 525 251 C525 392 471 460 359 460 C303 460 252 438 202 394 L201 394 L201 394 Z M205 86 L205 305 L205 360 C228 377 258 385 297 385 C393 385 439 328 439 211 C439 98 401 44 321 44 C276 44 239 58 205 86 L205 86 Z " />
<glyph glyph-name="q" unicode="q" horiz-adv-x="570" d="M421 -230 L465 -230 L530 -230 L530 -215 L530 -191 L521 -190 C483 -183 465 -157 465 -110 L465 421 L465 460 L459 460 L422 442 C394 454 351 460 291 460 C128 460 49 373 49 193 C49 56 105 -10 223 -10 C270 -10 320 11 376 56 L376 -110 C376 -157 357 -183 316 -190 L306 -191 L306 -215 L306 -230 L376 -230 L421 -230 L421 -230 Z M376 362 L376 96 C348 76 319 66 287 66 C186 66 138 117 138 222 C138 347 183 407 277 407 C304 407 336 393 376 363 L376 362 L376 362 Z " />
<glyph glyph-name="r" unicode="r" horiz-adv-x="388" d="M160 0 L204 0 L274 0 L274 15 L274 39 L264 40 C224 47 204 73 204 120 L204 305 L204 332 C224 359 237 372 250 372 C274 372 295 368 315 360 C341 347 353 342 353 344 L360 344 C379 384 389 408 389 418 C389 424 386 430 380 436 C375 441 368 446 359 450 C343 457 325 460 305 460 C275 460 248 430 204 369 L204 376 L202 376 L199 459 L181 459 L50 404 L50 403 L50 391 L60 384 C97 356 115 320 115 273 L115 119 C115 72 97 46 60 39 L50 38 L50 14 L50 -1 L115 -1 L160 0 L160 0 Z " />
<glyph glyph-name="s" unicode="s" horiz-adv-x="431" d="M60 47 L60 47 L60 19 C102 0 151 -10 211 -10 C312 -10 361 33 361 124 C361 211 331 242 246 269 C178 291 154 311 154 364 C154 400 174 417 216 417 C219 417 222 417 225 417 L225 416 C270 412 296 386 303 335 C304 328 305 322 306 315 L325 315 L344 315 L344 398 L344 398 L344 426 C304 449 260 460 209 460 C118 460 74 418 74 331 C74 248 101 220 180 195 C256 171 282 149 282 95 C282 51 257 30 204 30 C200 30 196 30 192 30 L192 30 C146 35 118 63 105 116 C103 124 101 132 100 139 L79 139 L59 139 L60 47 L60 47 Z " />
<glyph glyph-name="t" unicode="t" horiz-adv-x="364" d="M335 61 L331 72 C329 68 308 66 265 66 C215 66 191 83 191 117 L190 398 L322 398 L322 450 L190 450 L190 563 L184 563 L101 450 L18 404 L18 398 L101 398 L101 98 C101 25 138 -10 214 -10 C272 -10 311 13 335 61 L335 61 Z " />
<glyph glyph-name="u" unicode="u" horiz-adv-x="554" d="M374 330 L374 101 C348 79 317 71 273 71 C210 71 180 100 180 160 L180 450 L136 450 L91 450 L26 450 L26 435 L26 411 L36 410 C73 403 91 377 91 330 L91 107 C91 28 134 -10 222 -10 C271 -10 316 10 374 65 L374 0 L419 0 L463 0 L533 0 C534 0 534 5 533 15 C534 31 534 39 533 39 L523 40 C483 47 464 73 463 120 L463 450 L419 450 L374 450 L304 450 L304 435 L304 411 L315 410 C355 403 374 377 374 330 L374 330 Z " />
<glyph glyph-name="v" unicode="v" horiz-adv-x="552" d="M377 334 L295 128 L200 331 C178 378 190 404 237 410 L254 412 C255 412 255 420 254 436 C255 446 255 451 254 451 L144 451 L95 451 L46 451 L9 451 L9 435 L9 412 L18 411 C50 404 76 381 98 339 L249 13 L255 1 L278 1 L422 326 L423 326 C444 373 472 399 509 407 L519 408 L519 433 L519 451 L478 451 L450 451 L422 451 L322 451 L322 434 L322 408 L334 407 C376 400 389 377 376 335 L377 334 L377 334 Z " />
<glyph glyph-name="w" unicode="w" horiz-adv-x="814" d="M661 336 L535 12 L540 0 L564 0 L710 334 C731 376 758 399 793 406 L803 407 L803 432 L803 450 L762 450 L734 450 L706 450 L606 450 L606 433 L606 407 L618 406 C659 399 673 376 661 336 L661 336 Z M108 335 L224 11 L228 0 L255 0 L449 419 L435 450 L413 450 L409 438 L275 128 L202 337 C189 380 205 404 250 409 L273 412 L273 436 L273 451 L163 451 L115 451 L68 451 L27 451 L27 435 L27 412 L36 411 C68 404 92 380 109 336 L108 335 L108 335 Z M450 420 L401 313 L536 13 L582 132 L450 420 L450 420 Z " />
<glyph glyph-name="x" unicode="x" horiz-adv-x="514" d="M392 120 L392 120 L295 253 L356 330 L356 330 C394 377 424 403 449 410 L455 411 L455 431 L455 450 L451 450 L423 450 L395 450 L300 450 L300 435 L300 411 L309 410 C340 404 344 382 319 343 L276 282 L233 341 C207 381 213 404 252 410 L263 411 L263 435 L263 450 L153 450 L104 450 L56 450 L54 450 L54 431 L54 411 L60 410 C81 403 108 377 141 330 L142 330 L218 224 L143 120 L143 120 C109 73 81 47 56 40 L50 39 L50 18 L50 0 L57 0 L85 0 L113 0 L218 0 L218 15 L218 39 L207 40 C169 46 161 68 182 107 L239 194 L301 107 C325 68 322 46 291 40 L282 39 L282 15 L282 0 L377 0 L429 0 L481 0 L483 0 L483 19 L483 39 L477 40 C455 47 428 73 394 120 L392 120 L392 120 Z " />
<glyph glyph-name="y" unicode="y" horiz-adv-x="491" d="M77 330 L77 330 L224 11 L194 -61 C167 -131 149 -147 98 -147 L48 -147 L44 -151 L44 -207 C44 -234 51 -240 82 -240 C155 -240 184 -209 235 -78 L401 325 L401 325 C421 372 448 398 485 406 L495 407 L495 432 L495 450 L452 450 L428 450 L404 450 L304 450 C305 450 305 445 304 433 C305 416 305 407 304 407 L316 406 C356 399 370 377 357 337 L267 117 L270 124 L172 336 C155 379 168 403 213 409 L230 411 L230 435 L230 450 L120 450 L71 450 L22 450 L-15 450 L-15 434 L-15 411 L-6 410 C28 403 55 377 77 330 L77 330 Z " />
<glyph glyph-name="z" unicode="z" horiz-adv-x="458" d="M55 425 C52 382 48 342 44 300 L59 300 L83 300 L89 330 C99 377 126 400 173 400 L256 400 L64 50 L47 20 L47 0 L64 0 L138 0 L383 0 L383 25 L383 50 L383 155 L368 155 L345 155 L341 120 C336 73 310 50 264 50 L165 50 L357 400 L375 433 L375 450 L357 450 L283 450 L177 450 C130 450 103 453 92 459 L90 460 L68 460 L58 460 C58 457 58 454 58 451 L57 451 L57 440 C57 435 56 430 55 425 L55 425 Z " />
<glyph glyph-name="bar" unicode="&#x7c;" horiz-adv-x="227" d="M72 -260 L128 -260 L128 760 L72 760 L72 -260 L72 -260 Z " />
<glyph glyph-name="exclamdown" unicode="&#xa1;" horiz-adv-x="257" d="M131 460 C176 460 198 438 198 393 C198 348 176 326 131 326 C86 326 64 348 64 393 C64 438 86 460 131 460 L131 460 Z M70 -210 L120 246 L143 246 L193 -210 L70 -210 L70 -210 Z " />
<glyph glyph-name="guillemotleft" unicode="&#xab;" horiz-adv-x="431" d="M399 425 L199 248 L399 70 L411 70 L310 248 L411 425 L399 425 L399 425 Z M214 425 L14 248 L214 70 L227 70 L126 248 L227 425 L214 425 L214 425 Z " />
<glyph glyph-name="periodcentered" unicode="&#xb7;" horiz-adv-x="263" d="M132 210 C177 210 199 232 199 277 C199 322 177 344 132 344 C87 344 65 322 65 277 C65 232 87 210 132 210 L132 210 Z " />
<glyph glyph-name="guillemotright" unicode="&#xbb;" horiz-adv-x="435" d="M203 425 L304 248 L203 70 L215 70 L416 248 L215 425 L203 425 L203 425 Z M20 425 L121 248 L20 70 L32 70 L233 248 L32 425 L20 425 L20 425 Z " />
<glyph glyph-name="questiondown" unicode="&#xbf;" horiz-adv-x="480" d="M263 455 C218 455 197 433 197 388 C197 343 218 321 263 321 C309 321 331 343 330 388 C331 433 309 455 263 455 L263 455 Z M304 105 L275 246 L252 246 L244 184 C116 132 55 60 55 -35 C55 -160 113 -220 233 -220 C373 -220 441 -167 441 -57 C441 -27 427 -13 398 -13 L352 -13 L343 -24 L343 -68 C343 -137 318 -171 267 -171 C193 -171 158 -127 158 -35 C158 24 205 69 304 105 L304 105 Z " />
<glyph glyph-name="Agrave" unicode="&#xc0;" horiz-adv-x="750" d="M373 705 L286 864 L197 864 C197 839 207 819 229 803 L360 705 L373 705 L373 705 Z M623 115 L623 115 L407 638 L396 665 L346 665 L321 604 L321 604 L115 98 C96 55 74 32 46 27 L38 26 L38 10 L38 -1 L75 -1 L113 -1 L151 -1 L251 -1 L251 14 L251 38 L239 39 C194 46 180 71 196 115 L225 188 L225 186 L489 186 L521 108 C534 68 519 46 476 40 L458 38 L458 14 L458 -1 L566 -1 L619 -1 L671 -1 L709 -1 L709 14 L709 34 L700 35 C668 41 644 67 624 114 L623 115 L623 115 Z M465 248 L249 248 L355 519 L465 248 L465 248 Z " />
<glyph glyph-name="Aacute" unicode="&#xc1;" horiz-adv-x="750" d="M366 705 L380 705 L511 803 C533 819 543 839 543 864 L453 864 L366 705 L366 705 Z M623 115 L623 115 L407 638 L396 665 L346 665 L321 604 L321 604 L115 98 C96 55 74 32 46 27 L38 26 L38 10 L38 -1 L75 -1 L113 -1 L151 -1 L251 -1 L251 14 L251 38 L239 39 C194 46 180 71 196 115 L225 188 L225 186 L489 186 L521 108 C534 68 519 46 476 40 L458 38 L458 14 L458 -1 L566 -1 L619 -1 L671 -1 L709 -1 L709 14 L709 34 L700 35 C668 41 644 67 624 114 L623 115 L623 115 Z M465 248 L249 248 L355 519 L465 248 L465 248 Z " />
<glyph glyph-name="Acircumflex" unicode="&#xc2;" horiz-adv-x="750" d="M522 705 L387 862 L357 862 L226 705 L240 705 L373 785 L509 705 L522 705 L522 705 Z M623 115 L623 115 L407 638 L396 665 L346 665 L321 604 L321 604 L115 98 C96 55 74 32 46 27 L38 26 L38 10 L38 -1 L75 -1 L113 -1 L151 -1 L251 -1 L251 14 L251 38 L239 39 C194 46 180 71 196 115 L225 188 L225 186 L489 186 L521 108 C534 68 519 46 476 40 L458 38 L458 14 L458 -1 L566 -1 L619 -1 L671 -1 L709 -1 L709 14 L709 34 L700 35 C668 41 644 67 624 114 L623 115 L623 115 Z M465 248 L249 248 L355 519 L465 248 L465 248 Z " />
<glyph glyph-name="Atilde" unicode="&#xc3;" horiz-adv-x="750" d="M239 727 C252 765 258 782 293 782 C351 782 377 725 434 725 C489 725 501 762 529 840 L515 840 C501 802 494 783 460 783 C403 783 377 841 320 841 C264 841 252 804 224 727 L239 727 L239 727 Z M623 115 L623 115 L407 638 L396 665 L346 665 L321 604 L321 604 L115 98 C96 55 74 32 46 27 L38 26 L38 10 L38 -1 L75 -1 L113 -1 L151 -1 L251 -1 L251 14 L251 38 L239 39 C194 46 180 71 196 115 L225 188 L225 186 L489 186 L521 108 C534 68 519 46 476 40 L458 38 L458 14 L458 -1 L566 -1 L619 -1 L671 -1 L709 -1 L709 14 L709 34 L700 35 C668 41 644 67 624 114 L623 115 L623 115 Z M465 248 L249 248 L355 519 L465 248 L465 248 Z " />
<glyph glyph-name="Adieresis" unicode="&#xc4;" horiz-adv-x="750" d="M466 735 C504 735 522 753 522 791 C522 829 504 847 466 847 C429 847 411 829 411 791 C411 753 429 735 466 735 L466 735 Z M277 735 C315 735 333 753 333 791 C333 829 315 847 277 847 C239 847 221 829 221 791 C221 753 239 735 277 735 L277 735 Z M623 115 L623 115 L407 638 L396 665 L346 665 L321 604 L321 604 L115 98 C96 55 74 32 46 27 L38 26 L38 10 L38 -1 L75 -1 L113 -1 L151 -1 L251 -1 L251 14 L251 38 L239 39 C194 46 180 71 196 115 L225 188 L225 186 L489 186 L521 108 C534 68 519 46 476 40 L458 38 L458 14 L458 -1 L566 -1 L619 -1 L671 -1 L709 -1 L709 14 L709 34 L700 35 C668 41 644 67 624 114 L623 115 L623 115 Z M465 248 L249 248 L355 519 L465 248 L465 248 Z " />
<glyph glyph-name="Aring" unicode="&#xc5;" horiz-adv-x="750" d="M376 736 C354 736 340 762 340 803 C340 836 350 852 369 852 C393 852 404 831 404 788 C404 756 393 736 376 736 L376 736 Z M285 795 C285 743 319 710 372 710 C425 710 459 744 459 797 C459 852 431 879 372 879 C313 879 285 852 285 795 L285 795 Z M623 115 L623 115 L407 638 L396 665 L346 665 L321 604 L321 604 L115 98 C96 55 74 32 46 27 L38 26 L38 10 L38 -1 L75 -1 L113 -1 L151 -1 L251 -1 L251 14 L251 38 L239 39 C194 46 180 71 196 115 L225 188 L225 186 L489 186 L521 108 C534 68 519 46 476 40 L458 38 L458 14 L458 -1 L566 -1 L619 -1 L671 -1 L709 -1 L709 14 L709 34 L700 35 C668 41 644 67 624 114 L623 115 L623 115 Z M465 248 L249 248 L355 519 L465 248 L465 248 Z " />
<glyph glyph-name="Ccedilla" unicode="&#xc7;" horiz-adv-x="718" d="M399 -75 L429 -10 C516 -6 581 15 627 54 L637 213 C629 214 621 214 614 215 C606 215 598 215 591 216 C586 200 582 184 578 167 C565 117 541 85 504 68 C471 54 437 47 401 47 C247 47 173 144 173 344 C173 527 251 615 413 615 C441 615 467 610 492 600 C526 584 548 553 560 503 C565 481 570 461 575 440 C583 440 591 440 600 441 C608 441 616 441 624 442 L617 618 C578 654 511 671 413 671 C181 671 69 554 69 311 C69 99 173 -5 389 -9 L334 -128 L366 -143 C403 -149 420 -160 420 -177 C420 -198 408 -208 382 -208 C348 -208 326 -203 314 -191 L314 -203 C340 -227 367 -239 398 -239 C458 -239 487 -213 487 -159 C487 -115 458 -87 398 -73 L399 -75 L399 -75 Z " />
<glyph glyph-name="Egrave" unicode="&#xc8;" horiz-adv-x="651" d="M342 705 L255 864 L166 864 C166 839 176 819 198 803 L329 705 L342 705 L342 705 Z M582 31 L582 61 L582 186 C582 187 577 187 566 186 C544 187 533 187 533 186 L521 131 C512 84 484 62 437 61 L245 61 L245 309 L337 309 C384 309 411 287 419 241 L421 229 L452 229 L472 229 L472 309 L472 340 L472 371 L472 451 C472 450 466 450 452 451 C431 450 421 450 421 451 L419 439 C411 395 386 372 343 371 L337 371 L245 371 L245 599 L412 599 C459 599 487 576 497 529 L508 484 L541 484 L557 484 L557 599 L557 629 L557 660 L537 660 L518 660 L507 660 L437 660 L245 660 L195 660 L170 660 L144 660 L64 660 L64 643 L64 617 L76 616 C122 608 144 582 144 535 L144 125 C144 78 122 52 76 44 L64 43 L64 17 L64 0 L144 0 L170 0 L195 0 L245 0 L462 0 L532 0 L543 0 L562 0 L582 0 L582 31 L582 31 Z " />
<glyph glyph-name="Eacute" unicode="&#xc9;" horiz-adv-x="651" d="M335 705 L349 705 L480 803 C501 819 512 839 512 864 L422 864 L335 705 L335 705 Z M582 31 L582 61 L582 186 C582 187 577 187 566 186 C544 187 533 187 533 186 L521 131 C512 84 484 62 437 61 L245 61 L245 309 L337 309 C384 309 411 287 419 241 L421 229 L452 229 L472 229 L472 309 L472 340 L472 371 L472 451 C472 450 466 450 452 451 C431 450 421 450 421 451 L419 439 C411 395 386 372 343 371 L337 371 L245 371 L245 599 L412 599 C459 599 487 576 497 529 L508 484 L541 484 L557 484 L557 599 L557 629 L557 660 L537 660 L518 660 L507 660 L437 660 L245 660 L195 660 L170 660 L144 660 L64 660 L64 643 L64 617 L76 616 C122 608 144 582 144 535 L144 125 C144 78 122 52 76 44 L64 43 L64 17 L64 0 L144 0 L170 0 L195 0 L245 0 L462 0 L532 0 L543 0 L562 0 L582 0 L582 31 L582 31 Z " />
<glyph glyph-name="Ecircumflex" unicode="&#xca;" horiz-adv-x="651" d="M486 705 L351 862 L321 862 L190 705 L203 705 L337 785 L473 705 L486 705 L486 705 Z M582 31 L582 61 L582 186 C582 187 577 187 566 186 C544 187 533 187 533 186 L521 131 C512 84 484 62 437 61 L245 61 L245 309 L337 309 C384 309 411 287 419 241 L421 229 L452 229 L472 229 L472 309 L472 340 L472 371 L472 451 C472 450 466 450 452 451 C431 450 421 450 421 451 L419 439 C411 395 386 372 343 371 L337 371 L245 371 L245 599 L412 599 C459 599 487 576 497 529 L508 484 L541 484 L557 484 L557 599 L557 629 L557 660 L537 660 L518 660 L507 660 L437 660 L245 660 L195 660 L170 660 L144 660 L64 660 L64 643 L64 617 L76 616 C122 608 144 582 144 535 L144 125 C144 78 122 52 76 44 L64 43 L64 17 L64 0 L144 0 L170 0 L195 0 L245 0 L462 0 L532 0 L543 0 L562 0 L582 0 L582 31 L582 31 Z " />
<glyph glyph-name="Edieresis" unicode="&#xcb;" horiz-adv-x="651" d="M430 735 C468 735 486 753 486 791 C486 829 468 847 430 847 C392 847 374 829 374 791 C374 753 392 735 430 735 L430 735 Z M241 735 C279 735 297 753 297 791 C297 829 279 847 241 847 C203 847 185 829 185 791 C185 753 203 735 241 735 L241 735 Z M582 31 L582 61 L582 186 C582 187 577 187 566 186 C544 187 533 187 533 186 L521 131 C512 84 484 62 437 61 L245 61 L245 309 L337 309 C384 309 411 287 419 241 L421 229 L452 229 L472 229 L472 309 L472 340 L472 371 L472 451 C472 450 466 450 452 451 C431 450 421 450 421 451 L419 439 C411 395 386 372 343 371 L337 371 L245 371 L245 599 L412 599 C459 599 487 576 497 529 L508 484 L541 484 L557 484 L557 599 L557 629 L557 660 L537 660 L518 660 L507 660 L437 660 L245 660 L195 660 L170 660 L144 660 L64 660 L64 643 L64 617 L76 616 C122 608 144 582 144 535 L144 125 C144 78 122 52 76 44 L64 43 L64 17 L64 0 L144 0 L170 0 L195 0 L245 0 L462 0 L532 0 L543 0 L562 0 L582 0 L582 31 L582 31 Z " />
<glyph glyph-name="Igrave" unicode="&#xcc;" horiz-adv-x="400" d="M207 705 L120 864 L30 864 C30 839 40 819 62 803 L193 705 L207 705 L207 705 Z M200 0 L250 0 L330 0 C331 0 331 5 330 17 C331 34 331 43 330 43 L318 44 C273 52 251 78 250 125 L250 535 C251 582 273 608 318 616 L330 617 C331 617 331 626 330 643 C331 655 331 660 330 660 L250 660 L200 660 L150 660 L70 660 L70 643 L70 617 L82 616 C128 608 150 582 150 535 L150 125 C150 78 128 52 82 44 L70 43 L70 17 L70 0 L150 0 L200 0 L200 0 Z " />
<glyph glyph-name="Iacute" unicode="&#xcd;" horiz-adv-x="400" d="M200 705 L213 705 L344 803 C366 819 376 839 376 864 L287 864 L200 705 L200 705 Z M200 0 L250 0 L330 0 C331 0 331 5 330 17 C331 34 331 43 330 43 L318 44 C273 52 251 78 250 125 L250 535 C251 582 273 608 318 616 L330 617 C331 617 331 626 330 643 C331 655 331 660 330 660 L250 660 L200 660 L150 660 L70 660 L70 643 L70 617 L82 616 C128 608 150 582 150 535 L150 125 C150 78 128 52 82 44 L70 43 L70 17 L70 0 L150 0 L200 0 L200 0 Z " />
<glyph glyph-name="Icircumflex" unicode="&#xce;" horiz-adv-x="400" d="M351 705 L215 862 L185 862 L55 705 L68 705 L201 785 L338 705 L351 705 L351 705 Z M200 0 L250 0 L330 0 C331 0 331 5 330 17 C331 34 331 43 330 43 L318 44 C273 52 251 78 250 125 L250 535 C251 582 273 608 318 616 L330 617 C331 617 331 626 330 643 C331 655 331 660 330 660 L250 660 L200 660 L150 660 L70 660 L70 643 L70 617 L82 616 C128 608 150 582 150 535 L150 125 C150 78 128 52 82 44 L70 43 L70 17 L70 0 L150 0 L200 0 L200 0 Z " />
<glyph glyph-name="Idieresis" unicode="&#xcf;" horiz-adv-x="400" d="M295 735 C333 735 351 753 351 791 C351 829 333 847 295 847 C257 847 239 829 239 791 C239 753 257 735 295 735 L295 735 Z M106 735 C143 735 161 753 161 791 C161 829 143 847 106 847 C68 847 50 829 50 791 C50 753 68 735 106 735 L106 735 Z M200 0 L250 0 L330 0 C331 0 331 5 330 17 C331 34 331 43 330 43 L318 44 C273 52 251 78 250 125 L250 535 C251 582 273 608 318 616 L330 617 C331 617 331 626 330 643 C331 655 331 660 330 660 L250 660 L200 660 L150 660 L70 660 L70 643 L70 617 L82 616 C128 608 150 582 150 535 L150 125 C150 78 128 52 82 44 L70 43 L70 17 L70 0 L150 0 L200 0 L200 0 Z " />
<glyph glyph-name="Ntilde" unicode="&#xd1;" horiz-adv-x="806" d="M281 727 C295 765 301 782 336 782 C393 782 419 725 477 725 C531 725 544 762 572 840 L558 840 C544 802 537 783 503 783 C446 783 420 841 362 841 C307 841 295 804 267 727 L281 727 L281 727 Z M667 535 C667 582 687 608 730 616 L742 617 L742 643 L742 660 L667 660 L628 660 L589 660 L489 660 L489 643 L489 617 L519 614 C566 608 589 582 589 535 L589 203 L220 660 L181 660 L142 660 L67 660 L67 643 L67 617 L78 616 C122 608 142 582 142 535 L142 125 C142 78 120 52 74 44 L62 43 L62 17 L62 0 L142 0 L181 0 L220 0 L320 0 L320 17 L320 43 L290 46 C243 52 220 78 220 125 L220 497 L590 41 L628 -5 L667 -5 L667 106 L667 535 L667 535 Z " />
<glyph glyph-name="Ograve" unicode="&#xd2;" horiz-adv-x="809" d="M396 705 L309 864 L220 864 C220 839 230 819 252 803 L383 705 L396 705 L396 705 Z M427 46 C258 46 177 150 177 366 C177 534 245 615 385 615 C552 615 633 509 633 289 C633 125 566 46 427 46 L427 46 Z M70 327 C70 100 179 -10 405 -10 C631 -10 740 100 740 328 C740 559 631 670 405 670 C179 670 70 559 70 327 L70 327 Z " />
<glyph glyph-name="Oacute" unicode="&#xd3;" horiz-adv-x="809" d="M390 705 L403 705 L534 803 C556 819 566 839 566 864 L477 864 L390 705 L390 705 Z M427 46 C258 46 177 150 177 366 C177 534 245 615 385 615 C552 615 633 509 633 289 C633 125 566 46 427 46 L427 46 Z M70 327 C70 100 179 -10 405 -10 C631 -10 740 100 740 328 C740 559 631 670 405 670 C179 670 70 559 70 327 L70 327 Z " />
<glyph glyph-name="Ocircumflex" unicode="&#xd4;" horiz-adv-x="809" d="M541 705 L405 862 L375 862 L244 705 L258 705 L391 785 L527 705 L541 705 L541 705 Z M427 46 C258 46 177 150 177 366 C177 534 245 615 385 615 C552 615 633 509 633 289 C633 125 566 46 427 46 L427 46 Z M70 327 C70 100 179 -10 405 -10 C631 -10 740 100 740 328 C740 559 631 670 405 670 C179 670 70 559 70 327 L70 327 Z " />
<glyph glyph-name="Otilde" unicode="&#xd5;" horiz-adv-x="809" d="M252 727 C265 765 272 782 307 782 C364 782 390 725 447 725 C502 725 515 762 543 840 L528 840 C515 802 508 783 473 783 C416 783 390 841 333 841 C277 841 265 804 237 727 L252 727 L252 727 Z M427 46 C258 46 177 150 177 366 C177 534 245 615 385 615 C552 615 633 509 633 289 C633 125 566 46 427 46 L427 46 Z M70 327 C70 100 179 -10 405 -10 C631 -10 740 100 740 328 C740 559 631 670 405 670 C179 670 70 559 70 327 L70 327 Z " />
<glyph glyph-name="Odieresis" unicode="&#xd6;" horiz-adv-x="809" d="M485 735 C522 735 540 753 540 791 C540 829 522 847 485 847 C447 847 429 829 429 791 C429 753 447 735 485 735 L485 735 Z M295 735 C333 735 351 753 351 791 C351 829 333 847 295 847 C257 847 239 829 239 791 C239 753 257 735 295 735 L295 735 Z M427 46 C258 46 177 150 177 366 C177 534 245 615 385 615 C552 615 633 509 633 289 C633 125 566 46 427 46 L427 46 Z M70 327 C70 100 179 -10 405 -10 C631 -10 740 100 740 328 C740 559 631 670 405 670 C179 670 70 559 70 327 L70 327 Z " />
<glyph glyph-name="Oslash" unicode="&#xd8;" horiz-adv-x="809" d="M427 46 C351 46 293 67 252 110 L593 501 C620 449 633 378 633 289 C633 125 566 46 427 46 L427 46 Z M70 327 C70 217 96 135 148 79 L71 -10 L148 -10 L193 42 C246 7 317 -10 406 -10 C632 -10 741 100 741 328 C741 440 715 524 663 581 L741 670 L664 670 L619 618 C566 653 495 670 406 670 C180 670 71 559 71 327 L70 327 L70 327 Z M218 159 C191 210 178 279 178 366 C178 534 246 615 386 615 C461 615 519 594 560 550 L218 159 L218 159 Z " />
<glyph glyph-name="Ugrave" unicode="&#xd9;" horiz-adv-x="809" d="M420 705 L333 864 L243 864 C243 839 253 819 275 803 L406 705 L420 705 L420 705 Z M586 535 L586 535 L587 210 C587 105 537 55 433 55 C304 55 242 119 242 252 L242 535 C243 582 265 608 310 616 L322 617 C323 617 323 626 322 643 C323 655 323 660 322 660 L242 660 L192 660 L142 660 L62 660 L62 643 L62 617 L74 616 C120 608 142 582 142 535 L142 234 C142 69 227 -10 403 -10 C579 -10 664 69 664 234 L664 535 C665 582 687 608 732 616 L744 617 C745 617 745 626 744 643 C745 655 745 660 744 660 L664 660 L625 660 L586 660 L486 660 L486 643 L486 617 L517 614 C563 608 586 582 586 535 L586 535 Z " />
<glyph glyph-name="Uacute" unicode="&#xda;" horiz-adv-x="809" d="M403 705 L416 705 L547 803 C569 819 579 839 579 864 L490 864 L403 705 L403 705 Z M586 535 L586 535 L587 210 C587 105 537 55 433 55 C304 55 242 119 242 252 L242 535 C243 582 265 608 310 616 L322 617 C323 617 323 626 322 643 C323 655 323 660 322 660 L242 660 L192 660 L142 660 L62 660 L62 643 L62 617 L74 616 C120 608 142 582 142 535 L142 234 C142 69 227 -10 403 -10 C579 -10 664 69 664 234 L664 535 C665 582 687 608 732 616 L744 617 C745 617 745 626 744 643 C745 655 745 660 744 660 L664 660 L625 660 L586 660 L486 660 L486 643 L486 617 L517 614 C563 608 586 582 586 535 L586 535 Z " />
<glyph glyph-name="Ucircumflex" unicode="&#xdb;" horiz-adv-x="809" d="M564 705 L428 862 L398 862 L267 705 L281 705 L414 785 L550 705 L564 705 L564 705 Z M586 535 L586 535 L587 210 C587 105 537 55 433 55 C304 55 242 119 242 252 L242 535 C243 582 265 608 310 616 L322 617 C323 617 323 626 322 643 C323 655 323 660 322 660 L242 660 L192 660 L142 660 L62 660 L62 643 L62 617 L74 616 C120 608 142 582 142 535 L142 234 C142 69 227 -10 403 -10 C579 -10 664 69 664 234 L664 535 C665 582 687 608 732 616 L744 617 C745 617 745 626 744 643 C745 655 745 660 744 660 L664 660 L625 660 L586 660 L486 660 L486 643 L486 617 L517 614 C563 608 586 582 586 535 L586 535 Z " />
<glyph glyph-name="Udieresis" unicode="&#xdc;" horiz-adv-x="809" d="M508 735 C546 735 564 753 564 791 C564 829 546 847 508 847 C470 847 452 829 452 791 C452 753 470 735 508 735 L508 735 Z M319 735 C356 735 374 753 374 791 C374 829 356 847 319 847 C281 847 263 829 263 791 C263 753 281 735 319 735 L319 735 Z M586 535 L586 535 L587 210 C587 105 537 55 433 55 C304 55 242 119 242 252 L242 535 C243 582 265 608 310 616 L322 617 C323 617 323 626 322 643 C323 655 323 660 322 660 L242 660 L192 660 L142 660 L62 660 L62 643 L62 617 L74 616 C120 608 142 582 142 535 L142 234 C142 69 227 -10 403 -10 C579 -10 664 69 664 234 L664 535 C665 582 687 608 732 616 L744 617 C745 617 745 626 744 643 C745 655 745 660 744 660 L664 660 L625 660 L586 660 L486 660 L486 643 L486 617 L517 614 C563 608 586 582 586 535 L586 535 Z " />
<glyph glyph-name="Yacute" unicode="&#xdd;" horiz-adv-x="719" d="M356 705 L369 705 L500 803 C522 819 532 839 532 864 L443 864 L356 705 L356 705 Z M493 535 L493 535 L379 370 L257 535 L257 535 C222 582 224 608 264 616 L274 617 C275 617 275 626 274 643 C275 655 275 660 274 660 L164 660 L111 660 L58 660 L46 660 L46 642 L46 621 L53 620 C81 613 110 587 144 540 L144 540 L310 308 L310 125 C310 78 287 52 240 45 L220 43 L220 17 L220 0 L310 0 L360 0 L411 0 L501 0 C500 0 500 5 501 17 C500 34 500 43 501 43 L480 45 C435 52 412 76 411 119 L411 125 L411 310 L587 563 C616 602 641 623 665 628 L672 629 L672 646 L672 660 L654 660 L616 660 L579 660 L464 660 L464 643 L464 617 L475 616 C520 608 525 582 492 535 L493 535 L493 535 Z " />
<glyph glyph-name="agrave" unicode="&#xe0;" horiz-adv-x="576" d="M306 530 L219 707 L129 707 C129 679 139 656 161 639 L292 530 L306 530 L306 530 Z M420 0 L459 0 L529 0 C528 0 528 5 529 15 C528 31 528 39 529 39 L518 40 C480 47 460 71 459 114 L459 121 L459 141 L459 431 L459 461 L447 461 L404 444 C371 455 332 461 287 461 C126 461 48 374 48 194 C48 57 104 -9 219 -9 C290 -9 339 32 371 115 L380 1 L420 0 L420 0 Z M369 383 L369 148 C347 93 318 66 281 66 C183 66 135 117 135 222 C135 347 179 407 272 407 C299 407 331 399 368 383 L369 383 L369 383 Z " />
<glyph glyph-name="aacute" unicode="&#xe1;" horiz-adv-x="491" d="M237 530 L251 530 L382 639 C404 656 414 679 414 707 L324 707 L237 530 L237 530 Z M295 258 C111 217 45 165 45 90 C45 23 80 -10 154 -10 C217 -10 262 6 298 48 C308 9 337 -10 388 -10 C435 -10 466 10 485 51 L482 57 C485 65 480 69 467 69 C411 69 384 70 384 73 L385 351 C385 425 347 460 238 460 C119 460 54 411 57 324 C58 301 65 291 80 292 L144 292 L149 297 L149 334 C147 381 169 408 209 408 C273 408 295 382 295 327 L295 258 L295 258 Z M295 218 L295 81 C295 80 295 79 295 78 C274 63 245 57 204 57 C155 57 132 75 132 112 C132 158 175 190 295 218 L295 218 Z " />
<glyph glyph-name="acircumflex" unicode="&#xe2;" horiz-adv-x="576" d="M450 530 L314 705 L284 705 L154 530 L167 530 L299 619 L437 530 L450 530 L450 530 Z M420 0 L459 0 L529 0 C528 0 528 5 529 15 C528 31 528 39 529 39 L518 40 C480 47 460 71 459 114 L459 121 L459 141 L459 431 L459 461 L447 461 L404 444 C371 455 332 461 287 461 C126 461 48 374 48 194 C48 57 104 -9 219 -9 C290 -9 339 32 371 115 L380 1 L420 0 L420 0 Z M369 383 L369 148 C347 93 318 66 281 66 C183 66 135 117 135 222 C135 347 179 407 272 407 C299 407 331 399 368 383 L369 383 L369 383 Z " />
<glyph glyph-name="atilde" unicode="&#xe3;" horiz-adv-x="576" d="M146 555 C160 596 166 616 201 616 C258 616 284 552 341 552 C396 552 409 594 437 680 L422 680 C409 637 402 617 368 617 C311 617 284 681 227 681 C172 681 160 640 132 555 L146 555 L146 555 Z M420 0 L459 0 L529 0 C528 0 528 5 529 15 C528 31 528 39 529 39 L518 40 C480 47 460 71 459 114 L459 121 L459 141 L459 431 L459 461 L447 461 L404 444 C371 455 332 461 287 461 C126 461 48 374 48 194 C48 57 104 -9 219 -9 C290 -9 339 32 371 115 L380 1 L420 0 L420 0 Z M369 383 L369 148 C347 93 318 66 281 66 C183 66 135 117 135 222 C135 347 179 407 272 407 C299 407 331 399 368 383 L369 383 L369 383 Z " />
<glyph glyph-name="adieresis" unicode="&#xe4;" horiz-adv-x="576" d="M379 570 C417 570 435 588 435 626 C435 664 417 682 379 682 C341 682 323 664 323 626 C323 588 341 570 379 570 L379 570 Z M190 570 C227 570 245 588 245 626 C245 664 227 682 190 682 C152 682 134 664 134 626 C134 588 152 570 190 570 L190 570 Z M420 0 L459 0 L529 0 C528 0 528 5 529 15 C528 31 528 39 529 39 L518 40 C480 47 460 71 459 114 L459 121 L459 141 L459 431 L459 461 L447 461 L404 444 C371 455 332 461 287 461 C126 461 48 374 48 194 C48 57 104 -9 219 -9 C290 -9 339 32 371 115 L380 1 L420 0 L420 0 Z M369 383 L369 148 C347 93 318 66 281 66 C183 66 135 117 135 222 C135 347 179 407 272 407 C299 407 331 399 368 383 L369 383 L369 383 Z " />
<glyph glyph-name="aring" unicode="&#xe5;" horiz-adv-x="576" d="M294 561 C272 561 258 587 258 628 C258 661 267 677 287 677 C310 677 321 656 321 613 C321 581 310 561 294 561 L294 561 Z M203 620 C203 568 237 535 289 535 C342 535 376 569 376 622 C376 677 348 704 289 704 C231 704 203 677 203 620 L203 620 Z M420 0 L459 0 L529 0 C528 0 528 5 529 15 C528 31 528 39 529 39 L518 40 C480 47 460 71 459 114 L459 121 L459 141 L459 431 L459 461 L447 461 L404 444 C371 455 332 461 287 461 C126 461 48 374 48 194 C48 57 104 -9 219 -9 C290 -9 339 32 371 115 L380 1 L420 0 L420 0 Z M369 383 L369 148 C347 93 318 66 281 66 C183 66 135 117 135 222 C135 347 179 407 272 407 C299 407 331 399 368 383 L369 383 L369 383 Z " />
<glyph glyph-name="ccedilla" unicode="&#xe7;" horiz-adv-x="477" d="M259 -75 L290 -8 C353 1 400 40 434 111 L434 121 L429 121 C384 89 345 74 309 74 C194 74 138 133 138 255 C138 361 173 412 247 412 C285 412 313 397 335 365 L366 320 L373 320 L418 351 C428 360 432 370 432 382 C432 389 428 399 418 413 C396 445 351 461 282 461 C125 461 50 378 50 204 C50 64 115 -5 249 -9 L194 -128 L227 -143 C263 -149 281 -160 281 -177 C281 -198 269 -208 243 -208 C208 -208 186 -203 174 -191 L174 -203 C200 -227 228 -239 258 -239 C319 -239 348 -213 348 -159 C348 -115 319 -87 259 -73 L259 -75 L259 -75 Z " />
<glyph glyph-name="egrave" unicode="&#xe8;" horiz-adv-x="483" d="M258 530 L171 707 L82 707 C82 679 92 656 114 639 L245 530 L258 530 L258 530 Z M261 293 L140 293 C148 372 182 410 244 410 C307 410 342 372 351 293 L261 293 L261 293 Z M261 242 L394 242 L434 247 C434 391 378 460 261 460 C119 460 50 377 50 203 C50 59 119 -10 261 -10 C339 -10 395 29 434 110 L434 120 L429 120 C384 88 345 73 309 73 C198 73 142 128 138 242 L261 242 L261 242 Z " />
<glyph glyph-name="eacute" unicode="&#xe9;" horiz-adv-x="483" d="M252 530 L265 530 L396 639 C418 656 428 679 428 707 L339 707 L252 530 L252 530 Z M261 293 L140 293 C148 372 182 410 244 410 C307 410 342 372 351 293 L261 293 L261 293 Z M261 242 L394 242 L434 247 C434 391 378 460 261 460 C119 460 50 377 50 203 C50 59 119 -10 261 -10 C339 -10 395 29 434 110 L434 120 L429 120 C384 88 345 73 309 73 C198 73 142 128 138 242 L261 242 L261 242 Z " />
<glyph glyph-name="ecircumflex" unicode="&#xea;" horiz-adv-x="483" d="M403 530 L267 705 L237 705 L106 530 L120 530 L252 619 L389 530 L403 530 L403 530 Z M261 293 L140 293 C148 372 182 410 244 410 C307 410 342 372 351 293 L261 293 L261 293 Z M261 242 L394 242 L434 247 C434 391 378 460 261 460 C119 460 50 377 50 203 C50 59 119 -10 261 -10 C339 -10 395 29 434 110 L434 120 L429 120 C384 88 345 73 309 73 C198 73 142 128 138 242 L261 242 L261 242 Z " />
<glyph glyph-name="edieresis" unicode="&#xeb;" horiz-adv-x="483" d="M347 570 C385 570 403 588 403 626 C403 664 385 682 347 682 C309 682 291 664 291 626 C291 588 309 570 347 570 L347 570 Z M157 570 C195 570 213 588 213 626 C213 664 195 682 157 682 C120 682 102 664 102 626 C102 588 120 570 157 570 L157 570 Z M261 293 L140 293 C148 372 182 410 244 410 C307 410 342 372 351 293 L261 293 L261 293 Z M261 242 L394 242 L434 247 C434 391 378 460 261 460 C119 460 50 377 50 203 C50 59 119 -10 261 -10 C339 -10 395 29 434 110 L434 120 L429 120 C384 88 345 73 309 73 C198 73 142 128 138 242 L261 242 L261 242 Z " />
<glyph glyph-name="igrave" unicode="&#xec;" horiz-adv-x="326" d="M165 530 L78 707 L-11 707 C-11 679 -1 656 21 639 L152 530 L165 530 L165 530 Z M164 0 L208 0 L278 0 L278 15 L278 39 L268 40 C228 47 208 73 208 120 L208 305 L208 430 L208 460 L190 460 L54 405 L54 404 L54 392 L64 385 C101 357 119 321 119 274 L119 120 C119 73 101 47 64 40 L54 39 L54 15 L54 0 L119 0 L164 0 L164 0 Z " />
<glyph glyph-name="iacute" unicode="&#xed;" horiz-adv-x="326" d="M158 530 L172 530 L303 639 C325 656 335 679 335 707 L245 707 L158 530 L158 530 Z M164 0 L208 0 L278 0 L278 15 L278 39 L268 40 C228 47 208 73 208 120 L208 305 L208 430 L208 460 L190 460 L54 405 L54 404 L54 392 L64 385 C101 357 119 321 119 274 L119 120 C119 73 101 47 64 40 L54 39 L54 15 L54 0 L119 0 L164 0 L164 0 Z " />
<glyph glyph-name="icircumflex" unicode="&#xee;" horiz-adv-x="326" d="M309 530 L174 705 L144 705 L13 530 L26 530 L159 619 L296 530 L309 530 L309 530 Z M164 0 L208 0 L278 0 L278 15 L278 39 L268 40 C228 47 208 73 208 120 L208 305 L208 430 L208 460 L190 460 L54 405 L54 404 L54 392 L64 385 C101 357 119 321 119 274 L119 120 C119 73 101 47 64 40 L54 39 L54 15 L54 0 L119 0 L164 0 L164 0 Z " />
<glyph glyph-name="idieresis" unicode="&#xef;" horiz-adv-x="326" d="M253 570 C291 570 309 588 309 626 C309 664 291 682 253 682 C215 682 197 664 197 626 C197 588 215 570 253 570 L253 570 Z M64 570 C102 570 120 588 120 626 C120 664 102 682 64 682 C26 682 8 664 8 626 C8 588 26 570 64 570 L64 570 Z M164 0 L208 0 L278 0 L278 15 L278 39 L268 40 C228 47 208 73 208 120 L208 305 L208 430 L208 460 L190 460 L54 405 L54 404 L54 392 L64 385 C101 357 119 321 119 274 L119 120 C119 73 101 47 64 40 L54 39 L54 15 L54 0 L119 0 L164 0 L164 0 Z " />
<glyph glyph-name="ntilde" unicode="&#xf1;" horiz-adv-x="592" d="M163 555 C177 596 183 616 218 616 C275 616 301 552 358 552 C413 552 426 594 454 680 L439 680 C426 637 419 617 385 617 C327 617 301 681 244 681 C188 681 176 640 149 555 L163 555 L163 555 Z M443 0 L487 0 L552 0 C553 0 553 5 552 15 C553 31 553 39 552 39 L543 40 C505 47 488 73 487 120 L487 343 C487 422 443 460 353 460 C292 460 255 435 205 383 L205 383 L202 383 L200 460 L182 460 L51 405 L51 404 L51 392 L61 385 C98 357 116 321 116 274 L116 120 C116 73 98 47 61 40 L51 39 L51 15 L51 0 L116 0 L161 0 L205 0 L275 0 L275 15 L275 39 L265 40 C225 47 205 73 205 120 L205 305 L205 349 C228 371 253 381 305 381 C368 381 399 352 399 292 L399 120 C399 73 380 47 340 40 L329 39 L329 15 L329 0 L399 0 L443 0 L443 0 Z " />
<glyph glyph-name="ograve" unicode="&#xf2;" horiz-adv-x="540" d="M277 530 L190 707 L100 707 C100 679 110 656 132 639 L263 530 L277 530 L277 530 Z M286 37 C196 37 153 98 153 225 C153 352 179 413 255 413 C345 413 388 352 388 225 C388 98 362 37 286 37 L286 37 Z M50 225 C50 66 122 -10 270 -10 C434 -10 491 66 491 225 C491 384 419 460 270 460 C107 460 50 384 50 225 L50 225 Z " />
<glyph glyph-name="oacute" unicode="&#xf3;" horiz-adv-x="540" d="M270 530 L283 530 L414 639 C436 656 446 679 446 707 L357 707 L270 530 L270 530 Z M286 37 C196 37 153 98 153 225 C153 352 179 413 255 413 C345 413 388 352 388 225 C388 98 362 37 286 37 L286 37 Z M50 225 C50 66 122 -10 270 -10 C434 -10 491 66 491 225 C491 384 419 460 270 460 C107 460 50 384 50 225 L50 225 Z " />
<glyph glyph-name="ocircumflex" unicode="&#xf4;" horiz-adv-x="540" d="M421 530 L285 705 L255 705 L125 530 L138 530 L270 619 L408 530 L421 530 L421 530 Z M286 37 C196 37 153 98 153 225 C153 352 179 413 255 413 C345 413 388 352 388 225 C388 98 362 37 286 37 L286 37 Z M50 225 C50 66 122 -10 270 -10 C434 -10 491 66 491 225 C491 384 419 460 270 460 C107 460 50 384 50 225 L50 225 Z " />
<glyph glyph-name="otilde" unicode="&#xf5;" horiz-adv-x="540" d="M132 555 C146 596 152 616 187 616 C244 616 270 552 327 552 C382 552 395 594 423 680 L408 680 C395 637 388 617 354 617 C297 617 270 681 213 681 C158 681 146 640 118 555 L132 555 L132 555 Z M286 37 C196 37 153 98 153 225 C153 352 179 413 255 413 C345 413 388 352 388 225 C388 98 362 37 286 37 L286 37 Z M50 225 C50 66 122 -10 270 -10 C434 -10 491 66 491 225 C491 384 419 460 270 460 C107 460 50 384 50 225 L50 225 Z " />
<glyph glyph-name="odieresis" unicode="&#xf6;" horiz-adv-x="540" d="M365 570 C403 570 421 588 421 626 C421 664 403 682 365 682 C327 682 309 664 309 626 C309 588 327 570 365 570 L365 570 Z M176 570 C213 570 231 588 231 626 C231 664 213 682 176 682 C138 682 120 664 120 626 C120 588 138 570 176 570 L176 570 Z M286 37 C196 37 153 98 153 225 C153 352 179 413 255 413 C345 413 388 352 388 225 C388 98 362 37 286 37 L286 37 Z M50 225 C50 66 122 -10 270 -10 C434 -10 491 66 491 225 C491 384 419 460 270 460 C107 460 50 384 50 225 L50 225 Z " />
<glyph glyph-name="oslash" unicode="&#xf8;" horiz-adv-x="540" d="M286 37 C245 37 214 50 192 76 L379 315 C386 290 389 260 389 225 C389 98 363 37 287 37 L286 37 L286 37 Z M51 225 C51 149 67 92 100 53 L50 -10 L124 -10 L145 17 C178 -1 220 -10 270 -10 C434 -10 491 66 491 225 C491 301 475 358 442 397 L492 460 L418 460 L397 433 C364 451 322 460 271 460 C108 460 51 384 51 225 L51 225 Z M164 135 C157 160 154 190 154 225 C154 352 180 413 256 413 C297 413 328 400 350 374 L164 135 L164 135 Z " />
<glyph glyph-name="ugrave" unicode="&#xf9;" horiz-adv-x="554" d="M279 530 L192 707 L102 707 C102 679 112 656 134 639 L265 530 L279 530 L279 530 Z M374 330 L374 101 C348 79 317 71 273 71 C210 71 180 100 180 160 L180 450 L136 450 L91 450 L26 450 L26 435 L26 411 L36 410 C73 403 91 377 91 330 L91 107 C91 28 134 -10 222 -10 C271 -10 316 10 374 65 L374 0 L419 0 L463 0 L533 0 C534 0 534 5 533 15 C534 31 534 39 533 39 L523 40 C483 47 464 73 463 120 L463 450 L419 450 L374 450 L304 450 L304 435 L304 411 L315 410 C355 403 374 377 374 330 L374 330 Z " />
<glyph glyph-name="uacute" unicode="&#xfa;" horiz-adv-x="554" d="M272 530 L285 530 L416 639 C438 656 448 679 448 707 L359 707 L272 530 L272 530 Z M374 330 L374 101 C348 79 317 71 273 71 C210 71 180 100 180 160 L180 450 L136 450 L91 450 L26 450 L26 435 L26 411 L36 410 C73 403 91 377 91 330 L91 107 C91 28 134 -10 222 -10 C271 -10 316 10 374 65 L374 0 L419 0 L463 0 L533 0 C534 0 534 5 533 15 C534 31 534 39 533 39 L523 40 C483 47 464 73 463 120 L463 450 L419 450 L374 450 L304 450 L304 435 L304 411 L315 410 C355 403 374 377 374 330 L374 330 Z " />
<glyph glyph-name="ucircumflex" unicode="&#xfb;" horiz-adv-x="554" d="M423 530 L287 705 L257 705 L126 530 L140 530 L272 619 L409 530 L423 530 L423 530 Z M374 330 L374 101 C348 79 317 71 273 71 C210 71 180 100 180 160 L180 450 L136 450 L91 450 L26 450 L26 435 L26 411 L36 410 C73 403 91 377 91 330 L91 107 C91 28 134 -10 222 -10 C271 -10 316 10 374 65 L374 0 L419 0 L463 0 L533 0 C534 0 534 5 533 15 C534 31 534 39 533 39 L523 40 C483 47 464 73 463 120 L463 450 L419 450 L374 450 L304 450 L304 435 L304 411 L315 410 C355 403 374 377 374 330 L374 330 Z " />
<glyph glyph-name="udieresis" unicode="&#xfc;" horiz-adv-x="554" d="M367 570 C405 570 423 588 423 626 C423 664 405 682 367 682 C329 682 311 664 311 626 C311 588 329 570 367 570 L367 570 Z M178 570 C215 570 233 588 233 626 C233 664 215 682 178 682 C140 682 122 664 122 626 C122 588 140 570 178 570 L178 570 Z M374 330 L374 101 C348 79 317 71 273 71 C210 71 180 100 180 160 L180 450 L136 450 L91 450 L26 450 L26 435 L26 411 L36 410 C73 403 91 377 91 330 L91 107 C91 28 134 -10 222 -10 C271 -10 316 10 374 65 L374 0 L419 0 L463 0 L533 0 C534 0 534 5 533 15 C534 31 534 39 533 39 L523 40 C483 47 464 73 463 120 L463 450 L419 450 L374 450 L304 450 L304 435 L304 411 L315 410 C355 403 374 377 374 330 L374 330 Z " />
<glyph glyph-name="yacute" unicode="&#xfd;" horiz-adv-x="479" d="M271 530 L285 530 L416 639 C438 656 448 679 448 707 L358 707 L271 530 L271 530 Z M80 330 L80 330 L235 11 L263 84 L207 -62 C182 -131 161 -147 98 -147 L48 -147 L44 -151 L44 -207 C44 -234 51 -240 82 -240 C169 -240 201 -209 249 -78 L404 325 L404 325 C422 372 449 398 486 406 L496 407 L496 432 L496 450 L452 450 L428 450 L404 450 L304 450 C305 450 305 445 304 433 C305 416 305 407 304 407 L316 406 C359 398 373 374 358 330 L279 125 L175 340 C158 381 171 404 215 410 L231 412 L231 436 L231 451 L121 451 L71 451 L22 451 L-14 451 C-15 451 -15 446 -14 434 C-15 419 -15 412 -14 412 L-5 411 C30 404 57 378 80 331 L80 330 L80 330 Z " />
<glyph glyph-name="ydieresis" unicode="&#xff;" horiz-adv-x="479" d="M366 570 C404 570 422 588 422 626 C422 664 404 682 366 682 C329 682 311 664 311 626 C311 588 329 570 366 570 L366 570 Z M177 570 C215 570 233 588 233 626 C233 664 215 682 177 682 C139 682 121 664 121 626 C121 588 139 570 177 570 L177 570 Z M80 330 L80 330 L235 11 L263 84 L207 -62 C182 -131 161 -147 98 -147 L48 -147 L44 -151 L44 -207 C44 -234 51 -240 82 -240 C169 -240 201 -209 249 -78 L404 325 L404 325 C422 372 449 398 486 406 L496 407 L496 432 L496 450 L452 450 L428 450 L404 450 L304 450 C305 450 305 445 304 433 C305 416 305 407 304 407 L316 406 C359 398 373 374 358 330 L279 125 L175 340 C158 381 171 404 215 410 L231 412 L231 436 L231 451 L121 451 L71 451 L22 451 L-14 451 C-15 451 -15 446 -14 434 C-15 419 -15 412 -14 412 L-5 411 C30 404 57 378 80 331 L80 330 L80 330 Z " />
<glyph glyph-name="Amacron" unicode="&#x100;" horiz-adv-x="750" d="M239 764 L505 764 L505 820 L239 820 L239 764 L239 764 Z M623 115 L623 115 L407 638 L396 665 L346 665 L321 604 L321 604 L115 98 C96 55 74 32 46 27 L38 26 L38 10 L38 -1 L75 -1 L113 -1 L151 -1 L251 -1 L251 14 L251 38 L239 39 C194 46 180 71 196 115 L225 188 L225 186 L489 186 L521 108 C534 68 519 46 476 40 L458 38 L458 14 L458 -1 L566 -1 L619 -1 L671 -1 L709 -1 L709 14 L709 34 L700 35 C668 41 644 67 624 114 L623 115 L623 115 Z M465 248 L249 248 L355 519 L465 248 L465 248 Z " />
<glyph glyph-name="amacron" unicode="&#x101;" horiz-adv-x="576" d="M156 594 L422 594 L422 650 L156 650 L156 594 L156 594 Z M420 0 L459 0 L529 0 C528 0 528 5 529 15 C528 31 528 39 529 39 L518 40 C480 47 460 71 459 114 L459 121 L459 141 L459 431 L459 461 L447 461 L404 444 C371 455 332 461 287 461 C126 461 48 374 48 194 C48 57 104 -9 219 -9 C290 -9 339 32 371 115 L380 1 L420 0 L420 0 Z M369 383 L369 148 C347 93 318 66 281 66 C183 66 135 117 135 222 C135 347 179 407 272 407 C299 407 331 399 368 383 L369 383 L369 383 Z " />
<glyph glyph-name="Abreve" unicode="&#x102;" horiz-adv-x="750" d="M235 865 L220 865 C264 743 293 714 372 714 C451 714 479 743 524 865 L508 865 C484 797 458 781 372 781 C286 781 260 797 235 865 L235 865 Z M623 115 L623 115 L407 638 L396 665 L346 665 L321 604 L321 604 L115 98 C96 55 74 32 46 27 L38 26 L38 10 L38 -1 L75 -1 L113 -1 L151 -1 L251 -1 L251 14 L251 38 L239 39 C194 46 180 71 196 115 L225 188 L225 186 L489 186 L521 108 C534 68 519 46 476 40 L458 38 L458 14 L458 -1 L566 -1 L619 -1 L671 -1 L709 -1 L709 14 L709 34 L700 35 C668 41 644 67 624 114 L623 115 L623 115 Z M465 248 L249 248 L355 519 L465 248 L465 248 Z " />
<glyph glyph-name="abreve" unicode="&#x103;" horiz-adv-x="576" d="M153 708 L137 708 C182 572 210 540 289 540 C368 540 397 572 442 708 L426 708 C402 633 376 615 289 615 C203 615 177 633 153 708 L153 708 Z M420 0 L459 0 L529 0 C528 0 528 5 529 15 C528 31 528 39 529 39 L518 40 C480 47 460 71 459 114 L459 121 L459 141 L459 431 L459 461 L447 461 L404 444 C371 455 332 461 287 461 C126 461 48 374 48 194 C48 57 104 -9 219 -9 C290 -9 339 32 371 115 L380 1 L420 0 L420 0 Z M369 383 L369 148 C347 93 318 66 281 66 C183 66 135 117 135 222 C135 347 179 407 272 407 C299 407 331 399 368 383 L369 383 L369 383 Z " />
<glyph glyph-name="Cacute" unicode="&#x106;" horiz-adv-x="718" d="M369 705 L382 705 L513 803 C535 819 545 839 545 864 L456 864 L369 705 L369 705 Z M628 54 L638 213 C630 214 622 214 615 215 C607 215 599 215 592 216 C587 200 583 184 579 167 C566 117 542 85 505 68 C472 54 438 47 402 47 C248 47 174 144 174 344 C174 527 252 615 414 615 C442 615 468 610 493 600 C527 584 549 553 561 503 C566 481 571 461 576 440 C584 440 592 440 601 441 C609 441 617 441 625 442 L618 618 C579 654 512 671 414 671 C182 671 70 554 70 311 C70 95 178 -9 402 -9 C503 -9 577 12 628 55 L628 54 L628 54 Z " />
<glyph glyph-name="cacute" unicode="&#x107;" horiz-adv-x="477" d="M259 530 L272 530 L403 639 C425 656 435 679 435 707 L346 707 L259 530 L259 530 Z M366 319 L373 319 L418 350 C428 359 432 369 432 381 C432 388 428 398 418 412 C396 444 351 460 282 460 C125 460 50 377 50 203 C50 59 119 -10 261 -10 C339 -10 395 29 434 110 L434 120 L429 120 C384 88 345 73 309 73 C194 73 138 132 138 254 C138 360 173 411 247 411 C285 411 313 396 335 364 L366 319 L366 319 Z " />
<glyph glyph-name="Ccaron" unicode="&#x10c;" horiz-adv-x="718" d="M540 867 L404 709 L374 709 L243 867 L257 867 L390 787 L526 867 L540 867 L540 867 Z M628 54 L638 213 C630 214 622 214 615 215 C607 215 599 215 592 216 C587 200 583 184 579 167 C566 117 542 85 505 68 C472 54 438 47 402 47 C248 47 174 144 174 344 C174 527 252 615 414 615 C442 615 468 610 493 600 C527 584 549 553 561 503 C566 481 571 461 576 440 C584 440 592 440 601 441 C609 441 617 441 625 442 L618 618 C579 654 512 671 414 671 C182 671 70 554 70 311 C70 95 178 -9 402 -9 C503 -9 577 12 628 55 L628 54 L628 54 Z " />
<glyph glyph-name="ccaron" unicode="&#x10d;" horiz-adv-x="477" d="M410 710 L274 535 L244 535 L114 710 L127 710 L259 621 L397 710 L410 710 L410 710 Z M366 319 L373 319 L418 350 C428 359 432 369 432 381 C432 388 428 398 418 412 C396 444 351 460 282 460 C125 460 50 377 50 203 C50 59 119 -10 261 -10 C339 -10 395 29 434 110 L434 120 L429 120 C384 88 345 73 309 73 C194 73 138 132 138 254 C138 360 173 411 247 411 C285 411 313 396 335 364 L366 319 L366 319 Z " />
<glyph glyph-name="Dcaron" unicode="&#x10e;" horiz-adv-x="777" d="M587 867 L451 709 L421 709 L290 867 L304 867 L437 787 L573 867 L587 867 L587 867 Z M217 0 L245 0 L362 0 C596 8 708 102 708 361 C708 583 590 660 344 660 L245 660 L195 660 L144 660 L64 660 L64 643 L64 617 L76 616 C122 608 144 582 144 535 L144 125 C144 78 122 52 76 44 L64 43 L64 17 L64 0 L144 0 L195 0 L217 0 L217 0 Z M245 61 L245 599 L316 599 C510 599 603 528 603 322 C603 135 524 67 360 61 L245 61 L245 61 Z " />
<glyph glyph-name="dcaron" unicode="&#x10f;" horiz-adv-x="576" d="M637 750 L553 750 L529 563 L542 563 L624 677 C633 689 637 713 637 750 L637 750 Z M420 0 L459 0 L529 0 C528 0 528 5 529 15 C528 31 528 39 529 39 L518 40 C480 47 460 71 459 114 L459 121 L459 616 L459 731 L459 761 L441 761 L304 706 L304 705 L304 695 L314 689 C351 666 369 632 369 585 L369 455 C346 459 319 461 287 461 C126 461 48 374 48 194 C48 57 104 -9 219 -9 C287 -9 336 11 371 53 L381 1 L420 0 L420 0 Z M370 362 L370 93 C351 75 322 66 283 66 C185 66 137 117 137 222 C137 347 181 407 274 407 C296 407 327 392 370 362 L370 362 Z " />
<glyph glyph-name="Emacron" unicode="&#x112;" horiz-adv-x="651" d="M203 764 L469 764 L469 820 L203 820 L203 764 L203 764 Z M582 31 L582 61 L582 186 C582 187 577 187 566 186 C544 187 533 187 533 186 L521 131 C512 84 484 62 437 61 L245 61 L245 309 L337 309 C384 309 411 287 419 241 L421 229 L452 229 L472 229 L472 309 L472 340 L472 371 L472 451 C472 450 466 450 452 451 C431 450 421 450 421 451 L419 439 C411 395 386 372 343 371 L337 371 L245 371 L245 599 L412 599 C459 599 487 576 497 529 L508 484 L541 484 L557 484 L557 599 L557 629 L557 660 L537 660 L518 660 L507 660 L437 660 L245 660 L195 660 L170 660 L144 660 L64 660 L64 643 L64 617 L76 616 C122 608 144 582 144 535 L144 125 C144 78 122 52 76 44 L64 43 L64 17 L64 0 L144 0 L170 0 L195 0 L245 0 L462 0 L532 0 L543 0 L562 0 L582 0 L582 31 L582 31 Z " />
<glyph glyph-name="emacron" unicode="&#x113;" horiz-adv-x="483" d="M124 594 L390 594 L390 650 L124 650 L124 594 L124 594 Z M261 293 L140 293 C148 372 182 410 244 410 C307 410 342 372 351 293 L261 293 L261 293 Z M261 242 L394 242 L434 247 C434 391 378 460 261 460 C119 460 50 377 50 203 C50 59 119 -10 261 -10 C339 -10 395 29 434 110 L434 120 L429 120 C384 88 345 73 309 73 C198 73 142 128 138 242 L261 242 L261 242 Z " />
<glyph glyph-name="Edot" unicode="&#x116;" horiz-adv-x="651" d="M341 725 C386 725 408 747 408 792 C408 837 386 859 341 859 C296 859 274 837 274 792 C274 747 296 725 341 725 L341 725 Z M582 31 L582 61 L582 186 C582 187 577 187 566 186 C544 187 533 187 533 186 L521 131 C512 84 484 62 437 61 L245 61 L245 309 L337 309 C384 309 411 287 419 241 L421 229 L452 229 L472 229 L472 309 L472 340 L472 371 L472 451 C472 450 466 450 452 451 C431 450 421 450 421 451 L419 439 C411 395 386 372 343 371 L337 371 L245 371 L245 599 L412 599 C459 599 487 576 497 529 L508 484 L541 484 L557 484 L557 599 L557 629 L557 660 L537 660 L518 660 L507 660 L437 660 L245 660 L195 660 L170 660 L144 660 L64 660 L64 643 L64 617 L76 616 C122 608 144 582 144 535 L144 125 C144 78 122 52 76 44 L64 43 L64 17 L64 0 L144 0 L170 0 L195 0 L245 0 L462 0 L532 0 L543 0 L562 0 L582 0 L582 31 L582 31 Z " />
<glyph glyph-name="edot" unicode="&#x117;" horiz-adv-x="483" d="M262 583 C307 583 329 605 329 650 C329 695 307 717 262 717 C217 717 195 695 195 650 C195 605 217 583 262 583 L262 583 Z M261 293 L140 293 C148 372 182 410 244 410 C307 410 342 372 351 293 L261 293 L261 293 Z M261 242 L394 242 L434 247 C434 391 378 460 261 460 C119 460 50 377 50 203 C50 59 119 -10 261 -10 C339 -10 395 29 434 110 L434 120 L429 120 C384 88 345 73 309 73 C198 73 142 128 138 242 L261 242 L261 242 Z " />
<glyph glyph-name="Ecaron" unicode="&#x11a;" horiz-adv-x="651" d="M486 867 L351 709 L321 709 L190 867 L203 867 L337 787 L473 867 L486 867 L486 867 Z M582 31 L582 61 L582 186 C582 187 577 187 566 186 C544 187 533 187 533 186 L521 131 C512 84 484 62 437 61 L245 61 L245 309 L337 309 C384 309 411 287 419 241 L421 229 L452 229 L472 229 L472 309 L472 340 L472 371 L472 451 C472 450 466 450 452 451 C431 450 421 450 421 451 L419 439 C411 395 386 372 343 371 L337 371 L245 371 L245 599 L412 599 C459 599 487 576 497 529 L508 484 L541 484 L557 484 L557 599 L557 629 L557 660 L537 660 L518 660 L507 660 L437 660 L245 660 L195 660 L170 660 L144 660 L64 660 L64 643 L64 617 L76 616 C122 608 144 582 144 535 L144 125 C144 78 122 52 76 44 L64 43 L64 17 L64 0 L144 0 L170 0 L195 0 L245 0 L462 0 L532 0 L543 0 L562 0 L582 0 L582 31 L582 31 Z " />
<glyph glyph-name="ecaron" unicode="&#x11b;" horiz-adv-x="483" d="M403 710 L267 535 L237 535 L106 710 L120 710 L252 621 L389 710 L403 710 L403 710 Z M261 293 L140 293 C148 372 182 410 244 410 C307 410 342 372 351 293 L261 293 L261 293 Z M261 242 L394 242 L434 247 C434 391 378 460 261 460 C119 460 50 377 50 203 C50 59 119 -10 261 -10 C339 -10 395 29 434 110 L434 120 L429 120 C384 88 345 73 309 73 C198 73 142 128 138 242 L261 242 L261 242 Z " />
<glyph glyph-name="Gbreve" unicode="&#x11e;" horiz-adv-x="775" d="M262 865 L247 865 C291 743 320 714 399 714 C478 714 506 743 551 865 L535 865 C511 797 485 781 399 781 C313 781 287 797 262 865 L262 865 Z M655 165 C655 212 676 238 719 246 L730 247 L730 273 L730 290 L655 290 L605 290 L555 290 L470 290 L470 273 L470 247 L485 245 C532 238 555 212 555 165 L555 83 L556 83 C528 65 487 56 433 56 C258 56 174 149 174 343 C174 526 255 614 424 614 C455 614 483 609 509 599 C545 585 568 553 581 501 C586 479 591 459 596 438 C604 438 612 438 621 439 C629 439 637 439 645 440 L638 616 C599 652 529 669 424 669 C185 669 70 552 70 309 C70 93 178 -11 403 -11 C518 -11 600 26 655 104 L655 165 L655 165 Z " />
<glyph glyph-name="gbreve" unicode="&#x11f;" horiz-adv-x="548" d="M127 708 L112 708 C156 572 185 540 264 540 C343 540 371 572 416 708 L400 708 C376 633 350 615 264 615 C178 615 152 633 127 708 L127 708 Z M178 148 L178 148 C200 141 226 138 256 138 C391 138 437 191 437 302 C437 341 429 372 413 396 L496 389 L496 449 L361 440 C334 453 299 459 257 459 C123 459 77 407 77 299 C77 231 100 185 146 160 C93 140 67 111 67 71 C67 20 96 -8 155 -14 C89 -43 58 -79 58 -126 C58 -204 116 -242 237 -242 C396 -242 473 -184 473 -64 C473 21 447 62 335 62 L212 62 C167 62 146 77 146 107 C146 128 156 141 177 146 L178 148 L178 148 Z M271 180 C203 180 170 219 170 301 C170 377 191 414 250 414 C315 414 346 376 346 297 C346 218 327 180 271 180 L271 180 Z M183 -16 L290 -16 C372 -16 391 -39 391 -87 C391 -171 345 -211 249 -211 C174 -211 138 -179 138 -113 C138 -58 153 -27 183 -16 L183 -16 Z " />
<glyph glyph-name="Itilde" unicode="&#x128;" horiz-adv-x="400" d="M62 705 C76 746 82 766 117 766 C174 766 200 702 257 702 C312 702 325 744 353 830 L338 830 C325 787 318 767 284 767 C227 767 200 831 143 831 C88 831 76 790 48 705 L62 705 L62 705 Z M200 0 L250 0 L330 0 C331 0 331 5 330 17 C331 34 331 43 330 43 L318 44 C273 52 251 78 250 125 L250 535 C251 582 273 608 318 616 L330 617 C331 617 331 626 330 643 C331 655 331 660 330 660 L250 660 L200 660 L150 660 L70 660 L70 643 L70 617 L82 616 C128 608 150 582 150 535 L150 125 C150 78 128 52 82 44 L70 43 L70 17 L70 0 L150 0 L200 0 L200 0 Z " />
<glyph glyph-name="itilde" unicode="&#x129;" horiz-adv-x="326" d="M26 530 C39 571 45 591 80 591 C137 591 164 527 221 527 C276 527 288 569 316 655 L302 655 C288 612 281 592 247 592 C190 592 164 656 107 656 C51 656 39 615 11 530 L26 530 L26 530 Z M164 0 L208 0 L278 0 L278 15 L278 39 L268 40 C228 47 208 73 208 120 L208 305 L208 430 L208 460 L190 460 L54 405 L54 404 L54 392 L64 385 C101 357 119 321 119 274 L119 120 C119 73 101 47 64 40 L54 39 L54 15 L54 0 L119 0 L164 0 L164 0 Z " />
<glyph glyph-name="Imacron" unicode="&#x12a;" horiz-adv-x="400" d="M67 764 L333 764 L333 820 L67 820 L67 764 L67 764 Z M200 0 L250 0 L330 0 C331 0 331 5 330 17 C331 34 331 43 330 43 L318 44 C273 52 251 78 250 125 L250 535 C251 582 273 608 318 616 L330 617 C331 617 331 626 330 643 C331 655 331 660 330 660 L250 660 L200 660 L150 660 L70 660 L70 643 L70 617 L82 616 C128 608 150 582 150 535 L150 125 C150 78 128 52 82 44 L70 43 L70 17 L70 0 L150 0 L200 0 L200 0 Z " />
<glyph glyph-name="imacron" unicode="&#x12b;" horiz-adv-x="326" d="M26 594 L292 594 L292 650 L26 650 L26 594 L26 594 Z M164 0 L208 0 L278 0 L278 15 L278 39 L268 40 C228 47 208 73 208 120 L208 305 L208 430 L208 460 L190 460 L54 405 L54 404 L54 392 L64 385 C101 357 119 321 119 274 L119 120 C119 73 101 47 64 40 L54 39 L54 15 L54 0 L119 0 L164 0 L164 0 Z " />
<glyph glyph-name="Idot" unicode="&#x130;" horiz-adv-x="400" d="M200 725 C245 725 267 747 267 792 C267 837 245 859 200 859 C155 859 133 837 133 792 C133 747 155 725 200 725 L200 725 Z M200 0 L250 0 L330 0 C331 0 331 5 330 17 C331 34 331 43 330 43 L318 44 C273 52 251 78 250 125 L250 535 C251 582 273 608 318 616 L330 617 C331 617 331 626 330 643 C331 655 331 660 330 660 L250 660 L200 660 L150 660 L70 660 L70 643 L70 617 L82 616 C128 608 150 582 150 535 L150 125 C150 78 128 52 82 44 L70 43 L70 17 L70 0 L150 0 L200 0 L200 0 Z " />
<glyph glyph-name="dotlessi" unicode="&#x131;" horiz-adv-x="326" d="M164 0 L208 0 L278 0 L278 15 L278 39 L268 40 C228 47 208 73 208 120 L208 305 L208 430 L208 460 L190 460 L54 405 L54 404 L54 392 L64 385 C101 357 119 321 119 274 L119 120 C119 73 101 47 64 40 L54 39 L54 15 L54 0 L119 0 L164 0 L164 0 Z " />
<glyph glyph-name="Lacute" unicode="&#x139;" horiz-adv-x="632" d="M179 705 L193 705 L324 803 C346 819 356 839 356 864 L266 864 L179 705 L179 705 Z M563 31 L563 61 L563 226 C563 227 557 227 546 226 C522 227 511 227 511 226 L495 131 C487 84 460 62 413 61 L245 61 L245 535 C245 582 267 608 315 615 L330 617 L330 643 L330 660 L245 660 L195 660 L144 660 L64 660 L64 643 L64 617 L76 616 C122 608 144 582 144 535 L144 125 C144 78 122 52 76 44 L64 43 L64 17 L64 0 L144 0 L170 0 L195 0 L245 0 L443 0 L513 0 L524 0 L544 0 L563 0 L563 31 L563 31 Z " />
<glyph glyph-name="lacute" unicode="&#x13a;" horiz-adv-x="307" d="M138 765 L152 765 L289 863 C312 879 323 899 323 924 L229 924 L138 765 L138 765 Z M154 0 L198 0 L268 0 L268 15 L268 39 L258 40 C218 47 198 73 198 120 L198 605 L198 730 L198 760 L180 760 L44 705 L44 704 L44 692 L54 685 C91 657 109 621 109 574 L109 120 C109 73 91 47 54 40 L44 39 L44 15 L44 0 L109 0 L154 0 L154 0 Z " />
<glyph glyph-name="Lcaron" unicode="&#x13d;" horiz-adv-x="632" d="M517 660 L433 660 L409 473 L422 473 L504 587 C513 599 517 623 517 660 L517 660 Z M563 31 L563 61 L563 226 C563 227 557 227 546 226 C522 227 511 227 511 226 L495 131 C487 84 460 62 413 61 L245 61 L245 535 C245 582 267 608 315 615 L330 617 L330 643 L330 660 L245 660 L195 660 L144 660 L64 660 L64 643 L64 617 L76 616 C122 608 144 582 144 535 L144 125 C144 78 122 52 76 44 L64 43 L64 17 L64 0 L144 0 L170 0 L195 0 L245 0 L443 0 L513 0 L524 0 L544 0 L563 0 L563 31 L563 31 Z " />
<glyph glyph-name="lcaron" unicode="&#x13e;" horiz-adv-x="307" d="M377 750 L293 750 L269 563 L282 563 L364 677 C372 689 376 713 377 750 L377 750 Z M154 0 L198 0 L268 0 L268 15 L268 39 L258 40 C218 47 198 73 198 120 L198 605 L198 730 L198 760 L180 760 L44 705 L44 704 L44 692 L54 685 C91 657 109 621 109 574 L109 120 C109 73 91 47 54 40 L44 39 L44 15 L44 0 L109 0 L154 0 L154 0 Z " />
<glyph glyph-name="Nacute" unicode="&#x143;" horiz-adv-x="806" d="M414 705 L428 705 L559 803 C580 819 590 839 590 864 L501 864 L414 705 L414 705 Z M667 535 C667 582 687 608 730 616 L742 617 L742 643 L742 660 L667 660 L628 660 L589 660 L489 660 L489 643 L489 617 L519 614 C566 608 589 582 589 535 L589 203 L220 660 L181 660 L142 660 L67 660 L67 643 L67 617 L78 616 C122 608 142 582 142 535 L142 125 C142 78 120 52 74 44 L62 43 L62 17 L62 0 L142 0 L181 0 L220 0 L320 0 L320 17 L320 43 L290 46 C243 52 220 78 220 125 L220 497 L590 41 L628 -5 L667 -5 L667 106 L667 535 L667 535 Z " />
<glyph glyph-name="nacute" unicode="&#x144;" horiz-adv-x="592" d="M301 530 L314 530 L445 639 C467 656 477 679 477 707 L388 707 L301 530 L301 530 Z M443 0 L487 0 L552 0 C553 0 553 5 552 15 C553 31 553 39 552 39 L543 40 C505 47 488 73 487 120 L487 343 C487 422 443 460 353 460 C292 460 255 435 205 383 L205 383 L202 383 L200 460 L182 460 L51 405 L51 404 L51 392 L61 385 C98 357 116 321 116 274 L116 120 C116 73 98 47 61 40 L51 39 L51 15 L51 0 L116 0 L161 0 L205 0 L275 0 L275 15 L275 39 L265 40 C225 47 205 73 205 120 L205 305 L205 349 C228 371 253 381 305 381 C368 381 399 352 399 292 L399 120 C399 73 380 47 340 40 L329 39 L329 15 L329 0 L399 0 L443 0 L443 0 Z " />
<glyph glyph-name="Ncaron" unicode="&#x147;" horiz-adv-x="806" d="M565 867 L429 709 L399 709 L269 867 L282 867 L415 787 L552 867 L565 867 L565 867 Z M667 535 C667 582 687 608 730 616 L742 617 L742 643 L742 660 L667 660 L628 660 L589 660 L489 660 L489 643 L489 617 L519 614 C566 608 589 582 589 535 L589 203 L220 660 L181 660 L142 660 L67 660 L67 643 L67 617 L78 616 C122 608 142 582 142 535 L142 125 C142 78 120 52 74 44 L62 43 L62 17 L62 0 L142 0 L181 0 L220 0 L320 0 L320 17 L320 43 L290 46 C243 52 220 78 220 125 L220 497 L590 41 L628 -5 L667 -5 L667 106 L667 535 L667 535 Z " />
<glyph glyph-name="ncaron" unicode="&#x148;" horiz-adv-x="592" d="M452 710 L316 535 L286 535 L155 710 L169 710 L301 621 L438 710 L452 710 L452 710 Z M443 0 L487 0 L552 0 C553 0 553 5 552 15 C553 31 553 39 552 39 L543 40 C505 47 488 73 487 120 L487 343 C487 422 443 460 353 460 C292 460 255 435 205 383 L205 383 L202 383 L200 460 L182 460 L51 405 L51 404 L51 392 L61 385 C98 357 116 321 116 274 L116 120 C116 73 98 47 61 40 L51 39 L51 15 L51 0 L116 0 L161 0 L205 0 L275 0 L275 15 L275 39 L265 40 C225 47 205 73 205 120 L205 305 L205 349 C228 371 253 381 305 381 C368 381 399 352 399 292 L399 120 C399 73 380 47 340 40 L329 39 L329 15 L329 0 L399 0 L443 0 L443 0 Z " />
<glyph glyph-name="Omacron" unicode="&#x14c;" horiz-adv-x="809" d="M257 764 L523 764 L523 820 L257 820 L257 764 L257 764 Z M427 46 C258 46 177 150 177 366 C177 534 245 615 385 615 C552 615 633 509 633 289 C633 125 566 46 427 46 L427 46 Z M70 327 C70 100 179 -10 405 -10 C631 -10 740 100 740 328 C740 559 631 670 405 670 C179 670 70 559 70 327 L70 327 Z " />
<glyph glyph-name="omacron" unicode="&#x14d;" horiz-adv-x="540" d="M137 594 L403 594 L403 650 L137 650 L137 594 L137 594 Z M286 37 C196 37 153 98 153 225 C153 352 179 413 255 413 C345 413 388 352 388 225 C388 98 362 37 286 37 L286 37 Z M50 225 C50 66 122 -10 270 -10 C434 -10 491 66 491 225 C491 384 419 460 270 460 C107 460 50 384 50 225 L50 225 Z " />
<glyph glyph-name="Racute" unicode="&#x154;" horiz-adv-x="691" d="M302 705 L315 705 L446 803 C468 819 478 839 478 864 L389 864 L302 705 L302 705 Z M550 120 L550 120 L406 310 C489 332 560 389 560 484 C560 603 488 660 340 660 L246 660 L196 660 L145 660 L65 660 L65 643 L65 617 L77 616 C123 608 145 582 145 535 L145 125 C145 78 123 52 77 44 L65 43 L65 17 L65 0 L145 0 L196 0 L246 0 L321 0 L321 17 L321 43 L310 44 C267 52 246 78 246 125 L246 299 L288 299 L516 0 L579 0 L642 0 L663 0 L663 18 L663 39 L654 40 C620 47 587 73 551 120 L550 120 L550 120 Z M246 361 L246 599 L314 598 C407 598 451 558 451 475 C451 398 365 361 288 361 L246 361 L246 361 Z " />
<glyph glyph-name="racute" unicode="&#x155;" horiz-adv-x="388" d="M247 530 L260 530 L391 639 C413 656 423 679 423 707 L334 707 L247 530 L247 530 Z M160 0 L204 0 L274 0 L274 15 L274 39 L264 40 C224 47 204 73 204 120 L204 305 L204 332 C224 359 237 372 250 372 C274 372 295 368 315 360 C341 347 353 342 353 344 L360 344 C379 384 389 408 389 418 C389 424 386 430 380 436 C375 441 368 446 359 450 C343 457 325 460 305 460 C275 460 248 430 204 369 L204 376 L202 376 L199 459 L181 459 L50 404 L50 403 L50 391 L60 384 C97 356 115 320 115 273 L115 119 C115 72 97 46 60 39 L50 38 L50 14 L50 -1 L115 -1 L160 0 L160 0 Z " />
<glyph glyph-name="Rcaron" unicode="&#x158;" horiz-adv-x="691" d="M463 867 L327 709 L297 709 L167 867 L180 867 L313 787 L449 867 L463 867 L463 867 Z M550 120 L550 120 L406 310 C489 332 560 389 560 484 C560 603 488 660 340 660 L246 660 L196 660 L145 660 L65 660 L65 643 L65 617 L77 616 C123 608 145 582 145 535 L145 125 C145 78 123 52 77 44 L65 43 L65 17 L65 0 L145 0 L196 0 L246 0 L321 0 L321 17 L321 43 L310 44 C267 52 246 78 246 125 L246 299 L288 299 L516 0 L579 0 L642 0 L663 0 L663 18 L663 39 L654 40 C620 47 587 73 551 120 L550 120 L550 120 Z M246 361 L246 599 L314 598 C407 598 451 558 451 475 C451 398 365 361 288 361 L246 361 L246 361 Z " />
<glyph glyph-name="rcaron" unicode="&#x159;" horiz-adv-x="388" d="M398 710 L262 535 L232 535 L101 710 L115 710 L247 621 L384 710 L398 710 L398 710 Z M160 0 L204 0 L274 0 L274 15 L274 39 L264 40 C224 47 204 73 204 120 L204 305 L204 332 C224 359 237 372 250 372 C274 372 295 368 315 360 C341 347 353 342 353 344 L360 344 C379 384 389 408 389 418 C389 424 386 430 380 436 C375 441 368 446 359 450 C343 457 325 460 305 460 C275 460 248 430 204 369 L204 376 L202 376 L199 459 L181 459 L50 404 L50 403 L50 391 L60 384 C97 356 115 320 115 273 L115 119 C115 72 97 46 60 39 L50 38 L50 14 L50 -1 L115 -1 L160 0 L160 0 Z " />
<glyph glyph-name="Sacute" unicode="&#x15a;" horiz-adv-x="532" d="M231 705 L245 705 L376 803 C398 819 408 839 408 864 L318 864 L231 705 L231 705 Z M324 606 L324 606 C363 591 387 556 399 499 C401 490 403 480 404 471 C412 471 420 471 428 472 C435 473 443 473 451 474 L442 620 L419 589 L419 589 L442 620 C408 654 356 670 281 670 C148 670 84 611 84 487 C84 395 123 355 237 305 C343 257 380 226 380 162 C380 81 346 42 276 42 C251 42 224 50 194 66 L194 66 C149 90 123 127 114 180 C112 192 110 204 107 216 C100 216 92 216 84 215 C77 215 69 215 61 214 L69 50 L95 82 L95 82 L69 50 C119 10 186 -10 276 -10 C412 -10 478 54 478 188 C478 288 435 330 311 386 C217 427 184 458 184 524 C184 586 212 616 272 616 C290 616 307 613 324 606 L324 606 Z " />
<glyph glyph-name="sacute" unicode="&#x15b;" horiz-adv-x="431" d="M211 530 L224 530 L355 639 C377 656 387 679 387 707 L298 707 L211 530 L211 530 Z M60 47 L60 47 L60 19 C102 0 151 -10 211 -10 C312 -10 361 33 361 124 C361 211 331 242 246 269 C178 291 154 311 154 364 C154 400 174 417 216 417 C219 417 222 417 225 417 L225 416 C270 412 296 386 303 335 C304 328 305 322 306 315 L325 315 L344 315 L344 398 L344 398 L344 426 C304 449 260 460 209 460 C118 460 74 418 74 331 C74 248 101 220 180 195 C256 171 282 149 282 95 C282 51 257 30 204 30 C200 30 196 30 192 30 L192 30 C146 35 118 63 105 116 C103 124 101 132 100 139 L79 139 L59 139 L60 47 L60 47 Z " />
<glyph glyph-name="Scedilla" unicode="&#x15e;" horiz-adv-x="532" d="M273 -75 L303 -9 C420 -1 477 63 477 188 C477 288 434 330 310 386 C216 427 183 458 183 524 C183 586 211 616 271 616 C289 616 306 613 323 606 L323 606 C362 591 386 556 398 499 C400 490 402 480 403 471 C411 471 419 471 427 472 C434 473 442 473 450 474 L441 620 L418 589 L418 589 L441 620 C407 654 355 670 280 670 C147 670 83 611 83 487 C83 395 122 355 236 305 C342 257 379 226 379 162 C379 81 345 42 275 42 C250 42 223 50 193 66 L193 66 C148 90 122 127 113 180 C111 192 109 204 106 216 C99 216 91 216 83 215 C76 215 68 215 60 214 L68 50 L94 82 L94 82 L68 50 C116 12 179 -8 263 -10 L208 -129 L240 -144 C277 -150 294 -161 294 -178 C294 -199 282 -209 256 -209 C222 -209 200 -204 188 -192 L188 -204 C214 -228 241 -240 272 -240 C332 -240 361 -214 361 -160 C361 -116 332 -88 272 -74 L273 -75 L273 -75 Z " />
<glyph glyph-name="scedilla" unicode="&#x15f;" horiz-adv-x="431" d="M208 -75 L239 -9 C321 -1 361 42 361 124 C361 211 331 242 246 269 C178 291 154 311 154 364 C154 400 174 417 216 417 C219 417 222 417 225 417 L225 416 C270 412 296 386 303 335 C304 328 305 322 306 315 L325 315 L344 315 L344 398 L344 398 L344 426 C304 449 260 460 209 460 C118 460 74 418 74 331 C74 248 101 220 180 195 C256 171 282 149 282 95 C282 51 257 30 204 30 C200 30 196 30 192 30 L192 30 C146 35 118 63 105 116 C103 124 101 132 100 139 L79 139 L59 139 L59 46 L59 46 L59 18 C98 0 143 -10 198 -11 L143 -130 L175 -145 C212 -151 229 -162 229 -179 C229 -200 217 -210 191 -210 C157 -210 135 -205 123 -193 L123 -205 C149 -229 176 -241 207 -241 C267 -241 296 -215 296 -161 C296 -117 267 -89 207 -75 L208 -75 L208 -75 Z " />
<glyph glyph-name="Scaron" unicode="&#x160;" horiz-adv-x="532" d="M397 867 L262 709 L232 709 L101 867 L115 867 L248 787 L384 867 L397 867 L397 867 Z M324 606 L324 606 C363 591 387 556 399 499 C401 490 403 480 404 471 C412 471 420 471 428 472 C435 473 443 473 451 474 L442 620 L419 589 L419 589 L442 620 C408 654 356 670 281 670 C148 670 84 611 84 487 C84 395 123 355 237 305 C343 257 380 226 380 162 C380 81 346 42 276 42 C251 42 224 50 194 66 L194 66 C149 90 123 127 114 180 C112 192 110 204 107 216 C100 216 92 216 84 215 C77 215 69 215 61 214 L69 50 L95 82 L95 82 L69 50 C119 10 186 -10 276 -10 C412 -10 478 54 478 188 C478 288 435 330 311 386 C217 427 184 458 184 524 C184 586 212 616 272 616 C290 616 307 613 324 606 L324 606 Z " />
<glyph glyph-name="scaron" unicode="&#x161;" horiz-adv-x="431" d="M362 710 L226 535 L196 535 L65 710 L79 710 L211 621 L348 710 L362 710 L362 710 Z M60 47 L60 47 L60 19 C102 0 151 -10 211 -10 C312 -10 361 33 361 124 C361 211 331 242 246 269 C178 291 154 311 154 364 C154 400 174 417 216 417 C219 417 222 417 225 417 L225 416 C270 412 296 386 303 335 C304 328 305 322 306 315 L325 315 L344 315 L344 398 L344 398 L344 426 C304 449 260 460 209 460 C118 460 74 418 74 331 C74 248 101 220 180 195 C256 171 282 149 282 95 C282 51 257 30 204 30 C200 30 196 30 192 30 L192 30 C146 35 118 63 105 116 C103 124 101 132 100 139 L79 139 L59 139 L60 47 L60 47 Z " />
<glyph glyph-name="Tcaron" unicode="&#x164;" horiz-adv-x="677" d="M489 867 L354 709 L324 709 L193 867 L206 867 L340 787 L476 867 L489 867 L489 867 Z M339 0 L389 0 L489 0 L489 17 L489 43 L459 46 C411 52 389 78 389 125 L389 599 L483 599 C529 599 556 576 566 529 L580 454 L615 454 L632 454 L632 599 L632 629 L632 660 L613 660 L594 660 L582 660 L513 660 L389 660 L288 660 L165 660 L95 660 L84 660 L64 660 L45 660 L45 629 L45 599 L45 454 L62 454 L97 454 L112 529 C121 576 148 599 195 599 L288 599 L288 125 C288 78 266 52 219 46 L188 43 L188 17 L188 0 L288 0 L339 0 L339 0 Z " />
<glyph glyph-name="tcaron" unicode="&#x165;" horiz-adv-x="364" d="M369 750 L285 750 L261 563 L274 563 L356 677 C365 689 369 713 369 750 L369 750 Z M335 61 L331 72 C329 68 308 66 265 66 C215 66 191 83 191 117 L190 398 L322 398 L322 450 L190 450 L190 563 L184 563 L101 450 L18 404 L18 398 L101 398 L101 98 C101 25 138 -10 214 -10 C272 -10 311 13 335 61 L335 61 Z " />
<glyph glyph-name="Utilde" unicode="&#x168;" horiz-adv-x="809" d="M265 705 C279 746 285 766 320 766 C377 766 403 702 460 702 C515 702 528 744 556 830 L541 830 C528 787 521 767 487 767 C429 767 403 831 346 831 C290 831 278 790 251 705 L265 705 L265 705 Z M586 535 L586 535 L587 210 C587 105 537 55 433 55 C304 55 242 119 242 252 L242 535 C243 582 265 608 310 616 L322 617 C323 617 323 626 322 643 C323 655 323 660 322 660 L242 660 L192 660 L142 660 L62 660 L62 643 L62 617 L74 616 C120 608 142 582 142 535 L142 234 C142 69 227 -10 403 -10 C579 -10 664 69 664 234 L664 535 C665 582 687 608 732 616 L744 617 C745 617 745 626 744 643 C745 655 745 660 744 660 L664 660 L625 660 L586 660 L486 660 L486 643 L486 617 L517 614 C563 608 586 582 586 535 L586 535 Z " />
<glyph glyph-name="utilde" unicode="&#x169;" horiz-adv-x="554" d="M134 535 C148 576 154 596 189 596 C246 596 272 532 329 532 C384 532 397 574 425 660 L410 660 C397 617 390 597 356 597 C298 597 272 661 215 661 C159 661 147 620 120 535 L134 535 L134 535 Z M374 330 L374 101 C348 79 317 71 273 71 C210 71 180 100 180 160 L180 450 L136 450 L91 450 L26 450 L26 435 L26 411 L36 410 C73 403 91 377 91 330 L91 107 C91 28 134 -10 222 -10 C271 -10 316 10 374 65 L374 0 L419 0 L463 0 L533 0 C534 0 534 5 533 15 C534 31 534 39 533 39 L523 40 C483 47 464 73 463 120 L463 450 L419 450 L374 450 L304 450 L304 435 L304 411 L315 410 C355 403 374 377 374 330 L374 330 Z " />
<glyph glyph-name="Umacron" unicode="&#x16a;" horiz-adv-x="809" d="M280 764 L546 764 L546 820 L280 820 L280 764 L280 764 Z M586 535 L586 535 L587 210 C587 105 537 55 433 55 C304 55 242 119 242 252 L242 535 C243 582 265 608 310 616 L322 617 C323 617 323 626 322 643 C323 655 323 660 322 660 L242 660 L192 660 L142 660 L62 660 L62 643 L62 617 L74 616 C120 608 142 582 142 535 L142 234 C142 69 227 -10 403 -10 C579 -10 664 69 664 234 L664 535 C665 582 687 608 732 616 L744 617 C745 617 745 626 744 643 C745 655 745 660 744 660 L664 660 L625 660 L586 660 L486 660 L486 643 L486 617 L517 614 C563 608 586 582 586 535 L586 535 Z " />
<glyph glyph-name="umacron" unicode="&#x16b;" horiz-adv-x="554" d="M139 594 L405 594 L405 650 L139 650 L139 594 L139 594 Z M374 330 L374 101 C348 79 317 71 273 71 C210 71 180 100 180 160 L180 450 L136 450 L91 450 L26 450 L26 435 L26 411 L36 410 C73 403 91 377 91 330 L91 107 C91 28 134 -10 222 -10 C271 -10 316 10 374 65 L374 0 L419 0 L463 0 L533 0 C534 0 534 5 533 15 C534 31 534 39 533 39 L523 40 C483 47 464 73 463 120 L463 450 L419 450 L374 450 L304 450 L304 435 L304 411 L315 410 C355 403 374 377 374 330 L374 330 Z " />
<glyph glyph-name="Uring" unicode="&#x16e;" horiz-adv-x="809" d="M413 736 C391 736 377 762 377 803 C377 836 386 852 406 852 C429 852 440 831 440 788 C440 756 429 736 413 736 L413 736 Z M321 795 C321 743 355 710 408 710 C461 710 495 744 495 797 C495 852 467 879 408 879 C349 879 321 852 321 795 L321 795 Z M586 535 L586 535 L587 210 C587 105 537 55 433 55 C304 55 242 119 242 252 L242 535 C243 582 265 608 310 616 L322 617 C323 617 323 626 322 643 C323 655 323 660 322 660 L242 660 L192 660 L142 660 L62 660 L62 643 L62 617 L74 616 C120 608 142 582 142 535 L142 234 C142 69 227 -10 403 -10 C579 -10 664 69 664 234 L664 535 C665 582 687 608 732 616 L744 617 C745 617 745 626 744 643 C745 655 745 660 744 660 L664 660 L625 660 L586 660 L486 660 L486 643 L486 617 L517 614 C563 608 586 582 586 535 L586 535 Z " />
<glyph glyph-name="uring" unicode="&#x16f;" horiz-adv-x="554" d="M277 561 C255 561 241 587 241 628 C241 661 250 677 270 677 C293 677 304 656 304 613 C304 581 293 561 277 561 L277 561 Z M185 620 C185 568 219 535 272 535 C325 535 359 569 359 622 C359 677 331 704 272 704 C213 704 185 677 185 620 L185 620 Z M374 330 L374 101 C348 79 317 71 273 71 C210 71 180 100 180 160 L180 450 L136 450 L91 450 L26 450 L26 435 L26 411 L36 410 C73 403 91 377 91 330 L91 107 C91 28 134 -10 222 -10 C271 -10 316 10 374 65 L374 0 L419 0 L463 0 L533 0 C534 0 534 5 533 15 C534 31 534 39 533 39 L523 40 C483 47 464 73 463 120 L463 450 L419 450 L374 450 L304 450 L304 435 L304 411 L315 410 C355 403 374 377 374 330 L374 330 Z " />
<glyph glyph-name="Ydieresis" unicode="&#x178;" horiz-adv-x="719" d="M461 735 C499 735 517 753 517 791 C517 829 499 847 461 847 C423 847 405 829 405 791 C405 753 423 735 461 735 L461 735 Z M272 735 C309 735 327 753 327 791 C327 829 309 847 272 847 C234 847 216 829 216 791 C216 753 234 735 272 735 L272 735 Z M493 535 L493 535 L379 370 L257 535 L257 535 C222 582 224 608 264 616 L274 617 C275 617 275 626 274 643 C275 655 275 660 274 660 L164 660 L111 660 L58 660 L46 660 L46 642 L46 621 L53 620 C81 613 110 587 144 540 L144 540 L310 308 L310 125 C310 78 287 52 240 45 L220 43 L220 17 L220 0 L310 0 L360 0 L411 0 L501 0 C500 0 500 5 501 17 C500 34 500 43 501 43 L480 45 C435 52 412 76 411 119 L411 125 L411 310 L587 563 C616 602 641 623 665 628 L672 629 L672 646 L672 660 L654 660 L616 660 L579 660 L464 660 L464 643 L464 617 L475 616 C520 608 525 582 492 535 L493 535 L493 535 Z " />
<glyph glyph-name="Zacute" unicode="&#x179;" horiz-adv-x="646" d="M322 705 L335 705 L466 803 C488 819 498 839 498 864 L409 864 L322 705 L322 705 Z M100 629 L100 599 L100 599 C101 557 101 516 100 474 L118 474 L153 474 L165 529 C176 576 203 599 250 599 L424 599 L108 61 L88 28 L88 0 L108 0 L436 0 L506 0 L517 0 L537 0 L556 0 L556 31 L556 61 L556 196 C556 197 550 197 539 196 C515 197 504 197 504 196 L490 131 C481 84 453 62 406 61 L210 61 L526 599 L541 624 L541 660 L526 660 L220 660 L150 660 L139 660 L120 660 L100 660 L100 629 L100 629 Z " />
<glyph glyph-name="zacute" unicode="&#x17a;" horiz-adv-x="482" d="M240 530 L253 530 L384 639 C406 656 416 679 416 707 L327 707 L240 530 L240 530 Z M79 425 C76 382 72 342 68 300 L83 300 L107 300 L113 330 C123 377 150 400 197 400 L280 400 L88 50 L71 20 L71 0 L88 0 L162 0 L407 0 L407 25 L407 50 L407 155 L392 155 L369 155 L365 120 C360 73 334 50 288 50 L189 50 L381 400 L399 433 L399 450 L381 450 L307 450 L201 450 C154 450 127 453 116 459 L114 460 L92 460 L82 460 C82 457 82 454 82 451 L81 451 L81 440 C81 435 80 430 79 425 L79 425 Z " />
<glyph glyph-name="Zdot" unicode="&#x17b;" horiz-adv-x="646" d="M332 725 C377 725 399 747 399 792 C399 837 377 859 332 859 C287 859 265 837 265 792 C265 747 287 725 332 725 L332 725 Z M100 629 L100 599 L100 599 C101 557 101 516 100 474 L118 474 L153 474 L165 529 C176 576 203 599 250 599 L424 599 L108 61 L88 28 L88 0 L108 0 L436 0 L506 0 L517 0 L537 0 L556 0 L556 31 L556 61 L556 196 C556 197 550 197 539 196 C515 197 504 197 504 196 L490 131 C481 84 453 62 406 61 L210 61 L526 599 L541 624 L541 660 L526 660 L220 660 L150 660 L139 660 L120 660 L100 660 L100 629 L100 629 Z " />
<glyph glyph-name="zdot" unicode="&#x17c;" horiz-adv-x="482" d="M245 583 C290 583 312 605 312 650 C312 695 290 717 245 717 C200 717 178 695 178 650 C178 605 200 583 245 583 L245 583 Z M79 425 C76 382 72 342 68 300 L83 300 L107 300 L113 330 C123 377 150 400 197 400 L280 400 L88 50 L71 20 L71 0 L88 0 L162 0 L407 0 L407 25 L407 50 L407 155 L392 155 L369 155 L365 120 C360 73 334 50 288 50 L189 50 L381 400 L399 433 L399 450 L381 450 L307 450 L201 450 C154 450 127 453 116 459 L114 460 L92 460 L82 460 C82 457 82 454 82 451 L81 451 L81 440 C81 435 80 430 79 425 L79 425 Z " />
<glyph glyph-name="Zcaron" unicode="&#x17d;" horiz-adv-x="646" d="M488 867 L352 709 L322 709 L192 867 L205 867 L338 787 L474 867 L488 867 L488 867 Z M100 629 L100 599 L100 599 C101 557 101 516 100 474 L118 474 L153 474 L165 529 C176 576 203 599 250 599 L424 599 L108 61 L88 28 L88 0 L108 0 L436 0 L506 0 L517 0 L537 0 L556 0 L556 31 L556 61 L556 196 C556 197 550 197 539 196 C515 197 504 197 504 196 L490 131 C481 84 453 62 406 61 L210 61 L526 599 L541 624 L541 660 L526 660 L220 660 L150 660 L139 660 L120 660 L100 660 L100 629 L100 629 Z " />
<glyph glyph-name="zcaron" unicode="&#x17e;" horiz-adv-x="482" d="M391 710 L255 535 L225 535 L95 710 L108 710 L240 621 L378 710 L391 710 L391 710 Z M79 425 C76 382 72 342 68 300 L83 300 L107 300 L113 330 C123 377 150 400 197 400 L280 400 L88 50 L71 20 L71 0 L88 0 L162 0 L407 0 L407 25 L407 50 L407 155 L392 155 L369 155 L365 120 C360 73 334 50 288 50 L189 50 L381 400 L399 433 L399 450 L381 450 L307 450 L201 450 C154 450 127 453 116 459 L114 460 L92 460 L82 460 C82 457 82 454 82 451 L81 451 L81 440 C81 435 80 430 79 425 L79 425 Z " />
<glyph glyph-name="oogonek" unicode="&#x1eb;" horiz-adv-x="747" d="M746 -121 L746 -106 C735 -112 715 -115 682 -115 C621 -115 552 -78 471 -1 C609 26 676 118 676 280 C676 478 577 574 373 574 C168 574 69 478 69 280 C69 93 158 -1 343 -10 C444 -104 534 -149 619 -149 C672 -149 713 -140 745 -122 L746 -121 L746 -121 Z M393 39 C239 39 165 129 165 315 C165 457 227 525 355 525 C507 525 580 434 580 244 C580 106 519 39 393 39 L393 39 Z " />
<glyph glyph-name="G_sc" unicode="&#x262;" horiz-adv-x="713" d="M594 124 C594 171 615 197 658 204 L669 206 L669 232 L669 248 L594 248 L549 248 L504 248 L419 248 L419 232 L419 206 L434 203 C481 197 504 171 504 124 L504 74 L505 74 C479 57 443 49 396 49 C239 49 163 129 163 296 C163 451 236 525 386 525 C405 525 423 522 441 517 L441 517 L441 517 C442 517 443 517 444 517 C483 504 507 471 520 418 C525 395 530 373 535 350 C544 351 552 351 560 351 C568 352 576 352 584 352 L578 523 C538 559 476 576 386 576 C173 576 70 476 70 267 C70 81 167 -9 368 -9 C471 -9 544 25 594 96 L594 124 L594 124 Z " />
<glyph glyph-name="I_sc" unicode="&#x26a;" horiz-adv-x="390" d="M195 0 L240 0 L320 0 C321 0 321 5 320 17 C321 34 321 43 320 43 L308 44 C263 52 241 78 240 125 L240 440 C241 487 263 513 308 521 L320 522 C321 522 321 531 320 548 C321 560 321 565 320 565 L240 565 L195 565 L150 565 L70 565 L70 548 L70 522 L82 521 C128 513 150 487 150 440 L150 125 C150 78 128 52 82 44 L70 43 L70 17 L70 0 L150 0 L195 0 L195 0 Z " />
<glyph glyph-name="N_sc" unicode="&#x274;" horiz-adv-x="745" d="M605 440 C605 487 626 513 669 521 L680 522 L680 548 L680 565 L605 565 L570 565 L535 565 L435 565 L435 548 L435 522 L465 519 C512 513 535 487 535 440 L535 179 L213 565 L178 565 L142 565 L67 565 C68 565 68 560 67 548 C68 531 68 522 67 522 L79 521 C120 513 141 489 142 446 L142 440 L142 125 C142 78 120 52 74 44 L62 43 L62 17 L62 0 L142 0 L178 0 L213 0 L313 0 L313 17 L313 43 L282 46 C236 52 213 78 213 125 L213 421 L536 37 L571 -5 L605 -5 L605 95 L605 440 L605 440 Z " />
<glyph glyph-name="R_sc" unicode="&#x280;" horiz-adv-x="625" d="M482 120 L482 120 L369 265 C437 285 495 334 495 413 C495 516 435 565 311 565 L236 565 L191 565 L145 565 L65 565 L65 548 L65 522 L77 521 C123 513 145 487 145 440 L145 125 C145 78 123 52 77 44 L65 43 L65 17 L65 0 L145 0 L191 0 L236 0 L311 0 L311 17 L311 43 L300 44 C257 52 236 78 236 125 L236 255 L263 255 L461 0 L519 0 L576 0 L596 0 L596 18 L596 39 L587 40 C553 47 519 73 483 120 L482 120 L482 120 Z M236 310 L236 510 L288 509 C361 509 396 475 396 405 C396 341 326 310 263 310 L236 310 L236 310 Z " />
<glyph glyph-name="Y_sc" unicode="&#x28f;" horiz-adv-x="657" d="M433 440 L433 440 L347 324 L246 450 C217 491 220 514 255 521 L265 522 L265 548 L265 565 L155 565 L106 565 L58 565 L47 565 L47 547 L47 526 L54 525 C82 518 113 492 148 445 L149 445 L284 267 L284 125 C284 78 261 52 214 45 L194 43 L194 17 L194 0 L284 0 L329 0 L374 0 L464 0 L464 17 L464 43 L444 45 C397 52 374 78 374 125 L374 268 L512 455 L512 455 C547 502 576 527 603 533 L610 534 L610 551 L610 565 L593 565 L559 565 L526 565 L411 565 C410 565 410 560 411 548 C410 531 410 522 411 522 L422 521 C464 513 468 487 433 440 L433 440 Z " />
<glyph glyph-name="B_sc" unicode="&#x299;" horiz-adv-x="596" d="M246 323 L235 323 L235 510 L285 509 C367 509 395 476 395 407 C395 350 347 323 246 323 L246 323 Z M411 313 C463 338 489 378 489 433 C489 523 442 566 308 566 L235 566 L190 566 L144 566 L64 566 L64 549 L64 523 L76 522 C122 514 144 488 144 441 L144 126 C144 79 122 53 76 45 L64 44 L64 18 L64 1 L144 1 L190 1 L235 1 L308 1 C469 1 546 56 546 171 C546 247 509 294 411 314 L411 313 L411 313 Z M235 56 L235 268 L314 268 C417 268 452 234 452 163 C452 91 405 56 308 56 L235 56 L235 56 Z " />
<glyph glyph-name="H_sc" unicode="&#x29c;" horiz-adv-x="750" d="M560 0 L605 0 L685 0 L685 17 L685 43 L673 44 C627 52 605 78 605 125 L605 440 C605 487 627 513 673 521 L685 522 L685 548 L685 565 L605 565 L560 565 L515 565 L435 565 L435 548 L435 522 L447 521 C493 513 515 487 515 440 L515 319 L235 319 L235 440 C235 487 257 513 303 521 L315 522 L315 548 L315 565 L235 565 L190 565 L144 565 L64 565 L64 548 L64 522 L76 521 C122 513 144 487 144 440 L144 125 C144 78 122 52 76 44 L64 43 L64 17 L64 0 L144 0 L190 0 L235 0 L315 0 L315 17 L315 43 L303 44 C257 52 235 78 235 125 L235 263 L515 263 L515 125 C515 78 493 52 447 44 L435 43 L435 17 L435 0 L515 0 L560 0 L560 0 Z " />
<glyph glyph-name="L_sc" unicode="&#x29f;" horiz-adv-x="569" d="M500 28 L500 55 L500 220 L482 220 L447 220 L431 125 C424 78 397 55 350 55 L235 55 L235 440 C235 487 257 513 305 520 L320 522 L320 548 L320 565 L235 565 L190 565 L144 565 L64 565 L64 548 L64 522 L76 521 C122 513 144 487 144 440 L144 125 C144 78 122 52 76 44 L64 43 L64 17 L64 0 L144 0 L167 0 L190 0 L235 0 L380 0 L450 0 L461 0 L480 0 L500 0 L500 28 L500 28 Z " />
<glyph glyph-name="A_sc" unicode="&#x1d00;" horiz-adv-x="687" d="M447 156 L464 117 C482 72 469 47 423 41 L406 39 L406 15 L406 0 L514 0 L561 0 L609 0 L646 0 L646 15 L646 35 L637 36 C607 42 583 65 564 106 L372 548 L362 571 L319 571 L295 516 L295 515 L116 95 C97 55 75 33 48 28 L40 27 L40 11 L40 0 L76 0 L110 0 L144 0 L244 0 L244 15 L244 39 L232 40 C190 46 176 69 189 110 L208 156 L447 156 L447 156 Z M424 211 L231 211 L326 442 L424 211 L424 211 Z " />
<glyph glyph-name="C_sc" unicode="&#x1d04;" horiz-adv-x="657" d="M434 54 L434 53 C411 44 388 40 366 40 C229 40 163 123 163 296 C163 451 232 525 376 525 C391 525 406 523 421 519 L421 518 C462 506 488 473 501 417 C506 394 511 372 516 349 C525 350 533 350 541 350 C549 351 557 351 565 351 L559 522 C519 558 460 575 377 575 C170 575 71 475 71 266 C71 80 167 -10 367 -10 C451 -10 516 11 568 54 L546 81 L546 81 L568 54 L577 208 C570 209 562 209 554 209 C547 210 539 210 531 211 C527 193 523 175 518 158 C504 104 477 70 435 54 L434 54 L434 54 Z " />
<glyph glyph-name="D_sc" unicode="&#x1d05;" horiz-adv-x="715" d="M210 0 L235 0 L339 0 C545 7 645 87 645 308 C645 499 540 565 323 565 L235 565 L190 565 L144 565 L64 565 L64 548 L64 522 L76 521 C122 513 144 487 144 440 L144 125 C144 78 122 52 76 44 L64 43 L64 17 L64 0 L144 0 L190 0 L210 0 L210 0 Z M235 55 L235 510 L297 510 C468 510 551 449 551 273 C551 117 481 60 337 55 L235 55 L235 55 Z " />
<glyph glyph-name="E_sc" unicode="&#x1d07;" horiz-adv-x="589" d="M520 28 L520 55 L520 180 L504 180 L470 180 L459 125 C450 78 422 55 375 55 L235 55 L235 263 L275 263 C322 263 349 241 357 195 L359 183 L390 183 L410 183 L410 263 L410 291 L410 319 L410 399 C410 398 404 398 390 399 C369 398 359 398 359 399 L357 387 C349 343 324 320 281 319 L275 319 L235 319 L235 510 L350 510 C397 510 425 487 435 440 L445 395 L479 395 L495 395 L495 510 L495 537 L495 565 L475 565 L456 565 L445 565 L375 565 L235 565 L190 565 L167 565 L144 565 L64 565 L64 548 L64 522 L76 521 C122 513 144 487 144 440 L144 125 C144 78 122 52 76 44 L64 43 L64 17 L64 0 L144 0 L167 0 L190 0 L235 0 L400 0 L470 0 L481 0 L500 0 L520 0 L520 28 L520 28 Z " />
<glyph glyph-name="J_sc" unicode="&#x1d0a;" horiz-adv-x="390" d="M150 440 L150 50 C150 -51 133 -100 99 -100 C88 -100 71 -97 48 -91 L42 -91 C35 -91 32 -144 32 -148 C32 -165 43 -173 65 -173 C183 -173 240 -38 240 243 L240 440 C241 487 263 513 308 521 L320 522 C321 522 321 531 320 548 C321 560 321 565 320 565 L240 565 L195 565 L150 565 L70 565 L70 548 L70 522 L82 521 C128 513 150 487 150 440 L150 440 Z " />
<glyph glyph-name="K_sc" unicode="&#x1d0b;" horiz-adv-x="695" d="M531 110 L531 110 L324 316 L469 455 L469 455 C518 502 555 527 584 533 L591 534 L591 550 L591 565 L584 565 L536 565 L488 565 L368 565 C369 565 369 560 368 550 C369 534 369 526 368 526 L380 525 C420 518 422 494 385 451 L291 348 L291 348 L237 288 L515 -1 L578 -1 L641 -1 L650 -1 L650 14 L650 30 L642 31 C614 37 578 62 531 109 L531 110 L531 110 Z M191 -1 L236 -1 L316 -1 L316 16 L316 42 L304 43 C258 51 236 77 236 124 L236 439 C236 486 258 512 304 520 L316 521 L316 547 L316 564 L236 564 L191 564 L146 564 L66 564 L66 547 L66 521 L78 520 C124 512 146 486 146 439 L146 124 C146 77 124 51 78 43 L66 42 L66 16 L66 -1 L146 -1 L191 -1 L191 -1 Z " />
<glyph glyph-name="M_sc" unicode="&#x1d0d;" horiz-adv-x="903" d="M768 125 L767 125 L753 440 L753 440 C751 487 772 513 819 520 L835 522 C836 522 836 531 835 548 C836 560 836 565 835 565 L747 565 L705 565 L662 565 L461 116 L256 565 L215 565 L188 565 L160 565 L70 565 L70 548 L70 522 L89 520 C132 514 153 492 156 452 L144 116 C139 75 116 52 73 45 L61 44 L61 18 L61 1 L139 1 L169 1 L199 1 L284 1 L284 18 L284 44 L270 46 C224 53 202 79 203 126 L203 126 L212 452 L418 -4 L464 -4 L450 28 L450 28 L464 -4 L667 444 L681 126 L681 126 C684 79 663 53 619 45 L607 44 L607 18 L607 1 L687 1 L730 1 L772 1 L840 1 L840 18 L840 44 L830 45 C789 53 769 79 767 126 L768 125 L768 125 Z " />
<glyph glyph-name="O_sc" unicode="&#x1d0f;" horiz-adv-x="747" d="M394 40 C240 40 166 130 166 316 C166 458 228 526 356 526 C508 526 581 435 581 245 C581 107 520 40 394 40 L394 40 Z M70 281 C70 84 169 -10 374 -10 C578 -10 677 84 677 281 C677 479 578 575 374 575 C169 575 70 479 70 281 L70 281 Z " />
<glyph glyph-name="P_sc" unicode="&#x1d18;" horiz-adv-x="595" d="M190 0 L235 0 L330 0 L330 17 L330 43 L305 46 C257 52 235 78 235 125 L235 248 L297 248 C452 248 526 300 526 408 C526 514 460 565 322 565 L235 565 L190 565 L144 565 L64 565 L64 548 L64 522 L76 521 C122 513 144 487 144 440 L144 125 C144 78 122 52 76 44 L64 43 L64 17 L64 0 L144 0 L190 0 L190 0 Z M235 303 L235 510 L300 509 C387 509 429 473 429 399 C429 334 393 302 317 302 L235 303 L235 303 Z " />
<glyph glyph-name="T_sc" unicode="&#x1d1b;" horiz-adv-x="615" d="M308 0 L353 0 L453 0 L453 17 L453 43 L422 46 C375 52 353 78 353 125 L353 510 L420 510 C467 510 494 487 503 440 L518 365 L553 365 L570 365 L570 510 L570 537 L570 565 L551 565 L531 565 L520 565 L450 565 L353 565 L262 565 L165 565 L95 565 L84 565 L64 565 L45 565 L45 537 L45 510 L45 365 L62 365 L97 365 L112 440 C121 487 148 510 195 510 L262 510 L262 125 C262 78 239 52 193 46 L162 43 L162 17 L162 0 L262 0 L308 0 L308 0 Z " />
<glyph glyph-name="U_sc" unicode="&#x1d1c;" horiz-adv-x="749" d="M144 440 L144 200 C144 58 219 -10 375 -10 C530 -10 605 58 605 200 L605 440 C605 487 627 513 673 521 L685 522 L685 548 L685 565 L605 565 L570 565 L535 565 L435 565 L435 548 L435 522 L465 519 C512 513 535 487 535 440 L535 179 C535 91 492 48 402 48 C289 48 234 103 234 216 L235 440 L235 440 C235 487 257 513 303 521 L315 522 L315 548 L315 565 L235 565 L190 565 L144 565 L64 565 L64 548 L64 522 L76 521 C122 513 144 487 144 440 L144 440 Z " />
<glyph glyph-name="V_sc" unicode="&#x1d20;" horiz-adv-x="674" d="M487 440 L487 440 L367 131 L224 452 C211 491 226 513 269 519 L285 521 L285 547 L285 564 L175 564 L128 564 L82 564 L44 564 L44 548 L44 525 L53 524 C87 517 113 491 134 444 L134 444 L322 13 L330 -6 L373 -6 L565 468 C583 506 604 527 629 532 L636 533 C637 533 637 539 636 551 C637 560 637 564 636 564 L604 564 L570 564 L537 564 L437 564 C436 564 436 559 437 547 C436 530 436 521 437 521 L448 520 C493 512 506 486 488 439 L487 440 L487 440 Z " />
<glyph glyph-name="W_sc" unicode="&#x1d21;" horiz-adv-x="919" d="M107 445 L107 445 L240 29 L250 -5 L285 -5 L292 13 L464 426 L608 29 L620 -5 L655 -5 L661 13 L812 455 L812 455 C828 502 851 527 885 533 L894 534 C893 534 893 540 894 552 C893 561 893 565 894 565 L849 565 L815 565 L781 565 L681 565 L681 548 L681 522 L693 520 C738 513 754 489 743 446 L652 163 L505 525 L487 569 L452 569 L443 547 L292 161 L199 448 C189 489 206 512 250 518 L272 521 L272 547 L272 564 L162 564 L115 564 L69 564 L26 564 L26 548 L26 525 L35 524 C68 517 92 491 107 444 L107 445 L107 445 Z " />
<glyph glyph-name="Z_sc" unicode="&#x1d22;" horiz-adv-x="586" d="M102 537 L102 510 L102 510 C103 468 103 427 102 385 L120 385 L155 385 L167 440 C178 487 205 510 252 510 L374 510 L108 55 L90 25 L90 0 L108 0 L376 0 L446 0 L457 0 L477 0 L496 0 L496 28 L496 55 L496 190 L479 190 L444 190 L430 125 C421 78 393 55 346 55 L200 55 L466 510 L481 535 L481 565 L466 565 L222 565 L152 565 L141 565 L122 565 L102 565 L102 537 L102 537 Z " />
<glyph glyph-name="Etilde" unicode="&#x1ebc;" horiz-adv-x="651" d="M212 705 C226 746 232 766 267 766 C324 766 351 702 408 702 C463 702 475 744 503 830 L489 830 C475 787 468 767 434 767 C377 767 351 831 294 831 C238 831 226 790 198 705 L212 705 L212 705 Z M582 31 L582 61 L582 186 C582 187 577 187 566 186 C544 187 533 187 533 186 L521 131 C512 84 484 62 437 61 L245 61 L245 309 L337 309 C384 309 411 287 419 241 L421 229 L452 229 L472 229 L472 309 L472 340 L472 371 L472 451 C472 450 466 450 452 451 C431 450 421 450 421 451 L419 439 C411 395 386 372 343 371 L337 371 L245 371 L245 599 L412 599 C459 599 487 576 497 529 L508 484 L541 484 L557 484 L557 599 L557 629 L557 660 L537 660 L518 660 L507 660 L437 660 L245 660 L195 660 L170 660 L144 660 L64 660 L64 643 L64 617 L76 616 C122 608 144 582 144 535 L144 125 C144 78 122 52 76 44 L64 43 L64 17 L64 0 L144 0 L170 0 L195 0 L245 0 L462 0 L532 0 L543 0 L562 0 L582 0 L582 31 L582 31 Z " />
<glyph glyph-name="endash" unicode="&#x2013;" horiz-adv-x="500" d="M50 239 L450 239 L450 295 L50 295 L50 239 L50 239 Z " />
<glyph glyph-name="emdash" unicode="&#x2014;" horiz-adv-x="1000" d="M50 239 L950 239 L950 295 L50 295 L50 239 L50 239 Z " />
<glyph glyph-name="quoteleft" unicode="&#x2018;" horiz-adv-x="257" d="M130 490 C144 485 153 482 161 482 C174 482 183 490 189 507 L209 560 L209 573 L168 595 C135 607 119 632 119 672 C119 702 147 720 205 728 L205 750 C102 736 52 694 52 622 C52 552 77 509 130 490 L130 490 Z " />
<glyph glyph-name="quoteright" unicode="&#x2019;" horiz-adv-x="257" d="M127 750 C113 755 104 758 96 758 C83 758 74 750 68 733 L48 680 L48 667 L89 645 C122 633 138 608 138 568 C138 538 110 520 52 512 L52 490 C155 504 205 546 205 618 C205 688 180 731 127 750 L127 750 Z " />
<glyph glyph-name="quotedblleft" unicode="&#x201c;" horiz-adv-x="460" d="M130 490 C144 485 153 482 161 482 C174 482 183 490 189 507 L209 560 L209 573 L168 595 C135 607 119 632 119 672 C119 702 147 720 205 728 L205 750 C102 736 52 694 52 622 C52 552 77 509 130 490 L130 490 Z M333 490 C347 485 356 482 364 482 C377 482 386 490 392 507 L413 560 L413 573 L371 595 C338 607 322 632 322 672 C322 702 350 720 408 728 L408 750 C305 736 255 694 255 622 C255 552 280 509 333 490 L333 490 Z " />
<glyph glyph-name="quotedblright" unicode="&#x201d;" horiz-adv-x="460" d="M330 750 C316 755 307 758 300 758 C286 758 277 750 271 733 L251 680 L251 667 L292 645 C325 633 341 608 341 568 C341 538 313 520 255 512 L255 490 C358 504 408 546 408 618 C408 688 383 731 330 750 L330 750 Z M127 750 C113 755 104 758 96 758 C83 758 74 750 68 733 L48 680 L48 667 L89 645 C122 633 138 608 138 568 C138 538 110 520 52 512 L52 490 C155 504 205 546 205 618 C205 688 180 731 127 750 L127 750 Z " />
<glyph glyph-name="bullet" unicode="&#x2022;" horiz-adv-x="527" d="M264 144 C354 144 398 188 398 278 C398 368 354 412 264 412 C174 412 130 368 130 278 C130 188 174 144 264 144 L264 144 Z " />
<glyph glyph-name="ellipsis" unicode="&#x2026;" horiz-adv-x="677" d="M546 -10 C591 -10 613 12 613 57 C613 102 591 124 546 124 C501 124 479 102 479 57 C479 12 501 -10 546 -10 L546 -10 Z M339 -10 C384 -10 406 12 406 57 C406 102 384 124 339 124 C294 124 272 102 272 57 C272 12 294 -10 339 -10 L339 -10 Z M132 -10 C177 -10 199 12 199 57 C199 102 177 124 132 124 C87 124 65 102 65 57 C65 12 87 -10 132 -10 L132 -10 Z " />
<glyph glyph-name="guilsinglleft" unicode="&#x2039;" horiz-adv-x="246" d="M214 425 L14 248 L214 70 L227 70 L126 248 L227 425 L214 425 L214 425 Z " />
<glyph glyph-name="guilsinglright" unicode="&#x203a;" horiz-adv-x="252" d="M20 425 L121 248 L20 70 L32 70 L233 248 L32 425 L20 425 L20 425 Z " />
<glyph glyph-name="Euro" unicode="&#x20ac;" horiz-adv-x="505" d="M193 283 C192 306 191 331 191 358 C191 367 191 376 191 384 L364 384 L364 433 L193 433 C202 564 239 628 305 628 C335 628 360 609 381 568 L412 523 L419 523 L473 549 C479 552 482 558 482 568 C482 570 478 577 470 593 C444 644 401 669 338 669 C197 669 116 592 92 433 L10 433 L10 384 L86 384 C84 363 83 341 83 318 C83 305 83 293 83 281 L9 281 L9 232 L86 232 C98 67 153 -12 313 -12 C385 -12 440 20 483 86 L483 113 L479 113 C453 75 418 56 371 56 C258 56 212 114 197 232 L363 232 L363 281 L193 283 L193 283 Z " />
<glyph glyph-name="F_sc" unicode="&#xa730;" horiz-adv-x="554" d="M275 263 C322 263 349 241 357 195 L359 183 L390 183 L410 183 L410 263 L410 291 L410 319 L410 399 C410 398 404 398 390 399 C369 398 359 398 359 399 L357 387 C349 343 324 320 281 319 L275 319 L235 319 L235 510 L340 510 C387 510 415 487 425 440 L435 395 L469 395 L485 395 L485 510 L485 537 L485 565 L465 565 L446 565 L435 565 L365 565 L235 565 L190 565 L167 565 L144 565 L64 565 L64 548 L64 522 L76 521 C122 513 144 487 144 440 L144 125 C144 78 122 52 76 44 L64 43 L64 17 L64 0 L144 0 L190 0 L235 0 L330 0 L330 17 L330 43 L305 46 C257 52 235 78 235 125 L235 263 L275 263 L275 263 Z " />
<glyph glyph-name="S_sc" unicode="&#xa731;" horiz-adv-x="467" d="M259 524 L259 524 C297 515 320 480 332 417 C334 405 336 393 339 381 C346 382 354 382 362 383 C369 383 377 383 385 384 L377 525 L356 497 L356 497 L377 525 C349 559 306 575 245 575 C137 575 85 524 85 417 C85 343 117 308 210 260 C295 216 325 188 325 139 C325 70 299 37 244 37 C229 37 212 42 193 52 L193 52 C150 74 125 112 115 169 C113 183 111 197 108 211 C101 210 93 210 85 210 C77 209 69 209 62 209 L69 51 C113 10 170 -10 244 -10 C358 -10 413 46 413 163 C413 243 378 280 276 332 C200 371 174 397 174 450 C174 502 194 527 237 527 C244 527 251 526 258 524 L259 524 L259 524 Z " />
</font>
</svg>
