<?xml version="1.0" encoding="UTF-8"?>
<svg xmlns="http://www.w3.org/2000/svg" xmlns:xlink="http://www.w3.org/1999/xlink" version="1.2" >
<font id="Afrah Bold">
<font-face  font-family="Afrah" units-per-em="1024" ascent="1032" descent="-300" font-style="normal" font-weight="700" font-stretch="normal" cap-height="1090" x-height="516" underline-position="-125" underline-thickness="50" />
<missing-glyph  horiz-adv-x="100" d="" />
<glyph glyph-name="NULL" d="" />
<glyph glyph-name="CR" unicode="&#xd;" horiz-adv-x="256" d="" />
<glyph glyph-name="space" unicode="&#x20;" horiz-adv-x="283" d="" />
<glyph glyph-name="exclam" unicode="&#x21;" horiz-adv-x="281" d="M140 -5 C180 -5 220 35 220 75 C220 115 180 155 140 155 C100 155 60 115 60 75 C60 35 100 -5 140 -5 L140 -5 Z M140 799 C94 799 62 738 70 676 L130 228 L151 228 L211 676 C219 738 187 799 140 799 L140 799 Z " />
<glyph glyph-name="quotedbl" unicode="&#x22;" horiz-adv-x="351" d="M208 794 C186 794 169 772 175 749 L215 604 L229 604 L269 749 C275 772 258 794 236 794 L208 794 L208 794 Z M88 794 C66 794 49 772 55 749 L95 604 L109 604 L149 749 C155 772 138 794 116 794 L88 794 L88 794 Z " />
<glyph glyph-name="numbersign" unicode="&#x23;" horiz-adv-x="579" d="M421 700 L398 548 L236 548 L259 700 L245 700 L222 548 L77 548 L65 460 L208 460 L175 244 L28 244 L16 156 L162 156 L138 0 L152 0 L176 156 L338 156 L314 0 L327 0 L351 156 L492 156 L505 244 L364 244 L397 460 L547 460 L559 548 L411 548 L434 700 L421 700 L421 700 Z M222 460 L384 460 L351 244 L189 244 L222 460 L222 460 Z " />
<glyph glyph-name="dollar" unicode="&#x24;" horiz-adv-x="582" d="M267 803 L267 869 L226 869 L226 794 C134 765 58 680 58 585 C58 500 130 391 226 341 L226 26 C205 38 184 53 164 71 C190 48 142 109 66 196 C64 198 61 202 59 204 L46 204 L46 58 L51 58 C51 63 52 73 52 78 C53 100 81 98 109 76 C143 46 185 21 226 6 L226 -73 L267 -73 L267 -5 C281 -7 293 -8 307 -7 L307 -72 L348 -72 L348 -1 C452 23 543 120 543 220 C543 307 457 423 348 467 L348 778 C361 772 374 764 387 755 C398 744 443 694 486 645 C488 643 491 639 493 637 L506 637 L506 746 L501 746 C501 743 500 738 500 735 C499 723 476 728 454 745 L454 745 C424 768 386 788 348 799 L348 872 L307 872 L307 807 C293 808 280 808 268 806 L267 803 L267 803 Z M487 676 L487 676 L487 676 L487 676 Z M268 327 C281 322 294 316 306 310 L306 7 C292 6 281 8 267 12 L268 327 L268 327 Z M347 286 C399 251 434 210 434 181 C434 114 396 48 347 20 L347 286 L347 286 Z M267 506 L267 796 C280 798 292 796 305 793 L305 484 C291 491 278 498 266 506 L267 506 L267 506 Z M225 537 C186 571 162 609 162 639 C162 694 189 749 225 777 L225 537 L225 537 Z " />
<glyph glyph-name="percent" unicode="&#x25;" horiz-adv-x="851" d="M143 607 C143 701 165 794 188 794 C217 794 246 679 246 561 C246 474 221 388 196 388 C169 388 143 496 143 607 L143 607 Z M31 585 C31 479 111 376 193 376 C274 376 354 487 354 600 C354 703 274 804 193 804 C111 804 31 696 31 585 L31 585 Z M605 224 C605 316 632 407 659 407 C695 407 731 294 731 178 C731 89 699 1 667 1 C636 1 605 111 605 224 L605 224 Z M492 202 C492 95 577 -10 664 -10 C752 -10 839 103 839 218 C839 319 752 418 664 418 C577 418 492 311 492 202 L492 202 Z M201 -5 L679 789 L664 799 L185 5 L201 -5 L201 -5 Z " />
<glyph glyph-name="ampersand" unicode="&#x26;" horiz-adv-x="863" d="M344 468 C430 501 508 567 508 610 C508 708 412 804 315 804 C226 804 139 701 139 595 C139 555 176 494 222 434 C123 393 32 281 32 196 C32 92 137 -10 245 -10 C311 -10 396 46 479 133 C493 116 507 99 521 82 C560 36 648 -10 699 -10 C760 -10 828 67 838 145 L818 152 C814 118 779 84 747 84 C708 84 646 113 621 142 C598 169 576 196 555 221 C628 315 693 429 735 544 L708 544 C669 436 604 329 534 247 C414 388 372 434 345 467 L344 468 L344 468 Z M333 483 C283 546 241 611 241 655 C241 717 278 777 316 777 C365 777 414 698 414 617 C414 568 377 509 333 483 L333 483 Z M453 165 C402 122 353 96 313 96 C233 96 154 162 154 230 C154 301 191 382 235 418 C273 370 313 328 451 165 L453 165 L453 165 Z " />
<glyph glyph-name="quotesingle" unicode="&#x27;" horiz-adv-x="216" d="M88 794 C66 794 49 772 55 749 L95 604 L109 604 L149 749 C155 772 138 794 116 794 L88 794 L88 794 Z " />
<glyph glyph-name="parenleft" unicode="&#x28;" horiz-adv-x="260" d="M239 804 C148 738 59 543 59 295 C59 47 148 -148 239 -214 L250 -199 C199 -162 149 19 149 295 C149 571 199 752 250 789 L239 804 L239 804 Z " />
<glyph glyph-name="parenright" unicode="&#x29;" horiz-adv-x="201" d="M3 791 C57 756 110 510 110 295 C110 80 57 -166 3 -201 L10 -214 C101 -155 191 97 191 295 C191 493 101 745 10 804 L3 791 L3 791 Z " />
<glyph glyph-name="asterisk" unicode="&#x2a;" horiz-adv-x="300" d="M271 704 C290 708 296 732 284 752 C273 771 250 778 236 764 L152 677 L185 794 C190 812 173 829 150 829 C127 829 110 812 115 794 L148 678 L64 764 C50 778 27 771 16 752 C4 732 10 708 29 704 L146 674 L29 644 C10 640 4 616 16 597 C27 577 50 570 64 584 C55 599 29 644 29 644 L64 584 L148 670 L115 554 C110 536 127 519 150 519 C173 519 190 536 185 554 L152 671 L236 584 C250 570 273 577 284 597 C296 616 290 640 271 644 C271 644 245 599 236 584 L271 644 L155 674 L271 704 L271 704 Z " />
<glyph glyph-name="plus" unicode="&#x2b;" horiz-adv-x="647" d="M279 493 L279 310 L100 310 L100 229 L279 229 L279 46 L368 46 L368 229 L547 229 L547 310 L368 310 L368 493 L279 493 L279 493 Z " />
<glyph glyph-name="comma" unicode="&#x2c;" horiz-adv-x="261" d="M166 23 C186 -41 129 -103 66 -103 L66 -111 C130 -111 192 -49 192 14 C192 66 159 116 126 116 C96 116 66 86 66 56 C66 26 96 -4 126 -4 C142 -4 158 8 168 24 L166 23 L166 23 Z " />
<glyph glyph-name="hyphen" unicode="&#x2d;" horiz-adv-x="457" d="M80 263 L377 263 L377 357 L80 357 L80 263 L80 263 Z " />
<glyph glyph-name="period" unicode="&#x2e;" horiz-adv-x="195" d="M125 -5 C165 -5 205 35 205 75 C205 115 165 155 125 155 C85 155 45 115 45 75 C45 35 85 -5 125 -5 L125 -5 Z " />
<glyph glyph-name="slash" unicode="&#x2f;" horiz-adv-x="398" d="M300 814 L18 -80 L86 -80 L368 814 L300 814 L300 814 Z " />
<glyph glyph-name="zero" unicode="0" horiz-adv-x="658" d="M96 272 C96 379 210 507 327 507 C432 507 558 391 558 272 C558 165 444 37 327 37 C222 37 96 153 96 272 L96 272 Z M41 272 C41 130 197 -10 327 -10 C471 -10 613 144 613 272 C613 414 457 554 327 554 C183 554 41 400 41 272 L41 272 Z " />
<glyph glyph-name="one" unicode="1" horiz-adv-x="239" d="M177 0 L177 544 L62 544 L62 0 L177 0 L177 0 Z " />
<glyph glyph-name="two" unicode="2" horiz-adv-x="580" d="M66 315 C81 392 165 467 235 467 C301 467 366 409 366 350 C366 246 174 94 14 12 L27 2 C22 1 18 0 14 0 L462 0 L526 102 C528 105 535 116 535 116 L535 117 L532 114 C528 108 491 102 458 102 L210 102 C209 102 208 102 207 102 C354 197 480 307 480 376 C480 466 388 554 294 554 C190 554 65 438 42 320 L66 315 L66 315 Z " />
<glyph glyph-name="three" unicode="3" horiz-adv-x="484" d="M16 -209 L20 -232 C234 -209 444 -83 444 23 C444 112 336 199 214 219 C325 283 413 363 413 421 C413 488 325 554 235 554 C144 554 37 476 19 396 L44 389 C54 431 125 473 188 473 C240 473 291 427 291 381 C291 329 237 267 170 223 C155 223 154 221 143 206 C130 199 117 193 104 187 L104 164 C106 165 108 166 110 167 C108 165 106 164 104 164 C214 149 322 62 322 -10 C322 -94 171 -193 16 -209 L16 -209 Z " />
<glyph glyph-name="four" unicode="4" horiz-adv-x="671" d="M661 107 L659 107 C654 109 655 108 653 105 C650 96 626 88 603 88 L442 88 L442 576 L427 576 L15 20 L15 0 L327 0 L327 -220 L442 -220 L442 0 L591 0 C617 0 636 -2 639 -5 L645 -5 L645 0 L645 1 C650 37 653 71 660 106 L661 107 L661 107 Z M326 371 L326 87 L118 87 L326 371 L326 371 Z " />
<glyph glyph-name="five" unicode="5" horiz-adv-x="469" d="M334 544 L82 544 L20 198 L40 180 L82 180 C211 180 338 98 338 14 C338 -84 199 -197 58 -214 L61 -235 C252 -212 439 -69 439 53 C439 178 269 301 95 301 L79 301 L104 441 L371 444 L389 544 C389 546 389 548 389 550 L383 550 C380 547 358 545 334 545 L334 544 L334 544 Z " />
<glyph glyph-name="six" unicode="6" horiz-adv-x="595" d="M576 794 C306 794 42 555 42 312 C42 149 170 -10 300 -10 C422 -10 541 120 541 253 C541 379 429 503 315 503 C268 503 221 473 187 429 C252 622 414 777 579 777 L576 794 L576 794 Z M156 251 C156 373 232 493 310 493 C368 493 425 377 425 259 C425 128 362 0 297 0 C226 0 156 124 156 251 L156 251 Z " />
<glyph glyph-name="seven" unicode="7" horiz-adv-x="470" d="M87 451 L419 450 L105 -220 L193 -220 L465 528 L465 544 L80 544 L41 454 C39 450 37 446 35 443 C36 443 40 441 40 441 C45 446 62 450 87 451 L87 451 Z " />
<glyph glyph-name="eight" unicode="8" horiz-adv-x="568" d="M214 387 C226 380 238 374 250 369 C345 331 438 274 438 227 C438 111 360 -2 280 -2 C206 -2 133 90 133 184 C133 258 169 342 214 386 L214 387 L214 387 Z M198 396 C108 346 33 253 33 183 C33 85 155 -11 280 -11 C405 -11 528 83 528 178 C528 298 446 392 349 447 C433 493 502 573 502 632 C502 718 391 803 277 803 C166 803 58 707 58 610 C58 535 121 447 197 396 L198 396 L198 396 Z M330 457 C318 463 305 469 292 474 C220 503 149 586 149 653 C149 726 215 798 283 798 C344 798 403 711 403 622 C403 564 371 496 330 457 L330 457 Z " />
<glyph glyph-name="nine" unicode="9" horiz-adv-x="595" d="M19 -250 C289 -250 553 -11 553 232 C553 395 425 554 295 554 C173 554 54 424 54 291 C54 165 166 41 280 41 C327 41 374 71 408 115 C343 -78 181 -233 16 -233 L19 -250 L19 -250 Z M439 293 C439 171 363 51 285 51 C227 51 170 167 170 285 C170 416 233 544 298 544 C369 544 439 420 439 293 L439 293 Z " />
<glyph glyph-name="colon" unicode="&#x3a;" horiz-adv-x="135" d="M125 429 C165 429 205 469 205 509 C205 549 165 589 125 589 C85 589 45 549 45 509 C45 469 85 429 125 429 L125 429 Z M125 -5 C165 -5 205 35 205 75 C205 115 165 155 125 155 C85 155 45 115 45 75 C45 35 85 -5 125 -5 L125 -5 Z " />
<glyph glyph-name="semicolon" unicode="&#x3b;" horiz-adv-x="261" d="M125 429 C165 429 205 469 205 509 C205 549 165 589 125 589 C85 589 45 549 45 509 C45 469 85 429 125 429 L125 429 Z M166 23 C186 -41 129 -103 66 -103 L66 -111 C130 -111 192 -49 192 14 C192 66 159 116 126 116 C96 116 66 86 66 56 C66 26 96 -4 126 -4 C142 -4 158 8 168 24 L166 23 L166 23 Z " />
<glyph glyph-name="equal" unicode="&#x3d;" horiz-adv-x="564" d="M88 248 L88 196 L494 196 L494 248 L88 248 L88 248 Z M88 348 L88 296 L494 296 L494 348 L88 348 L88 348 Z " />
<glyph glyph-name="question" unicode="&#x3f;" horiz-adv-x="295" d="M125 -5 C165 -5 205 35 205 75 C205 115 165 155 125 155 C85 155 45 115 45 75 C45 35 85 -5 125 -5 L125 -5 Z M127 254 C127 254 126 381 125 381 C209 381 261 422 288 464 C304 489 319 551 319 589 C319 698 233 805 145 805 C90 805 37 763 37 720 C37 691 68 663 99 663 C121 663 165 683 187 683 C236 683 285 630 285 575 C285 564 274 537 263 519 C244 490 195 461 97 461 C102 463 107 254 107 254 L127 254 L127 254 Z " />
<glyph glyph-name="at" unicode="&#x40;" horiz-adv-x="1218" d="M1079 0 C1023 -120 798 -237 625 -237 C383 -237 145 19 145 281 C145 541 375 796 609 796 C844 796 1074 587 1074 373 C1074 190 985 10 895 10 C830 10 790 113 814 218 L884 522 L775 522 L756 442 C732 493 674 534 615 534 C452 534 292 372 292 206 C292 104 387 5 484 5 C564 5 656 61 702 130 C718 41 787 -30 873 -30 C1019 -30 1162 169 1162 373 C1162 603 888 828 608 828 C329 828 55 557 55 281 C55 10 350 -256 650 -256 C826 -256 1057 -129 1117 0 L1079 0 L1079 0 Z M743 387 L704 218 C687 142 606 68 542 68 C479 68 417 147 417 227 C417 365 513 501 611 501 C677 501 742 445 743 387 L743 387 Z " />
<glyph glyph-name="A" unicode="A" horiz-adv-x="699" d="M428 0 L699 0 L699 3 L692 3 C673 3 638 53 621 103 L621 103 C542 340 463 577 384 814 L370 814 C374 790 325 759 270 751 L273 741 L273 741 C210 528 148 315 84 103 C69 52 19 3 -17 3 L-30 3 L-30 0 L152 0 L152 3 L139 3 C103 3 82 53 97 103 L97 103 L156 307 L415 307 L484 94 C495 46 476 3 442 3 L429 3 L428 0 L428 0 Z M159 318 L278 728 L411 318 L159 318 L159 318 Z " />
<glyph glyph-name="B" unicode="B" horiz-adv-x="716" d="M328 4 L278 4 C249 4 221 19 221 34 L221 408 L339 408 C434 408 527 309 527 208 C527 69 428 4 328 4 L328 4 Z M341 0 C510 0 676 66 676 208 C676 307 539 404 391 414 C524 437 638 520 638 604 C638 700 536 794 316 794 L85 794 L85 0 L341 0 L341 0 Z M316 415 L220 415 L220 786 L300 786 C439 786 504 689 504 590 C504 502 411 415 316 415 L316 415 Z " />
<glyph glyph-name="C" unicode="C" horiz-adv-x="802" d="M761 57 L761 182 L748 182 C746 180 744 176 742 174 C716 141 673 95 649 76 C592 33 520 1 449 1 C317 1 188 198 188 398 C188 598 323 795 461 795 C522 795 584 766 638 726 C668 703 720 650 742 619 C743 617 747 613 748 611 L761 611 L761 736 L756 736 C756 732 755 726 755 722 C753 707 729 709 704 724 C644 770 560 806 459 806 C248 806 41 605 41 399 C41 193 242 -8 447 -8 C551 -8 644 27 706 73 C731 88 754 89 756 73 C756 69 757 63 757 59 L761 57 L761 57 Z " />
<glyph glyph-name="D" unicode="D" horiz-adv-x="871" d="M299 8 C240 8 221 21 221 34 L221 786 L324 786 C515 786 668 593 668 397 C668 181 485 8 299 8 L299 8 Z M312 0 C567 0 816 176 816 397 C816 597 612 794 357 794 L86 794 L86 0 L312 0 L312 0 Z " />
<glyph glyph-name="E" unicode="E" horiz-adv-x="630" d="M498 323 L498 502 L489 502 L486 489 C479 453 433 417 393 417 L221 417 L221 785 L454 785 C494 785 544 749 556 713 L560 700 L569 700 C567 723 561 767 558 790 L559 790 L558 794 L86 794 L86 0 L583 0 L584 4 C587 4 598 79 599 84 L590 84 L585 72 C572 40 509 9 456 9 L256 9 C230 9 222 21 222 34 L222 408 L394 408 C434 408 480 372 487 336 L490 323 L498 323 L498 323 Z " />
<glyph glyph-name="F" unicode="F" horiz-adv-x="605" d="M488 323 L488 502 L479 502 L476 489 C469 453 423 417 383 417 L221 417 L221 787 L454 787 C494 787 544 751 556 715 L560 702 L569 702 C567 724 561 769 559 791 L558 791 L558 794 L86 794 L86 0 L221 0 L221 408 L383 408 C423 408 469 372 476 336 L479 323 L488 323 L488 323 Z " />
<glyph glyph-name="G" unicode="G" horiz-adv-x="835" d="M761 610 L761 735 L756 735 C756 731 755 725 755 721 C753 706 729 708 704 723 C644 769 560 805 459 805 C248 805 41 604 41 398 C41 192 247 -9 457 -9 C590 -9 736 27 814 63 L811 68 C795 61 772 54 744 47 C745 99 745 263 745 345 L609 345 L609 257 C610 257 610 150 610 137 C602 74 542 17 480 17 C334 17 191 205 191 397 C191 597 326 794 464 794 C525 794 587 765 641 725 C671 702 723 649 745 618 C746 616 750 612 751 610 L761 610 L761 610 Z " />
<glyph glyph-name="H" unicode="H" horiz-adv-x="826" d="M732 0 L732 794 L597 794 L597 416 L257 416 L257 794 L122 794 L122 0 L257 0 L257 405 L597 405 L597 0 L732 0 L732 0 Z " />
<glyph glyph-name="I" unicode="I" horiz-adv-x="301" d="M207 0 L207 794 L72 794 L72 0 L207 0 L207 0 Z " />
<glyph glyph-name="J" unicode="J" horiz-adv-x="301" d="M72 -106 C72 -177 -6 -206 -49 -206 C-105 -206 -94 -98 -150 -98 C-181 -98 -211 -128 -211 -159 C-211 -190 -136 -220 -59 -220 C35 -220 208 -112 208 150 C208 313 207 794 207 794 L72 794 L72 -106 L72 -106 Z " />
<glyph glyph-name="K" unicode="K" horiz-adv-x="759" d="M757 3 C737 3 708 23 684 49 L329 478 C402 560 475 643 548 725 C581 762 628 790 660 790 L660 793 L447 793 L447 790 L463 790 C502 790 508 750 480 706 L221 395 L221 792 L86 792 L86 -2 L221 -2 L221 395 L544 -2 L757 -2 L757 3 L757 3 Z " />
<glyph glyph-name="L" unicode="L" horiz-adv-x="599" d="M575 12 C579 34 586 76 590 98 L581 98 L576 86 C563 54 500 23 447 23 L241 23 C215 23 207 28 207 34 L207 794 L72 794 L72 0 L575 0 L576 12 L575 12 L575 12 Z " />
<glyph glyph-name="M" unicode="M" horiz-adv-x="864" d="M649 0 L855 0 L855 3 C835 3 822 20 818 47 C811 278 803 510 797 741 C796 766 810 791 824 791 L830 791 L830 794 L666 794 L462 173 L240 794 L45 794 L45 791 C66 791 89 769 100 742 L80 46 C76 19 63 3 43 3 L43 0 L160 0 L160 3 L154 3 C140 3 126 28 126 53 L126 53 L134 660 C225 440 315 220 406 0 L440 0 L441 5 L670 667 L684 47 C683 24 670 3 656 3 L650 3 L649 0 L649 0 Z " />
<glyph glyph-name="N" unicode="N" horiz-adv-x="733" d="M49 0 L160 0 L160 3 L154 3 C140 3 125 28 125 53 L125 53 L121 616 C281 410 441 204 601 -1 L629 -1 L638 747 C641 774 654 790 674 790 L674 793 L598 793 L598 740 L598 740 L600 234 C451 421 301 607 151 793 L-49 793 L-49 790 C-28 790 2 768 24 740 L24 740 L85 661 L83 52 L83 52 C83 27 69 2 54 2 L48 2 L49 0 L49 0 Z " />
<glyph glyph-name="O" unicode="O" horiz-adv-x="922" d="M187 397 C187 597 316 794 447 794 C585 794 720 597 720 397 C720 197 582 0 441 0 C313 0 187 197 187 397 L187 397 Z M40 397 C40 191 238 -10 439 -10 C655 -10 867 191 867 397 C867 603 660 804 449 804 C242 804 40 603 40 397 L40 397 Z " />
<glyph glyph-name="P" unicode="P" horiz-adv-x="664" d="M255 0 L255 358 L312 358 C480 358 644 446 644 569 C644 683 507 794 368 794 L120 794 L120 0 L255 0 L255 0 Z M255 386 L255 771 L334 771 C426 771 517 682 517 592 C517 472 416 386 312 386 L255 386 L255 386 Z " />
<glyph glyph-name="Q" unicode="Q" horiz-adv-x="917" d="M1250 -48 L1247 -45 C1221 -67 1047 -88 895 -88 C736 -88 529 -52 413 -9 C422 -10 431 -10 440 -10 C656 -10 868 191 868 397 C868 603 661 804 450 804 C243 804 41 603 41 397 C41 263 125 131 239 55 C413 -63 725 -177 879 -177 C988 -177 1172 -113 1250 -47 L1250 -48 L1250 -48 Z M187 398 C187 598 316 795 447 795 C585 795 720 598 720 398 C720 195 576 -4 429 -4 C307 -4 187 195 187 398 L187 398 Z " />
<glyph glyph-name="R" unicode="R" horiz-adv-x="787" d="M777 0 C718 0 696 12 662 64 C573 201 485 335 451 387 C552 418 629 485 629 568 C629 682 478 794 323 794 L86 794 L86 0 L221 0 L221 368 L316 368 C341 320 422 187 503 64 C537 12 589 0 777 0 L777 0 Z M221 402 L221 767 L283 767 C382 767 480 682 480 595 C480 483 402 402 323 402 L221 402 L221 402 Z " />
<glyph glyph-name="S" unicode="S" horiz-adv-x="582" d="M47 203 L47 57 L52 57 C52 62 53 72 53 77 C54 99 82 97 110 75 C165 26 240 -10 299 -10 C422 -10 543 102 543 217 C543 306 453 426 340 467 C242 503 164 583 164 637 C164 716 219 794 276 794 C310 794 351 777 387 752 C398 741 443 691 486 642 C488 640 491 636 493 634 L506 634 L506 743 L501 743 C501 740 500 735 500 732 C499 720 476 725 454 742 L454 742 C404 781 332 810 276 805 C164 795 59 697 59 586 C59 492 148 368 259 328 C357 292 435 222 435 179 C435 91 368 4 299 4 C261 4 210 32 166 72 C192 49 144 110 68 197 C66 199 63 203 61 205 L47 203 L47 203 Z M487 675 L487 675 L487 675 L487 675 Z " />
<glyph glyph-name="T" unicode="T" horiz-adv-x="801" d="M781 685 C773 707 756 749 746 773 C750 772 746 773 745 775 C740 778 747 795 747 795 L55 795 C55 795 54 780 54 771 L54 771 L54 769 C53 767 22 690 20 685 L29 685 L37 697 C56 729 117 760 160 760 L332 760 L332 0 L467 0 L467 760 L640 760 C683 760 744 729 763 697 L771 685 L781 685 L781 685 Z M744 774 L744 774 L744 774 L744 774 Z M52 765 C50 767 51 769 53 771 C53 769 53 767 53 766 L52 765 L52 765 Z M746 761 L746 761 L746 761 L746 761 Z " />
<glyph glyph-name="U" unicode="U" horiz-adv-x="745" d="M613 0 C630 4 664 13 681 18 L681 794 L545 794 L545 210 C514 143 413 77 342 77 C263 77 186 152 186 228 L186 794 L51 794 L51 228 C51 108 168 -10 288 -10 C380 -10 508 69 545 149 L545 0 L613 0 L613 0 Z " />
<glyph glyph-name="V" unicode="V" horiz-adv-x="779" d="M763 794 L571 794 L571 791 L586 791 C627 791 650 743 633 694 L435 172 C361 345 285 518 211 690 C189 740 202 790 238 790 L251 790 L251 793 L-12 793 L-12 790 C3 790 33 742 56 690 L56 690 C159 456 262 222 365 -11 L392 -11 L687 703 C708 748 740 789 755 789 L761 789 L763 794 L763 794 Z " />
<glyph glyph-name="W" unicode="W" horiz-adv-x="1122" d="M1112 794 L920 794 L920 791 L934 791 C972 791 1000 756 994 719 L850 188 L630 720 C618 757 635 792 667 792 L679 792 L679 795 L422 795 L422 792 C439 792 463 761 482 721 C509 657 538 593 564 530 L435 163 L213 719 C200 757 209 793 233 793 L242 793 L242 796 L10 796 L10 793 C25 793 50 755 68 713 L68 713 C170 473 272 233 374 -8 L408 -8 L587 475 C657 314 727 153 797 -8 L831 -8 C902 232 972 473 1043 713 C1055 753 1085 793 1104 793 L1111 793 L1112 794 L1112 794 Z " />
<glyph glyph-name="X" unicode="X" horiz-adv-x="778" d="M501 0 L735 0 L735 3 C722 3 700 26 680 55 L416 449 C499 545 582 641 665 737 C692 769 730 792 757 792 L757 795 L579 795 L579 792 L597 792 C624 792 631 765 611 737 L611 737 L408 461 L223 737 C204 765 208 792 231 792 L239 792 L239 795 L6 795 L6 792 C19 792 40 770 60 742 L313 364 L78 51 C54 23 23 4 -2 4 L-2 1 L169 1 L169 4 L151 4 C124 4 116 31 135 59 L135 59 L331 339 C393 246 456 152 518 59 C537 31 533 4 510 4 L502 4 L501 0 L501 0 Z " />
<glyph glyph-name="Y" unicode="Y" horiz-adv-x="726" d="M230 794 L-2 794 L-2 791 C10 791 28 772 47 746 L305 336 L305 0 L441 0 L441 354 L646 738 C664 770 693 792 719 792 L719 795 L580 795 L580 792 L598 792 C626 792 639 765 625 737 L625 737 L437 367 C362 490 285 614 211 737 C194 765 199 792 222 792 L230 792 L230 794 L230 794 Z " />
<glyph glyph-name="Z" unicode="Z" horiz-adv-x="654" d="M70 682 L73 693 C82 723 135 753 185 758 L492 764 L25 27 L25 0 L633 0 L642 41 C642 41 656 100 659 115 L650 115 L645 104 C631 74 572 43 520 39 L184 31 L638 767 L638 794 L71 794 L68 756 C68 756 63 697 62 682 L70 682 L70 682 Z " />
<glyph glyph-name="bracketleft" unicode="&#x5b;" horiz-adv-x="302" d="M142 760 L352 760 L352 794 L102 794 L102 -195 L352 -195 L352 -161 L142 -161 L142 760 L142 760 Z " />
<glyph glyph-name="backslash" unicode="&#x5c;" horiz-adv-x="356" d="M18 814 L278 -80 L346 -80 L86 814 L18 814 L18 814 Z " />
<glyph glyph-name="bracketright" unicode="&#x5d;" horiz-adv-x="305" d="M155 760 L155 -161 L-55 -161 L-55 -195 L195 -195 L195 794 L-55 794 L-55 760 L155 760 L155 760 Z " />
<glyph glyph-name="asciicircum" unicode="&#x5e;" horiz-adv-x="373" d="M227 790 C220 800 197 831 187 831 C176 831 153 800 146 790 L32 612 L48 599 L187 715 L325 599 L341 612 L227 790 L227 790 Z " />
<glyph glyph-name="underscore" unicode="&#x5f;" horiz-adv-x="515" d="M5 -50 L5 -114 L510 -114 L510 -50 L5 -50 L5 -50 Z " />
<glyph glyph-name="grave" unicode="&#x60;" horiz-adv-x="373" d="M-16 782 C-16 775 13 747 43 723 L188 605 L202 620 L96 775 C74 808 48 840 41 840 C15 840 -16 808 -16 782 L-16 782 Z " />
<glyph glyph-name="a" unicode="a" horiz-adv-x="538" d="M548 124 L539 128 C534 102 504 77 477 77 C451 77 426 98 426 120 L426 385 C426 483 349 554 271 554 C163 554 57 449 57 404 C57 364 93 324 129 324 C157 324 185 361 185 381 C185 397 165 425 165 443 C165 472 214 540 263 540 C288 540 312 492 312 426 C312 426 312 360 312 289 C125 255 37 205 37 102 C37 45 97 -10 158 -10 C192 -10 260 26 318 84 C335 35 383 -5 431 -5 C479 -5 538 59 549 124 L548 124 L548 124 Z M312 281 C312 202 312 120 312 120 C312 110 313 100 316 90 C287 66 246 50 220 50 C187 50 154 81 154 113 C154 215 205 259 313 280 L312 281 L312 281 Z " />
<glyph glyph-name="b" unicode="b" horiz-adv-x="596" d="M10 770 C20 770 25 747 25 722 L25 0 L31 0 L72 64 C121 22 201 -10 273 -10 C413 -10 550 131 550 275 C550 413 424 549 295 549 C253 549 182 516 139 478 L139 794 L82 794 L82 795 C64 790 27 780 9 775 L10 770 L10 770 Z M139 111 L139 457 C173 486 227 512 258 512 C340 512 421 388 421 262 C421 133 350 7 277 7 C227 7 163 57 139 112 L139 111 L139 111 Z " />
<glyph glyph-name="c" unicode="c" horiz-adv-x="570" d="M540 136 L535 138 C512 79 421 21 351 21 C258 21 167 158 167 298 C167 423 257 546 349 546 C370 546 407 498 425 449 C435 420 464 392 483 392 C522 392 550 420 540 449 C521 502 427 554 351 554 C196 554 45 406 45 255 C45 121 188 -10 333 -10 C409 -10 511 62 540 136 L540 136 Z " />
<glyph glyph-name="d" unicode="d" horiz-adv-x="583" d="M404 770 L407 769 C413 768 419 745 419 722 L419 472 C383 516 327 554 282 554 C150 554 45 414 45 272 C45 132 150 -5 258 -5 C310 -5 385 30 419 68 L419 0 L476 0 L476 -1 C491 3 519 11 534 15 L534 794 L477 794 L419 779 C419 778 404 775 404 775 L404 770 L404 770 Z M419 408 L419 81 C397 61 345 43 306 43 C234 43 163 172 163 303 C163 413 222 521 296 521 C341 521 403 459 419 408 L419 408 Z " />
<glyph glyph-name="e" unicode="e" horiz-adv-x="584" d="M173 370 L554 370 C543 482 432 554 325 554 C184 554 45 434 45 249 C45 118 171 -10 300 -10 C394 -10 510 66 534 143 L529 144 C510 83 403 24 312 24 C238 24 166 159 166 296 C166 322 168 347 172 370 L173 370 L173 370 Z M425 379 L173 378 C195 482 258 546 322 546 C365 546 413 481 425 379 L425 379 Z " />
<glyph glyph-name="f" unicode="f" horiz-adv-x="362" d="M177 0 L177 483 L352 483 L352 544 L177 544 C177 655 227 763 289 763 C334 763 400 679 438 679 C461 679 483 701 483 724 C483 762 407 799 330 799 C181 799 62 673 62 544 L-24 497 L-24 483 L62 483 L62 0 L177 0 L177 0 Z " />
<glyph glyph-name="g" unicode="g" horiz-adv-x="546" d="M569 492 C569 527 532 561 494 561 C467 561 426 531 402 497 C365 531 314 554 263 554 C164 554 66 468 66 381 C66 304 139 229 222 210 C130 200 49 157 49 112 C49 60 92 8 144 -9 C87 -28 39 -67 39 -96 C39 -163 156 -229 275 -229 C394 -229 511 -144 511 -58 C511 22 433 100 313 100 L186 100 C152 100 118 123 118 147 C118 177 190 206 264 206 C363 206 461 293 461 382 C461 420 443 457 414 487 C448 499 490 442 520 442 C545 442 569 467 569 492 L569 492 Z M264 213 C223 213 182 296 182 381 C182 464 223 546 264 546 C305 546 346 464 346 381 C346 296 305 213 264 213 L264 213 Z M160 -13 C167 -14 174 -15 181 -15 L302 -15 C372 -15 417 -50 417 -86 C417 -155 348 -222 278 -222 C206 -222 135 -147 135 -70 C135 -49 146 -26 161 -12 L160 -13 L160 -13 Z " />
<glyph glyph-name="h" unicode="h" horiz-adv-x="552" d="M11 770 C21 770 26 747 26 722 L26 0 L141 0 L141 425 C160 449 237 473 296 473 C350 473 393 409 393 344 L393 0 L508 0 L508 344 C508 450 443 554 361 554 C296 554 187 496 141 437 L141 794 L84 794 L84 795 C66 790 29 780 11 775 L11 770 L11 770 Z " />
<glyph glyph-name="i" unicode="i" horiz-adv-x="195" d="M94 659 C131 659 168 696 168 733 C168 771 131 808 94 808 C56 808 19 771 19 733 C19 696 56 659 94 659 L94 659 Z M21 520 C31 520 36 497 36 472 L36 0 L151 0 L151 544 L94 544 L94 545 C76 540 39 530 21 525 L21 520 L21 520 Z " />
<glyph glyph-name="j" unicode="j" horiz-adv-x="250" d="M103 659 C140 659 177 696 177 733 C177 771 140 808 103 808 C65 808 28 771 28 733 C28 696 65 659 103 659 L103 659 Z M30 520 C40 520 45 497 45 472 L45 68 C45 -12 20 -105 -5 -120 C-32 -120 -83 -100 -110 -100 C-133 -100 -155 -120 -155 -140 C-155 -165 -125 -187 -95 -185 C-90 -185 -38 -157 10 -130 C86 -86 160 12 160 68 L160 544 L103 544 L103 545 C85 540 48 530 30 525 L30 520 L30 520 Z " />
<glyph glyph-name="k" unicode="k" horiz-adv-x="567" d="M11 770 C21 770 26 747 26 722 L26 0 L141 0 L141 300 L152 290 L154 291 C228 208 303 125 377 43 C395 23 408 3 403 3 L401 3 L401 0 L568 0 C567 1 565 4 563 5 L251 359 L431 483 C481 516 529 541 550 541 L550 544 L367 544 L367 541 L388 541 C438 541 414 491 340 441 L140 305 L140 794 L83 794 L83 795 C65 790 28 780 10 775 L11 770 L11 770 Z " />
<glyph glyph-name="l" unicode="l" horiz-adv-x="185" d="M11 770 C21 770 26 747 26 722 L26 0 L141 0 L141 794 L84 794 L84 795 C66 790 29 780 11 775 L11 770 L11 770 Z " />
<glyph glyph-name="m" unicode="m" horiz-adv-x="869" d="M476 442 L476 430 C491 450 565 469 624 469 C676 469 710 407 710 344 L710 0 L825 0 L825 344 C825 450 764 554 671 554 C617 554 520 499 476 442 L476 442 Z M11 520 C21 520 26 497 26 472 L26 0 L141 0 L141 430 C156 450 226 469 282 469 C334 469 368 407 368 344 L368 0 L483 0 L483 344 C483 450 422 554 329 554 C278 554 185 499 141 442 L141 544 L84 544 L84 545 C66 540 29 530 11 525 L11 520 L11 520 Z " />
<glyph glyph-name="n" unicode="n" horiz-adv-x="527" d="M11 520 C21 520 26 497 26 472 L26 0 L141 0 L141 413 C173 454 247 494 291 494 C334 494 368 427 368 358 L368 0 L483 0 L483 358 C483 457 415 554 329 554 C282 554 189 494 141 433 L141 544 L84 544 L84 545 C66 540 29 530 11 525 L11 520 L11 520 Z " />
<glyph glyph-name="o" unicode="o" horiz-adv-x="648" d="M172 272 C172 409 247 543 324 543 C401 543 476 409 476 272 C476 135 401 1 324 1 C247 1 172 135 172 272 L172 272 Z M45 272 C45 130 183 -10 324 -10 C465 -10 603 130 603 272 C603 414 465 554 324 554 C183 554 45 414 45 272 L45 272 Z " />
<glyph glyph-name="p" unicode="p" horiz-adv-x="587" d="M-4 520 C6 520 11 497 11 472 L11 -220 L126 -220 L126 -202 L126 31 C169 9 219 -5 265 -5 C404 -5 541 151 541 281 C541 419 417 554 291 554 C232 554 159 521 125 483 L125 544 L68 544 L68 545 C50 540 13 530 -5 525 L-4 520 L-4 520 Z M125 137 L125 438 C153 475 203 506 239 506 C328 506 416 377 416 245 C416 145 345 24 273 24 C216 24 143 80 126 137 L125 137 L125 137 Z " />
<glyph glyph-name="q" unicode="q" horiz-adv-x="522" d="M503 -220 L503 544 L496 544 L458 484 L458 484 C414 524 347 554 288 554 C142 554 26 414 26 272 C26 132 134 -5 244 -5 C297 -5 359 21 388 52 L388 -220 L503 -220 L503 -220 Z M388 433 L388 92 C366 65 325 43 292 43 C218 43 145 172 145 304 C145 417 206 528 282 528 C318 528 367 483 388 433 L388 433 Z " />
<glyph glyph-name="r" unicode="r" horiz-adv-x="450" d="M12 520 C22 520 27 497 27 472 L27 0 L142 0 L142 412 C170 458 221 500 253 500 C279 500 305 483 305 465 C305 431 339 397 373 397 C407 397 440 431 440 465 C440 510 374 554 306 554 C256 554 178 494 141 430 L141 544 L84 544 L84 545 C66 540 29 530 11 525 L12 520 L12 520 Z " />
<glyph glyph-name="s" unicode="s" horiz-adv-x="461" d="M60 138 L60 56 L64 56 L64 64 C64 68 90 54 117 35 C131 24 147 16 161 6 L161 7 C180 -2 199 -8 217 -9 C223 -12 225 -12 224 -9 C317 -9 409 69 409 149 C409 212 338 293 250 317 C186 334 135 397 135 447 C135 498 179 547 224 547 C238 547 254 542 270 534 C251 543 303 494 375 434 C377 433 380 429 382 428 L386 428 L386 499 L383 499 C383 497 382 495 382 493 C382 493 308 534 294 540 C289 544 284 547 279 550 L277 547 C259 553 241 556 224 556 C138 556 53 483 53 408 C53 338 118 252 199 230 C266 212 320 158 320 118 C320 58 270 -6 217 1 C200 21 148 68 68 135 C66 136 63 140 61 141 L60 138 L60 138 Z M174 19 C172 20 170 21 168 22 C170 21 172 20 174 19 L174 19 Z " />
<glyph glyph-name="t" unicode="t" horiz-adv-x="428" d="M378 544 L213 544 L213 675 L205 675 L33 493 L33 483 L98 483 L98 203 C98 74 177 -10 258 -10 C331 -10 411 61 418 134 L403 136 C398 90 344 44 293 44 C251 44 210 96 210 177 L213 483 L378 483 L378 544 L378 544 Z " />
<glyph glyph-name="u" unicode="u" horiz-adv-x="529" d="M432 0 L432 -1 C447 3 475 11 490 15 L490 544 L375 544 L375 139 C352 103 289 70 237 70 C187 70 137 118 137 167 L137 544 L22 544 L22 167 C22 78 102 -10 183 -10 C251 -10 341 55 375 126 L375 0 L432 0 L432 0 Z " />
<glyph glyph-name="v" unicode="v" horiz-adv-x="537" d="M507 544 L426 544 L426 541 L428 541 C433 541 432 522 426 499 L305 156 C260 266 214 376 170 486 C158 516 151 541 160 541 L160 544 L7 544 L7 541 C15 541 27 524 38 500 L246 -9 L280 -9 C344 156 407 322 472 487 C484 517 498 542 507 542 L507 544 L507 544 Z " />
<glyph glyph-name="w" unicode="w" horiz-adv-x="865" d="M835 544 L752 544 L752 541 L754 541 C760 541 757 518 749 492 L627 158 L490 498 C481 523 477 541 485 541 L485 544 L329 544 L329 541 C338 541 353 516 365 486 L365 486 L407 381 L256 -10 L289 -10 L428 327 L564 -10 L598 -10 C665 155 731 321 798 486 C810 516 825 541 834 541 L835 544 L835 544 Z M162 544 L6 544 L6 541 C14 541 27 521 39 495 L255 -9 L316 149 C268 262 219 375 171 488 C158 518 151 543 160 543 L162 544 L162 544 Z " />
<glyph glyph-name="x" unicode="x" horiz-adv-x="548" d="M518 544 L438 544 L438 541 L440 541 C445 541 431 514 412 486 L412 486 L302 329 L195 496 C180 521 171 541 180 541 L180 544 L11 544 L11 541 C21 541 41 516 60 486 L60 486 L208 255 C157 189 107 123 56 58 C34 29 9 3 0 3 L0 0 L79 0 L79 3 L77 3 C72 3 86 30 105 58 L105 58 L225 229 L341 48 C356 23 365 3 356 3 L356 0 L525 0 L525 3 C515 3 495 28 476 58 L476 58 L321 300 C368 362 415 424 462 486 C484 515 509 541 518 541 L518 544 L518 544 Z " />
<glyph glyph-name="y" unicode="y" horiz-adv-x="557" d="M535 544 L454 544 L454 541 L456 541 C462 541 459 516 451 489 L340 151 C287 262 233 374 181 485 C168 513 160 540 166 540 L168 540 L168 543 L15 543 L15 540 C24 540 41 515 55 485 L55 485 L282 5 C261 -47 240 -100 219 -152 C210 -174 194 -195 192 -195 C173 -195 161 -157 142 -157 C117 -157 93 -181 93 -206 C93 -234 120 -261 147 -261 C172 -261 228 -214 247 -167 C286 -69 325 29 363 129 C408 248 453 367 499 485 C511 515 525 540 534 540 L535 544 L535 544 Z " />
<glyph glyph-name="z" unicode="z" horiz-adv-x="502" d="M62 524 C62 524 53 491 44 457 L55 457 L60 464 C71 482 115 501 155 506 L326 512 L40 27 L40 0 L457 0 L457 10 L460 10 C460 10 466 54 470 88 L459 88 L455 81 C446 62 402 42 362 38 L179 32 L462 517 L462 544 L75 544 C75 544 68 544 67 544 L63 528 C68 530 72 532 75 533 L75 525 L62 524 L62 524 Z M62 527 L63 529 L62 527 L62 527 Z " />
<glyph glyph-name="braceleft" unicode="&#x7b;" horiz-adv-x="273" d="M268 794 L228 794 C152 794 78 728 78 660 L78 405 C78 370 50 335 21 335 L15 335 L15 329 L21 329 C50 329 78 286 78 243 L78 4 C78 -64 152 -130 228 -130 L268 -130 L268 -125 L236 -124 C201 -124 167 -61 167 4 L167 179 C167 252 108 323 43 332 C108 340 167 403 167 468 L167 659 C167 724 201 787 236 787 L268 787 L268 794 L268 794 Z " />
<glyph glyph-name="bar" unicode="&#x7c;" horiz-adv-x="209" d="M60 844 L60 -250 L149 -250 L149 844 L60 844 L60 844 Z " />
<glyph glyph-name="braceright" unicode="&#x7d;" horiz-adv-x="273" d="M5 794 L5 788 L37 788 C72 788 106 725 106 660 L106 469 C106 404 165 341 230 333 C165 324 106 253 106 180 L106 5 C106 -60 72 -123 37 -123 L5 -124 L5 -129 L45 -129 C121 -129 195 -63 195 5 L195 244 C195 287 223 330 252 330 L258 330 L258 336 L252 336 C223 336 195 371 195 406 L195 661 C195 729 121 795 45 795 L5 794 L5 794 Z " />
<glyph glyph-name="asciitilde" unicode="&#x7e;" horiz-adv-x="373" d="M26 332 C26 360 50 387 74 387 C122 387 218 322 266 322 C310 322 354 392 354 463 L348 463 C348 433 321 403 293 403 C244 403 149 468 100 468 C59 468 19 401 19 332 L26 332 L26 332 Z " />
<glyph glyph-name="exclamdown" unicode="&#xa1;" horiz-adv-x="281" d="M141 549 C101 549 61 509 61 469 C61 429 101 389 141 389 C181 389 221 429 221 469 C221 509 181 549 141 549 L141 549 Z M141 -255 C187 -255 219 -194 211 -132 C211 -132 151 203 151 316 L130 316 C130 203 70 -132 70 -132 C62 -194 94 -255 141 -255 L141 -255 Z " />
<glyph glyph-name="cent" unicode="&#xa2;" horiz-adv-x="570" d="M316 619 L316 552 C174 532 45 395 45 255 C45 126 177 0 316 -10 L316 -76 L356 -76 L356 -9 C428 3 514 68 540 135 L535 137 C513 79 426 22 357 19 L357 542 C378 534 409 491 425 447 C435 418 464 390 483 390 C522 390 550 418 540 447 C521 499 431 550 356 552 L356 617 L316 619 L316 619 Z M316 25 C236 53 167 173 167 295 C167 405 237 513 316 538 L316 25 L316 25 Z " />
<glyph glyph-name="acute" unicode="&#xb4;" horiz-adv-x="373" d="M195 605 L340 723 C370 748 399 776 399 782 C399 808 368 840 342 840 C336 840 310 808 287 775 L181 620 L195 605 L195 605 Z " />
<glyph glyph-name="questiondown" unicode="&#xbf;" horiz-adv-x="295" d="M170 549 C130 549 90 509 90 469 C90 429 130 389 170 389 C210 389 250 429 250 469 C250 509 210 549 170 549 L170 549 Z M168 290 C168 290 169 163 170 163 C86 163 34 122 7 80 C-9 55 -24 -7 -24 -45 C-24 -154 62 -261 150 -261 C205 -261 258 -219 258 -176 C258 -147 227 -119 196 -119 C174 -119 130 -139 108 -139 C59 -139 10 -86 10 -31 C10 -20 21 7 32 25 C51 54 100 83 198 83 C193 81 188 290 188 290 L168 290 L168 290 Z " />
<glyph glyph-name="Agrave" unicode="&#xc0;" horiz-adv-x="699" d="M428 0 L699 0 L699 3 L692 3 C673 3 638 53 621 103 L621 103 C542 340 463 577 384 814 L370 814 C374 790 325 759 270 751 L273 741 L273 741 C210 528 148 315 84 103 C69 52 19 3 -17 3 L-30 3 L-30 0 L152 0 L152 3 L139 3 C103 3 82 53 97 103 L97 103 L156 307 L415 307 L484 94 C495 46 476 3 442 3 L429 3 L428 0 L428 0 Z M135 1032 C135 1025 164 997 194 973 L339 855 L353 870 L247 1025 C225 1058 199 1090 192 1090 C166 1090 135 1058 135 1032 L135 1032 Z M159 318 L278 728 L411 318 L159 318 L159 318 Z " />
<glyph glyph-name="Aacute" unicode="&#xc1;" horiz-adv-x="699" d="M345 855 L490 973 C520 998 549 1026 549 1032 C549 1058 518 1090 492 1090 C486 1090 460 1058 437 1025 L331 870 L345 855 L345 855 Z M428 0 L699 0 L699 3 L692 3 C673 3 638 53 621 103 L621 103 C542 340 463 577 384 814 L370 814 C374 790 325 759 270 751 L273 741 L273 741 C210 528 148 315 84 103 C69 52 19 3 -17 3 L-30 3 L-30 0 L152 0 L152 3 L139 3 C103 3 82 53 97 103 L97 103 L156 307 L415 307 L484 94 C495 46 476 3 442 3 L429 3 L428 0 L428 0 Z M159 318 L278 728 L411 318 L159 318 L159 318 Z " />
<glyph glyph-name="Acircumflex" unicode="&#xc2;" horiz-adv-x="699" d="M428 0 L699 0 L699 3 L692 3 C673 3 638 53 621 103 L621 103 C542 340 463 577 384 814 L370 814 C374 790 325 759 270 751 L273 741 L273 741 C210 528 148 315 84 103 C69 52 19 3 -17 3 L-30 3 L-30 0 L152 0 L152 3 L139 3 C103 3 82 53 97 103 L97 103 L156 307 L415 307 L484 94 C495 46 476 3 442 3 L429 3 L428 0 L428 0 Z M378 1040 C371 1050 348 1081 338 1081 C327 1081 304 1050 297 1040 L183 862 L199 849 L338 965 L476 849 L492 862 L378 1040 L378 1040 Z M159 318 L278 728 L411 318 L159 318 L159 318 Z " />
<glyph glyph-name="Atilde" unicode="&#xc3;" horiz-adv-x="699" d="M175 914 C175 942 199 969 224 969 C272 969 368 904 416 904 C460 904 504 974 504 1045 L498 1045 C498 1015 471 985 443 985 C394 985 299 1050 250 1050 C209 1050 169 983 169 914 L175 914 L175 914 Z M428 0 L699 0 L699 3 L692 3 C673 3 638 53 621 103 L621 103 C542 340 463 577 384 814 L370 814 C374 790 325 759 270 751 L273 741 L273 741 C210 528 148 315 84 103 C69 52 19 3 -17 3 L-30 3 L-30 0 L152 0 L152 3 L139 3 C103 3 82 53 97 103 L97 103 L156 307 L415 307 L484 94 C495 46 476 3 442 3 L429 3 L428 0 L428 0 Z M159 318 L278 728 L411 318 L159 318 L159 318 Z " />
<glyph glyph-name="Adieresis" unicode="&#xc4;" horiz-adv-x="699" d="M419 909 C457 909 494 946 494 983 C494 1021 457 1058 419 1058 C382 1058 345 1021 345 983 C345 946 382 909 419 909 L419 909 Z M254 909 C291 909 328 946 328 983 C328 1021 291 1058 254 1058 C216 1058 179 1021 179 983 C179 946 216 909 254 909 L254 909 Z M428 0 L699 0 L699 3 L692 3 C673 3 638 53 621 103 L621 103 C542 340 463 577 384 814 L370 814 C374 790 325 759 270 751 L273 741 L273 741 C210 528 148 315 84 103 C69 52 19 3 -17 3 L-30 3 L-30 0 L152 0 L152 3 L139 3 C103 3 82 53 97 103 L97 103 L156 307 L415 307 L484 94 C495 46 476 3 442 3 L429 3 L428 0 L428 0 Z M159 318 L278 728 L411 318 L159 318 L159 318 Z " />
<glyph glyph-name="Aring" unicode="&#xc5;" horiz-adv-x="699" d="M272 949 C272 983 304 1017 337 1017 C369 1017 401 983 401 949 C401 918 366 881 337 881 C307 881 272 918 272 949 L272 949 Z M238 949 C238 906 292 854 337 854 C382 854 435 906 435 949 C435 997 386 1044 337 1044 C287 1044 238 997 238 949 L238 949 Z M428 0 L699 0 L699 3 L692 3 C673 3 638 53 621 103 L621 103 C542 340 463 577 384 814 L370 814 C374 790 325 759 270 751 L273 741 L273 741 C210 528 148 315 84 103 C69 52 19 3 -17 3 L-30 3 L-30 0 L152 0 L152 3 L139 3 C103 3 82 53 97 103 L97 103 L156 307 L415 307 L484 94 C495 46 476 3 442 3 L429 3 L428 0 L428 0 Z M159 318 L278 728 L411 318 L159 318 L159 318 Z " />
<glyph glyph-name="Egrave" unicode="&#xc8;" horiz-adv-x="630" d="M119 1032 C119 1025 149 997 179 973 L323 855 L338 870 L231 1025 C209 1058 183 1090 177 1090 C151 1090 119 1058 119 1032 L119 1032 Z M498 323 L498 502 L489 502 L486 489 C479 453 433 417 393 417 L221 417 L221 785 L454 785 C494 785 544 749 556 713 L560 700 L569 700 C567 723 561 767 558 790 L559 790 L558 794 L86 794 L86 0 L583 0 L584 4 C587 4 598 79 599 84 L590 84 L585 72 C572 40 509 9 456 9 L256 9 C230 9 222 21 222 34 L222 408 L394 408 C434 408 480 372 487 336 L490 323 L498 323 L498 323 Z " />
<glyph glyph-name="Eacute" unicode="&#xc9;" horiz-adv-x="630" d="M331 855 L475 973 C505 998 535 1027 535 1032 C535 1058 503 1090 477 1090 C472 1090 446 1058 423 1025 L316 870 L331 855 L331 855 Z M498 323 L498 502 L489 502 L486 489 C479 453 433 417 393 417 L221 417 L221 785 L454 785 C494 785 544 749 556 713 L560 700 L569 700 C567 723 561 767 558 790 L559 790 L558 794 L86 794 L86 0 L583 0 L584 4 C587 4 598 79 599 84 L590 84 L585 72 C572 40 509 9 456 9 L256 9 C230 9 222 21 222 34 L222 408 L394 408 C434 408 480 372 487 336 L490 323 L498 323 L498 323 Z " />
<glyph glyph-name="Ecircumflex" unicode="&#xca;" horiz-adv-x="630" d="M363 1040 C356 1050 333 1081 322 1081 C312 1081 289 1050 282 1040 L168 862 L183 849 L322 966 L461 849 L476 862 L363 1040 L363 1040 Z M498 323 L498 502 L489 502 L486 489 C479 453 433 417 393 417 L221 417 L221 785 L454 785 C494 785 544 749 556 713 L560 700 L569 700 C567 723 561 767 558 790 L559 790 L558 794 L86 794 L86 0 L583 0 L584 4 C587 4 598 79 599 84 L590 84 L585 72 C572 40 509 9 456 9 L256 9 C230 9 222 21 222 34 L222 408 L394 408 C434 408 480 372 487 336 L490 323 L498 323 L498 323 Z " />
<glyph glyph-name="Edieresis" unicode="&#xcb;" horiz-adv-x="630" d="M405 909 C442 909 479 946 479 983 C479 1021 442 1058 405 1058 C368 1058 331 1021 331 983 C331 946 368 909 405 909 L405 909 Z M239 909 C276 909 313 946 313 983 C313 1021 276 1058 239 1058 C202 1058 165 1021 165 983 C165 946 202 909 239 909 L239 909 Z M498 323 L498 502 L489 502 L486 489 C479 453 433 417 393 417 L221 417 L221 785 L454 785 C494 785 544 749 556 713 L560 700 L569 700 C567 723 561 767 558 790 L559 790 L558 794 L86 794 L86 0 L583 0 L584 4 C587 4 598 79 599 84 L590 84 L585 72 C572 40 509 9 456 9 L256 9 C230 9 222 21 222 34 L222 408 L394 408 C434 408 480 372 487 336 L490 323 L498 323 L498 323 Z " />
<glyph glyph-name="Igrave" unicode="&#xcc;" horiz-adv-x="301" d="M-63 1032 C-63 1025 -33 997 -3 973 L141 855 L156 870 L49 1025 C27 1058 1 1090 -5 1090 C-31 1090 -63 1058 -63 1032 L-63 1032 Z M207 0 L207 794 L72 794 L72 0 L207 0 L207 0 Z " />
<glyph glyph-name="Iacute" unicode="&#xcd;" horiz-adv-x="301" d="M149 855 L293 973 C323 998 353 1027 353 1032 C353 1058 321 1090 295 1090 C290 1090 264 1058 241 1025 L134 870 L149 855 L149 855 Z M207 0 L207 794 L72 794 L72 0 L207 0 L207 0 Z " />
<glyph glyph-name="Icircumflex" unicode="&#xce;" horiz-adv-x="301" d="M181 1040 C174 1050 151 1081 140 1081 C130 1081 107 1050 100 1040 L-14 862 L1 849 L140 966 L279 849 L294 862 L181 1040 L181 1040 Z M207 0 L207 794 L72 794 L72 0 L207 0 L207 0 Z " />
<glyph glyph-name="Idieresis" unicode="&#xcf;" horiz-adv-x="301" d="M223 909 C260 909 297 946 297 983 C297 1021 260 1058 223 1058 C186 1058 149 1021 149 983 C149 946 186 909 223 909 L223 909 Z M57 909 C94 909 131 946 131 983 C131 1021 94 1058 57 1058 C20 1058 -17 1021 -17 983 C-17 946 20 909 57 909 L57 909 Z M207 0 L207 794 L72 794 L72 0 L207 0 L207 0 Z " />
<glyph glyph-name="Ntilde" unicode="&#xd1;" horiz-adv-x="733" d="M200 914 C200 942 224 969 249 969 C297 969 393 904 441 904 C485 904 529 974 529 1045 L523 1045 C523 1015 496 985 468 985 C419 985 324 1050 275 1050 C234 1050 194 983 194 914 L200 914 L200 914 Z M49 0 L160 0 L160 3 L154 3 C140 3 125 28 125 53 L125 53 L121 616 C281 410 441 204 601 -1 L629 -1 L638 747 C641 774 654 790 674 790 L674 793 L598 793 L598 740 L598 740 L600 234 C451 421 301 607 151 793 L-49 793 L-49 790 C-28 790 2 768 24 740 L24 740 L85 661 L83 52 L83 52 C83 27 69 2 54 2 L48 2 L49 0 L49 0 Z " />
<glyph glyph-name="Ograve" unicode="&#xd2;" horiz-adv-x="922" d="M187 397 C187 597 316 794 447 794 C585 794 720 597 720 397 C720 197 582 0 441 0 C313 0 187 197 187 397 L187 397 Z M40 397 C40 191 238 -10 439 -10 C655 -10 867 191 867 397 C867 603 660 804 449 804 C242 804 40 603 40 397 L40 397 Z M246 1032 C246 1025 276 997 306 973 L450 855 L465 870 L358 1025 C336 1058 310 1090 304 1090 C278 1090 246 1058 246 1032 L246 1032 Z " />
<glyph glyph-name="Oacute" unicode="&#xd3;" horiz-adv-x="922" d="M458 855 L602 973 C632 998 662 1027 662 1032 C662 1058 630 1090 604 1090 C599 1090 573 1058 550 1025 L443 870 L458 855 L458 855 Z M187 397 C187 597 316 794 447 794 C585 794 720 597 720 397 C720 197 582 0 441 0 C313 0 187 197 187 397 L187 397 Z M40 397 C40 191 238 -10 439 -10 C655 -10 867 191 867 397 C867 603 660 804 449 804 C242 804 40 603 40 397 L40 397 Z " />
<glyph glyph-name="Ocircumflex" unicode="&#xd4;" horiz-adv-x="922" d="M187 397 C187 597 316 794 447 794 C585 794 720 597 720 397 C720 197 582 0 441 0 C313 0 187 197 187 397 L187 397 Z M40 397 C40 191 238 -10 439 -10 C655 -10 867 191 867 397 C867 603 660 804 449 804 C242 804 40 603 40 397 L40 397 Z M490 1040 C483 1050 460 1081 449 1081 C439 1081 416 1050 409 1040 L295 862 L310 849 L449 966 L588 849 L603 862 L490 1040 L490 1040 Z " />
<glyph glyph-name="Otilde" unicode="&#xd5;" horiz-adv-x="922" d="M288 914 C288 942 312 969 336 969 C384 969 480 904 528 904 C572 904 616 974 616 1045 L610 1045 C610 1015 583 985 555 985 C507 985 411 1050 363 1050 C322 1050 282 983 282 914 L288 914 L288 914 Z M187 397 C187 597 316 794 447 794 C585 794 720 597 720 397 C720 197 582 0 441 0 C313 0 187 197 187 397 L187 397 Z M40 397 C40 191 238 -10 439 -10 C655 -10 867 191 867 397 C867 603 660 804 449 804 C242 804 40 603 40 397 L40 397 Z " />
<glyph glyph-name="Odieresis" unicode="&#xd6;" horiz-adv-x="922" d="M532 909 C569 909 606 946 606 983 C606 1021 569 1058 532 1058 C495 1058 458 1021 458 983 C458 946 495 909 532 909 L532 909 Z M366 909 C403 909 440 946 440 983 C440 1021 403 1058 366 1058 C329 1058 292 1021 292 983 C292 946 329 909 366 909 L366 909 Z M187 397 C187 597 316 794 447 794 C585 794 720 597 720 397 C720 197 582 0 441 0 C313 0 187 197 187 397 L187 397 Z M40 397 C40 191 238 -10 439 -10 C655 -10 867 191 867 397 C867 603 660 804 449 804 C242 804 40 603 40 397 L40 397 Z " />
<glyph glyph-name="Oslash" unicode="&#xd8;" horiz-adv-x="922" d="M46 -17 C46 -17 93 30 172 108 C246 37 342 -10 439 -10 C655 -10 867 191 867 397 C867 497 818 596 744 671 C786 713 829 755 872 797 L860 811 C816 768 773 725 730 683 C653 756 551 804 448 804 C241 804 39 603 39 397 C39 296 87 196 159 121 C80 44 33 -2 33 -2 L46 -17 L46 -17 Z M665 620 C499 456 345 304 231 191 C204 253 188 325 188 397 C188 597 317 794 448 794 C532 794 615 721 667 619 L665 620 L665 620 Z M675 602 C703 540 720 469 720 397 C720 197 582 0 441 0 C364 0 287 72 238 173 C352 285 507 437 674 601 L675 602 L675 602 Z " />
<glyph glyph-name="Ugrave" unicode="&#xd9;" horiz-adv-x="745" d="M163 1032 C163 1025 193 997 223 973 L367 855 L382 870 L275 1025 C253 1058 227 1090 221 1090 C195 1090 163 1058 163 1032 L163 1032 Z M613 0 C630 4 664 13 681 18 L681 794 L545 794 L545 210 C514 143 413 77 342 77 C263 77 186 152 186 228 L186 794 L51 794 L51 228 C51 108 168 -10 288 -10 C380 -10 508 69 545 149 L545 0 L613 0 L613 0 Z " />
<glyph glyph-name="Uacute" unicode="&#xda;" horiz-adv-x="745" d="M375 855 L519 973 C549 998 579 1027 579 1032 C579 1058 547 1090 521 1090 C516 1090 490 1058 467 1025 L360 870 L375 855 L375 855 Z M613 0 C630 4 664 13 681 18 L681 794 L545 794 L545 210 C514 143 413 77 342 77 C263 77 186 152 186 228 L186 794 L51 794 L51 228 C51 108 168 -10 288 -10 C380 -10 508 69 545 149 L545 0 L613 0 L613 0 Z " />
<glyph glyph-name="Ucircumflex" unicode="&#xdb;" horiz-adv-x="745" d="M407 1040 C400 1050 377 1081 366 1081 C356 1081 333 1050 326 1040 L212 862 L227 849 L366 966 L505 849 L520 862 L407 1040 L407 1040 Z M613 0 C630 4 664 13 681 18 L681 794 L545 794 L545 210 C514 143 413 77 342 77 C263 77 186 152 186 228 L186 794 L51 794 L51 228 C51 108 168 -10 288 -10 C380 -10 508 69 545 149 L545 0 L613 0 L613 0 Z " />
<glyph glyph-name="Udieresis" unicode="&#xdc;" horiz-adv-x="745" d="M449 909 C486 909 523 946 523 983 C523 1021 486 1058 449 1058 C412 1058 375 1021 375 983 C375 946 412 909 449 909 L449 909 Z M283 909 C320 909 357 946 357 983 C357 1021 320 1058 283 1058 C246 1058 209 1021 209 983 C209 946 246 909 283 909 L283 909 Z M613 0 C630 4 664 13 681 18 L681 794 L545 794 L545 210 C514 143 413 77 342 77 C263 77 186 152 186 228 L186 794 L51 794 L51 228 C51 108 168 -10 288 -10 C380 -10 508 69 545 149 L545 0 L613 0 L613 0 Z " />
<glyph glyph-name="Yacute" unicode="&#xdd;" horiz-adv-x="704" d="M371 855 L515 973 C545 998 575 1027 575 1032 C575 1058 543 1090 517 1090 C512 1090 486 1058 463 1025 L356 870 L371 855 L371 855 Z M219 794 L-13 794 L-13 791 C-1 791 17 772 36 746 L294 336 L294 0 L430 0 L430 354 L635 738 C653 770 682 792 708 792 L708 795 L569 795 L569 792 L587 792 C615 792 628 765 614 737 L614 737 L426 367 C351 490 274 614 200 737 C183 765 188 792 211 792 L219 792 L219 794 L219 794 Z " />
<glyph glyph-name="agrave" unicode="&#xe0;" horiz-adv-x="538" d="M548 124 L539 128 C534 102 504 77 477 77 C451 77 426 98 426 120 L426 385 C426 483 349 554 271 554 C163 554 57 449 57 404 C57 364 93 324 129 324 C157 324 185 361 185 381 C185 397 165 425 165 443 C165 472 214 540 263 540 C288 540 312 492 312 426 C312 426 312 360 312 289 C125 255 37 205 37 102 C37 45 97 -10 158 -10 C192 -10 260 26 318 84 C335 35 383 -5 431 -5 C479 -5 538 59 549 124 L548 124 L548 124 Z M69 782 C69 775 99 747 129 723 L273 605 L288 620 L181 775 C159 808 133 840 127 840 C101 840 69 808 69 782 L69 782 Z M312 281 C312 202 312 120 312 120 C312 110 313 100 316 90 C287 66 246 50 220 50 C187 50 154 81 154 113 C154 215 205 259 313 280 L312 281 L312 281 Z " />
<glyph glyph-name="aacute" unicode="&#xe1;" horiz-adv-x="538" d="M280 605 L424 723 C454 748 484 777 484 782 C484 808 452 840 426 840 C421 840 395 808 372 775 L265 620 L280 605 L280 605 Z M548 124 L539 128 C534 102 504 77 477 77 C451 77 426 98 426 120 L426 385 C426 483 349 554 271 554 C163 554 57 449 57 404 C57 364 93 324 129 324 C157 324 185 361 185 381 C185 397 165 425 165 443 C165 472 214 540 263 540 C288 540 312 492 312 426 C312 426 312 360 312 289 C125 255 37 205 37 102 C37 45 97 -10 158 -10 C192 -10 260 26 318 84 C335 35 383 -5 431 -5 C479 -5 538 59 549 124 L548 124 L548 124 Z M312 281 C312 202 312 120 312 120 C312 110 313 100 316 90 C287 66 246 50 220 50 C187 50 154 81 154 113 C154 215 205 259 313 280 L312 281 L312 281 Z " />
<glyph glyph-name="acircumflex" unicode="&#xe2;" horiz-adv-x="538" d="M548 124 L539 128 C534 102 504 77 477 77 C451 77 426 98 426 120 L426 385 C426 483 349 554 271 554 C163 554 57 449 57 404 C57 364 93 324 129 324 C157 324 185 361 185 381 C185 397 165 425 165 443 C165 472 214 540 263 540 C288 540 312 492 312 426 C312 426 312 360 312 289 C125 255 37 205 37 102 C37 45 97 -10 158 -10 C192 -10 260 26 318 84 C335 35 383 -5 431 -5 C479 -5 538 59 549 124 L548 124 L548 124 Z M313 790 C306 800 283 831 272 831 C262 831 239 800 232 790 L118 612 L133 599 L272 716 L411 599 L426 612 L313 790 L313 790 Z M312 281 C312 202 312 120 312 120 C312 110 313 100 316 90 C287 66 246 50 220 50 C187 50 154 81 154 113 C154 215 205 259 313 280 L312 281 L312 281 Z " />
<glyph glyph-name="atilde" unicode="&#xe3;" horiz-adv-x="538" d="M110 664 C110 692 134 719 158 719 C206 719 302 654 350 654 C394 654 438 724 438 795 L432 795 C432 765 405 735 377 735 C329 735 233 800 185 800 C144 800 104 733 104 664 L110 664 L110 664 Z M548 124 L539 128 C534 102 504 77 477 77 C451 77 426 98 426 120 L426 385 C426 483 349 554 271 554 C163 554 57 449 57 404 C57 364 93 324 129 324 C157 324 185 361 185 381 C185 397 165 425 165 443 C165 472 214 540 263 540 C288 540 312 492 312 426 C312 426 312 360 312 289 C125 255 37 205 37 102 C37 45 97 -10 158 -10 C192 -10 260 26 318 84 C335 35 383 -5 431 -5 C479 -5 538 59 549 124 L548 124 L548 124 Z M312 281 C312 202 312 120 312 120 C312 110 313 100 316 90 C287 66 246 50 220 50 C187 50 154 81 154 113 C154 215 205 259 313 280 L312 281 L312 281 Z " />
<glyph glyph-name="adieresis" unicode="&#xe4;" horiz-adv-x="538" d="M354 659 C391 659 428 696 428 733 C428 771 391 808 354 808 C317 808 280 771 280 733 C280 696 317 659 354 659 L354 659 Z M188 659 C225 659 262 696 262 733 C262 771 225 808 188 808 C151 808 114 771 114 733 C114 696 151 659 188 659 L188 659 Z M548 124 L539 128 C534 102 504 77 477 77 C451 77 426 98 426 120 L426 385 C426 483 349 554 271 554 C163 554 57 449 57 404 C57 364 93 324 129 324 C157 324 185 361 185 381 C185 397 165 425 165 443 C165 472 214 540 263 540 C288 540 312 492 312 426 C312 426 312 360 312 289 C125 255 37 205 37 102 C37 45 97 -10 158 -10 C192 -10 260 26 318 84 C335 35 383 -5 431 -5 C479 -5 538 59 549 124 L548 124 L548 124 Z M312 281 C312 202 312 120 312 120 C312 110 313 100 316 90 C287 66 246 50 220 50 C187 50 154 81 154 113 C154 215 205 259 313 280 L312 281 L312 281 Z " />
<glyph glyph-name="aring" unicode="&#xe5;" horiz-adv-x="538" d="M206 699 C206 733 238 767 271 767 C304 767 336 733 336 699 C336 668 301 631 271 631 C241 631 206 668 206 699 L206 699 Z M173 699 C173 656 226 604 271 604 C316 604 369 656 369 699 C369 747 320 794 271 794 C222 794 173 747 173 699 L173 699 Z M548 124 L539 128 C534 102 504 77 477 77 C451 77 426 98 426 120 L426 385 C426 483 349 554 271 554 C163 554 57 449 57 404 C57 364 93 324 129 324 C157 324 185 361 185 381 C185 397 165 425 165 443 C165 472 214 540 263 540 C288 540 312 492 312 426 C312 426 312 360 312 289 C125 255 37 205 37 102 C37 45 97 -10 158 -10 C192 -10 260 26 318 84 C335 35 383 -5 431 -5 C479 -5 538 59 549 124 L548 124 L548 124 Z M312 281 C312 202 312 120 312 120 C312 110 313 100 316 90 C287 66 246 50 220 50 C187 50 154 81 154 113 C154 215 205 259 313 280 L312 281 L312 281 Z " />
<glyph glyph-name="egrave" unicode="&#xe8;" horiz-adv-x="584" d="M122 782 C122 775 152 747 182 723 L326 605 L341 620 L234 775 C212 808 186 840 180 840 C154 840 122 808 122 782 L122 782 Z M173 370 L554 370 C543 482 432 554 325 554 C184 554 45 434 45 249 C45 118 171 -10 300 -10 C394 -10 510 66 534 143 L529 144 C510 83 403 24 312 24 C238 24 166 159 166 296 C166 322 168 347 172 370 L173 370 L173 370 Z M425 379 L173 378 C195 482 258 546 322 546 C365 546 413 481 425 379 L425 379 Z " />
<glyph glyph-name="eacute" unicode="&#xe9;" horiz-adv-x="584" d="M334 605 L478 723 C508 748 538 777 538 782 C538 808 506 840 480 840 C475 840 449 808 426 775 L319 620 L334 605 L334 605 Z M173 370 L554 370 C543 482 432 554 325 554 C184 554 45 434 45 249 C45 118 171 -10 300 -10 C394 -10 510 66 534 143 L529 144 C510 83 403 24 312 24 C238 24 166 159 166 296 C166 322 168 347 172 370 L173 370 L173 370 Z M425 379 L173 378 C195 482 258 546 322 546 C365 546 413 481 425 379 L425 379 Z " />
<glyph glyph-name="ecircumflex" unicode="&#xea;" horiz-adv-x="584" d="M366 790 C359 800 336 831 325 831 C315 831 292 800 285 790 L171 612 L186 599 L325 716 L464 599 L479 612 L366 790 L366 790 Z M173 370 L554 370 C543 482 432 554 325 554 C184 554 45 434 45 249 C45 118 171 -10 300 -10 C394 -10 510 66 534 143 L529 144 C510 83 403 24 312 24 C238 24 166 159 166 296 C166 322 168 347 172 370 L173 370 L173 370 Z M425 379 L173 378 C195 482 258 546 322 546 C365 546 413 481 425 379 L425 379 Z " />
<glyph glyph-name="edieresis" unicode="&#xeb;" horiz-adv-x="584" d="M408 659 C445 659 482 696 482 733 C482 771 445 808 408 808 C371 808 334 771 334 733 C334 696 371 659 408 659 L408 659 Z M242 659 C279 659 316 696 316 733 C316 771 279 808 242 808 C205 808 168 771 168 733 C168 696 205 659 242 659 L242 659 Z M173 370 L554 370 C543 482 432 554 325 554 C184 554 45 434 45 249 C45 118 171 -10 300 -10 C394 -10 510 66 534 143 L529 144 C510 83 403 24 312 24 C238 24 166 159 166 296 C166 322 168 347 172 370 L173 370 L173 370 Z M425 379 L173 378 C195 482 258 546 322 546 C365 546 413 481 425 379 L425 379 Z " />
<glyph glyph-name="igrave" unicode="&#xec;" horiz-adv-x="241" d="M-78 782 C-78 775 -49 747 -19 723 L126 605 L140 620 L34 775 C12 808 -14 840 -21 840 C-47 840 -78 808 -78 782 L-78 782 Z M125 544 L125 545 C110 541 82 533 67 529 L67 0 L182 0 L182 544 L125 544 L125 544 Z " />
<glyph glyph-name="iacute" unicode="&#xed;" horiz-adv-x="241" d="M-78 782 C-78 775 -49 747 -19 723 L126 605 L140 620 L34 775 C12 808 -14 840 -21 840 C-47 840 -78 808 -78 782 L-78 782 Z M125 544 L125 545 C110 541 82 533 67 529 L67 0 L182 0 L182 544 L125 544 L125 544 Z " />
<glyph glyph-name="icircumflex" unicode="&#xee;" horiz-adv-x="241" d="M165 790 C158 800 135 831 125 831 C114 831 91 800 84 790 L-30 612 L-14 599 L125 715 L263 599 L279 612 L165 790 L165 790 Z M125 544 L125 545 C110 541 82 533 67 529 L67 0 L182 0 L182 544 L125 544 L125 544 Z " />
<glyph glyph-name="idieresis" unicode="&#xef;" horiz-adv-x="241" d="M207 659 C245 659 282 696 282 733 C282 771 245 808 207 808 C170 808 133 771 133 733 C133 696 170 659 207 659 L207 659 Z M42 659 C79 659 116 696 116 733 C116 771 79 808 42 808 C4 808 -33 771 -33 733 C-33 696 4 659 42 659 L42 659 Z M125 544 L125 545 C110 541 82 533 67 529 L67 0 L182 0 L182 544 L125 544 L125 544 Z " />
<glyph glyph-name="ntilde" unicode="&#xf1;" horiz-adv-x="527" d="M93 664 C93 692 117 719 142 719 C190 719 286 654 334 654 C378 654 422 724 422 795 L416 795 C416 765 389 735 361 735 C312 735 217 800 168 800 C127 800 87 733 87 664 L93 664 L93 664 Z M11 520 C21 520 26 497 26 472 L26 0 L141 0 L141 413 C173 454 247 494 291 494 C334 494 368 427 368 358 L368 0 L483 0 L483 358 C483 457 415 554 329 554 C282 554 189 494 141 433 L141 544 L84 544 L84 545 C66 540 29 530 11 525 L11 520 L11 520 Z " />
<glyph glyph-name="ograve" unicode="&#xf2;" horiz-adv-x="648" d="M172 272 C172 409 247 543 324 543 C401 543 476 409 476 272 C476 135 401 1 324 1 C247 1 172 135 172 272 L172 272 Z M45 272 C45 130 183 -10 324 -10 C465 -10 603 130 603 272 C603 414 465 554 324 554 C183 554 45 414 45 272 L45 272 Z M121 782 C121 775 151 747 181 723 L325 605 L340 620 L233 775 C211 808 185 840 179 840 C153 840 121 808 121 782 L121 782 Z " />
<glyph glyph-name="oacute" unicode="&#xf3;" horiz-adv-x="648" d="M333 605 L477 723 C507 748 537 777 537 782 C537 808 505 840 479 840 C474 840 448 808 425 775 L318 620 L333 605 L333 605 Z M172 272 C172 409 247 543 324 543 C401 543 476 409 476 272 C476 135 401 1 324 1 C247 1 172 135 172 272 L172 272 Z M45 272 C45 130 183 -10 324 -10 C465 -10 603 130 603 272 C603 414 465 554 324 554 C183 554 45 414 45 272 L45 272 Z " />
<glyph glyph-name="ocircumflex" unicode="&#xf4;" horiz-adv-x="648" d="M172 272 C172 409 247 543 324 543 C401 543 476 409 476 272 C476 135 401 1 324 1 C247 1 172 135 172 272 L172 272 Z M45 272 C45 130 183 -10 324 -10 C465 -10 603 130 603 272 C603 414 465 554 324 554 C183 554 45 414 45 272 L45 272 Z M365 790 C358 800 335 831 324 831 C314 831 291 800 284 790 L170 612 L185 599 L324 716 L463 599 L478 612 L365 790 L365 790 Z " />
<glyph glyph-name="otilde" unicode="&#xf5;" horiz-adv-x="648" d="M163 664 C163 692 187 719 211 719 C259 719 355 654 403 654 C447 654 491 724 491 795 L485 795 C485 765 458 735 430 735 C382 735 286 800 238 800 C197 800 157 733 157 664 L163 664 L163 664 Z M172 272 C172 409 247 543 324 543 C401 543 476 409 476 272 C476 135 401 1 324 1 C247 1 172 135 172 272 L172 272 Z M45 272 C45 130 183 -10 324 -10 C465 -10 603 130 603 272 C603 414 465 554 324 554 C183 554 45 414 45 272 L45 272 Z " />
<glyph glyph-name="odieresis" unicode="&#xf6;" horiz-adv-x="648" d="M407 659 C444 659 481 696 481 733 C481 771 444 808 407 808 C370 808 333 771 333 733 C333 696 370 659 407 659 L407 659 Z M241 659 C278 659 315 696 315 733 C315 771 278 808 241 808 C204 808 167 771 167 733 C167 696 204 659 241 659 L241 659 Z M172 272 C172 409 247 543 324 543 C401 543 476 409 476 272 C476 135 401 1 324 1 C247 1 172 135 172 272 L172 272 Z M45 272 C45 130 183 -10 324 -10 C465 -10 603 130 603 272 C603 414 465 554 324 554 C183 554 45 414 45 272 L45 272 Z " />
<glyph glyph-name="oslash" unicode="&#xf8;" horiz-adv-x="648" d="M49 -14 C49 -14 82 19 136 74 C188 24 256 -9 325 -9 C466 -9 604 131 604 273 C604 342 571 411 521 463 C550 492 579 521 608 550 L600 558 C571 529 542 500 513 471 C461 521 393 554 324 554 C183 554 45 414 45 272 C45 203 78 134 128 82 C74 27 41 -6 41 -6 L49 -14 L49 -14 Z M452 409 C354 310 263 218 192 146 C179 185 171 228 171 271 C171 408 246 542 323 542 C373 542 422 485 450 408 L452 409 L452 409 Z M454 396 C467 357 475 314 475 271 C475 134 400 0 323 0 C273 0 224 57 196 134 C267 206 358 298 456 397 L454 396 L454 396 Z " />
<glyph glyph-name="ugrave" unicode="&#xf9;" horiz-adv-x="529" d="M53 782 C53 775 83 747 113 723 L257 605 L272 620 L165 775 C143 808 117 840 111 840 C85 840 53 808 53 782 L53 782 Z M432 0 L432 -1 C447 3 475 11 490 15 L490 544 L375 544 L375 139 C352 103 289 70 237 70 C187 70 137 118 137 167 L137 544 L22 544 L22 167 C22 78 102 -10 183 -10 C251 -10 341 55 375 126 L375 0 L432 0 L432 0 Z " />
<glyph glyph-name="uacute" unicode="&#xfa;" horiz-adv-x="529" d="M265 605 L409 723 C439 748 469 777 469 782 C469 808 437 840 411 840 C406 840 380 808 357 775 L250 620 L265 605 L265 605 Z M432 0 L432 -1 C447 3 475 11 490 15 L490 544 L375 544 L375 139 C352 103 289 70 237 70 C187 70 137 118 137 167 L137 544 L22 544 L22 167 C22 78 102 -10 183 -10 C251 -10 341 55 375 126 L375 0 L432 0 L432 0 Z " />
<glyph glyph-name="ucircumflex" unicode="&#xfb;" horiz-adv-x="529" d="M297 790 C290 800 267 831 256 831 C246 831 223 800 216 790 L102 612 L117 599 L256 716 L395 599 L410 612 L297 790 L297 790 Z M432 0 L432 -1 C447 3 475 11 490 15 L490 544 L375 544 L375 139 C352 103 289 70 237 70 C187 70 137 118 137 167 L137 544 L22 544 L22 167 C22 78 102 -10 183 -10 C251 -10 341 55 375 126 L375 0 L432 0 L432 0 Z " />
<glyph glyph-name="udieresis" unicode="&#xfc;" horiz-adv-x="529" d="M339 659 C376 659 413 696 413 733 C413 771 376 808 339 808 C302 808 265 771 265 733 C265 696 302 659 339 659 L339 659 Z M173 659 C210 659 247 696 247 733 C247 771 210 808 173 808 C136 808 99 771 99 733 C99 696 136 659 173 659 L173 659 Z M432 0 L432 -1 C447 3 475 11 490 15 L490 544 L375 544 L375 139 C352 103 289 70 237 70 C187 70 137 118 137 167 L137 544 L22 544 L22 167 C22 78 102 -10 183 -10 C251 -10 341 55 375 126 L375 0 L432 0 L432 0 Z " />
<glyph glyph-name="ydieresis" unicode="&#xff;" horiz-adv-x="533" d="M386 659 C423 659 460 696 460 733 C460 771 423 808 386 808 C349 808 312 771 312 733 C312 696 349 659 386 659 L386 659 Z M220 659 C257 659 294 696 294 733 C294 771 257 808 220 808 C183 808 146 771 146 733 C146 696 183 659 220 659 L220 659 Z M527 544 L446 544 L446 541 L448 541 C454 541 451 516 443 489 L332 151 C279 262 225 374 173 485 C160 513 152 540 158 540 L160 540 L160 543 L7 543 L7 540 C16 540 33 515 47 485 L47 485 L274 5 C253 -47 232 -100 211 -152 C202 -174 186 -195 184 -195 C165 -195 153 -157 134 -157 C109 -157 85 -181 85 -206 C85 -234 112 -261 139 -261 C164 -261 220 -214 239 -167 C278 -69 317 29 355 129 C400 248 445 367 491 485 C503 515 517 540 526 540 L527 544 L527 544 Z " />
<glyph glyph-name="Amacron" unicode="&#x100;" horiz-adv-x="699" d="M167 934 L506 934 L506 1014 L167 1014 L167 934 L167 934 Z M428 0 L699 0 L699 3 L692 3 C673 3 638 53 621 103 L621 103 C542 340 463 577 384 814 L370 814 C374 790 325 759 270 751 L273 741 L273 741 C210 528 148 315 84 103 C69 52 19 3 -17 3 L-30 3 L-30 0 L152 0 L152 3 L139 3 C103 3 82 53 97 103 L97 103 L156 307 L415 307 L484 94 C495 46 476 3 442 3 L429 3 L428 0 L428 0 Z M159 318 L278 728 L411 318 L159 318 L159 318 Z " />
<glyph glyph-name="amacron" unicode="&#x101;" horiz-adv-x="538" d="M101 684 L441 684 L441 764 L101 764 L101 684 L101 684 Z M548 124 L539 128 C534 102 504 77 477 77 C451 77 426 98 426 120 L426 385 C426 483 349 554 271 554 C163 554 57 449 57 404 C57 364 93 324 129 324 C157 324 185 361 185 381 C185 397 165 425 165 443 C165 472 214 540 263 540 C288 540 312 492 312 426 C312 426 312 360 312 289 C125 255 37 205 37 102 C37 45 97 -10 158 -10 C192 -10 260 26 318 84 C335 35 383 -5 431 -5 C479 -5 538 59 549 124 L548 124 L548 124 Z M312 281 C312 202 312 120 312 120 C312 110 313 100 316 90 C287 66 246 50 220 50 C187 50 154 81 154 113 C154 215 205 259 313 280 L312 281 L312 281 Z " />
<glyph glyph-name="Abreve" unicode="&#x102;" horiz-adv-x="699" d="M179 1038 C187 967 266 898 337 898 C408 898 486 966 494 1036 L470 1039 C466 1009 401 979 337 979 C273 979 207 1010 203 1042 L179 1038 L179 1038 Z M428 0 L699 0 L699 3 L692 3 C673 3 638 53 621 103 L621 103 C542 340 463 577 384 814 L370 814 C374 790 325 759 270 751 L273 741 L273 741 C210 528 148 315 84 103 C69 52 19 3 -17 3 L-30 3 L-30 0 L152 0 L152 3 L139 3 C103 3 82 53 97 103 L97 103 L156 307 L415 307 L484 94 C495 46 476 3 442 3 L429 3 L428 0 L428 0 Z M159 318 L278 728 L411 318 L159 318 L159 318 Z " />
<glyph glyph-name="abreve" unicode="&#x103;" horiz-adv-x="538" d="M113 788 C121 717 200 648 271 648 C343 648 421 716 429 786 L405 789 C401 759 335 729 271 729 C207 729 141 760 137 792 L113 788 L113 788 Z M548 124 L539 128 C534 102 504 77 477 77 C451 77 426 98 426 120 L426 385 C426 483 349 554 271 554 C163 554 57 449 57 404 C57 364 93 324 129 324 C157 324 185 361 185 381 C185 397 165 425 165 443 C165 472 214 540 263 540 C288 540 312 492 312 426 C312 426 312 360 312 289 C125 255 37 205 37 102 C37 45 97 -10 158 -10 C192 -10 260 26 318 84 C335 35 383 -5 431 -5 C479 -5 538 59 549 124 L548 124 L548 124 Z M312 281 C312 202 312 120 312 120 C312 110 313 100 316 90 C287 66 246 50 220 50 C187 50 154 81 154 113 C154 215 205 259 313 280 L312 281 L312 281 Z " />
<glyph glyph-name="Cacute" unicode="&#x106;" horiz-adv-x="802" d="M467 855 L611 973 C641 998 671 1027 671 1032 C671 1058 639 1090 613 1090 C608 1090 582 1058 559 1025 L452 870 L467 855 L467 855 Z M761 57 L761 182 L748 182 C746 180 744 176 742 174 C716 141 673 95 649 76 C592 33 520 1 449 1 C317 1 188 198 188 398 C188 598 323 795 461 795 C522 795 584 766 638 726 C668 703 720 650 742 619 C743 617 747 613 748 611 L761 611 L761 736 L756 736 C756 732 755 726 755 722 C753 707 729 709 704 724 C644 770 560 806 459 806 C248 806 41 605 41 399 C41 193 242 -8 447 -8 C551 -8 644 27 706 73 C731 88 754 89 756 73 C756 69 757 63 757 59 L761 57 L761 57 Z " />
<glyph glyph-name="Ccircumflex" unicode="&#x108;" horiz-adv-x="802" d="M499 1040 C492 1050 469 1081 458 1081 C448 1081 425 1050 418 1040 L304 862 L319 849 L458 966 L597 849 L612 862 L499 1040 L499 1040 Z M761 57 L761 182 L748 182 C746 180 744 176 742 174 C716 141 673 95 649 76 C592 33 520 1 449 1 C317 1 188 198 188 398 C188 598 323 795 461 795 C522 795 584 766 638 726 C668 703 720 650 742 619 C743 617 747 613 748 611 L761 611 L761 736 L756 736 C756 732 755 726 755 722 C753 707 729 709 704 724 C644 770 560 806 459 806 C248 806 41 605 41 399 C41 193 242 -8 447 -8 C551 -8 644 27 706 73 C731 88 754 89 756 73 C756 69 757 63 757 59 L761 57 L761 57 Z " />
<glyph glyph-name="Cdot" unicode="&#x10a;" horiz-adv-x="802" d="M458 909 C495 909 532 946 532 983 C532 1021 495 1058 458 1058 C421 1058 384 1021 384 983 C384 946 421 909 458 909 L458 909 Z M761 57 L761 182 L748 182 C746 180 744 176 742 174 C716 141 673 95 649 76 C592 33 520 1 449 1 C317 1 188 198 188 398 C188 598 323 795 461 795 C522 795 584 766 638 726 C668 703 720 650 742 619 C743 617 747 613 748 611 L761 611 L761 736 L756 736 C756 732 755 726 755 722 C753 707 729 709 704 724 C644 770 560 806 459 806 C248 806 41 605 41 399 C41 193 242 -8 447 -8 C551 -8 644 27 706 73 C731 88 754 89 756 73 C756 69 757 63 757 59 L761 57 L761 57 Z " />
<glyph glyph-name="cdot" unicode="&#x10b;" horiz-adv-x="570" d="M351 659 C388 659 425 696 425 733 C425 771 388 808 351 808 C314 808 277 771 277 733 C277 696 314 659 351 659 L351 659 Z M540 136 L535 138 C512 79 421 21 351 21 C258 21 167 158 167 298 C167 423 257 546 349 546 C370 546 407 498 425 449 C435 420 464 392 483 392 C522 392 550 420 540 449 C521 502 427 554 351 554 C196 554 45 406 45 255 C45 121 188 -10 333 -10 C409 -10 511 62 540 136 L540 136 Z " />
<glyph glyph-name="Ccaron" unicode="&#x10c;" horiz-adv-x="802" d="M597 1089 L458 972 L319 1089 L304 1076 L418 898 C425 888 448 857 458 857 C469 857 492 888 499 898 L612 1076 L597 1089 L597 1089 Z M761 57 L761 182 L748 182 C746 180 744 176 742 174 C716 141 673 95 649 76 C592 33 520 1 449 1 C317 1 188 198 188 398 C188 598 323 795 461 795 C522 795 584 766 638 726 C668 703 720 650 742 619 C743 617 747 613 748 611 L761 611 L761 736 L756 736 C756 732 755 726 755 722 C753 707 729 709 704 724 C644 770 560 806 459 806 C248 806 41 605 41 399 C41 193 242 -8 447 -8 C551 -8 644 27 706 73 C731 88 754 89 756 73 C756 69 757 63 757 59 L761 57 L761 57 Z " />
<glyph glyph-name="ccaron" unicode="&#x10d;" horiz-adv-x="570" d="M490 839 L351 722 L212 839 L197 826 L311 648 C318 638 341 607 351 607 C362 607 385 638 392 648 L505 826 L490 839 L490 839 Z M540 136 L535 138 C512 79 421 21 351 21 C258 21 167 158 167 298 C167 423 257 546 349 546 C370 546 407 498 425 449 C435 420 464 392 483 392 C522 392 550 420 540 449 C521 502 427 554 351 554 C196 554 45 406 45 255 C45 121 188 -10 333 -10 C409 -10 511 62 540 136 L540 136 Z " />
<glyph glyph-name="Dcaron" unicode="&#x10e;" horiz-adv-x="871" d="M516 1089 L377 972 L238 1089 L223 1076 L337 898 C344 888 367 857 377 857 C388 857 411 888 418 898 L531 1076 L516 1089 L516 1089 Z M299 8 C240 8 221 21 221 34 L221 786 L324 786 C515 786 668 593 668 397 C668 181 485 8 299 8 L299 8 Z M312 0 C567 0 816 176 816 397 C816 597 612 794 357 794 L86 794 L86 0 L312 0 L312 0 Z " />
<glyph glyph-name="dcaron" unicode="&#x10f;" horiz-adv-x="583" d="M624 801 C604 801 589 731 587 692 L579 580 L599 576 L647 680 C662 711 676 762 676 784 C676 794 650 801 624 801 L624 801 Z M404 770 L407 769 C413 768 419 745 419 722 L419 472 C383 516 327 554 282 554 C150 554 45 414 45 272 C45 132 150 -5 258 -5 C310 -5 385 30 419 68 L419 0 L476 0 L476 -1 C491 3 519 11 534 15 L534 794 L477 794 L419 779 C419 778 404 775 404 775 L404 770 L404 770 Z M419 408 L419 81 C397 61 345 43 306 43 C234 43 163 172 163 303 C163 413 222 521 296 521 C341 521 403 459 419 408 L419 408 Z " />
<glyph glyph-name="Emacron" unicode="&#x112;" horiz-adv-x="630" d="M152 934 L492 934 L492 1014 L152 1014 L152 934 L152 934 Z M498 323 L498 502 L489 502 L486 489 C479 453 433 417 393 417 L221 417 L221 785 L454 785 C494 785 544 749 556 713 L560 700 L569 700 C567 723 561 767 558 790 L559 790 L558 794 L86 794 L86 0 L583 0 L584 4 C587 4 598 79 599 84 L590 84 L585 72 C572 40 509 9 456 9 L256 9 C230 9 222 21 222 34 L222 408 L394 408 C434 408 480 372 487 336 L490 323 L498 323 L498 323 Z " />
<glyph glyph-name="emacron" unicode="&#x113;" horiz-adv-x="584" d="M155 684 L495 684 L495 764 L155 764 L155 684 L155 684 Z M173 370 L554 370 C543 482 432 554 325 554 C184 554 45 434 45 249 C45 118 171 -10 300 -10 C394 -10 510 66 534 143 L529 144 C510 83 403 24 312 24 C238 24 166 159 166 296 C166 322 168 347 172 370 L173 370 L173 370 Z M425 379 L173 378 C195 482 258 546 322 546 C365 546 413 481 425 379 L425 379 Z " />
<glyph glyph-name="Ebreve" unicode="&#x114;" horiz-adv-x="630" d="M164 1038 C172 967 251 898 322 898 C394 898 472 966 480 1036 L456 1039 C452 1009 386 979 322 979 C258 979 192 1010 188 1042 L164 1038 L164 1038 Z M498 323 L498 502 L489 502 L486 489 C479 453 433 417 393 417 L221 417 L221 785 L454 785 C494 785 544 749 556 713 L560 700 L569 700 C567 723 561 767 558 790 L559 790 L558 794 L86 794 L86 0 L583 0 L584 4 C587 4 598 79 599 84 L590 84 L585 72 C572 40 509 9 456 9 L256 9 C230 9 222 21 222 34 L222 408 L394 408 C434 408 480 372 487 336 L490 323 L498 323 L498 323 Z " />
<glyph glyph-name="ebreve" unicode="&#x115;" horiz-adv-x="584" d="M167 788 C175 717 254 648 325 648 C397 648 475 716 483 786 L459 789 C455 759 389 729 325 729 C261 729 195 760 191 792 L167 788 L167 788 Z M173 370 L554 370 C543 482 432 554 325 554 C184 554 45 434 45 249 C45 118 171 -10 300 -10 C394 -10 510 66 534 143 L529 144 C510 83 403 24 312 24 C238 24 166 159 166 296 C166 322 168 347 172 370 L173 370 L173 370 Z M425 379 L173 378 C195 482 258 546 322 546 C365 546 413 481 425 379 L425 379 Z " />
<glyph glyph-name="Edot" unicode="&#x116;" horiz-adv-x="630" d="M322 909 C359 909 396 946 396 983 C396 1021 359 1058 322 1058 C285 1058 248 1021 248 983 C248 946 285 909 322 909 L322 909 Z M498 323 L498 502 L489 502 L486 489 C479 453 433 417 393 417 L221 417 L221 785 L454 785 C494 785 544 749 556 713 L560 700 L569 700 C567 723 561 767 558 790 L559 790 L558 794 L86 794 L86 0 L583 0 L584 4 C587 4 598 79 599 84 L590 84 L585 72 C572 40 509 9 456 9 L256 9 C230 9 222 21 222 34 L222 408 L394 408 C434 408 480 372 487 336 L490 323 L498 323 L498 323 Z " />
<glyph glyph-name="edot" unicode="&#x117;" horiz-adv-x="584" d="M325 659 C362 659 399 696 399 733 C399 771 362 808 325 808 C288 808 251 771 251 733 C251 696 288 659 325 659 L325 659 Z M173 370 L554 370 C543 482 432 554 325 554 C184 554 45 434 45 249 C45 118 171 -10 300 -10 C394 -10 510 66 534 143 L529 144 C510 83 403 24 312 24 C238 24 166 159 166 296 C166 322 168 347 172 370 L173 370 L173 370 Z M425 379 L173 378 C195 482 258 546 322 546 C365 546 413 481 425 379 L425 379 Z " />
<glyph glyph-name="Ecaron" unicode="&#x11a;" horiz-adv-x="630" d="M461 1089 L322 972 L183 1089 L168 1076 L282 898 C289 888 312 857 322 857 C333 857 356 888 363 898 L476 1076 L461 1089 L461 1089 Z M498 323 L498 502 L489 502 L486 489 C479 453 433 417 393 417 L221 417 L221 785 L454 785 C494 785 544 749 556 713 L560 700 L569 700 C567 723 561 767 558 790 L559 790 L558 794 L86 794 L86 0 L583 0 L584 4 C587 4 598 79 599 84 L590 84 L585 72 C572 40 509 9 456 9 L256 9 C230 9 222 21 222 34 L222 408 L394 408 C434 408 480 372 487 336 L490 323 L498 323 L498 323 Z " />
<glyph glyph-name="ecaron" unicode="&#x11b;" horiz-adv-x="584" d="M464 839 L325 722 L186 839 L171 826 L285 648 C292 638 315 607 325 607 C336 607 359 638 366 648 L479 826 L464 839 L464 839 Z M173 370 L554 370 C543 482 432 554 325 554 C184 554 45 434 45 249 C45 118 171 -10 300 -10 C394 -10 510 66 534 143 L529 144 C510 83 403 24 312 24 C238 24 166 159 166 296 C166 322 168 347 172 370 L173 370 L173 370 Z M425 379 L173 378 C195 482 258 546 322 546 C365 546 413 481 425 379 L425 379 Z " />
<glyph glyph-name="Gcircumflex" unicode="&#x11c;" horiz-adv-x="835" d="M761 610 L761 735 L756 735 C756 731 755 725 755 721 C753 706 729 708 704 723 C644 769 560 805 459 805 C248 805 41 604 41 398 C41 192 247 -9 457 -9 C590 -9 736 27 814 63 L811 68 C795 61 772 54 744 47 C745 99 745 263 745 345 L609 345 L609 257 C610 257 610 150 610 137 C602 74 542 17 480 17 C334 17 191 205 191 397 C191 597 326 794 464 794 C525 794 587 765 641 725 C671 702 723 649 745 618 C746 616 750 612 751 610 L761 610 L761 610 Z M502 1040 C495 1050 472 1081 461 1081 C451 1081 428 1050 421 1040 L307 862 L322 849 L461 966 L600 849 L615 862 L502 1040 L502 1040 Z " />
<glyph glyph-name="Gbreve" unicode="&#x11e;" horiz-adv-x="835" d="M300 1038 C308 967 387 898 458 898 C530 898 608 966 616 1036 L592 1039 C588 1009 522 979 458 979 C394 979 328 1010 324 1042 L300 1038 L300 1038 Z M761 610 L761 735 L756 735 C756 731 755 725 755 721 C753 706 729 708 704 723 C644 769 560 805 459 805 C248 805 41 604 41 398 C41 192 247 -9 457 -9 C590 -9 736 27 814 63 L811 68 C795 61 772 54 744 47 C745 99 745 263 745 345 L609 345 L609 257 C610 257 610 150 610 137 C602 74 542 17 480 17 C334 17 191 205 191 397 C191 597 326 794 464 794 C525 794 587 765 641 725 C671 702 723 649 745 618 C746 616 750 612 751 610 L761 610 L761 610 Z " />
<glyph glyph-name="gbreve" unicode="&#x11f;" horiz-adv-x="546" d="M106 788 C114 717 193 648 264 648 C336 648 414 716 422 786 L398 789 C394 759 328 729 264 729 C200 729 134 760 130 792 L106 788 L106 788 Z M569 492 C569 527 532 561 494 561 C467 561 426 531 402 497 C365 531 314 554 263 554 C164 554 66 468 66 381 C66 304 139 229 222 210 C130 200 49 157 49 112 C49 60 92 8 144 -9 C87 -28 39 -67 39 -96 C39 -163 156 -229 275 -229 C394 -229 511 -144 511 -58 C511 22 433 100 313 100 L186 100 C152 100 118 123 118 147 C118 177 190 206 264 206 C363 206 461 293 461 382 C461 420 443 457 414 487 C448 499 490 442 520 442 C545 442 569 467 569 492 L569 492 Z M264 213 C223 213 182 296 182 381 C182 464 223 546 264 546 C305 546 346 464 346 381 C346 296 305 213 264 213 L264 213 Z M160 -13 C167 -14 174 -15 181 -15 L302 -15 C372 -15 417 -50 417 -86 C417 -155 348 -222 278 -222 C206 -222 135 -147 135 -70 C135 -49 146 -26 161 -12 L160 -13 L160 -13 Z " />
<glyph glyph-name="Gdot" unicode="&#x120;" horiz-adv-x="835" d="M458 909 C495 909 532 946 532 983 C532 1021 495 1058 458 1058 C421 1058 384 1021 384 983 C384 946 421 909 458 909 L458 909 Z M761 610 L761 735 L756 735 C756 731 755 725 755 721 C753 706 729 708 704 723 C644 769 560 805 459 805 C248 805 41 604 41 398 C41 192 247 -9 457 -9 C590 -9 736 27 814 63 L811 68 C795 61 772 54 744 47 C745 99 745 263 745 345 L609 345 L609 257 C610 257 610 150 610 137 C602 74 542 17 480 17 C334 17 191 205 191 397 C191 597 326 794 464 794 C525 794 587 765 641 725 C671 702 723 649 745 618 C746 616 750 612 751 610 L761 610 L761 610 Z " />
<glyph glyph-name="gdot" unicode="&#x121;" horiz-adv-x="546" d="M264 659 C301 659 338 696 338 733 C338 771 301 808 264 808 C227 808 190 771 190 733 C190 696 227 659 264 659 L264 659 Z M569 492 C569 527 532 561 494 561 C467 561 426 531 402 497 C365 531 314 554 263 554 C164 554 66 468 66 381 C66 304 139 229 222 210 C130 200 49 157 49 112 C49 60 92 8 144 -9 C87 -28 39 -67 39 -96 C39 -163 156 -229 275 -229 C394 -229 511 -144 511 -58 C511 22 433 100 313 100 L186 100 C152 100 118 123 118 147 C118 177 190 206 264 206 C363 206 461 293 461 382 C461 420 443 457 414 487 C448 499 490 442 520 442 C545 442 569 467 569 492 L569 492 Z M264 213 C223 213 182 296 182 381 C182 464 223 546 264 546 C305 546 346 464 346 381 C346 296 305 213 264 213 L264 213 Z M160 -13 C167 -14 174 -15 181 -15 L302 -15 C372 -15 417 -50 417 -86 C417 -155 348 -222 278 -222 C206 -222 135 -147 135 -70 C135 -49 146 -26 161 -12 L160 -13 L160 -13 Z " />
<glyph glyph-name="Hcircumflex" unicode="&#x124;" horiz-adv-x="826" d="M468 1040 C461 1050 438 1081 427 1081 C417 1081 394 1050 387 1040 L273 862 L288 849 L427 966 L566 849 L581 862 L468 1040 L468 1040 Z M732 0 L732 794 L597 794 L597 416 L257 416 L257 794 L122 794 L122 0 L257 0 L257 405 L597 405 L597 0 L732 0 L732 0 Z " />
<glyph glyph-name="Itilde" unicode="&#x128;" horiz-adv-x="301" d="M-21 914 C-21 942 3 969 27 969 C75 969 171 904 219 904 C263 904 307 974 307 1045 L301 1045 C301 1015 274 985 246 985 C198 985 102 1050 54 1050 C13 1050 -27 983 -27 914 L-21 914 L-21 914 Z M207 0 L207 794 L72 794 L72 0 L207 0 L207 0 Z " />
<glyph glyph-name="itilde" unicode="&#x129;" horiz-adv-x="241" d="M-37 664 C-37 692 -13 719 12 719 C60 719 156 654 204 654 C248 654 292 724 292 795 L286 795 C286 765 259 735 231 735 C182 735 87 800 38 800 C-3 800 -43 733 -43 664 L-37 664 L-37 664 Z M125 544 L125 545 C110 541 82 533 67 529 L67 0 L182 0 L182 544 L125 544 L125 544 Z " />
<glyph glyph-name="Imacron" unicode="&#x12a;" horiz-adv-x="301" d="M-30 934 L310 934 L310 1014 L-30 1014 L-30 934 L-30 934 Z M207 0 L207 794 L72 794 L72 0 L207 0 L207 0 Z " />
<glyph glyph-name="imacron" unicode="&#x12b;" horiz-adv-x="241" d="M-45 684 L294 684 L294 764 L-45 764 L-45 684 L-45 684 Z M125 544 L125 545 C110 541 82 533 67 529 L67 0 L182 0 L182 544 L125 544 L125 544 Z " />
<glyph glyph-name="Ibreve" unicode="&#x12c;" horiz-adv-x="301" d="M-18 1038 C-10 967 69 898 140 898 C212 898 290 966 298 1036 L274 1039 C270 1009 204 979 140 979 C76 979 10 1010 6 1042 L-18 1038 L-18 1038 Z M207 0 L207 794 L72 794 L72 0 L207 0 L207 0 Z " />
<glyph glyph-name="ibreve" unicode="&#x12d;" horiz-adv-x="241" d="M-33 788 C-25 717 54 648 125 648 C196 648 274 716 282 786 L258 789 C254 759 189 729 125 729 C61 729 -5 760 -9 792 L-33 788 L-33 788 Z M125 544 L125 545 C110 541 82 533 67 529 L67 0 L182 0 L182 544 L125 544 L125 544 Z " />
<glyph glyph-name="Idot" unicode="&#x130;" horiz-adv-x="301" d="M140 909 C177 909 214 946 214 983 C214 1021 177 1058 140 1058 C103 1058 66 1021 66 983 C66 946 103 909 140 909 L140 909 Z M207 0 L207 794 L72 794 L72 0 L207 0 L207 0 Z " />
<glyph glyph-name="dotlessi" unicode="&#x131;" horiz-adv-x="241" d="M125 544 L125 545 C110 541 82 533 67 529 L67 0 L182 0 L182 544 L125 544 L125 544 Z " />
<glyph glyph-name="Jcircumflex" unicode="&#x134;" horiz-adv-x="301" d="M181 1040 C174 1050 151 1081 140 1081 C130 1081 107 1050 100 1040 L-14 862 L1 849 L140 966 L279 849 L294 862 L181 1040 L181 1040 Z M72 -106 C72 -177 -6 -206 -49 -206 C-105 -206 -94 -98 -150 -98 C-181 -98 -211 -128 -211 -159 C-211 -190 -136 -220 -59 -220 C35 -220 208 -112 208 150 C208 313 207 794 207 794 L72 794 L72 -106 L72 -106 Z " />
<glyph glyph-name="Lacute" unicode="&#x139;" horiz-adv-x="599" d="M149 855 L293 973 C323 998 353 1027 353 1032 C353 1058 321 1090 295 1090 C290 1090 264 1058 241 1025 L134 870 L149 855 L149 855 Z M575 12 C579 34 586 76 590 98 L581 98 L576 86 C563 54 500 23 447 23 L241 23 C215 23 207 28 207 34 L207 794 L72 794 L72 0 L575 0 L576 12 L575 12 L575 12 Z " />
<glyph glyph-name="Lcaron" unicode="&#x13d;" horiz-adv-x="599" d="M347 851 C327 851 312 781 310 742 L302 630 L322 626 L370 730 C385 761 399 812 399 834 C399 844 373 851 347 851 L347 851 Z M575 12 C579 34 586 76 590 98 L581 98 L576 86 C563 54 500 23 447 23 L241 23 C215 23 207 28 207 34 L207 794 L72 794 L72 0 L575 0 L576 12 L575 12 L575 12 Z " />
<glyph glyph-name="lcaron" unicode="&#x13e;" horiz-adv-x="185" d="M231 801 C211 801 196 731 194 692 L186 580 L206 576 L254 680 C269 711 283 762 283 784 C283 794 257 801 231 801 L231 801 Z M11 770 C21 770 26 747 26 722 L26 0 L141 0 L141 794 L84 794 L84 795 C66 790 29 780 11 775 L11 770 L11 770 Z " />
<glyph glyph-name="Nacute" unicode="&#x143;" horiz-adv-x="733" d="M270 855 L415 973 C445 998 474 1026 474 1032 C474 1058 443 1090 417 1090 C411 1090 385 1058 362 1025 L256 870 L270 855 L270 855 Z M49 0 L160 0 L160 3 L154 3 C140 3 125 28 125 53 L125 53 L121 616 C281 410 441 204 601 -1 L629 -1 L638 747 C641 774 654 790 674 790 L674 793 L598 793 L598 740 L598 740 L600 234 C451 421 301 607 151 793 L-49 793 L-49 790 C-28 790 2 768 24 740 L24 740 L85 661 L83 52 L83 52 C83 27 69 2 54 2 L48 2 L49 0 L49 0 Z " />
<glyph glyph-name="Ncaron" unicode="&#x147;" horiz-adv-x="733" d="M500 1089 L362 973 L223 1089 L207 1076 L321 898 C328 888 351 857 362 857 C372 857 395 888 402 898 L516 1076 L500 1089 L500 1089 Z M49 0 L160 0 L160 3 L154 3 C140 3 125 28 125 53 L125 53 L121 616 C281 410 441 204 601 -1 L629 -1 L638 747 C641 774 654 790 674 790 L674 793 L598 793 L598 740 L598 740 L600 234 C451 421 301 607 151 793 L-49 793 L-49 790 C-28 790 2 768 24 740 L24 740 L85 661 L83 52 L83 52 C83 27 69 2 54 2 L48 2 L49 0 L49 0 Z " />
<glyph glyph-name="ncaron" unicode="&#x148;" horiz-adv-x="527" d="M393 839 L255 723 L116 839 L100 826 L214 648 C221 638 244 607 255 607 C265 607 288 638 295 648 L409 826 L393 839 L393 839 Z M11 520 C21 520 26 497 26 472 L26 0 L141 0 L141 413 C173 454 247 494 291 494 C334 494 368 427 368 358 L368 0 L483 0 L483 358 C483 457 415 554 329 554 C282 554 189 494 141 433 L141 544 L84 544 L84 545 C66 540 29 530 11 525 L11 520 L11 520 Z " />
<glyph glyph-name="Omacron" unicode="&#x14c;" horiz-adv-x="922" d="M279 934 L619 934 L619 1014 L279 1014 L279 934 L279 934 Z M187 397 C187 597 316 794 447 794 C585 794 720 597 720 397 C720 197 582 0 441 0 C313 0 187 197 187 397 L187 397 Z M40 397 C40 191 238 -10 439 -10 C655 -10 867 191 867 397 C867 603 660 804 449 804 C242 804 40 603 40 397 L40 397 Z " />
<glyph glyph-name="omacron" unicode="&#x14d;" horiz-adv-x="648" d="M154 684 L494 684 L494 764 L154 764 L154 684 L154 684 Z M172 272 C172 409 247 543 324 543 C401 543 476 409 476 272 C476 135 401 1 324 1 C247 1 172 135 172 272 L172 272 Z M45 272 C45 130 183 -10 324 -10 C465 -10 603 130 603 272 C603 414 465 554 324 554 C183 554 45 414 45 272 L45 272 Z " />
<glyph glyph-name="Obreve" unicode="&#x14e;" horiz-adv-x="922" d="M291 1038 C299 967 378 898 449 898 C521 898 599 966 607 1036 L583 1039 C579 1009 513 979 449 979 C385 979 319 1010 315 1042 L291 1038 L291 1038 Z M187 397 C187 597 316 794 447 794 C585 794 720 597 720 397 C720 197 582 0 441 0 C313 0 187 197 187 397 L187 397 Z M40 397 C40 191 238 -10 439 -10 C655 -10 867 191 867 397 C867 603 660 804 449 804 C242 804 40 603 40 397 L40 397 Z " />
<glyph glyph-name="obreve" unicode="&#x14f;" horiz-adv-x="648" d="M166 788 C174 717 253 648 324 648 C396 648 474 716 482 786 L458 789 C454 759 388 729 324 729 C260 729 194 760 190 792 L166 788 L166 788 Z M172 272 C172 409 247 543 324 543 C401 543 476 409 476 272 C476 135 401 1 324 1 C247 1 172 135 172 272 L172 272 Z M45 272 C45 130 183 -10 324 -10 C465 -10 603 130 603 272 C603 414 465 554 324 554 C183 554 45 414 45 272 L45 272 Z " />
<glyph glyph-name="Racute" unicode="&#x154;" horiz-adv-x="787" d="M292 855 L436 973 C466 998 496 1027 496 1032 C496 1058 464 1090 438 1090 C433 1090 407 1058 384 1025 L277 870 L292 855 L292 855 Z M777 0 C718 0 696 12 662 64 C573 201 485 335 451 387 C552 418 629 485 629 568 C629 682 478 794 323 794 L86 794 L86 0 L221 0 L221 368 L316 368 C341 320 422 187 503 64 C537 12 589 0 777 0 L777 0 Z M221 402 L221 767 L283 767 C382 767 480 682 480 595 C480 483 402 402 323 402 L221 402 L221 402 Z " />
<glyph glyph-name="Rcaron" unicode="&#x158;" horiz-adv-x="787" d="M422 1089 L283 972 L144 1089 L129 1076 L243 898 C250 888 273 857 283 857 C294 857 317 888 324 898 L437 1076 L422 1089 L422 1089 Z M777 0 C718 0 696 12 662 64 C573 201 485 335 451 387 C552 418 629 485 629 568 C629 682 478 794 323 794 L86 794 L86 0 L221 0 L221 368 L316 368 C341 320 422 187 503 64 C537 12 589 0 777 0 L777 0 Z M221 402 L221 767 L283 767 C382 767 480 682 480 595 C480 483 402 402 323 402 L221 402 L221 402 Z " />
<glyph glyph-name="rcaron" unicode="&#x159;" horiz-adv-x="450" d="M362 839 L224 723 L85 839 L69 826 L183 648 C190 638 213 607 224 607 C234 607 257 638 264 648 L378 826 L362 839 L362 839 Z M12 520 C22 520 27 497 27 472 L27 0 L142 0 L142 412 C170 458 221 500 253 500 C279 500 305 483 305 465 C305 431 339 397 373 397 C407 397 440 431 440 465 C440 510 374 554 306 554 C256 554 178 494 141 430 L141 544 L84 544 L84 545 C66 540 29 530 11 525 L12 520 L12 520 Z " />
<glyph glyph-name="Sacute" unicode="&#x15a;" horiz-adv-x="582" d="M295 855 L440 973 C470 998 499 1026 499 1032 C499 1058 468 1090 442 1090 C436 1090 410 1058 387 1025 L281 870 L295 855 L295 855 Z M47 203 L47 57 L52 57 C52 62 53 72 53 77 C54 99 82 97 110 75 C165 26 240 -10 299 -10 C422 -10 543 102 543 217 C543 306 453 426 340 467 C242 503 164 583 164 637 C164 716 219 794 276 794 C310 794 351 777 387 752 C398 741 443 691 486 642 C488 640 491 636 493 634 L506 634 L506 743 L501 743 C501 740 500 735 500 732 C499 720 476 725 454 742 L454 742 C404 781 332 810 276 805 C164 795 59 697 59 586 C59 492 148 368 259 328 C357 292 435 222 435 179 C435 91 368 4 299 4 C261 4 210 32 166 72 C192 49 144 110 68 197 C66 199 63 203 61 205 L47 203 L47 203 Z M487 675 L487 675 L487 675 L487 675 Z " />
<glyph glyph-name="Scircumflex" unicode="&#x15c;" horiz-adv-x="582" d="M47 203 L47 57 L52 57 C52 62 53 72 53 77 C54 99 82 97 110 75 C165 26 240 -10 299 -10 C422 -10 543 102 543 217 C543 306 453 426 340 467 C242 503 164 583 164 637 C164 716 219 794 276 794 C310 794 351 777 387 752 C398 741 443 691 486 642 C488 640 491 636 493 634 L506 634 L506 743 L501 743 C501 740 500 735 500 732 C499 720 476 725 454 742 L454 742 C404 781 332 810 276 805 C164 795 59 697 59 586 C59 492 148 368 259 328 C357 292 435 222 435 179 C435 91 368 4 299 4 C261 4 210 32 166 72 C192 49 144 110 68 197 C66 199 63 203 61 205 L47 203 L47 203 Z M328 1042 C321 1052 298 1083 288 1083 C277 1083 254 1052 247 1042 L133 864 L149 851 L288 967 L426 851 L442 864 L328 1042 L328 1042 Z M487 675 L487 675 L487 675 L487 675 Z " />
<glyph glyph-name="Scaron" unicode="&#x160;" horiz-adv-x="582" d="M425 1089 L287 973 L148 1089 L132 1076 L246 898 C253 888 276 857 287 857 C297 857 320 888 327 898 L441 1076 L425 1089 L425 1089 Z M47 203 L47 57 L52 57 C52 62 53 72 53 77 C54 99 82 97 110 75 C165 26 240 -10 299 -10 C422 -10 543 102 543 217 C543 306 453 426 340 467 C242 503 164 583 164 637 C164 716 219 794 276 794 C310 794 351 777 387 752 C398 741 443 691 486 642 C488 640 491 636 493 634 L506 634 L506 743 L501 743 C501 740 500 735 500 732 C499 720 476 725 454 742 L454 742 C404 781 332 810 276 805 C164 795 59 697 59 586 C59 492 148 368 259 328 C357 292 435 222 435 179 C435 91 368 4 299 4 C261 4 210 32 166 72 C192 49 144 110 68 197 C66 199 63 203 61 205 L47 203 L47 203 Z M487 675 L487 675 L487 675 L487 675 Z " />
<glyph glyph-name="scaron" unicode="&#x161;" horiz-adv-x="461" d="M365 839 L226 722 L87 839 L72 826 L186 648 C193 638 216 607 226 607 C237 607 260 638 267 648 L380 826 L365 839 L365 839 Z M60 138 L60 56 L64 56 L64 64 C64 68 90 54 117 35 C131 24 147 16 161 6 L161 7 C180 -2 199 -8 217 -9 C223 -12 225 -12 224 -9 C317 -9 409 69 409 149 C409 212 338 293 250 317 C186 334 135 397 135 447 C135 498 179 547 224 547 C238 547 254 542 270 534 C251 543 303 494 375 434 C377 433 380 429 382 428 L386 428 L386 499 L383 499 C383 497 382 495 382 493 C382 493 308 534 294 540 C289 544 284 547 279 550 L277 547 C259 553 241 556 224 556 C138 556 53 483 53 408 C53 338 118 252 199 230 C266 212 320 158 320 118 C320 58 270 -6 217 1 C200 21 148 68 68 135 C66 136 63 140 61 141 L60 138 L60 138 Z M174 19 C172 20 170 21 168 22 C170 21 172 20 174 19 L174 19 Z " />
<glyph glyph-name="Tcaron" unicode="&#x164;" horiz-adv-x="801" d="M540 1089 L401 972 L262 1089 L247 1076 L361 898 C368 888 391 857 401 857 C412 857 435 888 442 898 L555 1076 L540 1089 L540 1089 Z M781 685 C773 707 756 749 746 773 C750 772 746 773 745 775 C740 778 747 795 747 795 L55 795 C55 795 54 780 54 771 L54 771 L54 769 C53 767 22 690 20 685 L29 685 L37 697 C56 729 117 760 160 760 L332 760 L332 0 L467 0 L467 760 L640 760 C683 760 744 729 763 697 L771 685 L781 685 L781 685 Z M744 774 L744 774 L744 774 L744 774 Z M52 765 C50 767 51 769 53 771 C53 769 53 767 53 766 L52 765 L52 765 Z M746 761 L746 761 L746 761 L746 761 Z " />
<glyph glyph-name="tcaron" unicode="&#x165;" horiz-adv-x="428" d="M378 544 L213 544 L213 675 L205 675 L33 493 L33 483 L98 483 L98 203 C98 74 177 -10 258 -10 C331 -10 411 61 418 134 L403 136 C398 90 344 44 293 44 C251 44 210 96 210 177 L213 483 L378 483 L378 544 L378 544 Z M478 801 C458 801 443 731 441 692 L433 580 L453 576 L501 680 C516 711 530 762 530 784 C530 794 504 801 478 801 L478 801 Z " />
<glyph glyph-name="Utilde" unicode="&#x168;" horiz-adv-x="745" d="M205 914 C205 942 229 969 253 969 C301 969 397 904 445 904 C489 904 533 974 533 1045 L527 1045 C527 1015 500 985 472 985 C424 985 328 1050 280 1050 C239 1050 199 983 199 914 L205 914 L205 914 Z M613 0 C630 4 664 13 681 18 L681 794 L545 794 L545 210 C514 143 413 77 342 77 C263 77 186 152 186 228 L186 794 L51 794 L51 228 C51 108 168 -10 288 -10 C380 -10 508 69 545 149 L545 0 L613 0 L613 0 Z " />
<glyph glyph-name="utilde" unicode="&#x169;" horiz-adv-x="529" d="M95 664 C95 692 119 719 143 719 C191 719 287 654 335 654 C379 654 423 724 423 795 L417 795 C417 765 390 735 362 735 C314 735 218 800 170 800 C129 800 89 733 89 664 L95 664 L95 664 Z M432 0 L432 -1 C447 3 475 11 490 15 L490 544 L375 544 L375 139 C352 103 289 70 237 70 C187 70 137 118 137 167 L137 544 L22 544 L22 167 C22 78 102 -10 183 -10 C251 -10 341 55 375 126 L375 0 L432 0 L432 0 Z " />
<glyph glyph-name="Umacron" unicode="&#x16a;" horiz-adv-x="745" d="M196 934 L536 934 L536 1014 L196 1014 L196 934 L196 934 Z M613 0 C630 4 664 13 681 18 L681 794 L545 794 L545 210 C514 143 413 77 342 77 C263 77 186 152 186 228 L186 794 L51 794 L51 228 C51 108 168 -10 288 -10 C380 -10 508 69 545 149 L545 0 L613 0 L613 0 Z " />
<glyph glyph-name="umacron" unicode="&#x16b;" horiz-adv-x="529" d="M86 684 L426 684 L426 764 L86 764 L86 684 L86 684 Z M432 0 L432 -1 C447 3 475 11 490 15 L490 544 L375 544 L375 139 C352 103 289 70 237 70 C187 70 137 118 137 167 L137 544 L22 544 L22 167 C22 78 102 -10 183 -10 C251 -10 341 55 375 126 L375 0 L432 0 L432 0 Z " />
<glyph glyph-name="Ubreve" unicode="&#x16c;" horiz-adv-x="745" d="M208 1038 C216 967 295 898 366 898 C438 898 516 966 524 1036 L500 1039 C496 1009 430 979 366 979 C302 979 236 1010 232 1042 L208 1038 L208 1038 Z M613 0 C630 4 664 13 681 18 L681 794 L545 794 L545 210 C514 143 413 77 342 77 C263 77 186 152 186 228 L186 794 L51 794 L51 228 C51 108 168 -10 288 -10 C380 -10 508 69 545 149 L545 0 L613 0 L613 0 Z " />
<glyph glyph-name="ubreve" unicode="&#x16d;" horiz-adv-x="529" d="M98 788 C106 717 185 648 256 648 C328 648 406 716 414 786 L390 789 C386 759 320 729 256 729 C192 729 126 760 122 792 L98 788 L98 788 Z M432 0 L432 -1 C447 3 475 11 490 15 L490 544 L375 544 L375 139 C352 103 289 70 237 70 C187 70 137 118 137 167 L137 544 L22 544 L22 167 C22 78 102 -10 183 -10 C251 -10 341 55 375 126 L375 0 L432 0 L432 0 Z " />
<glyph glyph-name="Uring" unicode="&#x16e;" horiz-adv-x="745" d="M301 949 C301 983 333 1017 366 1017 C399 1017 431 983 431 949 C431 918 396 881 366 881 C336 881 301 918 301 949 L301 949 Z M268 949 C268 906 321 854 366 854 C411 854 464 906 464 949 C464 997 415 1044 366 1044 C317 1044 268 997 268 949 L268 949 Z M613 0 C630 4 664 13 681 18 L681 794 L545 794 L545 210 C514 143 413 77 342 77 C263 77 186 152 186 228 L186 794 L51 794 L51 228 C51 108 168 -10 288 -10 C380 -10 508 69 545 149 L545 0 L613 0 L613 0 Z " />
<glyph glyph-name="uring" unicode="&#x16f;" horiz-adv-x="529" d="M191 699 C191 733 223 767 256 767 C289 767 321 733 321 699 C321 668 286 631 256 631 C226 631 191 668 191 699 L191 699 Z M158 699 C158 656 211 604 256 604 C301 604 354 656 354 699 C354 747 305 794 256 794 C207 794 158 747 158 699 L158 699 Z M432 0 L432 -1 C447 3 475 11 490 15 L490 544 L375 544 L375 139 C352 103 289 70 237 70 C187 70 137 118 137 167 L137 544 L22 544 L22 167 C22 78 102 -10 183 -10 C251 -10 341 55 375 126 L375 0 L432 0 L432 0 Z " />
<glyph glyph-name="Wcircumflex" unicode="&#x174;" horiz-adv-x="1100" d="M1090 794 L898 794 L898 791 L912 791 C950 791 978 756 972 719 L828 188 L608 720 C596 757 613 792 645 792 L657 792 L657 795 L400 795 L400 792 C417 792 441 761 460 721 C487 657 516 593 542 530 L413 163 L191 719 C178 757 187 793 211 793 L220 793 L220 796 L-12 796 L-12 793 C3 793 28 755 46 713 L46 713 C148 473 250 233 352 -8 L386 -8 L565 475 C635 314 705 153 775 -8 L809 -8 C880 232 950 473 1021 713 C1033 753 1063 793 1082 793 L1089 793 L1090 794 L1090 794 Z M569 1042 C562 1052 539 1083 528 1083 C518 1083 495 1052 488 1042 L374 864 L389 851 L528 968 L667 851 L682 864 L569 1042 L569 1042 Z " />
<glyph glyph-name="Ycircumflex" unicode="&#x176;" horiz-adv-x="704" d="M219 794 L-13 794 L-13 791 C-1 791 17 772 36 746 L294 336 L294 0 L430 0 L430 354 L635 738 C653 770 682 792 708 792 L708 795 L569 795 L569 792 L587 792 C615 792 628 765 614 737 L614 737 L426 367 C351 490 274 614 200 737 C183 765 188 792 211 792 L219 792 L219 794 L219 794 Z M403 1041 C396 1051 373 1082 362 1082 C352 1082 329 1051 322 1041 L208 863 L223 850 L362 967 L501 850 L516 863 L403 1041 L403 1041 Z " />
<glyph glyph-name="Ydieresis" unicode="&#x178;" horiz-adv-x="704" d="M445 909 C482 909 519 946 519 983 C519 1021 482 1058 445 1058 C408 1058 371 1021 371 983 C371 946 408 909 445 909 L445 909 Z M279 909 C316 909 353 946 353 983 C353 1021 316 1058 279 1058 C242 1058 205 1021 205 983 C205 946 242 909 279 909 L279 909 Z M219 794 L-13 794 L-13 791 C-1 791 17 772 36 746 L294 336 L294 0 L430 0 L430 354 L635 738 C653 770 682 792 708 792 L708 795 L569 795 L569 792 L587 792 C615 792 628 765 614 737 L614 737 L426 367 C351 490 274 614 200 737 C183 765 188 792 211 792 L219 792 L219 794 L219 794 Z " />
<glyph glyph-name="Zacute" unicode="&#x179;" horiz-adv-x="654" d="M362 855 L507 973 C537 998 566 1026 566 1032 C566 1058 535 1090 509 1090 C503 1090 477 1058 454 1025 L348 870 L362 855 L362 855 Z M70 682 L73 693 C82 723 135 753 185 758 L492 764 L25 27 L25 0 L633 0 L642 41 C642 41 656 100 659 115 L650 115 L645 104 C631 74 572 43 520 39 L184 31 L638 767 L638 794 L71 794 L68 756 C68 756 63 697 62 682 L70 682 L70 682 Z " />
<glyph glyph-name="Zdot" unicode="&#x17b;" horiz-adv-x="654" d="M354 909 C391 909 428 946 428 983 C428 1021 391 1058 354 1058 C316 1058 279 1021 279 983 C279 946 316 909 354 909 L354 909 Z M70 682 L73 693 C82 723 135 753 185 758 L492 764 L25 27 L25 0 L633 0 L642 41 C642 41 656 100 659 115 L650 115 L645 104 C631 74 572 43 520 39 L184 31 L638 767 L638 794 L71 794 L68 756 C68 756 63 697 62 682 L70 682 L70 682 Z " />
<glyph glyph-name="zdot" unicode="&#x17c;" horiz-adv-x="502" d="M269 659 C306 659 343 696 343 733 C343 771 306 808 269 808 C231 808 194 771 194 733 C194 696 231 659 269 659 L269 659 Z M62 524 C62 524 53 491 44 457 L55 457 L60 464 C71 482 115 501 155 506 L326 512 L40 27 L40 0 L457 0 L457 10 L460 10 C460 10 466 54 470 88 L459 88 L455 81 C446 62 402 42 362 38 L179 32 L462 517 L462 544 L75 544 C75 544 68 544 67 544 L63 528 C68 530 72 532 75 533 L75 525 L62 524 L62 524 Z M62 527 L63 529 L62 527 L62 527 Z " />
<glyph glyph-name="Zcaron" unicode="&#x17d;" horiz-adv-x="654" d="M492 1089 L354 973 L215 1089 L199 1076 L313 898 C320 888 343 857 354 857 C364 857 387 888 394 898 L508 1076 L492 1089 L492 1089 Z M70 682 L73 693 C82 723 135 753 185 758 L492 764 L25 27 L25 0 L633 0 L642 41 C642 41 656 100 659 115 L650 115 L645 104 C631 74 572 43 520 39 L184 31 L638 767 L638 794 L71 794 L68 756 C68 756 63 697 62 682 L70 682 L70 682 Z " />
<glyph glyph-name="zcaron" unicode="&#x17e;" horiz-adv-x="502" d="M407 839 L269 723 L130 839 L114 826 L228 648 C235 638 258 607 269 607 C279 607 302 638 309 648 L423 826 L407 839 L407 839 Z M62 524 C62 524 53 491 44 457 L55 457 L60 464 C71 482 115 501 155 506 L326 512 L40 27 L40 0 L457 0 L457 10 L460 10 C460 10 466 54 470 88 L459 88 L455 81 C446 62 402 42 362 38 L179 32 L462 517 L462 544 L75 544 C75 544 68 544 67 544 L63 528 C68 530 72 532 75 533 L75 525 L62 524 L62 524 Z M62 527 L63 529 L62 527 L62 527 Z " />
<glyph glyph-name="oogonek" unicode="&#x1eb;" horiz-adv-x="817" d="M1065 -49 L1063 -46 C1037 -68 891 -89 767 -89 C641 -89 465 -52 362 -8 C372 -9 382 -9 392 -9 C582 -9 768 151 768 315 C768 478 587 638 402 638 C222 638 45 478 45 315 C45 216 107 119 195 57 C357 -57 634 -169 754 -169 C839 -169 993 -109 1066 -48 L1065 -49 L1065 -49 Z M177 315 C177 474 287 629 400 629 C519 629 636 474 636 315 C636 153 511 -5 383 -5 C364 -5 345 0 326 10 C243 56 178 183 178 314 L177 315 L177 315 Z " />
<glyph glyph-name="Adotabove" unicode="&#x226;" horiz-adv-x="699" d="M337 909 C374 909 411 946 411 983 C411 1021 374 1058 337 1058 C299 1058 262 1021 262 983 C262 946 299 909 337 909 L337 909 Z M428 0 L699 0 L699 3 L692 3 C673 3 638 53 621 103 L621 103 C542 340 463 577 384 814 L370 814 C374 790 325 759 270 751 L273 741 L273 741 C210 528 148 315 84 103 C69 52 19 3 -17 3 L-30 3 L-30 0 L152 0 L152 3 L139 3 C103 3 82 53 97 103 L97 103 L156 307 L415 307 L484 94 C495 46 476 3 442 3 L429 3 L428 0 L428 0 Z M159 318 L278 728 L411 318 L159 318 L159 318 Z " />
<glyph glyph-name="G_sc" unicode="&#x262;" horiz-adv-x="736" d="M663 473 L663 595 L658 595 C658 591 657 585 657 581 C656 565 626 567 598 585 L598 585 C549 615 484 637 405 637 C223 637 44 477 44 314 C44 150 224 -10 407 -10 C473 -10 551 5 619 26 L645 32 L645 34 C671 43 695 52 716 61 L713 66 C695 58 672 50 645 43 L645 272 L523 272 L523 184 C524 184 524 124 524 117 C517 64 473 16 428 16 C301 16 177 164 177 315 C177 474 291 629 408 629 C457 629 505 609 547 580 C580 556 624 511 642 483 C643 481 647 476 648 474 L663 473 L663 473 Z M646 517 L646 517 L646 517 L646 517 Z " />
<glyph glyph-name="I_sc" unicode="&#x26a;" horiz-adv-x="294" d="M200 0 L200 627 L79 627 L79 0 L200 0 L200 0 Z " />
<glyph glyph-name="N_sc" unicode="&#x274;" horiz-adv-x="642" d="M-38 624 C-18 624 12 604 36 577 L87 515 L86 53 L86 53 C86 28 72 3 57 3 L51 3 L51 0 L158 0 L158 3 L152 3 C138 3 123 28 123 53 L123 53 L120 477 C252 318 384 159 516 0 L541 0 L549 581 C552 608 565 624 585 624 L585 627 L513 627 L513 574 L513 574 L515 159 C392 315 270 471 147 627 L-36 627 L-38 624 L-38 624 Z " />
<glyph glyph-name="R_sc" unicode="&#x280;" horiz-adv-x="630" d="M620 0 C582 0 567 10 540 50 C471 155 403 258 374 302 C463 327 532 380 532 447 C532 537 396 626 258 626 L89 626 L89 -1 L211 -1 L211 286 L253 286 C273 245 336 142 397 49 C424 9 466 -1 620 -1 L620 0 L620 0 Z M211 317 L211 602 L222 602 C311 602 398 537 398 471 C398 382 329 317 258 317 L211 317 L211 317 Z " />
<glyph glyph-name="Y_sc" unicode="&#x28f;" horiz-adv-x="605" d="M207 627 L-9 627 L-9 624 C3 624 28 599 47 569 L47 569 L251 262 L251 0 L373 0 L373 278 L534 569 C551 601 582 624 608 624 L608 627 L472 627 L472 624 L490 624 C518 624 531 597 516 569 L516 569 L368 290 L184 575 C170 601 176 624 197 624 L205 624 L207 627 L207 627 Z " />
<glyph glyph-name="B_sc" unicode="&#x299;" horiz-adv-x="602" d="M320 4 L270 4 C240 4 211 19 211 34 L211 322 L332 322 C381 322 429 244 429 164 C429 55 375 4 320 4 L320 4 Z M331 0 C448 0 562 52 562 164 C562 245 465 324 364 328 C453 347 529 412 529 478 C529 553 449 627 278 627 L89 627 L89 0 L331 0 L331 0 Z M307 328 L211 328 L211 620 L264 620 C362 620 408 543 408 465 C408 396 358 328 307 328 L307 328 Z " />
<glyph glyph-name="H_sc" unicode="&#x29c;" horiz-adv-x="733" d="M639 0 L639 627 L517 627 L517 330 L247 330 L247 627 L125 627 L125 0 L247 0 L247 320 L517 320 L517 0 L639 0 L639 0 Z " />
<glyph glyph-name="L_sc" unicode="&#x29f;" horiz-adv-x="507" d="M234 21 C208 21 200 27 200 34 L200 627 L79 627 L79 0 L483 0 L484 11 L483 11 L483 16 C487 39 493 76 497 96 L488 96 L483 84 C470 52 407 21 354 21 L234 21 L234 21 Z " />
<glyph glyph-name="circumflex" unicode="&#x2c6;" horiz-adv-x="373" d="M227 790 C220 800 197 831 187 831 C176 831 153 800 146 790 L32 612 L48 599 L187 715 L325 599 L341 612 L227 790 L227 790 Z " />
<glyph glyph-name="caron" unicode="&#x2c7;" horiz-adv-x="373" d="M325 839 L187 723 L48 839 L32 826 L146 648 C153 638 176 607 187 607 C197 607 220 638 227 648 L341 826 L325 839 L325 839 Z " />
<glyph glyph-name="firsttonechinese" unicode="&#x2c9;" horiz-adv-x="373" d="M17 684 L357 684 L357 764 L17 764 L17 684 L17 684 Z " />
<glyph glyph-name="breve" unicode="&#x2d8;" horiz-adv-x="373" d="M29 788 C37 717 116 648 187 648 C258 648 336 716 344 786 L320 789 C316 759 251 729 187 729 C123 729 57 760 53 792 L29 788 L29 788 Z " />
<glyph glyph-name="dotaccent" unicode="&#x2d9;" horiz-adv-x="373" d="M187 659 C224 659 261 696 261 733 C261 771 224 808 187 808 C149 808 112 771 112 733 C112 696 149 659 187 659 L187 659 Z " />
<glyph glyph-name="ring" unicode="&#x2da;" horiz-adv-x="373" d="M122 699 C122 733 154 767 187 767 C219 767 251 733 251 699 C251 668 216 631 187 631 C157 631 122 668 122 699 L122 699 Z M88 699 C88 656 142 604 187 604 C232 604 285 656 285 699 C285 747 236 794 187 794 C137 794 88 747 88 699 L88 699 Z " />
<glyph glyph-name="A_sc" unicode="&#x1d00;" horiz-adv-x="609" d="M150 3 L137 3 C103 3 83 49 94 97 L138 243 L354 243 L405 96 C418 48 400 4 366 4 L353 4 L353 1 L610 1 L610 4 L603 4 C586 4 553 46 534 92 C468 277 403 463 336 648 L324 648 C327 630 282 605 233 598 L236 588 L236 588 L85 97 C67 49 19 4 -15 4 L-28 4 L-28 1 L152 1 L150 3 L150 3 Z M143 253 L241 576 L352 253 L143 253 L143 253 Z " />
<glyph glyph-name="C_sc" unicode="&#x1d04;" horiz-adv-x="705" d="M663 30 L663 152 L650 152 C649 150 645 145 644 143 C623 111 573 61 543 43 L543 43 C500 17 449 -1 398 -1 C286 -1 177 155 177 314 C177 473 291 628 408 628 C457 628 505 608 547 579 C580 555 624 510 642 482 C643 480 647 475 648 473 L661 473 L661 595 L656 595 C656 591 655 585 655 581 C654 565 624 567 596 585 L596 585 C547 615 482 637 403 637 C221 637 42 477 42 314 C42 150 216 -10 393 -10 C474 -10 546 12 597 43 L597 43 C625 60 654 60 655 44 C655 40 656 34 656 30 L663 30 L663 30 Z M646 516 L646 516 L646 516 L646 516 Z M645 111 L645 111 L645 111 L645 111 Z " />
<glyph glyph-name="D_sc" unicode="&#x1d05;" horiz-adv-x="773" d="M263 7 C224 7 211 20 211 34 L211 620 L277 620 C448 620 584 469 584 314 C584 143 425 7 263 7 L263 7 Z M274 0 C498 0 718 140 718 314 C718 472 535 627 306 627 L89 627 L89 0 L274 0 L274 0 Z " />
<glyph glyph-name="E_sc" unicode="&#x1d07;" horiz-adv-x="552" d="M420 237 L420 416 L411 416 L408 403 C401 367 355 331 315 331 L211 331 L211 619 L376 619 C416 619 466 583 478 547 L482 534 L491 534 C489 556 483 601 481 623 L480 623 L480 627 L89 627 L89 0 L505 0 L506 4 L505 4 C509 24 516 63 519 83 L510 83 L505 71 C492 39 429 8 376 8 L245 8 C219 8 211 21 211 34 L211 322 L315 322 C355 322 401 286 408 250 L411 237 L420 237 L420 237 Z " />
<glyph glyph-name="J_sc" unicode="&#x1d0a;" horiz-adv-x="294" d="M-28 -207 C-79 -207 -68 -110 -119 -110 C-147 -110 -174 -137 -174 -164 C-174 -192 -106 -220 -37 -220 C47 -220 201 -115 201 137 C201 261 200 627 200 627 L79 627 C79 627 78 89 78 -93 C78 -174 9 -207 -28 -207 L-28 -207 Z " />
<glyph glyph-name="K_sc" unicode="&#x1d0b;" horiz-adv-x="649" d="M560 627 L357 627 L357 624 L373 624 C412 624 419 583 391 539 L211 314 L211 627 L89 627 L89 0 L211 0 L211 314 L464 0 L647 0 L647 3 C626 3 595 25 573 53 L573 53 L305 390 C354 446 402 503 451 559 C483 596 530 624 562 624 L560 627 L560 627 Z " />
<glyph glyph-name="M_sc" unicode="&#x1d0d;" horiz-adv-x="766" d="M732 627 L581 627 L418 163 L225 627 L46 627 L46 624 C65 624 86 606 100 580 L81 51 C79 27 65 4 51 4 L45 4 L45 1 L158 1 L158 4 L152 4 C137 4 124 29 124 54 L124 54 L131 514 C208 343 285 172 362 1 L392 1 L585 521 C589 365 595 208 599 53 C600 28 586 3 572 3 L566 3 L566 0 L757 0 L757 3 C737 3 722 24 721 53 L721 53 L700 578 C700 602 712 624 726 624 L732 624 L732 627 L732 627 Z " />
<glyph glyph-name="O_sc" unicode="&#x1d0f;" horiz-adv-x="822" d="M176 314 C176 473 286 628 399 628 C518 628 635 473 635 314 C635 155 515 -1 392 -1 C283 -1 176 155 176 314 L176 314 Z M44 314 C44 150 216 -10 391 -10 C581 -10 767 150 767 314 C767 477 586 637 401 637 C221 637 44 477 44 314 L44 314 Z " />
<glyph glyph-name="P_sc" unicode="&#x1d18;" horiz-adv-x="539" d="M241 0 L241 279 L281 279 C401 279 519 350 519 449 C519 539 420 627 320 627 L120 627 L120 0 L241 0 L241 0 Z M241 305 L241 607 C241 607 277 606 289 606 C348 606 405 538 405 469 C405 374 344 305 281 305 L241 305 L241 305 Z " />
<glyph glyph-name="T_sc" unicode="&#x1d1b;" horiz-adv-x="733" d="M712 522 C704 543 688 582 679 606 C680 606 680 606 679 607 L679 607 C675 609 681 625 681 625 L57 625 C57 625 56 610 56 602 L56 602 C56 601 56 600 56 599 L56 599 C46 575 32 540 24 520 L33 520 L41 532 C60 564 121 595 164 595 L308 595 L308 -2 L430 -2 L430 595 L574 595 C617 595 678 564 697 532 L705 520 L712 522 L712 522 Z M679 607 L679 607 L679 607 L679 607 Z M55 599 C54 600 55 601 56 602 C56 601 56 600 56 599 L55 599 L55 599 Z M681 595 L682 595 L682 595 L681 595 L681 595 Z " />
<glyph glyph-name="U_sc" unicode="&#x1d1c;" horiz-adv-x="640" d="M515 0 L576 16 L576 627 L454 627 L454 184 C427 125 341 68 280 68 C227 68 176 137 176 207 L176 627 L54 627 L54 207 C54 97 142 -10 231 -10 C311 -10 421 59 454 129 L454 0 L515 0 L515 0 Z " />
<glyph glyph-name="V_sc" unicode="&#x1d20;" horiz-adv-x="679" d="M663 627 L476 627 L476 624 L491 624 C532 624 553 579 538 532 L396 178 L206 532 C184 579 193 624 227 624 L240 624 L240 627 L-8 627 L-8 624 L-4 624 C6 624 40 574 64 524 L64 524 C149 346 234 168 319 -10 L343 -10 C422 168 500 347 579 524 C601 574 639 624 656 624 L662 624 L663 627 L663 627 Z " />
<glyph glyph-name="W_sc" unicode="&#x1d21;" horiz-adv-x="949" d="M939 627 L753 627 L753 624 L767 624 C806 624 833 589 826 551 L713 168 C655 293 596 419 538 544 C519 584 533 624 567 624 L579 624 L579 627 L337 627 L337 624 C354 624 377 595 398 556 L462 418 L365 146 L185 549 C170 587 177 624 201 624 L210 624 L210 627 L-7 627 L-7 624 C8 624 34 586 54 544 L54 544 L310 -10 L340 -10 L484 371 C543 244 602 117 661 -10 L691 -10 L872 554 C887 590 915 624 932 624 L939 624 L939 627 L939 627 Z " />
<glyph glyph-name="Z_sc" unicode="&#x1d22;" horiz-adv-x="586" d="M70 519 L73 530 C82 560 135 591 185 596 L436 601 L24 25 L24 1 L564 1 L568 19 C568 19 578 65 589 112 L580 112 L575 101 C560 70 498 38 445 35 L169 28 L568 604 L568 628 L69 628 L68 611 C67 611 64 567 60 520 L70 519 L70 519 Z " />
<glyph glyph-name="Wgrave" unicode="&#x1e80;" horiz-adv-x="1100" d="M1090 794 L898 794 L898 791 L912 791 C950 791 978 756 972 719 L828 188 L608 720 C596 757 613 792 645 792 L657 792 L657 795 L400 795 L400 792 C417 792 441 761 460 721 C487 657 516 593 542 530 L413 163 L191 719 C178 757 187 793 211 793 L220 793 L220 796 L-12 796 L-12 793 C3 793 28 755 46 713 L46 713 C148 473 250 233 352 -8 L386 -8 L565 475 C635 314 705 153 775 -8 L809 -8 C880 232 950 473 1021 713 C1033 753 1063 793 1082 793 L1089 793 L1090 794 L1090 794 Z M325 1034 C325 1027 355 999 385 975 L529 857 L544 872 L437 1027 C415 1060 389 1092 383 1092 C357 1092 325 1060 325 1034 L325 1034 Z " />
<glyph glyph-name="Wacute" unicode="&#x1e82;" horiz-adv-x="1100" d="M538 855 L682 973 C712 998 742 1027 742 1032 C742 1058 710 1090 684 1090 C679 1090 653 1058 630 1025 L523 870 L538 855 L538 855 Z M1090 794 L898 794 L898 791 L912 791 C950 791 978 756 972 719 L828 188 L608 720 C596 757 613 792 645 792 L657 792 L657 795 L400 795 L400 792 C417 792 441 761 460 721 C487 657 516 593 542 530 L413 163 L191 719 C178 757 187 793 211 793 L220 793 L220 796 L-12 796 L-12 793 C3 793 28 755 46 713 L46 713 C148 473 250 233 352 -8 L386 -8 L565 475 C635 314 705 153 775 -8 L809 -8 C880 232 950 473 1021 713 C1033 753 1063 793 1082 793 L1089 793 L1090 794 L1090 794 Z " />
<glyph glyph-name="Wdieresis" unicode="&#x1e84;" horiz-adv-x="1100" d="M612 909 C649 909 686 946 686 983 C686 1021 649 1058 612 1058 C575 1058 538 1021 538 983 C538 946 575 909 612 909 L612 909 Z M446 909 C483 909 520 946 520 983 C520 1021 483 1058 446 1058 C409 1058 372 1021 372 983 C372 946 409 909 446 909 L446 909 Z M1090 794 L898 794 L898 791 L912 791 C950 791 978 756 972 719 L828 188 L608 720 C596 757 613 792 645 792 L657 792 L657 795 L400 795 L400 792 C417 792 441 761 460 721 C487 657 516 593 542 530 L413 163 L191 719 C178 757 187 793 211 793 L220 793 L220 796 L-12 796 L-12 793 C3 793 28 755 46 713 L46 713 C148 473 250 233 352 -8 L386 -8 L565 475 C635 314 705 153 775 -8 L809 -8 C880 232 950 473 1021 713 C1033 753 1063 793 1082 793 L1089 793 L1090 794 L1090 794 Z " />
<glyph glyph-name="Etilde" unicode="&#x1ebc;" horiz-adv-x="630" d="M161 914 C161 942 185 969 209 969 C257 969 353 904 401 904 C445 904 489 974 489 1045 L483 1045 C483 1015 456 985 428 985 C380 985 284 1050 236 1050 C195 1050 155 983 155 914 L161 914 L161 914 Z M498 323 L498 502 L489 502 L486 489 C479 453 433 417 393 417 L221 417 L221 785 L454 785 C494 785 544 749 556 713 L560 700 L569 700 C567 723 561 767 558 790 L559 790 L558 794 L86 794 L86 0 L583 0 L584 4 C587 4 598 79 599 84 L590 84 L585 72 C572 40 509 9 456 9 L256 9 C230 9 222 21 222 34 L222 408 L394 408 C434 408 480 372 487 336 L490 323 L498 323 L498 323 Z " />
<glyph glyph-name="Ygrave" unicode="&#x1ef2;" horiz-adv-x="704" d="M219 794 L-13 794 L-13 791 C-1 791 17 772 36 746 L294 336 L294 0 L430 0 L430 354 L635 738 C653 770 682 792 708 792 L708 795 L569 795 L569 792 L587 792 C615 792 628 765 614 737 L614 737 L426 367 C351 490 274 614 200 737 C183 765 188 792 211 792 L219 792 L219 794 L219 794 Z M159 1033 C159 1026 189 998 219 974 L363 856 L378 871 L271 1026 C249 1059 223 1091 217 1091 C191 1091 159 1059 159 1033 L159 1033 Z " />
<glyph glyph-name="quoteleft" unicode="&#x2018;" horiz-adv-x="715" d="M90 684 C78 684 66 675 58 663 C54 725 94 790 131 793 L121 804 C72 800 24 722 24 647 C24 611 57 576 91 576 C118 576 145 603 145 630 C145 657 118 684 91 684 L90 684 L90 684 Z " />
<glyph glyph-name="quoteright" unicode="&#x2019;" horiz-adv-x="193" d="M111 717 C111 659 70 594 28 587 L39 576 C93 585 145 666 145 738 C145 771 112 804 78 804 C51 804 24 777 24 750 C24 723 51 696 78 696 C91 696 103 705 111 718 L111 717 L111 717 Z " />
<glyph glyph-name="quotedblleft" unicode="&#x201c;" horiz-adv-x="715" d="M273 684 C261 684 249 675 241 663 C237 725 277 790 314 793 L304 804 C255 800 207 722 207 647 C207 611 240 576 274 576 C302 576 329 603 329 630 C329 657 302 684 274 684 L273 684 L273 684 Z M79 684 C67 684 55 675 47 663 C43 725 83 790 120 793 L110 804 C61 800 13 722 13 647 C13 611 46 576 80 576 C107 576 134 603 134 630 C134 657 107 684 80 684 L79 684 L79 684 Z " />
<glyph glyph-name="quotedblright" unicode="&#x201d;" horiz-adv-x="715" d="M307 718 C307 659 266 594 223 587 L234 576 C288 586 341 666 341 738 C341 771 307 804 273 804 C246 804 219 777 219 750 C219 723 246 696 273 696 C286 696 299 705 307 718 L307 718 Z M111 717 C111 659 70 594 28 587 L39 576 C93 585 145 666 145 738 C145 771 112 804 78 804 C51 804 24 777 24 750 C24 723 51 696 78 696 C91 696 103 705 111 718 L111 717 L111 717 Z " />
<glyph glyph-name="perthousand" unicode="&#x2030;" horiz-adv-x="1214" d="M992 224 C992 317 1014 408 1036 408 C1065 408 1094 295 1094 179 C1094 89 1069 1 1044 1 C1018 1 992 111 992 224 L992 224 Z M879 203 C879 95 959 -10 1041 -10 C1122 -10 1202 103 1202 218 C1202 319 1122 418 1041 418 C959 418 879 312 879 203 L879 203 Z M143 607 C143 701 165 794 188 794 C217 794 246 679 246 561 C246 474 221 388 196 388 C169 388 143 496 143 607 L143 607 Z M31 585 C31 479 111 376 193 376 C274 376 354 487 354 600 C354 703 274 804 193 804 C111 804 31 696 31 585 L31 585 Z M605 224 C605 316 632 407 659 407 C695 407 731 294 731 178 C731 89 699 1 667 1 C636 1 605 111 605 224 L605 224 Z M492 202 C492 95 577 -10 664 -10 C752 -10 839 103 839 218 C839 319 752 418 664 418 C577 418 492 311 492 202 L492 202 Z M201 -5 L679 789 L664 799 L185 5 L201 -5 L201 -5 Z " />
<glyph glyph-name="fraction" unicode="&#x2044;" horiz-adv-x="512" d="M38 -5 L516 789 L500 799 L22 5 L38 -5 L38 -5 Z " />
<glyph glyph-name="Euro" unicode="&#x20ac;" horiz-adv-x="852" d="M811 57 L811 126 C810 125 809 124 808 123 C809 124 810 125 811 126 L811 182 L798 182 C796 180 794 176 792 174 C766 141 723 95 699 76 C642 33 570 1 499 1 C391 1 285 133 250 291 L556 291 L568 373 L239 373 C238 390 238 407 239 424 L568 424 L579 506 L250 506 C286 664 397 796 510 796 C571 796 633 767 687 727 C717 704 769 651 791 620 C792 618 796 614 797 612 L810 612 L810 737 L805 737 C805 733 804 727 804 723 C802 708 778 710 753 725 C693 771 609 807 508 807 C334 807 163 670 108 507 L67 507 L55 425 L91 425 C90 408 90 391 91 374 L55 374 L43 292 L108 292 C161 129 327 -8 496 -8 C600 -8 693 27 755 73 C780 88 803 89 805 73 C805 69 806 63 806 59 L811 57 L811 57 Z " />
<glyph glyph-name="F_sc" unicode="&#xa730;" horiz-adv-x="527" d="M410 237 L410 416 L401 416 L398 403 C391 367 345 331 305 331 L211 331 L211 621 L376 621 C416 621 466 585 478 549 L482 536 L491 536 C489 558 483 602 481 624 L480 624 L480 627 L89 627 L89 0 L211 0 L211 322 L305 322 C345 322 391 286 398 250 L401 237 L410 237 L410 237 Z " />
<glyph glyph-name="S_sc" unicode="&#xa731;" horiz-adv-x="512" d="M48 168 L48 24 L53 24 C53 29 54 39 54 44 C55 65 83 67 111 49 C156 14 215 -11 263 -11 C369 -11 473 80 473 172 C473 243 396 341 299 376 C220 405 156 466 156 505 C156 567 200 627 245 627 C267 627 292 618 316 604 C338 589 385 539 415 498 C417 496 419 492 421 490 L434 490 L434 597 L429 597 C429 594 428 588 428 585 C427 573 402 577 379 593 L379 593 C339 620 286 639 244 634 C149 624 60 546 60 457 C60 381 133 280 225 247 C308 217 375 164 375 135 C375 66 319 -1 262 -1 C233 -1 196 16 162 42 C146 58 102 110 68 157 C66 159 64 163 62 165 L48 168 L48 168 Z " />
<glyph glyph-name="X_sc" unicode="&#xf078;" horiz-adv-x="658" d="M167 3 L149 3 C123 3 115 27 132 53 L289 263 C337 195 386 126 434 58 C454 30 451 3 428 3 L420 3 L420 0 L637 0 L637 3 C625 3 601 28 580 57 L368 357 L570 575 C600 604 634 624 660 624 L660 627 L489 627 L489 624 L507 624 C533 624 540 601 523 575 L360 367 L217 569 C197 597 200 624 223 624 L231 624 L231 627 L14 627 L14 624 C27 624 49 602 70 574 L273 286 L84 51 C58 23 26 4 1 4 L1 1 L167 1 L167 3 L167 3 Z " />
</font>
</svg>
