<?xml version="1.0" encoding="UTF-8"?>
<svg xmlns="http://www.w3.org/2000/svg" xmlns:xlink="http://www.w3.org/1999/xlink" version="1.2" >
<font id="Afrah Thin">
<font-face  font-family="Afrah" units-per-em="1024" ascent="1032" descent="-300" font-style="normal" font-weight="100" font-stretch="normal" cap-height="1085" x-height="516" underline-position="-125" underline-thickness="50" />
<missing-glyph  horiz-adv-x="100" d="" />
<glyph glyph-name="NULL" d="" />
<glyph glyph-name="CR" unicode="&#xd;" horiz-adv-x="256" d="" />
<glyph glyph-name="space" unicode="&#x20;" horiz-adv-x="283" d="" />
<glyph glyph-name="exclam" unicode="&#x21;" horiz-adv-x="164" d="M102 15 C102 41 62 41 62 16 C62 -10 102 -10 102 15 L102 15 Z M82 799 C74 799 69 766 70 732 L80 228 L84 228 L94 732 C95 766 90 799 82 799 L82 799 Z " />
<glyph glyph-name="quotedbl" unicode="&#x22;" horiz-adv-x="351" d="M220 794 C216 794 213 772 214 749 L221 604 L223 604 L230 749 C229 774 231 797 219 794 L220 794 L220 794 Z M99 794 C95 794 92 772 93 749 L100 604 L102 604 L109 749 C108 774 110 797 98 794 L99 794 L99 794 Z " />
<glyph glyph-name="numbersign" unicode="&#x23;" horiz-adv-x="563" d="M419 736 L388 512 L216 512 L247 736 L245 736 L214 512 L67 512 L65 496 L212 496 L172 208 L22 208 L20 192 L169 192 L143 0 L145 0 L171 192 L343 192 L317 0 L320 0 L346 192 L490 192 L493 208 L349 208 L389 496 L540 496 L543 512 L391 512 L422 736 L419 736 L419 736 Z M214 496 L386 496 L346 208 L174 208 L214 496 L214 496 Z " />
<glyph glyph-name="dollar" unicode="&#x24;" horiz-adv-x="567" d="M55 191 L55 61 L60 61 C60 66 61 76 61 81 C62 103 91 102 119 78 L119 78 C154 48 197 23 240 7 L240 -75 L255 -75 L255 2 C277 -5 299 -9 320 -10 L320 -75 L335 -75 L335 -10 C434 -5 527 87 527 180 C527 249 442 357 335 407 L335 783 C389 763 449 707 464 662 C465 657 469 649 470 644 L483 644 L483 738 L478 738 C478 735 477 730 477 727 C476 716 456 719 436 733 C408 756 372 777 336 790 L336 868 L321 868 L321 795 C299 801 277 804 257 803 L257 868 L242 868 L242 802 C157 788 81 710 81 621 C81 571 148 490 242 428 L242 10 C220 19 198 30 177 43 C136 72 88 133 76 173 C75 178 71 187 70 192 L55 191 L55 191 Z M257 420 C278 407 300 395 323 384 L323 -8 C302 -7 280 -2 258 6 L257 420 L257 420 Z M338 378 C436 327 511 234 511 176 C511 87 427 -1 338 -7 L338 378 L338 378 Z M258 453 L258 803 C279 802 301 798 323 791 L323 416 C300 427 278 439 258 452 L258 453 L258 453 Z M243 462 C159 520 101 589 101 632 C101 715 170 797 243 803 L243 462 L243 462 Z " />
<glyph glyph-name="percent" unicode="&#x25;" horiz-adv-x="822" d="M50 593 C50 699 114 802 180 802 C247 802 312 695 312 585 C312 480 248 378 182 378 C115 378 50 484 50 593 L50 593 Z M30 589 C30 481 105 376 181 376 C257 376 331 483 331 592 C331 699 257 804 181 804 C105 804 30 698 30 589 L30 589 Z M529 211 C529 315 592 416 657 416 C725 416 792 311 792 203 C792 96 726 -8 659 -8 C593 -8 529 100 529 211 L529 211 Z M509 207 C509 97 583 -10 658 -10 C735 -10 810 99 810 210 C810 315 735 418 658 418 C583 418 509 314 509 207 L509 207 Z M182 -1 L661 793 L658 795 L180 1 L182 -1 L182 -1 Z " />
<glyph glyph-name="ampersand" unicode="&#x26;" horiz-adv-x="851" d="M311 471 L314 468 C382 489 449 561 449 614 C449 710 383 804 315 804 C237 804 160 706 160 607 C160 586 230 497 302 412 C302 412 391 311 502 180 C415 78 324 10 257 10 C167 10 78 109 78 211 C78 300 164 413 252 440 L248 441 C152 412 57 294 57 204 C57 96 150 -9 245 -9 C317 -9 415 65 507 176 C525 154 544 131 563 108 C613 49 680 -9 700 -9 C754 -9 817 70 827 150 L823 151 C814 78 757 7 708 7 C691 7 628 62 581 118 C560 143 539 168 519 192 C599 292 673 418 719 545 L714 545 C668 419 594 294 515 197 C406 326 320 424 320 424 C248 510 177 599 177 620 C177 711 245 801 315 801 C375 801 433 710 433 617 C433 563 373 492 311 473 L311 471 L311 471 Z " />
<glyph glyph-name="quotesingle" unicode="&#x27;" horiz-adv-x="216" d="M100 794 C96 794 93 772 94 749 L101 604 L103 604 L110 749 C109 774 111 797 99 794 L100 794 L100 794 Z " />
<glyph glyph-name="parenleft" unicode="&#x28;" horiz-adv-x="177" d="M165 804 C112 741 60 547 60 295 C60 43 112 -151 165 -214 L167 -212 C121 -157 75 34 75 295 C75 556 121 747 167 802 L165 804 L165 804 Z " />
<glyph glyph-name="parenright" unicode="&#x29;" horiz-adv-x="140" d="M9 802 C63 767 116 516 116 295 C116 74 63 -177 9 -212 L10 -214 C71 -175 130 77 130 295 C130 513 71 765 10 804 L9 802 L9 802 Z " />
<glyph glyph-name="asterisk" unicode="&#x2a;" horiz-adv-x="246" d="M257 729 C265 733 260 745 251 739 L150 674 L257 729 L257 729 Z M49 609 L150 674 L43 619 C36 614 41 603 50 609 L49 609 L49 609 Z M252 609 C261 603 266 615 258 619 L151 674 L252 609 L252 609 Z M50 739 C41 745 37 734 44 729 L151 674 L50 739 L50 739 Z M145 554 C145 544 157 544 157 554 L151 674 L145 554 L145 554 Z M151 674 L157 794 C157 804 145 804 145 794 L151 674 L151 674 Z " />
<glyph glyph-name="plus" unicode="&#x2b;" horiz-adv-x="647" d="M316 493 L316 276 L100 276 L100 262 L316 262 L316 46 L331 46 L331 262 L547 262 L547 276 L331 276 L331 493 L316 493 L316 493 Z " />
<glyph glyph-name="comma" unicode="&#x2c;" horiz-adv-x="257" d="M125 115 C95 115 65 85 65 55 C65 25 95 -5 125 -5 C149 -5 173 23 174 52 C179 38 182 22 182 6 C182 -52 124 -109 64 -109 L64 -110 C126 -110 186 -51 186 9 C186 52 164 115 124 115 L125 115 L125 115 Z " />
<glyph glyph-name="hyphen" unicode="&#x2d;" horiz-adv-x="457" d="M80 302 L377 302 L377 318 L80 318 L80 302 L80 302 Z " />
<glyph glyph-name="period" unicode="&#x2e;" horiz-adv-x="195" d="M145 15 C145 41 105 41 105 16 C105 -10 145 -10 145 15 L145 15 Z " />
<glyph glyph-name="slash" unicode="&#x2f;" horiz-adv-x="370" d="M328 814 L46 -80 L58 -80 L340 814 L328 814 L328 814 Z " />
<glyph glyph-name="zero" unicode="0" horiz-adv-x="646" d="M62 272 C62 397 193 546 327 546 C447 546 592 410 592 272 C592 147 461 -2 327 -2 C207 -2 62 134 62 272 L62 272 Z M53 272 C53 130 202 -10 327 -10 C465 -10 601 144 601 272 C601 414 452 554 327 554 C189 554 53 400 53 272 L53 272 Z " />
<glyph glyph-name="one" unicode="1" horiz-adv-x="144" d="M82 0 L82 544 L62 544 L62 0 L82 0 L82 0 Z " />
<glyph glyph-name="two" unicode="2" horiz-adv-x="542" d="M51 318 C73 430 174 539 256 539 C340 539 422 453 422 366 C422 259 207 93 27 2 L30 0 L447 0 L457 16 C459 19 467 32 467 32 L467 33 L464 30 C460 24 423 18 390 18 L64 18 C243 115 442 271 442 371 C442 463 355 554 266 554 C178 554 70 438 47 319 L51 318 L51 318 Z " />
<glyph glyph-name="three" unicode="3" horiz-adv-x="428" d="M19 -228 L20 -232 C206 -212 388 -99 388 -2 C388 87 243 174 93 175 C245 240 393 347 393 414 C393 484 310 552 226 552 C143 552 43 473 24 392 L28 391 C45 465 139 538 218 538 C296 538 372 473 372 407 C372 340 231 237 88 176 L88 172 L88 172 L88 172 C229 152 367 62 367 -10 C367 -103 195 -212 19 -230 L19 -228 L19 -228 Z " />
<glyph glyph-name="four" unicode="4" horiz-adv-x="671" d="M651 34 L649 34 C644 36 645 35 643 32 C640 23 616 15 593 15 L442 15 L442 576 L439 576 L15 4 L15 0 L422 0 L422 -220 L442 -220 L442 0 L591 0 C617 0 636 -2 639 -5 L645 -5 C649 6 650 22 652 34 L651 34 L651 34 Z M33 15 L423 541 L423 15 L33 15 L33 15 Z " />
<glyph glyph-name="five" unicode="5" horiz-adv-x="448" d="M313 544 L140 544 L78 258 L82 255 C243 255 400 152 400 38 C400 -75 232 -206 60 -227 L60 -231 C241 -209 418 -72 418 45 C418 164 255 276 89 276 L144 526 L365 527 L368 544 C368 546 368 548 368 549 L362 549 C359 546 337 544 313 544 L313 544 Z " />
<glyph glyph-name="six" unicode="6" horiz-adv-x="593" d="M577 794 C319 794 66 549 66 299 C66 143 188 -10 312 -10 C428 -10 542 121 542 254 C542 379 414 501 283 501 C199 501 117 431 91 348 C125 580 350 791 578 791 L577 794 L577 794 Z M86 288 C86 395 184 499 283 499 C404 499 522 378 522 255 C522 122 418 -8 311 -8 C197 -8 86 139 86 288 L86 288 Z " />
<glyph glyph-name="seven" unicode="7" horiz-adv-x="464" d="M80 539 C79 540 79 541 79 541 L80 540 L80 539 L80 539 Z M121 528 L456 527 L457 527 L123 -220 L138 -220 L459 528 L459 544 L80 544 C76 536 72 528 68 520 C69 520 73 518 73 518 C78 523 95 527 120 528 L121 528 L121 528 Z " />
<glyph glyph-name="eight" unicode="8" horiz-adv-x="570" d="M268 418 C272 416 276 414 280 412 C399 364 515 282 515 196 C515 92 405 -10 292 -10 C180 -10 71 86 71 183 C71 269 168 385 267 417 L268 418 L268 418 Z M266 418 C158 383 53 268 53 184 C53 86 171 -10 291 -10 C411 -10 529 89 529 189 C529 288 419 376 302 426 C403 460 501 561 501 632 C501 719 396 805 289 805 C182 805 77 714 77 621 C77 554 168 463 265 419 L266 418 L266 418 Z M299 427 C295 429 291 431 287 433 C189 473 93 564 93 629 C93 717 191 804 290 804 C388 804 484 718 484 630 C484 558 393 458 300 428 L299 427 L299 427 Z " />
<glyph glyph-name="nine" unicode="9" horiz-adv-x="593" d="M16 -250 C274 -250 527 -5 527 245 C527 401 405 554 281 554 C165 554 51 423 51 290 C51 165 179 43 310 43 C394 43 476 113 502 196 C468 -36 243 -247 15 -247 L16 -250 L16 -250 Z M507 256 C507 149 409 45 310 45 C189 45 71 166 71 289 C71 422 175 552 282 552 C396 552 507 405 507 256 L507 256 Z " />
<glyph glyph-name="colon" unicode="&#x3a;" horiz-adv-x="135" d="M145 449 C145 475 105 475 105 450 C105 424 145 424 145 449 L145 449 Z M145 15 C145 41 105 41 105 16 C105 -10 145 -10 145 15 L145 15 Z " />
<glyph glyph-name="semicolon" unicode="&#x3b;" horiz-adv-x="257" d="M145 449 C145 475 105 475 105 450 C105 424 145 424 145 449 L145 449 Z M125 115 C95 115 65 85 65 55 C65 25 95 -5 125 -5 C149 -5 173 23 174 52 C179 38 182 22 182 6 C182 -52 124 -109 64 -109 L64 -110 C126 -110 186 -51 186 9 C186 52 164 115 124 115 L125 115 L125 115 Z " />
<glyph glyph-name="equal" unicode="&#x3d;" horiz-adv-x="550" d="M73 226 L73 218 L480 218 L480 226 L73 226 L73 226 Z M73 326 L73 318 L480 318 L480 326 L73 326 L73 326 Z " />
<glyph glyph-name="question" unicode="&#x3f;" horiz-adv-x="309" d="M145 15 C145 41 105 41 105 16 C105 -10 145 -10 145 15 L145 15 Z M119 154 C119 154 122 380 125 381 C190 381 244 433 278 487 C292 509 305 556 305 583 C305 695 226 805 145 805 C135 805 126 798 126 790 C126 784 131 779 137 779 C141 779 148 783 152 783 C226 783 299 683 299 581 C299 559 286 518 273 497 C242 449 189 401 118 401 C116 400 115 154 115 154 L119 154 L119 154 Z " />
<glyph glyph-name="at" unicode="&#x40;" horiz-adv-x="1162" d="M1086 0 C1029 -122 779 -241 581 -241 C323 -241 71 17 71 281 C71 545 323 803 581 803 C839 803 1091 590 1091 373 C1091 186 989 2 885 2 C764 2 671 109 696 218 L766 522 L747 522 L719 401 C711 470 649 533 585 533 C448 533 314 377 314 218 C314 116 402 17 492 17 C558 17 640 95 673 183 C672 83 765 -5 881 -5 C995 -5 1107 182 1107 373 C1107 593 847 808 581 808 C315 808 55 547 55 281 C55 16 317 -244 585 -244 C784 -244 1036 -123 1093 0 L1086 0 L1086 0 Z M716 387 L677 218 C655 122 569 28 504 28 C420 28 337 124 337 222 C337 377 460 528 586 528 C652 528 716 459 717 387 L716 387 L716 387 Z " />
<glyph glyph-name="A" unicode="A" horiz-adv-x="603" d="M-28 0 L143 0 L143 3 L130 3 C96 3 77 48 89 95 L160 313 L444 313 L507 97 C519 48 498 2 463 2 L450 2 L450 -1 L603 -1 L603 2 L596 2 C577 2 544 52 529 102 L529 102 C459 339 390 576 320 813 L318 813 C320 801 314 787 305 786 L308 776 C258 622 209 468 158 315 L158 314 C135 244 113 173 89 103 C73 52 21 3 -15 3 L-28 3 L-28 0 L-28 0 Z M160 316 L308 775 L442 316 L160 316 L160 316 Z " />
<glyph glyph-name="B" unicode="B" horiz-adv-x="573" d="M255 1 L205 1 C171 1 137 17 137 34 L137 408 L277 408 C394 408 508 308 508 205 C508 66 383 1 255 1 L255 1 Z M257 0 C396 0 533 65 533 205 C533 308 409 409 282 409 L263 409 C400 419 527 509 527 600 C527 697 433 793 233 793 L114 793 L114 -1 L257 0 L257 0 Z M236 408 L137 408 L137 792 L230 792 C417 792 504 696 504 598 C504 502 371 408 236 408 L236 408 Z " />
<glyph glyph-name="C" unicode="C" horiz-adv-x="709" d="M658 134 L658 134 L658 134 L658 134 Z M661 62 L661 166 L648 166 C637 122 591 70 544 41 C492 12 429 -8 365 -8 C229 -8 96 192 96 397 C96 602 235 802 376 802 C433 802 486 785 533 759 C533 759 621 703 642 644 C643 640 647 632 648 628 L661 628 L661 729 L656 729 C656 725 655 719 655 715 C653 699 624 704 595 725 C537 770 461 804 376 804 C222 804 71 603 71 397 C71 191 216 -10 364 -10 C455 -10 540 25 600 70 C627 89 654 91 655 76 C655 72 656 66 656 62 L661 62 L661 62 Z " />
<glyph glyph-name="D" unicode="D" horiz-adv-x="757" d="M225 1 C158 1 137 17 137 34 L137 793 L267 793 C494 793 676 597 676 397 C676 177 453 1 225 1 L225 1 Z M228 0 C467 0 702 176 702 397 C702 597 511 794 273 794 L114 794 L114 0 L228 0 L228 0 Z " />
<glyph glyph-name="E" unicode="E" horiz-adv-x="546" d="M414 323 L414 494 L405 494 L402 481 C395 445 349 409 309 409 L137 409 L137 792 L369 792 C409 792 459 756 471 720 L475 707 L484 707 C482 729 477 771 474 793 L474 794 L114 794 L114 0 L499 0 L499 1 C502 20 509 58 512 77 L503 77 L498 65 C485 33 422 2 369 2 L171 2 C145 2 137 18 137 34 L137 408 L309 408 C349 408 395 372 402 336 L405 323 L414 323 L414 323 Z " />
<glyph glyph-name="F" unicode="F" horiz-adv-x="521" d="M404 323 L404 494 L395 494 L392 481 C385 445 339 409 299 409 L137 409 L137 793 L369 793 C409 793 459 757 471 721 L475 708 L484 708 C482 730 477 772 474 794 L114 794 L114 0 L137 0 L137 408 L299 408 C339 408 385 372 392 336 L395 323 L404 323 L404 323 Z " />
<glyph glyph-name="G" unicode="G" horiz-adv-x="732" d="M559 18 C595 28 618 41 618 54 L618 29 C569 16 512 5 454 -1 C494 3 530 10 558 18 L559 18 L559 18 Z M367 -5 C230 -5 95 194 95 397 C95 602 234 802 375 802 C432 802 485 785 532 759 C532 759 620 703 641 644 C642 640 646 632 647 628 L660 628 L660 729 L655 729 C655 725 654 719 654 715 C652 699 623 704 594 725 C536 770 460 804 375 804 C221 804 70 603 70 397 C70 191 215 -10 363 -10 C493 -10 639 26 718 63 L718 64 C697 54 670 44 640 35 L640 344 L617 344 L617 29 C546 15 430 -5 367 -5 L367 -5 Z " />
<glyph glyph-name="H" unicode="H" horiz-adv-x="714" d="M620 0 L620 794 L597 794 L597 407 L173 407 L173 794 L150 794 L150 0 L173 0 L173 405 L597 405 L597 0 L620 0 L620 0 Z " />
<glyph glyph-name="I" unicode="I" horiz-adv-x="245" d="M151 0 L151 794 L128 794 L128 0 L151 0 L151 0 Z " />
<glyph glyph-name="J" unicode="J" horiz-adv-x="245" d="M128 0 C128 -153 45 -217 -1 -217 C-11 -217 -9 -198 -19 -198 C-24 -198 -29 -203 -29 -209 C-29 -215 -16 -220 -3 -220 C51 -220 151 -143 151 44 L151 794 L128 794 L128 0 L128 0 Z " />
<glyph glyph-name="K" unicode="K" horiz-adv-x="600" d="M598 3 C577 3 547 21 519 47 L156 411 C251 516 345 621 440 725 C474 762 521 790 553 790 L553 793 L386 793 L386 790 L402 790 C441 790 445 751 415 707 L138 396 L138 793 L115 793 L115 -1 L138 -1 L138 396 L535 -1 L599 -1 L598 3 L598 3 Z " />
<glyph glyph-name="L" unicode="L" horiz-adv-x="543" d="M185 4 C159 4 151 19 151 34 L151 794 L128 794 L128 0 L519 0 L519 2 C522 21 529 60 532 79 L523 79 L518 67 C505 35 442 4 389 4 L185 4 L185 4 Z " />
<glyph glyph-name="M" unicode="M" horiz-adv-x="763" d="M729 794 L672 794 L404 28 L404 30 L116 794 L55 794 L55 791 C75 791 95 771 107 744 C101 514 96 283 89 53 C88 28 74 3 59 3 L53 3 L53 0 L131 0 L131 3 L125 3 C111 3 98 24 97 47 L112 731 L381 31 L393 1 L399 1 L400 6 L672 774 L689 47 C687 20 674 4 654 4 L654 1 L748 1 L748 4 L742 4 C728 4 713 29 712 54 L712 54 L694 750 C696 776 708 791 727 791 L729 794 L729 794 Z " />
<glyph glyph-name="N" unicode="N" horiz-adv-x="683" d="M42 791 C59 791 75 780 93 761 L93 53 C93 28 79 3 64 3 L58 3 L58 0 L135 0 L135 3 L129 3 C114 3 100 28 100 53 L100 53 L99 754 C102 751 105 748 107 745 L561 34 L582 0 L587 0 L589 741 L589 741 C589 766 603 791 618 791 L624 791 L624 794 L581 794 L581 791 C581 791 581 766 581 741 L582 47 L105 794 L42 794 L42 791 L42 791 Z " />
<glyph glyph-name="O" unicode="O" horiz-adv-x="801" d="M96 397 C96 602 248 802 403 802 C563 802 720 602 720 397 C720 192 559 -8 394 -8 C244 -8 96 192 96 397 L96 397 Z M71 397 C71 191 231 -10 394 -10 C572 -10 746 191 746 397 C746 603 577 804 404 804 C236 804 71 603 71 397 L71 397 Z " />
<glyph glyph-name="P" unicode="P" horiz-adv-x="525" d="M143 0 L143 381 L200 381 C354 381 505 462 505 574 C505 685 382 794 256 794 L120 794 L120 0 L143 0 L143 0 Z M143 386 L143 790 L250 790 C368 790 483 685 483 578 C483 466 343 386 200 386 L143 386 L143 386 Z " />
<glyph glyph-name="Q" unicode="Q" horiz-adv-x="796" d="M1129 -54 L1129 -53 C1104 -74 956 -94 829 -94 C667 -94 445 -53 378 -9 C383 -9 388 -9 393 -9 C571 -9 745 192 745 398 C745 604 576 805 403 805 C235 805 70 604 70 398 C70 206 209 19 360 -6 C436 -58 667 -108 826 -108 C946 -108 1096 -81 1129 -53 L1129 -54 L1129 -54 Z M373 -7 C231 9 96 202 96 398 C96 603 248 803 403 803 C563 803 720 603 720 398 C720 193 558 -8 392 -8 C386 -8 379 -7 373 -7 L373 -7 Z " />
<glyph glyph-name="R" unicode="R" horiz-adv-x="584" d="M574 0 C510 0 490 12 472 64 C418 217 364 367 353 397 C437 408 514 479 514 574 C514 685 423 794 331 794 L114 794 L114 0 L137 0 L137 396 L330 396 C337 371 392 214 445 64 C463 12 488 0 574 0 L574 0 Z M137 402 L137 789 L324 789 C407 789 488 685 488 578 C488 476 410 402 331 402 L137 402 L137 402 Z " />
<glyph glyph-name="S" unicode="S" horiz-adv-x="567" d="M482 645 L482 739 L477 739 C477 736 476 731 476 728 C475 717 455 720 435 734 C384 776 307 809 248 803 C160 793 78 713 78 621 C78 558 184 446 317 384 C423 335 507 235 507 174 C507 82 417 -9 325 -9 C279 -9 224 11 175 42 C134 71 86 132 74 172 C73 177 69 186 68 191 L55 191 L55 61 L60 61 C60 66 61 76 61 81 C62 103 91 102 119 78 L119 78 C178 27 260 -11 325 -11 C427 -11 526 84 526 180 C526 249 440 358 332 408 C201 469 97 573 97 630 C97 716 172 801 248 801 C282 801 320 791 356 775 C400 752 450 699 462 662 C463 657 467 649 468 644 L482 645 L482 645 Z " />
<glyph glyph-name="T" unicode="T" horiz-adv-x="801" d="M741 791 L740 791 L740 791 L741 791 L741 791 Z M777 713 C769 733 754 771 746 791 L744 791 C745 793 746 794 746 794 L54 794 L54 791 C46 771 31 733 23 713 L32 713 L40 725 C59 757 120 788 163 788 L388 788 L388 0 L412 0 L412 788 L637 788 C680 788 741 757 760 725 L768 713 L777 713 L777 713 Z M744 788 L746 788 C745 788 744 788 744 788 L744 788 Z M738 788 L739 788 L742 787 C740 787 739 787 738 787 L738 788 L738 788 Z " />
<glyph glyph-name="U" unicode="U" horiz-adv-x="577" d="M98 738 L98 738 C99 738 99 738 98 738 L98 738 Z M91 768 C86 781 79 791 79 791 L79 228 C79 108 145 -10 212 -10 C312 -10 449 75 489 161 L489 0 L501 0 L513 3 L513 794 L489 794 L489 172 C450 88 317 5 221 5 C161 5 102 115 102 228 L102 794 L91 794 L91 768 L91 768 Z " />
<glyph glyph-name="V" unicode="V" horiz-adv-x="649" d="M634 794 L486 794 L486 791 L501 791 C542 791 566 742 549 693 L310 30 L101 691 L102 691 C86 741 105 791 141 791 L154 791 L154 794 L18 794 L18 791 L22 791 C32 791 53 752 69 709 C145 469 220 229 296 -10 L301 -10 L562 706 C581 750 612 790 627 790 L633 790 L634 794 L634 794 Z " />
<glyph glyph-name="W" unicode="W" horiz-adv-x="997" d="M588 794 L453 794 L453 791 L458 791 C470 791 490 757 502 720 C519 656 536 592 552 529 L310 28 C245 256 179 484 115 711 C103 751 117 791 142 791 L151 791 L151 794 L41 794 L41 791 L45 791 C55 791 77 751 88 711 L88 711 C155 471 221 230 290 -9 L296 -9 L553 520 C599 344 645 168 691 -8 L697 -8 C770 232 843 473 917 713 C929 753 960 793 979 793 L986 793 L986 796 L838 796 L838 793 L852 793 C892 793 920 753 908 713 L704 35 L527 721 C521 758 543 793 575 793 L587 793 L588 794 L588 794 Z " />
<glyph glyph-name="X" unicode="X" horiz-adv-x="667" d="M174 794 L73 794 L73 791 C85 791 102 773 120 748 L337 395 L109 53 C86 23 56 3 31 3 L31 0 L158 0 L158 3 L140 3 C113 3 104 28 119 55 L340 391 C407 280 476 169 543 59 C560 31 555 4 532 4 L524 4 L524 1 L625 1 L625 4 C613 4 596 22 578 47 L354 413 C426 521 497 630 569 738 C590 770 624 793 651 793 L651 796 L522 796 L522 793 L540 793 C568 793 578 766 560 738 L354 416 C288 523 221 631 156 738 C139 766 144 793 167 793 L175 793 L174 794 L174 794 Z " />
<glyph glyph-name="Y" unicode="Y" horiz-adv-x="614" d="M131 794 L31 794 L31 791 C43 791 65 766 82 736 L82 736 L299 356 L299 0 L323 0 L323 359 C393 485 462 611 532 736 C549 768 580 791 606 791 L606 794 L484 794 L484 791 L502 791 C530 791 542 764 527 736 L527 736 L321 361 L107 737 C92 765 99 791 122 791 L130 791 L131 794 L131 794 Z " />
<glyph glyph-name="Z" unicode="Z" horiz-adv-x="654" d="M71 712 L75 724 C85 756 147 786 199 787 L611 788 L25 4 L25 -1 L633 -1 L634 2 C634 2 634 3 634 5 C637 17 643 48 651 81 L642 81 L637 69 C622 37 556 7 504 6 L52 5 L636 789 L636 794 L69 794 L69 791 C68 791 66 753 62 712 L71 712 L71 712 Z " />
<glyph glyph-name="bracketleft" unicode="&#x5b;" horiz-adv-x="277" d="M117 788 L327 788 L327 794 L110 794 L110 -195 L327 -195 L327 -189 L117 -189 L117 788 L117 788 Z " />
<glyph glyph-name="backslash" unicode="&#x5c;" horiz-adv-x="328" d="M46 814 L306 -80 L318 -80 L58 814 L46 814 L46 814 Z " />
<glyph glyph-name="bracketright" unicode="&#x5d;" horiz-adv-x="280" d="M163 788 L163 -189 L-47 -189 L-47 -195 L170 -195 L170 794 L-47 794 L-47 788 L163 788 L163 788 Z " />
<glyph glyph-name="asciicircum" unicode="&#x5e;" horiz-adv-x="373" d="M194 818 C191 826 184 826 181 818 L41 605 L44 603 L188 802 L332 603 L334 605 L194 818 L194 818 Z " />
<glyph glyph-name="underscore" unicode="&#x5f;" horiz-adv-x="515" d="M5 -50 L5 -61 L510 -61 L510 -50 L5 -50 L5 -50 Z " />
<glyph glyph-name="grave" unicode="&#x60;" horiz-adv-x="373" d="M-22 806 C-22 804 16 769 54 734 L191 608 L193 611 L63 743 C27 780 -9 816 -12 816 C-17 816 -22 811 -22 806 L-22 806 Z " />
<glyph glyph-name="a" unicode="a" horiz-adv-x="539" d="M549 57 L542 59 C538 34 510 9 486 9 C456 9 427 36 427 64 L427 393 C427 487 355 554 282 554 C180 554 81 449 81 404 C81 397 86 390 91 390 C104 390 116 396 116 400 C116 404 96 414 96 417 C96 458 187 552 279 552 C344 552 407 488 407 400 L407 291 C171 249 61 194 61 82 C61 36 123 -10 186 -10 C235 -10 332 30 407 93 L407 65 C407 30 442 -4 478 -4 C508 -4 543 27 549 58 L549 57 L549 57 Z M407 291 L407 95 C339 38 247 2 197 2 C138 2 81 43 81 85 C81 197 184 252 407 291 L407 291 Z " />
<glyph glyph-name="b" unicode="b" horiz-adv-x="475" d="M10 787 L10 782 L13 781 C19 780 25 757 25 734 L25 124 C24 124 23 124 23 124 C24 122 25 120 26 118 L26 0 L27 0 L35 75 L46 75 L46 83 C85 32 161 -10 226 -10 C330 -10 431 130 431 273 C431 412 316 549 199 549 C168 549 93 500 46 449 L46 794 L36 794 C30 790 17 788 11 787 L10 787 L10 787 Z M46 111 L46 446 C91 494 162 542 192 542 C301 542 408 407 408 270 C408 130 318 -7 227 -7 C158 -7 73 50 46 112 L46 111 L46 111 Z " />
<glyph glyph-name="c" unicode="c" horiz-adv-x="467" d="M437 136 L436 136 C408 65 309 -5 235 -5 C149 -5 64 133 64 274 C64 415 156 553 250 553 C315 553 398 502 417 449 C419 444 424 439 427 439 C434 439 439 444 437 449 C418 502 325 554 250 554 C146 554 45 410 45 263 C45 125 137 -10 231 -10 C306 -10 408 62 437 136 L437 136 Z " />
<glyph glyph-name="d" unicode="d" horiz-adv-x="560" d="M476 787 L476 782 L479 782 C485 780 491 757 491 734 L491 425 C464 487 388 554 332 554 C173 554 46 417 46 278 C46 135 173 -5 302 -5 C368 -5 461 36 492 78 L492 0 L502 0 C505 1 509 2 512 3 L512 794 C498 794 486 790 477 787 L476 787 L476 787 Z M492 408 L492 81 C463 41 374 3 311 3 C187 3 66 142 66 284 C66 417 185 548 334 548 C392 548 473 472 492 408 L492 408 Z " />
<glyph glyph-name="e" unicode="e" horiz-adv-x="558" d="M82 370 L528 370 C517 482 411 554 311 554 C177 554 45 438 45 259 C45 123 165 -10 287 -10 C378 -10 492 66 516 143 L515 143 C492 69 380 -4 289 -4 C176 -4 66 130 66 267 C66 304 72 339 82 370 L82 370 Z M506 372 L82 371 C119 484 214 553 311 553 C399 553 493 482 505 372 L506 372 L506 372 Z " />
<glyph glyph-name="f" unicode="f" horiz-adv-x="291" d="M106 0 L106 533 L281 533 L281 544 L106 544 C106 670 171 793 252 793 C287 793 338 679 367 679 C390 679 412 701 412 724 C412 762 336 799 259 799 C163 799 86 673 86 544 L-24 535 L-24 533 L86 533 L86 0 L106 0 L106 0 Z " />
<glyph glyph-name="g" unicode="g" horiz-adv-x="547" d="M551 485 C509 485 468 458 455 426 C431 496 355 555 278 555 C184 555 92 469 92 382 C92 298 174 216 263 207 C160 203 65 162 65 120 C65 78 125 37 189 34 C123 16 61 -42 61 -89 C61 -159 173 -228 288 -228 C402 -228 514 -158 514 -86 C514 -15 437 54 319 54 L199 54 C138 54 78 90 78 127 C78 167 177 207 279 207 C372 207 464 294 464 383 C464 397 462 411 458 425 C470 452 506 474 543 474 C547 474 555 466 559 466 C572 466 567 487 554 487 L551 485 L551 485 Z M192 34 C194 34 196 34 198 34 L317 34 C426 34 497 -28 497 -91 C497 -160 394 -227 288 -227 C181 -227 77 -156 77 -84 C77 -38 132 18 190 34 L192 34 L192 34 Z M278 208 C194 208 112 295 112 383 C112 470 194 555 278 555 C361 555 443 470 443 383 C443 295 361 208 278 208 L278 208 Z " />
<glyph glyph-name="h" unicode="h" horiz-adv-x="420" d="M35 787 L35 782 L38 781 C44 780 50 757 50 734 L50 0 L70 0 L70 411 C121 476 206 540 242 540 C305 540 356 490 356 439 L356 0 L376 0 L376 439 C376 497 322 554 254 554 C217 554 126 484 70 413 L70 794 L60 794 C54 790 41 788 35 787 L35 787 Z " />
<glyph glyph-name="i" unicode="i" horiz-adv-x="124" d="M90 679 C90 705 50 705 50 680 C50 654 90 654 90 679 L90 679 Z M45 537 L45 532 L48 531 C54 530 60 507 60 484 L60 0 L80 0 L80 544 L70 544 C64 540 51 538 45 537 L45 537 Z " />
<glyph glyph-name="j" unicode="j" horiz-adv-x="155" d="M75 679 C75 705 35 705 35 680 C35 654 75 654 75 679 L75 679 Z M30 537 L30 532 L33 531 C39 530 45 507 45 484 L45 12 C45 -48 26 -117 7 -128 C-23 -128 -80 -100 -110 -100 C-133 -100 -155 -120 -155 -140 C-155 -165 -125 -187 -95 -185 C-90 -185 -38 -157 10 -130 C38 -114 65 -44 65 12 L65 544 L55 544 C49 540 36 538 30 537 L30 537 Z " />
<glyph glyph-name="k" unicode="k" horiz-adv-x="338" d="M35 787 L35 782 L38 781 C44 780 50 757 50 734 L50 0 L70 0 L70 300 L72 302 L285 35 C298 17 306 3 298 3 L298 0 L339 0 C338 1 337 2 336 3 L334 5 L86 316 L265 483 C302 516 340 541 361 541 L361 544 L200 544 L200 541 L222 541 C272 541 268 491 214 441 L69 306 L69 794 L59 794 C53 790 40 788 34 787 L35 787 L35 787 Z " />
<glyph glyph-name="l" unicode="l" horiz-adv-x="114" d="M35 787 L35 782 L38 781 C44 780 50 757 50 734 L50 0 L70 0 L70 794 L60 794 C54 790 41 788 35 787 L35 787 Z " />
<glyph glyph-name="m" unicode="m" horiz-adv-x="750" d="M35 537 L35 532 L38 531 C44 530 50 507 50 484 L50 0 L70 0 L70 416 C118 478 201 539 237 539 C316 539 368 490 368 439 L368 0 L388 0 L388 417 C436 479 519 539 555 539 C634 539 686 490 686 439 L686 0 L706 0 L706 439 C706 497 650 554 563 554 C528 554 442 488 388 419 L388 439 C388 497 332 554 245 554 C210 554 124 487 70 418 L70 544 L60 544 C54 540 41 538 35 537 L35 537 Z " />
<glyph glyph-name="n" unicode="n" horiz-adv-x="432" d="M35 537 L35 532 L38 531 C44 530 50 507 50 484 L50 0 L70 0 L70 406 C124 476 208 544 238 544 C310 544 368 456 368 367 L368 0 L388 0 L388 367 C388 461 324 554 245 554 C214 554 127 482 70 409 L70 544 L60 544 C54 540 41 538 35 537 L35 537 Z " />
<glyph glyph-name="o" unicode="o" horiz-adv-x="622" d="M67 272 C67 413 188 552 311 552 C434 552 555 413 555 272 C555 131 434 -8 311 -8 C188 -8 67 131 67 272 L67 272 Z M45 272 C45 130 177 -10 311 -10 C445 -10 577 130 577 272 C577 414 445 554 311 554 C177 554 45 414 45 272 L45 272 Z " />
<glyph glyph-name="p" unicode="p" horiz-adv-x="490" d="M20 537 L20 532 L23 531 C29 530 35 507 35 484 L35 -220 L55 -220 L55 94 C87 39 143 -6 185 -6 C316 -6 445 146 445 273 C445 414 329 553 211 553 C155 553 79 510 55 465 L55 543 L45 543 C39 539 26 537 20 536 L20 537 L20 537 Z M55 136 L55 457 C78 502 149 545 201 545 C313 545 422 407 422 266 C422 145 305 -1 185 -1 C140 -1 75 67 54 136 L55 136 L55 136 Z " />
<glyph glyph-name="q" unicode="q" horiz-adv-x="538" d="M519 -220 L519 544 L518 544 L511 484 L499 472 L499 457 C459 510 376 554 305 554 C158 554 41 417 41 278 C41 135 173 -5 307 -5 C388 -5 480 32 499 70 L499 -220 L519 -220 L519 -220 Z M499 432 L499 77 C481 39 394 3 317 3 C188 3 62 142 62 284 C62 418 170 549 305 549 C380 549 471 493 499 432 L499 432 Z " />
<glyph glyph-name="r" unicode="r" horiz-adv-x="296" d="M36 537 L36 532 L39 531 C45 530 51 507 51 484 L51 0 L71 0 L71 18 L71 412 C105 479 181 545 227 545 C245 545 263 528 263 510 C263 495 287 495 287 510 C287 532 262 554 236 554 C187 554 106 485 71 415 L71 544 L61 544 C55 540 42 538 36 537 L36 537 Z " />
<glyph glyph-name="s" unicode="s" horiz-adv-x="442" d="M362 435 L362 495 L359 495 C359 493 358 491 358 489 C358 489 283 532 268 539 L268 538 C243 548 216 554 192 554 C128 554 66 493 66 430 C66 379 145 300 244 264 C318 237 377 168 377 119 C377 54 313 -9 248 -9 C213 -9 171 7 135 31 C98 58 63 98 63 129 L59 129 L59 59 L63 59 L63 67 C64 72 91 57 119 37 L119 37 C158 9 207 -10 247 -10 C320 -10 391 56 391 124 C391 177 329 252 252 280 C156 315 79 390 79 437 C79 496 134 553 191 553 C217 553 247 544 275 530 C316 508 357 468 357 435 L362 435 L362 435 Z " />
<glyph glyph-name="t" unicode="t" horiz-adv-x="323" d="M286 544 L118 544 L118 675 L117 675 L33 544 L33 534 L98 534 L98 112 C98 38 151 -10 206 -10 C233 -10 286 19 313 49 L311 51 C287 25 238 -1 212 -1 C165 -1 118 42 118 107 L118 533 L286 533 L286 544 L286 544 Z " />
<glyph glyph-name="u" unicode="u" horiz-adv-x="435" d="M376 544 L376 130 C344 64 259 4 194 4 C130 4 67 85 67 167 L67 544 L47 544 L47 167 C47 78 115 -10 184 -10 C252 -10 342 56 376 128 L376 0 L386 0 C389 1 393 2 396 3 L396 544 L376 544 L376 544 Z " />
<glyph glyph-name="v" unicode="v" horiz-adv-x="400" d="M371 544 L333 544 L333 541 L335 541 C341 541 337 514 328 486 L328 486 L161 -10 L167 -10 L339 490 C350 519 361 541 371 541 L371 544 L371 544 Z M56 544 L6 544 L6 541 C15 541 24 522 32 496 L161 -10 L173 27 L56 486 C56 486 43 541 54 541 L56 541 L56 544 L56 544 Z " />
<glyph glyph-name="w" unicode="w" horiz-adv-x="597" d="M273 544 L222 544 L222 541 C231 541 239 523 246 498 L272 380 L144 -10 L150 -10 L275 368 L357 -10 L363 -10 L534 486 C545 516 558 540 568 540 L568 543 L529 543 L529 540 L531 540 C537 540 533 513 524 485 L524 485 L370 30 L270 485 C270 485 260 540 270 540 L272 540 L273 544 L273 544 Z M56 543 L5 543 L5 540 C14 540 25 518 32 490 L144 -10 L157 31 L55 486 C49 514 49 541 55 541 L57 541 L56 543 L56 543 Z " />
<glyph glyph-name="x" unicode="x" horiz-adv-x="418" d="M343 0 L396 0 L396 3 C387 3 370 22 353 47 L214 272 C254 343 293 414 333 485 C349 515 369 540 378 540 L378 543 L341 543 L341 540 L343 540 C349 540 339 513 324 485 L324 485 L211 277 C168 346 125 416 83 485 C66 513 54 540 60 540 L62 540 L62 543 L10 543 L10 540 C19 540 35 522 52 497 L199 259 C151 192 103 124 55 57 C34 28 11 2 2 2 L2 -1 L38 -1 L38 2 L36 2 C31 2 45 29 64 57 L64 57 L202 254 C242 188 283 122 323 57 C340 29 351 2 346 2 L344 2 L343 0 L343 0 Z " />
<glyph glyph-name="y" unicode="y" horiz-adv-x="420" d="M399 544 L361 544 L361 541 L363 541 C369 541 366 516 358 489 C307 336 258 182 206 31 C160 183 113 335 67 486 C58 514 56 541 62 541 L64 541 L64 544 L14 544 L14 541 C23 541 33 524 42 500 L195 -2 C176 -57 157 -112 138 -167 C133 -181 117 -194 111 -194 C92 -194 81 -184 62 -184 C43 -184 25 -202 25 -221 C25 -241 45 -260 66 -260 C80 -260 127 -215 143 -169 L198 -10 C255 160 313 330 371 500 C381 525 390 541 399 541 L399 544 L399 544 Z " />
<glyph glyph-name="z" unicode="z" horiz-adv-x="502" d="M175 538 L438 539 L40 5 L40 0 L377 0 L455 -7 C455 -7 455 -4 456 0 L457 0 C457 17 461 36 463 55 L452 55 L448 47 C439 29 395 10 355 7 L65 6 L462 540 L462 545 L63 545 C60 545 54 519 48 491 L59 491 L64 499 C77 519 133 538 176 539 L175 538 L175 538 Z " />
<glyph glyph-name="braceleft" unicode="&#x7b;" horiz-adv-x="255" d="M250 794 L210 794 C143 794 78 730 78 665 L78 405 C78 369 50 333 21 333 L15 333 L15 331 L21 331 C50 331 78 287 78 243 L78 -1 C78 -66 143 -130 210 -130 L250 -130 L250 -129 L211 -129 C152 -129 94 -66 94 -1 L94 232 C94 283 59 332 23 332 C59 332 94 374 94 417 L94 665 C94 730 152 793 211 793 L250 793 L250 794 L250 794 Z " />
<glyph glyph-name="bar" unicode="&#x7c;" horiz-adv-x="136" d="M60 844 L60 -250 L76 -250 L76 844 L60 844 L60 844 Z " />
<glyph glyph-name="braceright" unicode="&#x7d;" horiz-adv-x="255" d="M5 794 L5 793 L44 793 C103 793 161 730 161 665 L161 417 C161 374 196 332 232 332 C196 332 161 283 161 232 L161 -1 C161 -66 103 -129 44 -129 L5 -129 L5 -130 L45 -130 C112 -130 177 -66 177 -1 L177 243 C177 287 205 331 234 331 L240 331 L240 333 L234 333 C205 333 177 369 177 405 L177 665 C177 730 112 794 45 794 L5 794 L5 794 Z " />
<glyph glyph-name="asciitilde" unicode="&#x7e;" horiz-adv-x="373" d="M24 332 C24 368 52 403 80 403 C133 403 235 338 288 338 C319 338 350 375 350 413 L349 413 C349 383 321 353 292 353 C239 353 137 418 84 418 C53 418 23 375 23 332 L24 332 L24 332 Z " />
<glyph glyph-name="exclamdown" unicode="&#xa1;" horiz-adv-x="164" d="M62 529 C62 503 102 503 102 528 C102 554 62 554 62 529 L62 529 Z M82 -255 C90 -255 95 -222 94 -188 C94 -188 84 189 84 316 L80 316 C80 189 70 -188 70 -188 C69 -222 74 -255 82 -255 L82 -255 Z " />
<glyph glyph-name="cent" unicode="&#xa2;" horiz-adv-x="467" d="M228 619 L228 552 C132 534 45 400 45 263 C45 126 135 -8 228 -11 L228 -76 L242 -76 L242 -11 C316 -5 410 64 438 134 L437 134 C410 65 316 -3 243 -7 L243 550 C312 556 399 500 418 447 C420 442 425 437 428 437 C435 437 440 442 438 447 C419 500 322 557 243 551 L243 616 L228 619 L228 619 Z M229 -8 C145 -1 65 133 65 270 C65 400 143 527 229 546 L229 -8 L229 -8 Z " />
<glyph glyph-name="acute" unicode="&#xb4;" horiz-adv-x="373" d="M192 608 C263 674 334 740 404 807 C404 812 399 817 394 817 C393 817 356 781 319 744 L189 612 L192 608 L192 608 Z " />
<glyph glyph-name="questiondown" unicode="&#xbf;" horiz-adv-x="309" d="M164 529 C164 503 204 503 204 528 C204 554 164 554 164 529 L164 529 Z M190 390 C190 390 187 164 184 163 C119 163 65 111 31 57 C17 35 4 -12 4 -39 C4 -151 83 -261 164 -261 C174 -261 183 -254 183 -246 C183 -240 178 -235 172 -235 C168 -235 161 -239 157 -239 C83 -239 10 -139 10 -37 C10 -15 23 26 36 47 C67 95 120 143 191 143 C193 144 194 390 194 390 L190 390 L190 390 Z " />
<glyph glyph-name="Agrave" unicode="&#xc0;" horiz-adv-x="603" d="M-28 0 L143 0 L143 3 L130 3 C96 3 77 48 89 95 L160 313 L444 313 L507 97 C519 48 498 2 463 2 L450 2 L450 -1 L603 -1 L603 2 L596 2 C577 2 544 52 529 102 L529 102 C459 339 390 576 320 813 L318 813 C320 801 314 787 305 786 L308 776 C258 622 209 468 158 315 L158 314 C135 244 113 173 89 103 C73 52 21 3 -15 3 L-28 3 L-28 0 L-28 0 Z M108 1056 C108 1054 146 1019 184 984 L321 858 L323 861 L193 993 C157 1030 121 1066 118 1066 C113 1066 108 1061 108 1056 L108 1056 Z M160 316 L308 775 L442 316 L160 316 L160 316 Z " />
<glyph glyph-name="Aacute" unicode="&#xc1;" horiz-adv-x="603" d="M322 858 C393 924 464 990 534 1057 C534 1062 529 1067 524 1067 C523 1067 486 1031 449 994 L319 862 L322 858 L322 858 Z M-29 1 L142 1 L142 4 L129 4 C95 4 76 49 88 96 L159 314 L443 314 L506 98 C518 49 497 3 462 3 L449 3 L449 0 L602 0 L602 3 L595 3 C576 3 543 53 528 103 L528 103 C458 340 389 577 319 814 L317 814 C319 802 313 788 304 787 L307 777 C257 623 208 469 157 316 L157 315 C134 245 112 174 88 104 C72 53 20 4 -16 4 L-29 4 L-29 1 L-29 1 Z M159 317 L307 776 L441 317 L159 317 L159 317 Z " />
<glyph glyph-name="Acircumflex" unicode="&#xc2;" horiz-adv-x="603" d="M-28 0 L143 0 L143 3 L130 3 C96 3 77 48 89 95 L160 313 L444 313 L507 97 C519 48 498 2 463 2 L450 2 L450 -1 L603 -1 L603 2 L596 2 C577 2 544 52 529 102 L529 102 C459 339 390 576 320 813 L318 813 C320 801 314 787 305 786 L308 776 C258 622 209 468 158 315 L158 314 C135 244 113 173 89 103 C73 52 21 3 -15 3 L-28 3 L-28 0 L-28 0 Z M324 1068 C321 1077 312 1076 309 1068 L170 855 L173 853 L317 1051 L460 853 L463 855 L324 1068 L324 1068 Z M160 316 L308 775 L442 316 L160 316 L160 316 Z " />
<glyph glyph-name="Atilde" unicode="&#xc3;" horiz-adv-x="603" d="M154 914 C154 950 181 985 209 985 C262 985 365 920 418 920 C449 920 480 957 480 995 L479 995 C479 965 451 935 422 935 C369 935 267 1000 214 1000 C183 1000 153 957 153 914 L154 914 L154 914 Z M-28 0 L143 0 L143 3 L130 3 C96 3 77 48 89 95 L160 313 L444 313 L507 97 C519 48 498 2 463 2 L450 2 L450 -1 L603 -1 L603 2 L596 2 C577 2 544 52 529 102 L529 102 C459 339 390 576 320 813 L318 813 C320 801 314 787 305 786 L308 776 C258 622 209 468 158 315 L158 314 C135 244 113 173 89 103 C73 52 21 3 -15 3 L-28 3 L-28 0 L-28 0 Z M160 316 L308 775 L442 316 L160 316 L160 316 Z " />
<glyph glyph-name="Adieresis" unicode="&#xc4;" horiz-adv-x="603" d="M400 929 C400 955 360 955 360 930 C360 904 400 904 400 929 L400 929 Z M273 929 C273 955 233 955 233 930 C233 904 273 904 273 929 L273 929 Z M-28 0 L143 0 L143 3 L130 3 C96 3 77 48 89 95 L160 313 L444 313 L507 97 C519 48 498 2 463 2 L450 2 L450 -1 L603 -1 L603 2 L596 2 C577 2 544 52 529 102 L529 102 C459 339 390 576 320 813 L318 813 C320 801 314 787 305 786 L308 776 C258 622 209 468 158 315 L158 314 C135 244 113 173 89 103 C73 52 21 3 -15 3 L-28 3 L-28 0 L-28 0 Z M160 316 L308 775 L442 316 L160 316 L160 316 Z " />
<glyph glyph-name="Aring" unicode="&#xc5;" horiz-adv-x="603" d="M227 949 C227 994 272 1039 317 1039 C362 1039 406 994 406 949 C406 908 357 859 317 859 C276 859 227 908 227 949 L227 949 Z M221 949 C221 906 273 854 317 854 C360 854 412 906 412 949 C412 997 365 1044 317 1044 C269 1044 221 997 221 949 L221 949 Z M-28 0 L143 0 L143 3 L130 3 C96 3 77 48 89 95 L160 313 L444 313 L507 97 C519 48 498 2 463 2 L450 2 L450 -1 L603 -1 L603 2 L596 2 C577 2 544 52 529 102 L529 102 C459 339 390 576 320 813 L318 813 C320 801 314 787 305 786 L308 776 C258 622 209 468 158 315 L158 314 C135 244 113 173 89 103 C73 52 21 3 -15 3 L-28 3 L-28 0 L-28 0 Z M160 316 L308 775 L442 316 L160 316 L160 316 Z " />
<glyph glyph-name="Egrave" unicode="&#xc8;" horiz-adv-x="546" d="M87 1056 C87 1054 124 1018 162 984 L298 858 L301 861 L171 993 C135 1030 99 1066 97 1066 C92 1066 87 1061 87 1056 L87 1056 Z M414 323 L414 494 L405 494 L402 481 C395 445 349 409 309 409 L137 409 L137 792 L369 792 C409 792 459 756 471 720 L475 707 L484 707 C482 729 477 771 474 793 L474 794 L114 794 L114 0 L499 0 L499 1 C502 20 509 58 512 77 L503 77 L498 65 C485 33 422 2 369 2 L171 2 C145 2 137 18 137 34 L137 408 L309 408 C349 408 395 372 402 336 L405 323 L414 323 L414 323 Z " />
<glyph glyph-name="Eacute" unicode="&#xc9;" horiz-adv-x="546" d="M300 858 L436 984 C474 1020 511 1055 511 1056 C511 1061 506 1066 501 1066 C501 1066 464 1030 427 993 L297 861 L300 858 L300 858 Z M414 323 L414 494 L405 494 L402 481 C395 445 349 409 309 409 L137 409 L137 792 L369 792 C409 792 459 756 471 720 L475 707 L484 707 C482 729 477 771 474 793 L474 794 L114 794 L114 0 L499 0 L499 1 C502 20 509 58 512 77 L503 77 L498 65 C485 33 422 2 369 2 L171 2 C145 2 137 18 137 34 L137 408 L309 408 C349 408 395 372 402 336 L405 323 L414 323 L414 323 Z " />
<glyph glyph-name="Ecircumflex" unicode="&#xca;" horiz-adv-x="546" d="M301 1068 C298 1076 291 1076 288 1068 L148 855 L151 853 L295 1052 L439 853 L442 855 L301 1068 L301 1068 Z M415 323 L415 494 L406 494 L403 481 C396 445 350 409 310 409 L138 409 L138 792 L370 792 C410 792 460 756 472 720 L476 707 L485 707 C483 729 478 771 475 793 L475 794 L115 794 L115 0 L500 0 L500 1 C503 20 510 58 513 77 L504 77 L499 65 C486 33 423 2 370 2 L172 2 C146 2 138 18 138 34 L138 408 L310 408 C350 408 396 372 403 336 L406 323 L415 323 L415 323 Z " />
<glyph glyph-name="Edieresis" unicode="&#xcb;" horiz-adv-x="546" d="M378 929 C378 955 338 955 338 930 C338 904 378 904 378 929 L378 929 Z M250 929 C250 955 210 955 210 930 C210 904 250 904 250 929 L250 929 Z M414 323 L414 494 L405 494 L402 481 C395 445 349 409 309 409 L137 409 L137 792 L369 792 C409 792 459 756 471 720 L475 707 L484 707 C482 729 477 771 474 793 L474 794 L114 794 L114 0 L499 0 L499 1 C502 20 509 58 512 77 L503 77 L498 65 C485 33 422 2 369 2 L171 2 C145 2 137 18 137 34 L137 408 L309 408 C349 408 395 372 402 336 L405 323 L414 323 L414 323 Z " />
<glyph glyph-name="Igrave" unicode="&#xcc;" horiz-adv-x="245" d="M-67 1056 C-67 1054 -30 1018 8 984 L144 858 L147 861 L17 993 C-19 1030 -55 1066 -57 1066 C-62 1066 -67 1061 -67 1056 L-67 1056 Z M151 0 L151 794 L128 794 L128 0 L151 0 L151 0 Z " />
<glyph glyph-name="Iacute" unicode="&#xcd;" horiz-adv-x="245" d="M146 858 L282 984 C320 1020 357 1055 357 1056 C357 1061 352 1066 347 1066 C347 1066 310 1030 273 993 L143 861 L146 858 L146 858 Z M151 0 L151 794 L128 794 L128 0 L151 0 L151 0 Z " />
<glyph glyph-name="Icircumflex" unicode="&#xce;" horiz-adv-x="245" d="M147 1068 C144 1076 137 1076 134 1068 L-6 855 L-3 853 L141 1052 L285 853 L288 855 L147 1068 L147 1068 Z M152 0 L152 794 L129 794 L129 0 L152 0 L152 0 Z " />
<glyph glyph-name="Idieresis" unicode="&#xcf;" horiz-adv-x="245" d="M224 929 C224 955 184 955 184 930 C184 904 224 904 224 929 L224 929 Z M96 929 C96 955 56 955 56 930 C56 904 96 904 96 929 L96 929 Z M151 0 L151 794 L128 794 L128 0 L151 0 L151 0 Z " />
<glyph glyph-name="Ntilde" unicode="&#xd1;" horiz-adv-x="683" d="M179 914 C179 950 206 985 234 985 C287 985 390 920 443 920 C474 920 504 957 504 995 L503 995 C503 965 475 935 447 935 C394 935 291 1000 238 1000 C208 1000 178 957 178 914 L179 914 L179 914 Z M42 791 C59 791 75 780 93 761 L93 53 C93 28 79 3 64 3 L58 3 L58 0 L135 0 L135 3 L129 3 C114 3 100 28 100 53 L100 53 L99 754 C102 751 105 748 107 745 L561 34 L582 0 L587 0 L589 741 L589 741 C589 766 603 791 618 791 L624 791 L624 794 L581 794 L581 791 C581 791 581 766 581 741 L582 47 L105 794 L42 794 L42 791 L42 791 Z " />
<glyph glyph-name="Ograve" unicode="&#xd2;" horiz-adv-x="801" d="M96 397 C96 602 248 802 403 802 C563 802 720 602 720 397 C720 192 559 -8 394 -8 C244 -8 96 192 96 397 L96 397 Z M71 397 C71 191 231 -10 394 -10 C572 -10 746 191 746 397 C746 603 577 804 404 804 C236 804 71 603 71 397 L71 397 Z M197 1056 C197 1054 234 1018 272 984 L408 858 L411 861 L281 993 C245 1030 209 1066 207 1066 C202 1066 197 1061 197 1056 L197 1056 Z " />
<glyph glyph-name="Oacute" unicode="&#xd3;" horiz-adv-x="801" d="M410 858 L546 984 C584 1020 621 1055 621 1056 C621 1061 616 1066 611 1066 C611 1066 574 1030 537 993 L407 861 L410 858 L410 858 Z M96 397 C96 602 248 802 403 802 C563 802 720 602 720 397 C720 192 559 -8 394 -8 C244 -8 96 192 96 397 L96 397 Z M71 397 C71 191 231 -10 394 -10 C572 -10 746 191 746 397 C746 603 577 804 404 804 C236 804 71 603 71 397 L71 397 Z " />
<glyph glyph-name="Ocircumflex" unicode="&#xd4;" horiz-adv-x="801" d="M96 397 C96 602 248 802 403 802 C563 802 720 602 720 397 C720 192 559 -8 394 -8 C244 -8 96 192 96 397 L96 397 Z M71 397 C71 191 231 -10 394 -10 C572 -10 746 191 746 397 C746 603 577 804 404 804 C236 804 71 603 71 397 L71 397 Z M411 1068 C408 1076 401 1076 398 1068 L258 855 L261 853 L405 1052 L549 853 L552 855 L411 1068 L411 1068 Z " />
<glyph glyph-name="Otilde" unicode="&#xd5;" horiz-adv-x="801" d="M242 914 C242 950 269 985 297 985 C350 985 453 920 506 920 C537 920 567 957 567 995 L566 995 C566 965 538 935 510 935 C457 935 354 1000 301 1000 C271 1000 241 957 241 914 L242 914 L242 914 Z M96 397 C96 602 248 802 403 802 C563 802 720 602 720 397 C720 192 559 -8 394 -8 C244 -8 96 192 96 397 L96 397 Z M71 397 C71 191 231 -10 394 -10 C572 -10 746 191 746 397 C746 603 577 804 404 804 C236 804 71 603 71 397 L71 397 Z " />
<glyph glyph-name="Odieresis" unicode="&#xd6;" horiz-adv-x="801" d="M488 929 C488 955 448 955 448 930 C448 904 488 904 488 929 L488 929 Z M360 929 C360 955 320 955 320 930 C320 904 360 904 360 929 L360 929 Z M96 397 C96 602 248 802 403 802 C563 802 720 602 720 397 C720 192 559 -8 394 -8 C244 -8 96 192 96 397 L96 397 Z M71 397 C71 191 231 -10 394 -10 C572 -10 746 191 746 397 C746 603 577 804 404 804 C236 804 71 603 71 397 L71 397 Z " />
<glyph glyph-name="Oslash" unicode="&#xd8;" horiz-adv-x="801" d="M72 -11 C72 -11 110 35 174 112 C234 38 313 -11 393 -11 C571 -11 745 190 745 396 C745 498 703 599 640 675 C675 717 710 760 745 803 L743 805 C708 762 673 720 638 678 C574 754 489 804 403 804 C235 804 70 603 70 397 C70 293 111 191 172 115 C108 38 70 -8 70 -8 L72 -11 L72 -11 Z M630 667 C452 453 287 254 183 128 C131 203 97 300 97 399 C97 604 249 804 404 804 C488 804 571 749 631 667 L630 667 L630 667 Z M633 665 C687 591 722 495 722 398 C722 193 561 -7 396 -7 C319 -7 242 46 186 125 C290 251 455 450 633 664 L633 665 L633 665 Z " />
<glyph glyph-name="Ugrave" unicode="&#xd9;" horiz-adv-x="577" d="M98 738 L98 738 C99 738 99 738 98 738 L98 738 Z M89 1056 C89 1054 126 1018 164 984 L300 858 L303 861 L173 993 C137 1030 101 1066 99 1066 C94 1066 89 1061 89 1056 L89 1056 Z M91 768 C86 781 79 791 79 791 L79 228 C79 108 145 -10 212 -10 C312 -10 449 75 489 161 L489 0 L501 0 L513 3 L513 794 L489 794 L489 172 C450 88 317 5 221 5 C161 5 102 115 102 228 L102 794 L91 794 L91 768 L91 768 Z " />
<glyph glyph-name="Uacute" unicode="&#xda;" horiz-adv-x="577" d="M302 858 L438 984 C476 1020 513 1055 513 1056 C513 1061 508 1066 503 1066 C503 1066 466 1030 429 993 L299 861 L302 858 L302 858 Z M98 738 L98 738 C99 738 99 738 98 738 L98 738 Z M91 768 C86 781 79 791 79 791 L79 228 C79 108 145 -10 212 -10 C312 -10 449 75 489 161 L489 0 L501 0 C504 1 510 2 513 3 L513 794 L489 794 L489 172 C450 88 317 5 221 5 C161 5 102 115 102 228 L102 794 L91 794 L91 768 L91 768 Z " />
<glyph glyph-name="Ucircumflex" unicode="&#xdb;" horiz-adv-x="577" d="M98 738 L98 738 C99 738 99 738 98 738 L98 738 Z M303 1068 C300 1076 293 1076 290 1068 L150 855 L153 853 L297 1052 L441 853 L444 855 L303 1068 L303 1068 Z M92 768 C87 781 80 791 80 791 L80 228 C80 108 146 -10 213 -10 C313 -10 450 75 490 161 L490 0 L502 0 L514 3 L514 794 L490 794 L490 172 C451 88 318 5 222 5 C162 5 103 115 103 228 L103 794 L92 794 L92 768 L92 768 Z " />
<glyph glyph-name="Udieresis" unicode="&#xdc;" horiz-adv-x="577" d="M380 929 C380 955 340 955 340 930 C340 904 380 904 380 929 L380 929 Z M252 929 C252 955 212 955 212 930 C212 904 252 904 252 929 L252 929 Z M98 738 L98 738 C99 738 99 738 98 738 L98 738 Z M91 768 C86 781 79 791 79 791 L79 228 C79 108 145 -10 212 -10 C312 -10 449 75 489 161 L489 0 L501 0 L513 3 L513 794 L489 794 L489 172 C450 88 317 5 221 5 C161 5 102 115 102 228 L102 794 L91 794 L91 768 L91 768 Z " />
<glyph glyph-name="Yacute" unicode="&#xdd;" horiz-adv-x="592" d="M306 858 L442 984 C480 1020 517 1055 517 1056 C517 1061 512 1066 507 1066 C507 1066 470 1030 433 993 L303 861 L306 858 L306 858 Z M120 794 L20 794 L20 791 C32 791 54 766 71 736 L71 736 L288 356 L288 0 L312 0 L312 359 C382 485 451 611 521 736 C538 768 569 791 595 791 L595 794 L473 794 L473 791 L491 791 C519 791 531 764 516 736 L516 736 L310 361 L96 737 C81 765 88 791 111 791 L119 791 L120 794 L120 794 Z " />
<glyph glyph-name="agrave" unicode="&#xe0;" horiz-adv-x="539" d="M549 57 L542 59 C538 34 510 9 486 9 C456 9 427 36 427 64 L427 393 C427 487 355 554 282 554 C180 554 81 449 81 404 C81 397 86 390 91 390 C104 390 116 396 116 400 C116 404 96 414 96 417 C96 458 187 552 279 552 C344 552 407 488 407 400 L407 291 C171 249 61 194 61 82 C61 36 123 -10 186 -10 C235 -10 332 30 407 93 L407 65 C407 30 442 -4 478 -4 C508 -4 543 27 549 58 L549 57 L549 57 Z M75 807 C75 805 112 769 150 735 L286 609 L289 612 L159 744 C123 781 87 817 85 817 C80 817 75 812 75 807 L75 807 Z M407 291 L407 95 C339 38 247 2 197 2 C138 2 81 43 81 85 C81 197 184 252 407 291 L407 291 Z " />
<glyph glyph-name="aacute" unicode="&#xe1;" horiz-adv-x="539" d="M288 608 L424 734 C462 770 499 805 499 806 C499 811 494 816 489 816 C489 816 452 780 415 743 L285 611 L288 608 L288 608 Z M549 57 L542 59 C538 34 510 9 486 9 C456 9 427 36 427 64 L427 393 C427 487 355 554 282 554 C180 554 81 449 81 404 C81 397 86 390 91 390 C104 390 116 396 116 400 C116 404 96 414 96 417 C96 458 187 552 279 552 C344 552 407 488 407 400 L407 291 C171 249 61 194 61 82 C61 36 123 -10 186 -10 C235 -10 332 30 407 93 L407 65 C407 30 442 -4 478 -4 C508 -4 543 27 549 58 L549 57 L549 57 Z M407 291 L407 95 C339 38 247 2 197 2 C138 2 81 43 81 85 C81 197 184 252 407 291 L407 291 Z " />
<glyph glyph-name="acircumflex" unicode="&#xe2;" horiz-adv-x="539" d="M549 57 L542 59 C538 34 510 9 486 9 C456 9 427 36 427 64 L427 393 C427 487 355 554 282 554 C180 554 81 449 81 404 C81 397 86 390 91 390 C104 390 116 396 116 400 C116 404 96 414 96 417 C96 458 187 552 279 552 C344 552 407 488 407 400 L407 291 C171 249 61 194 61 82 C61 36 123 -10 186 -10 C235 -10 332 30 407 93 L407 65 C407 30 442 -4 478 -4 C508 -4 543 27 549 58 L549 57 L549 57 Z M289 819 C286 827 279 827 276 819 L136 606 L139 604 L283 803 L427 604 L430 606 L289 819 L289 819 Z M408 291 L408 95 C340 38 248 2 198 2 C139 2 82 43 82 85 C82 197 185 252 408 291 L408 291 Z " />
<glyph glyph-name="atilde" unicode="&#xe3;" horiz-adv-x="539" d="M120 664 C120 700 147 735 175 735 C228 735 331 670 384 670 C415 670 445 707 445 745 L444 745 C444 715 416 685 388 685 C335 685 232 750 179 750 C149 750 119 707 119 664 L120 664 L120 664 Z M549 57 L542 59 C538 34 510 9 486 9 C456 9 427 36 427 64 L427 393 C427 487 355 554 282 554 C180 554 81 449 81 404 C81 397 86 390 91 390 C104 390 116 396 116 400 C116 404 96 414 96 417 C96 458 187 552 279 552 C344 552 407 488 407 400 L407 291 C171 249 61 194 61 82 C61 36 123 -10 186 -10 C235 -10 332 30 407 93 L407 65 C407 30 442 -4 478 -4 C508 -4 543 27 549 58 L549 57 L549 57 Z M407 291 L407 95 C339 38 247 2 197 2 C138 2 81 43 81 85 C81 197 184 252 407 291 L407 291 Z " />
<glyph glyph-name="adieresis" unicode="&#xe4;" horiz-adv-x="539" d="M366 679 C366 705 326 705 326 680 C326 654 366 654 366 679 L366 679 Z M238 679 C238 705 198 705 198 680 C198 654 238 654 238 679 L238 679 Z M549 57 L542 59 C538 34 510 9 486 9 C456 9 427 36 427 64 L427 393 C427 487 355 554 282 554 C180 554 81 449 81 404 C81 397 86 390 91 390 C104 390 116 396 116 400 C116 404 96 414 96 417 C96 458 187 552 279 552 C344 552 407 488 407 400 L407 291 C171 249 61 194 61 82 C61 36 123 -10 186 -10 C235 -10 332 30 407 93 L407 65 C407 30 442 -4 478 -4 C508 -4 543 27 549 58 L549 57 L549 57 Z M407 291 L407 95 C339 38 247 2 197 2 C138 2 81 43 81 85 C81 197 184 252 407 291 L407 291 Z " />
<glyph glyph-name="aring" unicode="&#xe5;" horiz-adv-x="539" d="M193 699 C193 744 237 789 282 789 C327 789 371 744 371 699 C371 658 322 609 282 609 C242 609 193 658 193 699 L193 699 Z M187 699 C187 656 239 604 282 604 C325 604 377 656 377 699 C377 747 330 794 282 794 C234 794 187 747 187 699 L187 699 Z M549 57 L542 59 C538 34 510 9 486 9 C456 9 427 36 427 64 L427 393 C427 487 355 554 282 554 C180 554 81 449 81 404 C81 397 86 390 91 390 C104 390 116 396 116 400 C116 404 96 414 96 417 C96 458 187 552 279 552 C344 552 407 488 407 400 L407 291 C171 249 61 194 61 82 C61 36 123 -10 186 -10 C235 -10 332 30 407 93 L407 65 C407 30 442 -4 478 -4 C508 -4 543 27 549 58 L549 57 L549 57 Z M407 291 L407 95 C339 38 247 2 197 2 C138 2 81 43 81 85 C81 197 184 252 407 291 L407 291 Z " />
<glyph glyph-name="egrave" unicode="&#xe8;" horiz-adv-x="558" d="M104 806 C104 804 141 768 179 734 L315 608 L318 611 L188 743 C152 780 116 816 114 816 C109 816 104 811 104 806 L104 806 Z M82 370 L528 370 C517 482 411 554 311 554 C177 554 45 438 45 259 C45 123 165 -10 287 -10 C378 -10 492 66 516 143 L515 143 C492 69 380 -4 289 -4 C176 -4 66 130 66 267 C66 304 72 339 82 370 L82 370 Z M506 372 L82 371 C119 484 214 553 311 553 C399 553 493 482 505 372 L506 372 L506 372 Z " />
<glyph glyph-name="eacute" unicode="&#xe9;" horiz-adv-x="558" d="M317 608 L453 734 C491 770 528 805 528 806 C528 811 523 816 518 816 C518 816 481 780 444 743 L314 611 L317 608 L317 608 Z M82 370 L528 370 C517 482 411 554 311 554 C177 554 45 438 45 259 C45 123 165 -10 287 -10 C378 -10 492 66 516 143 L515 143 C492 69 380 -4 289 -4 C176 -4 66 130 66 267 C66 304 72 339 82 370 L82 370 Z M506 372 L82 371 C119 484 214 553 311 553 C399 553 493 482 505 372 L506 372 L506 372 Z " />
<glyph glyph-name="ecircumflex" unicode="&#xea;" horiz-adv-x="558" d="M318 818 C315 826 308 826 305 818 L165 605 L168 603 L312 802 L456 603 L459 605 L318 818 L318 818 Z M83 370 L529 370 C518 482 412 554 312 554 C178 554 46 438 46 259 C46 123 166 -10 288 -10 C379 -10 493 66 517 143 L516 143 C493 69 381 -4 290 -4 C177 -4 67 130 67 267 C67 304 73 339 83 370 L83 370 Z M507 372 L83 371 C120 484 215 553 312 553 C400 553 494 482 506 372 L507 372 L507 372 Z " />
<glyph glyph-name="edieresis" unicode="&#xeb;" horiz-adv-x="558" d="M395 679 C395 705 355 705 355 680 C355 654 395 654 395 679 L395 679 Z M267 679 C267 705 227 705 227 680 C227 654 267 654 267 679 L267 679 Z M82 370 L528 370 C517 482 411 554 311 554 C177 554 45 438 45 259 C45 123 165 -10 287 -10 C378 -10 492 66 516 143 L515 143 C492 69 380 -4 289 -4 C176 -4 66 130 66 267 C66 304 72 339 82 370 L82 370 Z M506 372 L82 371 C119 484 214 553 311 553 C399 553 493 482 505 372 L506 372 L506 372 Z " />
<glyph glyph-name="igrave" unicode="&#xec;" horiz-adv-x="170" d="M-106 806 C-106 804 -69 768 -31 734 L105 608 L108 611 L-22 743 C-58 780 -94 816 -96 816 C-101 816 -106 811 -106 806 L-106 806 Z M91 541 L91 0 L111 0 L111 544 L101 544 C99 543 94 541 91 541 L91 541 Z " />
<glyph glyph-name="iacute" unicode="&#xed;" horiz-adv-x="170" d="M-106 806 C-106 804 -69 768 -31 734 L105 608 L108 611 L-22 743 C-58 780 -94 816 -96 816 C-101 816 -106 811 -106 806 L-106 806 Z M91 541 L91 0 L111 0 L111 544 L101 544 C99 543 94 541 91 541 L91 541 Z " />
<glyph glyph-name="icircumflex" unicode="&#xee;" horiz-adv-x="170" d="M108 818 C105 826 98 826 95 818 L-45 605 L-42 603 L102 802 L246 603 L249 605 L108 818 L108 818 Z M92 541 L92 0 L112 0 L112 544 L102 544 C100 543 95 541 92 541 L92 541 Z " />
<glyph glyph-name="idieresis" unicode="&#xef;" horiz-adv-x="170" d="M185 679 C185 705 145 705 145 680 C145 654 185 654 185 679 L185 679 Z M57 679 C57 705 17 705 17 680 C17 654 57 654 57 679 L57 679 Z M91 541 L91 0 L111 0 L111 544 L101 544 C99 543 94 541 91 541 L91 541 Z " />
<glyph glyph-name="ntilde" unicode="&#xf1;" horiz-adv-x="432" d="M57 664 C57 700 84 735 112 735 C165 735 268 670 321 670 C352 670 382 707 382 745 L381 745 C381 715 353 685 325 685 C272 685 169 750 116 750 C86 750 56 707 56 664 L57 664 L57 664 Z M35 537 L35 532 L38 531 C44 530 50 507 50 484 L50 0 L70 0 L70 406 C124 476 208 544 238 544 C310 544 368 456 368 367 L368 0 L388 0 L388 367 C388 461 324 554 245 554 C214 554 127 482 70 409 L70 544 L60 544 C54 540 41 538 35 537 L35 537 Z " />
<glyph glyph-name="ograve" unicode="&#xf2;" horiz-adv-x="622" d="M67 272 C67 413 188 552 311 552 C434 552 555 413 555 272 C555 131 434 -8 311 -8 C188 -8 67 131 67 272 L67 272 Z M45 272 C45 130 177 -10 311 -10 C445 -10 577 130 577 272 C577 414 445 554 311 554 C177 554 45 414 45 272 L45 272 Z M104 806 C104 804 141 768 179 734 L315 608 L318 611 L188 743 C152 780 116 816 114 816 C109 816 104 811 104 806 L104 806 Z " />
<glyph glyph-name="oacute" unicode="&#xf3;" horiz-adv-x="622" d="M317 608 L453 734 C491 770 528 805 528 806 C528 811 523 816 518 816 C518 816 481 780 444 743 L314 611 L317 608 L317 608 Z M67 272 C67 413 188 552 311 552 C434 552 555 413 555 272 C555 131 434 -8 311 -8 C188 -8 67 131 67 272 L67 272 Z M45 272 C45 130 177 -10 311 -10 C445 -10 577 130 577 272 C577 414 445 554 311 554 C177 554 45 414 45 272 L45 272 Z " />
<glyph glyph-name="ocircumflex" unicode="&#xf4;" horiz-adv-x="622" d="M67 272 C67 413 188 552 311 552 C434 552 555 413 555 272 C555 131 434 -8 311 -8 C188 -8 67 131 67 272 L67 272 Z M45 272 C45 130 177 -10 311 -10 C445 -10 577 130 577 272 C577 414 445 554 311 554 C177 554 45 414 45 272 L45 272 Z M318 818 C315 826 308 826 305 818 L165 605 L168 603 L312 802 L456 603 L459 605 L318 818 L318 818 Z " />
<glyph glyph-name="otilde" unicode="&#xf5;" horiz-adv-x="622" d="M149 664 C149 700 176 735 204 735 C257 735 360 670 413 670 C444 670 474 707 474 745 L473 745 C473 715 445 685 417 685 C364 685 261 750 208 750 C178 750 148 707 148 664 L149 664 L149 664 Z M67 272 C67 413 188 552 311 552 C434 552 555 413 555 272 C555 131 434 -8 311 -8 C188 -8 67 131 67 272 L67 272 Z M45 272 C45 130 177 -10 311 -10 C445 -10 577 130 577 272 C577 414 445 554 311 554 C177 554 45 414 45 272 L45 272 Z " />
<glyph glyph-name="odieresis" unicode="&#xf6;" horiz-adv-x="622" d="M395 679 C395 705 355 705 355 680 C355 654 395 654 395 679 L395 679 Z M267 679 C267 705 227 705 227 680 C227 654 267 654 267 679 L267 679 Z M67 272 C67 413 188 552 311 552 C434 552 555 413 555 272 C555 131 434 -8 311 -8 C188 -8 67 131 67 272 L67 272 Z M45 272 C45 130 177 -10 311 -10 C445 -10 577 130 577 272 C577 414 445 554 311 554 C177 554 45 414 45 272 L45 272 Z " />
<glyph glyph-name="oslash" unicode="&#xf8;" horiz-adv-x="622" d="M46 -11 C46 -11 77 22 129 77 C179 25 245 -10 312 -10 C446 -10 578 130 578 272 C578 343 545 413 496 466 C523 495 551 524 579 553 L577 555 C549 526 521 497 494 468 C444 520 378 555 311 555 C177 555 45 415 45 273 C45 202 78 132 127 79 C75 24 44 -9 44 -9 L46 -11 L46 -11 Z M485 458 C347 311 218 175 136 88 C95 139 68 205 68 272 C68 413 189 552 312 552 C376 552 440 514 486 458 L485 458 L485 458 Z M488 456 C529 405 556 339 556 272 C556 131 435 -8 312 -8 C248 -8 184 30 138 86 C220 173 349 310 487 457 L488 456 L488 456 Z " />
<glyph glyph-name="ugrave" unicode="&#xf9;" horiz-adv-x="435" d="M14 806 C14 804 51 768 89 734 L225 608 L228 611 L98 743 C62 780 26 816 24 816 C19 816 14 811 14 806 L14 806 Z M376 544 L376 130 C344 64 259 4 194 4 C130 4 67 85 67 167 L67 544 L47 544 L47 167 C47 78 115 -10 184 -10 C252 -10 342 56 376 128 L376 0 L386 0 C389 1 393 2 396 3 L396 544 L376 544 L376 544 Z " />
<glyph glyph-name="uacute" unicode="&#xfa;" horiz-adv-x="435" d="M227 608 L363 734 C401 770 438 805 438 806 C438 811 433 816 428 816 C428 816 391 780 354 743 L224 611 L227 608 L227 608 Z M376 544 L376 130 C344 64 259 4 194 4 C130 4 67 85 67 167 L67 544 L47 544 L47 167 C47 78 115 -10 184 -10 C252 -10 342 56 376 128 L376 0 L386 0 C389 1 393 2 396 3 L396 544 L376 544 L376 544 Z " />
<glyph glyph-name="ucircumflex" unicode="&#xfb;" horiz-adv-x="435" d="M228 818 C225 826 218 826 215 818 L75 605 L78 603 L222 802 L366 603 L369 605 L228 818 L228 818 Z M377 544 L377 130 C345 64 260 4 195 4 C131 4 68 85 68 167 L68 544 L48 544 L48 167 C48 78 116 -10 185 -10 C253 -10 343 56 377 128 L377 0 L387 0 C390 1 394 2 397 3 L397 544 L377 544 L377 544 Z " />
<glyph glyph-name="udieresis" unicode="&#xfc;" horiz-adv-x="435" d="M305 679 C305 705 265 705 265 680 C265 654 305 654 305 679 L305 679 Z M177 679 C177 705 137 705 137 680 C137 654 177 654 177 679 L177 679 Z M376 544 L376 130 C344 64 259 4 194 4 C130 4 67 85 67 167 L67 544 L47 544 L47 167 C47 78 115 -10 184 -10 C252 -10 342 56 376 128 L376 0 L386 0 C389 1 393 2 396 3 L396 544 L376 544 L376 544 Z " />
<glyph glyph-name="ydieresis" unicode="&#xff;" horiz-adv-x="396" d="M288 679 C288 705 248 705 248 680 C248 654 288 654 288 679 L288 679 Z M161 679 C161 705 121 705 121 680 C121 654 161 654 161 679 L161 679 Z M391 544 L353 544 L353 541 L355 541 C361 541 358 516 350 489 C299 336 250 182 198 31 C152 183 105 335 59 486 C50 514 48 541 54 541 L56 541 L56 544 L6 544 L6 541 C15 541 25 524 34 500 L187 -2 C168 -57 149 -112 130 -167 C125 -181 109 -194 103 -194 C84 -194 73 -184 54 -184 C35 -184 17 -202 17 -221 C17 -241 37 -260 58 -260 C72 -260 119 -215 135 -169 L190 -10 C247 160 305 330 363 500 C373 525 382 541 391 541 L391 544 L391 544 Z " />
<glyph glyph-name="Amacron" unicode="&#x100;" horiz-adv-x="603" d="M147 951 L486 951 L486 964 L147 964 L147 951 L147 951 Z M-28 0 L143 0 L143 3 L130 3 C96 3 77 48 89 95 L160 313 L444 313 L507 97 C519 48 498 2 463 2 L450 2 L450 -1 L603 -1 L603 2 L596 2 C577 2 544 52 529 102 L529 102 C459 339 390 576 320 813 L318 813 C320 801 314 787 305 786 L308 776 C258 622 209 468 158 315 L158 314 C135 244 113 173 89 103 C73 52 21 3 -15 3 L-28 3 L-28 0 L-28 0 Z M160 316 L308 775 L442 316 L160 316 L160 316 Z " />
<glyph glyph-name="amacron" unicode="&#x101;" horiz-adv-x="539" d="M112 701 L452 701 L452 714 L112 714 L112 701 L112 701 Z M549 57 L542 59 C538 34 510 9 486 9 C456 9 427 36 427 64 L427 393 C427 487 355 554 282 554 C180 554 81 449 81 404 C81 397 86 390 91 390 C104 390 116 396 116 400 C116 404 96 414 96 417 C96 458 187 552 279 552 C344 552 407 488 407 400 L407 291 C171 249 61 194 61 82 C61 36 123 -10 186 -10 C235 -10 332 30 407 93 L407 65 C407 30 442 -4 478 -4 C508 -4 543 27 549 58 L549 57 L549 57 Z M407 291 L407 95 C339 38 247 2 197 2 C138 2 81 43 81 85 C81 197 184 252 407 291 L407 291 Z " />
<glyph glyph-name="Abreve" unicode="&#x102;" horiz-adv-x="603" d="M186 1039 C187 993 252 948 317 948 C382 948 446 993 447 1038 L443 1039 C442 1001 380 963 317 963 C254 963 191 1001 190 1039 L186 1039 L186 1039 Z M-28 0 L143 0 L143 3 L130 3 C96 3 77 48 89 95 L160 313 L444 313 L507 97 C519 48 498 2 463 2 L450 2 L450 -1 L603 -1 L603 2 L596 2 C577 2 544 52 529 102 L529 102 C459 339 390 576 320 813 L318 813 C320 801 314 787 305 786 L308 776 C258 622 209 468 158 315 L158 314 C135 244 113 173 89 103 C73 52 21 3 -15 3 L-28 3 L-28 0 L-28 0 Z M160 316 L308 775 L442 316 L160 316 L160 316 Z " />
<glyph glyph-name="abreve" unicode="&#x103;" horiz-adv-x="539" d="M152 789 C153 743 217 698 282 698 C347 698 411 743 412 788 L408 789 C407 751 345 713 282 713 C219 713 157 751 156 789 L152 789 L152 789 Z M549 57 L542 59 C538 34 510 9 486 9 C456 9 427 36 427 64 L427 393 C427 487 355 554 282 554 C180 554 81 449 81 404 C81 397 86 390 91 390 C104 390 116 396 116 400 C116 404 96 414 96 417 C96 458 187 552 279 552 C344 552 407 488 407 400 L407 291 C171 249 61 194 61 82 C61 36 123 -10 186 -10 C235 -10 332 30 407 93 L407 65 C407 30 442 -4 478 -4 C508 -4 543 27 549 58 L549 57 L549 57 Z M407 291 L407 95 C339 38 247 2 197 2 C138 2 81 43 81 85 C81 197 184 252 407 291 L407 291 Z " />
<glyph glyph-name="Cacute" unicode="&#x106;" horiz-adv-x="709" d="M382 858 L518 984 C556 1020 593 1055 593 1056 C593 1061 588 1066 583 1066 C583 1066 546 1030 509 993 L379 861 L382 858 L382 858 Z M658 134 L658 134 L658 134 L658 134 Z M661 62 L661 166 L648 166 C637 122 591 70 544 41 C492 12 429 -8 365 -8 C229 -8 96 192 96 397 C96 602 235 802 376 802 C433 802 486 785 533 759 C533 759 621 703 642 644 C643 640 647 632 648 628 L661 628 L661 729 L656 729 C656 725 655 719 655 715 C653 699 624 704 595 725 C537 770 461 804 376 804 C222 804 71 603 71 397 C71 191 216 -10 364 -10 C455 -10 540 25 600 70 C627 89 654 91 655 76 C655 72 656 66 656 62 L661 62 L661 62 Z " />
<glyph glyph-name="Ccircumflex" unicode="&#x108;" horiz-adv-x="709" d="M383 1068 C380 1076 373 1076 370 1068 L230 855 L233 853 L377 1052 L521 853 L524 855 L383 1068 L383 1068 Z M659 134 L659 134 L659 134 L659 134 Z M662 62 L662 166 L649 166 C638 122 592 70 545 41 C493 12 430 -8 366 -8 C230 -8 97 192 97 397 C97 602 236 802 377 802 C434 802 487 785 534 759 C534 759 622 703 643 644 C644 640 648 632 649 628 L662 628 L662 729 L657 729 C657 725 656 719 656 715 C654 699 625 704 596 725 C538 770 462 804 377 804 C223 804 72 603 72 397 C72 191 217 -10 365 -10 C456 -10 541 25 601 70 C628 89 655 91 656 76 C656 72 657 66 657 62 L662 62 L662 62 Z " />
<glyph glyph-name="Cdot" unicode="&#x10a;" horiz-adv-x="709" d="M396 929 C396 955 356 955 356 930 C356 904 396 904 396 929 L396 929 Z M658 134 L658 134 L658 134 L658 134 Z M661 62 L661 166 L648 166 C637 122 591 70 544 41 C492 12 429 -8 365 -8 C229 -8 96 192 96 397 C96 602 235 802 376 802 C433 802 486 785 533 759 C533 759 621 703 642 644 C643 640 647 632 648 628 L661 628 L661 729 L656 729 C656 725 655 719 655 715 C653 699 624 704 595 725 C537 770 461 804 376 804 C222 804 71 603 71 397 C71 191 216 -10 364 -10 C455 -10 540 25 600 70 C627 89 654 91 655 76 C655 72 656 66 656 62 L661 62 L661 62 Z " />
<glyph glyph-name="cdot" unicode="&#x10b;" horiz-adv-x="467" d="M270 679 C270 705 230 705 230 680 C230 654 270 654 270 679 L270 679 Z M437 136 L436 136 C408 65 309 -5 235 -5 C149 -5 64 133 64 274 C64 415 156 553 250 553 C315 553 398 502 417 449 C419 444 424 439 427 439 C434 439 439 444 437 449 C418 502 325 554 250 554 C146 554 45 410 45 263 C45 125 137 -10 231 -10 C306 -10 408 62 437 136 L437 136 Z " />
<glyph glyph-name="Ccaron" unicode="&#x10c;" horiz-adv-x="709" d="M520 1085 L376 886 L232 1085 L229 1083 L369 870 C372 862 379 862 382 870 L522 1083 L520 1085 L520 1085 Z M657 134 L657 134 L657 134 L657 134 Z M660 62 L660 166 L647 166 C636 122 590 70 543 41 C491 12 428 -8 364 -8 C228 -8 95 192 95 397 C95 602 234 802 375 802 C432 802 485 785 532 759 C532 759 620 703 641 644 C642 640 646 632 647 628 L660 628 L660 729 L655 729 C655 725 654 719 654 715 C652 699 623 704 594 725 C536 770 460 804 375 804 C221 804 70 603 70 397 C70 191 215 -10 363 -10 C454 -10 539 25 599 70 C626 89 653 91 654 76 C654 72 655 66 655 62 L660 62 L660 62 Z " />
<glyph glyph-name="ccaron" unicode="&#x10d;" horiz-adv-x="467" d="M394 835 L250 636 L106 835 L103 833 L243 620 C246 612 253 612 256 620 L396 833 L394 835 L394 835 Z M436 136 L435 136 C407 65 308 -5 234 -5 C148 -5 63 133 63 274 C63 415 155 553 249 553 C314 553 397 502 416 449 C418 444 423 439 426 439 C433 439 438 444 436 449 C417 502 324 554 249 554 C145 554 44 410 44 263 C44 125 136 -10 230 -10 C305 -10 407 62 436 136 L436 136 Z " />
<glyph glyph-name="Dcaron" unicode="&#x10e;" horiz-adv-x="757" d="M539 1085 L395 886 L251 1085 L248 1083 L388 870 C391 862 398 862 401 870 L541 1083 L539 1085 L539 1085 Z M224 1 C157 1 136 17 136 34 L136 793 L266 793 C493 793 675 597 675 397 C675 177 452 1 224 1 L224 1 Z M227 0 C466 0 701 176 701 397 C701 597 510 794 272 794 L113 794 L113 0 L227 0 L227 0 Z " />
<glyph glyph-name="dcaron" unicode="&#x10f;" horiz-adv-x="560" d="M598 803 C594 803 582 735 577 698 L560 587 L564 586 L587 695 C597 741 607 793 607 800 C607 802 603 803 598 803 L598 803 Z M476 787 L476 782 L479 782 C485 780 491 757 491 734 L491 425 C464 487 388 554 332 554 C173 554 46 417 46 278 C46 135 173 -5 302 -5 C368 -5 461 36 492 78 L492 0 L502 0 C505 1 509 2 512 3 L512 794 C498 794 486 790 477 787 L476 787 L476 787 Z M492 408 L492 81 C463 41 374 3 311 3 C187 3 66 142 66 284 C66 417 185 548 334 548 C392 548 473 472 492 408 L492 408 Z " />
<glyph glyph-name="Emacron" unicode="&#x112;" horiz-adv-x="546" d="M124 951 L464 951 L464 964 L124 964 L124 951 L124 951 Z M414 323 L414 494 L405 494 L402 481 C395 445 349 409 309 409 L137 409 L137 792 L369 792 C409 792 459 756 471 720 L475 707 L484 707 C482 729 477 771 474 793 L474 794 L114 794 L114 0 L499 0 L499 1 C502 20 509 58 512 77 L503 77 L498 65 C485 33 422 2 369 2 L171 2 C145 2 137 18 137 34 L137 408 L309 408 C349 408 395 372 402 336 L405 323 L414 323 L414 323 Z " />
<glyph glyph-name="emacron" unicode="&#x113;" horiz-adv-x="558" d="M141 701 L481 701 L481 714 L141 714 L141 701 L141 701 Z M82 370 L528 370 C517 482 411 554 311 554 C177 554 45 438 45 259 C45 123 165 -10 287 -10 C378 -10 492 66 516 143 L515 143 C492 69 380 -4 289 -4 C176 -4 66 130 66 267 C66 304 72 339 82 370 L82 370 Z M506 372 L82 371 C119 484 214 553 311 553 C399 553 493 482 505 372 L506 372 L506 372 Z " />
<glyph glyph-name="Ebreve" unicode="&#x114;" horiz-adv-x="546" d="M164 1039 C165 993 229 948 294 948 C359 948 423 993 424 1038 L420 1039 C419 1001 357 963 294 963 C231 963 169 1001 168 1039 L164 1039 L164 1039 Z M414 323 L414 494 L405 494 L402 481 C395 445 349 409 309 409 L137 409 L137 792 L369 792 C409 792 459 756 471 720 L475 707 L484 707 C482 729 477 771 474 793 L474 794 L114 794 L114 0 L499 0 L499 1 C502 20 509 58 512 77 L503 77 L498 65 C485 33 422 2 369 2 L171 2 C145 2 137 18 137 34 L137 408 L309 408 C349 408 395 372 402 336 L405 323 L414 323 L414 323 Z " />
<glyph glyph-name="ebreve" unicode="&#x115;" horiz-adv-x="558" d="M181 789 C182 743 246 698 311 698 C376 698 440 743 441 788 L437 789 C436 751 374 713 311 713 C248 713 186 751 185 789 L181 789 L181 789 Z M82 370 L528 370 C517 482 411 554 311 554 C177 554 45 438 45 259 C45 123 165 -10 287 -10 C378 -10 492 66 516 143 L515 143 C492 69 380 -4 289 -4 C176 -4 66 130 66 267 C66 304 72 339 82 370 L82 370 Z M506 372 L82 371 C119 484 214 553 311 553 C399 553 493 482 505 372 L506 372 L506 372 Z " />
<glyph glyph-name="Edot" unicode="&#x116;" horiz-adv-x="546" d="M314 929 C314 955 274 955 274 930 C274 904 314 904 314 929 L314 929 Z M414 323 L414 494 L405 494 L402 481 C395 445 349 409 309 409 L137 409 L137 792 L369 792 C409 792 459 756 471 720 L475 707 L484 707 C482 729 477 771 474 793 L474 794 L114 794 L114 0 L499 0 L499 1 C502 20 509 58 512 77 L503 77 L498 65 C485 33 422 2 369 2 L171 2 C145 2 137 18 137 34 L137 408 L309 408 C349 408 395 372 402 336 L405 323 L414 323 L414 323 Z " />
<glyph glyph-name="edot" unicode="&#x117;" horiz-adv-x="558" d="M331 679 C331 705 291 705 291 680 C291 654 331 654 331 679 L331 679 Z M82 370 L528 370 C517 482 411 554 311 554 C177 554 45 438 45 259 C45 123 165 -10 287 -10 C378 -10 492 66 516 143 L515 143 C492 69 380 -4 289 -4 C176 -4 66 130 66 267 C66 304 72 339 82 370 L82 370 Z M506 372 L82 371 C119 484 214 553 311 553 C399 553 493 482 505 372 L506 372 L506 372 Z " />
<glyph glyph-name="Ecaron" unicode="&#x11a;" horiz-adv-x="546" d="M438 1085 L294 886 L150 1085 L147 1083 L287 870 C290 862 297 862 300 870 L440 1083 L438 1085 L438 1085 Z M413 323 L413 494 L404 494 L401 481 C394 445 348 409 308 409 L136 409 L136 792 L368 792 C408 792 458 756 470 720 L474 707 L483 707 C481 729 476 771 473 793 L473 794 L113 794 L113 0 L498 0 L498 1 C501 20 508 58 511 77 L502 77 L497 65 C484 33 421 2 368 2 L170 2 C144 2 136 18 136 34 L136 408 L308 408 C348 408 394 372 401 336 L404 323 L413 323 L413 323 Z " />
<glyph glyph-name="ecaron" unicode="&#x11b;" horiz-adv-x="558" d="M455 835 L311 636 L167 835 L164 833 L304 620 C307 612 314 612 317 620 L457 833 L455 835 L455 835 Z M81 370 L527 370 C516 482 410 554 310 554 C176 554 44 438 44 259 C44 123 164 -10 286 -10 C377 -10 491 66 515 143 L514 143 C491 69 379 -4 288 -4 C175 -4 65 130 65 267 C65 304 71 339 81 370 L81 370 Z M505 372 L81 371 C118 484 213 553 310 553 C398 553 492 482 504 372 L505 372 L505 372 Z " />
<glyph glyph-name="Gcircumflex" unicode="&#x11c;" horiz-adv-x="732" d="M383 1068 C380 1076 373 1076 370 1068 L230 855 L233 853 L377 1052 L521 853 L524 855 L383 1068 L383 1068 Z M560 18 C596 28 619 41 619 54 L619 29 C570 16 513 5 455 -1 C495 3 531 10 559 18 L560 18 L560 18 Z M368 -5 C231 -5 96 194 96 397 C96 602 235 802 376 802 C433 802 486 785 533 759 C533 759 621 703 642 644 C643 640 647 632 648 628 L661 628 L661 729 L656 729 C656 725 655 719 655 715 C653 699 624 704 595 725 C537 770 461 804 376 804 C222 804 71 603 71 397 C71 191 216 -10 364 -10 C494 -10 640 26 719 63 L719 64 C698 54 671 44 641 35 L641 344 L618 344 L618 29 C547 15 431 -5 368 -5 L368 -5 Z " />
<glyph glyph-name="Gbreve" unicode="&#x11e;" horiz-adv-x="732" d="M246 1039 C247 993 311 948 376 948 C441 948 505 993 506 1038 L502 1039 C501 1001 439 963 376 963 C313 963 251 1001 250 1039 L246 1039 L246 1039 Z M559 18 C595 28 618 41 618 54 L618 29 C569 16 512 5 454 -1 C494 3 530 10 558 18 L559 18 L559 18 Z M367 -5 C230 -5 95 194 95 397 C95 602 234 802 375 802 C432 802 485 785 532 759 C532 759 620 703 641 644 C642 640 646 632 647 628 L660 628 L660 729 L655 729 C655 725 654 719 654 715 C652 699 623 704 594 725 C536 770 460 804 375 804 C221 804 70 603 70 397 C70 191 215 -10 363 -10 C493 -10 639 26 718 63 L718 64 C697 54 670 44 640 35 L640 344 L617 344 L617 29 C546 15 430 -5 367 -5 L367 -5 Z " />
<glyph glyph-name="gbreve" unicode="&#x11f;" horiz-adv-x="547" d="M147 789 C148 743 212 698 277 698 C342 698 406 743 407 788 L403 789 C402 751 340 713 277 713 C214 713 152 751 151 789 L147 789 L147 789 Z M551 485 C509 485 468 458 455 426 C431 496 355 555 278 555 C184 555 92 469 92 382 C92 298 174 216 263 207 C160 203 65 162 65 120 C65 78 125 37 189 34 C123 16 61 -42 61 -89 C61 -159 173 -228 288 -228 C402 -228 514 -158 514 -86 C514 -15 437 54 319 54 L199 54 C138 54 78 90 78 127 C78 167 177 207 279 207 C372 207 464 294 464 383 C464 397 462 411 458 425 C470 452 506 474 543 474 C547 474 555 466 559 466 C572 466 567 487 554 487 L551 485 L551 485 Z M192 34 C194 34 196 34 198 34 L317 34 C426 34 497 -28 497 -91 C497 -160 394 -227 288 -227 C181 -227 77 -156 77 -84 C77 -38 132 18 190 34 L192 34 L192 34 Z M278 208 C194 208 112 295 112 383 C112 470 194 555 278 555 C361 555 443 470 443 383 C443 295 361 208 278 208 L278 208 Z " />
<glyph glyph-name="Gdot" unicode="&#x120;" horiz-adv-x="732" d="M396 929 C396 955 356 955 356 930 C356 904 396 904 396 929 L396 929 Z M559 18 C595 28 618 41 618 54 L618 29 C569 16 512 5 454 -1 C494 3 530 10 558 18 L559 18 L559 18 Z M367 -5 C230 -5 95 194 95 397 C95 602 234 802 375 802 C432 802 485 785 532 759 C532 759 620 703 641 644 C642 640 646 632 647 628 L660 628 L660 729 L655 729 C655 725 654 719 654 715 C652 699 623 704 594 725 C536 770 460 804 375 804 C221 804 70 603 70 397 C70 191 215 -10 363 -10 C493 -10 639 26 718 63 L718 64 C697 54 670 44 640 35 L640 344 L617 344 L617 29 C546 15 430 -5 367 -5 L367 -5 Z " />
<glyph glyph-name="gdot" unicode="&#x121;" horiz-adv-x="547" d="M297 679 C297 705 257 705 257 680 C257 654 297 654 297 679 L297 679 Z M551 485 C509 485 468 458 455 426 C431 496 355 555 278 555 C184 555 92 469 92 382 C92 298 174 216 263 207 C160 203 65 162 65 120 C65 78 125 37 189 34 C123 16 61 -42 61 -89 C61 -159 173 -228 288 -228 C402 -228 514 -158 514 -86 C514 -15 437 54 319 54 L199 54 C138 54 78 90 78 127 C78 167 177 207 279 207 C372 207 464 294 464 383 C464 397 462 411 458 425 C470 452 506 474 543 474 C547 474 555 466 559 466 C572 466 567 487 554 487 L551 485 L551 485 Z M192 34 C194 34 196 34 198 34 L317 34 C426 34 497 -28 497 -91 C497 -160 394 -227 288 -227 C181 -227 77 -156 77 -84 C77 -38 132 18 190 34 L192 34 L192 34 Z M278 208 C194 208 112 295 112 383 C112 470 194 555 278 555 C361 555 443 470 443 383 C443 295 361 208 278 208 L278 208 Z " />
<glyph glyph-name="Hcircumflex" unicode="&#x124;" horiz-adv-x="714" d="M392 1068 C389 1076 382 1076 379 1068 L239 855 L242 853 L386 1052 L530 853 L533 855 L392 1068 L392 1068 Z M621 0 L621 794 L598 794 L598 407 L174 407 L174 794 L151 794 L151 0 L174 0 L174 405 L598 405 L598 0 L621 0 L621 0 Z " />
<glyph glyph-name="Itilde" unicode="&#x128;" horiz-adv-x="245" d="M-22 914 C-22 950 5 985 33 985 C86 985 189 920 242 920 C273 920 303 957 303 995 L302 995 C302 965 274 935 246 935 C193 935 90 1000 37 1000 C7 1000 -23 957 -23 914 L-22 914 L-22 914 Z M151 0 L151 794 L128 794 L128 0 L151 0 L151 0 Z " />
<glyph glyph-name="itilde" unicode="&#x129;" horiz-adv-x="170" d="M-61 664 C-61 700 -34 735 -6 735 C47 735 150 670 203 670 C234 670 264 707 264 745 L263 745 C263 715 235 685 207 685 C154 685 51 750 -2 750 C-32 750 -62 707 -62 664 L-61 664 L-61 664 Z M91 541 L91 0 L111 0 L111 544 L101 544 C99 543 94 541 91 541 L91 541 Z " />
<glyph glyph-name="Imacron" unicode="&#x12a;" horiz-adv-x="245" d="M-30 951 L310 951 L310 964 L-30 964 L-30 951 L-30 951 Z M151 0 L151 794 L128 794 L128 0 L151 0 L151 0 Z " />
<glyph glyph-name="imacron" unicode="&#x12b;" horiz-adv-x="170" d="M-69 701 L271 701 L271 714 L-69 714 L-69 701 L-69 701 Z M91 541 L91 0 L111 0 L111 544 L101 544 C99 543 94 541 91 541 L91 541 Z " />
<glyph glyph-name="Ibreve" unicode="&#x12c;" horiz-adv-x="245" d="M10 1039 C11 993 75 948 140 948 C205 948 269 993 270 1038 L266 1039 C265 1001 203 963 140 963 C77 963 15 1001 14 1039 L10 1039 L10 1039 Z M151 0 L151 794 L128 794 L128 0 L151 0 L151 0 Z " />
<glyph glyph-name="ibreve" unicode="&#x12d;" horiz-adv-x="170" d="M-29 789 C-28 743 36 698 101 698 C166 698 230 743 231 788 L227 789 C226 751 164 713 101 713 C38 713 -24 751 -25 789 L-29 789 L-29 789 Z M91 541 L91 0 L111 0 L111 544 L101 544 C99 543 94 541 91 541 L91 541 Z " />
<glyph glyph-name="Idot" unicode="&#x130;" horiz-adv-x="245" d="M160 929 C160 955 120 955 120 930 C120 904 160 904 160 929 L160 929 Z M151 0 L151 794 L128 794 L128 0 L151 0 L151 0 Z " />
<glyph glyph-name="dotlessi" unicode="&#x131;" horiz-adv-x="170" d="M91 541 L91 0 L111 0 L111 544 L101 544 C99 543 94 541 91 541 L91 541 Z " />
<glyph glyph-name="Jcircumflex" unicode="&#x134;" horiz-adv-x="245" d="M147 1068 C144 1076 137 1076 134 1068 L-6 855 L-3 853 L141 1052 L285 853 L288 855 L147 1068 L147 1068 Z M129 0 C129 -153 46 -217 0 -217 C-10 -217 -8 -198 -18 -198 C-23 -198 -28 -203 -28 -209 C-28 -215 -15 -220 -2 -220 C52 -220 152 -143 152 44 L152 794 L129 794 L129 0 L129 0 Z " />
<glyph glyph-name="Lacute" unicode="&#x139;" horiz-adv-x="543" d="M146 858 L282 984 C320 1020 357 1055 357 1056 C357 1061 352 1066 347 1066 C347 1066 310 1030 273 993 L143 861 L146 858 L146 858 Z M185 4 C159 4 151 19 151 34 L151 794 L128 794 L128 0 L519 0 L519 2 C522 21 529 60 532 79 L523 79 L518 67 C505 35 442 4 389 4 L185 4 L185 4 Z " />
<glyph glyph-name="Lcaron" unicode="&#x13d;" horiz-adv-x="543" d="M287 853 C282 853 271 785 266 748 L250 637 L253 636 L277 745 C287 787 296 839 296 850 C296 852 292 853 287 853 L287 853 Z M185 4 C159 4 151 19 151 34 L151 794 L128 794 L128 0 L519 0 L519 2 C522 21 529 60 532 79 L523 79 L518 67 C505 35 442 4 389 4 L185 4 L185 4 Z " />
<glyph glyph-name="lcaron" unicode="&#x13e;" horiz-adv-x="114" d="M157 803 C153 803 141 735 136 698 L119 587 L123 586 L146 695 C156 741 166 793 166 800 C166 802 162 803 157 803 L157 803 Z M35 787 L35 782 L38 781 C44 780 50 757 50 734 L50 0 L70 0 L70 794 L60 794 C54 790 41 788 35 787 L35 787 Z " />
<glyph glyph-name="Nacute" unicode="&#x143;" horiz-adv-x="683" d="M247 858 L383 984 C421 1020 458 1055 458 1056 C458 1061 453 1066 448 1066 C448 1066 411 1030 374 993 L244 861 L247 858 L247 858 Z M42 791 C59 791 75 780 93 761 L93 53 C93 28 79 3 64 3 L58 3 L58 0 L135 0 L135 3 L129 3 C114 3 100 28 100 53 L100 53 L99 754 C102 751 105 748 107 745 L561 34 L582 0 L587 0 L589 741 L589 741 C589 766 603 791 618 791 L624 791 L624 794 L581 794 L581 791 C581 791 581 766 581 741 L582 47 L105 794 L42 794 L42 791 L42 791 Z " />
<glyph glyph-name="Ncaron" unicode="&#x147;" horiz-adv-x="683" d="M485 1085 L341 886 L197 1085 L194 1083 L334 870 C337 862 344 862 347 870 L487 1083 L485 1085 L485 1085 Z M41 791 C58 791 74 780 92 761 L92 53 C92 28 78 3 63 3 L57 3 L57 0 L134 0 L134 3 L128 3 C113 3 99 28 99 53 L99 53 L98 754 C101 751 104 748 106 745 L560 34 L581 0 L586 0 L588 741 L588 741 C588 766 602 791 617 791 L623 791 L623 794 L580 794 L580 791 C580 791 580 766 580 741 L581 47 L104 794 L41 794 L41 791 L41 791 Z " />
<glyph glyph-name="ncaron" unicode="&#x148;" horiz-adv-x="432" d="M363 835 L219 636 L75 835 L72 833 L212 620 C215 612 222 612 225 620 L365 833 L363 835 L363 835 Z M34 537 L34 532 L37 531 C43 530 49 507 49 484 L49 0 L69 0 L69 406 C123 476 207 544 237 544 C309 544 367 456 367 367 L367 0 L387 0 L387 367 C387 461 323 554 244 554 C213 554 126 482 69 409 L69 544 L59 544 C53 540 40 538 34 537 L34 537 Z " />
<glyph glyph-name="Omacron" unicode="&#x14c;" horiz-adv-x="801" d="M234 951 L574 951 L574 964 L234 964 L234 951 L234 951 Z M96 397 C96 602 248 802 403 802 C563 802 720 602 720 397 C720 192 559 -8 394 -8 C244 -8 96 192 96 397 L96 397 Z M71 397 C71 191 231 -10 394 -10 C572 -10 746 191 746 397 C746 603 577 804 404 804 C236 804 71 603 71 397 L71 397 Z " />
<glyph glyph-name="omacron" unicode="&#x14d;" horiz-adv-x="622" d="M141 701 L481 701 L481 714 L141 714 L141 701 L141 701 Z M67 272 C67 413 188 552 311 552 C434 552 555 413 555 272 C555 131 434 -8 311 -8 C188 -8 67 131 67 272 L67 272 Z M45 272 C45 130 177 -10 311 -10 C445 -10 577 130 577 272 C577 414 445 554 311 554 C177 554 45 414 45 272 L45 272 Z " />
<glyph glyph-name="Obreve" unicode="&#x14e;" horiz-adv-x="801" d="M274 1039 C275 993 339 948 404 948 C469 948 533 993 534 1038 L530 1039 C529 1001 467 963 404 963 C341 963 279 1001 278 1039 L274 1039 L274 1039 Z M96 397 C96 602 248 802 403 802 C563 802 720 602 720 397 C720 192 559 -8 394 -8 C244 -8 96 192 96 397 L96 397 Z M71 397 C71 191 231 -10 394 -10 C572 -10 746 191 746 397 C746 603 577 804 404 804 C236 804 71 603 71 397 L71 397 Z " />
<glyph glyph-name="obreve" unicode="&#x14f;" horiz-adv-x="622" d="M181 789 C182 743 246 698 311 698 C376 698 440 743 441 788 L437 789 C436 751 374 713 311 713 C248 713 186 751 185 789 L181 789 L181 789 Z M67 272 C67 413 188 552 311 552 C434 552 555 413 555 272 C555 131 434 -8 311 -8 C188 -8 67 131 67 272 L67 272 Z M45 272 C45 130 177 -10 311 -10 C445 -10 577 130 577 272 C577 414 445 554 311 554 C177 554 45 414 45 272 L45 272 Z " />
<glyph glyph-name="Racute" unicode="&#x154;" horiz-adv-x="584" d="M307 858 L443 984 C481 1020 518 1055 518 1056 C518 1061 513 1066 508 1066 C508 1066 471 1030 434 993 L304 861 L307 858 L307 858 Z M574 0 C510 0 490 12 472 64 C418 217 364 367 353 397 C437 408 514 479 514 574 C514 685 423 794 331 794 L114 794 L114 0 L137 0 L137 396 L330 396 C337 371 392 214 445 64 C463 12 488 0 574 0 L574 0 Z M137 402 L137 789 L324 789 C407 789 488 685 488 578 C488 476 410 402 331 402 L137 402 L137 402 Z " />
<glyph glyph-name="Rcaron" unicode="&#x158;" horiz-adv-x="584" d="M445 1085 L301 886 L157 1085 L154 1083 L294 870 C297 862 304 862 307 870 L447 1083 L445 1085 L445 1085 Z M573 0 C509 0 489 12 471 64 C417 217 363 367 352 397 C436 408 513 479 513 574 C513 685 422 794 330 794 L113 794 L113 0 L136 0 L136 396 L329 396 C336 371 391 214 444 64 C462 12 487 0 573 0 L573 0 Z M136 402 L136 789 L323 789 C406 789 487 685 487 578 C487 476 409 402 330 402 L136 402 L136 402 Z " />
<glyph glyph-name="rcaron" unicode="&#x159;" horiz-adv-x="296" d="M310 835 L167 637 L23 835 L20 833 L159 620 C162 612 171 611 174 620 L313 833 L310 835 L310 835 Z M36 537 L36 532 L39 531 C45 530 51 507 51 484 L51 0 L71 0 L71 18 L71 412 C105 479 181 545 227 545 C245 545 263 528 263 510 C263 495 287 495 287 510 C287 532 262 554 236 554 C187 554 106 485 71 415 L71 544 L61 544 C55 540 42 538 36 537 L36 537 Z " />
<glyph glyph-name="Sacute" unicode="&#x15a;" horiz-adv-x="567" d="M293 858 C364 924 435 990 505 1057 C505 1062 500 1067 495 1067 C494 1067 457 1031 420 994 L290 862 L293 858 L293 858 Z M481 646 L481 740 L476 740 C476 737 475 732 475 729 C474 718 454 721 434 735 C383 777 306 810 247 804 C159 794 77 714 77 622 C77 559 183 447 316 385 C422 336 506 236 506 175 C506 83 416 -8 324 -8 C278 -8 223 12 174 43 C133 72 85 133 73 173 C72 178 68 187 67 192 L54 192 L54 62 L59 62 C59 67 60 77 60 82 C61 104 90 103 118 79 L118 79 C177 28 259 -10 324 -10 C426 -10 525 85 525 181 C525 250 439 359 331 409 C200 470 96 574 96 631 C96 717 171 802 247 802 C281 802 319 792 355 776 C399 753 449 700 461 663 C462 658 466 650 467 645 L481 646 L481 646 Z " />
<glyph glyph-name="Scircumflex" unicode="&#x15c;" horiz-adv-x="567" d="M482 645 L482 739 L477 739 C477 736 476 731 476 728 C475 717 455 720 435 734 C384 776 307 809 248 803 C160 793 78 713 78 621 C78 558 184 446 317 384 C423 335 507 235 507 174 C507 82 417 -9 325 -9 C279 -9 224 11 175 42 C134 71 86 132 74 172 C73 177 69 186 68 191 L55 191 L55 61 L60 61 C60 66 61 76 61 81 C62 103 91 102 119 78 L119 78 C178 27 260 -11 325 -11 C427 -11 526 84 526 180 C526 249 440 358 332 408 C201 469 97 573 97 630 C97 716 172 801 248 801 C282 801 320 791 356 775 C400 752 450 699 462 662 C463 657 467 649 468 644 L482 645 L482 645 Z M294 1067 C291 1076 282 1075 279 1067 L140 854 L143 852 L287 1050 L430 852 L433 854 L294 1067 L294 1067 Z " />
<glyph glyph-name="Scaron" unicode="&#x160;" horiz-adv-x="567" d="M431 1085 L288 887 L144 1085 L141 1083 L280 870 C283 862 292 861 295 870 L434 1083 L431 1085 L431 1085 Z M482 645 L482 739 L477 739 C477 736 476 731 476 728 C475 717 455 720 435 734 C384 776 307 809 248 803 C160 793 78 713 78 621 C78 558 184 446 317 384 C423 335 507 235 507 174 C507 82 417 -9 325 -9 C279 -9 224 11 175 42 C134 71 86 132 74 172 C73 177 69 186 68 191 L55 191 L55 61 L60 61 C60 66 61 76 61 81 C62 103 91 102 119 78 L119 78 C178 27 260 -11 325 -11 C427 -11 526 84 526 180 C526 249 440 358 332 408 C201 469 97 573 97 630 C97 716 172 801 248 801 C282 801 320 791 356 775 C400 752 450 699 462 662 C463 657 467 649 468 644 L482 645 L482 645 Z " />
<glyph glyph-name="scaron" unicode="&#x161;" horiz-adv-x="442" d="M392 835 L248 636 L104 835 L101 833 L241 620 C244 612 251 612 254 620 L394 833 L392 835 L392 835 Z M361 435 L361 495 L358 495 C358 493 357 491 357 489 C357 489 282 532 267 539 L267 538 C242 548 215 554 191 554 C127 554 65 493 65 430 C65 379 144 300 243 264 C317 237 376 168 376 119 C376 54 312 -9 247 -9 C212 -9 170 7 134 31 C97 58 62 98 62 129 L58 129 L58 59 L62 59 L62 67 C63 72 90 57 118 37 L118 37 C157 9 206 -10 246 -10 C319 -10 390 56 390 124 C390 177 328 252 251 280 C155 315 78 390 78 437 C78 496 133 553 190 553 C216 553 246 544 274 530 C315 508 356 468 356 435 L361 435 L361 435 Z " />
<glyph glyph-name="Tcaron" unicode="&#x164;" horiz-adv-x="801" d="M545 1085 L401 886 L257 1085 L254 1083 L394 870 C397 862 404 862 407 870 L547 1083 L545 1085 L545 1085 Z M740 791 L739 791 L739 791 L740 791 L740 791 Z M776 713 C768 733 753 771 745 791 L743 791 C744 793 745 794 745 794 L53 794 L53 791 C45 771 30 733 22 713 L31 713 L39 725 C58 757 119 788 162 788 L387 788 L387 0 L411 0 L411 788 L636 788 C679 788 740 757 759 725 L767 713 L776 713 L776 713 Z M743 788 L745 788 C744 788 743 788 743 788 L743 788 Z M737 788 L738 788 L741 787 C739 787 738 787 737 787 L737 788 L737 788 Z " />
<glyph glyph-name="tcaron" unicode="&#x165;" horiz-adv-x="323" d="M286 544 L118 544 L118 675 L117 675 L33 544 L33 534 L98 534 L98 112 C98 38 151 -10 206 -10 C233 -10 286 19 313 49 L311 51 C287 25 238 -1 212 -1 C165 -1 118 42 118 107 L118 533 L286 533 L286 544 L286 544 Z M370 803 C366 803 354 735 349 698 L332 587 L336 586 L359 695 C369 741 379 793 379 800 C379 802 375 803 370 803 L370 803 Z " />
<glyph glyph-name="Utilde" unicode="&#x168;" horiz-adv-x="577" d="M134 914 C134 950 161 985 189 985 C242 985 345 920 398 920 C429 920 459 957 459 995 L458 995 C458 965 430 935 402 935 C349 935 246 1000 193 1000 C163 1000 133 957 133 914 L134 914 L134 914 Z M98 738 L98 738 C99 738 99 738 98 738 L98 738 Z M91 768 C86 781 79 791 79 791 L79 228 C79 108 145 -10 212 -10 C312 -10 449 75 489 161 L489 0 L501 0 L513 3 L513 794 L489 794 L489 172 C450 88 317 5 221 5 C161 5 102 115 102 228 L102 794 L91 794 L91 768 L91 768 Z " />
<glyph glyph-name="utilde" unicode="&#x169;" horiz-adv-x="435" d="M59 664 C59 700 86 735 114 735 C167 735 270 670 323 670 C354 670 384 707 384 745 L383 745 C383 715 355 685 327 685 C274 685 171 750 118 750 C88 750 58 707 58 664 L59 664 L59 664 Z M376 544 L376 130 C344 64 259 4 194 4 C130 4 67 85 67 167 L67 544 L47 544 L47 167 C47 78 115 -10 184 -10 C252 -10 342 56 376 128 L376 0 L386 0 C389 1 393 2 396 3 L396 544 L376 544 L376 544 Z " />
<glyph glyph-name="Umacron" unicode="&#x16a;" horiz-adv-x="577" d="M126 951 L466 951 L466 964 L126 964 L126 951 L126 951 Z M98 738 L98 738 C99 738 99 738 98 738 L98 738 Z M91 768 C86 781 79 791 79 791 L79 228 C79 108 145 -10 212 -10 C312 -10 449 75 489 161 L489 0 L501 0 L513 3 L513 794 L489 794 L489 172 C450 88 317 5 221 5 C161 5 102 115 102 228 L102 794 L91 794 L91 768 L91 768 Z " />
<glyph glyph-name="umacron" unicode="&#x16b;" horiz-adv-x="435" d="M51 701 L391 701 L391 714 L51 714 L51 701 L51 701 Z M376 544 L376 130 C344 64 259 4 194 4 C130 4 67 85 67 167 L67 544 L47 544 L47 167 C47 78 115 -10 184 -10 C252 -10 342 56 376 128 L376 0 L386 0 C389 1 393 2 396 3 L396 544 L376 544 L376 544 Z " />
<glyph glyph-name="Ubreve" unicode="&#x16c;" horiz-adv-x="577" d="M166 1039 C167 993 231 948 296 948 C361 948 425 993 426 1038 L422 1039 C421 1001 359 963 296 963 C233 963 171 1001 170 1039 L166 1039 L166 1039 Z M98 738 L98 738 C99 738 99 738 98 738 L98 738 Z M91 768 C86 781 79 791 79 791 L79 228 C79 108 145 -10 212 -10 C312 -10 449 75 489 161 L489 0 L501 0 L513 3 L513 794 L489 794 L489 172 C450 88 317 5 221 5 C161 5 102 115 102 228 L102 794 L91 794 L91 768 L91 768 Z " />
<glyph glyph-name="ubreve" unicode="&#x16d;" horiz-adv-x="435" d="M91 789 C92 743 156 698 221 698 C286 698 350 743 351 788 L347 789 C346 751 284 713 221 713 C158 713 96 751 95 789 L91 789 L91 789 Z M376 544 L376 130 C344 64 259 4 194 4 C130 4 67 85 67 167 L67 544 L47 544 L47 167 C47 78 115 -10 184 -10 C252 -10 342 56 376 128 L376 0 L386 0 C389 1 393 2 396 3 L396 544 L376 544 L376 544 Z " />
<glyph glyph-name="Uring" unicode="&#x16e;" horiz-adv-x="577" d="M207 949 C207 994 251 1039 296 1039 C341 1039 385 994 385 949 C385 908 336 859 296 859 C256 859 207 908 207 949 L207 949 Z M201 949 C201 906 253 854 296 854 C339 854 391 906 391 949 C391 997 344 1044 296 1044 C248 1044 201 997 201 949 L201 949 Z M98 738 L98 738 C99 738 99 738 98 738 L98 738 Z M91 768 C86 781 79 791 79 791 L79 228 C79 108 145 -10 212 -10 C312 -10 449 75 489 161 L489 0 L501 0 L513 3 L513 794 L489 794 L489 172 C450 88 317 5 221 5 C161 5 102 115 102 228 L102 794 L91 794 L91 768 L91 768 Z " />
<glyph glyph-name="uring" unicode="&#x16f;" horiz-adv-x="435" d="M132 699 C132 744 176 789 221 789 C266 789 310 744 310 699 C310 658 261 609 221 609 C181 609 132 658 132 699 L132 699 Z M126 699 C126 656 178 604 221 604 C264 604 316 656 316 699 C316 747 269 794 221 794 C173 794 126 747 126 699 L126 699 Z M376 544 L376 130 C344 64 259 4 194 4 C130 4 67 85 67 167 L67 544 L47 544 L47 167 C47 78 115 -10 184 -10 C252 -10 342 56 376 128 L376 0 L386 0 C389 1 393 2 396 3 L396 544 L376 544 L376 544 Z " />
<glyph glyph-name="Wcircumflex" unicode="&#x174;" horiz-adv-x="975" d="M566 794 L431 794 L431 791 L436 791 C448 791 468 757 480 720 C497 656 514 592 530 529 L288 28 C223 256 157 484 93 711 C81 751 95 791 120 791 L129 791 L129 794 L19 794 L19 791 L23 791 C33 791 55 751 66 711 L66 711 C133 471 199 230 268 -9 L274 -9 L531 520 C577 344 623 168 669 -8 L675 -8 C748 232 821 473 895 713 C907 753 938 793 957 793 L964 793 L964 796 L816 796 L816 793 L830 793 C870 793 898 753 886 713 L682 35 L505 721 C499 758 521 793 553 793 L565 793 L566 794 L566 794 Z M488 1070 C485 1078 478 1078 475 1070 L335 857 L338 855 L482 1054 L626 855 L629 857 L488 1070 L488 1070 Z " />
<glyph glyph-name="Ycircumflex" unicode="&#x176;" horiz-adv-x="592" d="M120 794 L20 794 L20 791 C32 791 54 766 71 736 L71 736 L288 356 L288 0 L312 0 L312 359 C382 485 451 611 521 736 C538 768 569 791 595 791 L595 794 L473 794 L473 791 L491 791 C519 791 531 764 516 736 L516 736 L310 361 L96 737 C81 765 88 791 111 791 L119 791 L120 794 L120 794 Z M306 1068 C303 1076 296 1076 293 1068 L153 855 L156 853 L300 1052 L444 853 L447 855 L306 1068 L306 1068 Z " />
<glyph glyph-name="Ydieresis" unicode="&#x178;" horiz-adv-x="592" d="M384 929 C384 955 344 955 344 930 C344 904 384 904 384 929 L384 929 Z M256 929 C256 955 216 955 216 930 C216 904 256 904 256 929 L256 929 Z M120 794 L20 794 L20 791 C32 791 54 766 71 736 L71 736 L288 356 L288 0 L312 0 L312 359 C382 485 451 611 521 736 C538 768 569 791 595 791 L595 794 L473 794 L473 791 L491 791 C519 791 531 764 516 736 L516 736 L310 361 L96 737 C81 765 88 791 111 791 L119 791 L120 794 L120 794 Z " />
<glyph glyph-name="Zacute" unicode="&#x179;" horiz-adv-x="654" d="M359 858 C430 924 501 990 571 1057 C571 1062 566 1067 561 1067 C560 1067 523 1031 486 994 L356 862 L359 858 L359 858 Z M70 713 L74 725 C84 757 146 787 198 788 L610 789 L24 5 L24 0 L632 0 L633 3 C633 3 633 4 633 6 C636 18 642 49 650 82 L641 82 L636 70 C621 38 555 8 503 7 L51 6 L635 790 L635 795 L68 795 L68 792 C67 792 65 754 61 713 L70 713 L70 713 Z " />
<glyph glyph-name="Zdot" unicode="&#x17b;" horiz-adv-x="654" d="M374 929 C374 955 334 955 334 930 C334 904 374 904 374 929 L374 929 Z M71 712 L75 724 C85 756 147 786 199 787 L611 788 L25 4 L25 -1 L633 -1 L634 2 C634 2 634 3 634 5 C637 17 643 48 651 81 L642 81 L637 69 C622 37 556 7 504 6 L52 5 L636 789 L636 794 L69 794 L69 791 C68 791 66 753 62 712 L71 712 L71 712 Z " />
<glyph glyph-name="zdot" unicode="&#x17c;" horiz-adv-x="502" d="M283 679 C283 705 243 705 243 680 C243 654 283 654 283 679 L283 679 Z M175 538 L438 539 L40 5 L40 0 L377 0 L455 -7 C455 -7 455 -4 456 0 L457 0 C457 17 461 36 463 55 L452 55 L448 47 C439 29 395 10 355 7 L65 6 L462 540 L462 545 L63 545 C60 545 54 519 48 491 L59 491 L64 499 C77 519 133 538 176 539 L175 538 L175 538 Z " />
<glyph glyph-name="Zcaron" unicode="&#x17d;" horiz-adv-x="654" d="M497 1085 L354 887 L210 1085 L207 1083 L346 870 C349 862 358 861 361 870 L500 1083 L497 1085 L497 1085 Z M71 712 L75 724 C85 756 147 786 199 787 L611 788 L25 4 L25 -1 L633 -1 L634 2 C634 2 634 3 634 5 C637 17 643 48 651 81 L642 81 L637 69 C622 37 556 7 504 6 L52 5 L636 789 L636 794 L69 794 L69 791 C68 791 66 753 62 712 L71 712 L71 712 Z " />
<glyph glyph-name="zcaron" unicode="&#x17e;" horiz-adv-x="502" d="M406 835 L263 637 L119 835 L116 833 L255 620 C258 612 267 611 270 620 L409 833 L406 835 L406 835 Z M175 538 L438 539 L40 5 L40 0 L377 0 L455 -7 C455 -7 455 -4 456 0 L457 0 C457 17 461 36 463 55 L452 55 L448 47 C439 29 395 10 355 7 L65 6 L462 540 L462 545 L63 545 C60 545 54 519 48 491 L59 491 L64 499 C77 519 133 538 176 539 L175 538 L175 538 Z " />
<glyph glyph-name="oogonek" unicode="&#x1eb;" horiz-adv-x="708" d="M956 -54 L956 -53 C931 -74 809 -94 708 -94 C585 -94 402 -53 335 -10 C340 -10 345 -10 350 -10 C506 -10 658 150 658 314 C658 477 510 637 360 637 C214 637 71 477 71 314 C71 162 189 14 318 -7 C394 -58 585 -108 704 -108 C798 -108 923 -81 955 -54 L956 -54 L956 -54 Z M329 -8 C208 6 94 158 94 313 C94 476 225 635 359 635 C498 635 635 476 635 313 C635 150 493 -10 348 -10 C342 -10 335 -9 330 -9 L329 -8 L329 -8 Z " />
<glyph glyph-name="Adotabove" unicode="&#x226;" horiz-adv-x="603" d="M337 929 C337 955 297 955 297 930 C297 904 337 904 337 929 L337 929 Z M-28 0 L143 0 L143 3 L130 3 C96 3 77 48 89 95 L160 313 L444 313 L507 97 C519 48 498 2 463 2 L450 2 L450 -1 L603 -1 L603 2 L596 2 C577 2 544 52 529 102 L529 102 C459 339 390 576 320 813 L318 813 C320 801 314 787 305 786 L308 776 C258 622 209 468 158 315 L158 314 C135 244 113 173 89 103 C73 52 21 3 -15 3 L-28 3 L-28 0 L-28 0 Z M160 316 L308 775 L442 316 L160 316 L160 316 Z " />
<glyph glyph-name="G_sc" unicode="&#x262;" horiz-adv-x="645" d="M561 489 L574 489 L574 590 L569 590 C569 586 568 580 568 576 C567 560 536 564 506 584 C502 587 447 619 445 616 C411 629 373 637 331 637 C200 637 71 477 71 314 C71 150 197 -10 325 -10 C387 -10 461 4 527 24 C513 21 499 18 486 15 C488 16 490 17 492 18 C432 6 372 -5 330 -5 C211 -5 95 153 95 315 C95 478 213 637 333 637 C373 637 410 628 444 613 L444 613 C494 591 551 535 562 489 L561 489 L561 489 Z M492 17 C518 26 534 37 534 48 L534 29 C520 25 507 21 492 18 L492 17 L492 17 Z M534 273 L534 26 C532 26 530 26 528 26 C530 27 532 28 534 29 L534 28 L555 33 L555 35 C584 45 611 55 634 66 L634 67 C612 57 585 47 556 38 L556 276 L534 273 L534 273 Z " />
<glyph glyph-name="I_sc" unicode="&#x26a;" horiz-adv-x="244" d="M150 0 L150 627 L129 627 L129 0 L150 0 L150 0 Z " />
<glyph glyph-name="N_sc" unicode="&#x274;" horiz-adv-x="596" d="M44 624 C61 624 75 615 94 596 L94 52 C94 27 80 2 65 2 L59 2 L59 -1 L135 -1 L135 2 L129 2 C114 2 100 27 100 52 L100 589 C105 584 109 578 113 572 L113 572 C241 381 369 190 497 -1 L501 -1 L503 573 L503 573 C503 598 517 623 532 623 L538 623 L538 626 L497 626 L497 31 L496 33 L105 626 L45 626 L44 624 L44 624 Z " />
<glyph glyph-name="R_sc" unicode="&#x280;" horiz-adv-x="496" d="M135 0 L135 313 L264 313 C271 291 320 167 368 50 C385 10 407 0 486 0 C427 0 410 10 393 50 C343 171 295 289 285 314 C360 323 428 379 428 453 C428 541 347 627 265 627 L114 627 L114 0 L135 0 L135 0 Z M135 318 L135 623 L259 623 C333 623 405 541 405 457 C405 376 336 318 265 318 L135 318 L135 318 Z " />
<glyph glyph-name="Y_sc" unicode="&#x28f;" horiz-adv-x="505" d="M118 627 L20 627 L20 624 C32 624 50 604 68 577 L246 281 L246 1 L267 1 L267 284 L437 578 C457 607 484 625 509 625 L509 628 L387 628 L387 625 L405 625 C432 625 444 600 431 573 L267 285 L93 577 C82 602 90 624 111 624 L119 624 L118 627 L118 627 Z " />
<glyph glyph-name="B_sc" unicode="&#x299;" horiz-adv-x="474" d="M253 1 L203 1 C169 1 135 17 135 34 L135 322 L276 322 C344 322 411 243 411 162 C411 52 333 1 253 1 L253 1 Z M255 0 C345 0 434 52 434 162 C434 243 358 323 280 323 L254 323 C344 332 428 403 428 475 C428 552 356 627 202 627 L114 627 L114 0 L255 0 L255 0 Z M234 323 L135 323 L135 626 L200 626 C341 626 407 550 407 473 C407 397 321 323 234 323 L234 323 Z " />
<glyph glyph-name="H_sc" unicode="&#x29c;" horiz-adv-x="632" d="M150 627 L150 0 L171 0 L171 320 L516 320 L516 0 L538 0 L538 627 L516 627 L516 322 L171 322 L171 627 L150 627 L150 627 Z " />
<glyph glyph-name="L_sc" unicode="&#x29f;" horiz-adv-x="457" d="M129 627 L129 0 L433 0 L433 2 C436 21 443 60 446 79 L437 79 L432 67 C419 35 356 4 303 4 L184 4 C158 4 150 19 150 34 L150 627 L129 627 L129 627 Z " />
<glyph glyph-name="circumflex" unicode="&#x2c6;" horiz-adv-x="373" d="M194 818 C191 826 184 826 181 818 L41 605 L44 603 L188 802 L332 603 L334 605 L194 818 L194 818 Z " />
<glyph glyph-name="caron" unicode="&#x2c7;" horiz-adv-x="373" d="M331 835 L187 636 L43 835 L40 833 L180 620 C183 612 190 612 193 620 L332 833 L331 835 L331 835 Z " />
<glyph glyph-name="firsttonechinese" unicode="&#x2c9;" horiz-adv-x="373" d="M17 701 L357 701 L357 714 L17 714 L17 701 L17 701 Z " />
<glyph glyph-name="breve" unicode="&#x2d8;" horiz-adv-x="373" d="M56 789 C57 743 122 698 187 698 C252 698 316 743 317 788 L313 789 C312 751 250 713 187 713 C124 713 61 751 60 789 L56 789 L56 789 Z " />
<glyph glyph-name="dotaccent" unicode="&#x2d9;" horiz-adv-x="373" d="M207 679 C207 705 167 705 167 680 C167 654 207 654 207 679 L207 679 Z " />
<glyph glyph-name="ring" unicode="&#x2da;" horiz-adv-x="373" d="M97 699 C97 744 142 789 187 789 C232 789 276 744 276 699 C276 658 227 609 187 609 C146 609 97 658 97 699 L97 699 Z M91 699 C91 656 143 604 187 604 C230 604 282 656 282 699 C282 747 235 794 187 794 C139 794 91 747 91 699 L91 699 Z " />
<glyph glyph-name="A_sc" unicode="&#x1d00;" horiz-adv-x="523" d="M-28 0 L143 0 L143 3 L130 3 C96 3 78 48 90 95 L143 248 L379 248 C394 200 409 151 423 103 C439 52 419 3 383 3 L370 3 L370 0 L522 0 L522 3 L515 3 C496 3 462 53 446 103 L446 103 C389 284 334 466 276 647 L274 647 C276 635 271 623 263 622 L266 612 C224 491 183 370 141 250 L141 249 L87 91 C67 44 19 2 -15 2 L-28 2 L-28 0 L-28 0 Z M144 249 L268 610 L379 249 L144 249 L144 249 Z " />
<glyph glyph-name="C_sc" unicode="&#x1d04;" horiz-adv-x="622" d="M574 35 L574 138 L561 138 C549 92 493 37 443 16 L443 16 C406 1 364 -9 321 -9 C206 -9 93 151 93 314 C93 477 211 636 331 636 C371 636 408 627 442 612 L442 612 C492 590 549 534 560 488 L573 488 L573 589 L568 589 C568 585 567 579 567 575 C566 559 535 563 505 583 C501 586 446 618 444 615 C410 628 372 636 330 636 C199 636 70 476 70 313 C70 149 194 -11 321 -11 C365 -11 407 -2 444 12 L444 11 C468 21 491 33 511 46 C539 62 567 64 568 49 C568 45 569 39 569 35 L574 35 L574 35 Z " />
<glyph glyph-name="D_sc" unicode="&#x1d05;" horiz-adv-x="669" d="M197 1 C150 1 135 17 135 34 L135 626 L225 626 C428 626 591 472 591 314 C591 140 396 1 197 1 L197 1 Z M198 0 C408 0 614 140 614 314 C614 472 443 627 230 627 L114 627 L114 0 L198 0 L198 0 Z " />
<glyph glyph-name="E_sc" unicode="&#x1d07;" horiz-adv-x="476" d="M344 237 L344 409 L335 409 L332 396 C325 360 279 324 239 324 L135 324 L135 626 L299 626 C339 626 389 590 401 554 L405 541 L414 541 C412 563 407 605 404 627 L114 627 L114 0 L429 0 C432 19 439 57 442 76 L433 76 L428 64 C415 32 352 1 299 1 L169 1 C143 1 135 17 135 34 L135 322 L239 322 C279 322 325 286 332 250 L335 237 L344 237 L344 237 Z " />
<glyph glyph-name="J_sc" unicode="&#x1d0a;" horiz-adv-x="244" d="M129 627 L129 2 C129 -154 55 -218 15 -218 C6 -218 8 -201 -1 -201 C-6 -201 -10 -206 -10 -211 C-10 -216 1 -220 13 -220 C61 -220 150 -143 150 42 L150 627 L129 627 L129 627 Z " />
<glyph glyph-name="K_sc" unicode="&#x1d0b;" horiz-adv-x="510" d="M508 3 C487 3 459 20 431 45 L152 327 C220 404 287 482 355 559 C388 596 434 624 466 624 L466 627 L301 627 L301 624 L317 624 C356 624 362 585 333 542 L137 314 L137 627 L116 627 L116 0 L137 0 L137 314 L452 0 L510 0 L508 3 L508 3 Z " />
<glyph glyph-name="M_sc" unicode="&#x1d0d;" horiz-adv-x="676" d="M572 0 L663 0 L663 3 L657 3 C643 3 629 25 626 48 C620 223 614 399 609 574 C608 599 622 624 636 624 L642 624 L642 627 L587 627 L362 29 L114 625 L114 627 L55 627 L55 624 C74 624 93 607 107 581 L90 47 C87 20 74 3 54 3 L54 0 L131 0 L131 3 L125 3 C111 3 97 28 98 53 L98 53 L114 569 C193 379 271 188 352 -1 L357 -1 L589 609 C595 423 602 237 607 52 C608 27 594 2 580 2 L574 2 L572 0 L572 0 Z " />
<glyph glyph-name="O_sc" unicode="&#x1d0f;" horiz-adv-x="713" d="M94 314 C94 477 225 636 359 636 C498 636 635 477 635 314 C635 151 494 -8 350 -8 C221 -8 94 151 94 314 L94 314 Z M71 314 C71 150 209 -10 350 -10 C506 -10 658 150 658 314 C658 477 510 637 360 637 C214 637 71 477 71 314 L71 314 Z " />
<glyph glyph-name="P_sc" unicode="&#x1d18;" horiz-adv-x="416" d="M141 0 L141 301 L181 301 C290 301 396 365 396 453 C396 541 309 627 220 627 L120 627 L120 0 L141 0 L141 0 Z M141 305 L141 624 L215 624 C296 624 376 541 376 457 C376 369 279 305 181 305 L141 305 L141 305 Z " />
<glyph glyph-name="T_sc" unicode="&#x1d1b;" horiz-adv-x="733" d="M675 625 L674 625 L674 625 L675 625 L675 625 Z M667 622 C668 622 669 622 669 622 C668 621 668 621 667 622 L667 622 Z M669 622 L673 620 C670 620 669 621 669 622 L669 622 Z M375 0 L375 622 L568 622 C611 622 672 591 691 559 L699 547 L708 547 C700 567 685 605 677 625 L675 625 C676 626 677 627 677 627 L53 627 L53 625 C45 605 30 567 22 547 L31 547 L39 559 C58 591 119 622 162 622 L354 622 L354 0 L375 0 L375 0 Z M675 622 L677 622 C676 622 675 622 675 622 L675 622 Z " />
<glyph glyph-name="U_sc" unicode="&#x1d1c;" horiz-adv-x="488" d="M98 571 L98 571 C99 571 99 571 98 571 L98 571 Z M414 0 C417 1 420 2 423 3 L423 627 L402 627 L402 150 C368 76 252 4 168 4 C133 4 99 104 99 207 L99 627 L89 627 L89 604 C84 616 78 625 78 625 L78 208 C78 98 118 -9 159 -9 C246 -9 367 65 402 141 L402 1 L414 0 L414 0 Z " />
<glyph glyph-name="V_sc" unicode="&#x1d20;" horiz-adv-x="562" d="M153 627 L20 627 L20 624 L24 624 C34 624 56 585 73 541 C135 357 196 173 258 -10 L262 -10 L471 532 C491 579 524 624 540 624 L545 624 L545 627 L398 627 L398 624 L413 624 C455 624 478 574 459 524 L273 32 C217 196 159 361 103 525 C86 575 103 625 139 625 L152 625 L153 627 L153 627 Z " />
<glyph glyph-name="W_sc" unicode="&#x1d21;" horiz-adv-x="837" d="M127 627 L20 627 L20 624 L24 624 C34 624 52 593 64 558 L222 25 L233 -10 L238 -10 L451 409 C489 270 526 130 565 -9 L571 -9 L759 556 C774 592 803 625 820 625 L827 625 L827 628 L680 628 L680 625 L694 625 C733 625 758 589 750 551 L578 30 L436 553 C430 590 452 624 484 624 L496 624 L496 627 L363 627 L363 624 L368 624 C380 624 399 593 411 558 L449 418 L251 26 L90 553 C82 590 95 625 118 625 L127 625 L127 627 L127 627 Z " />
<glyph glyph-name="Z_sc" unicode="&#x1d22;" horiz-adv-x="586" d="M436 6 L436 6 L51 5 L570 624 L570 628 L71 628 L71 625 C70 625 67 587 63 547 L72 547 L76 559 C85 589 138 619 188 623 L547 624 L26 5 L26 1 L566 1 L567 7 L567 7 L584 82 L575 82 L570 70 C555 38 490 7 437 7 L436 6 L436 6 Z " />
<glyph glyph-name="Wgrave" unicode="&#x1e80;" horiz-adv-x="975" d="M566 794 L431 794 L431 791 L436 791 C448 791 468 757 480 720 C497 656 514 592 530 529 L288 28 C223 256 157 484 93 711 C81 751 95 791 120 791 L129 791 L129 794 L19 794 L19 791 L23 791 C33 791 55 751 66 711 L66 711 C133 471 199 230 268 -9 L274 -9 L531 520 C577 344 623 168 669 -8 L675 -8 C748 232 821 473 895 713 C907 753 938 793 957 793 L964 793 L964 796 L816 796 L816 793 L830 793 C870 793 898 753 886 713 L682 35 L505 721 C499 758 521 793 553 793 L565 793 L566 794 L566 794 Z M274 1058 C274 1056 311 1020 349 986 L485 860 L488 863 L358 995 C322 1032 286 1068 284 1068 C279 1068 274 1063 274 1058 L274 1058 Z " />
<glyph glyph-name="Wacute" unicode="&#x1e82;" horiz-adv-x="975" d="M488 858 L624 984 C662 1020 699 1055 699 1056 C699 1061 694 1066 689 1066 C689 1066 652 1030 615 993 L485 861 L488 858 L488 858 Z M566 794 L431 794 L431 791 L436 791 C448 791 468 757 480 720 C497 656 514 592 530 529 L288 28 C223 256 157 484 93 711 C81 751 95 791 120 791 L129 791 L129 794 L19 794 L19 791 L23 791 C33 791 55 751 66 711 L66 711 C133 471 199 230 268 -9 L274 -9 L531 520 C577 344 623 168 669 -8 L675 -8 C748 232 821 473 895 713 C907 753 938 793 957 793 L964 793 L964 796 L816 796 L816 793 L830 793 C870 793 898 753 886 713 L682 35 L505 721 C499 758 521 793 553 793 L565 793 L566 794 L566 794 Z " />
<glyph glyph-name="Wdieresis" unicode="&#x1e84;" horiz-adv-x="975" d="M566 929 C566 955 526 955 526 930 C526 904 566 904 566 929 L566 929 Z M438 929 C438 955 398 955 398 930 C398 904 438 904 438 929 L438 929 Z M566 794 L431 794 L431 791 L436 791 C448 791 468 757 480 720 C497 656 514 592 530 529 L288 28 C223 256 157 484 93 711 C81 751 95 791 120 791 L129 791 L129 794 L19 794 L19 791 L23 791 C33 791 55 751 66 711 L66 711 C133 471 199 230 268 -9 L274 -9 L531 520 C577 344 623 168 669 -8 L675 -8 C748 232 821 473 895 713 C907 753 938 793 957 793 L964 793 L964 796 L816 796 L816 793 L830 793 C870 793 898 753 886 713 L682 35 L505 721 C499 758 521 793 553 793 L565 793 L566 794 L566 794 Z " />
<glyph glyph-name="Etilde" unicode="&#x1ebc;" horiz-adv-x="546" d="M132 914 C132 950 159 985 187 985 C240 985 343 920 396 920 C427 920 457 957 457 995 L456 995 C456 965 428 935 400 935 C347 935 244 1000 191 1000 C161 1000 131 957 131 914 L132 914 L132 914 Z M414 323 L414 494 L405 494 L402 481 C395 445 349 409 309 409 L137 409 L137 792 L369 792 C409 792 459 756 471 720 L475 707 L484 707 C482 729 477 771 474 793 L474 794 L114 794 L114 0 L499 0 L499 1 C502 20 509 58 512 77 L503 77 L498 65 C485 33 422 2 369 2 L171 2 C145 2 137 18 137 34 L137 408 L309 408 C349 408 395 372 402 336 L405 323 L414 323 L414 323 Z " />
<glyph glyph-name="Ygrave" unicode="&#x1ef2;" horiz-adv-x="592" d="M120 794 L20 794 L20 791 C32 791 54 766 71 736 L71 736 L288 356 L288 0 L312 0 L312 359 C382 485 451 611 521 736 C538 768 569 791 595 791 L595 794 L473 794 L473 791 L491 791 C519 791 531 764 516 736 L516 736 L310 361 L96 737 C81 765 88 791 111 791 L119 791 L120 794 L120 794 Z M92 1056 C92 1054 129 1018 167 984 L303 858 L306 861 L176 993 C140 1030 104 1066 102 1066 C97 1066 92 1061 92 1056 L92 1056 Z " />
<glyph glyph-name="quoteleft" unicode="&#x2018;" horiz-adv-x="525" d="M99 675 C99 680 95 684 90 684 L90 697 C87 697 84 692 84 686 C84 734 107 787 130 793 L120 804 C99 798 78 738 78 682 C78 666 99 659 99 676 L99 675 L99 675 Z " />
<glyph glyph-name="quoteright" unicode="&#x2019;" horiz-adv-x="3" d="M84 789 C84 733 79 677 73 676 L84 665 C87 666 90 729 90 793 C90 799 84 804 78 804 C66 804 67 785 78 785 L78 772 C81 772 84 780 84 789 L84 789 Z " />
<glyph glyph-name="quotedblleft" unicode="&#x201c;" horiz-adv-x="525" d="M146 675 C146 680 142 684 137 684 L137 697 C134 697 131 692 131 686 C131 734 154 787 177 793 L167 804 C146 798 125 738 125 682 C125 666 146 659 146 676 L146 675 L146 675 Z M87 676 C87 681 83 685 78 685 L78 698 C75 698 72 693 72 687 C72 735 95 788 118 794 L108 805 C87 799 66 739 66 683 C66 667 87 660 87 677 L87 676 L87 676 Z " />
<glyph glyph-name="quotedblright" unicode="&#x201d;" horiz-adv-x="525" d="M143 789 C143 733 138 677 132 676 L143 665 C146 666 149 729 149 793 C149 799 143 804 137 804 C125 804 126 785 137 785 L137 772 C140 772 143 780 143 789 L143 789 Z M84 789 C84 733 79 677 73 676 L84 665 C87 666 90 729 90 793 C90 799 84 804 78 804 C66 804 67 785 78 785 L78 772 C81 772 84 780 84 789 L84 789 Z " />
<glyph glyph-name="perthousand" unicode="&#x2030;" horiz-adv-x="1163" d="M869 211 C869 315 934 416 1000 416 C1067 416 1132 311 1132 203 C1132 96 1068 -8 1002 -8 C935 -8 869 100 869 211 L869 211 Z M850 207 C850 97 925 -10 1001 -10 C1077 -10 1151 99 1151 210 C1151 315 1077 418 1001 418 C925 418 850 314 850 207 L850 207 Z M50 593 C50 699 114 802 180 802 C247 802 312 695 312 585 C312 480 248 378 182 378 C115 378 50 484 50 593 L50 593 Z M30 589 C30 481 105 376 181 376 C257 376 331 483 331 592 C331 699 257 804 181 804 C105 804 30 698 30 589 L30 589 Z M529 211 C529 315 592 416 657 416 C725 416 792 311 792 203 C792 96 726 -8 659 -8 C593 -8 529 100 529 211 L529 211 Z M509 207 C509 97 583 -10 658 -10 C735 -10 810 99 810 210 C810 315 735 418 658 418 C583 418 509 314 509 207 L509 207 Z M182 -1 L661 793 L658 795 L180 1 L182 -1 L182 -1 Z " />
<glyph glyph-name="fraction" unicode="&#x2044;" horiz-adv-x="519" d="M31 -1 L510 793 L507 795 L29 1 L31 -1 L31 -1 Z " />
<glyph glyph-name="Euro" unicode="&#x20ac;" horiz-adv-x="759" d="M711 62 L711 131 L708 133 L708 133 L711 130 L711 165 L698 165 C687 121 641 69 594 40 C542 11 479 -9 415 -9 C288 -9 163 166 148 357 L481 357 L483 371 L147 371 C146 388 146 405 147 422 L483 422 L485 436 L148 436 C164 627 294 802 426 802 C483 802 536 785 583 759 C583 759 671 703 692 644 C693 640 697 632 698 628 L711 628 L711 729 L706 729 C706 725 705 719 705 715 C703 699 674 704 645 725 C587 770 511 804 426 804 C282 804 140 628 123 436 L57 436 L55 422 L122 422 C121 405 121 388 122 371 L55 371 L53 357 L123 357 C140 165 276 -11 415 -11 C506 -11 591 24 651 69 C678 88 705 90 706 75 C706 71 707 65 707 61 L711 62 L711 62 Z " />
<glyph glyph-name="F_sc" unicode="&#xa730;" horiz-adv-x="451" d="M334 237 L334 409 L325 409 L322 396 C315 360 269 324 229 324 L135 324 L135 626 L299 626 C339 626 389 590 401 554 L405 541 L414 541 C412 563 407 605 404 627 L114 627 L114 0 L135 0 L135 322 L229 322 C269 322 315 286 322 250 L325 237 L334 237 L334 237 Z " />
<glyph glyph-name="S_sc" unicode="&#xa731;" horiz-adv-x="499" d="M211 636 C234 638 255 634 277 627 C333 608 388 554 401 503 L414 503 L414 597 L409 597 C409 594 408 589 408 586 C407 574 382 578 359 594 L359 594 C315 624 259 645 212 636 L211 636 L211 636 Z M287 -10 C374 -10 460 65 460 141 C460 195 386 282 294 325 C185 376 97 459 97 501 C97 548 126 595 165 619 C117 594 81 547 81 493 C81 444 170 355 281 303 C371 261 443 182 443 135 C443 63 366 -8 287 -8 C254 -8 216 3 180 21 C130 49 78 107 68 158 L55 158 L55 28 L60 28 C60 33 61 43 61 48 C62 70 93 71 122 50 L122 50 C161 22 226 -10 286 -10 L287 -10 L287 -10 Z M59 127 L59 127 L59 127 L59 127 Z M164 619 C179 628 195 634 211 636 C195 633 179 627 164 619 L164 619 Z " />
<glyph glyph-name="X_sc" unicode="&#xf078;" horiz-adv-x="558" d="M562 627 L434 627 L434 624 L452 624 C480 624 489 597 470 569 L470 569 L309 327 L151 573 C136 599 142 623 164 623 L172 623 L172 626 L74 626 L74 623 C86 623 109 598 128 568 L128 568 L293 310 C233 226 173 141 113 57 C91 26 56 2 30 2 L30 -1 L156 -1 L156 2 L138 2 C112 2 103 25 117 51 L295 306 L458 52 C473 26 467 2 445 2 L437 2 L437 -1 L535 -1 L535 2 C523 2 500 27 481 57 L481 57 L309 325 C365 406 421 487 478 567 C500 599 535 622 562 622 L562 627 L562 627 Z " />
</font>
</svg>
