<?xml version="1.0" encoding="UTF-8"?>
<svg xmlns="http://www.w3.org/2000/svg" xmlns:xlink="http://www.w3.org/1999/xlink" version="1.2" >
<font id="Aludra Black">
<font-face  font-family="Aludra" units-per-em="1024" ascent="975" descent="-300" font-style="normal" font-weight="900" font-stretch="normal" cap-height="750" x-height="500" underline-position="0" underline-thickness="0" />
<missing-glyph  horiz-adv-x="472" d="M0 700 C0 700 432 700 432 700 C432 700 432 0 432 0 C432 0 0 0 0 0 C0 0 0 700 0 700 L0 700 Z M50 50 C50 50 382 50 382 50 C382 50 382 650 382 650 C382 650 50 650 50 650 C50 650 50 50 50 50 L50 50 Z " />
<glyph glyph-name="NULL" d="" />
<glyph glyph-name="CR" unicode="&#xd;" horiz-adv-x="256" d="" />
<glyph glyph-name="space" unicode="&#x20;" horiz-adv-x="250" d="" />
<glyph glyph-name="exclam" unicode="&#x21;" horiz-adv-x="323" d="M162 -5 C215 -5 242 22 242 75 C242 128 215 155 162 155 C109 155 82 128 82 75 C82 22 109 -5 162 -5 L162 -5 Z M162 755 C58 755 51 707 70 612 C70 612 148 210 148 210 C148 210 176 210 176 210 C176 210 254 612 254 612 C272 707 265 755 162 755 L162 755 Z " />
<glyph glyph-name="quotedbl" unicode="&#x22;" horiz-adv-x="325" d="M732 750 C680 750 677 735 688 705 C688 705 741 560 741 560 C741 560 759 560 759 560 C759 560 812 705 812 705 C823 735 820 750 768 750 C768 750 732 750 732 750 L732 750 Z " />
<glyph glyph-name="numbersign" unicode="&#x23;" horiz-adv-x="579" d="M405 642 C405 642 385 518 385 518 C385 518 263 518 263 518 C263 518 283 642 283 642 C283 642 225 642 225 642 C225 642 205 518 205 518 C205 518 75 518 75 518 C75 518 59 402 59 402 C59 402 187 402 187 402 C187 402 164 258 164 258 C164 258 30 258 30 258 C30 258 14 142 14 142 C14 142 146 142 146 142 C146 142 123 0 123 0 C123 0 181 0 181 0 C181 0 204 142 204 142 C204 142 326 142 326 142 C326 142 303 0 303 0 C303 0 361 0 361 0 C361 0 384 142 384 142 C384 142 493 142 493 142 C493 142 509 258 509 258 C509 258 402 258 402 258 C402 258 425 402 425 402 C425 402 543 402 543 402 C543 402 560 518 560 518 C560 518 443 518 443 518 C443 518 463 642 463 642 C463 642 405 642 405 642 L405 642 Z M245 402 C245 402 367 402 367 402 C367 402 344 258 344 258 C344 258 222 258 222 258 C222 258 245 402 245 402 L245 402 Z " />
<glyph glyph-name="dollar" unicode="&#x24;" horiz-adv-x="559" d="M292 825 C292 825 292 760 292 760 C286 760 280 760 274 760 C267 760 261 760 254 760 C254 760 254 825 254 825 C254 825 212 825 212 825 C212 825 212 755 212 755 C105 736 51 664 51 540 C51 417 95 337 212 292 C212 292 212 53 212 53 C210 53 209 54 207 55 C179 65 155 82 134 104 C118 122 105 142 93 167 C93 167 90 166 90 166 C79 187 70 210 65 231 C62 245 60 252 60 252 C60 252 45 252 45 252 C45 252 45 144 45 144 C45 144 45 -1 45 -1 C45 -1 60 -1 60 -1 C60 -1 62 11 65 36 C67 55 90 61 131 34 C155 16 182 4 212 -3 C212 -3 212 -75 212 -75 C212 -75 254 -75 254 -75 C254 -75 254 -9 254 -9 C260 -10 267 -10 273 -10 C279 -10 286 -10 292 -10 C292 -10 292 -75 292 -75 C292 -75 334 -75 334 -75 C334 -75 334 -6 334 -6 C457 12 519 86 519 217 C519 330 469 406 334 458 C334 458 334 708 334 708 C375 694 408 666 431 633 C433 630 434 626 436 623 C436 623 437 624 437 624 C450 603 459 581 464 559 C467 545 469 538 469 538 C469 538 484 538 484 538 C484 538 484 646 484 646 C484 646 484 760 484 760 C484 760 469 760 469 760 C469 760 467 750 464 731 C462 714 445 706 418 724 C418 724 418 724 418 724 C394 739 366 750 334 755 C334 755 334 825 334 825 C334 825 292 825 292 825 L292 825 Z M292 717 C292 717 292 474 292 474 C278 480 265 487 254 493 C254 493 254 716 254 716 C260 717 267 718 274 718 C280 718 286 718 292 717 C292 717 292 717 292 717 L292 717 Z M254 276 C268 270 281 265 292 260 C292 260 292 45 292 45 C286 44 280 44 273 44 C267 44 260 44 254 45 C254 45 254 276 254 276 L254 276 Z M334 237 C370 214 385 192 385 169 C385 113 368 76 334 57 C334 57 334 237 334 237 L334 237 Z M212 526 C191 549 182 575 182 604 C182 647 192 678 212 697 C212 697 212 526 212 526 L212 526 Z " />
<glyph glyph-name="ampersand" unicode="&#x26;" horiz-adv-x="344" d="M366 470 C475 509 529 555 529 609 C529 709 457 760 315 760 C193 760 131 703 131 590 C131 524 155 485 202 428 C83 381 23 302 23 194 C23 58 98 -10 245 -10 C335 -10 418 23 493 88 C493 88 506 72 506 72 C553 18 618 -10 700 -10 C783 -10 831 42 844 143 C844 143 817 152 817 152 C814 126 795 113 762 113 C702 113 660 126 638 152 C638 152 594 203 594 203 C648 281 697 380 741 500 C741 500 706 500 706 500 C665 389 617 302 562 241 C562 241 377 457 377 457 C373 462 369 466 366 470 C366 470 366 470 366 470 L366 470 Z M347 492 C291 557 263 597 263 669 C263 706 280 725 315 725 C375 725 406 689 406 617 C406 560 386 518 347 492 C347 492 347 492 347 492 L347 492 Z M439 150 C405 136 370 129 332 129 C231 129 180 166 180 239 C180 316 194 371 223 403 C230 395 237 386 245 377 C245 377 439 150 439 150 L439 150 Z " />
<glyph glyph-name="quotesingle" unicode="&#x27;" horiz-adv-x="204" d="" />
<glyph glyph-name="parenleft" unicode="&#x28;" horiz-adv-x="535" d="M320 760 C139 638 47 474 47 273 C47 82 136 -81 313 -214 C313 -214 322 -197 322 -197 C210 -113 153 45 153 273 C153 506 212 664 329 743 C329 743 320 760 320 760 L320 760 Z " />
<glyph glyph-name="parenright" unicode="&#x29;" horiz-adv-x="535" d="M21 743 C138 667 197 509 197 273 C197 34 140 -124 28 -197 C28 -197 37 -214 37 -214 C214 -100 303 64 303 273 C303 479 211 642 30 760 C30 760 21 743 21 743 L21 743 Z " />
<glyph glyph-name="asterisk" unicode="&#x2a;" horiz-adv-x="300" d="M127 630 C127 630 23 610 23 610 C-1 605 -3 586 16 552 C35 519 53 512 69 530 C69 530 140 612 140 612 C140 612 104 510 104 510 C96 487 111 475 150 475 C189 475 204 487 196 510 C196 510 160 612 160 612 C160 612 231 530 231 530 C247 512 265 519 284 552 C303 586 301 605 277 610 C277 610 173 630 173 630 C173 630 277 650 277 650 C301 655 303 674 284 707 C265 741 247 748 231 730 C231 730 160 648 160 648 C160 648 196 750 196 750 C204 773 189 785 150 785 C111 785 96 773 104 750 C104 750 140 648 140 648 C140 648 69 730 69 730 C53 748 35 741 16 707 C-3 674 -1 655 23 650 C23 650 127 630 127 630 L127 630 Z " />
<glyph glyph-name="plus" unicode="&#x2b;" horiz-adv-x="620" d="M252 460 C252 460 252 303 252 303 C252 303 100 303 100 303 C100 303 100 197 100 197 C100 197 252 197 252 197 C252 197 252 40 252 40 C252 40 368 40 368 40 C368 40 368 197 368 197 C368 197 520 197 520 197 C520 197 520 303 520 303 C520 303 368 303 368 303 C368 303 368 460 368 460 C368 460 252 460 252 460 L252 460 Z " />
<glyph glyph-name="comma" unicode="&#x2c;" horiz-adv-x="271" d="M139 -4 C140 -12 140 -22 140 -32 C140 -67 115 -84 65 -84 C65 -84 65 -119 65 -119 C155 -119 201 -72 201 21 C201 84 175 115 125 115 C85 115 65 95 65 55 C65 15 85 -5 125 -5 C130 -5 135 -5 139 -4 L139 -4 Z " />
<glyph glyph-name="hyphen" unicode="&#x2d;" horiz-adv-x="430" d="M80 226 C80 226 350 226 350 226 C350 226 350 344 350 344 C350 344 80 344 80 344 C80 344 80 226 80 226 L80 226 Z " />
<glyph glyph-name="period" unicode="&#x2e;" horiz-adv-x="195" d="M125 -5 C178 -5 205 22 205 75 C205 128 178 155 125 155 C72 155 45 128 45 75 C45 22 72 -5 125 -5 L125 -5 Z " />
<glyph glyph-name="slash" unicode="&#x2f;" horiz-adv-x="408" d="M290 770 C290 770 8 -80 8 -80 C8 -80 96 -80 96 -80 C96 -80 378 770 378 770 C378 770 290 770 290 770 L290 770 Z " />
<glyph glyph-name="zero" unicode="0" horiz-adv-x="617" d="M305 52 C187 52 108 118 108 250 C108 368 174 448 305 448 C423 448 502 382 502 250 C502 132 436 52 305 52 L305 52 Z M37 250 C37 77 145 -10 305 -10 C483 -10 573 95 573 250 C573 423 465 510 305 510 C127 510 37 405 37 250 L37 250 Z " />
<glyph glyph-name="one" unicode="1" horiz-adv-x="430" d="M390 500 C390 500 40 500 40 500 C40 500 40 480 40 480 C40 480 70 480 70 480 C117 480 140 479 140 465 C140 465 140 35 140 35 C140 21 117 20 70 20 C70 20 40 20 40 20 C40 20 40 0 40 0 C40 0 390 0 390 0 C390 0 390 20 390 20 C390 20 360 20 360 20 C313 20 290 21 290 35 C290 35 290 465 290 465 C290 479 313 480 360 480 C360 480 390 480 390 480 C390 480 390 500 390 500 L390 500 Z " />
<glyph glyph-name="two" unicode="2" horiz-adv-x="567" d="M544 198 C544 198 525 168 525 168 C511 145 496 133 394 133 C394 133 273 133 273 133 C395 209 468 278 468 349 C468 456 408 510 289 510 C152 510 68 438 40 295 C40 295 71 288 71 288 C87 370 138 411 222 411 C286 411 318 378 318 314 C318 191 202 113 30 26 C30 26 30 0 30 0 C30 0 277 0 277 0 C277 0 440 0 440 0 C457 25 473 51 488 76 C488 76 524 133 524 133 C524 133 523 133 523 133 C536 153 548 172 560 192 C560 192 544 198 544 198 L544 198 Z " />
<glyph glyph-name="three" unicode="3" horiz-adv-x="482" d="M15 -202 C15 -202 20 -232 20 -232 C301 -203 443 -117 443 24 C443 148 390 219 285 234 C357 281 394 329 394 389 C394 469 337 510 224 510 C110 510 41 457 17 352 C17 352 49 343 49 343 C58 384 96 405 163 405 C210 405 234 382 234 337 C234 251 192 211 109 176 C109 176 109 146 109 146 C225 129 284 74 284 -18 C284 -122 194 -184 15 -202 L15 -202 Z " />
<glyph glyph-name="four" unicode="4" horiz-adv-x="620" d="M620 180 C620 180 600 180 600 180 C600 180 596 150 596 150 C593 127 583 115 481 115 C481 115 415 115 415 115 C415 115 415 530 415 530 C415 530 396 530 396 530 C396 530 15 26 15 26 C15 26 15 0 15 0 C15 0 265 0 265 0 C265 0 265 -220 265 -220 C265 -220 415 -220 415 -220 C415 -220 415 0 415 0 C415 0 515 0 515 0 C571 0 574 -8 571 -25 C571 -25 567 -55 567 -55 C567 -55 587 -55 587 -55 C599 24 610 101 620 180 L620 180 Z M152 115 C152 115 265 266 265 266 C265 266 265 115 265 115 C265 115 152 115 152 115 L152 115 Z " />
<glyph glyph-name="five" unicode="5" horiz-adv-x="449" d="M61 -237 C299 -208 420 -110 420 56 C420 214 311 294 96 294 C96 294 83 294 83 294 C83 294 94 365 94 365 C94 365 347 370 347 370 C357 426 367 483 377 540 C377 540 357 540 357 540 C357 540 355 527 355 527 C352 509 343 500 250 500 C250 500 66 500 66 500 C66 500 11 160 11 160 C11 160 38 136 38 136 C38 136 80 136 80 136 C218 136 288 92 288 5 C288 -119 211 -190 57 -209 C57 -209 61 -237 61 -237 L61 -237 Z " />
<glyph glyph-name="six" unicode="6" horiz-adv-x="570" d="M550 750 C207 677 34 526 34 300 C34 94 117 -10 282 -10 C437 -10 515 73 515 238 C515 393 449 471 318 471 C274 471 240 460 214 437 C265 593 379 690 556 728 C556 728 550 750 550 750 L550 750 Z M183 220 C183 358 223 427 301 427 C343 427 365 366 365 246 C365 104 334 33 274 33 C213 33 183 96 183 220 L183 220 Z " />
<glyph glyph-name="seven" unicode="7" horiz-adv-x="469" d="M-45 313 C-45 313 -25 313 -25 313 C-25 313 -17 333 -17 333 C-3 363 7 378 53 378 C53 378 371 378 371 378 C371 378 98 -220 98 -220 C98 -220 213 -220 213 -220 C213 -220 464 485 464 485 C464 485 464 500 464 500 C464 500 145 500 145 500 C64 500 62 508 69 525 C69 525 75 540 75 540 C75 540 55 540 55 540 C23 463 -11 389 -45 313 L-45 313 Z " />
<glyph glyph-name="eight" unicode="8" horiz-adv-x="540" d="M194 343 C204 337 215 333 226 328 C332 286 385 255 385 132 C385 61 344 25 262 25 C192 25 156 75 156 174 C156 252 169 308 194 343 C194 343 194 343 194 343 L194 343 Z M148 370 C66 320 25 255 25 174 C25 52 105 -10 262 -10 C420 -10 500 60 500 199 C500 330 455 385 365 431 C440 476 477 532 477 599 C477 706 404 760 260 760 C122 760 52 698 52 574 C52 479 84 416 148 370 L148 370 Z M317 453 C306 458 295 462 283 467 C209 497 172 544 172 630 C172 693 202 725 260 725 C319 725 349 678 349 586 C349 527 338 483 317 453 C317 453 317 453 317 453 L317 453 Z " />
<glyph glyph-name="nine" unicode="9" horiz-adv-x="570" d="M21 -250 C363 -177 537 -26 537 200 C537 406 453 510 289 510 C134 510 56 427 56 262 C56 107 122 29 253 29 C296 29 331 40 357 63 C306 -93 192 -190 15 -228 C15 -228 21 -250 21 -250 L21 -250 Z M387 280 C387 274 387 268 387 263 C385 136 345 73 270 73 C227 73 206 134 205 254 C206 396 236 467 297 467 C357 467 388 404 387 280 L387 280 Z " />
<glyph glyph-name="colon" unicode="&#x3a;" horiz-adv-x="135" d="M125 385 C178 385 205 412 205 465 C205 518 178 545 125 545 C72 545 45 518 45 465 C45 412 72 385 125 385 L125 385 Z M125 -5 C178 -5 205 22 205 75 C205 128 178 155 125 155 C72 155 45 128 45 75 C45 22 72 -5 125 -5 L125 -5 Z " />
<glyph glyph-name="semicolon" unicode="&#x3b;" horiz-adv-x="271" d="M125 385 C178 385 205 412 205 465 C205 518 178 545 125 545 C72 545 45 518 45 465 C45 412 72 385 125 385 L125 385 Z M139 -4 C140 -12 140 -22 140 -32 C140 -67 115 -84 65 -84 C65 -84 65 -119 65 -119 C155 -119 201 -72 201 21 C201 84 175 115 125 115 C85 115 65 95 65 55 C65 15 85 -5 125 -5 C130 -5 135 -5 139 -4 L139 -4 Z " />
<glyph glyph-name="equal" unicode="&#x3d;" horiz-adv-x="543" d="M93 233 C93 233 93 167 93 167 C93 167 473 167 473 167 C473 167 473 233 473 233 C473 233 93 233 93 233 L93 233 Z M93 333 C93 333 93 267 93 267 C93 267 473 267 473 267 C473 267 473 333 473 333 C473 333 93 333 93 333 L93 333 Z " />
<glyph glyph-name="question" unicode="&#x3f;" horiz-adv-x="289" d="M125 -5 C178 -5 205 22 205 75 C205 128 178 155 125 155 C72 155 45 128 45 75 C45 22 72 -5 125 -5 L125 -5 Z M130 275 C130 275 125 360 125 360 C245 360 261 383 292 429 C313 459 324 503 324 559 C324 693 264 760 145 760 C51 760 4 723 4 649 C4 600 31 575 85 575 C125 575 159 601 200 601 C253 601 280 581 280 541 C280 534 273 521 259 500 C231 460 217 440 97 440 C97 440 104 275 104 275 C104 275 130 275 130 275 L130 275 Z " />
<glyph glyph-name="at" unicode="&#x40;" horiz-adv-x="1198" d="M1036 0 C964 -154 828 -232 629 -232 C326 -232 173 -67 173 259 C173 585 316 750 600 750 C884 750 1027 613 1027 343 C1027 124 972 13 862 13 C807 13 795 76 826 200 C826 200 896 480 896 480 C896 480 754 480 754 480 C754 480 741 429 741 429 C720 470 675 490 605 490 C384 490 273 387 273 183 C273 61 336 -1 459 -1 C558 -1 630 25 673 76 C684 0 738 -39 835 -39 C1040 -39 1143 89 1143 343 C1143 641 961 791 600 791 C238 791 56 612 56 259 C56 -94 248 -273 629 -273 C848 -273 1002 -181 1086 0 C1086 0 1036 0 1036 0 L1036 0 Z M723 356 C723 356 684 200 684 200 C665 122 615 82 537 82 C470 82 437 125 437 211 C437 369 492 448 601 448 C682 448 723 417 723 356 L723 356 Z " />
<glyph glyph-name="A" unicode="A" horiz-adv-x="863" d="M458 0 C458 0 593 0 593 0 C593 0 769 0 769 0 C769 0 857 0 857 0 C857 0 857 20 857 20 C857 20 827 20 827 20 C787 20 763 27 731 110 C731 110 527 697 527 697 C527 697 501 770 501 770 C501 770 486 770 486 770 C458 729 415 705 359 697 C359 697 362 687 362 687 C362 687 362 687 362 687 C362 687 177 128 177 128 C138 28 100 20 36 20 C36 20 6 20 6 20 C6 20 6 0 6 0 C6 0 134 0 134 0 C134 0 185 0 185 0 C185 0 350 0 350 0 C350 0 350 20 350 20 C350 20 326 20 326 20 C241 20 197 29 231 150 C231 150 266 265 266 265 C266 265 504 265 504 265 C504 265 546 140 546 140 C583 28 551 20 482 20 C482 20 458 20 458 20 C458 20 458 0 458 0 L458 0 Z M280 309 C280 309 380 635 380 635 C380 635 489 309 489 309 C489 309 280 309 280 309 L280 309 Z " />
<glyph glyph-name="B" unicode="B" horiz-adv-x="770" d="M23 0 C23 0 296 0 296 0 C296 0 416 0 416 0 C625 0 731 21 731 200 C731 304 672 368 553 391 C640 420 684 481 684 572 C684 690 653 750 381 750 C381 750 296 750 296 750 C296 750 23 750 23 750 C23 750 23 730 23 730 C23 730 53 730 53 730 C103 730 128 725 128 665 C128 665 128 85 128 85 C128 25 103 20 53 20 C53 20 23 20 23 20 C23 20 23 0 23 0 L23 0 Z M296 716 C296 716 314 716 314 716 C497 716 518 662 518 554 C518 452 474 400 388 400 C388 400 296 400 296 400 C296 400 296 665 296 665 C296 665 296 716 296 716 L296 716 Z M363 370 C485 362 546 305 546 200 C546 50 488 33 373 33 C373 33 323 33 323 33 C305 33 296 49 296 80 C296 80 296 85 296 85 C296 85 296 370 296 370 C296 370 363 370 363 370 L363 370 Z " />
<glyph glyph-name="C" unicode="C" horiz-adv-x="795" d="M758 508 C758 508 758 636 758 636 C758 636 758 750 758 750 C758 750 743 750 743 750 C743 750 741 740 738 721 C735 703 711 697 667 721 C624 747 565 760 461 760 C175 760 31 631 31 375 C31 119 172 -10 451 -10 C549 -10 612 3 660 29 C660 29 661 29 661 29 C705 53 732 45 738 25 C743 5 746 -5 746 -5 C746 -5 758 -5 758 -5 C758 -5 758 114 758 114 C758 114 758 242 758 242 C758 242 743 242 743 242 C743 242 741 235 738 221 C733 201 723 178 708 156 C708 156 707 157 707 157 C635 72 581 29 467 29 C300 29 215 145 215 375 C215 603 303 718 478 718 C510 718 536 715 558 709 C558 709 557 709 557 709 C567 706 577 703 587 699 C632 679 664 644 707 593 C707 593 710 595 710 595 C724 573 733 551 738 529 C741 515 743 508 743 508 C743 508 758 508 758 508 L758 508 Z " />
<glyph glyph-name="D" unicode="D" horiz-adv-x="921" d="M23 0 C23 0 128 0 128 0 C128 0 296 0 296 0 C296 0 376 0 376 0 C702 0 867 101 867 375 C867 624 746 750 416 750 C416 750 296 750 296 750 C296 750 128 750 128 750 C128 750 23 750 23 750 C23 750 23 730 23 730 C23 730 53 730 53 730 C103 730 128 725 128 665 C128 665 128 85 128 85 C128 25 103 20 53 20 C53 20 23 20 23 20 C23 20 23 0 23 0 L23 0 Z M296 717 C577 713 682 598 682 375 C682 126 562 34 326 34 C296 34 296 49 296 80 C296 80 296 85 296 85 C296 85 296 665 296 665 C296 665 296 716 296 716 C296 716 296 717 296 717 L296 717 Z " />
<glyph glyph-name="E" unicode="E" horiz-adv-x="703" d="M617 589 C617 589 611 670 611 670 C610 696 608 723 606 750 C606 750 486 750 486 750 C486 750 296 750 296 750 C296 750 128 750 128 750 C128 750 23 750 23 750 C23 750 23 730 23 730 C23 730 53 730 53 730 C103 730 128 725 128 665 C128 665 128 85 128 85 C128 25 103 20 53 20 C53 20 23 20 23 20 C23 20 23 0 23 0 C23 0 128 0 128 0 C128 0 296 0 296 0 C296 0 511 0 511 0 C511 0 631 0 631 0 C639 54 647 107 653 161 C653 161 633 161 633 161 C633 161 629 131 629 131 C620 68 609 36 516 36 C516 36 376 36 376 36 C296 36 296 51 296 80 C296 80 296 85 296 85 C296 85 296 385 296 385 C296 385 426 385 426 385 C519 385 526 348 526 275 C526 275 526 245 526 245 C526 245 546 245 546 245 C546 245 546 385 546 385 C546 385 546 425 546 425 C546 425 546 565 546 565 C546 565 526 565 526 565 C526 565 526 535 526 535 C526 462 519 425 426 425 C426 425 296 425 296 425 C296 425 296 665 296 665 C296 665 296 714 296 714 C296 714 488 714 488 714 C600 714 591 678 596 607 C596 607 597 589 597 589 C597 589 617 589 617 589 L617 589 Z " />
<glyph glyph-name="F" unicode="F" horiz-adv-x="678" d="M619 599 C615 649 610 698 606 750 C606 750 486 750 486 750 C486 750 296 750 296 750 C296 750 128 750 128 750 C128 750 23 750 23 750 C23 750 23 730 23 730 C23 730 53 730 53 730 C103 730 128 725 128 665 C128 665 128 85 128 85 C128 25 103 20 53 20 C53 20 23 20 23 20 C23 20 23 0 23 0 C23 0 128 0 128 0 C128 0 296 0 296 0 C296 0 401 0 401 0 C401 0 401 20 401 20 C401 20 371 20 371 20 C321 20 296 25 296 85 C296 85 296 345 296 345 C296 345 508 345 508 345 C515 330 518 310 520 286 C520 286 524 240 524 240 C524 240 536 240 536 240 C536 240 536 345 536 345 C536 345 536 385 536 385 C536 385 536 490 536 490 C536 490 524 490 524 490 C524 490 520 445 520 445 C516 405 507 385 416 385 C416 385 296 385 296 385 C296 385 296 665 296 665 C296 665 296 722 296 722 C296 722 408 722 408 722 C576 722 591 690 597 627 C597 627 599 597 599 597 C603 598 617 599 619 599 L619 599 Z " />
<glyph glyph-name="G" unicode="G" horiz-adv-x="875" d="M758 508 C758 508 758 636 758 636 C758 636 758 750 758 750 C758 750 743 750 743 750 C743 750 741 740 738 721 C735 703 711 697 667 721 C624 747 565 760 461 760 C175 760 31 631 31 375 C31 119 177 -10 465 -10 C504 -10 538 -9 568 -7 C568 -7 569 -7 569 -7 C569 -7 572 -6 572 -6 C674 2 735 23 808 57 C808 57 797 81 797 81 C776 71 756 63 733 56 C733 56 734 245 734 245 C734 301 752 305 789 305 C789 305 819 305 819 305 C819 305 819 325 819 325 C819 325 466 325 466 325 C466 325 466 305 466 305 C466 305 496 305 496 305 C542 305 566 301 566 245 C566 245 567 169 567 169 C565 77 536 31 480 31 C304 31 215 146 215 375 C215 603 303 718 478 718 C510 718 536 715 558 709 C558 709 557 709 557 709 C567 706 577 703 587 699 C632 679 664 644 707 593 C707 593 710 595 710 595 C724 573 733 551 738 529 C741 515 743 508 743 508 C743 508 758 508 758 508 L758 508 Z " />
<glyph glyph-name="H" unicode="H" horiz-adv-x="928" d="M889 750 C889 750 511 750 511 750 C511 750 511 730 511 730 C511 730 541 730 541 730 C591 730 616 726 616 670 C616 670 616 406 616 406 C616 406 332 406 332 406 C332 406 332 670 332 670 C332 726 357 730 407 730 C407 730 437 730 437 730 C437 730 437 750 437 750 C437 750 59 750 59 750 C59 750 59 730 59 730 C59 730 89 730 89 730 C139 730 164 726 164 670 C164 670 164 80 164 80 C164 24 139 20 89 20 C89 20 59 20 59 20 C59 20 59 0 59 0 C59 0 437 0 437 0 C437 0 437 20 437 20 C437 20 407 20 407 20 C357 20 332 24 332 80 C332 80 332 360 332 360 C332 360 616 360 616 360 C616 360 616 80 616 80 C616 24 591 20 541 20 C541 20 511 20 511 20 C511 20 511 0 511 0 C511 0 889 0 889 0 C889 0 889 20 889 20 C889 20 859 20 859 20 C809 20 784 24 784 80 C784 80 784 670 784 670 C784 726 809 730 859 730 C859 730 889 730 889 730 C889 730 889 750 889 750 L889 750 Z " />
<glyph glyph-name="I" unicode="I" horiz-adv-x="418" d="M379 750 C379 750 1 750 1 750 C1 750 1 730 1 730 C1 730 31 730 31 730 C81 730 106 726 106 670 C106 670 106 80 106 80 C106 24 81 20 31 20 C31 20 1 20 1 20 C1 20 1 0 1 0 C1 0 379 0 379 0 C379 0 379 20 379 20 C379 20 349 20 349 20 C299 20 274 24 274 80 C274 80 274 670 274 670 C274 726 299 730 349 730 C349 730 379 730 379 730 C379 730 379 750 379 750 L379 750 Z " />
<glyph glyph-name="J" unicode="J" horiz-adv-x="418" d="M379 750 C379 750 1 750 1 750 C1 750 1 730 1 730 C1 730 31 730 31 730 C81 730 106 726 106 670 C106 670 106 -136 106 -136 C106 -159 61 -161 23 -161 C-71 -161 -16 -20 -110 -20 C-162 -20 -189 -47 -189 -99 C-189 -179 -132 -220 -19 -220 C118 -220 275 -192 274 180 C274 180 274 670 274 670 C274 726 299 730 349 730 C349 730 379 730 379 730 C379 730 379 750 379 750 L379 750 Z " />
<glyph glyph-name="K" unicode="K" horiz-adv-x="869" d="M855 20 C855 20 817 20 817 20 C787 20 754 44 728 75 C728 75 425 478 425 478 C425 478 598 682 598 682 C640 726 666 730 703 730 C703 730 733 730 733 730 C733 730 733 750 733 750 C733 750 655 750 655 750 C655 750 588 750 588 750 C588 750 448 750 448 750 C448 750 448 730 448 730 C448 730 471 730 471 730 C538 730 566 722 481 613 C481 613 296 375 296 375 C296 375 296 690 296 690 C296 727 321 730 371 730 C371 730 401 730 401 730 C401 730 401 750 401 750 C401 750 296 750 296 750 C296 750 128 750 128 750 C128 750 23 750 23 750 C23 750 23 730 23 730 C23 730 53 730 53 730 C103 730 128 727 128 690 C128 690 128 60 128 60 C128 23 103 20 53 20 C53 20 23 20 23 20 C23 20 23 0 23 0 C23 0 128 0 128 0 C128 0 296 0 296 0 C296 0 401 0 401 0 C401 0 401 20 401 20 C401 20 371 20 371 20 C321 20 296 23 296 60 C296 60 296 375 296 375 C296 375 506 85 506 85 C506 85 505 85 505 85 C568 -2 567 0 567 0 C567 0 785 0 785 0 C785 0 855 0 855 0 C855 0 855 20 855 20 L855 20 Z " />
<glyph glyph-name="L" unicode="L" horiz-adv-x="683" d="M609 29 C624 82 638 136 652 190 C648 191 635 193 633 194 C633 194 625 164 625 164 C601 74 578 29 424 29 C424 29 354 29 354 29 C274 29 274 46 274 80 C274 80 274 85 274 85 C274 85 274 665 274 665 C274 725 299 730 349 730 C349 730 379 730 379 730 C379 730 379 750 379 750 C379 750 274 750 274 750 C274 750 106 750 106 750 C106 750 1 750 1 750 C1 750 1 730 1 730 C1 730 31 730 31 730 C81 730 106 725 106 665 C106 665 106 85 106 85 C106 25 81 20 31 20 C31 20 1 20 1 20 C1 20 1 0 1 0 C1 0 106 0 106 0 C106 0 274 0 274 0 C274 0 416 0 416 0 C416 0 601 0 601 0 C601 0 609 29 609 29 L609 29 Z " />
<glyph glyph-name="M" unicode="M" horiz-adv-x="1025" d="M29 730 C29 730 59 730 59 730 C101 730 126 727 148 691 C148 691 130 150 130 150 C126 29 94 20 31 20 C31 20 1 20 1 20 C1 20 1 0 1 0 C1 0 125 0 125 0 C125 0 184 0 184 0 C184 0 309 0 309 0 C309 0 309 20 309 20 C309 20 279 20 279 20 C221 20 188 27 185 113 C185 113 190 597 190 597 C274 398 358 199 442 0 C442 0 484 0 484 0 C484 0 686 591 686 591 C686 591 698 85 698 85 C698 85 697 85 697 85 C699 25 673 20 622 20 C622 20 592 20 592 20 C592 20 592 0 592 0 C592 0 700 0 700 0 C700 0 867 0 867 0 C867 0 969 0 969 0 C969 0 969 20 969 20 C969 20 939 20 939 20 C892 20 867 25 864 80 C864 80 847 580 847 580 C847 580 847 580 847 580 C843 720 868 730 917 730 C917 730 946 730 946 730 C946 730 946 750 946 750 C946 750 841 750 841 750 C841 750 740 750 740 750 C740 750 682 750 682 750 C682 750 511 214 511 214 C511 214 511 218 511 218 C511 218 327 750 327 750 C327 750 191 750 191 750 C191 750 150 750 150 750 C150 750 125 750 125 750 C125 750 29 750 29 750 C29 750 29 730 29 730 L29 730 Z " />
<glyph glyph-name="N" unicode="N" horiz-adv-x="815" d="M-41 730 C-41 730 -4 730 -4 730 C15 730 26 728 53 695 C53 695 53 695 53 695 C53 695 134 596 134 596 C134 596 133 130 133 130 C128 28 96 20 37 20 C37 20 7 20 7 20 C7 20 7 0 7 0 C7 0 132 0 132 0 C132 0 183 0 183 0 C183 0 308 0 308 0 C308 0 308 20 308 20 C308 20 278 20 278 20 C213 20 181 28 182 140 C182 140 182 140 182 140 C182 140 178 543 178 543 C178 543 428 238 428 238 C428 238 624 0 624 0 C624 0 658 0 658 0 C658 0 668 645 668 645 C672 724 704 730 763 730 C763 730 793 730 793 730 C793 730 793 750 793 750 C793 750 670 750 670 750 C670 750 620 750 620 750 C620 750 496 750 496 750 C496 750 496 730 496 730 C496 730 526 730 526 730 C585 730 616 724 621 644 C621 644 623 268 623 268 C623 268 561 341 561 341 C561 341 216 750 216 750 C216 750 176 750 176 750 C176 750 135 750 135 750 C135 750 8 750 8 750 C8 750 -41 750 -41 750 C-41 750 -41 730 -41 730 L-41 730 Z " />
<glyph glyph-name="O" unicode="O" horiz-adv-x="933" d="M448 35 C297 35 221 149 221 375 C221 601 295 715 441 715 C604 715 687 601 687 375 C687 149 607 35 448 35 L448 35 Z M29 375 C29 119 167 -10 439 -10 C731 -10 879 119 879 375 C879 631 735 760 449 760 C170 760 29 631 29 375 L29 375 Z " />
<glyph glyph-name="P" unicode="P" horiz-adv-x="711" d="M65 730 C65 730 95 730 95 730 C145 730 170 725 170 665 C170 665 170 85 170 85 C170 25 145 20 95 20 C95 20 65 20 65 20 C65 20 65 0 65 0 C65 0 170 0 170 0 C170 0 338 0 338 0 C338 0 443 0 443 0 C443 0 443 20 443 20 C443 20 413 20 413 20 C363 20 338 25 338 85 C338 85 338 329 338 329 C338 329 388 329 388 329 C590 329 692 378 692 536 C692 678 607 750 438 750 C438 750 338 750 338 750 C338 750 170 750 170 750 C170 750 65 750 65 750 C65 750 65 730 65 730 L65 730 Z M338 365 C338 365 338 665 338 665 C338 665 338 722 338 722 C356 722 376 721 395 721 C488 721 535 668 535 564 C535 412 486 365 388 365 C388 365 338 365 338 365 L338 365 Z " />
<glyph glyph-name="Q" unicode="Q" horiz-adv-x="928" d="M1229 -35 C1229 -35 1217 -21 1217 -21 C1174 -57 1063 -75 884 -75 C735 -75 606 -53 498 -8 C751 9 879 137 879 375 C879 631 735 760 449 760 C170 760 29 631 29 375 C29 234 113 131 210 67 C473 -120 690 -215 859 -215 C962 -215 1086 -155 1229 -35 L1229 -35 Z M448 35 C423 35 390 47 357 72 C356 72 355 73 354 74 C354 74 354 74 354 74 C287 125 221 225 221 375 C221 601 295 715 441 715 C604 715 687 601 687 375 C687 149 607 35 448 35 L448 35 Z " />
<glyph glyph-name="R" unicode="R" horiz-adv-x="864" d="M23 730 C23 730 53 730 53 730 C103 730 128 725 128 665 C128 665 128 85 128 85 C128 25 103 20 53 20 C53 20 23 20 23 20 C23 20 23 0 23 0 C23 0 401 0 401 0 C401 0 401 20 401 20 C401 20 371 20 371 20 C321 20 296 25 296 85 C296 85 296 338 296 338 C296 338 339 338 339 338 C364 299 433 213 542 80 C612 -5 592 0 855 0 C855 0 855 34 855 34 C772 34 779 31 738 80 C627 214 553 305 514 352 C625 375 680 429 680 535 C680 678 568 750 345 750 C345 750 296 750 296 750 C296 750 23 750 23 750 C23 750 23 730 23 730 L23 730 Z M296 716 C428 716 495 666 495 567 C495 424 445 380 345 380 C345 380 296 380 296 380 C296 380 296 665 296 665 C296 665 296 716 296 716 L296 716 Z " />
<glyph glyph-name="S" unicode="S" horiz-adv-x="559" d="M484 538 C484 538 484 646 484 646 C484 646 484 760 484 760 C484 760 469 760 469 760 C469 760 467 750 464 731 C462 714 445 706 418 724 C418 724 418 724 418 724 C380 748 332 760 274 760 C126 760 51 686 51 540 C51 414 97 333 222 288 C341 245 385 209 385 169 C385 86 347 44 273 44 C249 44 227 48 207 55 C179 65 155 82 134 104 C118 122 105 142 93 167 C93 167 90 166 90 166 C79 187 70 210 65 231 C62 245 60 252 60 252 C60 252 45 252 45 252 C45 252 45 144 45 144 C45 144 45 -1 45 -1 C45 -1 60 -1 60 -1 C60 -1 62 11 65 36 C67 55 90 61 131 34 C170 5 218 -10 273 -10 C436 -10 519 66 519 217 C519 333 466 410 323 462 C220 499 182 544 182 604 C182 680 213 718 274 718 C343 718 397 681 431 633 C433 630 434 626 436 623 C436 623 437 624 437 624 C450 603 459 581 464 559 C467 545 469 538 469 538 C469 538 484 538 484 538 L484 538 Z " />
<glyph glyph-name="T" unicode="T" horiz-adv-x="775" d="M757 605 C745 640 732 675 720 710 C720 710 720 750 720 750 C720 750 705 750 705 750 C700 763 695 776 690 789 C690 789 687 789 680 790 C680 790 670 790 670 790 C670 790 675 777 675 777 C681 759 678 750 585 750 C585 750 471 750 471 750 C471 750 304 750 304 750 C304 750 190 750 190 750 C97 750 94 759 100 777 C100 777 105 790 105 790 C105 790 95 790 95 790 C88 789 85 789 85 789 C80 776 75 763 70 750 C70 750 55 750 55 750 C55 750 55 710 55 710 C43 675 30 640 18 605 C22 604 35 603 37 603 C37 603 48 633 48 633 C66 683 82 708 175 708 C175 708 304 708 304 708 C304 708 304 80 304 80 C304 24 279 20 229 20 C229 20 199 20 199 20 C199 20 199 0 199 0 C199 0 576 0 576 0 C576 0 576 20 576 20 C576 20 546 20 546 20 C496 20 471 24 471 80 C471 80 471 708 471 708 C471 708 600 708 600 708 C693 708 709 683 727 633 C727 633 738 603 738 603 C742 604 755 605 757 605 L757 605 Z " />
<glyph glyph-name="U" unicode="U" horiz-adv-x="861" d="M474 730 C474 730 504 730 504 730 C554 730 579 725 579 665 C579 665 579 213 579 213 C543 136 486 98 408 98 C310 98 261 139 261 220 C261 220 261 665 261 665 C261 665 261 750 261 750 C261 750 -12 750 -12 750 C-12 750 -12 730 -12 730 C-12 730 18 730 18 730 C68 730 93 725 93 665 C93 665 93 220 93 220 C93 67 176 -10 340 -10 C453 -10 533 39 579 137 C579 137 579 110 579 110 C579 110 579 0 579 0 C579 0 605 0 605 0 C605 0 850 55 850 55 C850 55 850 65 850 65 C753 60 746 62 746 110 C746 110 746 665 746 665 C746 665 746 750 746 750 C746 750 474 750 474 750 C474 750 474 730 474 730 L474 730 Z " />
<glyph glyph-name="V" unicode="V" horiz-adv-x="906" d="M410 750 C410 750 245 750 245 750 C245 750 52 750 52 750 C52 750 -3 750 -3 750 C-3 750 -3 730 -3 730 C-3 730 34 730 34 730 C52 730 63 727 81 690 C81 690 81 690 81 690 C81 690 307 226 307 226 C307 226 422 -10 422 -10 C422 -10 455 -10 455 -10 C455 -10 742 662 742 662 C774 725 798 730 836 730 C836 730 866 730 866 730 C866 730 866 750 866 750 C866 750 780 750 780 750 C780 750 713 750 713 750 C713 750 548 750 548 750 C548 750 548 730 548 730 C548 730 571 730 571 730 C660 730 702 722 659 610 C659 610 659 610 659 610 C659 610 422 -10 422 -10 C422 -10 512 226 512 226 C512 226 312 619 312 619 C264 722 303 730 387 730 C387 730 410 730 410 730 C410 730 410 750 410 750 L410 750 Z " />
<glyph glyph-name="W" unicode="W" horiz-adv-x="1230" d="M1193 750 C1193 750 1104 750 1104 750 C1104 750 1035 750 1035 750 C1035 750 870 750 870 750 C870 750 870 730 870 730 C870 730 895 730 895 730 C985 730 1028 722 999 610 C999 610 999 610 999 610 C999 610 905 243 905 243 C905 243 905 244 905 244 C905 244 705 640 705 640 C705 640 706 640 706 640 C663 724 698 730 772 730 C772 730 795 730 795 730 C795 730 795 750 795 750 C795 750 650 750 650 750 C650 750 456 750 456 750 C456 750 405 750 405 750 C405 750 371 750 371 750 C371 750 260 750 260 750 C260 750 76 750 76 750 C76 750 20 750 20 750 C20 750 20 730 20 730 C20 730 58 730 58 730 C76 730 89 722 142 610 C142 610 143 610 143 610 C241 403 339 197 437 -10 C437 -10 481 -10 481 -10 C481 -10 619 429 619 429 C693 283 766 136 840 -10 C840 -10 884 -10 884 -10 C884 -10 1063 610 1063 610 C1063 610 1064 610 1064 610 C1066 618 1068 625 1070 631 C1070 631 1072 640 1072 640 C1097 723 1121 730 1163 730 C1163 730 1193 730 1193 730 C1193 730 1193 750 1193 750 L1193 750 Z M382 730 C382 730 401 730 401 730 C441 730 463 727 482 698 C516 632 549 566 583 499 C583 499 500 209 500 209 C500 209 500 212 500 212 C500 212 322 610 322 610 C322 610 323 610 323 610 C270 722 305 730 382 730 L382 730 Z " />
<glyph glyph-name="X" unicode="X" horiz-adv-x="889" d="M851 750 C851 750 783 750 783 750 C783 750 708 750 708 750 C708 750 573 750 573 750 C573 750 573 730 573 730 C573 730 596 730 596 730 C660 730 686 721 594 600 C594 600 594 600 594 600 C594 600 481 449 481 449 C481 449 371 610 371 610 C371 610 371 610 371 610 C295 722 318 730 377 730 C377 730 400 730 400 730 C400 730 400 750 400 750 C400 750 275 750 275 750 C275 750 77 750 77 750 C77 750 16 750 16 750 C16 750 16 730 16 730 C16 730 49 730 49 730 C74 730 92 724 149 644 C149 644 361 334 361 334 C361 334 195 120 195 120 C195 120 195 120 195 120 C122 27 92 20 42 20 C42 20 12 20 12 20 C12 20 12 0 12 0 C12 0 102 0 102 0 C102 0 169 0 169 0 C169 0 354 0 354 0 C354 0 354 20 354 20 C354 20 332 20 332 20 C243 20 197 26 241 102 C241 102 383 301 383 301 C383 301 493 140 493 140 C493 140 493 140 493 140 C569 28 546 20 487 20 C487 20 464 20 464 20 C464 20 464 0 464 0 C464 0 589 0 589 0 C589 0 788 0 788 0 C788 0 860 0 860 0 C860 0 860 20 860 20 C860 20 829 20 829 20 C792 20 768 28 693 140 C693 140 692 140 692 140 C692 140 502 418 502 418 C502 418 732 690 732 690 C770 726 793 730 820 730 C820 730 851 730 851 730 C851 730 851 750 851 750 L851 750 Z " />
<glyph glyph-name="Y" unicode="Y" horiz-adv-x="958" d="M414 750 C414 750 309 750 309 750 C309 750 112 750 112 750 C112 750 60 750 60 750 C60 750 60 730 60 730 C60 730 98 730 98 730 C115 730 130 723 201 621 C201 621 418 308 418 308 C418 308 418 80 418 80 C418 24 393 20 343 20 C343 20 313 20 313 20 C313 20 313 0 313 0 C313 0 690 0 690 0 C690 0 690 20 690 20 C690 20 660 20 660 20 C610 20 585 24 585 80 C585 80 585 314 585 314 C585 314 747 610 747 610 C747 610 748 610 748 610 C808 722 831 730 867 730 C867 730 898 730 898 730 C898 730 898 750 898 750 C898 750 824 750 824 750 C824 750 740 750 740 750 C740 750 635 750 635 750 C635 750 635 730 635 730 C635 730 661 730 661 730 C699 730 722 726 710 685 C710 685 566 368 566 368 C566 368 403 610 403 610 C403 610 404 610 404 610 C326 722 343 730 390 730 C390 730 414 730 414 730 C414 730 414 750 414 750 L414 750 Z " />
<glyph glyph-name="Z" unicode="Z" horiz-adv-x="663" d="M218 0 C218 0 457 0 457 0 C457 0 617 0 617 0 C633 67 651 133 667 200 C665 200 656 203 648 203 C648 203 631 159 631 159 C605 94 585 57 504 50 C504 50 241 41 241 41 C241 41 621 715 621 715 C621 715 621 750 621 750 C621 750 457 750 457 750 C457 750 251 750 251 750 C251 750 81 750 81 750 C71 679 61 609 51 538 C54 538 67 538 77 535 C77 535 83 565 83 565 C102 658 121 705 245 705 C245 705 245 705 245 705 C245 705 434 710 434 710 C434 710 36 35 36 35 C36 35 36 0 36 0 C36 0 218 0 218 0 L218 0 Z " />
<glyph glyph-name="bracketleft" unicode="&#x5b;" horiz-adv-x="311" d="M152 706 C152 706 362 706 362 706 C362 706 362 750 362 750 C362 750 152 750 152 750 C152 750 99 750 99 750 C99 750 99 -195 99 -195 C99 -195 152 -195 152 -195 C152 -195 362 -195 362 -195 C362 -195 362 -151 362 -151 C362 -151 152 -151 152 -151 C152 -151 152 706 152 706 L152 706 Z " />
<glyph glyph-name="backslash" unicode="&#x5c;" horiz-adv-x="366" d="M8 770 C8 770 268 -80 268 -80 C268 -80 356 -80 356 -80 C356 -80 96 770 96 770 C96 770 8 770 8 770 L8 770 Z " />
<glyph glyph-name="bracketright" unicode="&#x5d;" horiz-adv-x="314" d="M152 706 C152 706 152 -151 152 -151 C152 -151 -58 -151 -58 -151 C-58 -151 -58 -195 -58 -195 C-58 -195 152 -195 152 -195 C152 -195 205 -195 205 -195 C205 -195 205 750 205 750 C205 750 152 750 152 750 C152 750 -58 750 -58 750 C-58 750 -58 706 -58 706 C-58 706 152 706 152 706 L152 706 Z " />
<glyph glyph-name="underscore" unicode="&#x5f;" horiz-adv-x="455" d="M5 -50 C5 -50 5 -133 5 -133 C5 -133 450 -133 450 -133 C450 -133 450 -50 450 -50 C450 -50 5 -50 5 -50 L5 -50 Z " />
<glyph glyph-name="a" unicode="a" horiz-adv-x="515" d="M525 147 C525 147 504 158 504 158 C497 121 479 102 449 102 C417 102 400 115 400 140 C400 140 400 349 400 349 C400 472 350 510 252 510 C117 510 48 420 48 360 C48 307 76 280 133 280 C174 280 195 311 195 337 C195 362 175 372 175 406 C175 423 189 449 217 449 C239 449 250 438 250 404 C250 404 250 281 250 281 C51 220 28 210 28 101 C28 27 65 -10 138 -10 C176 -10 208 8 259 76 C276 22 319 -5 387 -5 C461 -5 507 46 525 147 L525 147 Z M250 245 C250 245 250 140 250 140 C250 128 251 117 252 106 C232 78 223 70 218 70 C192 70 179 86 179 117 C179 217 187 226 250 245 L250 245 Z " />
<glyph glyph-name="b" unicode="b" horiz-adv-x="719" d="M54 670 C54 670 84 679 84 679 C120 689 139 689 139 615 C139 615 139 0 139 0 C139 0 147 0 147 0 C147 0 213 65 213 65 C213 65 213 65 213 65 C231 15 290 -10 389 -10 C579 -10 675 79 675 254 C675 421 594 505 432 505 C367 505 320 492 289 464 C289 464 289 650 289 650 C289 650 289 750 289 750 C289 750 262 750 262 750 C262 750 54 690 54 690 C54 690 54 670 54 670 L54 670 Z M289 419 C309 435 336 443 371 443 C461 443 506 374 506 237 C506 95 469 24 397 24 C336 24 299 39 289 70 C289 70 289 195 289 195 C289 195 289 419 289 419 L289 419 Z " />
<glyph glyph-name="c" unicode="c" horiz-adv-x="556" d="M527 128 C527 128 506 137 506 137 C489 101 448 82 383 82 C253 82 187 148 187 279 C187 410 238 476 338 476 C352 476 369 452 386 405 C404 355 429 330 461 330 C529 330 554 355 536 405 C510 475 446 510 346 510 C131 510 23 417 23 234 C23 72 126 -10 330 -10 C420 -10 486 36 527 128 L527 128 Z " />
<glyph glyph-name="d" unicode="d" horiz-adv-x="593" d="M598 62 C598 62 568 55 568 55 C532 45 513 48 513 141 C513 141 513 665 513 665 C513 665 513 750 513 750 C513 750 487 750 487 750 C487 750 278 690 278 690 C278 690 278 670 278 670 C278 670 308 679 308 679 C345 689 363 690 363 630 C363 630 363 496 363 496 C330 505 289 510 240 510 C87 510 30 422 30 247 C30 79 94 -5 220 -5 C282 -5 330 15 363 55 C363 55 363 -10 363 -10 C363 -10 390 -10 390 -10 C390 -10 598 42 598 42 C598 42 598 62 598 62 L598 62 Z M363 108 C337 74 310 57 282 57 C216 57 183 134 183 288 C183 406 203 466 258 466 C301 466 338 440 363 401 C363 401 363 110 363 110 C363 110 363 108 363 108 L363 108 Z " />
<glyph glyph-name="e" unicode="e" horiz-adv-x="535" d="M184 340 C184 340 340 340 340 340 C340 340 506 340 506 340 C482 476 413 510 289 510 C112 510 23 414 23 225 C23 69 104 -10 265 -10 C382 -10 458 37 492 130 C492 130 474 137 474 137 C463 105 405 89 301 89 C222 89 182 155 182 286 C182 305 183 323 184 340 L184 340 Z M427 383 C439 384 451 384 464 384 C464 384 427 383 427 383 L427 383 Z M332 380 C332 380 189 375 189 375 C202 442 233 476 281 476 C301 476 316 455 332 380 C332 380 332 380 332 380 L332 380 Z " />
<glyph glyph-name="f" unicode="f" horiz-adv-x="416" d="M19 0 C19 0 339 0 339 0 C339 0 339 20 339 20 C339 20 309 20 309 20 C272 20 254 21 254 35 C254 35 254 421 254 421 C254 421 407 421 407 421 C407 421 407 500 407 500 C407 500 254 500 254 500 C254 639 276 709 335 709 C408 709 418 635 479 635 C509 635 524 650 524 680 C524 730 479 755 389 755 C181 755 104 669 104 500 C104 500 26 438 26 438 C26 438 26 421 26 421 C26 421 104 421 104 421 C104 421 104 35 104 35 C104 21 85 20 49 20 C49 20 19 20 19 20 C19 20 19 0 19 0 L19 0 Z " />
<glyph glyph-name="g" unicode="g" horiz-adv-x="520" d="M209 350 C209 433 222 475 247 475 C272 475 285 433 285 350 C285 266 272 223 247 223 C222 223 209 266 209 350 L209 350 Z M160 -33 C162 -33 164 -33 166 -33 C166 -33 282 -33 282 -33 C345 -32 361 -49 361 -83 C361 -158 329 -196 267 -196 C193 -196 156 -151 156 -63 C156 -51 157 -41 160 -33 L160 -33 Z M108 -22 C58 -38 32 -64 32 -99 C32 -186 108 -230 259 -230 C409 -230 485 -169 485 -48 C485 61 447 116 297 117 C297 117 174 117 174 117 C147 117 133 126 133 145 C133 173 171 188 247 188 C372 188 435 242 435 350 C435 371 433 390 428 407 C440 424 453 433 466 433 C458 433 454 429 454 422 C454 387 477 369 524 369 C564 369 585 393 585 440 C585 477 566 495 528 495 C479 495 440 476 414 439 C386 486 330 510 247 510 C122 510 59 456 59 350 C59 280 86 232 139 208 C76 191 45 155 45 100 C45 37 66 -4 108 -22 L108 -22 Z " />
<glyph glyph-name="h" unicode="h" horiz-adv-x="743" d="M15 670 C15 670 45 679 45 679 C81 689 100 689 100 615 C100 615 100 35 100 35 C100 21 81 20 45 20 C45 20 15 20 15 20 C15 20 15 0 15 0 C15 0 335 0 335 0 C335 0 335 20 335 20 C335 20 305 20 305 20 C268 20 250 21 250 35 C250 35 250 357 250 357 C268 388 314 404 388 404 C450 404 473 357 473 265 C473 265 473 35 473 35 C473 21 455 20 418 20 C418 20 388 20 388 20 C388 20 388 0 388 0 C388 0 708 0 708 0 C708 0 708 20 708 20 C708 20 678 20 678 20 C641 20 623 21 623 35 C623 35 623 265 623 265 C623 428 583 510 474 510 C366 510 291 473 250 401 C250 401 250 650 250 650 C250 650 250 750 250 750 C250 750 223 750 223 750 C223 750 15 690 15 690 C15 690 15 670 15 670 L15 670 Z " />
<glyph glyph-name="i" unicode="i" horiz-adv-x="368" d="M184 615 C237 615 264 642 264 695 C264 748 237 775 184 775 C131 775 104 748 104 695 C104 642 131 615 184 615 L184 615 Z M24 420 C24 420 54 429 54 429 C90 439 109 439 109 365 C109 365 109 35 109 35 C109 21 94 20 64 20 C64 20 34 20 34 20 C34 20 34 0 34 0 C34 0 334 0 334 0 C334 0 334 20 334 20 C334 20 304 20 304 20 C274 20 259 21 259 35 C259 35 259 400 259 400 C259 400 259 500 259 500 C259 500 232 500 232 500 C232 500 24 440 24 440 C24 440 24 420 24 420 L24 420 Z " />
<glyph glyph-name="j" unicode="j" horiz-adv-x="338" d="M174 615 C227 615 254 642 254 695 C254 748 227 775 174 775 C121 775 94 748 94 695 C94 642 121 615 174 615 L174 615 Z M14 420 C14 420 44 429 44 429 C80 439 99 439 99 365 C99 365 99 88 99 88 C99 -19 77 -86 34 -110 C4 -110 -26 -100 -56 -100 C-86 -100 -101 -113 -101 -140 C-101 -173 -81 -188 -41 -185 C-35 -184 1 -166 64 -130 C187 -59 249 14 249 88 C249 88 249 400 249 400 C249 400 249 500 249 500 C249 500 222 500 222 500 C222 500 14 440 14 440 C14 440 14 420 14 420 L14 420 Z " />
<glyph glyph-name="k" unicode="k" horiz-adv-x="776" d="M699 500 C699 500 665 500 665 500 C665 500 601 500 601 500 C601 500 416 500 416 500 C416 500 416 480 416 480 C416 480 436 480 436 480 C525 480 554 470 336 330 C336 330 339 332 339 332 C339 332 259 280 259 280 C259 280 259 650 259 650 C259 650 259 750 259 750 C259 750 232 750 232 750 C232 750 24 690 24 690 C24 690 24 670 24 670 C24 670 54 679 54 679 C90 689 109 689 109 615 C109 615 109 35 109 35 C109 21 94 20 64 20 C64 20 34 20 34 20 C34 20 34 0 34 0 C34 0 334 0 334 0 C334 0 334 20 334 20 C334 20 304 20 304 20 C274 20 259 21 259 35 C259 35 259 280 259 280 C259 280 486 33 486 33 C495 21 482 20 456 20 C456 20 431 20 431 20 C431 20 431 0 431 0 C431 0 516 0 516 0 C516 0 711 0 711 0 C711 0 748 0 748 0 C748 0 748 20 748 20 C748 20 704 20 704 20 C698 20 694 21 684 29 C684 29 408 335 408 335 C408 335 617 469 617 469 C635 479 645 480 661 480 C661 480 699 480 699 480 C699 480 699 500 699 500 L699 500 Z " />
<glyph glyph-name="l" unicode="l" horiz-adv-x="358" d="M14 670 C14 670 44 679 44 679 C80 689 99 689 99 615 C99 615 99 35 99 35 C99 21 82 20 49 20 C49 20 19 20 19 20 C19 20 19 0 19 0 C19 0 329 0 329 0 C329 0 329 20 329 20 C329 20 299 20 299 20 C266 20 249 21 249 35 C249 35 249 650 249 650 C249 650 249 750 249 750 C249 750 222 750 222 750 C222 750 14 690 14 690 C14 690 14 670 14 670 L14 670 Z " />
<glyph glyph-name="m" unicode="m" horiz-adv-x="995" d="M661 0 C661 0 971 0 971 0 C971 0 971 20 971 20 C971 20 941 20 941 20 C904 20 886 22 886 55 C886 55 886 265 886 265 C886 428 857 510 741 510 C657 510 595 475 555 406 C555 406 555 388 555 388 C539 469 501 510 419 510 C341 510 282 475 243 406 C243 406 243 500 243 500 C243 500 216 500 216 500 C216 500 8 424 8 424 C8 424 8 404 8 404 C8 404 38 415 38 415 C74 428 93 430 93 355 C93 355 93 55 93 55 C93 22 74 20 38 20 C38 20 8 20 8 20 C8 20 8 0 8 0 C8 0 313 0 313 0 C313 0 313 20 313 20 C313 20 283 20 283 20 C256 20 243 22 243 55 C243 55 243 362 243 362 C257 387 295 399 358 399 C403 399 414 354 414 265 C414 265 414 55 414 55 C414 22 399 20 369 20 C369 20 339 20 339 20 C339 20 339 0 339 0 C339 0 629 0 629 0 C629 0 629 20 629 20 C629 20 599 20 599 20 C576 20 564 22 564 55 C564 55 564 265 564 265 C564 304 562 338 558 367 C575 389 616 399 679 399 C724 399 736 354 736 265 C736 265 736 55 736 55 C736 22 721 20 691 20 C691 20 661 20 661 20 C661 20 661 0 661 0 L661 0 Z " />
<glyph glyph-name="n" unicode="n" horiz-adv-x="674" d="M8 404 C8 404 38 415 38 415 C74 428 93 430 93 355 C93 355 93 35 93 35 C93 21 76 20 43 20 C43 20 13 20 13 20 C13 20 13 0 13 0 C13 0 323 0 323 0 C323 0 323 20 323 20 C323 20 293 20 293 20 C260 20 243 21 243 35 C243 35 243 357 243 357 C259 386 288 400 330 400 C392 400 414 355 414 265 C414 265 414 35 414 35 C414 21 397 20 364 20 C364 20 334 20 334 20 C334 20 334 0 334 0 C334 0 644 0 644 0 C644 0 644 20 644 20 C644 20 614 20 614 20 C581 20 564 21 564 35 C564 35 564 265 564 265 C564 428 525 510 419 510 C343 510 284 473 243 401 C243 401 243 500 243 500 C243 500 216 500 216 500 C216 500 8 424 8 424 C8 424 8 404 8 404 L8 404 Z " />
<glyph glyph-name="o" unicode="o" horiz-adv-x="609" d="M293 35 C223 35 188 107 188 250 C188 393 223 465 293 465 C363 465 398 393 398 250 C398 107 363 35 293 35 L293 35 Z M23 250 C23 77 114 -10 293 -10 C473 -10 564 77 564 250 C564 423 473 510 293 510 C114 510 23 423 23 250 L23 250 Z " />
<glyph glyph-name="p" unicode="p" horiz-adv-x="678" d="M9 404 C9 404 39 415 39 415 C75 428 94 430 94 355 C94 355 94 -150 94 -150 C94 -197 75 -200 39 -200 C39 -200 9 -200 9 -200 C9 -200 9 -220 9 -220 C9 -220 329 -220 329 -220 C329 -220 329 -200 329 -200 C329 -200 299 -200 299 -200 C262 -200 244 -197 244 -150 C244 -150 244 20 244 20 C282 4 334 -5 400 -5 C555 -5 634 102 634 262 C634 427 555 510 400 510 C330 510 278 490 244 450 C244 450 244 500 244 500 C244 500 217 500 217 500 C217 500 9 424 9 424 C9 424 9 404 9 404 L9 404 Z M244 90 C244 90 244 391 244 391 C271 428 300 447 330 447 C422 447 469 369 469 215 C469 105 441 31 385 31 C322 31 274 51 244 90 L244 90 Z " />
<glyph glyph-name="q" unicode="q" horiz-adv-x="625" d="M260 -220 C260 -220 580 -220 580 -220 C580 -220 580 -200 580 -200 C580 -200 550 -200 550 -200 C513 -200 495 -199 495 -185 C495 -185 495 500 495 500 C495 500 486 500 486 500 C486 500 436 440 436 440 C411 487 356 510 273 510 C93 510 27 422 27 247 C27 79 92 -5 222 -5 C270 -5 311 15 345 53 C345 53 345 -185 345 -185 C345 -199 326 -200 290 -200 C290 -200 260 -200 260 -200 C260 -200 260 -220 260 -220 L260 -220 Z M345 390 C345 390 345 105 345 105 C320 73 300 57 284 57 C216 57 182 135 182 288 C182 413 204 476 264 476 C287 476 314 447 345 390 L345 390 Z " />
<glyph glyph-name="r" unicode="r" horiz-adv-x="555" d="M14 404 C14 404 44 415 44 415 C80 428 99 430 99 355 C99 355 99 35 99 35 C99 21 84 20 54 20 C54 20 24 20 24 20 C24 20 24 0 24 0 C24 0 334 0 334 0 C334 0 334 20 334 20 C334 20 304 20 304 20 C267 20 249 21 249 35 C249 35 249 345 249 345 C270 408 295 440 324 440 C354 440 369 428 369 405 C369 347 399 317 458 317 C516 317 546 347 546 405 C546 475 495 510 394 510 C323 510 274 480 249 420 C249 420 249 500 249 500 C249 500 222 500 222 500 C222 500 14 424 14 424 C14 424 14 404 14 404 L14 404 Z " />
<glyph glyph-name="s" unicode="s" horiz-adv-x="448" d="M377 344 C377 344 377 428 377 428 C377 428 377 510 377 510 C377 510 357 510 357 510 C357 510 357 481 357 481 C357 480 341 484 309 496 C288 505 263 510 234 510 C117 510 58 461 58 363 C58 271 90 216 177 193 C254 172 282 144 282 104 C282 52 258 25 210 25 C168 25 134 54 107 110 C107 110 96 105 96 105 C90 122 87 141 87 159 C87 159 87 175 87 175 C87 175 67 175 67 175 C67 175 67 91 67 91 C67 91 67 6 67 6 C67 6 87 6 87 6 C87 6 87 28 87 28 C87 23 111 12 160 -2 C175 -7 192 -10 210 -10 C335 -10 398 43 398 147 C398 226 356 277 243 307 C186 322 165 357 165 415 C165 455 188 475 234 475 C282 475 316 453 337 409 C337 409 345 413 345 413 C353 396 357 378 357 360 C357 360 357 344 357 344 C357 344 377 344 377 344 L377 344 Z " />
<glyph glyph-name="t" unicode="t" horiz-adv-x="450" d="M396 500 C396 500 245 500 245 500 C245 500 245 620 245 620 C245 620 234 620 234 620 C234 620 30 431 30 431 C30 431 30 421 30 421 C30 421 95 421 95 421 C95 421 95 217 95 217 C95 36 153 -10 268 -10 C383 -10 441 45 441 154 C441 154 421 154 421 154 C421 92 385 61 314 61 C264 61 239 86 241 184 C241 184 245 421 245 421 C245 421 396 421 396 421 C396 421 396 500 396 500 L396 500 Z " />
<glyph glyph-name="u" unicode="u" horiz-adv-x="661" d="M641 62 C641 62 611 55 611 55 C574 45 556 46 556 121 C556 121 556 465 556 465 C556 465 556 500 556 500 C556 500 340 500 340 500 C340 500 340 480 340 480 C340 480 370 480 370 480 C394 480 406 479 406 465 C406 465 406 158 406 158 C386 115 353 94 308 94 C260 94 235 116 235 160 C235 160 235 465 235 465 C235 465 235 500 235 500 C235 500 18 500 18 500 C18 500 18 480 18 480 C18 480 48 480 48 480 C73 480 85 479 85 465 C85 465 85 160 85 160 C85 47 136 -10 238 -10 C315 -10 371 32 406 114 C406 114 406 90 406 90 C406 90 406 -10 406 -10 C406 -10 432 -10 432 -10 C432 -10 641 42 641 42 C641 42 641 62 641 62 L641 62 Z " />
<glyph glyph-name="v" unicode="v" horiz-adv-x="670" d="M634 500 C634 500 557 500 557 500 C557 500 488 500 488 500 C488 500 393 500 393 500 C393 500 393 480 393 480 C393 480 420 480 420 480 C461 480 480 478 470 450 C470 450 471 450 471 450 C471 450 311 -10 311 -10 C311 -10 355 -10 355 -10 C355 -10 537 451 537 451 C552 478 572 480 603 480 C603 480 634 480 634 480 C634 480 634 500 634 500 L634 500 Z M304 500 C304 500 229 500 229 500 C229 500 65 500 65 500 C65 500 5 500 5 500 C5 500 5 480 5 480 C5 480 40 480 40 480 C63 480 76 478 87 453 C87 453 88 453 88 453 C88 453 311 -10 311 -10 C311 -10 380 190 380 190 C380 190 252 453 252 453 C252 453 252 453 252 453 C240 478 251 480 275 480 C275 480 304 480 304 480 C304 480 304 500 304 500 L304 500 Z " />
<glyph glyph-name="w" unicode="w" horiz-adv-x="998" d="M969 500 C969 500 893 500 893 500 C893 500 822 500 822 500 C822 500 727 500 727 500 C727 500 727 480 727 480 C727 480 754 480 754 480 C791 480 810 478 807 459 C807 459 631 -10 631 -10 C631 -10 675 -10 675 -10 C675 -10 865 434 865 434 C865 434 865 434 865 434 C881 477 901 480 938 480 C938 480 969 480 969 480 C969 480 969 500 969 500 L969 500 Z M610 500 C610 500 545 500 545 500 C545 500 377 500 377 500 C377 500 321 500 321 500 C321 500 321 480 321 480 C321 480 358 480 358 480 C376 480 386 479 395 464 C395 464 452 350 452 350 C452 350 306 -10 306 -10 C306 -10 350 -10 350 -10 C350 -10 483 288 483 288 C483 288 631 -10 631 -10 C631 -10 705 188 705 188 C705 188 563 466 563 466 C558 479 565 480 579 480 C579 480 610 480 610 480 C610 480 610 500 610 500 L610 500 Z M273 500 C273 500 207 500 207 500 C207 500 39 500 39 500 C39 500 -16 500 -16 500 C-16 500 -16 480 -16 480 C-16 480 21 480 21 480 C38 480 49 479 57 465 C57 465 306 -10 306 -10 C306 -10 385 186 385 186 C385 186 227 465 227 465 C221 479 228 480 242 480 C242 480 273 480 273 480 C273 480 273 500 273 500 L273 500 Z " />
<glyph glyph-name="x" unicode="x" horiz-adv-x="693" d="M14 0 C14 0 73 0 73 0 C73 0 142 0 142 0 C142 0 242 0 242 0 C242 0 242 20 242 20 C242 20 217 20 217 20 C180 20 159 22 172 47 C172 47 181 60 181 60 C182 62 183 63 184 64 C184 64 184 64 184 64 C184 64 270 197 270 197 C270 197 366 52 366 52 C384 22 372 20 348 20 C348 20 321 20 321 20 C321 20 321 0 321 0 C321 0 401 0 401 0 C401 0 585 0 585 0 C585 0 637 0 637 0 C637 0 637 20 637 20 C637 20 599 20 599 20 C581 20 570 23 544 62 C544 62 544 62 544 62 C544 62 401 277 401 277 C401 277 521 436 521 436 C521 436 521 436 521 436 C522 437 523 439 524 440 C524 440 535 455 535 455 C555 478 571 480 596 480 C596 480 629 480 629 480 C629 480 629 500 629 500 C629 500 569 500 569 500 C569 500 500 500 500 500 C500 500 410 500 410 500 C410 500 410 480 410 480 C410 480 436 480 436 480 C466 480 481 478 467 451 C467 451 377 314 377 314 C377 314 288 448 288 448 C270 478 282 480 306 480 C306 480 333 480 333 480 C333 480 333 500 333 500 C333 500 253 500 253 500 C253 500 69 500 69 500 C69 500 27 500 27 500 C27 500 27 480 27 480 C27 480 71 480 71 480 C78 480 84 478 105 445 C105 445 106 445 106 445 C106 445 249 229 249 229 C249 229 122 64 122 64 C122 64 122 64 122 64 C91 23 75 20 47 20 C47 20 14 20 14 20 C14 20 14 0 14 0 L14 0 Z " />
<glyph glyph-name="y" unicode="y" horiz-adv-x="666" d="M646 500 C646 500 569 500 569 500 C569 500 500 500 500 500 C500 500 405 500 405 500 C405 500 405 480 405 480 C405 480 432 480 432 480 C471 480 491 478 483 452 C483 452 388 189 388 189 C388 189 245 456 245 456 C235 478 246 480 268 480 C268 480 296 480 296 480 C296 480 296 500 296 500 C296 500 221 500 221 500 C221 500 57 500 57 500 C57 500 -3 500 -3 500 C-3 500 -3 480 -3 480 C-3 480 32 480 32 480 C54 480 67 478 79 457 C79 457 316 -10 316 -10 C316 -10 269 -140 269 -140 C263 -157 253 -165 239 -165 C200 -165 193 -112 154 -112 C97 -112 68 -137 68 -187 C68 -248 98 -279 156 -279 C226 -279 273 -246 297 -181 C297 -181 360 -10 360 -10 C360 -10 542 434 542 434 C542 434 542 434 542 434 C542 434 542 435 542 435 C542 435 547 447 547 447 C562 478 581 480 615 480 C615 480 646 480 646 480 C646 480 646 500 646 500 L646 500 Z " />
<glyph glyph-name="z" unicode="z" horiz-adv-x="475" d="M51 354 C51 354 63 354 63 354 C63 354 79 384 79 384 C99 421 115 443 171 451 C171 451 259 456 259 456 C259 456 40 35 40 35 C40 35 40 0 40 0 C40 0 198 0 198 0 C198 0 282 0 282 0 C282 0 430 0 430 0 C436 48 444 97 450 145 C450 145 440 145 440 145 C440 145 426 115 426 115 C409 79 394 57 334 49 C334 49 220 43 220 43 C220 43 435 465 435 465 C435 465 435 500 435 500 C435 500 282 500 282 500 C282 500 135 500 135 500 C123 500 112 508 116 523 C116 523 121 540 121 540 C121 540 101 540 101 540 C85 478 67 416 51 354 L51 354 Z " />
<glyph glyph-name="bar" unicode="&#x7c;" horiz-adv-x="236" d="M60 800 C60 800 60 -250 60 -250 C60 -250 177 -250 177 -250 C177 -250 177 800 177 800 C177 800 60 800 60 800 L60 800 Z " />
<glyph glyph-name="exclamdown" unicode="&#xa1;" horiz-adv-x="323" d="M162 505 C108 505 82 478 82 425 C82 372 108 345 162 345 C215 345 242 372 242 425 C242 478 215 505 162 505 L162 505 Z M162 -255 C265 -255 272 -207 254 -112 C254 -112 176 290 176 290 C176 290 148 290 148 290 C148 290 70 -112 70 -112 C52 -207 59 -255 162 -255 L162 -255 Z " />
<glyph glyph-name="cent" unicode="&#xa2;" horiz-adv-x="556" d="M310 575 C310 575 310 509 310 509 C119 499 23 406 23 234 C23 77 119 -4 310 -10 C310 -10 310 -75 310 -75 C310 -75 352 -75 352 -75 C352 -75 352 -9 352 -9 C431 -2 489 44 527 128 C527 128 506 137 506 137 C489 101 448 82 383 82 C372 82 362 82 352 83 C352 83 352 469 352 469 C363 459 374 437 386 405 C404 355 429 330 461 330 C529 330 554 355 536 405 C511 474 449 509 352 510 C352 510 352 575 352 575 C352 575 310 575 310 575 L310 575 Z M310 91 C228 112 187 175 187 279 C187 397 228 462 310 474 C310 474 310 91 310 91 L310 91 Z " />
<glyph glyph-name="questiondown" unicode="&#xbf;" horiz-adv-x="289" d="M165 505 C112 505 85 478 85 425 C85 372 112 345 165 345 C218 345 245 372 245 425 C245 478 218 505 165 505 L165 505 Z M160 225 C160 225 165 140 165 140 C45 140 29 117 -2 71 C-23 41 -34 -3 -34 -59 C-34 -193 26 -260 145 -260 C239 -260 286 -223 286 -149 C286 -100 259 -75 205 -75 C165 -75 131 -101 90 -101 C37 -101 10 -81 10 -41 C10 -34 17 -21 31 0 C59 40 73 60 193 60 C193 60 186 225 186 225 C186 225 160 225 160 225 L160 225 Z " />
<glyph glyph-name="Agrave" unicode="&#xc0;" horiz-adv-x="863" d="M458 0 C458 0 593 0 593 0 C593 0 769 0 769 0 C769 0 857 0 857 0 C857 0 857 20 857 20 C857 20 827 20 827 20 C787 20 763 27 731 110 C731 110 527 697 527 697 C527 697 501 770 501 770 C501 770 486 770 486 770 C458 729 415 705 359 697 C359 697 362 687 362 687 C362 687 362 687 362 687 C362 687 177 128 177 128 C138 28 100 20 36 20 C36 20 6 20 6 20 C6 20 6 0 6 0 C6 0 134 0 134 0 C134 0 185 0 185 0 C185 0 350 0 350 0 C350 0 350 20 350 20 C350 20 326 20 326 20 C241 20 197 29 231 150 C231 150 266 265 266 265 C266 265 504 265 504 265 C504 265 546 140 546 140 C583 28 551 20 482 20 C482 20 458 20 458 20 C458 20 458 0 458 0 L458 0 Z M364 993 C341 1034 326 1054 317 1054 C272 1054 242 1024 242 980 C242 969 260 952 296 925 C296 925 443 810 443 810 C443 810 462 829 462 829 C462 829 364 993 364 993 L364 993 Z M280 309 C280 309 380 635 380 635 C380 635 489 309 489 309 C489 309 280 309 280 309 L280 309 Z " />
<glyph glyph-name="Aacute" unicode="&#xc1;" horiz-adv-x="863" d="M453 810 C453 810 600 925 600 925 C636 954 654 970 654 980 C654 1024 624 1054 579 1054 C570 1054 556 1034 531 993 C531 993 434 829 434 829 C434 829 453 810 453 810 L453 810 Z M458 0 C458 0 593 0 593 0 C593 0 769 0 769 0 C769 0 857 0 857 0 C857 0 857 20 857 20 C857 20 827 20 827 20 C787 20 763 27 731 110 C731 110 527 697 527 697 C527 697 501 770 501 770 C501 770 486 770 486 770 C458 729 415 705 359 697 C359 697 362 687 362 687 C362 687 362 687 362 687 C362 687 177 128 177 128 C138 28 100 20 36 20 C36 20 6 20 6 20 C6 20 6 0 6 0 C6 0 134 0 134 0 C134 0 185 0 185 0 C185 0 350 0 350 0 C350 0 350 20 350 20 C350 20 326 20 326 20 C241 20 197 29 231 150 C231 150 266 265 266 265 C266 265 504 265 504 265 C504 265 546 140 546 140 C583 28 551 20 482 20 C482 20 458 20 458 20 C458 20 458 0 458 0 L458 0 Z M280 309 C280 309 380 635 380 635 C380 635 489 309 489 309 C489 309 280 309 280 309 L280 309 Z " />
<glyph glyph-name="Acircumflex" unicode="&#xc2;" horiz-adv-x="863" d="M458 0 C458 0 593 0 593 0 C593 0 769 0 769 0 C769 0 857 0 857 0 C857 0 857 20 857 20 C857 20 827 20 827 20 C787 20 763 27 731 110 C731 110 527 697 527 697 C527 697 501 770 501 770 C501 770 486 770 486 770 C458 729 415 705 359 697 C359 697 362 687 362 687 C362 687 362 687 362 687 C362 687 177 128 177 128 C138 28 100 20 36 20 C36 20 6 20 6 20 C6 20 6 0 6 0 C6 0 134 0 134 0 C134 0 185 0 185 0 C185 0 350 0 350 0 C350 0 350 20 350 20 C350 20 326 20 326 20 C241 20 197 29 231 150 C231 150 266 265 266 265 C266 265 504 265 504 265 C504 265 546 140 546 140 C583 28 551 20 482 20 C482 20 458 20 458 20 C458 20 458 0 458 0 L458 0 Z M443 897 C443 897 580 803 580 803 C580 803 600 820 600 820 C600 820 496 985 496 985 C485 1003 462 1039 443 1039 C424 1039 401 1004 390 986 C390 986 286 820 286 820 C286 820 306 803 306 803 C306 803 443 897 443 897 L443 897 Z M280 309 C280 309 380 635 380 635 C380 635 489 309 489 309 C489 309 280 309 280 309 L280 309 Z " />
<glyph glyph-name="Atilde" unicode="&#xc3;" horiz-adv-x="863" d="M305 870 C305 903 317 919 340 919 C403 919 440 854 503 854 C572 854 607 909 607 1019 C607 1019 580 1019 580 1019 C580 979 566 959 537 959 C475 959 437 1024 375 1024 C311 1024 279 972 279 870 C279 870 305 870 305 870 L305 870 Z M458 0 C458 0 593 0 593 0 C593 0 769 0 769 0 C769 0 857 0 857 0 C857 0 857 20 857 20 C857 20 827 20 827 20 C787 20 763 27 731 110 C731 110 527 697 527 697 C527 697 501 770 501 770 C501 770 486 770 486 770 C458 729 415 705 359 697 C359 697 362 687 362 687 C362 687 362 687 362 687 C362 687 177 128 177 128 C138 28 100 20 36 20 C36 20 6 20 6 20 C6 20 6 0 6 0 C6 0 134 0 134 0 C134 0 185 0 185 0 C185 0 350 0 350 0 C350 0 350 20 350 20 C350 20 326 20 326 20 C241 20 197 29 231 150 C231 150 266 265 266 265 C266 265 504 265 504 265 C504 265 546 140 546 140 C583 28 551 20 482 20 C482 20 458 20 458 20 C458 20 458 0 458 0 L458 0 Z M280 309 C280 309 380 635 380 635 C380 635 489 309 489 309 C489 309 280 309 280 309 L280 309 Z " />
<glyph glyph-name="Adieresis" unicode="&#xc4;" horiz-adv-x="863" d="M529 865 C582 865 609 892 609 945 C609 998 582 1025 529 1025 C476 1025 449 998 449 945 C449 892 476 865 529 865 L529 865 Z M356 865 C409 865 436 892 436 945 C436 998 409 1025 356 1025 C303 1025 276 998 276 945 C276 892 303 865 356 865 L356 865 Z M458 0 C458 0 593 0 593 0 C593 0 769 0 769 0 C769 0 857 0 857 0 C857 0 857 20 857 20 C857 20 827 20 827 20 C787 20 763 27 731 110 C731 110 527 697 527 697 C527 697 501 770 501 770 C501 770 486 770 486 770 C458 729 415 705 359 697 C359 697 362 687 362 687 C362 687 362 687 362 687 C362 687 177 128 177 128 C138 28 100 20 36 20 C36 20 6 20 6 20 C6 20 6 0 6 0 C6 0 134 0 134 0 C134 0 185 0 185 0 C185 0 350 0 350 0 C350 0 350 20 350 20 C350 20 326 20 326 20 C241 20 197 29 231 150 C231 150 266 265 266 265 C266 265 504 265 504 265 C504 265 546 140 546 140 C583 28 551 20 482 20 C482 20 458 20 458 20 C458 20 458 0 458 0 L458 0 Z M280 309 C280 309 380 635 380 635 C380 635 489 309 489 309 C489 309 280 309 280 309 L280 309 Z " />
<glyph glyph-name="Aring" unicode="&#xc5;" horiz-adv-x="863" d="M443 845 C410 845 388 869 388 905 C388 945 406 965 443 965 C479 965 498 945 498 905 C498 869 476 845 443 845 L443 845 Z M343 905 C343 848 383 810 443 810 C502 810 542 848 542 905 C542 968 509 1000 443 1000 C377 1000 343 968 343 905 L343 905 Z M458 0 C458 0 593 0 593 0 C593 0 769 0 769 0 C769 0 857 0 857 0 C857 0 857 20 857 20 C857 20 827 20 827 20 C787 20 763 27 731 110 C731 110 527 697 527 697 C527 697 501 770 501 770 C501 770 486 770 486 770 C458 729 415 705 359 697 C359 697 362 687 362 687 C362 687 362 687 362 687 C362 687 177 128 177 128 C138 28 100 20 36 20 C36 20 6 20 6 20 C6 20 6 0 6 0 C6 0 134 0 134 0 C134 0 185 0 185 0 C185 0 350 0 350 0 C350 0 350 20 350 20 C350 20 326 20 326 20 C241 20 197 29 231 150 C231 150 266 265 266 265 C266 265 504 265 504 265 C504 265 546 140 546 140 C583 28 551 20 482 20 C482 20 458 20 458 20 C458 20 458 0 458 0 L458 0 Z M280 309 C280 309 380 635 380 635 C380 635 489 309 489 309 C489 309 280 309 280 309 L280 309 Z " />
<glyph glyph-name="Egrave" unicode="&#xc8;" horiz-adv-x="703" d="M617 589 C617 589 611 670 611 670 C610 696 608 723 606 750 C606 750 486 750 486 750 C486 750 296 750 296 750 C296 750 128 750 128 750 C128 750 23 750 23 750 C23 750 23 730 23 730 C23 730 53 730 53 730 C103 730 128 725 128 665 C128 665 128 85 128 85 C128 25 103 20 53 20 C53 20 23 20 23 20 C23 20 23 0 23 0 C23 0 128 0 128 0 C128 0 296 0 296 0 C296 0 511 0 511 0 C511 0 631 0 631 0 C639 54 647 107 653 161 C653 161 633 161 633 161 C633 161 629 131 629 131 C620 68 609 36 516 36 C516 36 376 36 376 36 C296 36 296 51 296 80 C296 80 296 85 296 85 C296 85 296 385 296 385 C296 385 426 385 426 385 C519 385 526 348 526 275 C526 275 526 245 526 245 C526 245 546 245 546 245 C546 245 546 385 546 385 C546 385 546 425 546 425 C546 425 546 565 546 565 C546 565 526 565 526 565 C526 565 526 535 526 535 C526 462 519 425 426 425 C426 425 296 425 296 425 C296 425 296 665 296 665 C296 665 296 714 296 714 C296 714 488 714 488 714 C600 714 591 678 596 607 C596 607 597 589 597 589 C597 589 617 589 617 589 L617 589 Z M288 993 C265 1034 251 1054 241 1054 C196 1054 166 1024 166 980 C166 969 184 952 220 925 C220 925 367 810 367 810 C367 810 386 829 386 829 C386 829 288 993 288 993 L288 993 Z " />
<glyph glyph-name="Eacute" unicode="&#xc9;" horiz-adv-x="703" d="M377 810 C377 810 524 925 524 925 C560 954 578 970 578 980 C578 1024 548 1054 503 1054 C494 1054 480 1034 455 993 C455 993 358 829 358 829 C358 829 377 810 377 810 L377 810 Z M617 589 C617 589 611 670 611 670 C610 696 608 723 606 750 C606 750 486 750 486 750 C486 750 296 750 296 750 C296 750 128 750 128 750 C128 750 23 750 23 750 C23 750 23 730 23 730 C23 730 53 730 53 730 C103 730 128 725 128 665 C128 665 128 85 128 85 C128 25 103 20 53 20 C53 20 23 20 23 20 C23 20 23 0 23 0 C23 0 128 0 128 0 C128 0 296 0 296 0 C296 0 511 0 511 0 C511 0 631 0 631 0 C639 54 647 107 653 161 C653 161 633 161 633 161 C633 161 629 131 629 131 C620 68 609 36 516 36 C516 36 376 36 376 36 C296 36 296 51 296 80 C296 80 296 85 296 85 C296 85 296 385 296 385 C296 385 426 385 426 385 C519 385 526 348 526 275 C526 275 526 245 526 245 C526 245 546 245 546 245 C546 245 546 385 546 385 C546 385 546 425 546 425 C546 425 546 565 546 565 C546 565 526 565 526 565 C526 565 526 535 526 535 C526 462 519 425 426 425 C426 425 296 425 296 425 C296 425 296 665 296 665 C296 665 296 714 296 714 C296 714 488 714 488 714 C600 714 591 678 596 607 C596 607 597 589 597 589 C597 589 617 589 617 589 L617 589 Z " />
<glyph glyph-name="Ecircumflex" unicode="&#xca;" horiz-adv-x="703" d="M617 589 C617 589 611 670 611 670 C610 696 608 723 606 750 C606 750 486 750 486 750 C486 750 296 750 296 750 C296 750 128 750 128 750 C128 750 23 750 23 750 C23 750 23 730 23 730 C23 730 53 730 53 730 C103 730 128 725 128 665 C128 665 128 85 128 85 C128 25 103 20 53 20 C53 20 23 20 23 20 C23 20 23 0 23 0 C23 0 128 0 128 0 C128 0 296 0 296 0 C296 0 511 0 511 0 C511 0 631 0 631 0 C639 54 647 107 653 161 C653 161 633 161 633 161 C633 161 629 131 629 131 C620 68 609 36 516 36 C516 36 376 36 376 36 C296 36 296 51 296 80 C296 80 296 85 296 85 C296 85 296 385 296 385 C296 385 426 385 426 385 C519 385 526 348 526 275 C526 275 526 245 526 245 C526 245 546 245 546 245 C546 245 546 385 546 385 C546 385 546 425 546 425 C546 425 546 565 546 565 C546 565 526 565 526 565 C526 565 526 535 526 535 C526 462 519 425 426 425 C426 425 296 425 296 425 C296 425 296 665 296 665 C296 665 296 714 296 714 C296 714 488 714 488 714 C600 714 591 678 596 607 C596 607 597 589 597 589 C597 589 617 589 617 589 L617 589 Z M367 897 C367 897 504 803 504 803 C504 803 524 820 524 820 C524 820 420 985 420 985 C409 1003 386 1039 367 1039 C348 1039 325 1004 314 986 C314 986 210 820 210 820 C210 820 230 803 230 803 C230 803 367 897 367 897 L367 897 Z " />
<glyph glyph-name="Edieresis" unicode="&#xcb;" horiz-adv-x="703" d="M453 865 C506 865 533 892 533 945 C533 998 506 1025 453 1025 C400 1025 373 998 373 945 C373 892 400 865 453 865 L453 865 Z M280 865 C333 865 360 892 360 945 C360 998 333 1025 280 1025 C227 1025 200 998 200 945 C200 892 227 865 280 865 L280 865 Z M617 589 C617 589 611 670 611 670 C610 696 608 723 606 750 C606 750 486 750 486 750 C486 750 296 750 296 750 C296 750 128 750 128 750 C128 750 23 750 23 750 C23 750 23 730 23 730 C23 730 53 730 53 730 C103 730 128 725 128 665 C128 665 128 85 128 85 C128 25 103 20 53 20 C53 20 23 20 23 20 C23 20 23 0 23 0 C23 0 128 0 128 0 C128 0 296 0 296 0 C296 0 511 0 511 0 C511 0 631 0 631 0 C639 54 647 107 653 161 C653 161 633 161 633 161 C633 161 629 131 629 131 C620 68 609 36 516 36 C516 36 376 36 376 36 C296 36 296 51 296 80 C296 80 296 85 296 85 C296 85 296 385 296 385 C296 385 426 385 426 385 C519 385 526 348 526 275 C526 275 526 245 526 245 C526 245 546 245 546 245 C546 245 546 385 546 385 C546 385 546 425 546 425 C546 425 546 565 546 565 C546 565 526 565 526 565 C526 565 526 535 526 535 C526 462 519 425 426 425 C426 425 296 425 296 425 C296 425 296 665 296 665 C296 665 296 714 296 714 C296 714 488 714 488 714 C600 714 591 678 596 607 C596 607 597 589 597 589 C597 589 617 589 617 589 L617 589 Z " />
<glyph glyph-name="Igrave" unicode="&#xcc;" horiz-adv-x="418" d="M379 750 C379 750 1 750 1 750 C1 750 1 730 1 730 C1 730 31 730 31 730 C81 730 106 726 106 670 C106 670 106 80 106 80 C106 24 81 20 31 20 C31 20 1 20 1 20 C1 20 1 0 1 0 C1 0 379 0 379 0 C379 0 379 20 379 20 C379 20 349 20 349 20 C299 20 274 24 274 80 C274 80 274 670 274 670 C274 726 299 730 349 730 C349 730 379 730 379 730 C379 730 379 750 379 750 L379 750 Z M111 993 C88 1034 74 1054 64 1054 C19 1054 -11 1024 -11 980 C-11 969 7 952 43 925 C43 925 190 810 190 810 C190 810 209 829 209 829 C209 829 111 993 111 993 L111 993 Z " />
<glyph glyph-name="Iacute" unicode="&#xcd;" horiz-adv-x="418" d="M200 810 C200 810 347 925 347 925 C383 954 401 970 401 980 C401 1024 371 1054 326 1054 C318 1054 303 1034 279 993 C279 993 181 829 181 829 C181 829 200 810 200 810 L200 810 Z M379 750 C379 750 1 750 1 750 C1 750 1 730 1 730 C1 730 31 730 31 730 C81 730 106 726 106 670 C106 670 106 80 106 80 C106 24 81 20 31 20 C31 20 1 20 1 20 C1 20 1 0 1 0 C1 0 379 0 379 0 C379 0 379 20 379 20 C379 20 349 20 349 20 C299 20 274 24 274 80 C274 80 274 670 274 670 C274 726 299 730 349 730 C349 730 379 730 379 730 C379 730 379 750 379 750 L379 750 Z " />
<glyph glyph-name="Icircumflex" unicode="&#xce;" horiz-adv-x="418" d="M379 750 C379 750 1 750 1 750 C1 750 1 730 1 730 C1 730 31 730 31 730 C81 730 106 726 106 670 C106 670 106 80 106 80 C106 24 81 20 31 20 C31 20 1 20 1 20 C1 20 1 0 1 0 C1 0 379 0 379 0 C379 0 379 20 379 20 C379 20 349 20 349 20 C299 20 274 24 274 80 C274 80 274 670 274 670 C274 726 299 730 349 730 C349 730 379 730 379 730 C379 730 379 750 379 750 L379 750 Z M190 897 C190 897 327 803 327 803 C327 803 347 820 347 820 C347 820 243 985 243 985 C232 1003 209 1039 190 1039 C171 1039 149 1004 137 986 C137 986 33 820 33 820 C33 820 53 803 53 803 C53 803 190 897 190 897 L190 897 Z " />
<glyph glyph-name="Idieresis" unicode="&#xcf;" horiz-adv-x="418" d="M276 865 C329 865 356 892 356 945 C356 998 329 1025 276 1025 C223 1025 196 998 196 945 C196 892 223 865 276 865 L276 865 Z M104 865 C157 865 184 892 184 945 C184 998 157 1025 104 1025 C51 1025 24 998 24 945 C24 892 51 865 104 865 L104 865 Z M379 750 C379 750 1 750 1 750 C1 750 1 730 1 730 C1 730 31 730 31 730 C81 730 106 726 106 670 C106 670 106 80 106 80 C106 24 81 20 31 20 C31 20 1 20 1 20 C1 20 1 0 1 0 C1 0 379 0 379 0 C379 0 379 20 379 20 C379 20 349 20 349 20 C299 20 274 24 274 80 C274 80 274 670 274 670 C274 726 299 730 349 730 C349 730 379 730 379 730 C379 730 379 750 379 750 L379 750 Z " />
<glyph glyph-name="Ntilde" unicode="&#xd1;" horiz-adv-x="815" d="M264 870 C264 903 276 919 299 919 C361 919 399 854 461 854 C530 854 565 909 565 1019 C565 1019 539 1019 539 1019 C539 979 524 959 495 959 C433 959 396 1024 333 1024 C270 1024 238 972 238 870 C238 870 264 870 264 870 L264 870 Z M-41 730 C-41 730 -4 730 -4 730 C15 730 26 728 53 695 C53 695 53 695 53 695 C53 695 134 596 134 596 C134 596 133 130 133 130 C128 28 96 20 37 20 C37 20 7 20 7 20 C7 20 7 0 7 0 C7 0 132 0 132 0 C132 0 183 0 183 0 C183 0 308 0 308 0 C308 0 308 20 308 20 C308 20 278 20 278 20 C213 20 181 28 182 140 C182 140 182 140 182 140 C182 140 178 543 178 543 C178 543 428 238 428 238 C428 238 624 0 624 0 C624 0 658 0 658 0 C658 0 668 645 668 645 C672 724 704 730 763 730 C763 730 793 730 793 730 C793 730 793 750 793 750 C793 750 670 750 670 750 C670 750 620 750 620 750 C620 750 496 750 496 750 C496 750 496 730 496 730 C496 730 526 730 526 730 C585 730 616 724 621 644 C621 644 623 268 623 268 C623 268 561 341 561 341 C561 341 216 750 216 750 C216 750 176 750 176 750 C176 750 135 750 135 750 C135 750 8 750 8 750 C8 750 -41 750 -41 750 C-41 750 -41 730 -41 730 L-41 730 Z " />
<glyph glyph-name="Ograve" unicode="&#xd2;" horiz-adv-x="933" d="M448 35 C297 35 221 149 221 375 C221 601 295 715 441 715 C604 715 687 601 687 375 C687 149 607 35 448 35 L448 35 Z M29 375 C29 119 167 -10 439 -10 C731 -10 879 119 879 375 C879 631 735 760 449 760 C170 760 29 631 29 375 L29 375 Z M370 993 C347 1034 333 1054 323 1054 C278 1054 248 1024 248 980 C248 969 266 952 302 925 C302 925 449 810 449 810 C449 810 468 829 468 829 C468 829 370 993 370 993 L370 993 Z " />
<glyph glyph-name="Oacute" unicode="&#xd3;" horiz-adv-x="933" d="M459 810 C459 810 606 925 606 925 C642 954 660 970 660 980 C660 1024 630 1054 585 1054 C576 1054 562 1034 537 993 C537 993 440 829 440 829 C440 829 459 810 459 810 L459 810 Z M448 35 C297 35 221 149 221 375 C221 601 295 715 441 715 C604 715 687 601 687 375 C687 149 607 35 448 35 L448 35 Z M29 375 C29 119 167 -10 439 -10 C731 -10 879 119 879 375 C879 631 735 760 449 760 C170 760 29 631 29 375 L29 375 Z " />
<glyph glyph-name="Ocircumflex" unicode="&#xd4;" horiz-adv-x="933" d="M448 35 C297 35 221 149 221 375 C221 601 295 715 441 715 C604 715 687 601 687 375 C687 149 607 35 448 35 L448 35 Z M29 375 C29 119 167 -10 439 -10 C731 -10 879 119 879 375 C879 631 735 760 449 760 C170 760 29 631 29 375 L29 375 Z M449 897 C449 897 586 803 586 803 C586 803 606 820 606 820 C606 820 502 985 502 985 C491 1003 468 1039 449 1039 C430 1039 407 1004 396 986 C396 986 292 820 292 820 C292 820 312 803 312 803 C312 803 449 897 449 897 L449 897 Z " />
<glyph glyph-name="Otilde" unicode="&#xd5;" horiz-adv-x="933" d="M312 870 C312 903 324 919 346 919 C409 919 446 854 509 854 C578 854 613 909 613 1019 C613 1019 586 1019 586 1019 C586 979 572 959 543 959 C481 959 443 1024 381 1024 C317 1024 285 972 285 870 C285 870 312 870 312 870 L312 870 Z M448 35 C297 35 221 149 221 375 C221 601 295 715 441 715 C604 715 687 601 687 375 C687 149 607 35 448 35 L448 35 Z M29 375 C29 119 167 -10 439 -10 C731 -10 879 119 879 375 C879 631 735 760 449 760 C170 760 29 631 29 375 L29 375 Z " />
<glyph glyph-name="Odieresis" unicode="&#xd6;" horiz-adv-x="933" d="M535 865 C588 865 615 892 615 945 C615 998 588 1025 535 1025 C482 1025 455 998 455 945 C455 892 482 865 535 865 L535 865 Z M362 865 C415 865 442 892 442 945 C442 998 415 1025 362 1025 C309 1025 282 998 282 945 C282 892 309 865 362 865 L362 865 Z M448 35 C297 35 221 149 221 375 C221 601 295 715 441 715 C604 715 687 601 687 375 C687 149 607 35 448 35 L448 35 Z M29 375 C29 119 167 -10 439 -10 C731 -10 879 119 879 375 C879 631 735 760 449 760 C170 760 29 631 29 375 L29 375 Z " />
<glyph glyph-name="Oslash" unicode="&#xd8;" horiz-adv-x="933" d="M54 -38 C54 -38 163 61 163 61 C230 14 322 -10 439 -10 C731 -10 879 119 879 375 C879 486 852 573 798 636 C798 636 904 732 904 732 C904 732 854 788 854 788 C854 788 742 687 742 687 C671 735 574 760 449 760 C170 760 29 631 29 375 C29 263 55 175 108 112 C108 112 4 18 4 18 C4 18 54 -38 54 -38 L54 -38 Z M448 35 C360 35 298 73 261 150 C261 150 672 522 672 522 C682 480 687 431 687 375 C687 149 607 35 448 35 C448 35 448 35 448 35 L448 35 Z M235 227 C226 270 221 319 221 375 C221 601 295 715 441 715 C536 715 604 676 644 598 C644 598 235 227 235 227 L235 227 Z " />
<glyph glyph-name="Ugrave" unicode="&#xd9;" horiz-adv-x="861" d="M474 730 C474 730 504 730 504 730 C554 730 579 725 579 665 C579 665 579 213 579 213 C543 136 486 98 408 98 C310 98 261 139 261 220 C261 220 261 665 261 665 C261 665 261 750 261 750 C261 750 -12 750 -12 750 C-12 750 -12 730 -12 730 C-12 730 18 730 18 730 C68 730 93 725 93 665 C93 665 93 220 93 220 C93 67 176 -10 340 -10 C453 -10 533 39 579 137 C579 137 579 110 579 110 C579 110 579 0 579 0 C579 0 605 0 605 0 C605 0 850 55 850 55 C850 55 850 65 850 65 C753 60 746 62 746 110 C746 110 746 665 746 665 C746 665 746 750 746 750 C746 750 474 750 474 750 C474 750 474 730 474 730 L474 730 Z M341 993 C318 1034 303 1054 294 1054 C249 1054 219 1024 219 980 C219 969 237 952 273 925 C273 925 420 810 420 810 C420 810 439 829 439 829 C439 829 341 993 341 993 L341 993 Z " />
<glyph glyph-name="Uacute" unicode="&#xda;" horiz-adv-x="861" d="M429 810 C429 810 577 925 577 925 C613 954 631 970 631 980 C631 1024 601 1054 556 1054 C547 1054 533 1034 508 993 C508 993 411 829 411 829 C411 829 429 810 429 810 L429 810 Z M474 730 C474 730 504 730 504 730 C554 730 579 725 579 665 C579 665 579 213 579 213 C543 136 486 98 408 98 C310 98 261 139 261 220 C261 220 261 665 261 665 C261 665 261 750 261 750 C261 750 -12 750 -12 750 C-12 750 -12 730 -12 730 C-12 730 18 730 18 730 C68 730 93 725 93 665 C93 665 93 220 93 220 C93 67 176 -10 340 -10 C453 -10 533 39 579 137 C579 137 579 110 579 110 C579 110 579 0 579 0 C579 0 605 0 605 0 C605 0 850 55 850 55 C850 55 850 65 850 65 C753 60 746 62 746 110 C746 110 746 665 746 665 C746 665 746 750 746 750 C746 750 474 750 474 750 C474 750 474 730 474 730 L474 730 Z " />
<glyph glyph-name="Ucircumflex" unicode="&#xdb;" horiz-adv-x="861" d="M474 730 C474 730 504 730 504 730 C554 730 579 725 579 665 C579 665 579 213 579 213 C543 136 486 98 408 98 C310 98 261 139 261 220 C261 220 261 665 261 665 C261 665 261 750 261 750 C261 750 -12 750 -12 750 C-12 750 -12 730 -12 730 C-12 730 18 730 18 730 C68 730 93 725 93 665 C93 665 93 220 93 220 C93 67 176 -10 340 -10 C453 -10 533 39 579 137 C579 137 579 110 579 110 C579 110 579 0 579 0 C579 0 605 0 605 0 C605 0 850 55 850 55 C850 55 850 65 850 65 C753 60 746 62 746 110 C746 110 746 665 746 665 C746 665 746 750 746 750 C746 750 474 750 474 750 C474 750 474 730 474 730 L474 730 Z M420 897 C420 897 557 803 557 803 C557 803 577 820 577 820 C577 820 473 985 473 985 C462 1003 439 1039 420 1039 C400 1039 378 1004 367 986 C367 986 263 820 263 820 C263 820 283 803 283 803 C283 803 420 897 420 897 L420 897 Z " />
<glyph glyph-name="Udieresis" unicode="&#xdc;" horiz-adv-x="861" d="M506 865 C559 865 586 892 586 945 C586 998 559 1025 506 1025 C453 1025 426 998 426 945 C426 892 453 865 506 865 L506 865 Z M333 865 C386 865 413 892 413 945 C413 998 386 1025 333 1025 C280 1025 253 998 253 945 C253 892 280 865 333 865 L333 865 Z M474 730 C474 730 504 730 504 730 C554 730 579 725 579 665 C579 665 579 213 579 213 C543 136 486 98 408 98 C310 98 261 139 261 220 C261 220 261 665 261 665 C261 665 261 750 261 750 C261 750 -12 750 -12 750 C-12 750 -12 730 -12 730 C-12 730 18 730 18 730 C68 730 93 725 93 665 C93 665 93 220 93 220 C93 67 176 -10 340 -10 C453 -10 533 39 579 137 C579 137 579 110 579 110 C579 110 579 0 579 0 C579 0 605 0 605 0 C605 0 850 55 850 55 C850 55 850 65 850 65 C753 60 746 62 746 110 C746 110 746 665 746 665 C746 665 746 750 746 750 C746 750 474 750 474 750 C474 750 474 730 474 730 L474 730 Z " />
<glyph glyph-name="Yacute" unicode="&#xdd;" horiz-adv-x="848" d="M445 810 C445 810 593 925 593 925 C629 954 647 970 647 980 C647 1024 617 1054 572 1054 C563 1054 549 1034 524 993 C524 993 426 829 426 829 C426 829 445 810 445 810 L445 810 Z M348 750 C348 750 243 750 243 750 C243 750 46 750 46 750 C46 750 -6 750 -6 750 C-6 750 -6 730 -6 730 C-6 730 32 730 32 730 C49 730 64 723 135 621 C135 621 352 308 352 308 C352 308 352 80 352 80 C352 24 327 20 277 20 C277 20 247 20 247 20 C247 20 247 0 247 0 C247 0 624 0 624 0 C624 0 624 20 624 20 C624 20 594 20 594 20 C544 20 519 24 519 80 C519 80 519 314 519 314 C519 314 681 610 681 610 C681 610 682 610 682 610 C742 722 765 730 801 730 C801 730 832 730 832 730 C832 730 832 750 832 750 C832 750 758 750 758 750 C758 750 674 750 674 750 C674 750 569 750 569 750 C569 750 569 730 569 730 C569 730 595 730 595 730 C633 730 656 726 644 685 C644 685 500 368 500 368 C500 368 337 610 337 610 C337 610 338 610 338 610 C260 722 277 730 324 730 C324 730 348 730 348 730 C348 730 348 750 348 750 L348 750 Z " />
<glyph glyph-name="agrave" unicode="&#xe0;" horiz-adv-x="515" d="M525 147 C525 147 504 158 504 158 C497 121 479 102 449 102 C417 102 400 115 400 140 C400 140 400 349 400 349 C400 472 350 510 252 510 C117 510 48 420 48 360 C48 307 76 280 133 280 C174 280 195 311 195 337 C195 362 175 372 175 406 C175 423 189 449 217 449 C239 449 250 438 250 404 C250 404 250 281 250 281 C51 220 28 210 28 101 C28 27 65 -10 138 -10 C176 -10 208 8 259 76 C276 22 319 -5 387 -5 C461 -5 507 46 525 147 L525 147 Z M174 743 C150 784 136 804 126 804 C81 804 51 774 51 730 C51 719 69 702 105 675 C105 675 252 560 252 560 C252 560 271 579 271 579 C271 579 174 743 174 743 L174 743 Z M250 245 C250 245 250 140 250 140 C250 128 251 117 252 106 C232 78 223 70 218 70 C192 70 179 86 179 117 C179 217 187 226 250 245 L250 245 Z " />
<glyph glyph-name="aacute" unicode="&#xe1;" horiz-adv-x="515" d="M262 560 C262 560 409 675 409 675 C445 704 463 720 463 730 C463 774 433 804 388 804 C380 804 365 784 341 743 C341 743 243 579 243 579 C243 579 262 560 262 560 L262 560 Z M525 147 C525 147 504 158 504 158 C497 121 479 102 449 102 C417 102 400 115 400 140 C400 140 400 349 400 349 C400 472 350 510 252 510 C117 510 48 420 48 360 C48 307 76 280 133 280 C174 280 195 311 195 337 C195 362 175 372 175 406 C175 423 189 449 217 449 C239 449 250 438 250 404 C250 404 250 281 250 281 C51 220 28 210 28 101 C28 27 65 -10 138 -10 C176 -10 208 8 259 76 C276 22 319 -5 387 -5 C461 -5 507 46 525 147 L525 147 Z M250 245 C250 245 250 140 250 140 C250 128 251 117 252 106 C232 78 223 70 218 70 C192 70 179 86 179 117 C179 217 187 226 250 245 L250 245 Z " />
<glyph glyph-name="acircumflex" unicode="&#xe2;" horiz-adv-x="515" d="M525 147 C525 147 504 158 504 158 C497 121 479 102 449 102 C417 102 400 115 400 140 C400 140 400 349 400 349 C400 472 350 510 252 510 C117 510 48 420 48 360 C48 307 76 280 133 280 C174 280 195 311 195 337 C195 362 175 372 175 406 C175 423 189 449 217 449 C239 449 250 438 250 404 C250 404 250 281 250 281 C51 220 28 210 28 101 C28 27 65 -10 138 -10 C176 -10 208 8 259 76 C276 22 319 -5 387 -5 C461 -5 507 46 525 147 L525 147 Z M252 647 C252 647 389 553 389 553 C389 553 409 570 409 570 C409 570 305 735 305 735 C294 753 271 789 252 789 C233 789 211 754 199 736 C199 736 95 570 95 570 C95 570 115 553 115 553 C115 553 252 647 252 647 L252 647 Z M250 245 C250 245 250 140 250 140 C250 128 251 117 252 106 C232 78 223 70 218 70 C192 70 179 86 179 117 C179 217 187 226 250 245 L250 245 Z " />
<glyph glyph-name="atilde" unicode="&#xe3;" horiz-adv-x="515" d="M115 620 C115 653 127 669 150 669 C212 669 249 604 312 604 C381 604 416 659 416 769 C416 769 390 769 390 769 C390 729 375 709 346 709 C284 709 246 774 184 774 C120 774 88 722 88 620 C88 620 115 620 115 620 L115 620 Z M525 147 C525 147 504 158 504 158 C497 121 479 102 449 102 C417 102 400 115 400 140 C400 140 400 349 400 349 C400 472 350 510 252 510 C117 510 48 420 48 360 C48 307 76 280 133 280 C174 280 195 311 195 337 C195 362 175 372 175 406 C175 423 189 449 217 449 C239 449 250 438 250 404 C250 404 250 281 250 281 C51 220 28 210 28 101 C28 27 65 -10 138 -10 C176 -10 208 8 259 76 C276 22 319 -5 387 -5 C461 -5 507 46 525 147 L525 147 Z M250 245 C250 245 250 140 250 140 C250 128 251 117 252 106 C232 78 223 70 218 70 C192 70 179 86 179 117 C179 217 187 226 250 245 L250 245 Z " />
<glyph glyph-name="adieresis" unicode="&#xe4;" horiz-adv-x="515" d="M339 615 C392 615 419 642 419 695 C419 748 392 775 339 775 C286 775 259 748 259 695 C259 642 286 615 339 615 L339 615 Z M166 615 C219 615 246 642 246 695 C246 748 219 775 166 775 C113 775 86 748 86 695 C86 642 113 615 166 615 L166 615 Z M525 147 C525 147 504 158 504 158 C497 121 479 102 449 102 C417 102 400 115 400 140 C400 140 400 349 400 349 C400 472 350 510 252 510 C117 510 48 420 48 360 C48 307 76 280 133 280 C174 280 195 311 195 337 C195 362 175 372 175 406 C175 423 189 449 217 449 C239 449 250 438 250 404 C250 404 250 281 250 281 C51 220 28 210 28 101 C28 27 65 -10 138 -10 C176 -10 208 8 259 76 C276 22 319 -5 387 -5 C461 -5 507 46 525 147 L525 147 Z M250 245 C250 245 250 140 250 140 C250 128 251 117 252 106 C232 78 223 70 218 70 C192 70 179 86 179 117 C179 217 187 226 250 245 L250 245 Z " />
<glyph glyph-name="aring" unicode="&#xe5;" horiz-adv-x="515" d="M252 595 C219 595 197 619 197 655 C197 695 216 715 252 715 C289 715 307 695 307 655 C307 619 285 595 252 595 L252 595 Z M153 655 C153 598 193 560 252 560 C312 560 352 598 352 655 C352 718 318 750 252 750 C186 750 153 718 153 655 L153 655 Z M525 147 C525 147 504 158 504 158 C497 121 479 102 449 102 C417 102 400 115 400 140 C400 140 400 349 400 349 C400 472 350 510 252 510 C117 510 48 420 48 360 C48 307 76 280 133 280 C174 280 195 311 195 337 C195 362 175 372 175 406 C175 423 189 449 217 449 C239 449 250 438 250 404 C250 404 250 281 250 281 C51 220 28 210 28 101 C28 27 65 -10 138 -10 C176 -10 208 8 259 76 C276 22 319 -5 387 -5 C461 -5 507 46 525 147 L525 147 Z M250 245 C250 245 250 140 250 140 C250 128 251 117 252 106 C232 78 223 70 218 70 C192 70 179 86 179 117 C179 217 187 226 250 245 L250 245 Z " />
<glyph glyph-name="egrave" unicode="&#xe8;" horiz-adv-x="535" d="M211 743 C187 784 173 804 163 804 C118 804 88 774 88 730 C88 719 106 702 142 675 C142 675 289 560 289 560 C289 560 308 579 308 579 C308 579 211 743 211 743 L211 743 Z M184 340 C184 340 340 340 340 340 C340 340 506 340 506 340 C482 476 413 510 289 510 C112 510 23 414 23 225 C23 69 104 -10 265 -10 C382 -10 458 37 492 130 C492 130 474 137 474 137 C463 105 405 89 301 89 C222 89 182 155 182 286 C182 305 183 323 184 340 L184 340 Z M427 383 C439 384 451 384 464 384 C464 384 427 383 427 383 L427 383 Z M332 380 C332 380 189 375 189 375 C202 442 233 476 281 476 C301 476 316 455 332 380 C332 380 332 380 332 380 L332 380 Z " />
<glyph glyph-name="eacute" unicode="&#xe9;" horiz-adv-x="535" d="M299 560 C299 560 446 675 446 675 C482 704 500 720 500 730 C500 774 470 804 425 804 C417 804 402 784 378 743 C378 743 280 579 280 579 C280 579 299 560 299 560 L299 560 Z M184 340 C184 340 340 340 340 340 C340 340 506 340 506 340 C482 476 413 510 289 510 C112 510 23 414 23 225 C23 69 104 -10 265 -10 C382 -10 458 37 492 130 C492 130 474 137 474 137 C463 105 405 89 301 89 C222 89 182 155 182 286 C182 305 183 323 184 340 L184 340 Z M427 383 C439 384 451 384 464 384 C464 384 427 383 427 383 L427 383 Z M332 380 C332 380 189 375 189 375 C202 442 233 476 281 476 C301 476 316 455 332 380 C332 380 332 380 332 380 L332 380 Z " />
<glyph glyph-name="ecircumflex" unicode="&#xea;" horiz-adv-x="535" d="M289 647 C289 647 426 553 426 553 C426 553 446 570 446 570 C446 570 342 735 342 735 C331 753 308 789 289 789 C270 789 248 754 236 736 C236 736 132 570 132 570 C132 570 152 553 152 553 C152 553 289 647 289 647 L289 647 Z M184 340 C184 340 340 340 340 340 C340 340 506 340 506 340 C482 476 413 510 289 510 C112 510 23 414 23 225 C23 69 104 -10 265 -10 C382 -10 458 37 492 130 C492 130 474 137 474 137 C463 105 405 89 301 89 C222 89 182 155 182 286 C182 305 183 323 184 340 L184 340 Z M427 383 C439 384 451 384 464 384 C464 384 427 383 427 383 L427 383 Z M332 380 C332 380 189 375 189 375 C202 442 233 476 281 476 C301 476 316 455 332 380 C332 380 332 380 332 380 L332 380 Z " />
<glyph glyph-name="edieresis" unicode="&#xeb;" horiz-adv-x="535" d="M376 615 C429 615 456 642 456 695 C456 748 429 775 376 775 C323 775 296 748 296 695 C296 642 323 615 376 615 L376 615 Z M203 615 C256 615 283 642 283 695 C283 748 256 775 203 775 C150 775 123 748 123 695 C123 642 150 615 203 615 L203 615 Z M184 340 C184 340 340 340 340 340 C340 340 506 340 506 340 C482 476 413 510 289 510 C112 510 23 414 23 225 C23 69 104 -10 265 -10 C382 -10 458 37 492 130 C492 130 474 137 474 137 C463 105 405 89 301 89 C222 89 182 155 182 286 C182 305 183 323 184 340 L184 340 Z M427 383 C439 384 451 384 464 384 C464 384 427 383 427 383 L427 383 Z M332 380 C332 380 189 375 189 375 C202 442 233 476 281 476 C301 476 316 455 332 380 C332 380 332 380 332 380 L332 380 Z " />
<glyph glyph-name="igrave" unicode="&#xec;" horiz-adv-x="358" d="M19 0 C19 0 332 0 332 0 C332 0 332 20 332 20 C332 20 302 20 302 20 C267 20 249 21 249 35 C249 35 249 390 249 390 C249 390 249 500 249 500 C249 500 222 500 222 500 C222 500 17 445 17 445 C17 445 17 435 17 435 C93 439 99 437 99 390 C99 390 99 35 99 35 C99 21 82 20 49 20 C49 20 19 20 19 20 C19 20 19 0 19 0 L19 0 Z M95 743 C72 784 57 804 47 804 C2 804 -28 774 -28 730 C-28 719 -10 702 26 675 C26 675 174 560 174 560 C174 560 193 579 193 579 C193 579 95 743 95 743 L95 743 Z " />
<glyph glyph-name="iacute" unicode="&#xed;" horiz-adv-x="358" d="M19 0 C19 0 332 0 332 0 C332 0 332 20 332 20 C332 20 302 20 302 20 C267 20 249 21 249 35 C249 35 249 390 249 390 C249 390 249 500 249 500 C249 500 222 500 222 500 C222 500 17 445 17 445 C17 445 17 435 17 435 C93 439 99 437 99 390 C99 390 99 35 99 35 C99 21 82 20 49 20 C49 20 19 20 19 20 C19 20 19 0 19 0 L19 0 Z M95 743 C72 784 57 804 47 804 C2 804 -28 774 -28 730 C-28 719 -10 702 26 675 C26 675 174 560 174 560 C174 560 193 579 193 579 C193 579 95 743 95 743 L95 743 Z " />
<glyph glyph-name="icircumflex" unicode="&#xee;" horiz-adv-x="358" d="M19 0 C19 0 332 0 332 0 C332 0 332 20 332 20 C332 20 302 20 302 20 C267 20 249 21 249 35 C249 35 249 390 249 390 C249 390 249 500 249 500 C249 500 222 500 222 500 C222 500 17 445 17 445 C17 445 17 435 17 435 C93 439 99 437 99 390 C99 390 99 35 99 35 C99 21 82 20 49 20 C49 20 19 20 19 20 C19 20 19 0 19 0 L19 0 Z M173 647 C173 647 310 553 310 553 C310 553 331 570 331 570 C331 570 227 735 227 735 C215 753 193 789 174 789 C154 789 132 754 121 736 C121 736 16 570 16 570 C16 570 37 553 37 553 C37 553 173 647 173 647 L173 647 Z " />
<glyph glyph-name="idieresis" unicode="&#xef;" horiz-adv-x="358" d="M260 615 C313 615 340 642 340 695 C340 748 313 775 260 775 C207 775 180 748 180 695 C180 642 207 615 260 615 L260 615 Z M87 615 C140 615 167 642 167 695 C167 748 140 775 87 775 C34 775 7 748 7 695 C7 642 34 615 87 615 L87 615 Z M19 0 C19 0 332 0 332 0 C332 0 332 20 332 20 C332 20 302 20 302 20 C267 20 249 21 249 35 C249 35 249 390 249 390 C249 390 249 500 249 500 C249 500 222 500 222 500 C222 500 17 445 17 445 C17 445 17 435 17 435 C93 439 99 437 99 390 C99 390 99 35 99 35 C99 21 82 20 49 20 C49 20 19 20 19 20 C19 20 19 0 19 0 L19 0 Z " />
<glyph glyph-name="ntilde" unicode="&#xf1;" horiz-adv-x="674" d="M191 620 C191 653 203 669 226 669 C288 669 326 604 388 604 C457 604 492 659 492 769 C492 769 466 769 466 769 C466 729 451 709 422 709 C360 709 322 774 260 774 C196 774 164 722 164 620 C164 620 191 620 191 620 L191 620 Z M8 404 C8 404 38 415 38 415 C74 428 93 430 93 355 C93 355 93 35 93 35 C93 21 76 20 43 20 C43 20 13 20 13 20 C13 20 13 0 13 0 C13 0 323 0 323 0 C323 0 323 20 323 20 C323 20 293 20 293 20 C260 20 243 21 243 35 C243 35 243 357 243 357 C259 386 288 400 330 400 C392 400 414 355 414 265 C414 265 414 35 414 35 C414 21 397 20 364 20 C364 20 334 20 334 20 C334 20 334 0 334 0 C334 0 644 0 644 0 C644 0 644 20 644 20 C644 20 614 20 614 20 C581 20 564 21 564 35 C564 35 564 265 564 265 C564 428 525 510 419 510 C343 510 284 473 243 401 C243 401 243 500 243 500 C243 500 216 500 216 500 C216 500 8 424 8 424 C8 424 8 404 8 404 L8 404 Z " />
<glyph glyph-name="ograve" unicode="&#xf2;" horiz-adv-x="609" d="M293 35 C223 35 188 107 188 250 C188 393 223 465 293 465 C363 465 398 393 398 250 C398 107 363 35 293 35 L293 35 Z M23 250 C23 77 114 -10 293 -10 C473 -10 564 77 564 250 C564 423 473 510 293 510 C114 510 23 423 23 250 L23 250 Z M215 743 C191 784 177 804 167 804 C122 804 92 774 92 730 C92 719 110 702 146 675 C146 675 294 560 294 560 C294 560 312 579 312 579 C312 579 215 743 215 743 L215 743 Z " />
<glyph glyph-name="oacute" unicode="&#xf3;" horiz-adv-x="609" d="M303 560 C303 560 450 675 450 675 C486 704 504 720 504 730 C504 774 474 804 430 804 C421 804 407 784 382 743 C382 743 284 579 284 579 C284 579 303 560 303 560 L303 560 Z M293 35 C223 35 188 107 188 250 C188 393 223 465 293 465 C363 465 398 393 398 250 C398 107 363 35 293 35 L293 35 Z M23 250 C23 77 114 -10 293 -10 C473 -10 564 77 564 250 C564 423 473 510 293 510 C114 510 23 423 23 250 L23 250 Z " />
<glyph glyph-name="ocircumflex" unicode="&#xf4;" horiz-adv-x="609" d="M293 35 C223 35 188 107 188 250 C188 393 223 465 293 465 C363 465 398 393 398 250 C398 107 363 35 293 35 L293 35 Z M23 250 C23 77 114 -10 293 -10 C473 -10 564 77 564 250 C564 423 473 510 293 510 C114 510 23 423 23 250 L23 250 Z M293 647 C293 647 430 553 430 553 C430 553 450 570 450 570 C450 570 346 735 346 735 C335 753 312 789 293 789 C274 789 252 754 241 736 C241 736 136 570 136 570 C136 570 156 553 156 553 C156 553 293 647 293 647 L293 647 Z " />
<glyph glyph-name="otilde" unicode="&#xf5;" horiz-adv-x="609" d="M156 620 C156 653 168 669 191 669 C253 669 291 604 353 604 C422 604 457 659 457 769 C457 769 431 769 431 769 C431 729 416 709 387 709 C325 709 287 774 225 774 C161 774 129 722 129 620 C129 620 156 620 156 620 L156 620 Z M293 35 C223 35 188 107 188 250 C188 393 223 465 293 465 C363 465 398 393 398 250 C398 107 363 35 293 35 L293 35 Z M23 250 C23 77 114 -10 293 -10 C473 -10 564 77 564 250 C564 423 473 510 293 510 C114 510 23 423 23 250 L23 250 Z " />
<glyph glyph-name="odieresis" unicode="&#xf6;" horiz-adv-x="609" d="M380 615 C433 615 460 642 460 695 C460 748 433 775 380 775 C327 775 300 748 300 695 C300 642 327 615 380 615 L380 615 Z M207 615 C260 615 287 642 287 695 C287 748 260 775 207 775 C154 775 127 748 127 695 C127 642 154 615 207 615 L207 615 Z M293 35 C223 35 188 107 188 250 C188 393 223 465 293 465 C363 465 398 393 398 250 C398 107 363 35 293 35 L293 35 Z M23 250 C23 77 114 -10 293 -10 C473 -10 564 77 564 250 C564 423 473 510 293 510 C114 510 23 423 23 250 L23 250 Z " />
<glyph glyph-name="oslash" unicode="&#xf8;" horiz-adv-x="609" d="M41 -29 C41 -29 111 38 111 38 C155 6 216 -10 293 -10 C473 -10 564 77 564 250 C564 324 547 383 514 425 C514 425 582 491 582 491 C582 491 546 529 546 529 C546 529 476 462 476 462 C432 494 371 510 293 510 C114 510 23 423 23 250 C23 176 40 118 73 75 C73 75 4 9 4 9 C4 9 41 -29 41 -29 L41 -29 Z M293 35 C248 35 217 65 201 125 C201 125 395 312 395 312 C397 293 398 272 398 250 C398 107 363 35 293 35 C293 35 293 35 293 35 L293 35 Z M191 188 C189 207 188 228 188 250 C188 393 223 465 293 465 C338 465 369 435 385 375 C385 375 191 188 191 188 L191 188 Z " />
<glyph glyph-name="ugrave" unicode="&#xf9;" horiz-adv-x="653" d="M633 62 C633 62 603 55 603 55 C566 45 548 46 548 121 C548 121 548 465 548 465 C548 465 548 500 548 500 C548 500 332 500 332 500 C332 500 332 480 332 480 C332 480 362 480 362 480 C386 480 398 479 398 465 C398 465 398 158 398 158 C378 115 345 94 300 94 C252 94 227 116 227 160 C227 160 227 465 227 465 C227 465 227 500 227 500 C227 500 10 500 10 500 C10 500 10 480 10 480 C10 480 40 480 40 480 C65 480 77 479 77 465 C77 465 77 160 77 160 C77 47 128 -10 230 -10 C307 -10 363 32 398 114 C398 114 398 90 398 90 C398 90 398 -10 398 -10 C398 -10 424 -10 424 -10 C424 -10 633 42 633 42 C633 42 633 62 633 62 L633 62 Z M234 743 C210 784 196 804 186 804 C141 804 111 774 111 730 C111 719 129 702 165 675 C165 675 313 560 313 560 C313 560 331 579 331 579 C331 579 234 743 234 743 L234 743 Z " />
<glyph glyph-name="uacute" unicode="&#xfa;" horiz-adv-x="653" d="M322 560 C322 560 469 675 469 675 C505 704 523 720 523 730 C523 774 493 804 448 804 C440 804 426 784 401 743 C401 743 303 579 303 579 C303 579 322 560 322 560 L322 560 Z M633 62 C633 62 603 55 603 55 C566 45 548 46 548 121 C548 121 548 465 548 465 C548 465 548 500 548 500 C548 500 332 500 332 500 C332 500 332 480 332 480 C332 480 362 480 362 480 C386 480 398 479 398 465 C398 465 398 158 398 158 C378 115 345 94 300 94 C252 94 227 116 227 160 C227 160 227 465 227 465 C227 465 227 500 227 500 C227 500 10 500 10 500 C10 500 10 480 10 480 C10 480 40 480 40 480 C65 480 77 479 77 465 C77 465 77 160 77 160 C77 47 128 -10 230 -10 C307 -10 363 32 398 114 C398 114 398 90 398 90 C398 90 398 -10 398 -10 C398 -10 424 -10 424 -10 C424 -10 633 42 633 42 C633 42 633 62 633 62 L633 62 Z " />
<glyph glyph-name="ucircumflex" unicode="&#xfb;" horiz-adv-x="653" d="M633 62 C633 62 603 55 603 55 C566 45 548 46 548 121 C548 121 548 465 548 465 C548 465 548 500 548 500 C548 500 332 500 332 500 C332 500 332 480 332 480 C332 480 362 480 362 480 C386 480 398 479 398 465 C398 465 398 158 398 158 C378 115 345 94 300 94 C252 94 227 116 227 160 C227 160 227 465 227 465 C227 465 227 500 227 500 C227 500 10 500 10 500 C10 500 10 480 10 480 C10 480 40 480 40 480 C65 480 77 479 77 465 C77 465 77 160 77 160 C77 47 128 -10 230 -10 C307 -10 363 32 398 114 C398 114 398 90 398 90 C398 90 398 -10 398 -10 C398 -10 424 -10 424 -10 C424 -10 633 42 633 42 C633 42 633 62 633 62 L633 62 Z M312 647 C312 647 449 553 449 553 C449 553 469 570 469 570 C469 570 365 735 365 735 C354 753 331 789 312 789 C293 789 271 754 260 736 C260 736 155 570 155 570 C155 570 175 553 175 553 C175 553 312 647 312 647 L312 647 Z " />
<glyph glyph-name="udieresis" unicode="&#xfc;" horiz-adv-x="653" d="M399 615 C452 615 479 642 479 695 C479 748 452 775 399 775 C346 775 319 748 319 695 C319 642 346 615 399 615 L399 615 Z M226 615 C279 615 306 642 306 695 C306 748 279 775 226 775 C173 775 146 748 146 695 C146 642 173 615 226 615 L226 615 Z M633 62 C633 62 603 55 603 55 C566 45 548 46 548 121 C548 121 548 465 548 465 C548 465 548 500 548 500 C548 500 332 500 332 500 C332 500 332 480 332 480 C332 480 362 480 362 480 C386 480 398 479 398 465 C398 465 398 158 398 158 C378 115 345 94 300 94 C252 94 227 116 227 160 C227 160 227 465 227 465 C227 465 227 500 227 500 C227 500 10 500 10 500 C10 500 10 480 10 480 C10 480 40 480 40 480 C65 480 77 479 77 465 C77 465 77 160 77 160 C77 47 128 -10 230 -10 C307 -10 363 32 398 114 C398 114 398 90 398 90 C398 90 398 -10 398 -10 C398 -10 424 -10 424 -10 C424 -10 633 42 633 42 C633 42 633 62 633 62 L633 62 Z " />
<glyph glyph-name="ydieresis" unicode="&#xff;" horiz-adv-x="650" d="M439 615 C492 615 519 642 519 695 C519 748 492 775 439 775 C386 775 359 748 359 695 C359 642 386 615 439 615 L439 615 Z M266 615 C319 615 346 642 346 695 C346 748 319 775 266 775 C213 775 186 748 186 695 C186 642 213 615 266 615 L266 615 Z M638 500 C638 500 561 500 561 500 C561 500 492 500 492 500 C492 500 397 500 397 500 C397 500 397 480 397 480 C397 480 424 480 424 480 C463 480 483 478 475 452 C475 452 380 189 380 189 C380 189 237 456 237 456 C227 478 238 480 260 480 C260 480 288 480 288 480 C288 480 288 500 288 500 C288 500 213 500 213 500 C213 500 49 500 49 500 C49 500 -11 500 -11 500 C-11 500 -11 480 -11 480 C-11 480 24 480 24 480 C46 480 59 478 71 457 C71 457 308 -10 308 -10 C308 -10 261 -140 261 -140 C255 -157 245 -165 231 -165 C192 -165 185 -112 146 -112 C89 -112 60 -137 60 -187 C60 -248 90 -279 148 -279 C218 -279 265 -246 289 -181 C289 -181 352 -10 352 -10 C352 -10 534 434 534 434 C534 434 534 434 534 434 C534 434 534 435 534 435 C534 435 539 447 539 447 C554 478 573 480 607 480 C607 480 638 480 638 480 C638 480 638 500 638 500 L638 500 Z " />
<glyph glyph-name="Amacron" unicode="&#x100;" horiz-adv-x="863" d="M293 884 C293 884 593 884 593 884 C593 884 593 988 593 988 C593 988 293 988 293 988 C293 988 293 884 293 884 L293 884 Z M458 0 C458 0 593 0 593 0 C593 0 769 0 769 0 C769 0 857 0 857 0 C857 0 857 20 857 20 C857 20 827 20 827 20 C787 20 763 27 731 110 C731 110 527 697 527 697 C527 697 501 770 501 770 C501 770 486 770 486 770 C458 729 415 705 359 697 C359 697 362 687 362 687 C362 687 362 687 362 687 C362 687 177 128 177 128 C138 28 100 20 36 20 C36 20 6 20 6 20 C6 20 6 0 6 0 C6 0 134 0 134 0 C134 0 185 0 185 0 C185 0 350 0 350 0 C350 0 350 20 350 20 C350 20 326 20 326 20 C241 20 197 29 231 150 C231 150 266 265 266 265 C266 265 504 265 504 265 C504 265 546 140 546 140 C583 28 551 20 482 20 C482 20 458 20 458 20 C458 20 458 0 458 0 L458 0 Z M280 309 C280 309 380 635 380 635 C380 635 489 309 489 309 C489 309 280 309 280 309 L280 309 Z " />
<glyph glyph-name="amacron" unicode="&#x101;" horiz-adv-x="515" d="M102 634 C102 634 402 634 402 634 C402 634 402 738 402 738 C402 738 102 738 102 738 C102 738 102 634 102 634 L102 634 Z M525 147 C525 147 504 158 504 158 C497 121 479 102 449 102 C417 102 400 115 400 140 C400 140 400 349 400 349 C400 472 350 510 252 510 C117 510 48 420 48 360 C48 307 76 280 133 280 C174 280 195 311 195 337 C195 362 175 372 175 406 C175 423 189 449 217 449 C239 449 250 438 250 404 C250 404 250 281 250 281 C51 220 28 210 28 101 C28 27 65 -10 138 -10 C176 -10 208 8 259 76 C276 22 319 -5 387 -5 C461 -5 507 46 525 147 L525 147 Z M250 245 C250 245 250 140 250 140 C250 128 251 117 252 106 C232 78 223 70 218 70 C192 70 179 86 179 117 C179 217 187 226 250 245 L250 245 Z " />
<glyph glyph-name="Abreve" unicode="&#x102;" horiz-adv-x="863" d="M290 994 C306 889 357 836 443 836 C529 836 580 888 596 991 C596 991 565 995 565 995 C559 959 518 941 443 941 C368 941 327 960 321 998 C321 998 290 994 290 994 L290 994 Z M458 0 C458 0 593 0 593 0 C593 0 769 0 769 0 C769 0 857 0 857 0 C857 0 857 20 857 20 C857 20 827 20 827 20 C787 20 763 27 731 110 C731 110 527 697 527 697 C527 697 501 770 501 770 C501 770 486 770 486 770 C458 729 415 705 359 697 C359 697 362 687 362 687 C362 687 362 687 362 687 C362 687 177 128 177 128 C138 28 100 20 36 20 C36 20 6 20 6 20 C6 20 6 0 6 0 C6 0 134 0 134 0 C134 0 185 0 185 0 C185 0 350 0 350 0 C350 0 350 20 350 20 C350 20 326 20 326 20 C241 20 197 29 231 150 C231 150 266 265 266 265 C266 265 504 265 504 265 C504 265 546 140 546 140 C583 28 551 20 482 20 C482 20 458 20 458 20 C458 20 458 0 458 0 L458 0 Z M280 309 C280 309 380 635 380 635 C380 635 489 309 489 309 C489 309 280 309 280 309 L280 309 Z " />
<glyph glyph-name="abreve" unicode="&#x103;" horiz-adv-x="515" d="M99 744 C116 639 167 586 252 586 C338 586 389 638 405 741 C405 741 374 745 374 745 C369 709 328 691 252 691 C177 691 136 710 130 748 C130 748 99 744 99 744 L99 744 Z M525 147 C525 147 504 158 504 158 C497 121 479 102 449 102 C417 102 400 115 400 140 C400 140 400 349 400 349 C400 472 350 510 252 510 C117 510 48 420 48 360 C48 307 76 280 133 280 C174 280 195 311 195 337 C195 362 175 372 175 406 C175 423 189 449 217 449 C239 449 250 438 250 404 C250 404 250 281 250 281 C51 220 28 210 28 101 C28 27 65 -10 138 -10 C176 -10 208 8 259 76 C276 22 319 -5 387 -5 C461 -5 507 46 525 147 L525 147 Z M250 245 C250 245 250 140 250 140 C250 128 251 117 252 106 C232 78 223 70 218 70 C192 70 179 86 179 117 C179 217 187 226 250 245 L250 245 Z " />
<glyph glyph-name="Cacute" unicode="&#x106;" horiz-adv-x="795" d="M471 810 C471 810 618 925 618 925 C654 954 672 970 672 980 C672 1024 642 1054 597 1054 C589 1054 574 1034 550 993 C550 993 452 829 452 829 C452 829 471 810 471 810 L471 810 Z M758 508 C758 508 758 636 758 636 C758 636 758 750 758 750 C758 750 743 750 743 750 C743 750 741 740 738 721 C735 703 711 697 667 721 C624 747 565 760 461 760 C175 760 31 631 31 375 C31 119 172 -10 451 -10 C549 -10 612 3 660 29 C660 29 661 29 661 29 C705 53 732 45 738 25 C743 5 746 -5 746 -5 C746 -5 758 -5 758 -5 C758 -5 758 114 758 114 C758 114 758 242 758 242 C758 242 743 242 743 242 C743 242 741 235 738 221 C733 201 723 178 708 156 C708 156 707 157 707 157 C635 72 581 29 467 29 C300 29 215 145 215 375 C215 603 303 718 478 718 C510 718 536 715 558 709 C558 709 557 709 557 709 C567 706 577 703 587 699 C632 679 664 644 707 593 C707 593 710 595 710 595 C724 573 733 551 738 529 C741 515 743 508 743 508 C743 508 758 508 758 508 L758 508 Z " />
<glyph glyph-name="Ccircumflex" unicode="&#x108;" horiz-adv-x="795" d="M758 508 C758 508 758 636 758 636 C758 636 758 750 758 750 C758 750 743 750 743 750 C743 750 741 740 738 721 C735 703 711 697 667 721 C624 747 565 760 461 760 C175 760 31 631 31 375 C31 119 172 -10 451 -10 C549 -10 612 3 660 29 C660 29 661 29 661 29 C705 53 732 45 738 25 C743 5 746 -5 746 -5 C746 -5 758 -5 758 -5 C758 -5 758 114 758 114 C758 114 758 242 758 242 C758 242 743 242 743 242 C743 242 741 235 738 221 C733 201 723 178 708 156 C708 156 707 157 707 157 C635 72 581 29 467 29 C300 29 215 145 215 375 C215 603 303 718 478 718 C510 718 536 715 558 709 C558 709 557 709 557 709 C567 706 577 703 587 699 C632 679 664 644 707 593 C707 593 710 595 710 595 C724 573 733 551 738 529 C741 515 743 508 743 508 C743 508 758 508 758 508 L758 508 Z M461 897 C461 897 598 803 598 803 C598 803 618 820 618 820 C618 820 514 985 514 985 C503 1003 480 1039 461 1039 C442 1039 420 1004 408 986 C408 986 304 820 304 820 C304 820 324 803 324 803 C324 803 461 897 461 897 L461 897 Z " />
<glyph glyph-name="Cdotaccent" unicode="&#x10a;" horiz-adv-x="795" d="M461 865 C514 865 541 892 541 945 C541 998 514 1025 461 1025 C408 1025 381 998 381 945 C381 892 408 865 461 865 L461 865 Z M758 508 C758 508 758 636 758 636 C758 636 758 750 758 750 C758 750 743 750 743 750 C743 750 741 740 738 721 C735 703 711 697 667 721 C624 747 565 760 461 760 C175 760 31 631 31 375 C31 119 172 -10 451 -10 C549 -10 612 3 660 29 C660 29 661 29 661 29 C705 53 732 45 738 25 C743 5 746 -5 746 -5 C746 -5 758 -5 758 -5 C758 -5 758 114 758 114 C758 114 758 242 758 242 C758 242 743 242 743 242 C743 242 741 235 738 221 C733 201 723 178 708 156 C708 156 707 157 707 157 C635 72 581 29 467 29 C300 29 215 145 215 375 C215 603 303 718 478 718 C510 718 536 715 558 709 C558 709 557 709 557 709 C567 706 577 703 587 699 C632 679 664 644 707 593 C707 593 710 595 710 595 C724 573 733 551 738 529 C741 515 743 508 743 508 C743 508 758 508 758 508 L758 508 Z " />
<glyph glyph-name="cdotaccent" unicode="&#x10b;" horiz-adv-x="556" d="M346 615 C399 615 426 642 426 695 C426 748 399 775 346 775 C293 775 266 748 266 695 C266 642 293 615 346 615 L346 615 Z M527 128 C527 128 506 137 506 137 C489 101 448 82 383 82 C253 82 187 148 187 279 C187 410 238 476 338 476 C352 476 369 452 386 405 C404 355 429 330 461 330 C529 330 554 355 536 405 C510 475 446 510 346 510 C131 510 23 417 23 234 C23 72 126 -10 330 -10 C420 -10 486 36 527 128 L527 128 Z " />
<glyph glyph-name="Ccaron" unicode="&#x10c;" horiz-adv-x="795" d="M758 508 C758 508 758 636 758 636 C758 636 758 750 758 750 C758 750 743 750 743 750 C743 750 741 740 738 721 C735 703 711 697 667 721 C624 747 565 760 461 760 C175 760 31 631 31 375 C31 119 172 -10 451 -10 C549 -10 612 3 660 29 C660 29 661 29 661 29 C705 53 732 45 738 25 C743 5 746 -5 746 -5 C746 -5 758 -5 758 -5 C758 -5 758 114 758 114 C758 114 758 242 758 242 C758 242 743 242 743 242 C743 242 741 235 738 221 C733 201 723 178 708 156 C708 156 707 157 707 157 C635 72 581 29 467 29 C300 29 215 145 215 375 C215 603 303 718 478 718 C510 718 536 715 558 709 C558 709 557 709 557 709 C567 706 577 703 587 699 C632 679 664 644 707 593 C707 593 710 595 710 595 C724 573 733 551 738 529 C741 515 743 508 743 508 C743 508 758 508 758 508 L758 508 Z M461 953 C461 953 598 1047 598 1047 C598 1047 618 1030 618 1030 C618 1030 514 865 514 865 C503 847 480 811 461 811 C442 811 420 846 408 864 C408 864 304 1030 304 1030 C304 1030 324 1047 324 1047 C324 1047 461 953 461 953 L461 953 Z " />
<glyph glyph-name="ccaron" unicode="&#x10d;" horiz-adv-x="556" d="M527 128 C527 128 506 137 506 137 C489 101 448 82 383 82 C253 82 187 148 187 279 C187 410 238 476 338 476 C352 476 369 452 386 405 C404 355 429 330 461 330 C529 330 554 355 536 405 C510 475 446 510 346 510 C131 510 23 417 23 234 C23 72 126 -10 330 -10 C420 -10 486 36 527 128 L527 128 Z M346 703 C346 703 483 797 483 797 C483 797 503 780 503 780 C503 780 399 615 399 615 C388 597 365 561 346 561 C327 561 305 596 293 614 C293 614 189 780 189 780 C189 780 209 797 209 797 C209 797 346 703 346 703 L346 703 Z " />
<glyph glyph-name="Dcaron" unicode="&#x10e;" horiz-adv-x="921" d="M23 0 C23 0 128 0 128 0 C128 0 296 0 296 0 C296 0 376 0 376 0 C702 0 867 101 867 375 C867 624 746 750 416 750 C416 750 296 750 296 750 C296 750 128 750 128 750 C128 750 23 750 23 750 C23 750 23 730 23 730 C23 730 53 730 53 730 C103 730 128 725 128 665 C128 665 128 85 128 85 C128 25 103 20 53 20 C53 20 23 20 23 20 C23 20 23 0 23 0 L23 0 Z M405 953 C405 953 542 1047 542 1047 C542 1047 562 1030 562 1030 C562 1030 458 865 458 865 C447 847 424 811 405 811 C386 811 364 846 353 864 C353 864 248 1030 248 1030 C248 1030 268 1047 268 1047 C268 1047 405 953 405 953 L405 953 Z M296 717 C577 713 682 598 682 375 C682 126 562 34 326 34 C296 34 296 49 296 80 C296 80 296 85 296 85 C296 85 296 665 296 665 C296 665 296 716 296 716 C296 716 296 717 296 717 L296 717 Z " />
<glyph glyph-name="dcaron" unicode="&#x10f;" horiz-adv-x="593" d="M598 62 C598 62 568 55 568 55 C532 45 513 48 513 141 C513 141 513 665 513 665 C513 665 513 750 513 750 C513 750 487 750 487 750 C487 750 278 690 278 690 C278 690 278 670 278 670 C278 670 308 679 308 679 C345 689 363 690 363 630 C363 630 363 496 363 496 C330 505 289 510 240 510 C87 510 30 422 30 247 C30 79 94 -5 220 -5 C282 -5 330 15 363 55 C363 55 363 -10 363 -10 C363 -10 390 -10 390 -10 C390 -10 598 42 598 42 C598 42 598 62 598 62 L598 62 Z M638 630 C659 668 670 703 670 734 C670 752 648 756 603 756 C569 756 562 698 561 647 C561 647 557 534 557 534 C557 534 583 529 583 529 C583 529 638 630 638 630 L638 630 Z M363 108 C337 74 310 57 282 57 C216 57 183 134 183 288 C183 406 203 466 258 466 C301 466 338 440 363 401 C363 401 363 110 363 110 C363 110 363 108 363 108 L363 108 Z " />
<glyph glyph-name="Emacron" unicode="&#x112;" horiz-adv-x="703" d="M217 884 C217 884 517 884 517 884 C517 884 517 988 517 988 C517 988 217 988 217 988 C217 988 217 884 217 884 L217 884 Z M617 589 C617 589 611 670 611 670 C610 696 608 723 606 750 C606 750 486 750 486 750 C486 750 296 750 296 750 C296 750 128 750 128 750 C128 750 23 750 23 750 C23 750 23 730 23 730 C23 730 53 730 53 730 C103 730 128 725 128 665 C128 665 128 85 128 85 C128 25 103 20 53 20 C53 20 23 20 23 20 C23 20 23 0 23 0 C23 0 128 0 128 0 C128 0 296 0 296 0 C296 0 511 0 511 0 C511 0 631 0 631 0 C639 54 647 107 653 161 C653 161 633 161 633 161 C633 161 629 131 629 131 C620 68 609 36 516 36 C516 36 376 36 376 36 C296 36 296 51 296 80 C296 80 296 85 296 85 C296 85 296 385 296 385 C296 385 426 385 426 385 C519 385 526 348 526 275 C526 275 526 245 526 245 C526 245 546 245 546 245 C546 245 546 385 546 385 C546 385 546 425 546 425 C546 425 546 565 546 565 C546 565 526 565 526 565 C526 565 526 535 526 535 C526 462 519 425 426 425 C426 425 296 425 296 425 C296 425 296 665 296 665 C296 665 296 714 296 714 C296 714 488 714 488 714 C600 714 591 678 596 607 C596 607 597 589 597 589 C597 589 617 589 617 589 L617 589 Z " />
<glyph glyph-name="emacron" unicode="&#x113;" horiz-adv-x="535" d="M139 634 C139 634 439 634 439 634 C439 634 439 738 439 738 C439 738 139 738 139 738 C139 738 139 634 139 634 L139 634 Z M184 340 C184 340 340 340 340 340 C340 340 506 340 506 340 C482 476 413 510 289 510 C112 510 23 414 23 225 C23 69 104 -10 265 -10 C382 -10 458 37 492 130 C492 130 474 137 474 137 C463 105 405 89 301 89 C222 89 182 155 182 286 C182 305 183 323 184 340 L184 340 Z M427 383 C439 384 451 384 464 384 C464 384 427 383 427 383 L427 383 Z M332 380 C332 380 189 375 189 375 C202 442 233 476 281 476 C301 476 316 455 332 380 C332 380 332 380 332 380 L332 380 Z " />
<glyph glyph-name="Ebreve" unicode="&#x114;" horiz-adv-x="703" d="M214 994 C230 889 281 836 367 836 C453 836 504 888 520 991 C520 991 489 995 489 995 C483 959 442 941 367 941 C292 941 251 960 245 998 C245 998 214 994 214 994 L214 994 Z M617 589 C617 589 611 670 611 670 C610 696 608 723 606 750 C606 750 486 750 486 750 C486 750 296 750 296 750 C296 750 128 750 128 750 C128 750 23 750 23 750 C23 750 23 730 23 730 C23 730 53 730 53 730 C103 730 128 725 128 665 C128 665 128 85 128 85 C128 25 103 20 53 20 C53 20 23 20 23 20 C23 20 23 0 23 0 C23 0 128 0 128 0 C128 0 296 0 296 0 C296 0 511 0 511 0 C511 0 631 0 631 0 C639 54 647 107 653 161 C653 161 633 161 633 161 C633 161 629 131 629 131 C620 68 609 36 516 36 C516 36 376 36 376 36 C296 36 296 51 296 80 C296 80 296 85 296 85 C296 85 296 385 296 385 C296 385 426 385 426 385 C519 385 526 348 526 275 C526 275 526 245 526 245 C526 245 546 245 546 245 C546 245 546 385 546 385 C546 385 546 425 546 425 C546 425 546 565 546 565 C546 565 526 565 526 565 C526 565 526 535 526 535 C526 462 519 425 426 425 C426 425 296 425 296 425 C296 425 296 665 296 665 C296 665 296 714 296 714 C296 714 488 714 488 714 C600 714 591 678 596 607 C596 607 597 589 597 589 C597 589 617 589 617 589 L617 589 Z " />
<glyph glyph-name="ebreve" unicode="&#x115;" horiz-adv-x="535" d="M136 744 C153 639 204 586 289 586 C375 586 426 638 442 741 C442 741 411 745 411 745 C405 709 364 691 289 691 C214 691 173 710 167 748 C167 748 136 744 136 744 L136 744 Z M184 340 C184 340 340 340 340 340 C340 340 506 340 506 340 C482 476 413 510 289 510 C112 510 23 414 23 225 C23 69 104 -10 265 -10 C382 -10 458 37 492 130 C492 130 474 137 474 137 C463 105 405 89 301 89 C222 89 182 155 182 286 C182 305 183 323 184 340 L184 340 Z M427 383 C439 384 451 384 464 384 C464 384 427 383 427 383 L427 383 Z M332 380 C332 380 189 375 189 375 C202 442 233 476 281 476 C301 476 316 455 332 380 C332 380 332 380 332 380 L332 380 Z " />
<glyph glyph-name="Edotaccent" unicode="&#x116;" horiz-adv-x="703" d="M367 865 C420 865 447 892 447 945 C447 998 420 1025 367 1025 C314 1025 287 998 287 945 C287 892 314 865 367 865 L367 865 Z M617 589 C617 589 611 670 611 670 C610 696 608 723 606 750 C606 750 486 750 486 750 C486 750 296 750 296 750 C296 750 128 750 128 750 C128 750 23 750 23 750 C23 750 23 730 23 730 C23 730 53 730 53 730 C103 730 128 725 128 665 C128 665 128 85 128 85 C128 25 103 20 53 20 C53 20 23 20 23 20 C23 20 23 0 23 0 C23 0 128 0 128 0 C128 0 296 0 296 0 C296 0 511 0 511 0 C511 0 631 0 631 0 C639 54 647 107 653 161 C653 161 633 161 633 161 C633 161 629 131 629 131 C620 68 609 36 516 36 C516 36 376 36 376 36 C296 36 296 51 296 80 C296 80 296 85 296 85 C296 85 296 385 296 385 C296 385 426 385 426 385 C519 385 526 348 526 275 C526 275 526 245 526 245 C526 245 546 245 546 245 C546 245 546 385 546 385 C546 385 546 425 546 425 C546 425 546 565 546 565 C546 565 526 565 526 565 C526 565 526 535 526 535 C526 462 519 425 426 425 C426 425 296 425 296 425 C296 425 296 665 296 665 C296 665 296 714 296 714 C296 714 488 714 488 714 C600 714 591 678 596 607 C596 607 597 589 597 589 C597 589 617 589 617 589 L617 589 Z " />
<glyph glyph-name="edotaccent" unicode="&#x117;" horiz-adv-x="535" d="M289 615 C342 615 369 642 369 695 C369 748 342 775 289 775 C236 775 209 748 209 695 C209 642 236 615 289 615 L289 615 Z M184 340 C184 340 340 340 340 340 C340 340 506 340 506 340 C482 476 413 510 289 510 C112 510 23 414 23 225 C23 69 104 -10 265 -10 C382 -10 458 37 492 130 C492 130 474 137 474 137 C463 105 405 89 301 89 C222 89 182 155 182 286 C182 305 183 323 184 340 L184 340 Z M427 383 C439 384 451 384 464 384 C464 384 427 383 427 383 L427 383 Z M332 380 C332 380 189 375 189 375 C202 442 233 476 281 476 C301 476 316 455 332 380 C332 380 332 380 332 380 L332 380 Z " />
<glyph glyph-name="Ecaron" unicode="&#x11a;" horiz-adv-x="703" d="M617 589 C617 589 611 670 611 670 C610 696 608 723 606 750 C606 750 486 750 486 750 C486 750 296 750 296 750 C296 750 128 750 128 750 C128 750 23 750 23 750 C23 750 23 730 23 730 C23 730 53 730 53 730 C103 730 128 725 128 665 C128 665 128 85 128 85 C128 25 103 20 53 20 C53 20 23 20 23 20 C23 20 23 0 23 0 C23 0 128 0 128 0 C128 0 296 0 296 0 C296 0 511 0 511 0 C511 0 631 0 631 0 C639 54 647 107 653 161 C653 161 633 161 633 161 C633 161 629 131 629 131 C620 68 609 36 516 36 C516 36 376 36 376 36 C296 36 296 51 296 80 C296 80 296 85 296 85 C296 85 296 385 296 385 C296 385 426 385 426 385 C519 385 526 348 526 275 C526 275 526 245 526 245 C526 245 546 245 546 245 C546 245 546 385 546 385 C546 385 546 425 546 425 C546 425 546 565 546 565 C546 565 526 565 526 565 C526 565 526 535 526 535 C526 462 519 425 426 425 C426 425 296 425 296 425 C296 425 296 665 296 665 C296 665 296 714 296 714 C296 714 488 714 488 714 C600 714 591 678 596 607 C596 607 597 589 597 589 C597 589 617 589 617 589 L617 589 Z M367 953 C367 953 504 1047 504 1047 C504 1047 524 1030 524 1030 C524 1030 420 865 420 865 C409 847 386 811 367 811 C348 811 325 846 314 864 C314 864 210 1030 210 1030 C210 1030 230 1047 230 1047 C230 1047 367 953 367 953 L367 953 Z " />
<glyph glyph-name="ecaron" unicode="&#x11b;" horiz-adv-x="535" d="M289 703 C289 703 426 797 426 797 C426 797 446 780 446 780 C446 780 342 615 342 615 C331 597 308 561 289 561 C270 561 248 596 236 614 C236 614 132 780 132 780 C132 780 152 797 152 797 C152 797 289 703 289 703 L289 703 Z M184 340 C184 340 340 340 340 340 C340 340 506 340 506 340 C482 476 413 510 289 510 C112 510 23 414 23 225 C23 69 104 -10 265 -10 C382 -10 458 37 492 130 C492 130 474 137 474 137 C463 105 405 89 301 89 C222 89 182 155 182 286 C182 305 183 323 184 340 L184 340 Z M427 383 C439 384 451 384 464 384 C464 384 427 383 427 383 L427 383 Z M332 380 C332 380 189 375 189 375 C202 442 233 476 281 476 C301 476 316 455 332 380 C332 380 332 380 332 380 L332 380 Z " />
<glyph glyph-name="Gcircumflex" unicode="&#x11c;" horiz-adv-x="875" d="M758 508 C758 508 758 636 758 636 C758 636 758 750 758 750 C758 750 743 750 743 750 C743 750 741 740 738 721 C735 703 711 697 667 721 C624 747 565 760 461 760 C175 760 31 631 31 375 C31 119 177 -10 465 -10 C504 -10 538 -9 568 -7 C568 -7 569 -7 569 -7 C569 -7 572 -6 572 -6 C674 2 735 23 808 57 C808 57 797 81 797 81 C776 71 756 63 733 56 C733 56 734 245 734 245 C734 301 752 305 789 305 C789 305 819 305 819 305 C819 305 819 325 819 325 C819 325 466 325 466 325 C466 325 466 305 466 305 C466 305 496 305 496 305 C542 305 566 301 566 245 C566 245 567 169 567 169 C565 77 536 31 480 31 C304 31 215 146 215 375 C215 603 303 718 478 718 C510 718 536 715 558 709 C558 709 557 709 557 709 C567 706 577 703 587 699 C632 679 664 644 707 593 C707 593 710 595 710 595 C724 573 733 551 738 529 C741 515 743 508 743 508 C743 508 758 508 758 508 L758 508 Z M461 897 C461 897 598 803 598 803 C598 803 618 820 618 820 C618 820 514 985 514 985 C503 1003 480 1039 461 1039 C442 1039 420 1004 408 986 C408 986 304 820 304 820 C304 820 324 803 324 803 C324 803 461 897 461 897 L461 897 Z " />
<glyph glyph-name="Gbreve" unicode="&#x11e;" horiz-adv-x="875" d="M308 994 C324 889 375 836 461 836 C547 836 598 888 614 991 C614 991 583 995 583 995 C577 959 536 941 461 941 C386 941 345 960 339 998 C339 998 308 994 308 994 L308 994 Z M758 508 C758 508 758 636 758 636 C758 636 758 750 758 750 C758 750 743 750 743 750 C743 750 741 740 738 721 C735 703 711 697 667 721 C624 747 565 760 461 760 C175 760 31 631 31 375 C31 119 177 -10 465 -10 C504 -10 538 -9 568 -7 C568 -7 569 -7 569 -7 C569 -7 572 -6 572 -6 C674 2 735 23 808 57 C808 57 797 81 797 81 C776 71 756 63 733 56 C733 56 734 245 734 245 C734 301 752 305 789 305 C789 305 819 305 819 305 C819 305 819 325 819 325 C819 325 466 325 466 325 C466 325 466 305 466 305 C466 305 496 305 496 305 C542 305 566 301 566 245 C566 245 567 169 567 169 C565 77 536 31 480 31 C304 31 215 146 215 375 C215 603 303 718 478 718 C510 718 536 715 558 709 C558 709 557 709 557 709 C567 706 577 703 587 699 C632 679 664 644 707 593 C707 593 710 595 710 595 C724 573 733 551 738 529 C741 515 743 508 743 508 C743 508 758 508 758 508 L758 508 Z " />
<glyph glyph-name="gbreve" unicode="&#x11f;" horiz-adv-x="520" d="M94 744 C110 639 161 586 247 586 C333 586 384 638 400 741 C400 741 368 745 368 745 C363 709 322 691 247 691 C172 691 131 710 125 748 C125 748 94 744 94 744 L94 744 Z M209 350 C209 433 222 475 247 475 C272 475 285 433 285 350 C285 266 272 223 247 223 C222 223 209 266 209 350 L209 350 Z M160 -33 C162 -33 164 -33 166 -33 C166 -33 282 -33 282 -33 C345 -32 361 -49 361 -83 C361 -158 329 -196 267 -196 C193 -196 156 -151 156 -63 C156 -51 157 -41 160 -33 L160 -33 Z M108 -22 C58 -38 32 -64 32 -99 C32 -186 108 -230 259 -230 C409 -230 485 -169 485 -48 C485 61 447 116 297 117 C297 117 174 117 174 117 C147 117 133 126 133 145 C133 173 171 188 247 188 C372 188 435 242 435 350 C435 371 433 390 428 407 C440 424 453 433 466 433 C458 433 454 429 454 422 C454 387 477 369 524 369 C564 369 585 393 585 440 C585 477 566 495 528 495 C479 495 440 476 414 439 C386 486 330 510 247 510 C122 510 59 456 59 350 C59 280 86 232 139 208 C76 191 45 155 45 100 C45 37 66 -4 108 -22 L108 -22 Z " />
<glyph glyph-name="Gdotaccent" unicode="&#x120;" horiz-adv-x="875" d="M461 865 C514 865 541 892 541 945 C541 998 514 1025 461 1025 C408 1025 381 998 381 945 C381 892 408 865 461 865 L461 865 Z M758 508 C758 508 758 636 758 636 C758 636 758 750 758 750 C758 750 743 750 743 750 C743 750 741 740 738 721 C735 703 711 697 667 721 C624 747 565 760 461 760 C175 760 31 631 31 375 C31 119 177 -10 465 -10 C504 -10 538 -9 568 -7 C568 -7 569 -7 569 -7 C569 -7 572 -6 572 -6 C674 2 735 23 808 57 C808 57 797 81 797 81 C776 71 756 63 733 56 C733 56 734 245 734 245 C734 301 752 305 789 305 C789 305 819 305 819 305 C819 305 819 325 819 325 C819 325 466 325 466 325 C466 325 466 305 466 305 C466 305 496 305 496 305 C542 305 566 301 566 245 C566 245 567 169 567 169 C565 77 536 31 480 31 C304 31 215 146 215 375 C215 603 303 718 478 718 C510 718 536 715 558 709 C558 709 557 709 557 709 C567 706 577 703 587 699 C632 679 664 644 707 593 C707 593 710 595 710 595 C724 573 733 551 738 529 C741 515 743 508 743 508 C743 508 758 508 758 508 L758 508 Z " />
<glyph glyph-name="gdotaccent" unicode="&#x121;" horiz-adv-x="520" d="M247 615 C300 615 327 642 327 695 C327 748 300 775 247 775 C194 775 167 748 167 695 C167 642 194 615 247 615 L247 615 Z M209 350 C209 433 222 475 247 475 C272 475 285 433 285 350 C285 266 272 223 247 223 C222 223 209 266 209 350 L209 350 Z M160 -33 C162 -33 164 -33 166 -33 C166 -33 282 -33 282 -33 C345 -32 361 -49 361 -83 C361 -158 329 -196 267 -196 C193 -196 156 -151 156 -63 C156 -51 157 -41 160 -33 L160 -33 Z M108 -22 C58 -38 32 -64 32 -99 C32 -186 108 -230 259 -230 C409 -230 485 -169 485 -48 C485 61 447 116 297 117 C297 117 174 117 174 117 C147 117 133 126 133 145 C133 173 171 188 247 188 C372 188 435 242 435 350 C435 371 433 390 428 407 C440 424 453 433 466 433 C458 433 454 429 454 422 C454 387 477 369 524 369 C564 369 585 393 585 440 C585 477 566 495 528 495 C479 495 440 476 414 439 C386 486 330 510 247 510 C122 510 59 456 59 350 C59 280 86 232 139 208 C76 191 45 155 45 100 C45 37 66 -4 108 -22 L108 -22 Z " />
<glyph glyph-name="Hcircumflex" unicode="&#x124;" horiz-adv-x="928" d="M889 750 C889 750 511 750 511 750 C511 750 511 730 511 730 C511 730 541 730 541 730 C591 730 616 726 616 670 C616 670 616 406 616 406 C616 406 332 406 332 406 C332 406 332 670 332 670 C332 726 357 730 407 730 C407 730 437 730 437 730 C437 730 437 750 437 750 C437 750 59 750 59 750 C59 750 59 730 59 730 C59 730 89 730 89 730 C139 730 164 726 164 670 C164 670 164 80 164 80 C164 24 139 20 89 20 C89 20 59 20 59 20 C59 20 59 0 59 0 C59 0 437 0 437 0 C437 0 437 20 437 20 C437 20 407 20 407 20 C357 20 332 24 332 80 C332 80 332 360 332 360 C332 360 616 360 616 360 C616 360 616 80 616 80 C616 24 591 20 541 20 C541 20 511 20 511 20 C511 20 511 0 511 0 C511 0 889 0 889 0 C889 0 889 20 889 20 C889 20 859 20 859 20 C809 20 784 24 784 80 C784 80 784 670 784 670 C784 726 809 730 859 730 C859 730 889 730 889 730 C889 730 889 750 889 750 L889 750 Z M474 897 C474 897 611 803 611 803 C611 803 631 820 631 820 C631 820 527 985 527 985 C516 1003 493 1039 474 1039 C455 1039 432 1004 421 986 C421 986 317 820 317 820 C317 820 337 803 337 803 C337 803 474 897 474 897 L474 897 Z " />
<glyph glyph-name="Itilde" unicode="&#x128;" horiz-adv-x="418" d="M53 870 C53 903 65 919 87 919 C150 919 187 854 250 854 C319 854 354 909 354 1019 C354 1019 327 1019 327 1019 C327 979 313 959 284 959 C222 959 184 1024 122 1024 C58 1024 26 972 26 870 C26 870 53 870 53 870 L53 870 Z M379 750 C379 750 1 750 1 750 C1 750 1 730 1 730 C1 730 31 730 31 730 C81 730 106 726 106 670 C106 670 106 80 106 80 C106 24 81 20 31 20 C31 20 1 20 1 20 C1 20 1 0 1 0 C1 0 379 0 379 0 C379 0 379 20 379 20 C379 20 349 20 349 20 C299 20 274 24 274 80 C274 80 274 670 274 670 C274 726 299 730 349 730 C349 730 379 730 379 730 C379 730 379 750 379 750 L379 750 Z " />
<glyph glyph-name="itilde" unicode="&#x129;" horiz-adv-x="358" d="M36 620 C36 653 48 669 71 669 C133 669 171 604 233 604 C302 604 337 659 337 769 C337 769 311 769 311 769 C311 729 296 709 268 709 C205 709 168 774 105 774 C42 774 10 722 10 620 C10 620 36 620 36 620 L36 620 Z M19 0 C19 0 332 0 332 0 C332 0 332 20 332 20 C332 20 302 20 302 20 C267 20 249 21 249 35 C249 35 249 390 249 390 C249 390 249 500 249 500 C249 500 222 500 222 500 C222 500 17 445 17 445 C17 445 17 435 17 435 C93 439 99 437 99 390 C99 390 99 35 99 35 C99 21 82 20 49 20 C49 20 19 20 19 20 C19 20 19 0 19 0 L19 0 Z " />
<glyph glyph-name="Imacron" unicode="&#x12a;" horiz-adv-x="418" d="M40 884 C40 884 340 884 340 884 C340 884 340 988 340 988 C340 988 40 988 40 988 C40 988 40 884 40 884 L40 884 Z M379 750 C379 750 1 750 1 750 C1 750 1 730 1 730 C1 730 31 730 31 730 C81 730 106 726 106 670 C106 670 106 80 106 80 C106 24 81 20 31 20 C31 20 1 20 1 20 C1 20 1 0 1 0 C1 0 379 0 379 0 C379 0 379 20 379 20 C379 20 349 20 349 20 C299 20 274 24 274 80 C274 80 274 670 274 670 C274 726 299 730 349 730 C349 730 379 730 379 730 C379 730 379 750 379 750 L379 750 Z " />
<glyph glyph-name="imacron" unicode="&#x12b;" horiz-adv-x="358" d="M23 634 C23 634 324 634 324 634 C324 634 324 738 324 738 C324 738 24 738 24 738 C24 738 23 634 23 634 L23 634 Z M19 0 C19 0 332 0 332 0 C332 0 332 20 332 20 C332 20 302 20 302 20 C267 20 249 21 249 35 C249 35 249 390 249 390 C249 390 249 500 249 500 C249 500 222 500 222 500 C222 500 17 445 17 445 C17 445 17 435 17 435 C93 439 99 437 99 390 C99 390 99 35 99 35 C99 21 82 20 49 20 C49 20 19 20 19 20 C19 20 19 0 19 0 L19 0 Z " />
<glyph glyph-name="Ibreve" unicode="&#x12c;" horiz-adv-x="418" d="M37 994 C53 889 104 836 190 836 C276 836 327 888 343 991 C343 991 312 995 312 995 C306 959 265 941 190 941 C115 941 74 960 68 998 C68 998 37 994 37 994 L37 994 Z M379 750 C379 750 1 750 1 750 C1 750 1 730 1 730 C1 730 31 730 31 730 C81 730 106 726 106 670 C106 670 106 80 106 80 C106 24 81 20 31 20 C31 20 1 20 1 20 C1 20 1 0 1 0 C1 0 379 0 379 0 C379 0 379 20 379 20 C379 20 349 20 349 20 C299 20 274 24 274 80 C274 80 274 670 274 670 C274 726 299 730 349 730 C349 730 379 730 379 730 C379 730 379 750 379 750 L379 750 Z " />
<glyph glyph-name="ibreve" unicode="&#x12d;" horiz-adv-x="358" d="M20 744 C37 639 88 586 173 586 C260 586 311 638 327 741 C327 741 295 745 295 745 C290 709 249 691 174 691 C99 691 58 710 52 748 C52 748 20 744 20 744 L20 744 Z M19 0 C19 0 332 0 332 0 C332 0 332 20 332 20 C332 20 302 20 302 20 C267 20 249 21 249 35 C249 35 249 390 249 390 C249 390 249 500 249 500 C249 500 222 500 222 500 C222 500 17 445 17 445 C17 445 17 435 17 435 C93 439 99 437 99 390 C99 390 99 35 99 35 C99 21 82 20 49 20 C49 20 19 20 19 20 C19 20 19 0 19 0 L19 0 Z " />
<glyph glyph-name="Idotaccent" unicode="&#x130;" horiz-adv-x="418" d="M190 865 C243 865 270 892 270 945 C270 998 243 1025 190 1025 C137 1025 110 998 110 945 C110 892 137 865 190 865 L190 865 Z M379 750 C379 750 1 750 1 750 C1 750 1 730 1 730 C1 730 31 730 31 730 C81 730 106 726 106 670 C106 670 106 80 106 80 C106 24 81 20 31 20 C31 20 1 20 1 20 C1 20 1 0 1 0 C1 0 379 0 379 0 C379 0 379 20 379 20 C379 20 349 20 349 20 C299 20 274 24 274 80 C274 80 274 670 274 670 C274 726 299 730 349 730 C349 730 379 730 379 730 C379 730 379 750 379 750 L379 750 Z " />
<glyph glyph-name="dotlessi" unicode="&#x131;" horiz-adv-x="358" d="M19 0 C19 0 332 0 332 0 C332 0 332 20 332 20 C332 20 302 20 302 20 C267 20 249 21 249 35 C249 35 249 390 249 390 C249 390 249 500 249 500 C249 500 222 500 222 500 C222 500 17 445 17 445 C17 445 17 435 17 435 C93 439 99 437 99 390 C99 390 99 35 99 35 C99 21 82 20 49 20 C49 20 19 20 19 20 C19 20 19 0 19 0 L19 0 Z " />
<glyph glyph-name="Jcircumflex" unicode="&#x134;" horiz-adv-x="418" d="M379 750 C379 750 1 750 1 750 C1 750 1 730 1 730 C1 730 31 730 31 730 C81 730 106 726 106 670 C106 670 106 -136 106 -136 C106 -159 61 -161 23 -161 C-71 -161 -16 -20 -110 -20 C-162 -20 -189 -47 -189 -99 C-189 -179 -132 -220 -19 -220 C118 -220 275 -192 274 180 C274 180 274 670 274 670 C274 726 299 730 349 730 C349 730 379 730 379 730 C379 730 379 750 379 750 L379 750 Z M190 897 C190 897 327 803 327 803 C327 803 347 820 347 820 C347 820 243 985 243 985 C232 1003 209 1039 190 1039 C171 1039 149 1004 137 986 C137 986 33 820 33 820 C33 820 53 803 53 803 C53 803 190 897 190 897 L190 897 Z " />
<glyph glyph-name="Lacute" unicode="&#x139;" horiz-adv-x="683" d="M200 810 C200 810 347 925 347 925 C383 954 401 970 401 980 C401 1024 371 1054 326 1054 C318 1054 303 1034 279 993 C279 993 181 829 181 829 C181 829 200 810 200 810 L200 810 Z M609 29 C624 82 638 136 652 190 C648 191 635 193 633 194 C633 194 625 164 625 164 C601 74 578 29 424 29 C424 29 354 29 354 29 C274 29 274 46 274 80 C274 80 274 85 274 85 C274 85 274 665 274 665 C274 725 299 730 349 730 C349 730 379 730 379 730 C379 730 379 750 379 750 C379 750 274 750 274 750 C274 750 106 750 106 750 C106 750 1 750 1 750 C1 750 1 730 1 730 C1 730 31 730 31 730 C81 730 106 725 106 665 C106 665 106 85 106 85 C106 25 81 20 31 20 C31 20 1 20 1 20 C1 20 1 0 1 0 C1 0 106 0 106 0 C106 0 274 0 274 0 C274 0 416 0 416 0 C416 0 601 0 601 0 C601 0 609 29 609 29 L609 29 Z " />
<glyph glyph-name="Lcaron" unicode="&#x13d;" horiz-adv-x="683" d="M609 29 C624 82 638 136 652 190 C648 191 635 193 633 194 C633 194 625 164 625 164 C601 74 578 29 424 29 C424 29 354 29 354 29 C274 29 274 46 274 80 C274 80 274 85 274 85 C274 85 274 665 274 665 C274 725 299 730 349 730 C349 730 379 730 379 730 C379 730 379 750 379 750 C379 750 274 750 274 750 C274 750 106 750 106 750 C106 750 1 750 1 750 C1 750 1 730 1 730 C1 730 31 730 31 730 C81 730 106 725 106 665 C106 665 106 85 106 85 C106 25 81 20 31 20 C31 20 1 20 1 20 C1 20 1 0 1 0 C1 0 106 0 106 0 C106 0 274 0 274 0 C274 0 416 0 416 0 C416 0 601 0 601 0 C601 0 609 29 609 29 L609 29 Z M499 680 C520 718 531 753 531 784 C531 802 508 806 464 806 C429 806 423 748 421 697 C421 697 417 584 417 584 C417 584 443 579 443 579 C443 579 499 680 499 680 L499 680 Z " />
<glyph glyph-name="lcaron" unicode="&#x13e;" horiz-adv-x="358" d="M14 670 C14 670 44 679 44 679 C80 689 99 689 99 615 C99 615 99 35 99 35 C99 21 82 20 49 20 C49 20 19 20 19 20 C19 20 19 0 19 0 C19 0 329 0 329 0 C329 0 329 20 329 20 C329 20 299 20 299 20 C266 20 249 21 249 35 C249 35 249 650 249 650 C249 650 249 750 249 750 C249 750 222 750 222 750 C222 750 14 690 14 690 C14 690 14 670 14 670 L14 670 Z M374 630 C395 668 406 703 406 734 C406 752 383 756 339 756 C304 756 297 698 296 647 C296 647 292 534 292 534 C292 534 318 529 318 529 C318 529 374 630 374 630 L374 630 Z " />
<glyph glyph-name="Nacute" unicode="&#x143;" horiz-adv-x="815" d="M311 810 C311 810 459 925 459 925 C495 954 513 970 513 980 C513 1024 483 1054 438 1054 C429 1054 415 1034 390 993 C390 993 292 829 292 829 C292 829 311 810 311 810 L311 810 Z M-41 730 C-41 730 -4 730 -4 730 C15 730 26 728 53 695 C53 695 53 695 53 695 C53 695 134 596 134 596 C134 596 133 130 133 130 C128 28 96 20 37 20 C37 20 7 20 7 20 C7 20 7 0 7 0 C7 0 132 0 132 0 C132 0 183 0 183 0 C183 0 308 0 308 0 C308 0 308 20 308 20 C308 20 278 20 278 20 C213 20 181 28 182 140 C182 140 182 140 182 140 C182 140 178 543 178 543 C178 543 428 238 428 238 C428 238 624 0 624 0 C624 0 658 0 658 0 C658 0 668 645 668 645 C672 724 704 730 763 730 C763 730 793 730 793 730 C793 730 793 750 793 750 C793 750 670 750 670 750 C670 750 620 750 620 750 C620 750 496 750 496 750 C496 750 496 730 496 730 C496 730 526 730 526 730 C585 730 616 724 621 644 C621 644 623 268 623 268 C623 268 561 341 561 341 C561 341 216 750 216 750 C216 750 176 750 176 750 C176 750 135 750 135 750 C135 750 8 750 8 750 C8 750 -41 750 -41 750 C-41 750 -41 730 -41 730 L-41 730 Z " />
<glyph glyph-name="Ncaron" unicode="&#x147;" horiz-adv-x="815" d="M-41 730 C-41 730 -4 730 -4 730 C15 730 26 728 53 695 C53 695 53 695 53 695 C53 695 134 596 134 596 C134 596 133 130 133 130 C128 28 96 20 37 20 C37 20 7 20 7 20 C7 20 7 0 7 0 C7 0 132 0 132 0 C132 0 183 0 183 0 C183 0 308 0 308 0 C308 0 308 20 308 20 C308 20 278 20 278 20 C213 20 181 28 182 140 C182 140 182 140 182 140 C182 140 178 543 178 543 C178 543 428 238 428 238 C428 238 624 0 624 0 C624 0 658 0 658 0 C658 0 668 645 668 645 C672 724 704 730 763 730 C763 730 793 730 793 730 C793 730 793 750 793 750 C793 750 670 750 670 750 C670 750 620 750 620 750 C620 750 496 750 496 750 C496 750 496 730 496 730 C496 730 526 730 526 730 C585 730 616 724 621 644 C621 644 623 268 623 268 C623 268 561 341 561 341 C561 341 216 750 216 750 C216 750 176 750 176 750 C176 750 135 750 135 750 C135 750 8 750 8 750 C8 750 -41 750 -41 750 C-41 750 -41 730 -41 730 L-41 730 Z M401 953 C401 953 538 1047 538 1047 C538 1047 559 1030 559 1030 C559 1030 455 865 455 865 C443 847 421 811 401 811 C382 811 360 846 349 864 C349 864 244 1030 244 1030 C244 1030 265 1047 265 1047 C265 1047 401 953 401 953 L401 953 Z " />
<glyph glyph-name="ncaron" unicode="&#x148;" horiz-adv-x="674" d="M8 404 C8 404 38 415 38 415 C74 428 93 430 93 355 C93 355 93 35 93 35 C93 21 76 20 43 20 C43 20 13 20 13 20 C13 20 13 0 13 0 C13 0 323 0 323 0 C323 0 323 20 323 20 C323 20 293 20 293 20 C260 20 243 21 243 35 C243 35 243 357 243 357 C259 386 288 400 330 400 C392 400 414 355 414 265 C414 265 414 35 414 35 C414 21 397 20 364 20 C364 20 334 20 334 20 C334 20 334 0 334 0 C334 0 644 0 644 0 C644 0 644 20 644 20 C644 20 614 20 614 20 C581 20 564 21 564 35 C564 35 564 265 564 265 C564 428 525 510 419 510 C343 510 284 473 243 401 C243 401 243 500 243 500 C243 500 216 500 216 500 C216 500 8 424 8 424 C8 424 8 404 8 404 L8 404 Z M328 703 C328 703 465 797 465 797 C465 797 485 780 485 780 C485 780 381 615 381 615 C370 597 347 561 328 561 C309 561 287 596 276 614 C276 614 171 780 171 780 C171 780 191 797 191 797 C191 797 328 703 328 703 L328 703 Z " />
<glyph glyph-name="Omacron" unicode="&#x14c;" horiz-adv-x="933" d="M299 884 C299 884 599 884 599 884 C599 884 599 988 599 988 C599 988 299 988 299 988 C299 988 299 884 299 884 L299 884 Z M448 35 C297 35 221 149 221 375 C221 601 295 715 441 715 C604 715 687 601 687 375 C687 149 607 35 448 35 L448 35 Z M29 375 C29 119 167 -10 439 -10 C731 -10 879 119 879 375 C879 631 735 760 449 760 C170 760 29 631 29 375 L29 375 Z " />
<glyph glyph-name="omacron" unicode="&#x14d;" horiz-adv-x="609" d="M143 634 C143 634 443 634 443 634 C443 634 443 738 443 738 C443 738 143 738 143 738 C143 738 143 634 143 634 L143 634 Z M293 35 C223 35 188 107 188 250 C188 393 223 465 293 465 C363 465 398 393 398 250 C398 107 363 35 293 35 L293 35 Z M23 250 C23 77 114 -10 293 -10 C473 -10 564 77 564 250 C564 423 473 510 293 510 C114 510 23 423 23 250 L23 250 Z " />
<glyph glyph-name="Obreve" unicode="&#x14e;" horiz-adv-x="933" d="M296 994 C312 889 363 836 449 836 C535 836 586 888 602 991 C602 991 571 995 571 995 C565 959 524 941 449 941 C374 941 333 960 327 998 C327 998 296 994 296 994 L296 994 Z M448 35 C297 35 221 149 221 375 C221 601 295 715 441 715 C604 715 687 601 687 375 C687 149 607 35 448 35 L448 35 Z M29 375 C29 119 167 -10 439 -10 C731 -10 879 119 879 375 C879 631 735 760 449 760 C170 760 29 631 29 375 L29 375 Z " />
<glyph glyph-name="obreve" unicode="&#x14f;" horiz-adv-x="609" d="M140 744 C157 639 208 586 293 586 C379 586 430 638 446 741 C446 741 415 745 415 745 C410 709 369 691 293 691 C218 691 177 710 172 748 C172 748 140 744 140 744 L140 744 Z M293 35 C223 35 188 107 188 250 C188 393 223 465 293 465 C363 465 398 393 398 250 C398 107 363 35 293 35 L293 35 Z M23 250 C23 77 114 -10 293 -10 C473 -10 564 77 564 250 C564 423 473 510 293 510 C114 510 23 423 23 250 L23 250 Z " />
<glyph glyph-name="Racute" unicode="&#x154;" horiz-adv-x="864" d="M321 810 C321 810 469 925 469 925 C505 954 523 970 523 980 C523 1024 493 1054 448 1054 C439 1054 425 1034 400 993 C400 993 303 829 303 829 C303 829 321 810 321 810 L321 810 Z M23 730 C23 730 53 730 53 730 C103 730 128 725 128 665 C128 665 128 85 128 85 C128 25 103 20 53 20 C53 20 23 20 23 20 C23 20 23 0 23 0 C23 0 401 0 401 0 C401 0 401 20 401 20 C401 20 371 20 371 20 C321 20 296 25 296 85 C296 85 296 338 296 338 C296 338 339 338 339 338 C364 299 433 213 542 80 C612 -5 592 0 855 0 C855 0 855 34 855 34 C772 34 779 31 738 80 C627 214 553 305 514 352 C625 375 680 429 680 535 C680 678 568 750 345 750 C345 750 296 750 296 750 C296 750 23 750 23 750 C23 750 23 730 23 730 L23 730 Z M296 716 C428 716 495 666 495 567 C495 424 445 380 345 380 C345 380 296 380 296 380 C296 380 296 665 296 665 C296 665 296 716 296 716 L296 716 Z " />
<glyph glyph-name="Rcaron" unicode="&#x158;" horiz-adv-x="864" d="M23 730 C23 730 53 730 53 730 C103 730 128 725 128 665 C128 665 128 85 128 85 C128 25 103 20 53 20 C53 20 23 20 23 20 C23 20 23 0 23 0 C23 0 401 0 401 0 C401 0 401 20 401 20 C401 20 371 20 371 20 C321 20 296 25 296 85 C296 85 296 338 296 338 C296 338 339 338 339 338 C364 299 433 213 542 80 C612 -5 592 0 855 0 C855 0 855 34 855 34 C772 34 779 31 738 80 C627 214 553 305 514 352 C625 375 680 429 680 535 C680 678 568 750 345 750 C345 750 296 750 296 750 C296 750 23 750 23 750 C23 750 23 730 23 730 L23 730 Z M311 953 C311 953 448 1047 448 1047 C448 1047 469 1030 469 1030 C469 1030 365 865 365 865 C354 847 331 811 312 811 C292 811 270 846 259 864 C259 864 154 1030 154 1030 C154 1030 175 1047 175 1047 C175 1047 311 953 311 953 L311 953 Z M296 716 C428 716 495 666 495 567 C495 424 445 380 345 380 C345 380 296 380 296 380 C296 380 296 665 296 665 C296 665 296 716 296 716 L296 716 Z " />
<glyph glyph-name="rcaron" unicode="&#x159;" horiz-adv-x="555" d="M14 404 C14 404 44 415 44 415 C80 428 99 430 99 355 C99 355 99 35 99 35 C99 21 84 20 54 20 C54 20 24 20 24 20 C24 20 24 0 24 0 C24 0 334 0 334 0 C334 0 334 20 334 20 C334 20 304 20 304 20 C267 20 249 21 249 35 C249 35 249 345 249 345 C270 408 295 440 324 440 C354 440 369 428 369 405 C369 347 399 317 458 317 C516 317 546 347 546 405 C546 475 495 510 394 510 C323 510 274 480 249 420 C249 420 249 500 249 500 C249 500 222 500 222 500 C222 500 14 424 14 424 C14 424 14 404 14 404 L14 404 Z M309 703 C309 703 446 797 446 797 C446 797 466 780 466 780 C466 780 362 615 362 615 C351 597 328 561 309 561 C290 561 267 596 256 614 C256 614 152 780 152 780 C152 780 172 797 172 797 C172 797 309 703 309 703 L309 703 Z " />
<glyph glyph-name="Sacute" unicode="&#x15a;" horiz-adv-x="559" d="M283 810 C283 810 430 925 430 925 C466 954 484 970 484 980 C484 1024 454 1054 409 1054 C401 1054 387 1034 362 993 C362 993 264 829 264 829 C264 829 283 810 283 810 L283 810 Z M484 538 C484 538 484 646 484 646 C484 646 484 760 484 760 C484 760 469 760 469 760 C469 760 467 750 464 731 C462 714 445 706 418 724 C418 724 418 724 418 724 C380 748 332 760 274 760 C126 760 51 686 51 540 C51 414 97 333 222 288 C341 245 385 209 385 169 C385 86 347 44 273 44 C249 44 227 48 207 55 C179 65 155 82 134 104 C118 122 105 142 93 167 C93 167 90 166 90 166 C79 187 70 210 65 231 C62 245 60 252 60 252 C60 252 45 252 45 252 C45 252 45 144 45 144 C45 144 45 -1 45 -1 C45 -1 60 -1 60 -1 C60 -1 62 11 65 36 C67 55 90 61 131 34 C170 5 218 -10 273 -10 C436 -10 519 66 519 217 C519 333 466 410 323 462 C220 499 182 544 182 604 C182 680 213 718 274 718 C343 718 397 681 431 633 C433 630 434 626 436 623 C436 623 437 624 437 624 C450 603 459 581 464 559 C467 545 469 538 469 538 C469 538 484 538 484 538 L484 538 Z " />
<glyph glyph-name="Scircumflex" unicode="&#x15c;" horiz-adv-x="559" d="M484 538 C484 538 484 646 484 646 C484 646 484 760 484 760 C484 760 469 760 469 760 C469 760 467 750 464 731 C462 714 445 706 418 724 C418 724 418 724 418 724 C380 748 332 760 274 760 C126 760 51 686 51 540 C51 414 97 333 222 288 C341 245 385 209 385 169 C385 86 347 44 273 44 C249 44 227 48 207 55 C179 65 155 82 134 104 C118 122 105 142 93 167 C93 167 90 166 90 166 C79 187 70 210 65 231 C62 245 60 252 60 252 C60 252 45 252 45 252 C45 252 45 144 45 144 C45 144 45 -1 45 -1 C45 -1 60 -1 60 -1 C60 -1 62 11 65 36 C67 55 90 61 131 34 C170 5 218 -10 273 -10 C436 -10 519 66 519 217 C519 333 466 410 323 462 C220 499 182 544 182 604 C182 680 213 718 274 718 C343 718 397 681 431 633 C433 630 434 626 436 623 C436 623 437 624 437 624 C450 603 459 581 464 559 C467 545 469 538 469 538 C469 538 484 538 484 538 L484 538 Z M273 897 C273 897 410 803 410 803 C410 803 430 820 430 820 C430 820 326 985 326 985 C315 1003 292 1039 273 1039 C254 1039 232 1004 221 986 C221 986 116 820 116 820 C116 820 136 803 136 803 C136 803 273 897 273 897 L273 897 Z " />
<glyph glyph-name="Scaron" unicode="&#x160;" horiz-adv-x="559" d="M484 538 C484 538 484 646 484 646 C484 646 484 760 484 760 C484 760 469 760 469 760 C469 760 467 750 464 731 C462 714 445 706 418 724 C418 724 418 724 418 724 C380 748 332 760 274 760 C126 760 51 686 51 540 C51 414 97 333 222 288 C341 245 385 209 385 169 C385 86 347 44 273 44 C249 44 227 48 207 55 C179 65 155 82 134 104 C118 122 105 142 93 167 C93 167 90 166 90 166 C79 187 70 210 65 231 C62 245 60 252 60 252 C60 252 45 252 45 252 C45 252 45 144 45 144 C45 144 45 -1 45 -1 C45 -1 60 -1 60 -1 C60 -1 62 11 65 36 C67 55 90 61 131 34 C170 5 218 -10 273 -10 C436 -10 519 66 519 217 C519 333 466 410 323 462 C220 499 182 544 182 604 C182 680 213 718 274 718 C343 718 397 681 431 633 C433 630 434 626 436 623 C436 623 437 624 437 624 C450 603 459 581 464 559 C467 545 469 538 469 538 C469 538 484 538 484 538 L484 538 Z M273 953 C273 953 410 1047 410 1047 C410 1047 430 1030 430 1030 C430 1030 326 865 326 865 C315 847 292 811 273 811 C254 811 232 846 221 864 C221 864 116 1030 116 1030 C116 1030 136 1047 136 1047 C136 1047 273 953 273 953 L273 953 Z " />
<glyph glyph-name="scaron" unicode="&#x161;" horiz-adv-x="448" d="M377 344 C377 344 377 428 377 428 C377 428 377 510 377 510 C377 510 357 510 357 510 C357 510 357 481 357 481 C357 480 341 484 309 496 C288 505 263 510 234 510 C117 510 58 461 58 363 C58 271 90 216 177 193 C254 172 282 144 282 104 C282 52 258 25 210 25 C168 25 134 54 107 110 C107 110 96 105 96 105 C90 122 87 141 87 159 C87 159 87 175 87 175 C87 175 67 175 67 175 C67 175 67 91 67 91 C67 91 67 6 67 6 C67 6 87 6 87 6 C87 6 87 28 87 28 C87 23 111 12 160 -2 C175 -7 192 -10 210 -10 C335 -10 398 43 398 147 C398 226 356 277 243 307 C186 322 165 357 165 415 C165 455 188 475 234 475 C282 475 316 453 337 409 C337 409 345 413 345 413 C353 396 357 378 357 360 C357 360 357 344 357 344 C357 344 377 344 377 344 L377 344 Z M210 703 C210 703 347 797 347 797 C347 797 367 780 367 780 C367 780 263 615 263 615 C252 597 229 561 210 561 C190 561 168 596 157 614 C157 614 53 780 53 780 C53 780 73 797 73 797 C73 797 210 703 210 703 L210 703 Z " />
<glyph glyph-name="Tcaron" unicode="&#x164;" horiz-adv-x="775" d="M757 605 C745 640 732 675 720 710 C720 710 720 750 720 750 C720 750 705 750 705 750 C700 763 695 776 690 789 C690 789 687 789 680 790 C680 790 670 790 670 790 C670 790 675 777 675 777 C681 759 678 750 585 750 C585 750 471 750 471 750 C471 750 304 750 304 750 C304 750 190 750 190 750 C97 750 94 759 100 777 C100 777 105 790 105 790 C105 790 95 790 95 790 C88 789 85 789 85 789 C80 776 75 763 70 750 C70 750 55 750 55 750 C55 750 55 710 55 710 C43 675 30 640 18 605 C22 604 35 603 37 603 C37 603 48 633 48 633 C66 683 82 708 175 708 C175 708 304 708 304 708 C304 708 304 80 304 80 C304 24 279 20 229 20 C229 20 199 20 199 20 C199 20 199 0 199 0 C199 0 576 0 576 0 C576 0 576 20 576 20 C576 20 546 20 546 20 C496 20 471 24 471 80 C471 80 471 708 471 708 C471 708 600 708 600 708 C693 708 709 683 727 633 C727 633 738 603 738 603 C742 604 755 605 757 605 L757 605 Z M387 953 C387 953 524 1047 524 1047 C524 1047 545 1030 545 1030 C545 1030 441 865 441 865 C429 847 407 811 388 811 C368 811 346 846 335 864 C335 864 230 1030 230 1030 C230 1030 251 1047 251 1047 C251 1047 387 953 387 953 L387 953 Z " />
<glyph glyph-name="tcaron" unicode="&#x165;" horiz-adv-x="450" d="M396 500 C396 500 245 500 245 500 C245 500 245 620 245 620 C245 620 234 620 234 620 C234 620 30 431 30 431 C30 431 30 421 30 421 C30 421 95 421 95 421 C95 421 95 217 95 217 C95 36 153 -10 268 -10 C383 -10 441 45 441 154 C441 154 421 154 421 154 C421 92 385 61 314 61 C264 61 239 86 241 184 C241 184 245 421 245 421 C245 421 396 421 396 421 C396 421 396 500 396 500 L396 500 Z M536 630 C557 668 568 703 568 734 C568 752 545 756 501 756 C466 756 459 698 458 647 C458 647 454 534 454 534 C454 534 480 529 480 529 C480 529 536 630 536 630 L536 630 Z " />
<glyph glyph-name="Utilde" unicode="&#x168;" horiz-adv-x="861" d="M282 870 C282 903 294 919 317 919 C380 919 417 854 479 854 C549 854 584 909 584 1019 C584 1019 557 1019 557 1019 C557 979 542 959 514 959 C451 959 414 1024 352 1024 C288 1024 256 972 256 870 C256 870 282 870 282 870 L282 870 Z M474 730 C474 730 504 730 504 730 C554 730 579 725 579 665 C579 665 579 213 579 213 C543 136 486 98 408 98 C310 98 261 139 261 220 C261 220 261 665 261 665 C261 665 261 750 261 750 C261 750 -12 750 -12 750 C-12 750 -12 730 -12 730 C-12 730 18 730 18 730 C68 730 93 725 93 665 C93 665 93 220 93 220 C93 67 176 -10 340 -10 C453 -10 533 39 579 137 C579 137 579 110 579 110 C579 110 579 0 579 0 C579 0 605 0 605 0 C605 0 850 55 850 55 C850 55 850 65 850 65 C753 60 746 62 746 110 C746 110 746 665 746 665 C746 665 746 750 746 750 C746 750 474 750 474 750 C474 750 474 730 474 730 L474 730 Z " />
<glyph glyph-name="utilde" unicode="&#x169;" horiz-adv-x="653" d="M175 620 C175 653 187 669 210 669 C272 669 310 604 372 604 C441 604 476 659 476 769 C476 769 450 769 450 769 C450 729 435 709 406 709 C344 709 306 774 244 774 C180 774 148 722 148 620 C148 620 175 620 175 620 L175 620 Z M633 62 C633 62 603 55 603 55 C566 45 548 46 548 121 C548 121 548 465 548 465 C548 465 548 500 548 500 C548 500 332 500 332 500 C332 500 332 480 332 480 C332 480 362 480 362 480 C386 480 398 479 398 465 C398 465 398 158 398 158 C378 115 345 94 300 94 C252 94 227 116 227 160 C227 160 227 465 227 465 C227 465 227 500 227 500 C227 500 10 500 10 500 C10 500 10 480 10 480 C10 480 40 480 40 480 C65 480 77 479 77 465 C77 465 77 160 77 160 C77 47 128 -10 230 -10 C307 -10 363 32 398 114 C398 114 398 90 398 90 C398 90 398 -10 398 -10 C398 -10 424 -10 424 -10 C424 -10 633 42 633 42 C633 42 633 62 633 62 L633 62 Z " />
<glyph glyph-name="Umacron" unicode="&#x16a;" horiz-adv-x="861" d="M270 884 C270 884 570 884 570 884 C570 884 570 988 570 988 C570 988 270 988 270 988 C270 988 270 884 270 884 L270 884 Z M474 730 C474 730 504 730 504 730 C554 730 579 725 579 665 C579 665 579 213 579 213 C543 136 486 98 408 98 C310 98 261 139 261 220 C261 220 261 665 261 665 C261 665 261 750 261 750 C261 750 -12 750 -12 750 C-12 750 -12 730 -12 730 C-12 730 18 730 18 730 C68 730 93 725 93 665 C93 665 93 220 93 220 C93 67 176 -10 340 -10 C453 -10 533 39 579 137 C579 137 579 110 579 110 C579 110 579 0 579 0 C579 0 605 0 605 0 C605 0 850 55 850 55 C850 55 850 65 850 65 C753 60 746 62 746 110 C746 110 746 665 746 665 C746 665 746 750 746 750 C746 750 474 750 474 750 C474 750 474 730 474 730 L474 730 Z " />
<glyph glyph-name="umacron" unicode="&#x16b;" horiz-adv-x="653" d="M162 634 C162 634 462 634 462 634 C462 634 462 738 462 738 C462 738 162 738 162 738 C162 738 162 634 162 634 L162 634 Z M633 62 C633 62 603 55 603 55 C566 45 548 46 548 121 C548 121 548 465 548 465 C548 465 548 500 548 500 C548 500 332 500 332 500 C332 500 332 480 332 480 C332 480 362 480 362 480 C386 480 398 479 398 465 C398 465 398 158 398 158 C378 115 345 94 300 94 C252 94 227 116 227 160 C227 160 227 465 227 465 C227 465 227 500 227 500 C227 500 10 500 10 500 C10 500 10 480 10 480 C10 480 40 480 40 480 C65 480 77 479 77 465 C77 465 77 160 77 160 C77 47 128 -10 230 -10 C307 -10 363 32 398 114 C398 114 398 90 398 90 C398 90 398 -10 398 -10 C398 -10 424 -10 424 -10 C424 -10 633 42 633 42 C633 42 633 62 633 62 L633 62 Z " />
<glyph glyph-name="Ubreve" unicode="&#x16c;" horiz-adv-x="861" d="M267 994 C283 889 334 836 420 836 C506 836 557 888 573 991 C573 991 541 995 541 995 C536 959 495 941 420 941 C345 941 304 960 298 998 C298 998 267 994 267 994 L267 994 Z M474 730 C474 730 504 730 504 730 C554 730 579 725 579 665 C579 665 579 213 579 213 C543 136 486 98 408 98 C310 98 261 139 261 220 C261 220 261 665 261 665 C261 665 261 750 261 750 C261 750 -12 750 -12 750 C-12 750 -12 730 -12 730 C-12 730 18 730 18 730 C68 730 93 725 93 665 C93 665 93 220 93 220 C93 67 176 -10 340 -10 C453 -10 533 39 579 137 C579 137 579 110 579 110 C579 110 579 0 579 0 C579 0 605 0 605 0 C605 0 850 55 850 55 C850 55 850 65 850 65 C753 60 746 62 746 110 C746 110 746 665 746 665 C746 665 746 750 746 750 C746 750 474 750 474 750 C474 750 474 730 474 730 L474 730 Z " />
<glyph glyph-name="ubreve" unicode="&#x16d;" horiz-adv-x="653" d="M159 744 C176 639 227 586 312 586 C398 586 449 638 465 741 C465 741 434 745 434 745 C429 709 388 691 312 691 C237 691 196 710 191 748 C191 748 159 744 159 744 L159 744 Z M633 62 C633 62 603 55 603 55 C566 45 548 46 548 121 C548 121 548 465 548 465 C548 465 548 500 548 500 C548 500 332 500 332 500 C332 500 332 480 332 480 C332 480 362 480 362 480 C386 480 398 479 398 465 C398 465 398 158 398 158 C378 115 345 94 300 94 C252 94 227 116 227 160 C227 160 227 465 227 465 C227 465 227 500 227 500 C227 500 10 500 10 500 C10 500 10 480 10 480 C10 480 40 480 40 480 C65 480 77 479 77 465 C77 465 77 160 77 160 C77 47 128 -10 230 -10 C307 -10 363 32 398 114 C398 114 398 90 398 90 C398 90 398 -10 398 -10 C398 -10 424 -10 424 -10 C424 -10 633 42 633 42 C633 42 633 62 633 62 L633 62 Z " />
<glyph glyph-name="Uring" unicode="&#x16e;" horiz-adv-x="861" d="M420 845 C386 845 364 869 364 905 C364 945 383 965 420 965 C456 965 475 945 475 905 C475 869 453 845 420 845 L420 845 Z M320 905 C320 848 360 810 420 810 C479 810 519 848 519 905 C519 968 486 1000 420 1000 C353 1000 320 968 320 905 L320 905 Z M474 730 C474 730 504 730 504 730 C554 730 579 725 579 665 C579 665 579 213 579 213 C543 136 486 98 408 98 C310 98 261 139 261 220 C261 220 261 665 261 665 C261 665 261 750 261 750 C261 750 -12 750 -12 750 C-12 750 -12 730 -12 730 C-12 730 18 730 18 730 C68 730 93 725 93 665 C93 665 93 220 93 220 C93 67 176 -10 340 -10 C453 -10 533 39 579 137 C579 137 579 110 579 110 C579 110 579 0 579 0 C579 0 605 0 605 0 C605 0 850 55 850 55 C850 55 850 65 850 65 C753 60 746 62 746 110 C746 110 746 665 746 665 C746 665 746 750 746 750 C746 750 474 750 474 750 C474 750 474 730 474 730 L474 730 Z " />
<glyph glyph-name="uring" unicode="&#x16f;" horiz-adv-x="653" d="M312 595 C279 595 257 619 257 655 C257 695 276 715 312 715 C349 715 368 695 368 655 C368 619 346 595 312 595 L312 595 Z M213 655 C213 598 253 560 312 560 C372 560 412 598 412 655 C412 718 379 750 312 750 C246 750 213 718 213 655 L213 655 Z M633 62 C633 62 603 55 603 55 C566 45 548 46 548 121 C548 121 548 465 548 465 C548 465 548 500 548 500 C548 500 332 500 332 500 C332 500 332 480 332 480 C332 480 362 480 362 480 C386 480 398 479 398 465 C398 465 398 158 398 158 C378 115 345 94 300 94 C252 94 227 116 227 160 C227 160 227 465 227 465 C227 465 227 500 227 500 C227 500 10 500 10 500 C10 500 10 480 10 480 C10 480 40 480 40 480 C65 480 77 479 77 465 C77 465 77 160 77 160 C77 47 128 -10 230 -10 C307 -10 363 32 398 114 C398 114 398 90 398 90 C398 90 398 -10 398 -10 C398 -10 424 -10 424 -10 C424 -10 633 42 633 42 C633 42 633 62 633 62 L633 62 Z " />
<glyph glyph-name="Wcircumflex" unicode="&#x174;" horiz-adv-x="1186" d="M1171 750 C1171 750 1082 750 1082 750 C1082 750 1013 750 1013 750 C1013 750 848 750 848 750 C848 750 848 730 848 730 C848 730 873 730 873 730 C963 730 1006 722 977 610 C977 610 977 610 977 610 C977 610 883 243 883 243 C883 243 883 244 883 244 C883 244 683 640 683 640 C683 640 684 640 684 640 C641 724 676 730 750 730 C750 730 773 730 773 730 C773 730 773 750 773 750 C773 750 628 750 628 750 C628 750 434 750 434 750 C434 750 383 750 383 750 C383 750 349 750 349 750 C349 750 238 750 238 750 C238 750 54 750 54 750 C54 750 -2 750 -2 750 C-2 750 -2 730 -2 730 C-2 730 36 730 36 730 C54 730 67 722 120 610 C120 610 121 610 121 610 C219 403 317 197 415 -10 C415 -10 459 -10 459 -10 C459 -10 597 429 597 429 C671 283 744 136 818 -10 C818 -10 862 -10 862 -10 C862 -10 1041 610 1041 610 C1041 610 1042 610 1042 610 C1044 618 1046 625 1048 631 C1048 631 1050 640 1050 640 C1075 723 1099 730 1141 730 C1141 730 1171 730 1171 730 C1171 730 1171 750 1171 750 L1171 750 Z M568 897 C568 897 705 803 705 803 C705 803 725 820 725 820 C725 820 621 985 621 985 C610 1003 587 1039 568 1039 C549 1039 526 1004 515 986 C515 986 411 820 411 820 C411 820 431 803 431 803 C431 803 568 897 568 897 L568 897 Z M360 730 C360 730 379 730 379 730 C419 730 441 727 460 698 C494 632 527 566 561 499 C561 499 478 209 478 209 C478 209 478 212 478 212 C478 212 300 610 300 610 C300 610 301 610 301 610 C248 722 283 730 360 730 L360 730 Z " />
<glyph glyph-name="Ycircumflex" unicode="&#x176;" horiz-adv-x="848" d="M348 750 C348 750 243 750 243 750 C243 750 46 750 46 750 C46 750 -6 750 -6 750 C-6 750 -6 730 -6 730 C-6 730 32 730 32 730 C49 730 64 723 135 621 C135 621 352 308 352 308 C352 308 352 80 352 80 C352 24 327 20 277 20 C277 20 247 20 247 20 C247 20 247 0 247 0 C247 0 624 0 624 0 C624 0 624 20 624 20 C624 20 594 20 594 20 C544 20 519 24 519 80 C519 80 519 314 519 314 C519 314 681 610 681 610 C681 610 682 610 682 610 C742 722 765 730 801 730 C801 730 832 730 832 730 C832 730 832 750 832 750 C832 750 758 750 758 750 C758 750 674 750 674 750 C674 750 569 750 569 750 C569 750 569 730 569 730 C569 730 595 730 595 730 C633 730 656 726 644 685 C644 685 500 368 500 368 C500 368 337 610 337 610 C337 610 338 610 338 610 C260 722 277 730 324 730 C324 730 348 730 348 730 C348 730 348 750 348 750 L348 750 Z M435 897 C435 897 572 803 572 803 C572 803 593 820 593 820 C593 820 489 985 489 985 C477 1003 455 1039 435 1039 C416 1039 394 1004 383 986 C383 986 278 820 278 820 C278 820 299 803 299 803 C299 803 435 897 435 897 L435 897 Z " />
<glyph glyph-name="Ydieresis" unicode="&#x178;" horiz-adv-x="848" d="M522 865 C575 865 602 892 602 945 C602 998 575 1025 522 1025 C469 1025 442 998 442 945 C442 892 469 865 522 865 L522 865 Z M349 865 C402 865 429 892 429 945 C429 998 402 1025 349 1025 C296 1025 269 998 269 945 C269 892 296 865 349 865 L349 865 Z M348 750 C348 750 243 750 243 750 C243 750 46 750 46 750 C46 750 -6 750 -6 750 C-6 750 -6 730 -6 730 C-6 730 32 730 32 730 C49 730 64 723 135 621 C135 621 352 308 352 308 C352 308 352 80 352 80 C352 24 327 20 277 20 C277 20 247 20 247 20 C247 20 247 0 247 0 C247 0 624 0 624 0 C624 0 624 20 624 20 C624 20 594 20 594 20 C544 20 519 24 519 80 C519 80 519 314 519 314 C519 314 681 610 681 610 C681 610 682 610 682 610 C742 722 765 730 801 730 C801 730 832 730 832 730 C832 730 832 750 832 750 C832 750 758 750 758 750 C758 750 674 750 674 750 C674 750 569 750 569 750 C569 750 569 730 569 730 C569 730 595 730 595 730 C633 730 656 726 644 685 C644 685 500 368 500 368 C500 368 337 610 337 610 C337 610 338 610 338 610 C260 722 277 730 324 730 C324 730 348 730 348 730 C348 730 348 750 348 750 L348 750 Z " />
<glyph glyph-name="Zacute" unicode="&#x179;" horiz-adv-x="652" d="M350 810 C350 810 497 925 497 925 C533 954 551 970 551 980 C551 1024 521 1054 476 1054 C468 1054 453 1034 429 993 C429 993 331 829 331 829 C331 829 350 810 350 810 L350 810 Z M207 0 C207 0 446 0 446 0 C446 0 606 0 606 0 C622 67 640 133 656 200 C654 200 645 203 637 203 C637 203 620 159 620 159 C594 94 574 57 493 50 C493 50 230 41 230 41 C230 41 610 715 610 715 C610 715 610 750 610 750 C610 750 446 750 446 750 C446 750 240 750 240 750 C240 750 70 750 70 750 C60 679 50 609 40 538 C43 538 56 538 66 535 C66 535 72 565 72 565 C91 658 110 705 234 705 C234 705 234 705 234 705 C234 705 423 710 423 710 C423 710 25 35 25 35 C25 35 25 0 25 0 C25 0 207 0 207 0 L207 0 Z " />
<glyph glyph-name="Zdotaccent" unicode="&#x17b;" horiz-adv-x="652" d="M340 865 C393 865 420 892 420 945 C420 998 393 1025 340 1025 C287 1025 260 998 260 945 C260 892 287 865 340 865 L340 865 Z M207 0 C207 0 446 0 446 0 C446 0 606 0 606 0 C622 67 640 133 656 200 C654 200 645 203 637 203 C637 203 620 159 620 159 C594 94 574 57 493 50 C493 50 230 41 230 41 C230 41 610 715 610 715 C610 715 610 750 610 750 C610 750 446 750 446 750 C446 750 240 750 240 750 C240 750 70 750 70 750 C60 679 50 609 40 538 C43 538 56 538 66 535 C66 535 72 565 72 565 C91 658 110 705 234 705 C234 705 234 705 234 705 C234 705 423 710 423 710 C423 710 25 35 25 35 C25 35 25 0 25 0 C25 0 207 0 207 0 L207 0 Z " />
<glyph glyph-name="zdotaccent" unicode="&#x17c;" horiz-adv-x="475" d="M265 615 C318 615 345 642 345 695 C345 748 318 775 265 775 C212 775 185 748 185 695 C185 642 212 615 265 615 L265 615 Z M51 354 C51 354 63 354 63 354 C63 354 79 384 79 384 C99 421 115 443 171 451 C171 451 259 456 259 456 C259 456 40 35 40 35 C40 35 40 0 40 0 C40 0 198 0 198 0 C198 0 282 0 282 0 C282 0 430 0 430 0 C436 48 444 97 450 145 C450 145 440 145 440 145 C440 145 426 115 426 115 C409 79 394 57 334 49 C334 49 220 43 220 43 C220 43 435 465 435 465 C435 465 435 500 435 500 C435 500 282 500 282 500 C282 500 135 500 135 500 C123 500 112 508 116 523 C116 523 121 540 121 540 C121 540 101 540 101 540 C85 478 67 416 51 354 L51 354 Z " />
<glyph glyph-name="Zcaron" unicode="&#x17d;" horiz-adv-x="652" d="M340 953 C340 953 477 1047 477 1047 C477 1047 497 1030 497 1030 C497 1030 393 865 393 865 C382 847 359 811 340 811 C321 811 299 846 287 864 C287 864 183 1030 183 1030 C183 1030 203 1047 203 1047 C203 1047 340 953 340 953 L340 953 Z M207 0 C207 0 446 0 446 0 C446 0 606 0 606 0 C622 67 640 133 656 200 C654 200 645 203 637 203 C637 203 620 159 620 159 C594 94 574 57 493 50 C493 50 230 41 230 41 C230 41 610 715 610 715 C610 715 610 750 610 750 C610 750 446 750 446 750 C446 750 240 750 240 750 C240 750 70 750 70 750 C60 679 50 609 40 538 C43 538 56 538 66 535 C66 535 72 565 72 565 C91 658 110 705 234 705 C234 705 234 705 234 705 C234 705 423 710 423 710 C423 710 25 35 25 35 C25 35 25 0 25 0 C25 0 207 0 207 0 L207 0 Z " />
<glyph glyph-name="zcaron" unicode="&#x17e;" horiz-adv-x="475" d="M51 354 C51 354 63 354 63 354 C63 354 79 384 79 384 C99 421 115 443 171 451 C171 451 259 456 259 456 C259 456 40 35 40 35 C40 35 40 0 40 0 C40 0 198 0 198 0 C198 0 282 0 282 0 C282 0 430 0 430 0 C436 48 444 97 450 145 C450 145 440 145 440 145 C440 145 426 115 426 115 C409 79 394 57 334 49 C334 49 220 43 220 43 C220 43 435 465 435 465 C435 465 435 500 435 500 C435 500 282 500 282 500 C282 500 135 500 135 500 C123 500 112 508 116 523 C116 523 121 540 121 540 C121 540 101 540 101 540 C85 478 67 416 51 354 L51 354 Z M265 703 C265 703 402 797 402 797 C402 797 422 780 422 780 C422 780 318 615 318 615 C307 597 284 561 265 561 C246 561 224 596 212 614 C212 614 108 780 108 780 C108 780 128 797 128 797 C128 797 265 703 265 703 L265 703 Z " />
<glyph glyph-name="SmallLetterOwithogon" unicode="&#x1eb;" horiz-adv-x="834" d="M1060 -37 C1060 -37 1049 -24 1049 -24 C1007 -59 912 -77 765 -77 C644 -77 535 -54 438 -9 C669 2 785 103 785 292 C785 492 657 593 404 593 C158 593 34 492 34 292 C34 196 89 123 159 73 C159 73 158 73 158 73 C414 -110 610 -203 743 -203 C821 -203 928 -147 1060 -37 L1060 -37 Z M402 30 C381 30 352 40 323 59 C319 62 315 65 311 68 C311 68 310 68 310 68 C257 109 207 184 207 292 C207 465 271 553 397 553 C540 553 612 465 612 292 C612 118 542 30 402 30 C402 30 402 30 402 30 L402 30 Z " />
<glyph glyph-name="CapitalLetterAwithdo" unicode="&#x226;" horiz-adv-x="863" d="M443 865 C496 865 523 892 523 945 C523 998 496 1025 443 1025 C390 1025 363 998 363 945 C363 892 390 865 443 865 L443 865 Z M458 0 C458 0 593 0 593 0 C593 0 769 0 769 0 C769 0 857 0 857 0 C857 0 857 20 857 20 C857 20 827 20 827 20 C787 20 763 27 731 110 C731 110 527 697 527 697 C527 697 501 770 501 770 C501 770 486 770 486 770 C458 729 415 705 359 697 C359 697 362 687 362 687 C362 687 362 687 362 687 C362 687 177 128 177 128 C138 28 100 20 36 20 C36 20 6 20 6 20 C6 20 6 0 6 0 C6 0 134 0 134 0 C134 0 185 0 185 0 C185 0 350 0 350 0 C350 0 350 20 350 20 C350 20 326 20 326 20 C241 20 197 29 231 150 C231 150 266 265 266 265 C266 265 504 265 504 265 C504 265 546 140 546 140 C583 28 551 20 482 20 C482 20 458 20 458 20 C458 20 458 0 458 0 L458 0 Z M280 309 C280 309 380 635 380 635 C380 635 489 309 489 309 C489 309 280 309 280 309 L280 309 Z " />
<glyph glyph-name="LETTERSMALLCAPITALG" unicode="&#x262;" horiz-adv-x="785" d="M668 372 C668 372 668 496 668 496 C668 496 668 583 668 583 C668 583 653 583 653 583 C653 583 651 573 648 555 C647 549 623 552 577 571 C577 571 577 571 577 571 C541 586 492 593 412 593 C162 593 36 492 36 292 C36 91 165 -10 420 -10 C446 -10 469 -9 491 -7 C491 -7 497 -11 497 -11 C497 -11 497 -7 497 -7 C497 -7 497 -7 497 -7 C497 -7 497 -11 497 -11 C497 -11 527 -4 527 -4 C568 2 603 11 638 24 C638 24 643 25 643 25 C643 25 643 25 643 26 C668 35 692 45 719 58 C719 58 709 79 709 79 C687 69 665 60 643 53 C643 53 644 173 644 173 C644 229 662 233 699 233 C699 233 729 233 729 233 C729 233 729 253 729 253 C729 253 393 253 393 253 C393 253 393 233 393 233 C393 233 423 233 423 233 C470 233 493 229 493 173 C493 173 496 28 496 28 C496 28 496 28 496 28 C496 28 493 156 493 156 C493 70 473 27 433 27 C279 27 201 116 201 292 C201 467 277 556 427 556 C441 556 453 555 465 554 C465 554 462 554 462 554 C509 550 548 531 580 504 C591 493 602 481 614 467 C631 444 642 418 648 393 C651 379 653 372 653 372 C653 372 668 372 668 372 L668 372 Z " />
<glyph glyph-name="LETTERSMALLCAPITALI" unicode="&#x26a;" horiz-adv-x="410" d="M370 583 C370 583 10 583 10 583 C10 583 10 563 10 563 C10 563 40 563 40 563 C90 563 115 559 115 503 C115 503 115 80 115 80 C115 24 90 20 40 20 C40 20 10 20 10 20 C10 20 10 0 10 0 C10 0 370 0 370 0 C370 0 370 20 370 20 C370 20 340 20 340 20 C290 20 265 24 265 80 C265 80 265 503 265 503 C265 559 290 563 340 563 C340 563 370 563 370 563 C370 563 370 583 370 583 L370 583 Z " />
<glyph glyph-name="LETTERSMALLCAPITALN" unicode="&#x274;" horiz-adv-x="732" d="M-26 563 C-26 563 12 563 12 563 C28 563 38 561 62 538 C62 538 136 456 136 456 C136 456 135 150 135 150 C135 150 134 150 134 150 C134 29 102 20 39 20 C39 20 9 20 9 20 C9 20 9 0 9 0 C9 0 134 0 134 0 C134 0 179 0 179 0 C179 0 304 0 304 0 C304 0 304 20 304 20 C304 20 274 20 274 20 C209 20 177 28 178 140 C178 140 178 140 178 140 C178 140 175 412 175 412 C175 412 396 167 396 167 C396 167 546 0 546 0 C546 0 577 0 577 0 C577 0 586 463 586 463 C586 463 586 463 586 463 C585 556 617 563 681 563 C681 563 711 563 711 563 C711 563 711 583 711 583 C711 583 588 583 588 583 C588 583 543 583 543 583 C543 583 418 583 418 583 C418 583 418 563 418 563 C418 563 448 563 448 563 C511 563 543 556 543 463 C543 463 544 463 544 463 C544 463 545 169 545 169 C545 169 486 243 486 243 C486 243 209 583 209 583 C209 583 173 583 173 583 C173 583 136 583 136 583 C136 583 21 583 21 583 C21 583 -26 583 -26 583 C-26 583 -26 563 -26 563 L-26 563 Z " />
<glyph glyph-name="LETTERSMALLCAPITALR" unicode="&#x280;" horiz-adv-x="721" d="M27 563 C27 563 57 563 57 563 C107 563 132 558 132 498 C132 498 132 85 132 85 C132 25 107 20 57 20 C57 20 27 20 27 20 C27 20 27 0 27 0 C27 0 388 0 388 0 C388 0 388 20 388 20 C388 20 358 20 358 20 C308 20 283 25 283 85 C283 85 283 258 283 258 C283 258 283 258 283 258 C306 227 361 162 448 62 C505 -4 489 0 712 0 C712 0 712 30 712 30 C648 30 654 28 624 62 C537 162 476 232 443 270 C540 288 589 332 589 415 C589 527 488 583 288 583 C288 583 283 583 283 583 C283 583 27 583 27 583 C27 583 27 563 27 563 L27 563 Z M283 551 C376 544 423 508 423 444 C423 331 378 296 288 296 C288 296 283 296 283 296 C283 296 283 498 283 498 C283 498 283 551 283 551 L283 551 Z " />
<glyph glyph-name="LETTERSMALLCAPITALY" unicode="&#x28f;" horiz-adv-x="752" d="M334 583 C334 583 229 583 229 583 C229 583 50 583 50 583 C50 583 0 583 0 583 C0 583 0 563 0 563 C0 563 38 563 38 563 C56 563 71 555 155 443 C155 443 155 443 155 443 C155 443 311 236 311 236 C311 236 311 80 311 80 C311 24 286 20 236 20 C236 20 206 20 206 20 C206 20 206 0 206 0 C206 0 567 0 567 0 C567 0 567 20 567 20 C567 20 537 20 537 20 C487 20 462 24 462 80 C462 80 462 241 462 241 C462 241 592 463 592 463 C648 556 670 563 705 563 C705 563 735 563 735 563 C735 563 735 583 735 583 C735 583 662 583 662 583 C662 583 587 583 587 583 C587 583 482 583 482 583 C482 583 482 563 482 563 C482 563 507 563 507 563 C546 563 568 559 556 519 C556 519 525 455 525 455 C525 455 524 454 524 453 C524 453 524 453 524 453 C524 453 445 288 445 288 C445 288 305 478 305 478 C251 557 269 563 309 563 C309 563 334 563 334 563 C334 563 334 583 334 583 L334 583 Z " />
<glyph glyph-name="LETTERSMALLCAPITALB" unicode="&#x299;" horiz-adv-x="663" d="M27 0 C27 0 283 0 283 0 C283 0 403 0 403 0 C550 0 624 16 624 156 C624 238 583 288 502 306 C555 330 582 377 582 445 C582 537 557 583 343 583 C343 583 283 583 283 583 C283 583 27 583 27 583 C27 583 27 563 27 563 C27 563 57 563 57 563 C107 563 132 558 132 498 C132 498 132 85 132 85 C132 25 107 20 57 20 C57 20 27 20 27 20 C27 20 27 0 27 0 L27 0 Z M283 553 C417 553 432 512 432 430 C432 352 413 313 376 313 C376 313 283 313 283 313 C283 313 283 498 283 498 C283 498 283 553 283 553 L283 553 Z M331 286 C415 286 458 242 458 156 C458 43 427 30 365 30 C365 30 315 30 315 30 C294 30 283 47 283 80 C283 80 283 85 283 85 C283 85 283 286 283 286 C283 286 331 286 331 286 L331 286 Z " />
<glyph glyph-name="LETTERSMALLCAPITALH" unicode="&#x29c;" horiz-adv-x="841" d="M801 583 C801 583 441 583 441 583 C441 583 441 563 441 563 C441 563 471 563 471 563 C521 563 546 559 546 503 C546 503 546 318 546 318 C546 318 319 318 319 318 C319 318 319 503 319 503 C319 559 344 563 394 563 C394 563 424 563 424 563 C424 563 424 583 424 583 C424 583 63 583 63 583 C63 583 63 563 63 563 C63 563 93 563 93 563 C143 563 168 559 168 503 C168 503 168 80 168 80 C168 24 143 20 93 20 C93 20 63 20 63 20 C63 20 63 0 63 0 C63 0 424 0 424 0 C424 0 424 20 424 20 C424 20 394 20 394 20 C344 20 319 24 319 80 C319 80 319 277 319 277 C319 277 546 277 546 277 C546 277 546 80 546 80 C546 24 521 20 471 20 C471 20 441 20 441 20 C441 20 441 0 441 0 C441 0 801 0 801 0 C801 0 801 20 801 20 C801 20 771 20 771 20 C721 20 696 24 696 80 C696 80 696 503 696 503 C696 559 721 563 771 563 C771 563 801 563 801 563 C801 563 801 583 801 583 L801 583 Z " />
<glyph glyph-name="LETTERSMALLCAPITALL" unicode="&#x29f;" horiz-adv-x="600" d="M525 23 C539 78 553 134 569 187 C569 187 552 191 550 191 C550 191 542 161 542 161 C517 72 494 27 343 26 C343 26 265 44 265 80 C265 80 265 85 265 85 C265 85 265 498 265 498 C265 558 290 563 340 563 C340 563 370 563 370 563 C370 563 370 583 370 583 C370 583 265 583 265 583 C265 583 115 583 115 583 C115 583 10 583 10 583 C10 583 10 563 10 563 C10 563 40 563 40 563 C90 563 115 558 115 498 C115 498 115 85 115 85 C115 25 90 20 40 20 C40 20 10 20 10 20 C10 20 10 0 10 0 C10 0 115 0 115 0 C115 0 265 0 265 0 C265 0 334 0 334 0 C334 0 519 0 519 0 C519 0 525 23 525 23 L525 23 Z " />
<glyph glyph-name="LETTERSMALLCAPITALA" unicode="&#x1d00;" horiz-adv-x="777" d="M389 0 C389 0 524 0 524 0 C524 0 682 0 682 0 C682 0 770 0 770 0 C770 0 770 20 770 20 C770 20 740 20 740 20 C699 20 674 27 639 114 C639 114 476 546 476 546 C476 546 454 603 454 603 C454 603 439 603 439 603 C418 573 379 554 325 546 C325 546 329 536 329 536 C329 536 197 170 197 170 C197 170 197 170 197 170 C195 165 194 160 192 156 C192 156 190 150 190 150 C146 29 106 20 38 20 C38 20 8 20 8 20 C8 20 8 0 8 0 C8 0 136 0 136 0 C136 0 181 0 181 0 C181 0 346 0 346 0 C346 0 346 20 346 20 C346 20 322 20 322 20 C237 20 196 29 230 149 C230 149 248 202 248 202 C248 202 450 202 450 202 C450 202 475 134 475 134 C513 28 481 20 413 20 C413 20 389 20 389 20 C389 20 389 0 389 0 L389 0 Z M261 242 C261 242 345 492 345 492 C345 492 436 242 436 242 C436 242 261 242 261 242 L261 242 Z " />
<glyph glyph-name="LETTERSMALLCAPITALC" unicode="&#x1d04;" horiz-adv-x="706" d="M668 372 C668 372 668 496 668 496 C668 496 668 583 668 583 C668 583 653 583 653 583 C653 583 651 573 648 555 C647 549 623 552 577 571 C577 571 577 571 577 571 C541 586 492 593 412 593 C162 593 36 492 36 292 C36 91 159 -10 403 -10 C479 -10 531 -2 571 13 C571 13 571 13 571 13 C615 30 642 18 648 -2 C653 -22 656 -32 656 -32 C656 -32 668 -32 668 -32 C668 -32 668 88 668 88 C668 88 668 211 668 211 C668 211 653 211 653 211 C653 211 651 204 648 190 C641 163 627 133 605 107 C584 84 564 65 540 52 C527 45 513 39 498 35 C476 28 449 25 417 25 C274 25 201 115 201 292 C201 467 277 556 427 556 C441 556 453 555 465 554 C465 554 462 554 462 554 C509 550 548 531 580 504 C591 493 602 481 614 467 C631 444 642 418 648 393 C651 379 653 372 653 372 C653 372 668 372 668 372 L668 372 Z " />
<glyph glyph-name="LETTERSMALLCAPITALD" unicode="&#x1d05;" horiz-adv-x="829" d="M27 0 C27 0 132 0 132 0 C132 0 283 0 283 0 C283 0 339 0 339 0 C629 0 775 79 775 292 C775 485 665 583 367 583 C367 583 283 583 283 583 C283 583 132 583 132 583 C132 583 27 583 27 583 C27 583 27 563 27 563 C27 563 57 563 57 563 C107 563 132 558 132 498 C132 498 132 85 132 85 C132 25 107 20 57 20 C57 20 27 20 27 20 C27 20 27 0 27 0 L27 0 Z M283 552 C521 545 609 457 609 292 C609 100 503 30 294 30 C283 30 283 47 283 80 C283 80 283 85 283 85 C283 85 283 498 283 498 C283 498 283 552 283 552 L283 552 Z " />
<glyph glyph-name="LETTERSMALLCAPITALE" unicode="&#x1d07;" horiz-adv-x="630" d="M544 426 C542 453 540 479 539 505 C539 505 533 583 533 583 C533 583 413 583 413 583 C413 583 283 583 283 583 C283 583 132 583 132 583 C132 583 27 583 27 583 C27 583 27 563 27 563 C27 563 57 563 57 563 C107 563 132 558 132 498 C132 498 132 85 132 85 C132 25 107 20 57 20 C57 20 27 20 27 20 C27 20 27 0 27 0 C27 0 132 0 132 0 C132 0 283 0 283 0 C283 0 438 0 438 0 C438 0 558 0 558 0 C566 51 572 105 580 157 C580 157 560 157 560 157 C560 157 556 127 556 127 C547 64 536 32 443 32 C443 32 363 32 363 32 C283 32 283 48 283 80 C283 80 283 85 283 85 C283 85 283 299 283 299 C283 299 353 299 353 299 C446 299 453 262 453 189 C453 189 453 159 453 159 C453 159 473 159 473 159 C473 159 473 299 473 299 C473 299 473 335 473 335 C473 335 473 475 473 475 C473 475 453 475 453 475 C453 475 453 445 453 445 C453 372 446 335 353 335 C353 335 283 335 283 335 C283 335 283 498 283 498 C283 498 283 551 283 551 C283 551 415 551 415 551 C527 551 518 515 523 444 C523 444 524 426 524 426 C524 426 544 426 544 426 L544 426 Z " />
<glyph glyph-name="LETTERSMALLCAPITALJ" unicode="&#x1d0a;" horiz-adv-x="410" d="M370 583 C370 583 10 583 10 583 C10 583 10 563 10 563 C10 563 40 563 40 563 C90 563 115 559 115 503 C115 503 114 -121 114 -121 C114 -164 75 -167 40 -167 C-44 -167 5 -40 -79 -40 C-126 -40 -150 -64 -150 -111 C-150 -184 -99 -220 3 -220 C125 -220 266 -193 266 165 C266 165 265 503 265 503 C265 559 290 563 340 563 C340 563 370 563 370 563 C370 563 370 583 370 583 L370 583 Z " />
<glyph glyph-name="LETTERSMALLCAPITALK" unicode="&#x1d0b;" horiz-adv-x="764" d="M750 20 C750 20 712 20 712 20 C682 20 647 47 620 81 C620 81 397 388 397 388 C397 388 508 520 508 520 C547 559 573 563 610 563 C610 563 640 563 640 563 C640 563 640 583 640 583 C640 583 562 583 562 583 C562 583 506 583 506 583 C506 583 388 583 388 583 C388 583 366 583 366 583 C366 583 283 583 283 583 C283 583 132 583 132 583 C132 583 27 583 27 583 C27 583 27 563 27 563 C27 563 57 563 57 563 C107 563 132 560 132 523 C132 523 132 60 132 60 C132 23 107 20 57 20 C57 20 27 20 27 20 C27 20 27 0 27 0 C27 0 132 0 132 0 C132 0 283 0 283 0 C283 0 388 0 388 0 C388 0 388 20 388 20 C388 20 358 20 358 20 C308 20 283 23 283 60 C283 60 283 292 283 292 C283 292 462 47 462 47 C498 -1 497 0 497 0 C497 0 679 0 679 0 C679 0 750 0 750 0 C750 0 750 20 750 20 L750 20 Z M366 563 C366 563 388 563 388 563 C388 563 389 563 389 563 C453 563 482 556 412 461 C412 461 283 292 283 292 C283 292 283 523 283 523 C283 560 308 563 358 563 C358 563 366 563 366 563 L366 563 Z " />
<glyph glyph-name="LETTERSMALLCAPITALM" unicode="&#x1d0d;" horiz-adv-x="870" d="M31 563 C31 563 61 563 61 563 C101 563 126 560 149 529 C149 529 133 150 133 150 C133 150 133 150 133 150 C128 29 96 20 33 20 C33 20 3 20 3 20 C3 20 3 0 3 0 C3 0 127 0 127 0 C127 0 180 0 180 0 C180 0 305 0 305 0 C305 0 305 20 305 20 C305 20 275 20 275 20 C216 20 183 27 182 113 C182 113 182 137 182 137 C182 138 182 139 182 140 C182 140 182 140 182 140 C182 140 186 458 186 458 C259 305 331 153 403 0 C403 0 440 0 440 0 C440 0 611 454 611 454 C611 454 623 85 623 85 C623 85 623 85 623 85 C625 25 599 20 548 20 C548 20 518 20 518 20 C518 20 518 0 518 0 C518 0 626 0 626 0 C626 0 776 0 776 0 C776 0 878 0 878 0 C878 0 878 20 878 20 C878 20 848 20 848 20 C799 20 775 25 773 85 C773 85 772 85 772 85 C772 85 758 427 758 427 C756 554 780 563 827 563 C827 563 856 563 856 563 C856 563 856 583 856 583 C856 583 751 583 751 583 C751 583 660 583 660 583 C660 583 607 583 607 583 C607 583 475 205 475 205 C475 205 308 583 308 583 C308 583 188 583 188 583 C188 583 151 583 151 583 C151 583 127 583 127 583 C127 583 31 583 31 583 C31 583 31 563 31 563 L31 563 Z " />
<glyph glyph-name="LETTERSMALLCAPITALO" unicode="&#x1d0f;" horiz-adv-x="839" d="M402 30 C272 30 207 118 207 292 C207 465 271 553 397 553 C540 553 612 465 612 292 C612 118 542 30 402 30 L402 30 Z M34 292 C34 91 155 -10 394 -10 C654 -10 785 91 785 292 C785 492 657 593 404 593 C158 593 34 492 34 292 L34 292 Z " />
<glyph glyph-name="LETTERSMALLCAPITALP" unicode="&#x1d18;" horiz-adv-x="596" d="M65 563 C65 563 95 563 95 563 C145 563 170 558 170 498 C170 498 170 85 170 85 C170 25 145 20 95 20 C95 20 65 20 65 20 C65 20 65 0 65 0 C65 0 170 0 170 0 C170 0 321 0 321 0 C321 0 426 0 426 0 C426 0 426 20 426 20 C426 20 396 20 396 20 C346 20 321 25 321 85 C321 85 321 252 321 252 C321 252 356 252 356 252 C503 252 577 291 577 416 C577 527 515 583 391 583 C391 583 321 583 321 583 C321 583 170 583 170 583 C170 583 65 583 65 583 C65 583 65 563 65 563 L65 563 Z M321 284 C321 284 321 498 321 498 C321 498 321 558 321 558 C321 558 353 558 353 558 C407 558 435 519 435 441 C435 321 408 284 356 284 C356 284 321 284 321 284 L321 284 Z " />
<glyph glyph-name="LETTERSMALLCAPITALT" unicode="&#x1d1b;" horiz-adv-x="715" d="M37 441 C37 441 48 471 48 471 C66 521 82 546 175 546 C175 546 282 546 282 546 C282 546 282 80 282 80 C282 24 257 20 207 20 C207 20 177 20 177 20 C177 20 177 0 177 0 C177 0 538 0 538 0 C538 0 538 20 538 20 C538 20 508 20 508 20 C458 20 433 24 433 80 C433 80 433 546 433 546 C433 546 540 546 540 546 C633 546 649 521 667 471 C667 471 678 441 678 441 C682 442 695 443 697 443 C687 473 676 503 665 533 C665 533 660 547 660 547 C660 547 660 583 660 583 C660 583 647 583 647 583 C647 583 632 623 632 623 C632 623 612 623 612 623 C612 623 616 610 616 610 C623 592 619 583 526 583 C526 583 433 583 433 583 C433 583 282 583 282 583 C282 583 189 583 189 583 C96 583 92 592 99 610 C99 610 103 623 103 623 C103 623 83 623 83 623 C83 623 68 583 68 583 C68 583 55 583 55 583 C55 583 55 547 55 547 C55 547 50 533 50 533 C39 503 28 473 18 443 C22 442 35 441 37 441 L37 441 Z " />
<glyph glyph-name="LETTERSMALLCAPITALU" unicode="&#x1d1c;" horiz-adv-x="761" d="M390 563 C390 563 420 563 420 563 C470 563 495 558 495 498 C495 498 495 189 495 189 C464 121 416 87 352 87 C283 87 248 126 248 202 C248 202 248 498 248 498 C248 498 248 583 248 583 C248 583 -8 583 -8 583 C-8 583 -8 563 -8 563 C-8 563 22 563 22 563 C72 563 97 558 97 498 C97 498 97 202 97 202 C97 61 162 -10 291 -10 C386 -10 455 34 495 121 C495 121 495 110 495 110 C495 110 495 0 495 0 C495 0 519 0 519 0 C519 0 750 55 750 55 C750 55 750 65 750 65 C653 60 646 62 646 110 C646 110 646 498 646 498 C646 498 646 583 646 583 C646 583 390 583 390 583 C390 583 390 563 390 563 L390 563 Z " />
<glyph glyph-name="LETTERSMALLCAPITALV" unicode="&#x1d20;" horiz-adv-x="790" d="M395 583 C395 583 230 583 230 583 C230 583 57 583 57 583 C57 583 2 583 2 583 C2 583 2 563 2 563 C2 563 40 563 40 563 C58 563 69 560 89 523 C89 523 90 523 90 523 C90 523 249 229 249 229 C249 229 378 -10 378 -10 C378 -10 408 -10 408 -10 C408 -10 620 443 620 443 C620 443 620 443 620 443 C621 446 622 448 623 451 C623 451 644 495 644 495 C677 558 703 563 741 563 C741 563 771 563 771 563 C771 563 771 583 771 583 C771 583 685 583 685 583 C685 583 625 583 625 583 C625 583 460 583 460 583 C460 583 460 563 460 563 C460 563 483 563 483 563 C568 563 609 556 572 457 C572 457 378 -10 378 -10 C378 -10 477 229 477 229 C477 229 328 443 328 443 C328 443 328 443 328 443 C268 555 300 563 373 563 C373 563 395 563 395 563 C395 563 395 583 395 583 L395 583 Z " />
<glyph glyph-name="LETTERSMALLCAPITALW" unicode="&#x1d21;" horiz-adv-x="1047" d="M1031 583 C1031 583 943 583 943 583 C943 583 881 583 881 583 C881 583 716 583 716 583 C716 583 716 563 716 563 C716 563 740 563 740 563 C830 563 873 555 841 443 C841 443 841 443 841 443 C841 443 777 218 777 218 C777 218 777 219 777 219 C777 219 621 473 621 473 C621 473 622 473 622 473 C575 557 606 563 676 563 C676 563 699 563 699 563 C699 563 699 583 699 583 C699 583 554 583 554 583 C554 583 380 583 380 583 C380 583 369 583 369 583 C369 583 296 583 296 583 C296 583 224 583 224 583 C224 583 59 583 59 583 C59 583 4 583 4 583 C4 583 4 563 4 563 C4 563 41 563 41 563 C60 563 72 555 129 451 C210 297 291 143 373 -10 C373 -10 412 -10 412 -10 C412 -10 522 330 522 330 C585 217 649 103 712 -10 C712 -10 752 -10 752 -10 C752 -10 898 443 898 443 C898 443 898 443 898 443 C898 444 899 445 899 446 C899 446 912 486 912 486 C938 557 962 563 1001 563 C1001 563 1031 563 1031 563 C1031 563 1031 583 1031 583 L1031 583 Z M336 563 C373 562 395 557 413 523 C413 523 414 523 414 523 C439 478 464 433 489 389 C489 389 431 189 431 189 C431 189 431 191 431 191 C431 191 298 443 298 443 C298 443 298 443 298 443 C242 550 269 562 336 563 C336 563 336 563 336 563 L336 563 Z " />
<glyph glyph-name="LETTERSMALLCAPITALZ" unicode="&#x1d22;" horiz-adv-x="592" d="M189 0 C189 0 386 0 386 0 C386 0 546 0 546 0 C562 66 577 130 595 195 C593 195 587 195 575 198 C575 198 558 154 558 154 C533 89 512 52 432 44 C432 44 214 38 214 38 C214 38 550 552 550 552 C550 552 550 583 550 583 C550 583 402 583 402 583 C402 583 240 583 240 583 C240 583 70 583 70 583 C60 516 51 445 41 377 C57 375 64 373 67 373 C67 373 73 404 73 404 C92 496 111 543 234 543 C234 543 234 543 234 543 C234 543 378 547 378 547 C378 547 25 32 25 32 C25 32 25 0 25 0 C25 0 189 0 189 0 L189 0 Z " />
<glyph glyph-name="Wgrave" unicode="&#x1e80;" horiz-adv-x="1186" d="M1171 750 C1171 750 1082 750 1082 750 C1082 750 1013 750 1013 750 C1013 750 848 750 848 750 C848 750 848 730 848 730 C848 730 873 730 873 730 C963 730 1006 722 977 610 C977 610 977 610 977 610 C977 610 883 243 883 243 C883 243 883 244 883 244 C883 244 683 640 683 640 C683 640 684 640 684 640 C641 724 676 730 750 730 C750 730 773 730 773 730 C773 730 773 750 773 750 C773 750 628 750 628 750 C628 750 434 750 434 750 C434 750 383 750 383 750 C383 750 349 750 349 750 C349 750 238 750 238 750 C238 750 54 750 54 750 C54 750 -2 750 -2 750 C-2 750 -2 730 -2 730 C-2 730 36 730 36 730 C54 730 67 722 120 610 C120 610 121 610 121 610 C219 403 317 197 415 -10 C415 -10 459 -10 459 -10 C459 -10 597 429 597 429 C671 283 744 136 818 -10 C818 -10 862 -10 862 -10 C862 -10 1041 610 1041 610 C1041 610 1042 610 1042 610 C1044 618 1046 625 1048 631 C1048 631 1050 640 1050 640 C1075 723 1099 730 1141 730 C1141 730 1171 730 1171 730 C1171 730 1171 750 1171 750 L1171 750 Z M489 993 C466 1034 452 1054 442 1054 C397 1054 367 1024 367 980 C367 969 385 952 421 925 C421 925 568 810 568 810 C568 810 587 829 587 829 C587 829 489 993 489 993 L489 993 Z M360 730 C360 730 379 730 379 730 C419 730 441 727 460 698 C494 632 527 566 561 499 C561 499 478 209 478 209 C478 209 478 212 478 212 C478 212 300 610 300 610 C300 610 301 610 301 610 C248 722 283 730 360 730 L360 730 Z " />
<glyph glyph-name="Wacute" unicode="&#x1e82;" horiz-adv-x="1186" d="M578 810 C578 810 725 925 725 925 C761 954 779 970 779 980 C779 1024 749 1054 704 1054 C695 1054 681 1034 656 993 C656 993 559 829 559 829 C559 829 578 810 578 810 L578 810 Z M1171 750 C1171 750 1082 750 1082 750 C1082 750 1013 750 1013 750 C1013 750 848 750 848 750 C848 750 848 730 848 730 C848 730 873 730 873 730 C963 730 1006 722 977 610 C977 610 977 610 977 610 C977 610 883 243 883 243 C883 243 883 244 883 244 C883 244 683 640 683 640 C683 640 684 640 684 640 C641 724 676 730 750 730 C750 730 773 730 773 730 C773 730 773 750 773 750 C773 750 628 750 628 750 C628 750 434 750 434 750 C434 750 383 750 383 750 C383 750 349 750 349 750 C349 750 238 750 238 750 C238 750 54 750 54 750 C54 750 -2 750 -2 750 C-2 750 -2 730 -2 730 C-2 730 36 730 36 730 C54 730 67 722 120 610 C120 610 121 610 121 610 C219 403 317 197 415 -10 C415 -10 459 -10 459 -10 C459 -10 597 429 597 429 C671 283 744 136 818 -10 C818 -10 862 -10 862 -10 C862 -10 1041 610 1041 610 C1041 610 1042 610 1042 610 C1044 618 1046 625 1048 631 C1048 631 1050 640 1050 640 C1075 723 1099 730 1141 730 C1141 730 1171 730 1171 730 C1171 730 1171 750 1171 750 L1171 750 Z M360 730 C360 730 379 730 379 730 C419 730 441 727 460 698 C494 632 527 566 561 499 C561 499 478 209 478 209 C478 209 478 212 478 212 C478 212 300 610 300 610 C300 610 301 610 301 610 C248 722 283 730 360 730 L360 730 Z " />
<glyph glyph-name="Wdieresis" unicode="&#x1e84;" horiz-adv-x="1186" d="M654 865 C707 865 734 892 734 945 C734 998 707 1025 654 1025 C601 1025 574 998 574 945 C574 892 601 865 654 865 L654 865 Z M481 865 C534 865 561 892 561 945 C561 998 534 1025 481 1025 C428 1025 401 998 401 945 C401 892 428 865 481 865 L481 865 Z M1171 750 C1171 750 1082 750 1082 750 C1082 750 1013 750 1013 750 C1013 750 848 750 848 750 C848 750 848 730 848 730 C848 730 873 730 873 730 C963 730 1006 722 977 610 C977 610 977 610 977 610 C977 610 883 243 883 243 C883 243 883 244 883 244 C883 244 683 640 683 640 C683 640 684 640 684 640 C641 724 676 730 750 730 C750 730 773 730 773 730 C773 730 773 750 773 750 C773 750 628 750 628 750 C628 750 434 750 434 750 C434 750 383 750 383 750 C383 750 349 750 349 750 C349 750 238 750 238 750 C238 750 54 750 54 750 C54 750 -2 750 -2 750 C-2 750 -2 730 -2 730 C-2 730 36 730 36 730 C54 730 67 722 120 610 C120 610 121 610 121 610 C219 403 317 197 415 -10 C415 -10 459 -10 459 -10 C459 -10 597 429 597 429 C671 283 744 136 818 -10 C818 -10 862 -10 862 -10 C862 -10 1041 610 1041 610 C1041 610 1042 610 1042 610 C1044 618 1046 625 1048 631 C1048 631 1050 640 1050 640 C1075 723 1099 730 1141 730 C1141 730 1171 730 1171 730 C1171 730 1171 750 1171 750 L1171 750 Z M360 730 C360 730 379 730 379 730 C419 730 441 727 460 698 C494 632 527 566 561 499 C561 499 478 209 478 209 C478 209 478 212 478 212 C478 212 300 610 300 610 C300 610 301 610 301 610 C248 722 283 730 360 730 L360 730 Z " />
<glyph glyph-name="CapitalLetterEWITHTI" unicode="&#x1ebc;" horiz-adv-x="703" d="M230 870 C230 903 242 919 264 919 C327 919 364 854 427 854 C496 854 531 909 531 1019 C531 1019 504 1019 504 1019 C504 979 490 959 461 959 C399 959 361 1024 299 1024 C235 1024 203 972 203 870 C203 870 230 870 230 870 L230 870 Z M617 589 C617 589 611 670 611 670 C610 696 608 723 606 750 C606 750 486 750 486 750 C486 750 296 750 296 750 C296 750 128 750 128 750 C128 750 23 750 23 750 C23 750 23 730 23 730 C23 730 53 730 53 730 C103 730 128 725 128 665 C128 665 128 85 128 85 C128 25 103 20 53 20 C53 20 23 20 23 20 C23 20 23 0 23 0 C23 0 128 0 128 0 C128 0 296 0 296 0 C296 0 511 0 511 0 C511 0 631 0 631 0 C639 54 647 107 653 161 C653 161 633 161 633 161 C633 161 629 131 629 131 C620 68 609 36 516 36 C516 36 376 36 376 36 C296 36 296 51 296 80 C296 80 296 85 296 85 C296 85 296 385 296 385 C296 385 426 385 426 385 C519 385 526 348 526 275 C526 275 526 245 526 245 C526 245 546 245 546 245 C546 245 546 385 546 385 C546 385 546 425 546 425 C546 425 546 565 546 565 C546 565 526 565 526 565 C526 565 526 535 526 535 C526 462 519 425 426 425 C426 425 296 425 296 425 C296 425 296 665 296 665 C296 665 296 714 296 714 C296 714 488 714 488 714 C600 714 591 678 596 607 C596 607 597 589 597 589 C597 589 617 589 617 589 L617 589 Z " />
<glyph glyph-name="Ygrave" unicode="&#x1ef2;" horiz-adv-x="848" d="M348 750 C348 750 243 750 243 750 C243 750 46 750 46 750 C46 750 -6 750 -6 750 C-6 750 -6 730 -6 730 C-6 730 32 730 32 730 C49 730 64 723 135 621 C135 621 352 308 352 308 C352 308 352 80 352 80 C352 24 327 20 277 20 C277 20 247 20 247 20 C247 20 247 0 247 0 C247 0 624 0 624 0 C624 0 624 20 624 20 C624 20 594 20 594 20 C544 20 519 24 519 80 C519 80 519 314 519 314 C519 314 681 610 681 610 C681 610 682 610 682 610 C742 722 765 730 801 730 C801 730 832 730 832 730 C832 730 832 750 832 750 C832 750 758 750 758 750 C758 750 674 750 674 750 C674 750 569 750 569 750 C569 750 569 730 569 730 C569 730 595 730 595 730 C633 730 656 726 644 685 C644 685 500 368 500 368 C500 368 337 610 337 610 C337 610 338 610 338 610 C260 722 277 730 324 730 C324 730 348 730 348 730 C348 730 348 750 348 750 L348 750 Z M357 993 C334 1034 319 1054 309 1054 C264 1054 234 1024 234 980 C234 969 252 952 288 925 C288 925 436 810 436 810 C436 810 454 829 454 829 C454 829 357 993 357 993 L357 993 Z " />
<glyph glyph-name="quoteleft" unicode="&#x2018;" horiz-adv-x="708" d="" />
<glyph glyph-name="quoteright" unicode="&#x2019;" horiz-adv-x="248" d="" />
<glyph glyph-name="quotedblleft" unicode="&#x201c;" horiz-adv-x="708" d="M339 640 C320 640 305 634 296 621 C297 691 325 734 379 749 C379 749 369 760 369 760 C291 739 251 682 251 590 C251 530 281 499 339 499 C386 499 410 523 410 569 C410 616 386 640 339 640 L339 640 Z " />
<glyph glyph-name="quotedblright" unicode="&#x201d;" horiz-adv-x="708" d="M382 637 C379 571 342 528 273 509 C273 509 284 499 284 499 C380 524 428 583 428 673 C428 731 398 760 339 760 C293 760 269 736 269 689 C269 643 293 619 339 619 C358 619 372 625 382 637 C382 637 382 637 382 637 L382 637 Z " />
<glyph glyph-name="Euro" unicode="&#x20ac;" horiz-adv-x="845" d="M808 508 C808 508 808 636 808 636 C808 636 808 750 808 750 C808 750 793 750 793 750 C793 750 791 740 788 721 C785 703 761 697 717 721 C674 747 615 760 511 760 C279 760 141 675 97 507 C97 507 70 507 70 507 C70 507 55 400 55 400 C55 400 81 400 81 400 C81 392 81 383 81 375 C81 367 81 358 81 350 C81 350 55 350 55 350 C55 350 40 243 40 243 C40 243 96 243 96 243 C139 75 275 -10 501 -10 C599 -10 662 3 710 29 C710 29 711 29 711 29 C755 53 782 45 788 25 C793 5 796 -5 796 -5 C796 -5 808 -5 808 -5 C808 -5 808 114 808 114 C808 114 808 242 808 242 C808 242 793 242 793 242 C793 242 791 235 788 221 C783 201 773 178 758 156 C758 156 757 157 757 157 C685 72 631 29 517 29 C386 29 305 101 277 243 C277 243 555 243 555 243 C555 243 570 350 570 350 C570 350 265 350 265 350 C265 358 265 367 265 375 C265 383 265 392 265 400 C265 400 570 400 570 400 C570 400 586 507 586 507 C586 507 277 507 277 507 C307 647 391 718 528 718 C560 718 586 715 608 709 C608 709 607 709 607 709 C617 706 627 703 637 699 C682 679 714 644 757 593 C757 593 760 595 760 595 C774 573 783 551 788 529 C791 515 793 508 793 508 C793 508 808 508 808 508 L808 508 Z " />
<glyph glyph-name="LETTERSMALLCAPITALF" unicode="&#xa730;" horiz-adv-x="605" d="M546 435 C542 485 537 535 533 583 C533 583 413 583 413 583 C413 583 283 583 283 583 C283 583 132 583 132 583 C132 583 27 583 27 583 C27 583 27 563 27 563 C27 563 57 563 57 563 C107 563 132 558 132 498 C132 498 132 85 132 85 C132 25 107 20 57 20 C57 20 27 20 27 20 C27 20 27 0 27 0 C27 0 132 0 132 0 C132 0 283 0 283 0 C283 0 388 0 388 0 C388 0 388 20 388 20 C388 20 358 20 358 20 C308 20 283 25 283 85 C283 85 283 264 283 264 C283 264 433 264 433 264 C441 248 445 227 447 200 C447 200 451 154 451 154 C451 154 463 154 463 154 C463 154 463 264 463 264 C463 264 463 299 463 299 C463 299 463 409 463 409 C463 409 451 409 451 409 C451 409 447 363 447 363 C444 320 435 299 343 299 C343 299 283 299 283 299 C283 299 283 498 283 498 C283 498 283 558 283 558 C283 558 335 558 335 558 C503 558 518 526 524 463 C524 463 526 433 526 433 C530 434 544 435 546 435 C546 435 546 435 546 435 L546 435 Z " />
<glyph glyph-name="LETTERSMALLCAPITALS" unicode="&#xa731;" horiz-adv-x="497" d="M421 397 C421 397 421 503 421 503 C421 503 421 593 421 593 C421 593 406 593 406 593 C406 593 404 583 401 565 C400 558 385 558 357 570 C327 585 290 593 245 593 C119 593 55 534 55 417 C55 316 93 251 197 213 C299 176 337 151 337 128 C337 68 305 38 242 38 C235 38 228 38 222 39 C222 39 222 39 222 39 C142 46 83 123 66 196 C63 210 61 217 61 217 C61 217 46 217 46 217 C46 217 46 112 46 112 C46 112 46 -33 46 -33 C46 -33 61 -33 61 -33 C61 -33 63 -21 66 3 C69 23 92 33 133 15 C164 -2 200 -10 242 -10 C385 -10 457 51 457 172 C457 262 411 325 287 370 C203 401 172 433 172 474 C172 529 197 556 245 556 C328 556 385 487 401 419 C404 404 406 397 406 397 C406 397 421 397 421 397 L421 397 Z " />
<glyph glyph-name="[namenotfound]" unicode="&#xf078;" horiz-adv-x="764" d="M737 583 C737 583 670 583 670 583 C670 583 602 583 602 583 C602 583 467 583 467 583 C467 583 467 563 467 563 C467 563 490 563 490 563 C550 563 575 555 498 456 C498 456 413 353 413 353 C413 353 347 443 347 443 C347 443 347 443 347 443 C264 555 287 563 345 563 C345 563 368 563 368 563 C368 563 368 583 368 583 C368 583 243 583 243 583 C243 583 65 583 65 583 C65 583 5 583 5 583 C5 583 5 563 5 563 C5 563 38 563 38 563 C66 563 86 555 168 443 C168 443 168 443 168 443 C168 443 305 257 305 257 C305 257 188 120 188 120 C188 120 187 120 187 120 C108 27 77 20 27 20 C27 20 -3 20 -3 20 C-3 20 -3 0 -3 0 C-3 0 85 0 85 0 C85 0 145 0 145 0 C145 0 330 0 330 0 C330 0 330 20 330 20 C330 20 308 20 308 20 C217 20 172 27 229 108 C229 108 256 143 256 143 C258 145 260 148 262 150 C262 150 261 150 261 150 C261 150 325 231 325 231 C325 231 403 125 403 125 C472 27 448 20 393 20 C393 20 370 20 370 20 C370 20 370 0 370 0 C370 0 495 0 495 0 C495 0 675 0 675 0 C675 0 745 0 745 0 C745 0 745 20 745 20 C745 20 714 20 714 20 C680 20 657 27 587 118 C587 118 433 327 433 327 C433 327 513 413 513 413 C513 413 513 413 513 413 C514 415 516 416 517 418 C517 418 620 529 620 529 C656 560 679 563 706 563 C706 563 737 563 737 563 C737 563 737 583 737 583 L737 583 Z " />
</font>
</svg>
